   0
SECTION
   2
HEADER
   9
$ACADVER
   1
AC1015
   9
$LIMMIN
  10
0.0
  20
0.0
   9
$LIMMAX
  10
 420.00000000000
  20
 297.00000000000
   9
$EXTMIN
  10
0.0
  20
0.0
  30
0.0
   9
$EXTMAX
  10
 420.00000000000
  20
 297.00000000000
  30
0.0
   9
$LTSCALE
  40
 8.4000000000000
   9
$HANDSEED
   5
531
   0
ENDSEC
   0
SECTION
   2
TABLES
  0
TABLE
  2
VPORT
  5
8
100
AcDbSymbolTable
 70
     1
  0
VPORT
  5
530
100
AcDbSymbolTableRecord
100
AcDbViewportTableRecord
  2
*ACTIVE
 70
     0
 10
0.0
 20
0.0
 11
1.0
 21
1.0
  12
 210.00000000000
  22
 148.50000000000
 13
0.0
 23
0.0
 14
1.0
 24
1.0
 15
0.0
 25
0.0
 16
0.0
 26
0.0
 36
1.0
 17
0.0
 27
0.0
 37
0.0
  40
 420.00000000000
  41
 1.4787878787879
 42
50.0
 43
0.0
 44
0.0
 50
0.0
 51
0.0
 71
     0
 72
   100
 73
     1
 74
     1
 75
     0
 76
     0
 77
     0
 78
     0
  0
ENDTAB
  0
TABLE
  2
LTYPE
  5
5
100
AcDbSymbolTable
 70
    25
  0
LTYPE
  5
12
100
AcDbSymbolTableRecord
100
AcDbLinetypeTableRecord
  2
BYBLOCK
 70
     0
  3

 72
    65
 73
     0
 40
0.0
  0
LTYPE
  5
13
100
AcDbSymbolTableRecord
100
AcDbLinetypeTableRecord
  2
BYLAYER
 70
     0
  3

 72
    65
 73
     0
 40
0.0
  0
LTYPE
  5
14
100
AcDbSymbolTableRecord
100
AcDbLinetypeTableRecord
  2
CONTINUOUS
 70
     0
  3
Solid line
 72
    65
 73
     0
 40
0.0
  0
LTYPE
  5
20
100
AcDbSymbolTableRecord
100
AcDbLinetypeTableRecord
  2
BORDER
 70
     0
  3
__ __ . __ __ . __ __ . __ __ . __ __ . __ __ .
 72
    65
 73
     6
 40
1.75
 49
0.5
 74
     0
 49
-0.25
 74
     0
 49
0.5
 74
     0
 49
-0.25
 74
     0
 49
0.0
 74
     0
 49
-0.25
 74
     0
  0
LTYPE
  5
21
100
AcDbSymbolTableRecord
100
AcDbLinetypeTableRecord
  2
BORDER2
 70
     0
  3
__.__.__.__.__.__.__.__.__.__.__.__.__.__.__.__
 72
    65
 73
     6
 40
0.875
 49
0.25
 74
     0
 49
-0.125
 74
     0
 49
0.25
 74
     0
 49
-0.125
 74
     0
 49
0.0
 74
     0
 49
-0.125
 74
     0
  0
LTYPE
  5
22
100
AcDbSymbolTableRecord
100
AcDbLinetypeTableRecord
  2
BORDERX2
 70
     0
  3
____  ____  .  ____  ____  .  ____  ____  .  __
 72
    65
 73
     6
 40
3.5
 49
1.0
 74
     0
 49
-0.5
 74
     0
 49
1.0
 74
     0
 49
-0.5
 74
     0
 49
0.0
 74
     0
 49
-0.5
 74
     0
  0
LTYPE
  5
23
100
AcDbSymbolTableRecord
100
AcDbLinetypeTableRecord
  2
CENTER
 70
     0
  3
____ _ ____ _ ____ _ ____ _ ____ _ ____ _ ____ 
 72
    65
 73
     4
 40
2.0
 49
1.25
 74
     0
 49
-0.25
 74
     0
 49
0.25
 74
     0
 49
-0.25
 74
     0
  0
LTYPE
  5
24
100
AcDbSymbolTableRecord
100
AcDbLinetypeTableRecord
  2
CENTER2
 70
     0
  3
___ _ ___ _ ___ _ ___ _ ___ _ ___ _ ___ _ ___ _
 72
    65
 73
     4
 40
1.125
 49
0.75
 74
     0
 49
-0.125
 74
     0
 49
0.125
 74
     0
 49
-0.125
 74
     0
  0
LTYPE
  5
25
100
AcDbSymbolTableRecord
100
AcDbLinetypeTableRecord
  2
CENTERX2
 70
     0
  3
________  __  ________  __  ________  __  _____
 72
    65
 73
     4
 40
4.0
 49
2.5
 74
     0
 49
-0.5
 74
     0
 49
0.5
 74
     0
 49
-0.5
 74
     0
  0
LTYPE
  5
26
100
AcDbSymbolTableRecord
100
AcDbLinetypeTableRecord
  2
DASHDOT
 70
     0
  3
__ . __ . __ . __ . __ . __ . __ . __ . __ . __
 72
    65
 73
     4
 40
1.0
 49
0.5
 74
     0
 49
-0.25
 74
     0
 49
0.0
 74
     0
 49
-0.25
 74
     0
  0
LTYPE
  5
27
100
AcDbSymbolTableRecord
100
AcDbLinetypeTableRecord
  2
DASHDOT2
 70
     0
  3
_._._._._._._._._._._._._._._._._._._._._._._._
 72
    65
 73
     4
 40
0.5
 49
0.25
 74
     0
 49
-0.125
 74
     0
 49
0.0
 74
     0
 49
-0.125
 74
     0
  0
LTYPE
  5
28
100
AcDbSymbolTableRecord
100
AcDbLinetypeTableRecord
  2
DASHDOTX2
 70
     0
  3
____  .  ____  .  ____  .  ____  .  ____  .  __
 72
    65
 73
     4
 40
2.0
 49
1.0
 74
     0
 49
-0.5
 74
     0
 49
0.0
 74
     0
 49
-0.5
 74
     0
  0
LTYPE
  5
29
100
AcDbSymbolTableRecord
100
AcDbLinetypeTableRecord
  2
DASHED
 70
     0
  3
__ __ __ __ __ __ __ __ __ __ __ __ __ __ __ __
 72
    65
 73
     2
 40
0.75
 49
0.5
 74
     0
 49
-0.25
 74
     0
  0
LTYPE
  5
2A
100
AcDbSymbolTableRecord
100
AcDbLinetypeTableRecord
  2
DASHED2
 70
     0
  3
_ _ _ _ _ _ _ _ _ _ _ _ _ _ _ _ _ _ _ _ _ _ _ _
 72
    65
 73
     2
 40
0.375
 49
0.25
 74
     0
 49
-0.125
 74
     0
  0
LTYPE
  5
2B
100
AcDbSymbolTableRecord
100
AcDbLinetypeTableRecord
  2
DASHEDX2
 70
     0
  3
____  ____  ____  ____  ____  ____  ____  ____ 
 72
    65
 73
     2
 40
1.5
 49
1.0
 74
     0
 49
-0.5
 74
     0
  0
LTYPE
  5
2C
100
AcDbSymbolTableRecord
100
AcDbLinetypeTableRecord
  2
DIVIDE
 70
     0
  3
____ . . ____ . . ____ . . ____ . . ____ . . __
 72
    65
 73
     6
 40
1.25
 49
0.5
 74
     0
 49
-0.25
 74
     0
 49
0.0
 74
     0
 49
-0.25
 74
     0
 49
0.0
 74
     0
 49
-0.25
 74
     0
  0
LTYPE
  5
2D
100
AcDbSymbolTableRecord
100
AcDbLinetypeTableRecord
  2
DIVIDE2
 70
     0
  3
__..__..__..__..__..__..__..__..__..__..__..__.
 72
    65
 73
     6
 40
0.625
 49
0.25
 74
     0
 49
-0.125
 74
     0
 49
0.0
 74
     0
 49
-0.125
 74
     0
 49
0.0
 74
     0
 49
-0.125
 74
     0
  0
LTYPE
  5
2E
100
AcDbSymbolTableRecord
100
AcDbLinetypeTableRecord
  2
DIVIDEX2
 70
     0
  3
________  .  .  ________  .  .  ________  .  . 
 72
    65
 73
     6
 40
2.5
 49
1.0
 74
     0
 49
-0.5
 74
     0
 49
0.0
 74
     0
 49
-0.5
 74
     0
 49
0.0
 74
     0
 49
-0.5
 74
     0
  0
LTYPE
  5
2F
100
AcDbSymbolTableRecord
100
AcDbLinetypeTableRecord
  2
DOT
 70
     0
  3
. . . . . . . . . . . . . . . . . . . . . . . .
 72
    65
 73
     2
 40
0.25
 49
0.0
 74
     0
 49
-0.25
 74
     0
  0
LTYPE
  5
30
100
AcDbSymbolTableRecord
100
AcDbLinetypeTableRecord
  2
DOT2
 70
     0
  3
...............................................
 72
    65
 73
     2
 40
0.125
 49
0.0
 74
     0
 49
-0.125
 74
     0
  0
LTYPE
  5
31
100
AcDbSymbolTableRecord
100
AcDbLinetypeTableRecord
  2
DOTX2
 70
     0
  3
.  .  .  .  .  .  .  .  .  .  .  .  .  .  .  . 
 72
    65
 73
     2
 40
0.5
 49
0.0
 74
     0
 49
-0.5
 74
     0
  0
LTYPE
  5
32
100
AcDbSymbolTableRecord
100
AcDbLinetypeTableRecord
  2
HIDDEN
 70
     0
  3
__ __ __ __ __ __ __ __ __ __ __ __ __ __ __ __
 72
    65
 73
     2
 40
0.375
 49
0.25
 74
     0
 49
-0.125
 74
     0
  0
LTYPE
  5
33
100
AcDbSymbolTableRecord
100
AcDbLinetypeTableRecord
  2
HIDDEN2
 70
     0
  3
_ _ _ _ _ _ _ _ _ _ _ _ _ _ _ _ _ _ _ _ _ _ _ _
 72
    65
 73
     2
 40
0.1875
 49
0.125
 74
     0
 49
-0.0625
 74
     0
  0
LTYPE
  5
34
100
AcDbSymbolTableRecord
100
AcDbLinetypeTableRecord
  2
HIDDENX2
 70
     0
  3
____ ____ ____ ____ ____ ____ ____ ____ ____ __
 72
    65
 73
     2
 40
0.75
 49
0.5
 74
     0
 49
-0.25
 74
     0
  0
LTYPE
  5
35
100
AcDbSymbolTableRecord
100
AcDbLinetypeTableRecord
  2
PHANTOM
 70
     0
  3
______  __  __  ______  __  __  ______  __  __ 
 72
    65
 73
     6
 40
2.5
 49
1.25
 74
     0
 49
-0.25
 74
     0
 49
0.25
 74
     0
 49
-0.25
 74
     0
 49
0.25
 74
     0
 49
-0.25
 74
     0
  0
LTYPE
  5
36
100
AcDbSymbolTableRecord
100
AcDbLinetypeTableRecord
  2
PHANTOM2
 70
     0
  3
___ _ _ ___ _ _ ___ _ _ ___ _ _ ___ _ _ ___ _ _
 72
    65
 73
     6
 40
1.25
 49
0.625
 74
     0
 49
-0.125
 74
     0
 49
0.125
 74
     0
 49
-0.125
 74
     0
 49
0.125
 74
     0
 49
-0.125
 74
     0
  0
LTYPE
  5
37
100
AcDbSymbolTableRecord
100
AcDbLinetypeTableRecord
  2
PHANTOMX2
 70
     0
  3
____________    ____    ____    ____________   
 72
    65
 73
     6
 40
5.0
 49
2.5
 74
     0
 49
-0.5
 74
     0
 49
0.5
 74
     0
 49
-0.5
 74
     0
 49
0.5
 74
     0
 49
-0.5
 74
     0
  0
ENDTAB
   0
TABLE
   2
LAYER
   5
2
 100
AcDbSymbolTable
  70
2
   0
LAYER
   5
E
 100
AcDbSymbolTableRecord
 100
AcDbLayerTableRecord
   2
0
  70
0
  62
7
   6
CONTINUOUS
 390
30
   0
LAYER
   5
39
 100
AcDbSymbolTableRecord
 100
AcDbLayerTableRecord
   2
FORMAT
  70
0
  62
7
   6
CONTINUOUS
 390
30
   0
ENDTAB
  0
TABLE
  2
STYLE
  5
3
100
AcDbSymbolTable
  70
3
  0
STYLE
  5
F
100
AcDbSymbolTableRecord
100
AcDbTextStyleTableRecord
  2
STANDARD
 70
     0
 40
0.0
 41
1.0
 50
0.0
 71
     0
 42
0.2
  3
TXT
  4
BIGFONT
  0
STYLE
  5
38
100
AcDbSymbolTableRecord
100
AcDbTextStyleTableRecord
  2
STANDARD1
 70
     4
 40
0.0
 41
1.0
 50
0.0
 71
     0
 42
0.2
  3
TXT
  4
BIGFONT
   0
STYLE
   5
3A
 100
AcDbSymbolTableRecord
 100
AcDbTextStyleTableRecord
   2
GMM001
  70
0
  40
0.0
  41
 0.84210526315789
  50
0.0
  71
     0
  42
1.0
   3
txt.shx
   4
bigfont.shx
   0
ENDTAB
  0
TABLE
  2
VIEW
  5
6
100
AcDbSymbolTable
 70
     0
  0
ENDTAB
  0
TABLE
  2
UCS
  5
7
100
AcDbSymbolTable
 70
     0
  0
ENDTAB
  0
TABLE
  2
APPID
  5
9
100
AcDbSymbolTable
 70
     1
  0
APPID
  5
10
100
AcDbSymbolTableRecord
100
AcDbRegAppTableRecord
  2
ACAD
 70
     0
  0
ENDTAB
   0
TABLE
   2
DIMSTYLE
   5
A
 100
AcDbSymbolTable
  70
8
 100
AcDbDimStyleTable
  0
DIMSTYLE
105
1D
100
AcDbSymbolTableRecord
100
AcDbDimStyleTableRecord
  2
STANDARD
 70
     0
  3

  4

  5

  6

  7

 40
1.0
 41
0.18
 42
0.0625
 43
0.38
 44
0.18
 45
0.0
 46
0.0
 47
0.0
 48
0.0
140
0.18
141
0.09
142
0.0
143
25.4
144
1.0
145
0.0
146
1.0
147
0.09
 71
     0
 72
     0
 73
     1
 74
     1
 75
     0
 76
     0
 77
     0
 78
     0
170
     0
171
     2
172
     0
173
     0
174
     0
175
     0
176
     0
177
     0
178
     0
270
     2
271
     4
272
     4
273
     2
274
     2
340
F
275
     0
280
     0
281
     0
282
     0
283
     1
284
     0
285
     0
286
     0
287
     3
288
     0
   0
DIMSTYLE
 105
3B
 100
AcDbSymbolTableRecord
 100
AcDbDimStyleTableRecord
   2
GMM001
  70
0
   3
R<>
   4

   5

   6
_NONE
   7
_OPEN30
  40
 1.0000000000000
  41
 3.0000000000000
  42
 1.0000000000000
  43
 8.0000000000000
  44
 2.0000000000000
  45
0.0
  46
0.0
  47
0.0
  48
0.0
 140
 3.8000000000000
 141
 1.0000000000000
 142
0.0
 143
 0.39400000000000E-1
 144
 1.0000000000000
 145
0.0
 146
 0.65789473684211
 147
 1.6285714285714
  71
0
  72
0
  73
0
  74
0
  75
0
  76
0
  77
3
  78
8
 170
0
 171
2
 172
1
 173
1
 174
0
 175
0
 176
2
 177
2
 178
2
 270
2
 271
6
 272
0
 273
2
 274
2
 340
3A
 275
0
 280
0
 281
0
 282
0
 283
1
 284
0
 285
0
 286
0
 287
3
 288
1
   0
DIMSTYLE
 105
3C
 100
AcDbSymbolTableRecord
 100
AcDbDimStyleTableRecord
   2
GMM002
  70
0
   3

   4

   5

   6
_OPEN30
   7
_OPEN30
  40
 1.0000000000000
  41
 3.0000000000000
  42
 1.0000000000000
  43
 8.0000000000000
  44
 2.0000000000000
  45
0.0
  46
0.0
  47
0.0
  48
0.0
 140
 3.8000000000000
 141
 1.0000000000000
 142
0.0
 143
 0.39400000000000E-1
 144
 1.0000000000000
 145
0.0
 146
 0.65789473684211
 147
 1.6285714285714
  71
0
  72
0
  73
0
  74
0
  75
0
  76
0
  77
3
  78
8
 170
0
 171
2
 172
1
 173
1
 174
0
 175
0
 176
2
 177
2
 178
2
 270
2
 271
6
 272
0
 273
2
 274
2
 340
3A
 275
0
 280
0
 281
0
 282
0
 283
1
 284
0
 285
0
 286
0
 287
3
 288
0
   0
DIMSTYLE
 105
3D
 100
AcDbSymbolTableRecord
 100
AcDbDimStyleTableRecord
   2
GMM003
  70
0
   3
上下調整1～7<>
   4

   5

   6
_OPEN30
   7
_OPEN30
  40
 1.0000000000000
  41
 3.0000000000000
  42
 1.0000000000000
  43
 8.0000000000000
  44
 2.0000000000000
  45
0.0
  46
0.0
  47
0.0
  48
0.0
 140
 3.8000000000000
 141
 1.0000000000000
 142
0.0
 143
 0.39400000000000E-1
 144
 1.0000000000000
 145
0.0
 146
 0.65789473684211
 147
 1.6285714285714
  71
0
  72
0
  73
0
  74
0
  75
0
  76
0
  77
3
  78
8
 170
0
 171
2
 172
1
 173
1
 174
0
 175
0
 176
2
 177
2
 178
2
 270
2
 271
6
 272
0
 273
2
 274
2
 340
3A
 275
0
 280
0
 281
0
 282
0
 283
1
 284
0
 285
0
 286
0
 287
3
 288
1
   0
DIMSTYLE
 105
3E
 100
AcDbSymbolTableRecord
 100
AcDbDimStyleTableRecord
   2
GMM004
  70
0
   3
%%c<>
   4

   5

   6
_OPEN30
   7
_OPEN30
  40
 1.0000000000000
  41
 3.0000000000000
  42
 1.0000000000000
  43
 8.0000000000000
  44
 2.0000000000000
  45
0.0
  46
0.0
  47
0.0
  48
0.0
 140
 3.8000000000000
 141
 1.0000000000000
 142
0.0
 143
 0.39400000000000E-1
 144
 1.0000000000000
 145
0.0
 146
 0.65789473684211
 147
 1.6285714285714
  71
0
  72
0
  73
0
  74
0
  75
0
  76
0
  77
3
  78
8
 170
0
 171
2
 172
1
 173
1
 174
0
 175
0
 176
2
 177
2
 178
2
 270
2
 271
6
 272
0
 273
2
 274
2
 340
3A
 275
0
 280
0
 281
0
 282
0
 283
1
 284
0
 285
0
 286
0
 287
3
 288
1
   0
DIMSTYLE
 105
3F
 100
AcDbSymbolTableRecord
 100
AcDbDimStyleTableRecord
   2
GMM005
  70
0
   3

   4

   5

   6
_OPEN30
   7
_OPEN30
  40
 1.0000000000000
  41
 3.0000000000000
  42
 1.0000000000000
  43
 8.0000000000000
  44
 2.0000000000000
  45
0.0
  46
0.0
  47
0.0
  48
0.0
 140
 3.8000000000000
 141
 1.0000000000000
 142
0.0
 143
 0.39400000000000E-1
 144
 1.0000000000000
 145
0.0
 146
 0.65789473684211
 147
 1.6285714285714
  71
0
  72
0
  73
0
  74
0
  75
0
  76
0
  77
3
  78
8
 170
0
 171
2
 172
1
 173
1
 174
0
 175
0
 176
2
 177
2
 178
2
 270
2
 271
6
 272
0
 273
2
 274
2
 340
3A
 275
0
 280
0
 281
0
 282
0
 283
1
 284
0
 285
0
 286
0
 287
3
 288
1
   0
DIMSTYLE
 105
40
 100
AcDbSymbolTableRecord
 100
AcDbDimStyleTableRecord
   2
GMM006
  70
0
   3
%%c<>
   4

   5

   6
_OPEN30
   7
_OPEN30
  40
 1.0000000000000
  41
 3.0000000000000
  42
 1.0000000000000
  43
 8.0000000000000
  44
 2.0000000000000
  45
0.0
  46
0.0
  47
0.0
  48
0.0
 140
 3.8000000000000
 141
 1.0000000000000
 142
0.0
 143
 0.39400000000000E-1
 144
 1.0000000000000
 145
0.0
 146
 0.65789473684211
 147
 1.6285714285714
  71
0
  72
0
  73
0
  74
0
  75
0
  76
0
  77
3
  78
8
 170
0
 171
2
 172
1
 173
1
 174
0
 175
0
 176
2
 177
2
 178
2
 270
2
 271
6
 272
0
 273
2
 274
2
 340
3A
 275
0
 280
0
 281
0
 282
0
 283
1
 284
0
 285
0
 286
0
 287
3
 288
0
   0
ENDTAB
  0
TABLE
  2
BLOCK_RECORD
  5
1
100
AcDbSymbolTable
 70
     0
  0
BLOCK_RECORD
  5
18
100
AcDbSymbolTableRecord
100
AcDbBlockTableRecord
  2
*MODEL_SPACE
  0
BLOCK_RECORD
  5
15
100
AcDbSymbolTableRecord
100
AcDbBlockTableRecord
  2
*PAPER_SPACE
   0
BLOCK_RECORD
   5
41
 100
AcDbSymbolTableRecord
 100
AcDbBlockTableRecord
   2
*D1
   0
BLOCK_RECORD
   5
42
 100
AcDbSymbolTableRecord
 100
AcDbBlockTableRecord
   2
*D2
   0
BLOCK_RECORD
   5
43
 100
AcDbSymbolTableRecord
 100
AcDbBlockTableRecord
   2
*D3
   0
BLOCK_RECORD
   5
44
 100
AcDbSymbolTableRecord
 100
AcDbBlockTableRecord
   2
*D4
   0
BLOCK_RECORD
   5
45
 100
AcDbSymbolTableRecord
 100
AcDbBlockTableRecord
   2
*D5
   0
BLOCK_RECORD
   5
46
 100
AcDbSymbolTableRecord
 100
AcDbBlockTableRecord
   2
*D6
   0
BLOCK_RECORD
   5
47
 100
AcDbSymbolTableRecord
 100
AcDbBlockTableRecord
   2
*D7
   0
BLOCK_RECORD
   5
48
 100
AcDbSymbolTableRecord
 100
AcDbBlockTableRecord
   2
*D8
   0
BLOCK_RECORD
   5
49
 100
AcDbSymbolTableRecord
 100
AcDbBlockTableRecord
   2
*D9
   0
BLOCK_RECORD
   5
4A
 100
AcDbSymbolTableRecord
 100
AcDbBlockTableRecord
   2
*D10
   0
BLOCK_RECORD
   5
4B
 100
AcDbSymbolTableRecord
 100
AcDbBlockTableRecord
   2
*D11
   0
BLOCK_RECORD
   5
4C
 100
AcDbSymbolTableRecord
 100
AcDbBlockTableRecord
   2
*D12
   0
BLOCK_RECORD
   5
4D
 100
AcDbSymbolTableRecord
 100
AcDbBlockTableRecord
   2
*D13
   0
BLOCK_RECORD
   5
4E
 100
AcDbSymbolTableRecord
 100
AcDbBlockTableRecord
   2
*D14
   0
BLOCK_RECORD
   5
4F
 100
AcDbSymbolTableRecord
 100
AcDbBlockTableRecord
   2
*D15
   0
BLOCK_RECORD
   5
50
 100
AcDbSymbolTableRecord
 100
AcDbBlockTableRecord
   2
*D16
   0
BLOCK_RECORD
   5
51
 100
AcDbSymbolTableRecord
 100
AcDbBlockTableRecord
   2
*D17
   0
BLOCK_RECORD
   5
52
 100
AcDbSymbolTableRecord
 100
AcDbBlockTableRecord
   2
*D18
   0
BLOCK_RECORD
   5
53
 100
AcDbSymbolTableRecord
 100
AcDbBlockTableRecord
   2
*D19
   0
BLOCK_RECORD
   5
54
 100
AcDbSymbolTableRecord
 100
AcDbBlockTableRecord
   2
*D20
   0
BLOCK_RECORD
   5
55
 100
AcDbSymbolTableRecord
 100
AcDbBlockTableRecord
   2
*D21
   0
BLOCK_RECORD
   5
56
 100
AcDbSymbolTableRecord
 100
AcDbBlockTableRecord
   2
*D22
   0
BLOCK_RECORD
   5
57
 100
AcDbSymbolTableRecord
 100
AcDbBlockTableRecord
   2
*D23
   0
BLOCK_RECORD
   5
58
 100
AcDbSymbolTableRecord
 100
AcDbBlockTableRecord
   2
*D24
   0
BLOCK_RECORD
   5
59
 100
AcDbSymbolTableRecord
 100
AcDbBlockTableRecord
   2
_ARCHTICK
   0
BLOCK_RECORD
   5
5A
 100
AcDbSymbolTableRecord
 100
AcDbBlockTableRecord
   2
_BOXBLANK
   0
BLOCK_RECORD
   5
5B
 100
AcDbSymbolTableRecord
 100
AcDbBlockTableRecord
   2
_BOXFILLED
   0
BLOCK_RECORD
   5
5C
 100
AcDbSymbolTableRecord
 100
AcDbBlockTableRecord
   2
_CLOSED
   0
BLOCK_RECORD
   5
5D
 100
AcDbSymbolTableRecord
 100
AcDbBlockTableRecord
   2
_CLOSEDBLANK
   0
BLOCK_RECORD
   5
5E
 100
AcDbSymbolTableRecord
 100
AcDbBlockTableRecord
   2
_DATUMBLANK
   0
BLOCK_RECORD
   5
5F
 100
AcDbSymbolTableRecord
 100
AcDbBlockTableRecord
   2
_DATUMFILLED
   0
BLOCK_RECORD
   5
60
 100
AcDbSymbolTableRecord
 100
AcDbBlockTableRecord
   2
_DOT
   0
BLOCK_RECORD
   5
61
 100
AcDbSymbolTableRecord
 100
AcDbBlockTableRecord
   2
_DOTBLANK
   0
BLOCK_RECORD
   5
62
 100
AcDbSymbolTableRecord
 100
AcDbBlockTableRecord
   2
_DOTSMALL
   0
BLOCK_RECORD
   5
63
 100
AcDbSymbolTableRecord
 100
AcDbBlockTableRecord
   2
_INTEGRAL
   0
BLOCK_RECORD
   5
64
 100
AcDbSymbolTableRecord
 100
AcDbBlockTableRecord
   2
_NONE
   0
BLOCK_RECORD
   5
65
 100
AcDbSymbolTableRecord
 100
AcDbBlockTableRecord
   2
_OBLIQUE
   0
BLOCK_RECORD
   5
66
 100
AcDbSymbolTableRecord
 100
AcDbBlockTableRecord
   2
_OPEN
   0
BLOCK_RECORD
   5
67
 100
AcDbSymbolTableRecord
 100
AcDbBlockTableRecord
   2
_OPEN30
   0
BLOCK_RECORD
   5
68
 100
AcDbSymbolTableRecord
 100
AcDbBlockTableRecord
   2
_OPEN90
   0
BLOCK_RECORD
   5
69
 100
AcDbSymbolTableRecord
 100
AcDbBlockTableRecord
   2
_ORIGIN
   0
ENDTAB
   0
ENDSEC
  0
SECTION
  2
BLOCKS
  0
BLOCK
  5
19
100
AcDbEntity
  8
0
100
AcDbBlockBegin
  2
*MODEL_SPACE
 70
     0
 10
0.0
 20
0.0
 30
0.0
  3
*MODEL_SPACE
  1

  0
ENDBLK
  5
1A
100
AcDbEntity
  8
0
100
AcDbBlockEnd
  0
BLOCK
  5
16
100
AcDbEntity
 67
     1
  8
0
100
AcDbBlockBegin
  2
*PAPER_SPACE
 70
     0
 10
0.0
 20
0.0
 30
0.0
  3
*PAPER_SPACE
  1

  0
ENDBLK
  5
17
100
AcDbEntity
 67
     1
  8
0
100
AcDbBlockEnd
   0
BLOCK
   5
6A
 100
AcDbEntity
   8
0
 100
AcDbBlockBegin
   2
_ARCHTICK
  70
0
  10
0.0
  20
0.0
  30
0.0
   3
_ARCHTICK
   0
POLYLINE
   5
6B
 100
AcDbEntity
   8
0
   6
BYBLOCK
  62
0
 100
AcDb2dPolyline
  66
1
  10
0.0
  20
0.0
  30
0.0
  70
1
  40
 0.15000000000000
  41
 0.15000000000000
   0
VERTEX
   5
6C
 100
AcDbEntity
   8
0
   6
BYBLOCK
  62
0
 100
AcDbVertex
 100
AcDb2dVertex
  10
-0.50000000000000
  20
-0.50000000000000
  30
0.0
  40
 0.15000000000000
  41
 0.15000000000000
   0
VERTEX
   5
6D
 100
AcDbEntity
   8
0
   6
BYBLOCK
  62
0
 100
AcDbVertex
 100
AcDb2dVertex
  10
 0.50000000000000
  20
 0.50000000000000
  30
0.0
  40
 0.15000000000000
  41
 0.15000000000000
   0
SEQEND
   5
6E
 100
AcDbEntity
   8
0
   6
BYBLOCK
  62
0
   0
ENDBLK
   5
6F
 100
AcDbEntity
   8
0
 100
AcDbBlockEnd
   0
BLOCK
   5
70
 100
AcDbEntity
   8
0
 100
AcDbBlockBegin
   2
_OBLIQUE
  70
0
  10
0.0
  20
0.0
  30
0.0
   3
_OBLIQUE
   0
LINE
   5
71
 100
AcDbEntity
   8
0
 100
AcDbLine
   6
BYBLOCK
  62
0
  10
-0.50000000000000
  20
-0.50000000000000
  30
0.0
  11
 0.50000000000000
  21
 0.50000000000000
  31
0.0
   0
ENDBLK
   5
72
 100
AcDbEntity
   8
0
 100
AcDbBlockEnd
   0
BLOCK
   5
73
 100
AcDbEntity
   8
0
 100
AcDbBlockBegin
   2
_BOXBLANK
  70
0
  10
0.0
  20
0.0
  30
0.0
   3
_BOXBLANK
   0
LINE
   5
74
 100
AcDbEntity
   8
0
 100
AcDbLine
   6
BYBLOCK
  62
0
  10
-0.50000000000000
  20
-0.50000000000000
  30
0.0
  11
 0.50000000000000
  21
-0.50000000000000
  31
0.0
   0
LINE
   5
75
 100
AcDbEntity
   8
0
 100
AcDbLine
   6
BYBLOCK
  62
0
  10
 0.50000000000000
  20
-0.50000000000000
  30
0.0
  11
 0.50000000000000
  21
 0.50000000000000
  31
0.0
   0
LINE
   5
76
 100
AcDbEntity
   8
0
 100
AcDbLine
   6
BYBLOCK
  62
0
  10
 0.50000000000000
  20
 0.50000000000000
  30
0.0
  11
-0.50000000000000
  21
 0.50000000000000
  31
0.0
   0
LINE
   5
77
 100
AcDbEntity
   8
0
 100
AcDbLine
   6
BYBLOCK
  62
0
  10
-0.50000000000000
  20
 0.50000000000000
  30
0.0
  11
-0.50000000000000
  21
-0.50000000000000
  31
0.0
   0
LINE
   5
78
 100
AcDbEntity
   8
0
 100
AcDbLine
   6
BYBLOCK
  62
0
  10
-0.50000000000000
  20
0.0
  30
0.0
  11
-1.0000000000000
  21
0.0
  31
0.0
   0
ENDBLK
   5
79
 100
AcDbEntity
   8
0
 100
AcDbBlockEnd
   0
BLOCK
   5
7A
 100
AcDbEntity
   8
0
 100
AcDbBlockBegin
   2
_BOXFILLED
  70
0
  10
0.0
  20
0.0
  30
0.0
   3
_BOXFILLED
   0
SOLID
   5
7B
 100
AcDbEntity
   8
0
 100
AcDbTrace
   6
BYBLOCK
  62
0
  10
-0.50000000000000
  20
 0.50000000000000
  30
0.0
  11
 0.50000000000000
  21
 0.50000000000000
  31
0.0
  12
-0.50000000000000
  22
-0.50000000000000
  32
0.0
  13
 0.50000000000000
  23
-0.50000000000000
  33
0.0
   0
LINE
   5
7C
 100
AcDbEntity
   8
0
 100
AcDbLine
   6
BYBLOCK
  62
0
  10
-0.50000000000000
  20
0.0
  30
0.0
  11
-1.0000000000000
  21
0.0
  31
0.0
   0
ENDBLK
   5
7D
 100
AcDbEntity
   8
0
 100
AcDbBlockEnd
   0
BLOCK
   5
7E
 100
AcDbEntity
   8
0
 100
AcDbBlockBegin
   2
_CLOSED
  70
0
  10
0.0
  20
0.0
  30
0.0
   3
_CLOSED
   0
LINE
   5
7F
 100
AcDbEntity
   8
0
 100
AcDbLine
   6
BYBLOCK
  62
0
  10
-1.0000000000000
  20
 0.16666666666667
  30
0.0
  11
0.0
  21
0.0
  31
0.0
   0
LINE
   5
80
 100
AcDbEntity
   8
0
 100
AcDbLine
   6
BYBLOCK
  62
0
  10
0.0
  20
0.0
  30
0.0
  11
-1.0000000000000
  21
-0.16666666666667
  31
0.0
   0
LINE
   5
81
 100
AcDbEntity
   8
0
 100
AcDbLine
   6
BYBLOCK
  62
0
  10
-1.0000000000000
  20
 0.16666666666667
  30
0.0
  11
-1.0000000000000
  21
-0.16666666666667
  31
0.0
   0
LINE
   5
82
 100
AcDbEntity
   8
0
 100
AcDbLine
   6
BYBLOCK
  62
0
  10
0.0
  20
0.0
  30
0.0
  11
-1.0000000000000
  21
0.0
  31
0.0
   0
ENDBLK
   5
83
 100
AcDbEntity
   8
0
 100
AcDbBlockEnd
   0
BLOCK
   5
84
 100
AcDbEntity
   8
0
 100
AcDbBlockBegin
   2
_OPEN
  70
0
  10
0.0
  20
0.0
  30
0.0
   3
_OPEN
   0
LINE
   5
85
 100
AcDbEntity
   8
0
 100
AcDbLine
   6
BYBLOCK
  62
0
  10
-1.0000000000000
  20
 0.16666666666667
  30
0.0
  11
0.0
  21
0.0
  31
0.0
   0
LINE
   5
86
 100
AcDbEntity
   8
0
 100
AcDbLine
   6
BYBLOCK
  62
0
  10
0.0
  20
0.0
  30
0.0
  11
-1.0000000000000
  21
-0.16666666666667
  31
0.0
   0
LINE
   5
87
 100
AcDbEntity
   8
0
 100
AcDbLine
   6
BYBLOCK
  62
0
  10
0.0
  20
0.0
  30
0.0
  11
-1.0000000000000
  21
0.0
  31
0.0
   0
ENDBLK
   5
88
 100
AcDbEntity
   8
0
 100
AcDbBlockEnd
   0
BLOCK
   5
89
 100
AcDbEntity
   8
0
 100
AcDbBlockBegin
   2
_OPEN30
  70
0
  10
0.0
  20
0.0
  30
0.0
   3
_OPEN30
   0
LINE
   5
8A
 100
AcDbEntity
   8
0
 100
AcDbLine
   6
BYBLOCK
  62
0
  10
-1.0000000000000
  20
 0.26794919243110
  30
0.0
  11
0.0
  21
0.0
  31
0.0
   0
LINE
   5
8B
 100
AcDbEntity
   8
0
 100
AcDbLine
   6
BYBLOCK
  62
0
  10
0.0
  20
0.0
  30
0.0
  11
-1.0000000000000
  21
-0.26794919243110
  31
0.0
   0
LINE
   5
8C
 100
AcDbEntity
   8
0
 100
AcDbLine
   6
BYBLOCK
  62
0
  10
0.0
  20
0.0
  30
0.0
  11
-1.0000000000000
  21
0.0
  31
0.0
   0
ENDBLK
   5
8D
 100
AcDbEntity
   8
0
 100
AcDbBlockEnd
   0
BLOCK
   5
8E
 100
AcDbEntity
   8
0
 100
AcDbBlockBegin
   2
_OPEN90
  70
0
  10
0.0
  20
0.0
  30
0.0
   3
_OPEN90
   0
LINE
   5
8F
 100
AcDbEntity
   8
0
 100
AcDbLine
   6
BYBLOCK
  62
0
  10
-0.50000000000000
  20
 0.50000000000000
  30
0.0
  11
0.0
  21
0.0
  31
0.0
   0
LINE
   5
90
 100
AcDbEntity
   8
0
 100
AcDbLine
   6
BYBLOCK
  62
0
  10
0.0
  20
0.0
  30
0.0
  11
-0.50000000000000
  21
-0.50000000000000
  31
0.0
   0
LINE
   5
91
 100
AcDbEntity
   8
0
 100
AcDbLine
   6
BYBLOCK
  62
0
  10
0.0
  20
0.0
  30
0.0
  11
-1.0000000000000
  21
0.0
  31
0.0
   0
ENDBLK
   5
92
 100
AcDbEntity
   8
0
 100
AcDbBlockEnd
   0
BLOCK
   5
93
 100
AcDbEntity
   8
0
 100
AcDbBlockBegin
   2
_CLOSEDBLANK
  70
0
  10
0.0
  20
0.0
  30
0.0
   3
_CLOSEDBLANK
   0
LINE
   5
94
 100
AcDbEntity
   8
0
 100
AcDbLine
   6
BYBLOCK
  62
0
  10
-1.0000000000000
  20
 0.16666666666667
  30
0.0
  11
0.0
  21
0.0
  31
0.0
   0
LINE
   5
95
 100
AcDbEntity
   8
0
 100
AcDbLine
   6
BYBLOCK
  62
0
  10
0.0
  20
0.0
  30
0.0
  11
-1.0000000000000
  21
-0.16666666666667
  31
0.0
   0
LINE
   5
96
 100
AcDbEntity
   8
0
 100
AcDbLine
   6
BYBLOCK
  62
0
  10
-1.0000000000000
  20
 0.16666666666667
  30
0.0
  11
-1.0000000000000
  21
-0.16666666666667
  31
0.0
   0
ENDBLK
   5
97
 100
AcDbEntity
   8
0
 100
AcDbBlockEnd
   0
BLOCK
   5
98
 100
AcDbEntity
   8
0
 100
AcDbBlockBegin
   2
_DOT
  70
0
  10
0.0
  20
0.0
  30
0.0
   3
_DOT
   0
POLYLINE
   5
99
 100
AcDbEntity
   8
0
   6
BYBLOCK
  62
0
 100
AcDb2dPolyline
  66
1
  10
0.0
  20
0.0
  30
0.0
  70
1
  40
 0.50000000000000
  41
 0.50000000000000
   0
VERTEX
   5
9A
 100
AcDbEntity
   8
0
   6
BYBLOCK
  62
0
 100
AcDbVertex
 100
AcDb2dVertex
  10
-0.25000000000000
  20
0.0
  30
0.0
  42
 1.0000000000000
  40
 0.50000000000000
  41
 0.50000000000000
   0
VERTEX
   5
9B
 100
AcDbEntity
   8
0
   6
BYBLOCK
  62
0
 100
AcDbVertex
 100
AcDb2dVertex
  10
 0.25000000000000
  20
0.0
  30
0.0
  42
 1.0000000000000
  40
 0.50000000000000
  41
 0.50000000000000
   0
SEQEND
   5
9C
 100
AcDbEntity
   8
0
   6
BYBLOCK
  62
0
   0
LINE
   5
9D
 100
AcDbEntity
   8
0
 100
AcDbLine
   6
BYBLOCK
  62
0
  10
-0.50000000000000
  20
0.0
  30
0.0
  11
-1.0000000000000
  21
0.0
  31
0.0
   0
ENDBLK
   5
9E
 100
AcDbEntity
   8
0
 100
AcDbBlockEnd
   0
BLOCK
   5
9F
 100
AcDbEntity
   8
0
 100
AcDbBlockBegin
   2
_DOTSMALL
  70
0
  10
0.0
  20
0.0
  30
0.0
   3
_DOTSMALL
   0
POLYLINE
   5
A0
 100
AcDbEntity
   8
0
   6
BYBLOCK
  62
0
 100
AcDb2dPolyline
  66
1
  10
0.0
  20
0.0
  30
0.0
  70
1
  40
 0.50000000000000
  41
 0.50000000000000
   0
VERTEX
   5
A1
 100
AcDbEntity
   8
0
   6
BYBLOCK
  62
0
 100
AcDbVertex
 100
AcDb2dVertex
  10
-0.62500000000000E-1
  20
0.0
  30
0.0
  42
 1.0000000000000
  40
 0.50000000000000
  41
 0.50000000000000
   0
VERTEX
   5
A2
 100
AcDbEntity
   8
0
   6
BYBLOCK
  62
0
 100
AcDbVertex
 100
AcDb2dVertex
  10
 0.62500000000000E-1
  20
0.0
  30
0.0
  42
 1.0000000000000
  40
 0.50000000000000
  41
 0.50000000000000
   0
SEQEND
   5
A3
 100
AcDbEntity
   8
0
   6
BYBLOCK
  62
0
   0
ENDBLK
   5
A4
 100
AcDbEntity
   8
0
 100
AcDbBlockEnd
   0
BLOCK
   5
A5
 100
AcDbEntity
   8
0
 100
AcDbBlockBegin
   2
_DATUMBLANK
  70
0
  10
0.0
  20
0.0
  30
0.0
   3
_DATUMBLANK
   0
LINE
   5
A6
 100
AcDbEntity
   8
0
 100
AcDbLine
   6
BYBLOCK
  62
0
  10
0.0
  20
 0.57735027000000
  30
0.0
  11
-1.0000000000000
  21
0.0
  31
0.0
   0
LINE
   5
A7
 100
AcDbEntity
   8
0
 100
AcDbLine
   6
BYBLOCK
  62
0
  10
-1.0000000000000
  20
0.0
  30
0.0
  11
0.0
  21
-0.57735027000000
  31
0.0
   0
LINE
   5
A8
 100
AcDbEntity
   8
0
 100
AcDbLine
   6
BYBLOCK
  62
0
  10
0.0
  20
-0.57735027000000
  30
0.0
  11
0.0
  21
 0.57735027000000
  31
0.0
   0
ENDBLK
   5
A9
 100
AcDbEntity
   8
0
 100
AcDbBlockEnd
   0
BLOCK
   5
AA
 100
AcDbEntity
   8
0
 100
AcDbBlockBegin
   2
_DATUMFILLED
  70
0
  10
0.0
  20
0.0
  30
0.0
   3
_DATUMFILLED
   0
SOLID
   5
AB
 100
AcDbEntity
   8
0
 100
AcDbTrace
   6
BYBLOCK
  62
0
  10
0.0
  20
 0.57735027000000
  30
0.0
  11
-1.0000000000000
  21
0.0
  31
0.0
  12
0.0
  22
-0.57735027000000
  32
0.0
  13
0.0
  23
-0.57735027000000
  33
0.0
   0
ENDBLK
   5
AC
 100
AcDbEntity
   8
0
 100
AcDbBlockEnd
   0
BLOCK
   5
AD
 100
AcDbEntity
   8
0
 100
AcDbBlockBegin
   2
_ORIGIN
  70
0
  10
0.0
  20
0.0
  30
0.0
   3
_ORIGIN
   0
CIRCLE
   5
AE
 100
AcDbEntity
   8
0
 100
AcDbCircle
   6
BYBLOCK
  62
0
  10
0.0
  20
0.0
  30
0.0
  40
 0.50000000000000
   0
LINE
   5
AF
 100
AcDbEntity
   8
0
 100
AcDbLine
   6
BYBLOCK
  62
0
  10
0.0
  20
0.0
  30
0.0
  11
-1.0000000000000
  21
0.0
  31
0.0
   0
ENDBLK
   5
B0
 100
AcDbEntity
   8
0
 100
AcDbBlockEnd
   0
BLOCK
   5
B1
 100
AcDbEntity
   8
0
 100
AcDbBlockBegin
   2
_NONE
  70
0
  10
0.0
  20
0.0
  30
0.0
   3
_NONE
   0
CIRCLE
   5
B2
 100
AcDbEntity
   8
0
 100
AcDbCircle
   6
BYBLOCK
  62
0
  10
0.0
  20
0.0
  30
0.0
  40
 0.25000000000000
   0
ENDBLK
   5
B3
 100
AcDbEntity
   8
0
 100
AcDbBlockEnd
   0
BLOCK
   5
B4
 100
AcDbEntity
   8
0
 100
AcDbBlockBegin
   2
_DOTBLANK
  70
0
  10
0.0
  20
0.0
  30
0.0
   3
_DOTBLANK
   0
CIRCLE
   5
B5
 100
AcDbEntity
   8
0
 100
AcDbCircle
   6
BYBLOCK
  62
0
  10
0.0
  20
0.0
  30
0.0
  40
 0.50000000000000
   0
LINE
   5
B6
 100
AcDbEntity
   8
0
 100
AcDbLine
   6
BYBLOCK
  62
0
  10
-0.50000000000000
  20
0.0
  30
0.0
  11
-1.0000000000000
  21
0.0
  31
0.0
   0
ENDBLK
   5
B7
 100
AcDbEntity
   8
0
 100
AcDbBlockEnd
   0
BLOCK
   5
B8
 100
AcDbEntity
   8
0
 100
AcDbBlockBegin
   2
_INTEGRAL
  70
0
  10
0.0
  20
0.0
  30
0.0
   3
_INTEGRAL
   0
ARC
   5
B9
 100
AcDbEntity
   8
0
   6
BYBLOCK
  62
0
 100
AcDbCircle
  10
 0.44488800000000
  20
-0.91335000000000E-1
  30
0.0
  40
 0.45416700000000
 100
AcDbArc
  50
 102.00000000000
  51
 168.00000000000
   0
ARC
   5
BA
 100
AcDbEntity
   8
0
   6
BYBLOCK
  62
0
 100
AcDbCircle
  10
-0.44488800000000
  20
 0.91335000000000E-1
  30
0.0
  40
 0.45416700000000
 100
AcDbArc
  50
 282.00000000000
  51
 348.00000000000
   0
ENDBLK
   5
BB
 100
AcDbEntity
   8
0
 100
AcDbBlockEnd
   0
BLOCK
   5
BC
 100
AcDbEntity
   8
0
 100
AcDbBlockBegin
   2
*D1
  70
65
  10
0.0
  20
0.0
  30
0.0
   3
*D1
   0
LINE
   5
BD
 100
AcDbEntity
   8
0
 100
AcDbLine
   6
CONTINUOUS
  62
2
  10
 58.769775283174
  20
 174.78720510596
  30
0.0
  11
 62.240938824771
  21
 177.23945380205
  31
0.0
   0
LINE
   5
BE
 100
AcDbEntity
   8
0
 100
AcDbLine
   6
CONTINUOUS
  62
2
  10
 62.240938824771
  20
 177.23945380205
  30
0.0
  11
 79.208039455312
  21
 189.22608304008
  31
0.0
   0
INSERT
   5
BF
 100
AcDbEntity
   8
0
   6
CONTINUOUS
  62
2
 100
AcDbBlockReference
   2
_OPEN30
  10
 65.712102366368
  20
 179.69170249814
  30
0.0
  41
 3.0000000000000
  42
 3.0000000000000
  43
 3.0000000000000
  50
 215.23979254725
   0
MTEXT
   5
C0
 100
AcDbEntity
   8
0
  62
2
 100
AcDbMText
  10
 69.120817378113
  20
 184.09381300985
  30
0.0
  40
 3.8000000000000
  41
0.0
  71
7
  72
1
   1
\A1;R8.5
   7
GMM001
  11
 0.81674436272875
  21
 0.57699969319819
  31
0.0
   0
ENDBLK
   5
C1
 100
AcDbEntity
   8
0
 100
AcDbBlockEnd
   0
BLOCK
   5
C2
 100
AcDbEntity
   8
0
 100
AcDbBlockBegin
   2
*D2
  70
65
  10
0.0
  20
0.0
  30
0.0
   3
*D2
   0
LINE
   5
C3
 100
AcDbEntity
   8
0
 100
AcDbLine
   6
CONTINUOUS
  62
2
  10
 110.52620022877
  20
 132.28720510596
  30
0.0
  11
 98.994215946508
  21
 132.28720510596
  31
0.0
   0
LINE
   5
C4
 100
AcDbEntity
   8
0
 100
AcDbLine
   6
CONTINUOUS
  62
2
  10
 104.47568406947
  20
 161.78720510596
  30
0.0
  11
 98.994215946508
  21
 161.78720510596
  31
0.0
   0
LINE
   5
C5
 100
AcDbEntity
   8
0
 100
AcDbLine
   6
CONTINUOUS
  62
2
  10
 100.99421594651
  20
 132.28720510596
  30
0.0
  11
 100.99421594651
  21
 147.03720510596
  31
0.0
   0
LINE
   5
C6
 100
AcDbEntity
   8
0
 100
AcDbLine
   6
CONTINUOUS
  62
2
  10
 100.99421594651
  20
 161.78720510596
  30
0.0
  11
 100.99421594651
  21
 147.03720510596
  31
0.0
   0
INSERT
   5
C7
 100
AcDbEntity
   8
0
   6
CONTINUOUS
  62
2
 100
AcDbBlockReference
   2
_OPEN30
  10
 100.99421594651
  20
 132.28720510596
  30
0.0
  41
 3.0000000000000
  42
 3.0000000000000
  43
 3.0000000000000
  50
 270.00000000000
   0
INSERT
   5
C8
 100
AcDbEntity
   8
0
   6
CONTINUOUS
  62
2
 100
AcDbBlockReference
   2
_OPEN30
  10
 100.99421594651
  20
 161.78720510596
  30
0.0
  41
 3.0000000000000
  42
 3.0000000000000
  43
 3.0000000000000
  50
 90.000000000000
   0
MTEXT
   5
C9
 100
AcDbEntity
   8
0
  62
2
 100
AcDbMText
  10
 99.365644517936
  20
 147.03720510596
  30
0.0
  40
 3.8000000000000
  41
0.0
  71
8
  72
1
   1
\A1;29.5
   7
GMM001
  11
0.0
  21
 1.0000000000000
  31
0.0
   0
ENDBLK
   5
CA
 100
AcDbEntity
   8
0
 100
AcDbBlockEnd
   0
BLOCK
   5
CB
 100
AcDbEntity
   8
0
 100
AcDbBlockBegin
   2
*D3
  70
65
  10
0.0
  20
0.0
  30
0.0
   3
*D3
   0
LINE
   5
CC
 100
AcDbEntity
   8
0
 100
AcDbLine
   6
CONTINUOUS
  62
2
  10
 110.52620022877
  20
 132.28720510596
  30
0.0
  11
 88.614611036910
  21
 132.28720510596
  31
0.0
   0
LINE
   5
CD
 100
AcDbEntity
   8
0
 100
AcDbLine
   6
CONTINUOUS
  62
2
  10
 110.52620022877
  20
 183.28720510596
  30
0.0
  11
 88.614611036910
  21
 183.28720510596
  31
0.0
   0
LINE
   5
CE
 100
AcDbEntity
   8
0
 100
AcDbLine
   6
CONTINUOUS
  62
2
  10
 90.614611036910
  20
 132.28720510596
  30
0.0
  11
 90.614611036910
  21
 157.78720510596
  31
0.0
   0
LINE
   5
CF
 100
AcDbEntity
   8
0
 100
AcDbLine
   6
CONTINUOUS
  62
2
  10
 90.614611036910
  20
 183.28720510596
  30
0.0
  11
 90.614611036910
  21
 157.78720510596
  31
0.0
   0
INSERT
   5
D0
 100
AcDbEntity
   8
0
   6
CONTINUOUS
  62
2
 100
AcDbBlockReference
   2
_OPEN30
  10
 90.614611036910
  20
 132.28720510596
  30
0.0
  41
 3.0000000000000
  42
 3.0000000000000
  43
 3.0000000000000
  50
 270.00000000000
   0
INSERT
   5
D1
 100
AcDbEntity
   8
0
   6
CONTINUOUS
  62
2
 100
AcDbBlockReference
   2
_OPEN30
  10
 90.614611036910
  20
 183.28720510596
  30
0.0
  41
 3.0000000000000
  42
 3.0000000000000
  43
 3.0000000000000
  50
 90.000000000000
   0
MTEXT
   5
D2
 100
AcDbEntity
   8
0
  62
2
 100
AcDbMText
  10
 88.986039608338
  20
 157.78720510596
  30
0.0
  40
 3.8000000000000
  41
0.0
  71
8
  72
1
   1
\A1;51
   7
GMM001
  11
0.0
  21
 1.0000000000000
  31
0.0
   0
ENDBLK
   5
D3
 100
AcDbEntity
   8
0
 100
AcDbBlockEnd
   0
BLOCK
   5
D4
 100
AcDbEntity
   8
0
 100
AcDbBlockBegin
   2
*D4
  70
65
  10
0.0
  20
0.0
  30
0.0
   3
*D4
   0
LINE
   5
D5
 100
AcDbEntity
   8
0
 100
AcDbLine
   6
CONTINUOUS
  62
2
  10
 110.52620022877
  20
 132.28720510596
  30
0.0
  11
 88.614611036910
  21
 132.28720510596
  31
0.0
   0
LINE
   5
D6
 100
AcDbEntity
   8
0
 100
AcDbLine
   6
CONTINUOUS
  62
2
  10
 139.02620022877
  20
 131.28720510596
  30
0.0
  11
 88.614611036910
  21
 131.28720510596
  31
0.0
   0
LINE
   5
D7
 100
AcDbEntity
   8
0
 100
AcDbLine
   6
CONTINUOUS
  62
2
  10
 90.614611036910
  20
 136.03720510596
  30
0.0
  11
 90.614611036910
  21
 131.78720510596
  31
0.0
   0
LINE
   5
D8
 100
AcDbEntity
   8
0
 100
AcDbLine
   6
CONTINUOUS
  62
2
  10
 90.614611036910
  20
 106.19409176306
  30
0.0
  11
 90.614611036910
  21
 131.78720510596
  31
0.0
   0
INSERT
   5
D9
 100
AcDbEntity
   8
0
   6
CONTINUOUS
  62
2
 100
AcDbBlockReference
   2
_OPEN30
  10
 90.614611036910
  20
 132.28720510596
  30
0.0
  41
 3.0000000000000
  42
 3.0000000000000
  43
 3.0000000000000
  50
 270.00000000000
   0
INSERT
   5
DA
 100
AcDbEntity
   8
0
   6
CONTINUOUS
  62
2
 100
AcDbBlockReference
   2
_OPEN30
  10
 90.614611036910
  20
 131.28720510596
  30
0.0
  41
 3.0000000000000
  42
 3.0000000000000
  43
 3.0000000000000
  50
 90.000000000000
   0
MTEXT
   5
DB
 100
AcDbEntity
   8
0
  62
2
 100
AcDbMText
  10
 88.986039608338
  20
 117.39409176306
  30
0.0
  40
 3.8000000000000
  41
0.0
  71
8
  72
1
   1
\A1;上下調整1～7
   7
GMM001
  11
0.0
  21
 1.0000000000000
  31
0.0
   0
ENDBLK
   5
DC
 100
AcDbEntity
   8
0
 100
AcDbBlockEnd
   0
BLOCK
   5
DD
 100
AcDbEntity
   8
0
 100
AcDbBlockBegin
   2
*D5
  70
65
  10
0.0
  20
0.0
  30
0.0
   3
*D5
   0
LINE
   5
DE
 100
AcDbEntity
   8
0
 100
AcDbLine
   6
CONTINUOUS
  62
2
  10
 197.16557826500
  20
 122.63909008470
  30
0.0
  11
 204.53533749037
  21
 122.63909008470
  31
0.0
   0
INSERT
   5
DF
 100
AcDbEntity
   8
0
   6
CONTINUOUS
  62
2
 100
AcDbBlockReference
   2
_OPEN30
  10
 197.16557826500
  20
 122.63909008470
  30
0.0
  41
 3.0000000000000
  42
 3.0000000000000
  43
 3.0000000000000
  50
 180.00000000000
   0
ENDBLK
   5
E0
 100
AcDbEntity
   8
0
 100
AcDbBlockEnd
   0
BLOCK
   5
E1
 100
AcDbEntity
   8
0
 100
AcDbBlockBegin
   2
*D6
  70
65
  10
0.0
  20
0.0
  30
0.0
   3
*D6
   0
LINE
   5
E2
 100
AcDbEntity
   8
0
 100
AcDbLine
   6
CONTINUOUS
  62
2
  10
 211.90509671574
  20
 122.63909008470
  30
0.0
  11
 204.53533749037
  21
 122.63909008470
  31
0.0
   0
INSERT
   5
E3
 100
AcDbEntity
   8
0
   6
CONTINUOUS
  62
2
 100
AcDbBlockReference
   2
_OPEN30
  10
 211.90509671574
  20
 122.63909008470
  30
0.0
  41
 3.0000000000000
  42
 3.0000000000000
  43
 3.0000000000000
  50
0.0
   0
ENDBLK
   5
E4
 100
AcDbEntity
   8
0
 100
AcDbBlockEnd
   0
BLOCK
   5
E5
 100
AcDbEntity
   8
0
 100
AcDbBlockBegin
   2
*D7
  70
65
  10
0.0
  20
0.0
  30
0.0
   3
*D7
   0
LINE
   5
E6
 100
AcDbEntity
   8
0
 100
AcDbLine
   6
CONTINUOUS
  62
2
  10
 270.29153456212
  20
 174.78720510596
  30
0.0
  11
 273.22776105292
  21
 177.85983817788
  31
0.0
   0
LINE
   5
E7
 100
AcDbEntity
   8
0
 100
AcDbLine
   6
CONTINUOUS
  62
2
  10
 273.22776105292
  20
 177.85983817788
  30
0.0
  11
 287.33032289195
  21
 192.61755460103
  31
0.0
   0
INSERT
   5
E8
 100
AcDbEntity
   8
0
   6
CONTINUOUS
  62
2
 100
AcDbBlockReference
   2
_OPEN30
  10
 276.16398754373
  20
 180.93247124981
  30
0.0
  41
 3.0000000000000
  42
 3.0000000000000
  43
 3.0000000000000
  50
 226.30044298784
   0
MTEXT
   5
E9
 100
AcDbEntity
   8
0
  62
2
 100
AcDbMText
  10
 278.41509015584
  20
 185.64540499284
  30
0.0
  40
 3.8000000000000
  41
0.0
  71
7
  72
1
   1
\A1;R8.5
   7
GMM001
  11
 0.69087682136610
  21
 0.72297248751185
  31
0.0
   0
ENDBLK
   5
EA
 100
AcDbEntity
   8
0
 100
AcDbBlockEnd
   0
BLOCK
   5
EB
 100
AcDbEntity
   8
0
 100
AcDbBlockBegin
   2
*D8
  70
65
  10
0.0
  20
0.0
  30
0.0
   3
*D8
   0
LINE
   5
EC
 100
AcDbEntity
   8
0
 100
AcDbLine
   6
CONTINUOUS
  62
2
  10
 286.14153456212
  20
 132.28720510596
  30
0.0
  11
 301.55475383405
  21
 132.28720510596
  31
0.0
   0
LINE
   5
ED
 100
AcDbEntity
   8
0
 100
AcDbLine
   6
CONTINUOUS
  62
2
  10
 281.87186940065
  20
 174.78720510596
  30
0.0
  11
 301.55475383405
  21
 174.78720510596
  31
0.0
   0
LINE
   5
EE
 100
AcDbEntity
   8
0
 100
AcDbLine
   6
CONTINUOUS
  62
2
  10
 299.55475383405
  20
 132.28720510596
  30
0.0
  11
 299.55475383405
  21
 153.53720510596
  31
0.0
   0
LINE
   5
EF
 100
AcDbEntity
   8
0
 100
AcDbLine
   6
CONTINUOUS
  62
2
  10
 299.55475383405
  20
 174.78720510596
  30
0.0
  11
 299.55475383405
  21
 153.53720510596
  31
0.0
   0
INSERT
   5
F0
 100
AcDbEntity
   8
0
   6
CONTINUOUS
  62
2
 100
AcDbBlockReference
   2
_OPEN30
  10
 299.55475383405
  20
 132.28720510596
  30
0.0
  41
 3.0000000000000
  42
 3.0000000000000
  43
 3.0000000000000
  50
 270.00000000000
   0
INSERT
   5
F1
 100
AcDbEntity
   8
0
   6
CONTINUOUS
  62
2
 100
AcDbBlockReference
   2
_OPEN30
  10
 299.55475383405
  20
 174.78720510596
  30
0.0
  41
 3.0000000000000
  42
 3.0000000000000
  43
 3.0000000000000
  50
 90.000000000000
   0
MTEXT
   5
F2
 100
AcDbEntity
   8
0
  62
2
 100
AcDbMText
  10
 297.92618240548
  20
 153.53720510596
  30
0.0
  40
 3.8000000000000
  41
0.0
  71
8
  72
1
   1
\A1;42.5
   7
GMM001
  11
0.0
  21
 1.0000000000000
  31
0.0
   0
ENDBLK
   5
F3
 100
AcDbEntity
   8
0
 100
AcDbBlockEnd
   0
BLOCK
   5
F4
 100
AcDbEntity
   8
0
 100
AcDbBlockBegin
   2
*D9
  70
65
  10
0.0
  20
0.0
  30
0.0
   3
*D9
   0
LINE
   5
F5
 100
AcDbEntity
   8
0
 100
AcDbLine
   6
CONTINUOUS
  62
2
  10
 279.79153456212
  20
 183.28720510596
  30
0.0
  11
 301.55475383405
  21
 183.28720510596
  31
0.0
   0
LINE
   5
F6
 100
AcDbEntity
   8
0
 100
AcDbLine
   6
CONTINUOUS
  62
2
  10
 299.55475383405
  20
 183.28720510596
  30
0.0
  11
 299.55475383405
  21
 179.03720510596
  31
0.0
   0
LINE
   5
F7
 100
AcDbEntity
   8
0
 100
AcDbLine
   6
CONTINUOUS
  62
2
  10
 299.55475383405
  20
 174.78720510596
  30
0.0
  11
 299.55475383405
  21
 179.03720510596
  31
0.0
   0
INSERT
   5
F8
 100
AcDbEntity
   8
0
   6
CONTINUOUS
  62
2
 100
AcDbBlockReference
   2
_OPEN30
  10
 299.55475383405
  20
 183.28720510596
  30
0.0
  41
 3.0000000000000
  42
 3.0000000000000
  43
 3.0000000000000
  50
 90.000000000000
   0
INSERT
   5
F9
 100
AcDbEntity
   8
0
   6
CONTINUOUS
  62
2
 100
AcDbBlockReference
   2
_OPEN30
  10
 299.55475383405
  20
 174.78720510596
  30
0.0
  41
 3.0000000000000
  42
 3.0000000000000
  43
 3.0000000000000
  50
 270.00000000000
   0
MTEXT
   5
FA
 100
AcDbEntity
   8
0
  62
2
 100
AcDbMText
  10
 297.92618240548
  20
 179.03720510596
  30
0.0
  40
 3.8000000000000
  41
0.0
  71
8
  72
1
   1
\A1;8.5
   7
GMM001
  11
0.0
  21
 1.0000000000000
  31
0.0
   0
ENDBLK
   5
FB
 100
AcDbEntity
   8
0
 100
AcDbBlockEnd
   0
BLOCK
   5
FC
 100
AcDbEntity
   8
0
 100
AcDbBlockBegin
   2
*D10
  70
65
  10
0.0
  20
0.0
  30
0.0
   3
*D10
   0
LINE
   5
FD
 100
AcDbEntity
   8
0
 100
AcDbLine
   6
CONTINUOUS
  62
2
  10
 254.14153456212
  20
 132.28720510596
  30
0.0
  11
 241.04342853531
  21
 132.28720510596
  31
0.0
   0
LINE
   5
FE
 100
AcDbEntity
   8
0
 100
AcDbLine
   6
CONTINUOUS
  62
2
  10
 259.25580465567
  20
 176.28720510596
  30
0.0
  11
 241.04342853531
  21
 176.28720510596
  31
0.0
   0
LINE
   5
FF
 100
AcDbEntity
   8
0
 100
AcDbLine
   6
CONTINUOUS
  62
2
  10
 243.04342853531
  20
 132.28720510596
  30
0.0
  11
 243.04342853531
  21
 154.28720510596
  31
0.0
   0
LINE
   5
100
 100
AcDbEntity
   8
0
 100
AcDbLine
   6
CONTINUOUS
  62
2
  10
 243.04342853531
  20
 176.28720510596
  30
0.0
  11
 243.04342853531
  21
 154.28720510596
  31
0.0
   0
INSERT
   5
101
 100
AcDbEntity
   8
0
   6
CONTINUOUS
  62
2
 100
AcDbBlockReference
   2
_OPEN30
  10
 243.04342853531
  20
 132.28720510596
  30
0.0
  41
 3.0000000000000
  42
 3.0000000000000
  43
 3.0000000000000
  50
 270.00000000000
   0
INSERT
   5
102
 100
AcDbEntity
   8
0
   6
CONTINUOUS
  62
2
 100
AcDbBlockReference
   2
_OPEN30
  10
 243.04342853531
  20
 176.28720510596
  30
0.0
  41
 3.0000000000000
  42
 3.0000000000000
  43
 3.0000000000000
  50
 90.000000000000
   0
MTEXT
   5
103
 100
AcDbEntity
   8
0
  62
2
 100
AcDbMText
  10
 241.41485710674
  20
 154.28720510596
  30
0.0
  40
 3.8000000000000
  41
0.0
  71
8
  72
1
   1
\A1;44
   7
GMM001
  11
0.0
  21
 1.0000000000000
  31
0.0
   0
ENDBLK
   5
104
 100
AcDbEntity
   8
0
 100
AcDbBlockEnd
   0
BLOCK
   5
105
 100
AcDbEntity
   8
0
 100
AcDbBlockBegin
   2
*D11
  70
65
  10
0.0
  20
0.0
  30
0.0
   3
*D11
   0
LINE
   5
106
 100
AcDbEntity
   8
0
 100
AcDbLine
   6
CONTINUOUS
  62
2
  10
 261.49153456212
  20
 131.28720510596
  30
0.0
  11
 261.49153456212
  21
 112.98995407938
  31
0.0
   0
LINE
   5
107
 100
AcDbEntity
   8
0
 100
AcDbLine
   6
CONTINUOUS
  62
2
  10
 278.79153456212
  20
 131.28720510596
  30
0.0
  11
 278.79153456212
  21
 112.98995407938
  31
0.0
   0
LINE
   5
108
 100
AcDbEntity
   8
0
 100
AcDbLine
   6
CONTINUOUS
  62
2
  10
 261.49153456212
  20
 114.98995407938
  30
0.0
  11
 270.14153456212
  21
 114.98995407938
  31
0.0
   0
LINE
   5
109
 100
AcDbEntity
   8
0
 100
AcDbLine
   6
CONTINUOUS
  62
2
  10
 278.79153456212
  20
 114.98995407938
  30
0.0
  11
 270.14153456212
  21
 114.98995407938
  31
0.0
   0
INSERT
   5
10A
 100
AcDbEntity
   8
0
   6
CONTINUOUS
  62
2
 100
AcDbBlockReference
   2
_OPEN30
  10
 261.49153456212
  20
 114.98995407938
  30
0.0
  41
 3.0000000000000
  42
 3.0000000000000
  43
 3.0000000000000
  50
 180.00000000000
   0
INSERT
   5
10B
 100
AcDbEntity
   8
0
   6
CONTINUOUS
  62
2
 100
AcDbBlockReference
   2
_OPEN30
  10
 278.79153456212
  20
 114.98995407938
  30
0.0
  41
 3.0000000000000
  42
 3.0000000000000
  43
 3.0000000000000
  50
0.0
   0
MTEXT
   5
10C
 100
AcDbEntity
   8
0
  62
2
 100
AcDbMText
  10
 270.14153456212
  20
 116.61852550795
  30
0.0
  40
 3.8000000000000
  41
0.0
  71
8
  72
1
   1
\A1;17.3
   7
GMM001
   0
ENDBLK
   5
10D
 100
AcDbEntity
   8
0
 100
AcDbBlockEnd
   0
BLOCK
   5
10E
 100
AcDbEntity
   8
0
 100
AcDbBlockBegin
   2
*D12
  70
65
  10
0.0
  20
0.0
  30
0.0
   3
*D12
   0
LINE
   5
10F
 100
AcDbEntity
   8
0
 100
AcDbLine
   6
CONTINUOUS
  62
2
  10
 321.64923280658
  20
 131.28720510596
  30
0.0
  11
 321.64923280658
  21
 112.98995407938
  31
0.0
   0
LINE
   5
110
 100
AcDbEntity
   8
0
 100
AcDbLine
   6
CONTINUOUS
  62
2
  10
 367.14923280658
  20
 131.28720510596
  30
0.0
  11
 367.14923280658
  21
 112.98995407938
  31
0.0
   0
LINE
   5
111
 100
AcDbEntity
   8
0
 100
AcDbLine
   6
CONTINUOUS
  62
2
  10
 321.64923280658
  20
 114.98995407938
  30
0.0
  11
 344.39923280658
  21
 114.98995407938
  31
0.0
   0
LINE
   5
112
 100
AcDbEntity
   8
0
 100
AcDbLine
   6
CONTINUOUS
  62
2
  10
 367.14923280658
  20
 114.98995407938
  30
0.0
  11
 344.39923280658
  21
 114.98995407938
  31
0.0
   0
INSERT
   5
113
 100
AcDbEntity
   8
0
   6
CONTINUOUS
  62
2
 100
AcDbBlockReference
   2
_OPEN30
  10
 321.64923280658
  20
 114.98995407938
  30
0.0
  41
 3.0000000000000
  42
 3.0000000000000
  43
 3.0000000000000
  50
 180.00000000000
   0
INSERT
   5
114
 100
AcDbEntity
   8
0
   6
CONTINUOUS
  62
2
 100
AcDbBlockReference
   2
_OPEN30
  10
 367.14923280658
  20
 114.98995407938
  30
0.0
  41
 3.0000000000000
  42
 3.0000000000000
  43
 3.0000000000000
  50
0.0
   0
MTEXT
   5
115
 100
AcDbEntity
   8
0
  62
2
 100
AcDbMText
  10
 344.39923280658
  20
 116.61852550795
  30
0.0
  40
 3.8000000000000
  41
0.0
  71
8
  72
1
   1
\A1;45.5
   7
GMM001
   0
ENDBLK
   5
116
 100
AcDbEntity
   8
0
 100
AcDbBlockEnd
   0
BLOCK
   5
117
 100
AcDbEntity
   8
0
 100
AcDbBlockBegin
   2
*D13
  70
65
  10
0.0
  20
0.0
  30
0.0
   3
*D13
   0
LINE
   5
118
 100
AcDbEntity
   8
0
 100
AcDbLine
   6
CONTINUOUS
  62
2
  10
 367.14923280658
  20
 131.28720510596
  30
0.0
  11
 367.14923280658
  21
 112.98995407938
  31
0.0
   0
LINE
   5
119
 100
AcDbEntity
   8
0
 100
AcDbLine
   6
CONTINUOUS
  62
2
  10
 372.14923280658
  20
 151.98720510596
  30
0.0
  11
 372.14923280658
  21
 112.98995407938
  31
0.0
   0
LINE
   5
11A
 100
AcDbEntity
   8
0
 100
AcDbLine
   6
CONTINUOUS
  62
2
  10
 363.39923280658
  20
 114.98995407938
  30
0.0
  11
 369.64923280658
  21
 114.98995407938
  31
0.0
   0
LINE
   5
11B
 100
AcDbEntity
   8
0
 100
AcDbLine
   6
CONTINUOUS
  62
2
  10
 375.89923280658
  20
 114.98995407938
  30
0.0
  11
 369.64923280658
  21
 114.98995407938
  31
0.0
   0
INSERT
   5
11C
 100
AcDbEntity
   8
0
   6
CONTINUOUS
  62
2
 100
AcDbBlockReference
   2
_OPEN30
  10
 367.14923280658
  20
 114.98995407938
  30
0.0
  41
 3.0000000000000
  42
 3.0000000000000
  43
 3.0000000000000
  50
0.0
   0
INSERT
   5
11D
 100
AcDbEntity
   8
0
   6
CONTINUOUS
  62
2
 100
AcDbBlockReference
   2
_OPEN30
  10
 372.14923280658
  20
 114.98995407938
  30
0.0
  41
 3.0000000000000
  42
 3.0000000000000
  43
 3.0000000000000
  50
 180.00000000000
   0
MTEXT
   5
11E
 100
AcDbEntity
   8
0
  62
2
 100
AcDbMText
  10
 369.64923280658
  20
 116.61852550795
  30
0.0
  40
 3.8000000000000
  41
0.0
  71
8
  72
1
   1
\A1;5
   7
GMM001
   0
ENDBLK
   5
11F
 100
AcDbEntity
   8
0
 100
AcDbBlockEnd
   0
BLOCK
   5
120
 100
AcDbEntity
   8
0
 100
AcDbBlockBegin
   2
*D14
  70
65
  10
0.0
  20
0.0
  30
0.0
   3
*D14
   0
LINE
   5
121
 100
AcDbEntity
   8
0
 100
AcDbLine
   6
CONTINUOUS
  62
2
  10
 378.73388159751
  20
 161.78720510596
  30
0.0
  11
 393.11382188397
  21
 161.78720510596
  31
0.0
   0
LINE
   5
122
 100
AcDbEntity
   8
0
 100
AcDbLine
   6
CONTINUOUS
  62
2
  10
 368.14923280658
  20
 132.28720510596
  30
0.0
  11
 393.11382188397
  21
 132.28720510596
  31
0.0
   0
LINE
   5
123
 100
AcDbEntity
   8
0
 100
AcDbLine
   6
CONTINUOUS
  62
2
  10
 391.11382188397
  20
 161.78720510596
  30
0.0
  11
 391.11382188397
  21
 147.03720510596
  31
0.0
   0
LINE
   5
124
 100
AcDbEntity
   8
0
 100
AcDbLine
   6
CONTINUOUS
  62
2
  10
 391.11382188397
  20
 132.28720510596
  30
0.0
  11
 391.11382188397
  21
 147.03720510596
  31
0.0
   0
INSERT
   5
125
 100
AcDbEntity
   8
0
   6
CONTINUOUS
  62
2
 100
AcDbBlockReference
   2
_OPEN30
  10
 391.11382188397
  20
 161.78720510596
  30
0.0
  41
 3.0000000000000
  42
 3.0000000000000
  43
 3.0000000000000
  50
 90.000000000000
   0
INSERT
   5
126
 100
AcDbEntity
   8
0
   6
CONTINUOUS
  62
2
 100
AcDbBlockReference
   2
_OPEN30
  10
 391.11382188397
  20
 132.28720510596
  30
0.0
  41
 3.0000000000000
  42
 3.0000000000000
  43
 3.0000000000000
  50
 270.00000000000
   0
MTEXT
   5
127
 100
AcDbEntity
   8
0
  62
2
 100
AcDbMText
  10
 389.48525045540
  20
 147.03720510596
  30
0.0
  40
 3.8000000000000
  41
0.0
  71
8
  72
1
   1
\A1;29.5
   7
GMM001
  11
0.0
  21
 1.0000000000000
  31
0.0
   0
ENDBLK
   5
128
 100
AcDbEntity
   8
0
 100
AcDbBlockEnd
   0
BLOCK
   5
129
 100
AcDbEntity
   8
0
 100
AcDbBlockBegin
   2
*D15
  70
65
  10
0.0
  20
0.0
  30
0.0
   3
*D15
   0
LINE
   5
12A
 100
AcDbEntity
   8
0
 100
AcDbLine
   6
CONTINUOUS
  62
2
  10
 373.14923280658
  20
 170.28720510596
  30
0.0
  11
 383.81793812369
  21
 170.28720510596
  31
0.0
   0
LINE
   5
12B
 100
AcDbEntity
   8
0
 100
AcDbLine
   6
CONTINUOUS
  62
2
  10
 373.14923280658
  20
 152.98720510596
  30
0.0
  11
 383.81793812369
  21
 152.98720510596
  31
0.0
   0
LINE
   5
12C
 100
AcDbEntity
   8
0
 100
AcDbLine
   6
CONTINUOUS
  62
2
  10
 381.81793812369
  20
 188.43725470123
  30
0.0
  11
 381.81793812369
  21
 161.63720510596
  31
0.0
   0
LINE
   5
12D
 100
AcDbEntity
   8
0
 100
AcDbLine
   6
CONTINUOUS
  62
2
  10
 381.81793812369
  20
 149.23720510596
  30
0.0
  11
 381.81793812369
  21
 161.63720510596
  31
0.0
   0
INSERT
   5
12E
 100
AcDbEntity
   8
0
   6
CONTINUOUS
  62
2
 100
AcDbBlockReference
   2
_OPEN30
  10
 381.81793812369
  20
 170.28720510596
  30
0.0
  41
 3.0000000000000
  42
 3.0000000000000
  43
 3.0000000000000
  50
 270.00000000000
   0
INSERT
   5
12F
 100
AcDbEntity
   8
0
   6
CONTINUOUS
  62
2
 100
AcDbBlockReference
   2
_OPEN30
  10
 381.81793812369
  20
 152.98720510596
  30
0.0
  41
 3.0000000000000
  42
 3.0000000000000
  43
 3.0000000000000
  50
 90.000000000000
   0
MTEXT
   5
130
 100
AcDbEntity
   8
0
  62
2
 100
AcDbMText
  10
 380.18936669512
  20
 181.23725470123
  30
0.0
  40
 3.8000000000000
  41
0.0
  71
8
  72
1
   1
\A1;%%c17.3
   7
GMM001
  11
0.0
  21
 1.0000000000000
  31
0.0
   0
ENDBLK
   5
131
 100
AcDbEntity
   8
0
 100
AcDbBlockEnd
   0
BLOCK
   5
132
 100
AcDbEntity
   8
0
 100
AcDbBlockBegin
   2
*D16
  70
65
  10
0.0
  20
0.0
  30
0.0
   3
*D16
   0
LINE
   5
133
 100
AcDbEntity
   8
0
 100
AcDbLine
   6
CONTINUOUS
  62
2
  10
 332.14923280658
  20
 184.28720510596
  30
0.0
  11
 332.14923280658
  21
 195.82568497852
  31
0.0
   0
LINE
   5
134
 100
AcDbEntity
   8
0
 100
AcDbLine
   6
CONTINUOUS
  62
2
  10
 321.64923280658
  20
 193.82568497852
  30
0.0
  11
 321.64923280658
  21
 191.82568497852
  31
0.0
   0
LINE
   5
135
 100
AcDbEntity
   8
0
 100
AcDbLine
   6
CONTINUOUS
  62
2
  10
 346.24704087290
  20
 193.82568497852
  30
0.0
  11
 326.89923280658
  21
 193.82568497852
  31
0.0
   0
LINE
   5
136
 100
AcDbEntity
   8
0
 100
AcDbLine
   6
CONTINUOUS
  62
2
  10
 317.89923280658
  20
 193.82568497852
  30
0.0
  11
 326.89923280658
  21
 193.82568497852
  31
0.0
   0
INSERT
   5
137
 100
AcDbEntity
   8
0
   6
CONTINUOUS
  62
2
 100
AcDbBlockReference
   2
_OPEN30
  10
 332.14923280658
  20
 193.82568497852
  30
0.0
  41
 3.0000000000000
  42
 3.0000000000000
  43
 3.0000000000000
  50
 180.00000000000
   0
INSERT
   5
138
 100
AcDbEntity
   8
0
   6
CONTINUOUS
  62
2
 100
AcDbBlockReference
   2
_OPEN30
  10
 321.64923280658
  20
 193.82568497852
  30
0.0
  41
 3.0000000000000
  42
 3.0000000000000
  43
 3.0000000000000
  50
0.0
   0
MTEXT
   5
139
 100
AcDbEntity
   8
0
  62
2
 100
AcDbMText
  10
 340.64704087290
  20
 195.45425640709
  30
0.0
  40
 3.8000000000000
  41
0.0
  71
8
  72
1
   1
\A1;10.5
   7
GMM001
   0
ENDBLK
   5
13A
 100
AcDbEntity
   8
0
 100
AcDbBlockEnd
   0
BLOCK
   5
13B
 100
AcDbEntity
   8
0
 100
AcDbBlockBegin
   2
*D17
  70
65
  10
0.0
  20
0.0
  30
0.0
   3
*D17
   0
LINE
   5
13C
 100
AcDbEntity
   8
0
 100
AcDbLine
   6
CONTINUOUS
  62
2
  10
 320.64923280658
  20
 132.28720510596
  30
0.0
  11
 307.46425206215
  21
 132.28720510596
  31
0.0
   0
LINE
   5
13D
 100
AcDbEntity
   8
0
 100
AcDbLine
   6
CONTINUOUS
  62
2
  10
 320.64923280658
  20
 183.28720510596
  30
0.0
  11
 307.46425206215
  21
 183.28720510596
  31
0.0
   0
LINE
   5
13E
 100
AcDbEntity
   8
0
 100
AcDbLine
   6
CONTINUOUS
  62
2
  10
 309.46425206215
  20
 132.28720510596
  30
0.0
  11
 309.46425206215
  21
 157.78720510596
  31
0.0
   0
LINE
   5
13F
 100
AcDbEntity
   8
0
 100
AcDbLine
   6
CONTINUOUS
  62
2
  10
 309.46425206215
  20
 183.28720510596
  30
0.0
  11
 309.46425206215
  21
 157.78720510596
  31
0.0
   0
INSERT
   5
140
 100
AcDbEntity
   8
0
   6
CONTINUOUS
  62
2
 100
AcDbBlockReference
   2
_OPEN30
  10
 309.46425206215
  20
 132.28720510596
  30
0.0
  41
 3.0000000000000
  42
 3.0000000000000
  43
 3.0000000000000
  50
 270.00000000000
   0
INSERT
   5
141
 100
AcDbEntity
   8
0
   6
CONTINUOUS
  62
2
 100
AcDbBlockReference
   2
_OPEN30
  10
 309.46425206215
  20
 183.28720510596
  30
0.0
  41
 3.0000000000000
  42
 3.0000000000000
  43
 3.0000000000000
  50
 90.000000000000
   0
MTEXT
   5
142
 100
AcDbEntity
   8
0
  62
2
 100
AcDbMText
  10
 307.83568063358
  20
 157.78720510596
  30
0.0
  40
 3.8000000000000
  41
0.0
  71
8
  72
1
   1
\A1;51
   7
GMM001
  11
0.0
  21
 1.0000000000000
  31
0.0
   0
ENDBLK
   5
143
 100
AcDbEntity
   8
0
 100
AcDbBlockEnd
   0
BLOCK
   5
144
 100
AcDbEntity
   8
0
 100
AcDbBlockBegin
   2
*D18
  70
65
  10
0.0
  20
0.0
  30
0.0
   3
*D18
   0
LINE
   5
145
 100
AcDbEntity
   8
0
 100
AcDbLine
   6
CONTINUOUS
  62
2
  10
 44.961008733598
  20
 176.28720510596
  30
0.0
  11
 37.247966921169
  21
 176.28720510596
  31
0.0
   0
LINE
   5
146
 100
AcDbEntity
   8
0
 100
AcDbLine
   6
CONTINUOUS
  62
2
  10
 49.269775283174
  20
 132.28720510596
  30
0.0
  11
 37.247966921169
  21
 132.28720510596
  31
0.0
   0
LINE
   5
147
 100
AcDbEntity
   8
0
 100
AcDbLine
   6
CONTINUOUS
  62
2
  10
 39.247966921169
  20
 176.28720510596
  30
0.0
  11
 39.247966921169
  21
 154.28720510596
  31
0.0
   0
LINE
   5
148
 100
AcDbEntity
   8
0
 100
AcDbLine
   6
CONTINUOUS
  62
2
  10
 39.247966921169
  20
 132.28720510596
  30
0.0
  11
 39.247966921169
  21
 154.28720510596
  31
0.0
   0
INSERT
   5
149
 100
AcDbEntity
   8
0
   6
CONTINUOUS
  62
2
 100
AcDbBlockReference
   2
_OPEN30
  10
 39.247966921169
  20
 176.28720510596
  30
0.0
  41
 3.0000000000000
  42
 3.0000000000000
  43
 3.0000000000000
  50
 90.000000000000
   0
INSERT
   5
14A
 100
AcDbEntity
   8
0
   6
CONTINUOUS
  62
2
 100
AcDbBlockReference
   2
_OPEN30
  10
 39.247966921169
  20
 132.28720510596
  30
0.0
  41
 3.0000000000000
  42
 3.0000000000000
  43
 3.0000000000000
  50
 270.00000000000
   0
MTEXT
   5
14B
 100
AcDbEntity
   8
0
  62
2
 100
AcDbMText
  10
 37.619395492598
  20
 154.28720510596
  30
0.0
  40
 3.8000000000000
  41
0.0
  71
8
  72
1
   1
\A1;44
   7
GMM001
  11
0.0
  21
 1.0000000000000
  31
0.0
   0
ENDBLK
   5
14C
 100
AcDbEntity
   8
0
 100
AcDbBlockEnd
   0
BLOCK
   5
14D
 100
AcDbEntity
   8
0
 100
AcDbBlockBegin
   2
*D19
  70
65
  10
0.0
  20
0.0
  30
0.0
   3
*D19
   0
LINE
   5
14E
 100
AcDbEntity
   8
0
 100
AcDbLine
   6
CONTINUOUS
  62
2
  10
 50.269775283174
  20
 131.28720510596
  30
0.0
  11
 50.269775283174
  21
 113.70272682248
  31
0.0
   0
LINE
   5
14F
 100
AcDbEntity
   8
0
 100
AcDbLine
   6
CONTINUOUS
  62
2
  10
 67.269775283174
  20
 131.28720510596
  30
0.0
  11
 67.269775283174
  21
 113.70272682248
  31
0.0
   0
LINE
   5
150
 100
AcDbEntity
   8
0
 100
AcDbLine
   6
CONTINUOUS
  62
2
  10
 50.269775283174
  20
 115.70272682248
  30
0.0
  11
 58.769775283174
  21
 115.70272682248
  31
0.0
   0
LINE
   5
151
 100
AcDbEntity
   8
0
 100
AcDbLine
   6
CONTINUOUS
  62
2
  10
 67.269775283174
  20
 115.70272682248
  30
0.0
  11
 58.769775283174
  21
 115.70272682248
  31
0.0
   0
INSERT
   5
152
 100
AcDbEntity
   8
0
   6
CONTINUOUS
  62
2
 100
AcDbBlockReference
   2
_OPEN30
  10
 50.269775283174
  20
 115.70272682248
  30
0.0
  41
 3.0000000000000
  42
 3.0000000000000
  43
 3.0000000000000
  50
 180.00000000000
   0
INSERT
   5
153
 100
AcDbEntity
   8
0
   6
CONTINUOUS
  62
2
 100
AcDbBlockReference
   2
_OPEN30
  10
 67.269775283174
  20
 115.70272682248
  30
0.0
  41
 3.0000000000000
  42
 3.0000000000000
  43
 3.0000000000000
  50
0.0
   0
MTEXT
   5
154
 100
AcDbEntity
   8
0
  62
2
 100
AcDbMText
  10
 58.769775283174
  20
 117.33129825106
  30
0.0
  40
 3.8000000000000
  41
0.0
  71
8
  72
1
   1
\A1;17
   7
GMM001
   0
ENDBLK
   5
155
 100
AcDbEntity
   8
0
 100
AcDbBlockEnd
   0
BLOCK
   5
156
 100
AcDbEntity
   8
0
 100
AcDbBlockBegin
   2
*D20
  70
65
  10
0.0
  20
0.0
  30
0.0
   3
*D20
   0
LINE
   5
157
 100
AcDbEntity
   8
0
 100
AcDbLine
   6
CONTINUOUS
  62
2
  10
 162.22964877536
  20
 170.28720510596
  30
0.0
  11
 179.74549713112
  21
 170.28720510596
  31
0.0
   0
LINE
   5
158
 100
AcDbEntity
   8
0
 100
AcDbLine
   6
CONTINUOUS
  62
2
  10
 162.22964877536
  20
 153.28720510596
  30
0.0
  11
 179.74549713112
  21
 153.28720510596
  31
0.0
   0
LINE
   5
159
 100
AcDbEntity
   8
0
 100
AcDbLine
   6
CONTINUOUS
  62
2
  10
 177.74549713112
  20
 170.28720510596
  30
0.0
  11
 177.74549713112
  21
 161.78720510596
  31
0.0
   0
LINE
   5
15A
 100
AcDbEntity
   8
0
 100
AcDbLine
   6
CONTINUOUS
  62
2
  10
 177.74549713112
  20
 153.28720510596
  30
0.0
  11
 177.74549713112
  21
 161.78720510596
  31
0.0
   0
INSERT
   5
15B
 100
AcDbEntity
   8
0
   6
CONTINUOUS
  62
2
 100
AcDbBlockReference
   2
_OPEN30
  10
 177.74549713112
  20
 170.28720510596
  30
0.0
  41
 3.0000000000000
  42
 3.0000000000000
  43
 3.0000000000000
  50
 90.000000000000
   0
INSERT
   5
15C
 100
AcDbEntity
   8
0
   6
CONTINUOUS
  62
2
 100
AcDbBlockReference
   2
_OPEN30
  10
 177.74549713112
  20
 153.28720510596
  30
0.0
  41
 3.0000000000000
  42
 3.0000000000000
  43
 3.0000000000000
  50
 270.00000000000
   0
MTEXT
   5
15D
 100
AcDbEntity
   8
0
  62
2
 100
AcDbMText
  10
 176.11692570255
  20
 161.78720510596
  30
0.0
  40
 3.8000000000000
  41
0.0
  71
8
  72
1
   1
\A1;%%c17
   7
GMM001
  11
0.0
  21
 1.0000000000000
  31
0.0
   0
ENDBLK
   5
15E
 100
AcDbEntity
   8
0
 100
AcDbBlockEnd
   0
BLOCK
   5
15F
 100
AcDbEntity
   8
0
 100
AcDbBlockBegin
   2
*D21
  70
65
  10
0.0
  20
0.0
  30
0.0
   3
*D21
   0
LINE
   5
160
 100
AcDbEntity
   8
0
 100
AcDbLine
   6
CONTINUOUS
  62
2
  10
 111.52620022877
  20
 184.28720510596
  30
0.0
  11
 111.52620022877
  21
 195.68801471307
  31
0.0
   0
LINE
   5
161
 100
AcDbEntity
   8
0
 100
AcDbLine
   6
CONTINUOUS
  62
2
  10
 121.52620022877
  20
 184.48068319855
  30
0.0
  11
 121.52620022877
  21
 195.68801471307
  31
0.0
   0
LINE
   5
162
 100
AcDbEntity
   8
0
 100
AcDbLine
   6
CONTINUOUS
  62
2
  10
 111.52620022877
  20
 193.68801471307
  30
0.0
  11
 116.52620022877
  21
 193.68801471307
  31
0.0
   0
LINE
   5
163
 100
AcDbEntity
   8
0
 100
AcDbLine
   6
CONTINUOUS
  62
2
  10
 121.52620022877
  20
 193.68801471307
  30
0.0
  11
 116.52620022877
  21
 193.68801471307
  31
0.0
   0
INSERT
   5
164
 100
AcDbEntity
   8
0
   6
CONTINUOUS
  62
2
 100
AcDbBlockReference
   2
_OPEN30
  10
 111.52620022877
  20
 193.68801471307
  30
0.0
  41
 3.0000000000000
  42
 3.0000000000000
  43
 3.0000000000000
  50
 180.00000000000
   0
INSERT
   5
165
 100
AcDbEntity
   8
0
   6
CONTINUOUS
  62
2
 100
AcDbBlockReference
   2
_OPEN30
  10
 121.52620022877
  20
 193.68801471307
  30
0.0
  41
 3.0000000000000
  42
 3.0000000000000
  43
 3.0000000000000
  50
0.0
   0
MTEXT
   5
166
 100
AcDbEntity
   8
0
  62
2
 100
AcDbMText
  10
 116.52620022877
  20
 195.31658614164
  30
0.0
  40
 3.8000000000000
  41
0.0
  71
8
  72
1
   1
\A1;10
   7
GMM001
   0
ENDBLK
   5
167
 100
AcDbEntity
   8
0
 100
AcDbBlockEnd
   0
BLOCK
   5
168
 100
AcDbEntity
   8
0
 100
AcDbBlockBegin
   2
*D22
  70
65
  10
0.0
  20
0.0
  30
0.0
   3
*D22
   0
LINE
   5
169
 100
AcDbEntity
   8
0
 100
AcDbLine
   6
CONTINUOUS
  62
2
  10
 111.52620022877
  20
 196.68801471307
  30
0.0
  11
 111.52620022877
  21
 206.13632398491
  31
0.0
   0
LINE
   5
16A
 100
AcDbEntity
   8
0
 100
AcDbLine
   6
CONTINUOUS
  62
2
  10
 161.52620022877
  20
 170.28720510596
  30
0.0
  11
 161.52620022877
  21
 206.13632398491
  31
0.0
   0
LINE
   5
16B
 100
AcDbEntity
   8
0
 100
AcDbLine
   6
CONTINUOUS
  62
2
  10
 111.52620022877
  20
 204.13632398491
  30
0.0
  11
 136.52620022877
  21
 204.13632398491
  31
0.0
   0
LINE
   5
16C
 100
AcDbEntity
   8
0
 100
AcDbLine
   6
CONTINUOUS
  62
2
  10
 161.52620022877
  20
 204.13632398491
  30
0.0
  11
 136.52620022877
  21
 204.13632398491
  31
0.0
   0
INSERT
   5
16D
 100
AcDbEntity
   8
0
   6
CONTINUOUS
  62
2
 100
AcDbBlockReference
   2
_OPEN30
  10
 111.52620022877
  20
 204.13632398491
  30
0.0
  41
 3.0000000000000
  42
 3.0000000000000
  43
 3.0000000000000
  50
 180.00000000000
   0
INSERT
   5
16E
 100
AcDbEntity
   8
0
   6
CONTINUOUS
  62
2
 100
AcDbBlockReference
   2
_OPEN30
  10
 161.52620022877
  20
 204.13632398491
  30
0.0
  41
 3.0000000000000
  42
 3.0000000000000
  43
 3.0000000000000
  50
0.0
   0
MTEXT
   5
16F
 100
AcDbEntity
   8
0
  62
2
 100
AcDbMText
  10
 136.52620022877
  20
 205.76489541348
  30
0.0
  40
 3.8000000000000
  41
0.0
  71
8
  72
1
   1
\A1;50
   7
GMM001
   0
ENDBLK
   5
170
 100
AcDbEntity
   8
0
 100
AcDbBlockEnd
   0
BLOCK
   5
171
 100
AcDbEntity
   8
0
 100
AcDbBlockBegin
   2
*D23
  70
65
  10
0.0
  20
0.0
  30
0.0
   3
*D23
   0
LINE
   5
172
 100
AcDbEntity
   8
0
 100
AcDbLine
   6
CONTINUOUS
  62
2
  10
 156.52620022877
  20
 147.78720510596
  30
0.0
  11
 156.52620022877
  21
 113.70272682248
  31
0.0
   0
LINE
   5
173
 100
AcDbEntity
   8
0
 100
AcDbLine
   6
CONTINUOUS
  62
2
  10
 111.52620022877
  20
 131.28720510596
  30
0.0
  11
 111.52620022877
  21
 113.70272682248
  31
0.0
   0
LINE
   5
174
 100
AcDbEntity
   8
0
 100
AcDbLine
   6
CONTINUOUS
  62
2
  10
 156.52620022877
  20
 115.70272682248
  30
0.0
  11
 134.02620022877
  21
 115.70272682248
  31
0.0
   0
LINE
   5
175
 100
AcDbEntity
   8
0
 100
AcDbLine
   6
CONTINUOUS
  62
2
  10
 111.52620022877
  20
 115.70272682248
  30
0.0
  11
 134.02620022877
  21
 115.70272682248
  31
0.0
   0
INSERT
   5
176
 100
AcDbEntity
   8
0
   6
CONTINUOUS
  62
2
 100
AcDbBlockReference
   2
_OPEN30
  10
 156.52620022877
  20
 115.70272682248
  30
0.0
  41
 3.0000000000000
  42
 3.0000000000000
  43
 3.0000000000000
  50
0.0
   0
INSERT
   5
177
 100
AcDbEntity
   8
0
   6
CONTINUOUS
  62
2
 100
AcDbBlockReference
   2
_OPEN30
  10
 111.52620022877
  20
 115.70272682248
  30
0.0
  41
 3.0000000000000
  42
 3.0000000000000
  43
 3.0000000000000
  50
 180.00000000000
   0
MTEXT
   5
178
 100
AcDbEntity
   8
0
  62
2
 100
AcDbMText
  10
 134.02620022877
  20
 117.33129825106
  30
0.0
  40
 3.8000000000000
  41
0.0
  71
8
  72
1
   1
\A1;45
   7
GMM001
   0
ENDBLK
   5
179
 100
AcDbEntity
   8
0
 100
AcDbBlockEnd
   0
BLOCK
   5
17A
 100
AcDbEntity
   8
0
 100
AcDbBlockBegin
   2
*D24
  70
65
  10
0.0
  20
0.0
  30
0.0
   3
*D24
   0
POLYLINE
   5
17B
 100
AcDbEntity
   8
0
   6
CONTINUOUS
  62
2
 100
AcDb2dPolyline
  66
1
  10
0.0
  20
0.0
  30
0.0
  70
0
   0
VERTEX
   5
17C
 100
AcDbEntity
   8
0
   6
CONTINUOUS
  62
2
 100
AcDbVertex
 100
AcDb2dVertex
  10
 270.14153456212
  20
 176.28720510596
  30
0.0
   0
VERTEX
   5
17D
 100
AcDbEntity
   8
0
   6
CONTINUOUS
  62
2
 100
AcDbVertex
 100
AcDb2dVertex
  10
 261.07813792133
  20
 205.42441279461
  30
0.0
   0
VERTEX
   5
17E
 100
AcDbEntity
   8
0
   6
CONTINUOUS
  62
2
 100
AcDbVertex
 100
AcDb2dVertex
  10
 238.67813792133
  20
 205.42441279461
  30
0.0
   0
SEQEND
   5
17F
 100
AcDbEntity
   8
0
   6
CONTINUOUS
  62
2
   0
INSERT
   5
180
 100
AcDbEntity
   8
0
   6
CONTINUOUS
  62
2
 100
AcDbBlockReference
   2
_OPEN30
  10
 270.14153456212
  20
 176.28720510596
  30
0.0
  41
 3.0000000000000
  42
 3.0000000000000
  43
 3.0000000000000
  50
 287.27878674840
   0
MTEXT
   5
181
 100
AcDbEntity
   8
0
  62
2
 100
AcDbMText
  10
 238.67813792133
  20
 207.05298422318
  30
0.0
  40
 3.8000000000000
  41
0.0
  71
7
  72
1
   1
\A1;ＴＡ%%c４用下穴
   7
GMM001
   0
ENDBLK
   5
182
 100
AcDbEntity
   8
0
 100
AcDbBlockEnd
   0
ENDSEC
   0
SECTION
   2
ENTITIES
   0
LINE
   5
183
 100
AcDbEntity
   8
0
 100
AcDbLine
   6
CONTINUOUS
  62
7
  10
 117.54498482000
  20
 146.98720510591
  30
0.0
  11
 117.54600725613
  21
 147.08720510591
  31
0.0
   0
LINE
   5
184
 100
AcDbEntity
   8
0
 100
AcDbLine
   6
CONTINUOUS
  62
7
  10
 117.79150566812
  20
 146.98720510591
  30
0.0
  11
 117.79279588694
  21
 147.08720510591
  31
0.0
   0
LINE
   5
185
 100
AcDbEntity
   8
0
 100
AcDbLine
   6
CONTINUOUS
  62
7
  10
 117.29725021771
  20
 146.98720510591
  30
0.0
  11
 117.29809742094
  21
 147.08720510591
  31
0.0
   0
LINE
   5
186
 100
AcDbEntity
   8
0
 100
AcDbLine
   6
CONTINUOUS
  62
7
  10
 116.49809556892
  20
 147.08720510591
  30
0.0
  11
 116.49724803250
  21
 146.98720510591
  31
0.0
   0
LINE
   5
187
 100
AcDbEntity
   8
0
 100
AcDbLine
   6
CONTINUOUS
  62
7
  10
 135.15894735307
  20
 166.38067459157
  30
0.0
  11
 135.12620022882
  21
 166.44598268449
  31
0.0
   0
LINE
   5
188
 100
AcDbEntity
   8
0
 100
AcDbLine
   6
CONTINUOUS
  62
7
  10
 158.02620022882
  20
 153.28720510591
  30
0.0
  11
 160.52620022882
  21
 153.28720510591
  31
0.0
   0
LINE
   5
189
 100
AcDbEntity
   8
0
 100
AcDbLine
   6
CONTINUOUS
  62
7
  10
 160.52620022882
  20
 170.28720510591
  30
0.0
  11
 121.52620022882
  21
 170.28720510591
  31
0.0
   0
ARC
   5
18A
 100
AcDbEntity
   8
0
   6
CONTINUOUS
  62
7
 100
AcDbCircle
  10
 160.52620022877
  20
 169.28720510596
  30
0.0
  40
 1.0000000000000
 100
AcDbArc
  50
0.0
  51
 89.999999999961
   0
ARC
   5
18B
 100
AcDbEntity
   8
0
   6
CONTINUOUS
  62
7
 100
AcDbCircle
  10
 160.52620022877
  20
 154.28720510596
  30
0.0
  40
 1.0000000000000
 100
AcDbArc
  50
 270.00000000000
  51
0.0
   0
CIRCLE
   5
18C
 100
AcDbEntity
   8
0
 100
AcDbCircle
   6
CONTINUOUS
  62
7
  10
 121.02620022877
  20
 139.28720510596
  30
0.0
  40
 1.5000000000000
   0
CIRCLE
   5
18D
 100
AcDbEntity
   8
0
 100
AcDbCircle
   6
CONTINUOUS
  62
7
  10
 121.02620022877
  20
 139.28720510596
  30
0.0
  40
 0.99999999999998
   0
LINE
   5
18E
 100
AcDbEntity
   8
0
 100
AcDbLine
   6
CONTINUOUS
  62
7
  10
 117.82620022877
  20
 147.08720510596
  30
0.0
  11
 117.82620022877
  21
 146.98720510596
  31
0.0
   0
LINE
   5
18F
 100
AcDbEntity
   8
0
 100
AcDbLine
   6
CONTINUOUS
  62
7
  10
 116.12620022877
  20
 147.08720510596
  30
0.0
  11
 116.12620022877
  21
 146.98680875166
  31
0.0
   0
LINE
   5
190
 100
AcDbEntity
   8
0
 100
AcDbLine
   6
CONTINUOUS
  62
7
  10
 142.47336976567
  20
 159.08623754926
  30
0.0
  11
 142.62869870567
  21
 159.05971341286
  31
0.0
   0
LINE
   5
191
 100
AcDbEntity
   8
0
 100
AcDbLine
   6
CONTINUOUS
  62
7
  10
 119.12620022877
  20
 147.08720510596
  30
0.0
  11
 119.12620022877
  21
 146.98720510596
  31
0.0
   0
LINE
   5
192
 100
AcDbEntity
   8
0
 100
AcDbLine
   6
CONTINUOUS
  62
7
  10
 139.35770163377
  20
 157.30483542176
  30
0.0
  11
 139.31364422827
  21
 157.39722062566
  31
0.0
   0
LINE
   5
193
 100
AcDbEntity
   8
0
 100
AcDbLine
   6
CONTINUOUS
  62
7
  10
 113.12620022877
  20
 142.48720510596
  30
0.0
  11
 113.12620022877
  21
 137.28720510596
  31
0.0
   0
LINE
   5
194
 100
AcDbEntity
   8
0
 100
AcDbLine
   6
CONTINUOUS
  62
7
  10
 114.12620022877
  20
 137.28720510596
  30
0.0
  11
 113.12620022877
  21
 137.28720510596
  31
0.0
   0
LINE
   5
195
 100
AcDbEntity
   8
0
 100
AcDbLine
   6
CONTINUOUS
  62
7
  10
 114.12620022877
  20
 142.48720510596
  30
0.0
  11
 113.12620022877
  21
 142.48720510596
  31
0.0
   0
LINE
   5
196
 100
AcDbEntity
   8
0
 100
AcDbLine
   6
CONTINUOUS
  62
7
  10
 113.12620022877
  20
 135.78720510596
  30
0.0
  11
 113.12620022877
  21
 132.78720510596
  31
0.0
   0
LINE
   5
197
 100
AcDbEntity
   8
0
 100
AcDbLine
   6
CONTINUOUS
  62
7
  10
 113.12620022877
  20
 135.78720510596
  30
0.0
  11
 114.12620022877
  21
 135.78720510596
  31
0.0
   0
LINE
   5
198
 100
AcDbEntity
   8
0
 100
AcDbLine
   6
CONTINUOUS
  62
7
  10
 114.12620022877
  20
 135.78720510596
  30
0.0
  11
 114.12620022877
  21
 137.28720510596
  31
0.0
   0
LINE
   5
199
 100
AcDbEntity
   8
0
 100
AcDbLine
   6
CONTINUOUS
  62
7
  10
 114.12620022877
  20
 143.98720510596
  30
0.0
  11
 113.12620022877
  21
 143.98720510596
  31
0.0
   0
LINE
   5
19A
 100
AcDbEntity
   8
0
 100
AcDbLine
   6
CONTINUOUS
  62
7
  10
 113.12620022877
  20
 145.98720510596
  30
0.0
  11
 113.12620022877
  21
 143.98720510596
  31
0.0
   0
ARC
   5
19B
 100
AcDbEntity
   8
0
   6
CONTINUOUS
  62
7
 100
AcDbCircle
  10
 114.12620022877
  20
 145.98720510596
  30
0.0
  40
 1.0000000000000
 100
AcDbArc
  50
 90.000000000000
  51
 179.99999999989
   0
LINE
   5
19C
 100
AcDbEntity
   8
0
 100
AcDbLine
   6
CONTINUOUS
  62
7
  10
 114.12620022877
  20
 146.98720510596
  30
0.0
  11
 120.12620022877
  21
 146.98720510596
  31
0.0
   0
LINE
   5
19D
 100
AcDbEntity
   8
0
 100
AcDbLine
   6
CONTINUOUS
  62
7
  10
 120.12620022877
  20
 146.98720510596
  30
0.0
  11
 147.52620022877
  21
 161.68720510596
  31
0.0
   0
LINE
   5
19E
 100
AcDbEntity
   8
0
 100
AcDbLine
   6
CONTINUOUS
  62
7
  10
 147.52620022877
  20
 161.68720510596
  30
0.0
  11
 154.92620022877
  21
 161.68720510596
  31
0.0
   0
ARC
   5
19F
 100
AcDbEntity
   8
0
   6
CONTINUOUS
  62
7
 100
AcDbCircle
  10
 154.92620022877
  20
 161.18720510596
  30
0.0
  40
 0.50000000000000
 100
AcDbArc
  50
0.0
  51
 89.999999999713
   0
LINE
   5
1A0
 100
AcDbEntity
   8
0
 100
AcDbLine
   6
CONTINUOUS
  62
7
  10
 155.42620022877
  20
 161.18720510596
  30
0.0
  11
 155.42620022877
  21
 157.18720510596
  31
0.0
   0
ARC
   5
1A1
 100
AcDbEntity
   8
0
   6
CONTINUOUS
  62
7
 100
AcDbCircle
  10
 154.92620022877
  20
 157.18720510596
  30
0.0
  40
 0.50000000000000
 100
AcDbArc
  50
 270.00000000000
  51
 0.13027551975275E-10
   0
LINE
   5
1A2
 100
AcDbEntity
   8
0
 100
AcDbLine
   6
CONTINUOUS
  62
7
  10
 154.92620022877
  20
 156.68720510596
  30
0.0
  11
 154.52620022877
  21
 156.68720510596
  31
0.0
   0
LINE
   5
1A3
 100
AcDbEntity
   8
0
 100
AcDbLine
   6
CONTINUOUS
  62
7
  10
 154.52620022877
  20
 156.68720510596
  30
0.0
  11
 154.52620022877
  21
 155.28720510596
  31
0.0
   0
LINE
   5
1A4
 100
AcDbEntity
   8
0
 100
AcDbLine
   6
CONTINUOUS
  62
7
  10
 154.52620022877
  20
 155.28720510596
  30
0.0
  11
 155.52620022877
  21
 155.28720510596
  31
0.0
   0
LINE
   5
1A5
 100
AcDbEntity
   8
0
 100
AcDbLine
   6
CONTINUOUS
  62
7
  10
 155.52620022877
  20
 148.78720510596
  30
0.0
  11
 153.09483720297
  21
 148.78720510596
  31
0.0
   0
LINE
   5
1A6
 100
AcDbEntity
   8
0
 100
AcDbLine
   6
CONTINUOUS
  62
7
  10
 153.09483720297
  20
 148.78720510596
  30
0.0
  11
 125.48620677727
  21
 133.97527564396
  31
0.0
   0
ARC
   5
1A7
 100
AcDbEntity
   8
0
   6
CONTINUOUS
  62
7
 100
AcDbCircle
  10
 120.75863878117
  20
 142.78720510596
  30
0.0
  40
 10.000000000000
 100
AcDbArc
  50
 270.00000000000
  51
 298.21339568200
   0
LINE
   5
1A8
 100
AcDbEntity
   8
0
 100
AcDbLine
   6
CONTINUOUS
  62
7
  10
 120.75863878117
  20
 132.78720510596
  30
0.0
  11
 113.12620022877
  21
 132.78720510596
  31
0.0
   0
CIRCLE
   5
1A9
 100
AcDbEntity
   8
0
 100
AcDbCircle
   6
CONTINUOUS
  62
7
  10
 121.02620022877
  20
 139.28720510596
  30
0.0
  40
 2.5000000000000
   0
LINE
   5
1AA
 100
AcDbEntity
   8
0
 100
AcDbLine
   6
CONTINUOUS
  62
7
  10
 114.12620022877
  20
 142.48720510596
  30
0.0
  11
 114.12620022877
  21
 143.98720510596
  31
0.0
   0
LINE
   5
1AB
 100
AcDbEntity
   8
0
 100
AcDbLine
   6
CONTINUOUS
  62
7
  10
 155.52620022877
  20
 155.28720510596
  30
0.0
  11
 156.52620022877
  21
 155.28720510596
  31
0.0
   0
LINE
   5
1AC
 100
AcDbEntity
   8
0
 100
AcDbLine
   6
CONTINUOUS
  62
7
  10
 156.52620022877
  20
 155.28720510596
  30
0.0
  11
 156.52620022877
  21
 148.78720510596
  31
0.0
   0
LINE
   5
1AD
 100
AcDbEntity
   8
0
 100
AcDbLine
   6
CONTINUOUS
  62
7
  10
 156.52620022877
  20
 148.78720510596
  30
0.0
  11
 155.52620022877
  21
 148.78720510596
  31
0.0
   0
CIRCLE
   5
1AE
 100
AcDbEntity
   8
0
 100
AcDbCircle
   6
CONTINUOUS
  62
7
  10
 121.02620022877
  20
 139.28720510596
  30
0.0
  40
 1.6000000000000
   0
LINE
   5
1AF
 100
AcDbEntity
   8
0
 100
AcDbLine
   6
CONTINUOUS
  62
7
  10
 156.52620022877
  20
 155.28720510596
  30
0.0
  11
 156.52620022877
  21
 155.48165199776
  31
0.0
   0
LINE
   5
1B0
 100
AcDbEntity
   8
0
 100
AcDbLine
   6
CONTINUOUS
  62
7
  10
 154.33528825007
  20
 148.78720510596
  30
0.0
  11
 155.52620022877
  21
 148.78720510596
  31
0.0
   0
LINE
   5
1B1
 100
AcDbEntity
   8
0
 100
AcDbLine
   6
CONTINUOUS
  62
7
  10
 158.02620022877
  20
 155.48165199776
  30
0.0
  11
 158.02620022877
  21
 153.28720510596
  31
0.0
   0
LINE
   5
1B2
 100
AcDbEntity
   8
0
 100
AcDbLine
   6
CONTINUOUS
  62
7
  10
 155.52620022877
  20
 155.48165199776
  30
0.0
  11
 158.02620022877
  21
 155.48165199776
  31
0.0
   0
SPLINE
   5
1B3
 100
AcDbEntity
   8
0
   6
CONTINUOUS
  62
7
 100
AcDbSpline
  70
8
  71
3
  72
10
  73
6
  74
4
  42
 0.10000000000000E-6
  43
 0.10000000000000E-6
  44
 0.10000000000000E-4
  40
0.0
  40
0.0
  40
0.0
  40
0.0
  40
 0.15108693488898
  40
 0.30217386977796
  40
 1.0000000000000
  40
 1.0000000000000
  40
 1.0000000000000
  40
 1.0000000000000
  10
 155.42620022882
  20
 157.63545305935
  30
0.0
  10
 155.43637827944
  20
 157.61807973345
  30
0.0
  10
 155.45673438067
  20
 157.58333308164
  30
0.0
  10
 155.51501448819
  20
 157.46647325709
  30
0.0
  10
 155.52115367533
  20
 157.35834567471
  30
0.0
  10
 155.52620022882
  20
 157.26946230668
  30
0.0
  11
 155.42620022882
  21
 157.63545305935
  31
0.0
  11
 155.45604803677
  21
 157.58319174824
  31
0.0
  11
 155.48177778130
  21
 157.53008243673
  31
0.0
  11
 155.52620022882
  21
 157.26946230668
  31
0.0
   0
LINE
   5
1B4
 100
AcDbEntity
   8
0
 100
AcDbLine
   6
CONTINUOUS
  62
7
  10
 155.42620022877
  20
 157.78720510596
  30
0.0
  11
 155.52620022877
  21
 157.78720510596
  31
0.0
   0
LINE
   5
1B5
 100
AcDbEntity
   8
0
 100
AcDbLine
   6
CONTINUOUS
  62
7
  10
 155.52620022877
  20
 161.78720510596
  30
0.0
  11
 155.52620022877
  21
 157.78720510596
  31
0.0
   0
LINE
   5
1B6
 100
AcDbEntity
   8
0
 100
AcDbLine
   6
CONTINUOUS
  62
7
  10
 135.12620022877
  20
 163.28720510596
  30
0.0
  11
 143.82620022877
  21
 163.28720510596
  31
0.0
   0
LINE
   5
1B7
 100
AcDbEntity
   8
0
 100
AcDbLine
   6
CONTINUOUS
  62
7
  10
 143.82620022877
  20
 170.25405221686
  30
0.0
  11
 143.82620022877
  21
 163.28720510596
  31
0.0
   0
LINE
   5
1B8
 100
AcDbEntity
   8
0
 100
AcDbLine
   6
CONTINUOUS
  62
7
  10
 143.82620022877
  20
 170.25405221686
  30
0.0
  11
 135.12620022877
  21
 170.25405221686
  31
0.0
   0
LINE
   5
1B9
 100
AcDbEntity
   8
0
 100
AcDbLine
   6
CONTINUOUS
  62
7
  10
 135.12620022877
  20
 170.25405221686
  30
0.0
  11
 135.12620022877
  21
 163.28720510596
  31
0.0
   0
LINE
   5
1BA
 100
AcDbEntity
   8
0
 100
AcDbLine
   6
CONTINUOUS
  62
7
  10
 145.32620022877
  20
 170.25405221686
  30
0.0
  11
 154.02620022877
  21
 170.25405221686
  31
0.0
   0
LINE
   5
1BB
 100
AcDbEntity
   8
0
 100
AcDbLine
   6
CONTINUOUS
  62
7
  10
 145.32620022877
  20
 163.28720510596
  30
0.0
  11
 145.32620022877
  21
 170.25405221686
  31
0.0
   0
LINE
   5
1BC
 100
AcDbEntity
   8
0
 100
AcDbLine
   6
CONTINUOUS
  62
7
  10
 154.02620022877
  20
 163.28720510596
  30
0.0
  11
 145.32620022877
  21
 163.28720510596
  31
0.0
   0
LINE
   5
1BD
 100
AcDbEntity
   8
0
 100
AcDbLine
   6
CONTINUOUS
  62
7
  10
 154.02620022877
  20
 163.28720510596
  30
0.0
  11
 154.02620022877
  21
 170.25405221686
  31
0.0
   0
LINE
   5
1BE
 100
AcDbEntity
   8
0
 100
AcDbLine
   6
CONTINUOUS
  62
7
  10
 155.52620022877
  20
 161.78720510596
  30
0.0
  11
 147.52620022877
  21
 161.78720510596
  31
0.0
   0
LINE
   5
1BF
 100
AcDbEntity
   8
0
 100
AcDbLine
   6
CONTINUOUS
  62
7
  10
 111.52620022877
  20
 132.28720510596
  30
0.0
  11
 111.52620022877
  21
 174.78720510596
  31
0.0
   0
LINE
   5
1C0
 100
AcDbEntity
   8
0
 100
AcDbLine
   6
CONTINUOUS
  62
7
  10
 113.02620022877
  20
 146.08720510596
  30
0.0
  11
 113.02620022877
  21
 132.28720510596
  31
0.0
   0
ARC
   5
1C1
 100
AcDbEntity
   8
0
   6
CONTINUOUS
  62
7
 100
AcDbCircle
  10
 114.02620022877
  20
 146.08720510596
  30
0.0
  40
 1.0000000000000
 100
AcDbArc
  50
 90.000000000000
  51
 180.00000000000
   0
LINE
   5
1C2
 100
AcDbEntity
   8
0
 100
AcDbLine
   6
CONTINUOUS
  62
7
  10
 147.52620022877
  20
 161.78720510596
  30
0.0
  11
 120.02620022877
  21
 147.08720510596
  31
0.0
   0
LINE
   5
1C3
 100
AcDbEntity
   8
0
 100
AcDbLine
   6
CONTINUOUS
  62
7
  10
 113.02620022877
  20
 132.28720510596
  30
0.0
  11
 111.52620022877
  21
 132.28720510596
  31
0.0
   0
LINE
   5
1C4
 100
AcDbEntity
   8
0
 100
AcDbLine
   6
CONTINUOUS
  62
7
  10
 120.02620022877
  20
 147.08720510596
  30
0.0
  11
 114.02620022877
  21
 147.08720510596
  31
0.0
   0
LINE
   5
1C5
 100
AcDbEntity
   8
0
 100
AcDbLine
   6
CONTINUOUS
  62
7
  10
 161.52620022877
  20
 169.28720510596
  30
0.0
  11
 161.52620022877
  21
 154.28720510596
  31
0.0
   0
LINE
   5
1C6
 100
AcDbEntity
   8
0
 100
AcDbLine
   6
CONTINUOUS
  62
7
  10
 111.52620022877
  20
 174.78720510596
  30
0.0
  11
 111.52620022877
  21
 183.28720510596
  31
0.0
   0
LINE
   5
1C7
 100
AcDbEntity
   8
0
 100
AcDbLine
   6
CONTINUOUS
  62
7
  10
 115.12620022877
  20
 147.08720510596
  30
0.0
  11
 115.12620022877
  21
 146.98720510596
  31
0.0
   0
LINE
   5
1C8
 100
AcDbEntity
   8
0
 100
AcDbLine
   6
CONTINUOUS
  62
7
  10
 115.12620022877
  20
 132.78720510596
  30
0.0
  11
 115.12620022877
  21
 132.28720510596
  31
0.0
   0
LINE
   5
1C9
 100
AcDbEntity
   8
0
 100
AcDbLine
   6
CONTINUOUS
  62
7
  10
 113.02620022877
  20
 137.28720510596
  30
0.0
  11
 113.12620022877
  21
 137.28720510596
  31
0.0
   0
LINE
   5
1CA
 100
AcDbEntity
   8
0
 100
AcDbLine
   6
CONTINUOUS
  62
7
  10
 113.12620022877
  20
 142.48720510596
  30
0.0
  11
 113.02620022877
  21
 142.48720510596
  31
0.0
   0
LINE
   5
1CB
 100
AcDbEntity
   8
0
 100
AcDbLine
   6
CONTINUOUS
  62
7
  10
 113.02620022877
  20
 132.28720510596
  30
0.0
  11
 115.12620022877
  21
 132.28720510596
  31
0.0
   0
LINE
   5
1CC
 100
AcDbEntity
   8
0
 100
AcDbLine
   6
CONTINUOUS
  62
7
  10
 147.02620022877
  20
 161.41895693076
  30
0.0
  11
 147.02620022877
  21
 161.51993237866
  31
0.0
   0
LINE
   5
1CD
 100
AcDbEntity
   8
0
 100
AcDbLine
   6
CONTINUOUS
  62
7
  10
 155.52620022877
  20
 157.26946230666
  30
0.0
  11
 155.52620022877
  21
 155.28720510596
  31
0.0
   0
LINE
   5
1CE
 100
AcDbEntity
   8
0
 100
AcDbLine
   6
CONTINUOUS
  62
7
  10
 158.02620022877
  20
 155.48165199776
  30
0.0
  11
 158.02620022877
  21
 154.78720510596
  31
0.0
   0
LINE
   5
1CF
 100
AcDbEntity
   8
0
 100
AcDbLine
   6
CONTINUOUS
  62
7
  10
 135.12620022877
  20
 169.23063508926
  30
0.0
  11
 143.82620022877
  21
 169.23063508926
  31
0.0
   0
LINE
   5
1D0
 100
AcDbEntity
   8
0
 100
AcDbLine
   6
CONTINUOUS
  62
7
  10
 154.02620022877
  20
 169.23063508926
  30
0.0
  11
 145.32620022877
  21
 169.23063508926
  31
0.0
   0
LINE
   5
1D1
 100
AcDbEntity
   8
0
 100
AcDbLine
   6
CONTINUOUS
  62
7
  10
 111.52620022877
  20
 137.78720510596
  30
0.0
  11
 111.52620022877
  21
 135.28720510596
  31
0.0
   0
LINE
   5
1D2
 100
AcDbEntity
   8
0
 100
AcDbLine
   6
CONTINUOUS
  62
7
  10
 115.12620022877
  20
 132.78720510596
  30
0.0
  11
 115.12620022877
  21
 132.28720510596
  31
0.0
   0
LINE
   5
1D3
 100
AcDbEntity
   8
0
 100
AcDbLine
   6
CONTINUOUS
  62
7
  10
 111.52620022877
  20
 135.28720510596
  30
0.0
  11
 111.52620022877
  21
 132.28720510596
  31
0.0
   0
SPLINE
   5
1D4
 100
AcDbEntity
   8
0
   6
CONTINUOUS
  62
7
 100
AcDbSpline
  70
8
  71
3
  72
12
  73
8
  74
6
  42
 0.10000000000000E-6
  43
 0.10000000000000E-6
  44
 0.10000000000000E-4
  40
0.0
  40
0.0
  40
0.0
  40
0.0
  40
 0.21837183714149
  40
 0.47547130603273
  40
 0.73427777325442
  40
 0.99439512634974
  40
 1.0000000000000
  40
 1.0000000000000
  40
 1.0000000000000
  40
 1.0000000000000
  10
 116.27514366038
  20
 92.692742259370
  30
0.0
  10
 116.27387801173
  20
 92.683891210745
  30
0.0
  10
 116.27112225519
  20
 92.664619404892
  30
0.0
  10
 116.27420473713
  20
 92.427770839231
  30
0.0
  10
 116.27930153109
  20
 92.014897987878
  30
0.0
  10
 116.28363051713
  20
 91.665435387836
  30
0.0
  10
 116.28596339880
  20
 91.429040601928
  30
0.0
  10
 116.28601260622
  20
 91.424054331405
  30
0.0
  11
 116.27514366038
  21
 92.692742259370
  31
0.0
  11
 116.27234902073
  21
 92.637903799255
  31
0.0
  11
 116.27450120786
  21
 92.401482362946
  31
0.0
  11
 116.27951044865
  21
 91.998272804991
  31
0.0
  11
 116.28586504616
  21
 91.438986733023
  31
0.0
  11
 116.28601260622
  21
 91.424054331405
  31
0.0
   0
SPLINE
   5
1D5
 100
AcDbEntity
   8
0
   6
CONTINUOUS
  62
7
 100
AcDbSpline
  70
8
  71
3
  72
11
  73
7
  74
5
  42
 0.10000000000000E-6
  43
 0.10000000000000E-6
  44
 0.10000000000000E-4
  40
0.0
  40
0.0
  40
0.0
  40
0.0
  40
 0.18474040340211
  40
 0.44369730480875
  40
 0.71550697367279
  40
 1.0000000000000
  40
 1.0000000000000
  40
 1.0000000000000
  40
 1.0000000000000
  10
 116.35640487289
  20
 83.024054331405
  30
0.0
  10
 116.35756665488
  20
 82.926780248657
  30
0.0
  10
 116.36035694617
  20
 82.693153778497
  30
0.0
  10
 116.36487462972
  20
 82.416976236149
  30
0.0
  10
 116.37003455079
  20
 82.157230119102
  30
0.0
  10
 116.37357164073
  20
 82.058933492902
  30
0.0
  10
 116.37538050743
  20
 82.008664628654
  30
0.0
  11
 116.35640487289
  21
 83.024054331405
  31
0.0
  11
 116.35989215989
  21
 82.743043601582
  31
0.0
  11
 116.36479540001
  21
 82.430450658381
  31
0.0
  11
 116.36995813169
  21
 82.180117527809
  31
0.0
  11
 116.37538050743
  21
 82.008664628654
  31
0.0
   0
SPLINE
   5
1D6
 100
AcDbEntity
   8
0
   6
CONTINUOUS
  62
7
 100
AcDbSpline
  70
8
  71
3
  72
10
  73
6
  74
4
  42
 0.10000000000000E-6
  43
 0.10000000000000E-6
  44
 0.10000000000000E-4
  40
0.0
  40
0.0
  40
0.0
  40
0.0
  40
 0.17822720436127
  40
 0.35645440872255
  40
 1.0000000000000
  40
 1.0000000000000
  40
 1.0000000000000
  40
 1.0000000000000
  10
 117.06395573894
  20
 92.624054331405
  30
0.0
  10
 117.06297004861
  20
 92.654188084899
  30
0.0
  10
 117.06099866796
  20
 92.714455591885
  30
0.0
  10
 117.05474187430
  20
 92.862330716516
  30
0.0
  10
 117.04684835514
  20
 92.903523468969
  30
0.0
  10
 117.04066679318
  20
 92.935782281105
  30
0.0
  11
 117.06395573894
  21
 92.624054331405
  31
0.0
  11
 117.06093394770
  21
 92.712566400167
  31
0.0
  11
 117.05752383492
  21
 92.789743318622
  31
0.0
  11
 117.04066679318
  21
 92.935782281105
  31
0.0
   0
SPLINE
   5
1D7
 100
AcDbEntity
   8
0
   6
CONTINUOUS
  62
7
 100
AcDbSpline
  70
8
  71
3
  72
20
  73
16
  74
14
  42
 0.10000000000000E-6
  43
 0.10000000000000E-6
  44
 0.10000000000000E-4
  40
0.0
  40
0.0
  40
0.0
  40
0.0
  40
 0.36293951605500
  40
 0.56514461368794
  40
 0.58886254821553
  40
 0.59673783988658
  40
 0.60218986682742
  40
 0.61876813605631
  40
 0.65840756530174
  40
 0.70819962831551
  40
 0.77011737611776
  40
 0.82541907443133
  40
 0.90308210690990
  40
 0.99722939179308
  40
 1.0000000000000
  40
 1.0000000000000
  40
 1.0000000000000
  40
 1.0000000000000
  10
 116.37332204484
  20
 82.066848084329
  30
0.0
  10
 116.38199509094
  20
 81.961074266147
  30
0.0
  10
 116.39550016569
  20
 81.796370504308
  30
0.0
  10
 116.48522464021
  20
 81.659548365887
  30
0.0
  10
 116.55718142279
  20
 81.607299060962
  30
0.0
  10
 116.57178073875
  20
 81.598000457856
  30
0.0
  10
 116.58705829107
  20
 81.588852618317
  30
0.0
  10
 116.62693403713
  20
 81.567826409326
  30
0.0
  10
 116.69590966300
  20
 81.544256782839
  30
0.0
  10
 116.79839467372
  20
 81.533428159829
  30
0.0
  10
 116.90771865801
  20
 81.554273861067
  30
0.0
  10
 117.00972574077
  20
 81.605920418947
  30
0.0
  10
 117.09917596537
  20
 81.693342144740
  30
0.0
  10
 117.15078941404
  20
 81.777573336260
  30
0.0
  10
 117.15708520975
  20
 81.822762501105
  30
0.0
  10
 117.15726518873
  20
 81.824054331405
  30
0.0
  11
 116.37332204484
  21
 82.066848084329
  31
0.0
  11
 116.42928581367
  21
 81.763298662101
  31
0.0
  11
 116.54054509763
  21
 81.619682097376
  31
0.0
  11
 116.56359437098
  21
 81.603268416394
  31
0.0
  11
 116.57327911416
  21
 81.597136793169
  31
0.0
  11
 116.58155749651
  21
 81.592208729390
  31
0.0
  11
 116.61204246207
  21
 81.576268965372
  31
0.0
  11
 116.68976922005
  21
 81.549163349760
  31
0.0
  11
 116.78968332234
  21
 81.538653737681
  31
0.0
  11
 116.90775967719
  21
 81.559684996078
  31
0.0
  11
 116.99504099823
  21
 81.602752456101
  31
0.0
  11
 117.08923547649
  21
 81.690421427548
  31
0.0
  11
 117.15670698091
  21
 81.820177556281
  31
0.0
  11
 117.15726518873
  21
 81.824054331405
  31
0.0
   0
SPLINE
   5
1D8
 100
AcDbEntity
   8
0
   6
CONTINUOUS
  62
7
 100
AcDbSpline
  70
8
  71
3
  72
11
  73
7
  74
5
  42
 0.10000000000000E-6
  43
 0.10000000000000E-6
  44
 0.10000000000000E-4
  40
0.0
  40
0.0
  40
0.0
  40
0.0
  40
 0.29222307887688
  40
 0.62040230825203
  40
 0.92909222305771
  40
 1.0000000000000
  40
 1.0000000000000
  40
 1.0000000000000
  40
 1.0000000000000
  10
 116.50906706819
  20
 92.028499329498
  30
0.0
  10
 116.50697252152
  20
 92.023047500893
  30
0.0
  10
 116.50252570783
  20
 92.011473031608
  30
0.0
  10
 116.49598309979
  20
 91.821096340980
  30
0.0
  10
 116.49103610060
  20
 91.618780734552
  30
0.0
  10
 116.48842156294
  20
 91.454703496218
  30
0.0
  10
 116.48793317469
  20
 91.424054331405
  30
0.0
  11
 116.50906706819
  21
 92.028499329498
  31
0.0
  11
 116.50280072902
  21
 91.986507783378
  31
0.0
  11
 116.49585472662
  21
 91.803414938070
  31
0.0
  11
 116.48939968829
  21
 91.514062792725
  31
0.0
  11
 116.48793317469
  21
 91.424054331405
  31
0.0
   0
SPLINE
   5
1D9
 100
AcDbEntity
   8
0
   6
CONTINUOUS
  62
7
 100
AcDbSpline
  70
8
  71
3
  72
13
  73
9
  74
7
  42
 0.10000000000000E-6
  43
 0.10000000000000E-6
  44
 0.10000000000000E-4
  40
0.0
  40
0.0
  40
0.0
  40
0.0
  40
 0.20185869172651E-1
  40
 0.23968184244692
  40
 0.47393114514560
  40
 0.72312977022614
  40
 0.98741500767342
  40
 1.0000000000000
  40
 1.0000000000000
  40
 1.0000000000000
  40
 1.0000000000000
  10
 116.40838038523
  20
 83.024054331405
  30
0.0
  10
 116.40820541277
  20
 83.009182082872
  30
0.0
  10
 116.40612783458
  20
 82.832592811470
  30
0.0
  10
 116.40204697382
  20
 82.562103163423
  30
0.0
  10
 116.39601165063
  20
 82.227239959151
  30
0.0
  10
 116.38963705985
  20
 82.025821596964
  30
0.0
  10
 116.38516657811
  20
 81.933782784598
  30
0.0
  10
 116.38283387276
  20
 81.960829635236
  30
0.0
  10
 116.38272784085
  20
 81.962059035767
  30
0.0
  11
 116.40838038523
  21
 83.024054331405
  31
0.0
  11
 116.40785556544
  21
 82.979719842423
  31
0.0
  11
 116.40217665145
  21
 82.580542908072
  31
0.0
  11
 116.39614687607
  21
 82.257856573248
  31
0.0
  11
 116.38976898049
  21
 82.041304052696
  31
0.0
  11
 116.38304597813
  21
 81.958526798415
  31
0.0
  11
 116.38272784085
  21
 81.962059035767
  31
0.0
   0
LINE
   5
1DA
 100
AcDbEntity
   8
0
 100
AcDbLine
   6
CONTINUOUS
  62
7
  10
 119.02620022882
  20
 94.724054331405
  30
0.0
  11
 119.02620022882
  21
 92.624054331405
  31
0.0
   0
LINE
   5
1DB
 100
AcDbEntity
   8
0
 100
AcDbLine
   6
CONTINUOUS
  62
7
  10
 119.02620022882
  20
 81.824054331405
  30
0.0
  11
 119.02620022882
  21
 79.724054331405
  31
0.0
   0
LINE
   5
1DC
 100
AcDbEntity
   8
0
 100
AcDbLine
   6
CONTINUOUS
  62
7
  10
 123.02620022882
  20
 79.724054331405
  30
0.0
  11
 123.02620022882
  21
 81.824054331405
  31
0.0
   0
LINE
   5
1DD
 100
AcDbEntity
   8
0
 100
AcDbLine
   6
CONTINUOUS
  62
7
  10
 123.02620022882
  20
 92.624054331405
  30
0.0
  11
 123.02620022882
  21
 94.724054331405
  31
0.0
   0
LINE
   5
1DE
 100
AcDbEntity
   8
0
 100
AcDbLine
   6
CONTINUOUS
  62
7
  10
 119.52620022882
  20
 96.224054331405
  30
0.0
  11
 119.52620022882
  21
 95.724054331405
  31
0.0
   0
LINE
   5
1DF
 100
AcDbEntity
   8
0
 100
AcDbLine
   6
CONTINUOUS
  62
7
  10
 122.52620022882
  20
 95.724054331405
  30
0.0
  11
 122.52620022882
  21
 96.224054331405
  31
0.0
   0
LINE
   5
1E0
 100
AcDbEntity
   8
0
 100
AcDbLine
   6
CONTINUOUS
  62
7
  10
 156.52620022882
  20
 83.224054331405
  30
0.0
  11
 157.02620022882
  21
 83.224054331405
  31
0.0
   0
LINE
   5
1E1
 100
AcDbEntity
   8
0
 100
AcDbLine
   6
CONTINUOUS
  62
7
  10
 157.02620022882
  20
 91.224054331405
  30
0.0
  11
 156.52620022882
  21
 91.224054331405
  31
0.0
   0
LINE
   5
1E2
 100
AcDbEntity
   8
0
 100
AcDbLine
   6
CONTINUOUS
  62
7
  10
 124.82620022882
  20
 83.024054331405
  30
0.0
  11
 124.82620022882
  21
 91.424054331405
  31
0.0
   0
LINE
   5
1E3
 100
AcDbEntity
   8
0
 100
AcDbLine
   6
CONTINUOUS
  62
7
  10
 115.12620022882
  20
 80.624054331405
  30
0.0
  11
 116.12620022882
  21
 80.624054331405
  31
0.0
   0
LINE
   5
1E4
 100
AcDbEntity
   8
0
 100
AcDbLine
   6
CONTINUOUS
  62
7
  10
 116.12620022882
  20
 93.824054331405
  30
0.0
  11
 115.12620022882
  21
 93.824054331405
  31
0.0
   0
LINE
   5
1E5
 100
AcDbEntity
   8
0
 100
AcDbLine
   6
CONTINUOUS
  62
7
  10
 116.52620022882
  20
 83.024054331405
  30
0.0
  11
 116.52620022882
  21
 81.824054331405
  31
0.0
   0
LINE
   5
1E6
 100
AcDbEntity
   8
0
 100
AcDbLine
   6
CONTINUOUS
  62
7
  10
 116.52620022882
  20
 92.624054331405
  30
0.0
  11
 116.52620022882
  21
 91.424054331405
  31
0.0
   0
LINE
   5
1E7
 100
AcDbEntity
   8
0
 100
AcDbLine
   6
CONTINUOUS
  62
7
  10
 158.02620022882
  20
 88.924054331405
  30
0.0
  11
 157.02620022882
  21
 88.924054331405
  31
0.0
   0
LINE
   5
1E8
 100
AcDbEntity
   8
0
 100
AcDbLine
   6
CONTINUOUS
  62
7
  10
 157.02620022882
  20
 85.524054331405
  30
0.0
  11
 158.02620022882
  21
 85.524054331405
  31
0.0
   0
ARC
   5
1E9
 100
AcDbEntity
   8
0
   6
CONTINUOUS
  62
7
 100
AcDbCircle
  10
 160.52620022877
  20
 94.724054331357
  30
0.0
  40
 1.0000000000000
 100
AcDbArc
  50
0.0
  51
 89.999999999919
   0
ARC
   5
1EA
 100
AcDbEntity
   8
0
   6
CONTINUOUS
  62
7
 100
AcDbCircle
  10
 160.52620022877
  20
 79.724054331356
  30
0.0
  40
 1.0000000000000
 100
AcDbArc
  50
 270.00000000000
  51
 0.55367095894917E-10
   0
LINE
   5
1EB
 100
AcDbEntity
   8
0
 100
AcDbLine
   6
CONTINUOUS
  62
7
  10
 155.52620022882
  20
 78.724054331405
  30
0.0
  11
 160.52620022882
  21
 78.724054331405
  31
0.0
   0
LINE
   5
1EC
 100
AcDbEntity
   8
0
 100
AcDbLine
   6
CONTINUOUS
  62
7
  10
 160.52620022882
  20
 95.724054331405
  30
0.0
  11
 155.52620022882
  21
 95.724054331405
  31
0.0
   0
ARC
   5
1ED
 100
AcDbEntity
   8
0
   6
CONTINUOUS
  62
7
 100
AcDbCircle
  10
 116.65814635348
  20
 92.818828815256
  30
0.0
  40
 0.40000000000001
 100
AcDbArc
  50
 179.99999999991
  51
 250.73939934272
   0
ARC
   5
1EE
 100
AcDbEntity
   8
0
   6
CONTINUOUS
  62
7
 100
AcDbCircle
  10
 116.65814635347
  20
 92.818828815257
  30
0.0
  40
 0.40000000000002
 100
AcDbArc
  50
 330.86059434366
  51
 180.00000000004
   0
LINE
   5
1EF
 100
AcDbEntity
   8
0
 100
AcDbLine
   6
CONTINUOUS
  62
7
  10
 121.75341579847
  20
 96.224054331357
  30
0.0
  11
 122.52620022877
  21
 96.224054331357
  31
0.0
   0
LINE
   5
1F0
 100
AcDbEntity
   8
0
 100
AcDbLine
   6
CONTINUOUS
  62
7
  10
 119.52620022877
  20
 96.224054331357
  30
0.0
  11
 121.75341579847
  21
 96.224054331357
  31
0.0
   0
LINE
   5
1F1
 100
AcDbEntity
   8
0
 100
AcDbLine
   6
CONTINUOUS
  62
7
  10
 157.02620022877
  20
 90.684304254157
  30
0.0
  11
 157.02620022877
  21
 83.224054331357
  31
0.0
   0
LINE
   5
1F2
 100
AcDbEntity
   8
0
 100
AcDbLine
   6
CONTINUOUS
  62
7
  10
 157.02620022877
  20
 91.224054331357
  30
0.0
  11
 157.02620022877
  21
 90.684304254157
  31
0.0
   0
LINE
   5
1F3
 100
AcDbEntity
   8
0
 100
AcDbLine
   6
CONTINUOUS
  62
7
  10
 112.22620022877
  20
 91.424054331357
  30
0.0
  11
 112.22620022877
  21
 83.024054331357
  31
0.0
   0
LINE
   5
1F4
 100
AcDbEntity
   8
0
 100
AcDbLine
   6
CONTINUOUS
  62
7
  10
 112.22620022877
  20
 91.424054331357
  30
0.0
  11
 122.42620022877
  21
 91.424054331357
  31
0.0
   0
LINE
   5
1F5
 100
AcDbEntity
   8
0
 100
AcDbLine
   6
CONTINUOUS
  62
7
  10
 112.22620022877
  20
 83.024054331357
  30
0.0
  11
 122.42620022877
  21
 83.024054331357
  31
0.0
   0
LINE
   5
1F6
 100
AcDbEntity
   8
0
 100
AcDbLine
   6
CONTINUOUS
  62
7
  10
 122.42620022877
  20
 91.424054331357
  30
0.0
  11
 124.22817251317
  21
 91.424054331357
  31
0.0
   0
LINE
   5
1F7
 100
AcDbEntity
   8
0
 100
AcDbLine
   6
CONTINUOUS
  62
7
  10
 124.42620022877
  20
 91.424054331357
  30
0.0
  11
 124.42620022877
  21
 83.024054331357
  31
0.0
   0
LINE
   5
1F8
 100
AcDbEntity
   8
0
 100
AcDbLine
   6
CONTINUOUS
  62
7
  10
 122.42620022877
  20
 83.024054331357
  30
0.0
  11
 124.22817251317
  21
 83.024054331357
  31
0.0
   0
LINE
   5
1F9
 100
AcDbEntity
   8
0
 100
AcDbLine
   6
CONTINUOUS
  62
7
  10
 116.12620022877
  20
 91.424054331357
  30
0.0
  11
 116.28601260617
  21
 91.424054331357
  31
0.0
   0
LINE
   5
1FA
 100
AcDbEntity
   8
0
 100
AcDbLine
   6
CONTINUOUS
  62
7
  10
 116.12620022877
  20
 83.024054331357
  30
0.0
  11
 116.35640487287
  21
 83.024054331357
  31
0.0
   0
LINE
   5
1FB
 100
AcDbEntity
   8
0
 100
AcDbLine
   6
CONTINUOUS
  62
7
  10
 115.12620022877
  20
 93.024054331357
  30
0.0
  11
 115.12620022877
  21
 91.424054331357
  31
0.0
   0
LINE
   5
1FC
 100
AcDbEntity
   8
0
 100
AcDbLine
   6
CONTINUOUS
  62
7
  10
 115.12620022877
  20
 83.024054331357
  30
0.0
  11
 115.12620022877
  21
 81.424054331357
  31
0.0
   0
LINE
   5
1FD
 100
AcDbEntity
   8
0
 100
AcDbLine
   6
CONTINUOUS
  62
7
  10
 116.12620022877
  20
 93.824054331357
  30
0.0
  11
 116.12620022877
  21
 91.424054331357
  31
0.0
   0
LINE
   5
1FE
 100
AcDbEntity
   8
0
 100
AcDbLine
   6
CONTINUOUS
  62
7
  10
 116.12620022877
  20
 83.024054331357
  30
0.0
  11
 116.12620022877
  21
 80.624054331357
  31
0.0
   0
LINE
   5
1FF
 100
AcDbEntity
   8
0
 100
AcDbLine
   6
CONTINUOUS
  62
7
  10
 115.12620022877
  20
 81.474054331357
  30
0.0
  11
 114.12620022877
  21
 81.474054331357
  31
0.0
   0
LINE
   5
200
 100
AcDbEntity
   8
0
 100
AcDbLine
   6
CONTINUOUS
  62
7
  10
 115.12620022877
  20
 92.974054331357
  30
0.0
  11
 114.12620022877
  21
 92.974054331357
  31
0.0
   0
LINE
   5
201
 100
AcDbEntity
   8
0
 100
AcDbLine
   6
CONTINUOUS
  62
7
  10
 116.52620022877
  20
 81.824054331357
  30
0.0
  11
 122.06029785887
  21
 81.824054331357
  31
0.0
   0
LINE
   5
202
 100
AcDbEntity
   8
0
 100
AcDbLine
   6
CONTINUOUS
  62
7
  10
 116.52620022877
  20
 92.624054331357
  30
0.0
  11
 122.06029785887
  21
 92.624054331357
  31
0.0
   0
LINE
   5
203
 100
AcDbEntity
   8
0
 100
AcDbLine
   6
CONTINUOUS
  62
7
  10
 122.06029785887
  20
 81.824054331357
  30
0.0
  11
 136.83473069677
  21
 81.824054331357
  31
0.0
   0
LINE
   5
204
 100
AcDbEntity
   8
0
 100
AcDbLine
   6
CONTINUOUS
  62
7
  10
 122.06029785887
  20
 92.624054331357
  30
0.0
  11
 136.83473069677
  21
 92.624054331357
  31
0.0
   0
LINE
   5
205
 100
AcDbEntity
   8
0
 100
AcDbLine
   6
CONTINUOUS
  62
7
  10
 128.62620022877
  20
 83.224054331357
  30
0.0
  11
 128.62620022877
  21
 83.024054331357
  31
0.0
   0
LINE
   5
206
 100
AcDbEntity
   8
0
 100
AcDbLine
   6
CONTINUOUS
  62
7
  10
 128.62620022877
  20
 91.424054331357
  30
0.0
  11
 128.62620022877
  21
 91.224054331357
  31
0.0
   0
LINE
   5
207
 100
AcDbEntity
   8
0
 100
AcDbLine
   6
CONTINUOUS
  62
7
  10
 128.62620022877
  20
 91.224054331357
  30
0.0
  11
 128.61659286907
  21
 91.126509170357
  31
0.0
   0
LINE
   5
208
 100
AcDbEntity
   8
0
 100
AcDbLine
   6
CONTINUOUS
  62
7
  10
 128.61659286907
  20
 91.126509170357
  30
0.0
  11
 128.61609817737
  21
 91.124054331357
  31
0.0
   0
LINE
   5
209
 100
AcDbEntity
   8
0
 100
AcDbLine
   6
CONTINUOUS
  62
7
  10
 128.61609817737
  20
 83.324054331357
  30
0.0
  11
 128.61659286907
  21
 83.321599492457
  31
0.0
   0
LINE
   5
20A
 100
AcDbEntity
   8
0
 100
AcDbLine
   6
CONTINUOUS
  62
7
  10
 128.61659286907
  20
 83.321599492457
  30
0.0
  11
 128.62620022877
  21
 83.224054331357
  31
0.0
   0
LINE
   5
20B
 100
AcDbEntity
   8
0
 100
AcDbLine
   6
CONTINUOUS
  62
7
  10
 126.84680926757
  20
 80.724054331357
  30
0.0
  11
 126.84680926757
  21
 81.824054331357
  31
0.0
   0
LINE
   5
20C
 100
AcDbEntity
   8
0
 100
AcDbLine
   6
CONTINUOUS
  62
7
  10
 126.84680926757
  20
 92.624054331357
  30
0.0
  11
 126.84680926757
  21
 93.724054331357
  31
0.0
   0
LINE
   5
20D
 100
AcDbEntity
   8
0
 100
AcDbLine
   6
CONTINUOUS
  62
7
  10
 123.64680926757
  20
 80.724054331357
  30
0.0
  11
 123.64680926757
  21
 81.824054331357
  31
0.0
   0
LINE
   5
20E
 100
AcDbEntity
   8
0
 100
AcDbLine
   6
CONTINUOUS
  62
7
  10
 123.64680926757
  20
 92.624054331357
  30
0.0
  11
 123.64680926757
  21
 93.724054331357
  31
0.0
   0
LINE
   5
20F
 100
AcDbEntity
   8
0
 100
AcDbLine
   6
CONTINUOUS
  62
7
  10
 126.84680926757
  20
 80.224054331357
  30
0.0
  11
 123.64680926757
  21
 80.224054331357
  31
0.0
   0
LINE
   5
210
 100
AcDbEntity
   8
0
 100
AcDbLine
   6
CONTINUOUS
  62
7
  10
 126.84680926757
  20
 80.724054331357
  30
0.0
  11
 126.84680926757
  21
 80.224054331357
  31
0.0
   0
LINE
   5
211
 100
AcDbEntity
   8
0
 100
AcDbLine
   6
CONTINUOUS
  62
7
  10
 123.64680926757
  20
 80.224054331357
  30
0.0
  11
 123.64680926757
  21
 80.724054331357
  31
0.0
   0
LINE
   5
212
 100
AcDbEntity
   8
0
 100
AcDbLine
   6
CONTINUOUS
  62
7
  10
 123.64680926757
  20
 94.224054331357
  30
0.0
  11
 126.84680926757
  21
 94.224054331357
  31
0.0
   0
LINE
   5
213
 100
AcDbEntity
   8
0
 100
AcDbLine
   6
CONTINUOUS
  62
7
  10
 126.84680926757
  20
 94.224054331357
  30
0.0
  11
 126.84680926757
  21
 93.724054331357
  31
0.0
   0
LINE
   5
214
 100
AcDbEntity
   8
0
 100
AcDbLine
   6
CONTINUOUS
  62
7
  10
 123.64680926757
  20
 93.724054331357
  30
0.0
  11
 123.64680926757
  21
 94.224054331357
  31
0.0
   0
LINE
   5
215
 100
AcDbEntity
   8
0
 100
AcDbLine
   6
CONTINUOUS
  62
7
  10
 113.12620022877
  20
 79.724054331357
  30
0.0
  11
 113.12620022877
  21
 78.724054331357
  31
0.0
   0
LINE
   5
216
 100
AcDbEntity
   8
0
 100
AcDbLine
   6
CONTINUOUS
  62
7
  10
 115.12620022877
  20
 79.724054331357
  30
0.0
  11
 120.75863878117
  21
 79.724054331357
  31
0.0
   0
LINE
   5
217
 100
AcDbEntity
   8
0
 100
AcDbLine
   6
CONTINUOUS
  62
7
  10
 113.12620022877
  20
 78.724054331357
  30
0.0
  11
 120.75863878117
  21
 78.724054331357
  31
0.0
   0
LINE
   5
218
 100
AcDbEntity
   8
0
 100
AcDbLine
   6
CONTINUOUS
  62
7
  10
 120.75863878117
  20
 79.724054331357
  30
0.0
  11
 125.48620677727
  21
 79.724054331357
  31
0.0
   0
LINE
   5
219
 100
AcDbEntity
   8
0
 100
AcDbLine
   6
CONTINUOUS
  62
7
  10
 125.48620677727
  20
 78.724054331357
  30
0.0
  11
 120.75863878117
  21
 78.724054331357
  31
0.0
   0
LINE
   5
21A
 100
AcDbEntity
   8
0
 100
AcDbLine
   6
CONTINUOUS
  62
7
  10
 113.12620022877
  20
 95.724054331357
  30
0.0
  11
 113.12620022877
  21
 94.724054331357
  31
0.0
   0
LINE
   5
21B
 100
AcDbEntity
   8
0
 100
AcDbLine
   6
CONTINUOUS
  62
7
  10
 120.75863878117
  20
 95.724054331357
  30
0.0
  11
 113.12620022877
  21
 95.724054331357
  31
0.0
   0
LINE
   5
21C
 100
AcDbEntity
   8
0
 100
AcDbLine
   6
CONTINUOUS
  62
7
  10
 120.75863878117
  20
 94.724054331357
  30
0.0
  11
 115.12620022877
  21
 94.724054331357
  31
0.0
   0
LINE
   5
21D
 100
AcDbEntity
   8
0
 100
AcDbLine
   6
CONTINUOUS
  62
7
  10
 120.75863878117
  20
 95.724054331357
  30
0.0
  11
 125.48620677727
  21
 95.724054331357
  31
0.0
   0
LINE
   5
21E
 100
AcDbEntity
   8
0
 100
AcDbLine
   6
CONTINUOUS
  62
7
  10
 125.48620677727
  20
 94.724054331357
  30
0.0
  11
 120.75863878117
  21
 94.724054331357
  31
0.0
   0
LINE
   5
21F
 100
AcDbEntity
   8
0
 100
AcDbLine
   6
CONTINUOUS
  62
7
  10
 153.09483720297
  20
 78.724054331357
  30
0.0
  11
 153.09483720297
  21
 79.724054331357
  31
0.0
   0
LINE
   5
220
 100
AcDbEntity
   8
0
 100
AcDbLine
   6
CONTINUOUS
  62
7
  10
 125.48620677727
  20
 79.724054331357
  30
0.0
  11
 153.09483720297
  21
 79.724054331357
  31
0.0
   0
LINE
   5
221
 100
AcDbEntity
   8
0
 100
AcDbLine
   6
CONTINUOUS
  62
7
  10
 153.09483720297
  20
 78.724054331357
  30
0.0
  11
 125.48620677727
  21
 78.724054331357
  31
0.0
   0
LINE
   5
222
 100
AcDbEntity
   8
0
 100
AcDbLine
   6
CONTINUOUS
  62
7
  10
 153.09483720297
  20
 94.724054331357
  30
0.0
  11
 153.09483720297
  21
 95.724054331357
  31
0.0
   0
LINE
   5
223
 100
AcDbEntity
   8
0
 100
AcDbLine
   6
CONTINUOUS
  62
7
  10
 153.09483720297
  20
 95.724054331357
  30
0.0
  11
 125.48620677727
  21
 95.724054331357
  31
0.0
   0
LINE
   5
224
 100
AcDbEntity
   8
0
 100
AcDbLine
   6
CONTINUOUS
  62
7
  10
 153.09483720297
  20
 94.724054331357
  30
0.0
  11
 125.48620677727
  21
 94.724054331357
  31
0.0
   0
LINE
   5
225
 100
AcDbEntity
   8
0
 100
AcDbLine
   6
CONTINUOUS
  62
7
  10
 114.12620022877
  20
 78.724054331357
  30
0.0
  11
 113.12620022877
  21
 78.724054331357
  31
0.0
   0
LINE
   5
226
 100
AcDbEntity
   8
0
 100
AcDbLine
   6
CONTINUOUS
  62
7
  10
 114.12620022877
  20
 95.724054331357
  30
0.0
  11
 113.12620022877
  21
 95.724054331357
  31
0.0
   0
LINE
   5
227
 100
AcDbEntity
   8
0
 100
AcDbLine
   6
CONTINUOUS
  62
7
  10
 156.52620022877
  20
 79.724054331357
  30
0.0
  11
 156.52620022877
  21
 94.724054331357
  31
0.0
   0
ARC
   5
228
 100
AcDbEntity
   8
0
   6
CONTINUOUS
  62
7
 100
AcDbCircle
  10
 155.52620022877
  20
 79.724054331358
  30
0.0
  40
 1.0000000000000
 100
AcDbArc
  50
 270.00000000000
  51
0.0
   0
LINE
   5
229
 100
AcDbEntity
   8
0
 100
AcDbLine
   6
CONTINUOUS
  62
7
  10
 155.52620022877
  20
 79.724054331357
  30
0.0
  11
 155.52620022877
  21
 94.724054331357
  31
0.0
   0
ARC
   5
22A
 100
AcDbEntity
   8
0
   6
CONTINUOUS
  62
7
 100
AcDbCircle
  10
 155.52620022877
  20
 94.724054331357
  30
0.0
  40
 1.0000000000000
 100
AcDbArc
  50
0.0
  51
 90.000000000023
   0
LINE
   5
22B
 100
AcDbEntity
   8
0
 100
AcDbLine
   6
CONTINUOUS
  62
7
  10
 155.52620022877
  20
 95.724054331357
  30
0.0
  11
 153.09483720297
  21
 95.724054331357
  31
0.0
   0
LINE
   5
22C
 100
AcDbEntity
   8
0
 100
AcDbLine
   6
CONTINUOUS
  62
7
  10
 155.52620022877
  20
 94.724054331357
  30
0.0
  11
 153.09483720297
  21
 94.724054331357
  31
0.0
   0
LINE
   5
22D
 100
AcDbEntity
   8
0
 100
AcDbLine
   6
CONTINUOUS
  62
7
  10
 153.09483720297
  20
 79.724054331357
  30
0.0
  11
 155.52620022877
  21
 79.724054331357
  31
0.0
   0
LINE
   5
22E
 100
AcDbEntity
   8
0
 100
AcDbLine
   6
CONTINUOUS
  62
7
  10
 155.52620022877
  20
 78.724054331357
  30
0.0
  11
 153.09483720297
  21
 78.724054331357
  31
0.0
   0
LINE
   5
22F
 100
AcDbEntity
   8
0
 100
AcDbLine
   6
CONTINUOUS
  62
7
  10
 154.92620022877
  20
 78.724054331357
  30
0.0
  11
 154.52620022877
  21
 78.724054331357
  31
0.0
   0
LINE
   5
230
 100
AcDbEntity
   8
0
 100
AcDbLine
   6
CONTINUOUS
  62
7
  10
 155.22620022877
  20
 79.724054331357
  30
0.0
  11
 155.42620022877
  21
 79.724054331357
  31
0.0
   0
LINE
   5
231
 100
AcDbEntity
   8
0
 100
AcDbLine
   6
CONTINUOUS
  62
7
  10
 155.42620022877
  20
 78.724054331357
  30
0.0
  11
 154.92620022877
  21
 78.724054331357
  31
0.0
   0
LINE
   5
232
 100
AcDbEntity
   8
0
 100
AcDbLine
   6
CONTINUOUS
  62
7
  10
 154.92620022877
  20
 95.724054331357
  30
0.0
  11
 154.52620022877
  21
 95.724054331357
  31
0.0
   0
LINE
   5
233
 100
AcDbEntity
   8
0
 100
AcDbLine
   6
CONTINUOUS
  62
7
  10
 154.92620022877
  20
 95.724054331357
  30
0.0
  11
 155.42620022877
  21
 95.724054331357
  31
0.0
   0
LINE
   5
234
 100
AcDbEntity
   8
0
 100
AcDbLine
   6
CONTINUOUS
  62
7
  10
 155.42620022877
  20
 94.724054331357
  30
0.0
  11
 155.22620022877
  21
 94.724054331357
  31
0.0
   0
LINE
   5
235
 100
AcDbEntity
   8
0
 100
AcDbLine
   6
CONTINUOUS
  62
7
  10
 115.12620022877
  20
 79.724054331357
  30
0.0
  11
 115.12620022877
  21
 80.524054331357
  31
0.0
   0
LINE
   5
236
 100
AcDbEntity
   8
0
 100
AcDbLine
   6
CONTINUOUS
  62
7
  10
 113.02620022877
  20
 79.724054331357
  30
0.0
  11
 115.12620022877
  21
 79.724054331357
  31
0.0
   0
LINE
   5
237
 100
AcDbEntity
   8
0
 100
AcDbLine
   6
CONTINUOUS
  62
7
  10
 113.02620022877
  20
 78.724054331357
  30
0.0
  11
 113.02620022877
  21
 79.724054331357
  31
0.0
   0
LINE
   5
238
 100
AcDbEntity
   8
0
 100
AcDbLine
   6
CONTINUOUS
  62
7
  10
 113.02620022877
  20
 78.724054331357
  30
0.0
  11
 111.52620022877
  21
 78.724054331357
  31
0.0
   0
LINE
   5
239
 100
AcDbEntity
   8
0
 100
AcDbLine
   6
CONTINUOUS
  62
7
  10
 115.12620022877
  20
 80.524054331357
  30
0.0
  11
 111.52620022877
  21
 80.524054331357
  31
0.0
   0
LINE
   5
23A
 100
AcDbEntity
   8
0
 100
AcDbLine
   6
CONTINUOUS
  62
7
  10
 111.52620022877
  20
 78.724054331357
  30
0.0
  11
 111.52620022877
  21
 80.524054331357
  31
0.0
   0
LINE
   5
23B
 100
AcDbEntity
   8
0
 100
AcDbLine
   6
CONTINUOUS
  62
7
  10
 113.02620022877
  20
 95.724054331357
  30
0.0
  11
 111.52620022877
  21
 95.724054331357
  31
0.0
   0
LINE
   5
23C
 100
AcDbEntity
   8
0
 100
AcDbLine
   6
CONTINUOUS
  62
7
  10
 113.02620022877
  20
 94.724054331357
  30
0.0
  11
 115.12620022877
  21
 94.724054331357
  31
0.0
   0
LINE
   5
23D
 100
AcDbEntity
   8
0
 100
AcDbLine
   6
CONTINUOUS
  62
7
  10
 115.12620022877
  20
 93.924054331357
  30
0.0
  11
 111.52620022877
  21
 93.924054331357
  31
0.0
   0
LINE
   5
23E
 100
AcDbEntity
   8
0
 100
AcDbLine
   6
CONTINUOUS
  62
7
  10
 113.02620022877
  20
 95.724054331357
  30
0.0
  11
 113.02620022877
  21
 94.724054331357
  31
0.0
   0
LINE
   5
23F
 100
AcDbEntity
   8
0
 100
AcDbLine
   6
CONTINUOUS
  62
7
  10
 115.12620022877
  20
 93.924054331357
  30
0.0
  11
 115.12620022877
  21
 94.724054331357
  31
0.0
   0
LINE
   5
240
 100
AcDbEntity
   8
0
 100
AcDbLine
   6
CONTINUOUS
  62
7
  10
 111.52620022877
  20
 93.924054331357
  30
0.0
  11
 111.52620022877
  21
 95.724054331357
  31
0.0
   0
LINE
   5
241
 100
AcDbEntity
   8
0
 100
AcDbLine
   6
CONTINUOUS
  62
7
  10
 111.52620022877
  20
 81.424054331357
  30
0.0
  11
 115.12620022877
  21
 81.424054331357
  31
0.0
   0
LINE
   5
242
 100
AcDbEntity
   8
0
 100
AcDbLine
   6
CONTINUOUS
  62
7
  10
 115.12620022877
  20
 81.424054331357
  30
0.0
  11
 115.12620022877
  21
 80.524054331357
  31
0.0
   0
LINE
   5
243
 100
AcDbEntity
   8
0
 100
AcDbLine
   6
CONTINUOUS
  62
7
  10
 111.52620022877
  20
 81.424054331357
  30
0.0
  11
 111.52620022877
  21
 80.524054331357
  31
0.0
   0
LINE
   5
244
 100
AcDbEntity
   8
0
 100
AcDbLine
   6
CONTINUOUS
  62
7
  10
 111.52620022877
  20
 93.024054331357
  30
0.0
  11
 115.12620022877
  21
 93.024054331357
  31
0.0
   0
LINE
   5
245
 100
AcDbEntity
   8
0
 100
AcDbLine
   6
CONTINUOUS
  62
7
  10
 115.12620022877
  20
 93.924054331357
  30
0.0
  11
 115.12620022877
  21
 93.024054331357
  31
0.0
   0
LINE
   5
246
 100
AcDbEntity
   8
0
 100
AcDbLine
   6
CONTINUOUS
  62
7
  10
 111.52620022877
  20
 93.924054331357
  30
0.0
  11
 111.52620022877
  21
 93.024054331357
  31
0.0
   0
LINE
   5
247
 100
AcDbEntity
   8
0
 100
AcDbLine
   6
CONTINUOUS
  62
7
  10
 113.42620022877
  20
 81.424054331357
  30
0.0
  11
 113.42620022877
  21
 83.024054331357
  31
0.0
   0
LINE
   5
248
 100
AcDbEntity
   8
0
 100
AcDbLine
   6
CONTINUOUS
  62
7
  10
 113.42620022877
  20
 91.424054331357
  30
0.0
  11
 113.42620022877
  21
 93.024054331357
  31
0.0
   0
LINE
   5
249
 100
AcDbEntity
   8
0
 100
AcDbLine
   6
CONTINUOUS
  62
7
  10
 114.12620022877
  20
 93.024054331357
  30
0.0
  11
 114.12620022877
  21
 91.424054331357
  31
0.0
   0
LINE
   5
24A
 100
AcDbEntity
   8
0
 100
AcDbLine
   6
CONTINUOUS
  62
7
  10
 114.12620022877
  20
 83.024054331357
  30
0.0
  11
 114.12620022877
  21
 81.424054331357
  31
0.0
   0
LINE
   5
24B
 100
AcDbEntity
   8
0
 100
AcDbLine
   6
CONTINUOUS
  62
7
  10
 111.52620022877
  20
 81.424054331357
  30
0.0
  11
 111.52620022877
  21
 93.024054331357
  31
0.0
   0
LINE
   5
24C
 100
AcDbEntity
   8
0
 100
AcDbLine
   6
CONTINUOUS
  62
7
  10
 113.12620022877
  20
 79.724054331357
  30
0.0
  11
 113.02620022877
  21
 79.724054331357
  31
0.0
   0
LINE
   5
24D
 100
AcDbEntity
   8
0
 100
AcDbLine
   6
CONTINUOUS
  62
7
  10
 113.12620022877
  20
 94.724054331357
  30
0.0
  11
 113.02620022877
  21
 94.724054331357
  31
0.0
   0
LINE
   5
24E
 100
AcDbEntity
   8
0
 100
AcDbLine
   6
CONTINUOUS
  62
7
  10
 113.12620022877
  20
 78.724054331357
  30
0.0
  11
 113.02620022877
  21
 78.724054331357
  31
0.0
   0
LINE
   5
24F
 100
AcDbEntity
   8
0
 100
AcDbLine
   6
CONTINUOUS
  62
7
  10
 113.02620022877
  20
 95.724054331357
  30
0.0
  11
 113.12620022877
  21
 95.724054331357
  31
0.0
   0
LINE
   5
250
 100
AcDbEntity
   8
0
 100
AcDbLine
   6
CONTINUOUS
  62
7
  10
 161.52620022877
  20
 94.724054330957
  30
0.0
  11
 161.52620022877
  21
 79.724054331357
  31
0.0
   0
LINE
   5
251
 100
AcDbEntity
   8
0
 100
AcDbLine
   6
CONTINUOUS
  62
7
  10
 158.02620022877
  20
 92.924054331357
  30
0.0
  11
 158.02620022877
  21
 81.524054331357
  31
0.0
   0
LINE
   5
252
 100
AcDbEntity
   8
0
 100
AcDbLine
   6
CONTINUOUS
  62
7
  10
 156.52620022877
  20
 92.924054331357
  30
0.0
  11
 158.02620022877
  21
 92.924054331357
  31
0.0
   0
LINE
   5
253
 100
AcDbEntity
   8
0
 100
AcDbLine
   6
CONTINUOUS
  62
7
  10
 156.52620022877
  20
 81.524054331357
  30
0.0
  11
 158.02620022877
  21
 81.524054331357
  31
0.0
   0
LINE
   5
254
 100
AcDbEntity
   8
0
 100
AcDbLine
   6
CONTINUOUS
  62
7
  10
 153.25495678417
  20
 93.224054331357
  30
0.0
  11
 153.25495678417
  21
 94.724054331357
  31
0.0
   0
LINE
   5
255
 100
AcDbEntity
   8
0
 100
AcDbLine
   6
CONTINUOUS
  62
7
  10
 153.25495678417
  20
 93.224054331357
  30
0.0
  11
 148.52620022877
  21
 93.224054331357
  31
0.0
   0
LINE
   5
256
 100
AcDbEntity
   8
0
 100
AcDbLine
   6
CONTINUOUS
  62
7
  10
 153.25495678417
  20
 81.224054331357
  30
0.0
  11
 148.52620022877
  21
 81.224054331357
  31
0.0
   0
LINE
   5
257
 100
AcDbEntity
   8
0
 100
AcDbLine
   6
CONTINUOUS
  62
7
  10
 153.25495678417
  20
 79.724054331357
  30
0.0
  11
 153.25495678417
  21
 81.224054331357
  31
0.0
   0
LINE
   5
258
 100
AcDbEntity
   8
0
 100
AcDbLine
   6
CONTINUOUS
  62
7
  10
 154.02620022877
  20
 81.224054331357
  30
0.0
  11
 153.25495678417
  21
 81.224054331357
  31
0.0
   0
LINE
   5
259
 100
AcDbEntity
   8
0
 100
AcDbLine
   6
CONTINUOUS
  62
7
  10
 154.02620022877
  20
 93.224054331357
  30
0.0
  11
 153.25495678417
  21
 93.224054331357
  31
0.0
   0
ARC
   5
25A
 100
AcDbEntity
   8
0
   6
CONTINUOUS
  62
7
 100
AcDbCircle
  10
 155.22620022877
  20
 94.424054331357
  30
0.0
  40
 0.30000000000000
 100
AcDbArc
  50
0.0
  51
 90.000000000005
   0
ARC
   5
25B
 100
AcDbEntity
   8
0
   6
CONTINUOUS
  62
7
 100
AcDbCircle
  10
 155.22620022877
  20
 80.024054331356
  30
0.0
  40
 0.30000000000001
 100
AcDbArc
  50
 270.00000000000
  51
 0.11399107978365E-9
   0
LINE
   5
25C
 100
AcDbEntity
   8
0
 100
AcDbLine
   6
CONTINUOUS
  62
7
  10
 118.62620022877
  20
 79.724054331357
  30
0.0
  11
 118.62620022877
  21
 81.824054331357
  31
0.0
   0
LINE
   5
25D
 100
AcDbEntity
   8
0
 100
AcDbLine
   6
CONTINUOUS
  62
7
  10
 118.62620022877
  20
 92.624054331357
  30
0.0
  11
 118.62620022877
  21
 94.724054331357
  31
0.0
   0
LINE
   5
25E
 100
AcDbEntity
   8
0
 100
AcDbLine
   6
CONTINUOUS
  62
7
  10
 117.12620022877
  20
 79.724054331357
  30
0.0
  11
 117.12620022877
  21
 81.761509262357
  31
0.0
   0
LINE
   5
25F
 100
AcDbEntity
   8
0
 100
AcDbLine
   6
CONTINUOUS
  62
7
  10
 117.12620022877
  20
 92.624054331357
  30
0.0
  11
 117.12620022877
  21
 94.724054331357
  31
0.0
   0
LINE
   5
260
 100
AcDbEntity
   8
0
 100
AcDbLine
   6
CONTINUOUS
  62
7
  10
 53.369775283147
  20
 134.78720510591
  30
0.0
  11
 54.569775283147
  21
 134.78720510591
  31
0.0
   0
LINE
   5
261
 100
AcDbEntity
   8
0
 100
AcDbLine
   6
CONTINUOUS
  62
7
  10
 62.969775283147
  20
 134.78720510591
  30
0.0
  11
 64.169775283147
  21
 134.78720510591
  31
0.0
   0
LINE
   5
262
 100
AcDbEntity
   8
0
 100
AcDbLine
   6
CONTINUOUS
  62
7
  10
 54.569775283174
  20
 137.28720510596
  30
0.0
  11
 54.569775283174
  21
 134.28720510596
  31
0.0
   0
LINE
   5
263
 100
AcDbEntity
   8
0
 100
AcDbLine
   6
CONTINUOUS
  62
7
  10
 62.969775283174
  20
 134.28720510596
  30
0.0
  11
 54.569775283174
  21
 134.28720510596
  31
0.0
   0
LINE
   5
264
 100
AcDbEntity
   8
0
 100
AcDbLine
   6
CONTINUOUS
  62
7
  10
 62.969775283174
  20
 137.28720510596
  30
0.0
  11
 62.969775283174
  21
 134.28720510596
  31
0.0
   0
ARC
   5
265
 100
AcDbEntity
   8
0
   6
CONTINUOUS
  62
7
 100
AcDbCircle
  10
 55.069775283174
  20
 137.28720510596
  30
0.0
  40
 0.50000000000000
 100
AcDbArc
  50
 90.000000000000
  51
 179.99999999988
   0
ARC
   5
266
 100
AcDbEntity
   8
0
   6
CONTINUOUS
  62
7
 100
AcDbCircle
  10
 62.469775283175
  20
 137.28720510596
  30
0.0
  40
 0.50000000000000
 100
AcDbArc
  50
0.0
  51
 90.000000000112
   0
CIRCLE
   5
267
 100
AcDbEntity
   8
0
 100
AcDbCircle
   6
CONTINUOUS
  62
7
  10
 58.769775283174
  20
 149.58720510596
  30
0.0
  40
 0.50000000000000
   0
LINE
   5
268
 100
AcDbEntity
   8
0
 100
AcDbLine
   6
CONTINUOUS
  62
7
  10
 56.789876295874
  20
 145.73157018726
  30
0.0
  11
 57.214140364574
  21
 145.30730611856
  31
0.0
   0
LINE
   5
269
 100
AcDbEntity
   8
0
 100
AcDbLine
   6
CONTINUOUS
  62
7
  10
 57.496983076974
  20
 145.30730611856
  30
0.0
  11
 58.204089858174
  21
 146.01441289976
  31
0.0
   0
ARC
   5
26A
 100
AcDbEntity
   8
0
   6
CONTINUOUS
  62
7
 100
AcDbCircle
  10
 58.769775283173
  20
 145.44872747486
  30
0.0
  40
 0.79999999999998
 100
AcDbArc
  50
 44.999999999998
  51
 134.99999999998
   0
ARC
   5
26B
 100
AcDbEntity
   8
0
   6
CONTINUOUS
  62
7
 100
AcDbCircle
  10
 60.608252914274
  20
 147.28720510596
  30
0.0
  40
 0.80000000000000
 100
AcDbArc
  50
 135.00000000000
  51
 225.00000000000
   0
LINE
   5
26C
 100
AcDbEntity
   8
0
 100
AcDbLine
   6
CONTINUOUS
  62
7
  10
 60.042567489274
  20
 147.85289053086
  30
0.0
  11
 60.749674270474
  21
 148.55999731206
  31
0.0
   0
LINE
   5
26D
 100
AcDbEntity
   8
0
 100
AcDbLine
   6
CONTINUOUS
  62
7
  10
 60.042567489274
  20
 149.26710409326
  30
0.0
  11
 59.335460708074
  21
 148.55999731206
  31
0.0
   0
ARC
   5
26E
 100
AcDbEntity
   8
0
   6
CONTINUOUS
  62
7
 100
AcDbCircle
  10
 57.355561720773
  20
 149.12568273696
  30
0.0
  40
 0.20000000000000
 100
AcDbArc
  50
 44.999999999999
  51
 134.99999999962
   0
LINE
   5
26F
 100
AcDbEntity
   8
0
 100
AcDbLine
   6
CONTINUOUS
  62
7
  10
 57.214140364574
  20
 149.26710409326
  30
0.0
  11
 56.789876295874
  21
 148.84284002456
  31
0.0
   0
LINE
   5
270
 100
AcDbEntity
   8
0
 100
AcDbLine
   6
CONTINUOUS
  62
7
  10
 56.789876295874
  20
 148.55999731206
  30
0.0
  11
 57.496983076974
  21
 147.85289053086
  31
0.0
   0
CIRCLE
   5
271
 100
AcDbEntity
   8
0
 100
AcDbCircle
   6
CONTINUOUS
  62
7
  10
 58.769775283174
  20
 147.28720510596
  30
0.0
  40
 4.0000000000000
   0
ARC
   5
272
 100
AcDbEntity
   8
0
   6
CONTINUOUS
  62
7
 100
AcDbCircle
  10
 56.931297652075
  20
 145.87299154356
  30
0.0
  40
 0.20000000000000
 100
AcDbArc
  50
 135.00000000000
  51
 224.99999999934
   0
ARC
   5
273
 100
AcDbEntity
   8
0
   6
CONTINUOUS
  62
7
 100
AcDbCircle
  10
 56.931297652077
  20
 148.70141866825
  30
0.0
  40
 0.20000000000000
 100
AcDbArc
  50
 135.00000000000
  51
 224.99999999870
   0
ARC
   5
274
 100
AcDbEntity
   8
0
   6
CONTINUOUS
  62
7
 100
AcDbCircle
  10
 60.183988845472
  20
 145.44872747485
  30
0.0
  40
 0.20000000000003
 100
AcDbArc
  50
 225.00000000000
  51
 315.00000000086
   0
LINE
   5
275
 100
AcDbEntity
   8
0
 100
AcDbLine
   6
CONTINUOUS
  62
7
  10
 57.496983076974
  20
 146.72151968096
  30
0.0
  11
 56.789876295874
  21
 146.01441289976
  31
0.0
   0
LINE
   5
276
 100
AcDbEntity
   8
0
 100
AcDbLine
   6
CONTINUOUS
  62
7
  10
 60.749674270474
  20
 148.84284002456
  30
0.0
  11
 60.325410201774
  21
 149.26710409326
  31
0.0
   0
ARC
   5
277
 100
AcDbEntity
   8
0
   6
CONTINUOUS
  62
7
 100
AcDbCircle
  10
 58.769775283173
  20
 149.12568273696
  30
0.0
  40
 0.79999999999998
 100
AcDbArc
  50
 225.00000000000
  51
 315.00000000006
   0
ARC
   5
278
 100
AcDbEntity
   8
0
   6
CONTINUOUS
  62
7
 100
AcDbCircle
  10
 60.183988845471
  20
 149.12568273695
  30
0.0
  40
 0.20000000000001
 100
AcDbArc
  50
 45.000000000001
  51
 134.99999999899
   0
ARC
   5
279
 100
AcDbEntity
   8
0
   6
CONTINUOUS
  62
7
 100
AcDbCircle
  10
 60.608252914277
  20
 148.70141866825
  30
0.0
  40
 0.20000000000001
 100
AcDbArc
  50
 315.00000000000
  51
 45.000000001301
   0
ARC
   5
27A
 100
AcDbEntity
   8
0
   6
CONTINUOUS
  62
7
 100
AcDbCircle
  10
 56.931297652074
  20
 147.28720510596
  30
0.0
  40
 0.80000000000000
 100
AcDbArc
  50
 315.00000000000
  51
 45.000000000003
   0
ARC
   5
27B
 100
AcDbEntity
   8
0
   6
CONTINUOUS
  62
7
 100
AcDbCircle
  10
 57.355561720776
  20
 145.44872747486
  30
0.0
  40
 0.20000000000002
 100
AcDbArc
  50
 225.00000000000
  51
 314.99999999894
   0
ARC
   5
27C
 100
AcDbEntity
   8
0
   6
CONTINUOUS
  62
7
 100
AcDbCircle
  10
 60.608252914275
  20
 145.87299154356
  30
0.0
  40
 0.20000000000001
 100
AcDbArc
  50
 315.00000000000
  51
 45.000000000668
   0
LINE
   5
27D
 100
AcDbEntity
   8
0
 100
AcDbLine
   6
CONTINUOUS
  62
7
  10
 60.749674270474
  20
 146.01441289976
  30
0.0
  11
 60.042567489274
  21
 146.72151968096
  31
0.0
   0
LINE
   5
27E
 100
AcDbEntity
   8
0
 100
AcDbLine
   6
CONTINUOUS
  62
7
  10
 58.204089858174
  20
 148.55999731206
  30
0.0
  11
 57.496983076974
  21
 149.26710409326
  31
0.0
   0
LINE
   5
27F
 100
AcDbEntity
   8
0
 100
AcDbLine
   6
CONTINUOUS
  62
7
  10
 59.335460708074
  20
 146.01441289976
  30
0.0
  11
 60.042567489274
  21
 145.30730611856
  31
0.0
   0
LINE
   5
280
 100
AcDbEntity
   8
0
 100
AcDbLine
   6
CONTINUOUS
  62
7
  10
 60.325410201774
  20
 145.30730611856
  30
0.0
  11
 60.749674270474
  21
 145.73157018726
  31
0.0
   0
LINE
   5
281
 100
AcDbEntity
   8
0
 100
AcDbLine
   6
CONTINUOUS
  62
7
  10
 53.369775283174
  20
 136.78720510596
  30
0.0
  11
 53.369775283174
  21
 134.78720510596
  31
0.0
   0
LINE
   5
282
 100
AcDbEntity
   8
0
 100
AcDbLine
   6
CONTINUOUS
  62
7
  10
 64.169775283174
  20
 136.78720510596
  30
0.0
  11
 64.169775283174
  21
 134.78720510596
  31
0.0
   0
LINE
   5
283
 100
AcDbEntity
   8
0
 100
AcDbLine
   6
CONTINUOUS
  62
7
  10
 58.203951785774
  20
 161.87891862586
  30
0.0
  11
 59.403830540774
  21
 161.89597656596
  31
0.0
   0
LINE
   5
284
 100
AcDbEntity
   8
0
 100
AcDbLine
   6
CONTINUOUS
  62
7
  10
 59.385351105674
  20
 163.19584521726
  30
0.0
  11
 59.403830540774
  21
 161.89597656596
  31
0.0
   0
ARC
   5
285
 100
AcDbEntity
   8
0
   6
CONTINUOUS
  62
7
 100
AcDbCircle
  10
 59.885300586974
  20
 163.20295269226
  30
0.0
  40
 0.50000000000001
 100
AcDbArc
  50
 90.814484075900
  51
 180.81448407590
   0
LINE
   5
286
 100
AcDbEntity
   8
0
 100
AcDbLine
   6
CONTINUOUS
  62
7
  10
 61.178061763174
  20
 163.72138160856
  30
0.0
  11
 61.161003823074
  21
 164.92126036356
  31
0.0
   0
LINE
   5
287
 100
AcDbEntity
   8
0
 100
AcDbLine
   6
CONTINUOUS
  62
7
  10
 58.135720025474
  20
 166.67843364586
  30
0.0
  11
 59.335598780474
  21
 166.69549158596
  31
0.0
   0
LINE
   5
288
 100
AcDbEntity
   8
0
 100
AcDbLine
   6
CONTINUOUS
  62
7
  10
 58.135720025474
  20
 166.67843364586
  30
0.0
  11
 58.154199460574
  21
 165.37856499466
  31
0.0
   0
ARC
   5
289
 100
AcDbEntity
   8
0
   6
CONTINUOUS
  62
7
 100
AcDbCircle
  10
 57.654249979374
  20
 165.37145751956
  30
0.0
  40
 0.50000000000001
 100
AcDbArc
  50
 270.81448407590
  51
 0.81448407580895
   0
LINE
   5
28A
 100
AcDbEntity
   8
0
 100
AcDbLine
   6
CONTINUOUS
  62
7
  10
 56.361488803174
  20
 164.85302860326
  30
0.0
  11
 57.661357454374
  21
 164.87150803836
  31
0.0
   0
LINE
   5
28B
 100
AcDbEntity
   8
0
 100
AcDbLine
   6
CONTINUOUS
  62
7
  10
 56.378546743174
  20
 163.65314984826
  30
0.0
  11
 56.361488803174
  21
 164.85302860326
  31
0.0
   0
LINE
   5
28C
 100
AcDbEntity
   8
0
 100
AcDbLine
   6
CONTINUOUS
  62
7
  10
 56.378546743174
  20
 163.65314984826
  30
0.0
  11
 57.678415394474
  21
 163.67162928336
  31
0.0
   0
ARC
   5
28D
 100
AcDbEntity
   8
0
   6
CONTINUOUS
  62
7
 100
AcDbCircle
  10
 57.685522869474
  20
 163.17167980206
  30
0.0
  40
 0.50000000000000
 100
AcDbArc
  50
 0.81448407589771
  51
 90.814484075956
   0
LINE
   5
28E
 100
AcDbEntity
   8
0
 100
AcDbLine
   6
CONTINUOUS
  62
7
  10
 58.185472350674
  20
 163.17878727716
  30
0.0
  11
 58.203951785774
  21
 161.87891862586
  31
0.0
   0
CIRCLE
   5
28F
 100
AcDbEntity
   8
0
 100
AcDbCircle
   6
CONTINUOUS
  62
7
  10
 58.769775283174
  20
 164.28720510596
  30
0.0
  40
 5.0000000000001
   0
ARC
   5
290
 100
AcDbEntity
   8
0
   6
CONTINUOUS
  62
7
 100
AcDbCircle
  10
 59.854027696772
  20
 165.40273040976
  30
0.0
  40
 0.50000000000000
 100
AcDbArc
  50
 180.81448407590
  51
 270.81448407614
   0
LINE
   5
291
 100
AcDbEntity
   8
0
 100
AcDbLine
   6
CONTINUOUS
  62
7
  10
 59.861135171874
  20
 164.90278092846
  30
0.0
  11
 61.161003823074
  21
 164.92126036356
  31
0.0
   0
LINE
   5
292
 100
AcDbEntity
   8
0
 100
AcDbLine
   6
CONTINUOUS
  62
7
  10
 59.335598780474
  20
 166.69549158596
  30
0.0
  11
 59.354078215574
  21
 165.39562293466
  31
0.0
   0
LINE
   5
293
 100
AcDbEntity
   8
0
 100
AcDbLine
   6
CONTINUOUS
  62
7
  10
 59.878193111974
  20
 163.70290217346
  30
0.0
  11
 61.178061763174
  21
 163.72138160856
  31
0.0
   0
LINE
   5
294
 100
AcDbEntity
   8
0
 100
AcDbLine
   6
CONTINUOUS
  62
7
  10
 58.178364875674
  20
 163.67873675836
  30
0.0
  11
 58.034014794074
  21
 163.53022321436
  31
0.0
   0
LINE
   5
295
 100
AcDbEntity
   8
0
 100
AcDbLine
   6
CONTINUOUS
  62
7
  10
 58.161306935574
  20
 164.87861551336
  30
0.0
  11
 58.012793391574
  21
 165.02296559496
  31
0.0
   0
LINE
   5
296
 100
AcDbEntity
   8
0
 100
AcDbLine
   6
CONTINUOUS
  62
7
  10
 58.178364875674
  20
 163.67873675836
  30
0.0
  11
 58.161306935574
  21
 164.87861551336
  31
0.0
   0
LINE
   5
297
 100
AcDbEntity
   8
0
 100
AcDbLine
   6
CONTINUOUS
  62
7
  10
 59.361185690574
  20
 164.89567345346
  30
0.0
  11
 59.505535772174
  21
 165.04418699746
  31
0.0
   0
LINE
   5
298
 100
AcDbEntity
   8
0
 100
AcDbLine
   6
CONTINUOUS
  62
7
  10
 58.161306935574
  20
 164.87861551336
  30
0.0
  11
 59.361185690574
  21
 164.89567345346
  31
0.0
   0
LINE
   5
299
 100
AcDbEntity
   8
0
 100
AcDbLine
   6
CONTINUOUS
  62
7
  10
 59.378243630674
  20
 163.69579469846
  30
0.0
  11
 59.526757174774
  21
 163.55144461686
  31
0.0
   0
LINE
   5
29A
 100
AcDbEntity
   8
0
 100
AcDbLine
   6
CONTINUOUS
  62
7
  10
 59.378243630674
  20
 163.69579469846
  30
0.0
  11
 59.361185690574
  21
 164.89567345346
  31
0.0
   0
LINE
   5
29B
 100
AcDbEntity
   8
0
 100
AcDbLine
   6
CONTINUOUS
  62
7
  10
 58.178364875674
  20
 163.67873675836
  30
0.0
  11
 59.378243630674
  21
 163.69579469846
  31
0.0
   0
LINE
   5
29C
 100
AcDbEntity
   8
0
 100
AcDbLine
   6
CONTINUOUS
  62
7
  10
 52.969775283174
  20
 135.28720510596
  30
0.0
  11
 52.069775283174
  21
 135.28720510596
  31
0.0
   0
LINE
   5
29D
 100
AcDbEntity
   8
0
 100
AcDbLine
   6
CONTINUOUS
  62
7
  10
 52.069775283174
  20
 135.28720510596
  30
0.0
  11
 52.069775283174
  21
 132.28720510596
  31
0.0
   0
LINE
   5
29E
 100
AcDbEntity
   8
0
 100
AcDbLine
   6
CONTINUOUS
  62
7
  10
 50.269775283174
  20
 132.28720510596
  30
0.0
  11
 52.069775283174
  21
 132.28720510596
  31
0.0
   0
LINE
   5
29F
 100
AcDbEntity
   8
0
 100
AcDbLine
   6
CONTINUOUS
  62
7
  10
 50.269775283174
  20
 174.78720510596
  30
0.0
  11
 50.269775283174
  21
 132.28720510596
  31
0.0
   0
ARC
   5
2A0
 100
AcDbEntity
   8
0
   6
CONTINUOUS
  62
7
 100
AcDbCircle
  10
 58.769775283174
  20
 174.78720510596
  30
0.0
  40
 8.5000000000000
 100
AcDbArc
  50
0.0
  51
 180.00000000000
   0
LINE
   5
2A1
 100
AcDbEntity
   8
0
 100
AcDbLine
   6
CONTINUOUS
  62
7
  10
 67.269775283174
  20
 132.28720510596
  30
0.0
  11
 67.269775283174
  21
 174.78720510596
  31
0.0
   0
LINE
   5
2A2
 100
AcDbEntity
   8
0
 100
AcDbLine
   6
CONTINUOUS
  62
7
  10
 65.469775283174
  20
 132.28720510596
  30
0.0
  11
 67.269775283174
  21
 132.28720510596
  31
0.0
   0
LINE
   5
2A3
 100
AcDbEntity
   8
0
 100
AcDbLine
   6
CONTINUOUS
  62
7
  10
 65.469775283174
  20
 132.28720510596
  30
0.0
  11
 65.469775283174
  21
 135.28720510596
  31
0.0
   0
LINE
   5
2A4
 100
AcDbEntity
   8
0
 100
AcDbLine
   6
CONTINUOUS
  62
7
  10
 65.469775283174
  20
 135.28720510596
  30
0.0
  11
 64.569775283174
  21
 135.28720510596
  31
0.0
   0
LINE
   5
2A5
 100
AcDbEntity
   8
0
 100
AcDbLine
   6
CONTINUOUS
  62
7
  10
 64.569775283174
  20
 137.78720510596
  30
0.0
  11
 64.569775283174
  21
 135.28720510596
  31
0.0
   0
LINE
   5
2A6
 100
AcDbEntity
   8
0
 100
AcDbLine
   6
CONTINUOUS
  62
7
  10
 52.969775283174
  20
 137.78720510596
  30
0.0
  11
 64.569775283174
  21
 137.78720510596
  31
0.0
   0
LINE
   5
2A7
 100
AcDbEntity
   8
0
 100
AcDbLine
   6
CONTINUOUS
  62
7
  10
 52.969775283174
  20
 137.78720510596
  30
0.0
  11
 52.969775283174
  21
 135.28720510596
  31
0.0
   0
CIRCLE
   5
2A8
 100
AcDbEntity
   8
0
 100
AcDbCircle
   6
CONTINUOUS
  62
7
  10
 58.769775283174
  20
 147.28720510596
  30
0.0
  40
 4.1000000000000
   0
CIRCLE
   5
2A9
 100
AcDbEntity
   8
0
 100
AcDbCircle
   6
CONTINUOUS
  62
7
  10
 58.769775283174
  20
 176.28720510596
  30
0.0
  40
 4.2500000000000
   0
CIRCLE
   5
2AA
 100
AcDbEntity
   8
0
 100
AcDbCircle
   6
CONTINUOUS
  62
7
  10
 58.769775283174
  20
 164.28720510596
  30
0.0
  40
 5.2500000000000
   0
CIRCLE
   5
2AB
 100
AcDbEntity
   8
0
 100
AcDbCircle
   6
CONTINUOUS
  62
7
  10
 58.769775283174
  20
 176.28720510596
  30
0.0
  40
 2.1000000000000
   0
LINE
   5
2AC
 100
AcDbEntity
   8
0
 100
AcDbLine
   6
CONTINUOUS
  62
7
  10
 52.969775283174
  20
 136.78720510596
  30
0.0
  11
 54.569775283174
  21
 136.78720510596
  31
0.0
   0
LINE
   5
2AD
 100
AcDbEntity
   8
0
 100
AcDbLine
   6
CONTINUOUS
  62
7
  10
 62.969775283174
  20
 136.78720510596
  30
0.0
  11
 64.569775283174
  21
 136.78720510596
  31
0.0
   0
LINE
   5
2AE
 100
AcDbEntity
   8
0
 100
AcDbLine
   6
CONTINUOUS
  62
7
  10
 50.269775283174
  20
 174.78720510596
  30
0.0
  11
 50.269775283174
  21
 164.28720510596
  31
0.0
   0
ARC
   5
2AF
 100
AcDbEntity
   8
0
   6
CONTINUOUS
  62
7
 100
AcDbCircle
  10
 58.769775283174
  20
 174.78720510596
  30
0.0
  40
 8.5000000000000
 100
AcDbArc
  50
 176.62771331662
  51
 180.00000000002
   0
LINE
   5
2B0
 100
AcDbEntity
   8
0
 100
AcDbLine
   6
CONTINUOUS
  62
7
  10
 67.269775283174
  20
 174.78720510596
  30
0.0
  11
 67.269775283174
  21
 164.28720510596
  31
0.0
   0
ARC
   5
2B1
 100
AcDbEntity
   8
0
   6
CONTINUOUS
  62
7
 100
AcDbCircle
  10
 58.769775283173
  20
 174.78720510596
  30
0.0
  40
 8.5000000000000
 100
AcDbArc
  50
0.0
  51
 3.3722866833802
   0
LINE
   5
2B2
 100
AcDbEntity
   8
0
 100
AcDbLine
   6
CONTINUOUS
  62
1
  10
 140.62876014307
  20
 157.98675367306
  30
0.0
  11
 140.43015707767
  21
 157.99404749416
  31
0.0
   0
LINE
   5
2B3
 100
AcDbEntity
   8
0
 100
AcDbLine
   6
CONTINUOUS
  62
1
  10
 140.86550313517
  20
 158.22675975036
  30
0.0
  11
 141.05274941197
  21
 158.21422236836
  31
0.0
   0
LINE
   5
2B4
 100
AcDbEntity
   8
0
 100
AcDbLine
   6
CONTINUOUS
  62
1
  10
 142.19397858327
  20
 158.82648765376
  30
0.0
  11
 142.03112555787
  21
 158.84983791816
  31
0.0
   0
LINE
   5
2B5
 100
AcDbEntity
   8
0
 100
AcDbLine
   6
CONTINUOUS
  62
1
  10
 114.12620022877
  20
 142.48720510596
  30
0.0
  11
 114.12620022877
  21
 137.28720510596
  31
0.0
   0
LINE
   5
2B6
 100
AcDbEntity
   8
0
 100
AcDbLine
   6
CONTINUOUS
  62
1
  10
 155.52620022877
  20
 155.28720510596
  30
0.0
  11
 155.52620022877
  21
 148.78720510596
  31
0.0
   0
LINE
   5
2B7
 100
AcDbEntity
   8
0
 100
AcDbLine
   6
CONTINUOUS
  62
1
  10
 147.52620022877
  20
 161.78720510596
  30
0.0
  11
 120.52620022877
  21
 161.78720510596
  31
0.0
   0
LINE
   5
2B8
 100
AcDbEntity
   8
0
 100
AcDbLine
   6
CONTINUOUS
  62
1
  10
 160.52620022877
  20
 153.28720510596
  30
0.0
  11
 160.52620022877
  21
 170.28720510596
  31
0.0
   0
LINE
   5
2B9
 100
AcDbEntity
   8
0
 100
AcDbLine
   6
CONTINUOUS
  62
1
  10
 155.22620022877
  20
 155.28720510596
  30
0.0
  11
 155.22620022877
  21
 156.78720510596
  31
0.0
   0
LINE
   5
2BA
 100
AcDbEntity
   8
0
 100
AcDbLine
   6
CONTINUOUS
  62
1
  10
 135.12620022877
  20
 164.28720510596
  30
0.0
  11
 143.82620022877
  21
 164.28720510596
  31
0.0
   0
LINE
   5
2BB
 100
AcDbEntity
   8
0
 100
AcDbLine
   6
CONTINUOUS
  62
1
  10
 154.02620022877
  20
 164.28720510596
  30
0.0
  11
 145.32620022877
  21
 164.28720510596
  31
0.0
   0
LINE
   5
2BC
 100
AcDbEntity
   8
0
 100
AcDbLine
   6
CONTINUOUS
  62
1
  10
 122.42620022877
  20
 91.424054331357
  30
0.0
  11
 122.42620022877
  21
 83.024054331357
  31
0.0
   0
LINE
   5
2BD
 100
AcDbEntity
   8
0
 100
AcDbLine
   6
CONTINUOUS
  62
1
  10
 122.06029785887
  20
 81.824054331357
  30
0.0
  11
 122.06029785887
  21
 83.024054331357
  31
0.0
   0
LINE
   5
2BE
 100
AcDbEntity
   8
0
 100
AcDbLine
   6
CONTINUOUS
  62
1
  10
 122.06029785887
  20
 91.424054331357
  30
0.0
  11
 122.06029785887
  21
 92.624054331357
  31
0.0
   0
LINE
   5
2BF
 100
AcDbEntity
   8
0
 100
AcDbLine
   6
CONTINUOUS
  62
1
  10
 126.84680926757
  20
 93.724054331357
  30
0.0
  11
 123.64680926757
  21
 93.724054331357
  31
0.0
   0
LINE
   5
2C0
 100
AcDbEntity
   8
0
 100
AcDbLine
   6
CONTINUOUS
  62
1
  10
 123.64680926757
  20
 80.724054331357
  30
0.0
  11
 126.84680926757
  21
 80.724054331357
  31
0.0
   0
LINE
   5
2C1
 100
AcDbEntity
   8
0
 100
AcDbLine
   6
CONTINUOUS
  62
1
  10
 120.75863878117
  20
 78.724054331357
  30
0.0
  11
 120.75863878117
  21
 79.724054331357
  31
0.0
   0
LINE
   5
2C2
 100
AcDbEntity
   8
0
 100
AcDbLine
   6
CONTINUOUS
  62
1
  10
 125.48620677727
  20
 79.724054331357
  30
0.0
  11
 125.48620677727
  21
 78.724054331357
  31
0.0
   0
LINE
   5
2C3
 100
AcDbEntity
   8
0
 100
AcDbLine
   6
CONTINUOUS
  62
1
  10
 120.75863878117
  20
 94.724054331357
  30
0.0
  11
 120.75863878117
  21
 95.724054331357
  31
0.0
   0
LINE
   5
2C4
 100
AcDbEntity
   8
0
 100
AcDbLine
   6
CONTINUOUS
  62
1
  10
 125.48620677727
  20
 95.724054331357
  30
0.0
  11
 125.48620677727
  21
 94.724054331357
  31
0.0
   0
LINE
   5
2C5
 100
AcDbEntity
   8
0
 100
AcDbLine
   6
CONTINUOUS
  62
1
  10
 160.52620022877
  20
 78.724054331357
  30
0.0
  11
 160.52620022877
  21
 95.724054331357
  31
0.0
   0
DIMENSION
   5
2C6
 100
AcDbEntity
   8
0
   6
CONTINUOUS
  62
2
 100
AcDbDimension
   2
*D1
  10
 58.769775283174
  20
 174.78720510596
  30
0.0
  11
 70.060502592750
  21
 182.76368647626
  31
0.0
  70
132
   3
GMM001
 100
AcDbRadialDimension
  15
 65.712102366368
  25
 179.69170249814
  35
0.0
  40
 5.5675771201305
   0
LINE
   5
2C7
 100
AcDbEntity
   8
0
 100
AcDbLine
   6
DASHDOT
  62
2
  10
 105.47568406947
  20
 161.78720510596
  30
0.0
  11
 168.33209251243
  21
 161.78720510596
  31
0.0
   0
LINE
   5
2C8
 100
AcDbEntity
   8
0
 100
AcDbLine
   6
DASHDOT
  62
2
  10
 107.78307121484
  20
 176.28720510596
  30
0.0
  11
 124.54478013296
  21
 176.28720510596
  31
0.0
   0
LINE
   5
2C9
 100
AcDbEntity
   8
0
 100
AcDbLine
   6
DASHDOT
  62
2
  10
 105.84359901653
  20
 87.224054331405
  30
0.0
  11
 168.10141938934
  21
 87.224054331405
  31
0.0
   0
DIMENSION
   5
2CA
 100
AcDbEntity
   8
0
   6
CONTINUOUS
  62
2
 100
AcDbDimension
   2
*D2
  10
 100.99421594651
  20
 161.78720510596
  30
0.0
  11
 100.99421594651
  21
 147.03720510596
  31
0.0
  70
0
   3
GMM002
 100
AcDbAlignedDimension
  13
 111.52620022877
  23
 132.28720510596
  33
0.0
  14
 105.47568406947
  24
 161.78720510596
  34
0.0
  50
 90.000000000000
 100
AcDbRotatedDimension
   0
LINE
   5
2CB
 100
AcDbEntity
   8
0
 100
AcDbLine
   6
DASHDOT
  62
2
  10
 121.02620022877
  20
 135.08267779023
  30
0.0
  11
 121.02620022877
  21
 143.91970534010
  31
0.0
   0
LINE
   5
2CC
 100
AcDbEntity
   8
0
 100
AcDbLine
   6
DASHDOT
  62
2
  10
 126.06747623747
  20
 139.28720510596
  30
0.0
  11
 116.33931985904
  21
 139.28720510596
  31
0.0
   0
LINE
   5
2CD
 100
AcDbEntity
   8
0
 100
AcDbLine
   6
CONTINUOUS
  62
7
  10
 127.12620022877
  20
 89.630651779283
  30
0.0
  11
 127.08187243161
  21
 89.719134337981
  31
0.0
   0
SPLINE
   5
2CE
 100
AcDbEntity
   8
0
   6
CONTINUOUS
  62
7
 100
AcDbSpline
  70
8
  71
3
  72
10
  73
6
  74
4
  42
 0.10000000000000E-6
  43
 0.10000000000000E-6
  44
 0.10000000000000E-4
  40
0.0
  40
0.0
  40
0.0
  40
0.0
  40
 0.25003832343594
  40
 0.50007664687188
  40
 1.0000000000000
  40
 1.0000000000000
  40
 1.0000000000000
  40
 1.0000000000000
  10
 127.07428780916
  20
 89.722002474308
  30
0.0
  10
 127.05755072496
  20
 89.688600090451
  30
0.0
  10
 127.02407655656
  20
 89.621795322736
  30
0.0
  10
 126.95713028348
  20
 89.488198092639
  30
0.0
  10
 126.90690470470
  20
 89.387986905341
  30
0.0
  10
 126.87342440758
  20
 89.321186274934
  30
0.0
  11
 127.07428780916
  21
 89.722002474308
  31
0.0
  11
 127.02407553172
  21
 89.621794300950
  31
0.0
  11
 126.97385710524
  21
 89.521579996877
  31
0.0
  11
 126.87342440758
  21
 89.321186274934
  31
0.0
   0
ARC
   5
2CF
 100
AcDbEntity
   8
0
   6
CONTINUOUS
  62
7
 100
AcDbCircle
  10
 127.62620022877
  20
 90.224054331359
  30
0.0
  40
 0.50000000000000
 100
AcDbArc
  50
 90.000000000000
  51
 180.00000000021
   0
LINE
   5
2D0
 100
AcDbEntity
   8
0
 100
AcDbLine
   6
CONTINUOUS
  62
7
  10
 127.12620022877
  20
 90.224054331357
  30
0.0
  11
 127.12620022877
  21
 88.933967001913
  31
0.0
   0
SPLINE
   5
2D1
 100
AcDbEntity
   8
0
   6
CONTINUOUS
  62
7
 100
AcDbSpline
  70
8
  71
3
  72
10
  73
6
  74
4
  42
 0.10000000000000E-6
  43
 0.10000000000000E-6
  44
 0.10000000000000E-4
  40
0.0
  40
0.0
  40
0.0
  40
0.0
  40
 0.18491810549635
  40
 0.67166790993149
  40
 1.0000000000000
  40
 1.0000000000000
  40
 1.0000000000000
  40
 1.0000000000000
  10
 127.12620022877
  20
 89.255516556943
  30
0.0
  10
 127.12343124402
  20
 89.307928079692
  30
0.0
  10
 127.11337361229
  20
 89.498299584131
  30
0.0
  10
 127.09788134896
  20
 89.662238673110
  30
0.0
  10
 127.08666831675
  20
 89.690383648698
  30
0.0
  10
 127.08215147210
  20
 89.701721035435
  30
0.0
  11
 127.12620022877
  21
 89.255516556943
  31
0.0
  11
 127.11786689544
  21
 89.406667775777
  31
0.0
  11
 127.09593151838
  21
 89.650593383459
  31
0.0
  11
 127.08215147210
  21
 89.701721035435
  31
0.0
   0
SPLINE
   5
2D2
 100
AcDbEntity
   8
0
   6
CONTINUOUS
  62
7
 100
AcDbSpline
  70
8
  71
3
  72
10
  73
6
  74
4
  42
 0.10000000000000E-6
  43
 0.10000000000000E-6
  44
 0.10000000000000E-4
  40
0.0
  40
0.0
  40
0.0
  40
0.0
  40
 0.32366665888152
  40
 0.67726791284517
  40
 1.0000000000000
  40
 1.0000000000000
  40
 1.0000000000000
  40
 1.0000000000000
  10
 126.93794530333
  20
 88.751534141588
  30
0.0
  10
 126.93128330418
  20
 88.860735407350
  30
0.0
  10
 126.91734316506
  20
 89.089237513800
  30
0.0
  10
 126.89616283484
  20
 89.286411899320
  30
0.0
  10
 126.88338356516
  20
 89.309461012016
  30
0.0
  10
 126.87728556566
  20
 89.320459565237
  30
0.0
  11
 126.93794530333
  21
 88.751534141588
  31
0.0
  11
 126.91786689544
  21
 89.057449624670
  31
0.0
  11
 126.89593151838
  21
 89.262347135123
  31
0.0
  11
 126.87728556566
  21
 89.320459565237
  31
0.0
   0
LINE
   5
2D3
 100
AcDbEntity
   8
0
 100
AcDbLine
   6
CONTINUOUS
  62
7
  10
 126.87728556566
  20
 89.324054331357
  30
0.0
  11
 126.84680926752
  21
 89.324054331357
  31
0.0
   0
LINE
   5
2D4
 100
AcDbEntity
   8
0
 100
AcDbLine
   6
CONTINUOUS
  62
7
  10
 128.12620022877
  20
 90.724054331357
  30
0.0
  11
 127.62620022877
  21
 90.724054331357
  31
0.0
   0
ARC
   5
2D5
 100
AcDbEntity
   8
0
   6
CONTINUOUS
  62
7
 100
AcDbCircle
  10
 128.12620022877
  20
 91.224054331360
  30
0.0
  40
 0.50000000000000
 100
AcDbArc
  50
 270.00000000000
  51
0.0
   0
LINE
   5
2D6
 100
AcDbEntity
   8
0
 100
AcDbLine
   6
CONTINUOUS
  62
7
  10
 128.62620022877
  20
 91.424054331357
  30
0.0
  11
 128.62620022877
  21
 91.224054331357
  31
0.0
   0
SPLINE
   5
2D7
 100
AcDbEntity
   8
0
   6
CONTINUOUS
  62
7
 100
AcDbSpline
  70
8
  71
3
  72
10
  73
6
  74
4
  42
 0.10000000000000E-6
  43
 0.10000000000000E-6
  44
 0.10000000000000E-4
  40
0.0
  40
0.0
  40
0.0
  40
0.0
  40
 0.23311940360308
  40
 0.46623880720616
  40
 1.0000000000000
  40
 1.0000000000000
  40
 1.0000000000000
  40
 1.0000000000000
  10
 126.84680926752
  20
 84.758780335577
  30
0.0
  10
 126.86102857028
  20
 84.787165921176
  30
0.0
  10
 126.88946717580
  20
 84.843937092375
  30
0.0
  10
 126.95046993772
  20
 84.965698436481
  30
0.0
  10
 126.99726935445
  20
 85.059067774691
  30
0.0
  10
 127.02984249898
  20
 85.124054331357
  30
0.0
  11
 126.84680926752
  21
 84.758780335577
  31
0.0
  11
 126.88946798816
  21
 84.843936765535
  31
0.0
  11
 126.93213158294
  21
 84.929091234455
  31
0.0
  11
 127.02984249898
  21
 85.124054331357
  31
0.0
   0
LINE
   5
2D8
 100
AcDbEntity
   8
0
 100
AcDbLine
   6
CONTINUOUS
  62
7
  10
 127.02728556566
  20
 85.124054331357
  30
0.0
  11
 127.12620022877
  21
 85.124054331357
  31
0.0
   0
SPLINE
   5
2D9
 100
AcDbEntity
   8
0
   6
CONTINUOUS
  62
7
 100
AcDbSpline
  70
8
  71
3
  72
11
  73
7
  74
5
  42
 0.10000000000000E-6
  43
 0.10000000000000E-6
  44
 0.10000000000000E-4
  40
0.0
  40
0.0
  40
0.0
  40
0.0
  40
 0.19205975052059E-1
  40
 0.36836821308872
  40
 0.72988463177845
  40
 1.0000000000000
  40
 1.0000000000000
  40
 1.0000000000000
  40
 1.0000000000000
  10
 127.02728556566
  20
 85.127649097477
  30
0.0
  10
 127.02692357606
  20
 85.126460550349
  30
0.0
  10
 127.01998066055
  20
 85.103664364249
  30
0.0
  10
 127.00668456877
  20
 85.191922768107
  30
0.0
  10
 126.98629819131
  20
 85.370676839042
  30
0.0
  10
 126.97358205362
  20
 85.587066069548
  30
0.0
  10
 126.96814403691
  20
 85.679604250634
  30
0.0
  11
 127.02728556566
  21
 85.127649097477
  31
0.0
  11
 127.02620022877
  21
 85.124266510121
  31
0.0
  11
 127.00646893917
  21
 85.200950405500
  31
0.0
  11
 126.98453356211
  21
 85.420510433176
  31
0.0
  11
 126.96814403691
  21
 85.679604250634
  31
0.0
   0
LINE
   5
2DA
 100
AcDbEntity
   8
0
 100
AcDbLine
   6
CONTINUOUS
  62
7
  10
 127.12286325144
  20
 85.127816625533
  30
0.0
  11
 127.12620022877
  21
 85.121157389082
  31
0.0
   0
LINE
   5
2DB
 100
AcDbEntity
   8
0
 100
AcDbLine
   6
CONTINUOUS
  62
7
  10
 127.12620022877
  20
 85.514141660801
  30
0.0
  11
 127.12620022877
  21
 84.224054331357
  31
0.0
   0
SPLINE
   5
2DC
 100
AcDbEntity
   8
0
   6
CONTINUOUS
  62
7
 100
AcDbSpline
  70
8
  71
3
  72
10
  73
6
  74
4
  42
 0.10000000000000E-6
  43
 0.10000000000000E-6
  44
 0.10000000000000E-4
  40
0.0
  40
0.0
  40
0.0
  40
0.0
  40
 0.34892503478962
  40
 0.78659528805172
  40
 1.0000000000000
  40
 1.0000000000000
  40
 1.0000000000000
  40
 1.0000000000000
  10
 127.12275594788
  20
 85.137652400301
  30
0.0
  10
 127.11742486262
  20
 85.152418246630
  30
0.0
  10
 127.10540678961
  20
 85.185705468778
  30
0.0
  10
 127.08823030945
  20
 85.350782007215
  30
0.0
  10
 127.07739090165
  20
 85.530638541407
  30
0.0
  10
 127.07383803782
  20
 85.589590634364
  30
0.0
  11
 127.12275594788
  21
 85.137652400301
  31
0.0
  11
 127.10646893917
  21
 85.200950405500
  31
0.0
  11
 127.08453356211
  21
 85.420510433176
  31
0.0
  11
 127.07383803782
  21
 85.589590634364
  31
0.0
   0
LINE
   5
2DD
 100
AcDbEntity
   8
0
 100
AcDbLine
   6
CONTINUOUS
  62
7
  10
 127.62620022877
  20
 83.724054331357
  30
0.0
  11
 128.12620022877
  21
 83.724054331357
  31
0.0
   0
ARC
   5
2DE
 100
AcDbEntity
   8
0
   6
CONTINUOUS
  62
7
 100
AcDbCircle
  10
 127.62620022878
  20
 84.224054331357
  30
0.0
  40
 0.50000000000000
 100
AcDbArc
  50
 180.00000000000
  51
 269.99999999981
   0
ARC
   5
2DF
 100
AcDbEntity
   8
0
   6
CONTINUOUS
  62
7
 100
AcDbCircle
  10
 128.12620022878
  20
 83.224054331357
  30
0.0
  40
 0.50000000000000
 100
AcDbArc
  50
0.0
  51
 90.000000000287
   0
LINE
   5
2E0
 100
AcDbEntity
   8
0
 100
AcDbLine
   6
CONTINUOUS
  62
7
  10
 128.62620022877
  20
 83.224054331357
  30
0.0
  11
 128.62620022877
  21
 83.024054331357
  31
0.0
   0
TEXT
   5
2E1
 100
AcDbEntity
   8
0
  62
2
 100
AcDbText
  10
 51.217738780969
  20
 166.98584257467
  30
0.0
  40
 3.0000000000000
   1
上
   7
STANDARD
 100
AcDbText
   0
ARC
   5
2E2
 100
AcDbEntity
   8
0
   6
CONTINUOUS
  62
2
 100
AcDbCircle
  10
 58.769775283174
  20
 164.28720510596
  30
0.0
  40
 6.5740728495842
 100
AcDbArc
  50
 90.000000000005
  51
 130.89818504441
   0
POLYLINE
   5
2E3
 100
AcDbEntity
   8
0
   6
CONTINUOUS
  62
2
 100
AcDb2dPolyline
  66
1
  10
0.0
  20
0.0
  30
0.0
  70
0
   0
VERTEX
   5
2E4
 100
AcDbEntity
   8
0
   6
CONTINUOUS
  62
2
 100
AcDbVertex
 100
AcDb2dVertex
  10
 55.093800086495
  20
 170.23840151919
  30
0.0
   0
VERTEX
   5
2E5
 100
AcDbEntity
   8
0
   6
CONTINUOUS
  62
2
 100
AcDbVertex
 100
AcDb2dVertex
  10
 54.465618882262
  20
 169.25637722092
  30
0.0
   0
VERTEX
   5
2E6
 100
AcDbEntity
   8
0
   6
CONTINUOUS
  62
2
 100
AcDbVertex
 100
AcDb2dVertex
  10
 55.494800504313
  20
 169.43640068355
  30
0.0
   0
SEQEND
   5
2E7
 100
AcDbEntity
   8
0
   6
CONTINUOUS
  62
2
   0
ARC
   5
2E8
 100
AcDbEntity
   8
0
   6
CONTINUOUS
  62
2
 100
AcDbCircle
  10
 58.769775283173
  20
 164.28720510596
  30
0.0
  40
 6.5740728495842
 100
AcDbArc
  50
 49.101814955594
  51
 89.999999999996
   0
POLYLINE
   5
2E9
 100
AcDbEntity
   8
0
   6
CONTINUOUS
  62
2
 100
AcDb2dPolyline
  66
1
  10
0.0
  20
0.0
  30
0.0
  70
0
   0
VERTEX
   5
2EA
 100
AcDbEntity
   8
0
   6
CONTINUOUS
  62
2
 100
AcDbVertex
 100
AcDb2dVertex
  10
 62.445750479852
  20
 170.23840151919
  30
0.0
   0
VERTEX
   5
2EB
 100
AcDbEntity
   8
0
   6
CONTINUOUS
  62
2
 100
AcDbVertex
 100
AcDb2dVertex
  10
 63.073931684086
  20
 169.25637722092
  30
0.0
   0
VERTEX
   5
2EC
 100
AcDbEntity
   8
0
   6
CONTINUOUS
  62
2
 100
AcDbVertex
 100
AcDb2dVertex
  10
 62.044750062035
  20
 169.43640068355
  30
0.0
   0
SEQEND
   5
2ED
 100
AcDbEntity
   8
0
   6
CONTINUOUS
  62
2
   0
TEXT
   5
2EE
 100
AcDbEntity
   8
0
  62
2
 100
AcDbText
  10
 63.039863772898
  20
 166.87695461426
  30
0.0
  40
 3.0000000000000
   1
下
   7
STANDARD
 100
AcDbText
   0
ARC
   5
2EF
 100
AcDbEntity
   8
0
   6
CONTINUOUS
  62
2
 100
AcDbCircle
  10
 58.769775283174
  20
 147.27425822039
  30
0.0
  40
 6.5740728495842
 100
AcDbArc
  50
 90.000000000001
  51
 130.89818504440
   0
POLYLINE
   5
2F0
 100
AcDbEntity
   8
0
   6
CONTINUOUS
  62
2
 100
AcDb2dPolyline
  66
1
  10
0.0
  20
0.0
  30
0.0
  70
0
   0
VERTEX
   5
2F1
 100
AcDbEntity
   8
0
   6
CONTINUOUS
  62
2
 100
AcDbVertex
 100
AcDb2dVertex
  10
 55.093800086495
  20
 153.22545463362
  30
0.0
   0
VERTEX
   5
2F2
 100
AcDbEntity
   8
0
   6
CONTINUOUS
  62
2
 100
AcDbVertex
 100
AcDb2dVertex
  10
 54.465618882262
  20
 152.24343033535
  30
0.0
   0
VERTEX
   5
2F3
 100
AcDbEntity
   8
0
   6
CONTINUOUS
  62
2
 100
AcDbVertex
 100
AcDb2dVertex
  10
 55.494800504313
  20
 152.42345379799
  30
0.0
   0
SEQEND
   5
2F4
 100
AcDbEntity
   8
0
   6
CONTINUOUS
  62
2
   0
TEXT
   5
2F5
 100
AcDbEntity
   8
0
  62
2
 100
AcDbText
  10
 51.859556717958
  20
 153.98982620609
  30
0.0
  40
 3.0000000000000
   1
右
   7
STANDARD
 100
AcDbText
   0
POLYLINE
   5
2F6
 100
AcDbEntity
   8
0
   6
CONTINUOUS
  62
2
 100
AcDb2dPolyline
  66
1
  10
0.0
  20
0.0
  30
0.0
  70
0
   0
VERTEX
   5
2F7
 100
AcDbEntity
   8
0
   6
CONTINUOUS
  62
2
 100
AcDbVertex
 100
AcDb2dVertex
  10
 55.628098708833
  20
 150.25228005024
  30
0.0
   0
VERTEX
   5
2F8
 100
AcDbEntity
   8
0
   6
CONTINUOUS
  62
2
 100
AcDbVertex
 100
AcDb2dVertex
  10
 55.810063114479
  20
 150.43424445589
  30
0.0
   0
VERTEX
   5
2F9
 100
AcDbEntity
   8
0
   6
CONTINUOUS
  62
2
 100
AcDbVertex
 100
AcDb2dVertex
  10
 54.567685448342
  20
 151.67662212203
  30
0.0
   0
VERTEX
   5
2FA
 100
AcDbEntity
   8
0
   6
CONTINUOUS
  62
2
 100
AcDbVertex
 100
AcDb2dVertex
  10
 54.385721042695
  20
 151.49465771638
  30
0.0
   0
VERTEX
   5
2FB
 100
AcDbEntity
   8
0
   6
CONTINUOUS
  62
2
 100
AcDbVertex
 100
AcDb2dVertex
  10
 55.628098708833
  20
 150.25228005024
  30
0.0
   0
SEQEND
   5
2FC
 100
AcDbEntity
   8
0
   6
CONTINUOUS
  62
2
   0
TEXT
   5
2FD
 100
AcDbEntity
   8
0
  62
2
 100
AcDbText
  10
 62.984079731002
  20
 153.78381652067
  30
0.0
  40
 3.0000000000000
   1
左
   7
STANDARD
 100
AcDbText
   0
ARC
   5
2FE
 100
AcDbEntity
   8
0
   6
CONTINUOUS
  62
2
 100
AcDbCircle
  10
 58.769775283174
  20
 147.27425822039
  30
0.0
  40
 6.5740728495842
 100
AcDbArc
  50
 49.101814955600
  51
 90.000000000004
   0
POLYLINE
   5
2FF
 100
AcDbEntity
   8
0
   6
CONTINUOUS
  62
2
 100
AcDb2dPolyline
  66
1
  10
0.0
  20
0.0
  30
0.0
  70
0
   0
VERTEX
   5
300
 100
AcDbEntity
   8
0
   6
CONTINUOUS
  62
2
 100
AcDbVertex
 100
AcDb2dVertex
  10
 62.445750479852
  20
 153.22545463362
  30
0.0
   0
VERTEX
   5
301
 100
AcDbEntity
   8
0
   6
CONTINUOUS
  62
2
 100
AcDbVertex
 100
AcDb2dVertex
  10
 63.073931684086
  20
 152.24343033535
  30
0.0
   0
VERTEX
   5
302
 100
AcDbEntity
   8
0
   6
CONTINUOUS
  62
2
 100
AcDbVertex
 100
AcDb2dVertex
  10
 62.044750062035
  20
 152.42345379799
  30
0.0
   0
SEQEND
   5
303
 100
AcDbEntity
   8
0
   6
CONTINUOUS
  62
2
   0
POLYLINE
   5
304
 100
AcDbEntity
   8
0
   6
CONTINUOUS
  62
2
 100
AcDb2dPolyline
  66
1
  10
0.0
  20
0.0
  30
0.0
  70
0
   0
VERTEX
   5
305
 100
AcDbEntity
   8
0
   6
CONTINUOUS
  62
2
 100
AcDbVertex
 100
AcDb2dVertex
  10
 61.911451857515
  20
 150.25228005024
  30
0.0
   0
VERTEX
   5
306
 100
AcDbEntity
   8
0
   6
CONTINUOUS
  62
2
 100
AcDbVertex
 100
AcDb2dVertex
  10
 61.729487451868
  20
 150.43424445589
  30
0.0
   0
VERTEX
   5
307
 100
AcDbEntity
   8
0
   6
CONTINUOUS
  62
2
 100
AcDbVertex
 100
AcDb2dVertex
  10
 62.971865118006
  20
 151.67662212203
  30
0.0
   0
VERTEX
   5
308
 100
AcDbEntity
   8
0
   6
CONTINUOUS
  62
2
 100
AcDbVertex
 100
AcDb2dVertex
  10
 63.153829523652
  20
 151.49465771638
  30
0.0
   0
VERTEX
   5
309
 100
AcDbEntity
   8
0
   6
CONTINUOUS
  62
2
 100
AcDbVertex
 100
AcDb2dVertex
  10
 61.911451857515
  20
 150.25228005024
  30
0.0
   0
SEQEND
   5
30A
 100
AcDbEntity
   8
0
   6
CONTINUOUS
  62
2
   0
POLYLINE
   5
30B
 100
AcDbEntity
   8
0
   6
CONTINUOUS
  62
2
 100
AcDb2dPolyline
  66
1
  10
0.0
  20
0.0
  30
0.0
  70
0
   0
VERTEX
   5
30C
 100
AcDbEntity
   8
0
   6
CONTINUOUS
  62
2
 100
AcDbVertex
 100
AcDb2dVertex
  10
 58.654053903572
  20
 151.60153846081
  30
0.0
   0
VERTEX
   5
30D
 100
AcDbEntity
   8
0
   6
CONTINUOUS
  62
2
 100
AcDbVertex
 100
AcDb2dVertex
  10
 58.911390433906
  20
 151.60153846081
  30
0.0
   0
VERTEX
   5
30E
 100
AcDbEntity
   8
0
   6
CONTINUOUS
  62
2
 100
AcDbVertex
 100
AcDb2dVertex
  10
 58.911390433906
  20
 153.35852580585
  30
0.0
   0
VERTEX
   5
30F
 100
AcDbEntity
   8
0
   6
CONTINUOUS
  62
2
 100
AcDbVertex
 100
AcDb2dVertex
  10
 58.654053903572
  20
 153.35852580585
  30
0.0
   0
VERTEX
   5
310
 100
AcDbEntity
   8
0
   6
CONTINUOUS
  62
2
 100
AcDbVertex
 100
AcDb2dVertex
  10
 58.654053903572
  20
 151.60153846081
  30
0.0
   0
SEQEND
   5
311
 100
AcDbEntity
   8
0
   6
CONTINUOUS
  62
2
   0
POLYLINE
   5
312
 100
AcDbEntity
   8
0
   6
CONTINUOUS
  62
2
 100
AcDb2dPolyline
  66
1
  10
0.0
  20
0.0
  30
0.0
  70
0
   0
VERTEX
   5
313
 100
AcDbEntity
   8
0
   6
CONTINUOUS
  62
2
 100
AcDbVertex
 100
AcDb2dVertex
  10
 63.097055523595
  20
 147.15853684079
  30
0.0
   0
VERTEX
   5
314
 100
AcDbEntity
   8
0
   6
CONTINUOUS
  62
2
 100
AcDbVertex
 100
AcDb2dVertex
  10
 63.097055523595
  20
 147.41587337112
  30
0.0
   0
VERTEX
   5
315
 100
AcDbEntity
   8
0
   6
CONTINUOUS
  62
2
 100
AcDbVertex
 100
AcDb2dVertex
  10
 64.854042868636
  20
 147.41587337112
  30
0.0
   0
VERTEX
   5
316
 100
AcDbEntity
   8
0
   6
CONTINUOUS
  62
2
 100
AcDbVertex
 100
AcDb2dVertex
  10
 64.854042868636
  20
 147.15853684079
  30
0.0
   0
VERTEX
   5
317
 100
AcDbEntity
   8
0
   6
CONTINUOUS
  62
2
 100
AcDbVertex
 100
AcDb2dVertex
  10
 63.097055523595
  20
 147.15853684079
  30
0.0
   0
SEQEND
   5
318
 100
AcDbEntity
   8
0
   6
CONTINUOUS
  62
2
   0
TEXT
   5
319
 100
AcDbEntity
   8
0
  62
2
 100
AcDbText
  10
 52.369775283174
  20
 138.95568266640
  30
0.0
  40
 3.2000000000000
   1
押し回し
   7
STANDARD
 100
AcDbText
   0
ARC
   5
31A
 100
AcDbEntity
   8
0
   6
CONTINUOUS
  62
7
 100
AcDbCircle
  10
 140.02620022877
  20
 144.28720510596
  30
0.0
  40
 11.620039564749
 100
AcDbArc
  50
 219.19185084068
  51
 17.234940523383
   0
ARC
   5
31B
 100
AcDbEntity
   8
0
   6
CONTINUOUS
  62
7
 100
AcDbCircle
  10
 140.02620022877
  20
 144.28720510596
  30
0.0
  40
 13.000000000000
 100
AcDbArc
  50
 218.01426893814
  51
 18.412522425924
   0
ARC
   5
31C
 100
AcDbEntity
   8
0
   6
CONTINUOUS
  62
7
 100
AcDbCircle
  10
 58.719775283174
  20
 152.88720510596
  30
0.0
  40
 20.000000000000
 100
AcDbArc
  50
 258.60919622454
  51
 264.91290504741
   0
POINT
   5
31D
 100
AcDbEntity
   8
0
 100
AcDbPoint
  62
7
  10
 57.219775283174
  20
 132.98720510596
  30
0.0
   0
ARC
   5
31E
 100
AcDbEntity
   8
0
   6
CONTINUOUS
  62
7
 100
AcDbCircle
  10
 56.919775283175
  20
 132.66716554121
  30
0.0
  40
 0.30000000000000
 100
AcDbArc
  50
 0.27140733281955E-10
  51
 84.912905047689
   0
ARC
   5
31F
 100
AcDbEntity
   8
0
   6
CONTINUOUS
  62
7
 100
AcDbCircle
  10
 57.419775283172
  20
 131.48720510596
  30
0.0
  40
 0.20000000000000
 100
AcDbArc
  50
 180.00000000001
  51
 270.00000000042
   0
ARC
   5
320
 100
AcDbEntity
   8
0
   6
CONTINUOUS
  62
7
 100
AcDbCircle
  10
 57.419775283174
  20
 131.48720510596
  30
0.0
  40
 0.20000000000000
 100
AcDbArc
  50
 180.00000000042
  51
 270.00000000000
   0
LINE
   5
321
 100
AcDbEntity
   8
0
 100
AcDbLine
   6
CONTINUOUS
  62
7
  10
 57.419775283174
  20
 131.28720510596
  30
0.0
  11
 58.769775283174
  21
 131.28720510596
  31
0.0
   0
POINT
   5
322
 100
AcDbEntity
   8
0
 100
AcDbPoint
  62
7
  10
 57.219775283174
  20
 131.28720510596
  30
0.0
   0
POINT
   5
323
 100
AcDbEntity
   8
0
 100
AcDbPoint
  62
7
  10
 57.219775283174
  20
 131.28720510596
  30
0.0
   0
LINE
   5
324
 100
AcDbEntity
   8
0
 100
AcDbLine
   6
CONTINUOUS
  62
7
  10
 60.119775283174
  20
 131.28720510596
  30
0.0
  11
 58.769775283174
  21
 131.28720510596
  31
0.0
   0
ARC
   5
325
 100
AcDbEntity
   8
0
   6
CONTINUOUS
  62
7
 100
AcDbCircle
  10
 60.119775283169
  20
 131.48720510596
  30
0.0
  40
 0.20000000000000
 100
AcDbArc
  50
 270.00000000130
  51
0.0
   0
ARC
   5
326
 100
AcDbEntity
   8
0
   6
CONTINUOUS
  62
7
 100
AcDbCircle
  10
 60.119775283174
  20
 131.48720510595
  30
0.0
  40
 0.20000000000000
 100
AcDbArc
  50
 269.99999999999
  51
 0.97706639814558E-9
   0
POINT
   5
327
 100
AcDbEntity
   8
0
 100
AcDbPoint
  62
7
  10
 60.319775283174
  20
 131.28720510596
  30
0.0
   0
POINT
   5
328
 100
AcDbEntity
   8
0
 100
AcDbPoint
  62
7
  10
 60.319775283174
  20
 131.28720510596
  30
0.0
   0
ARC
   5
329
 100
AcDbEntity
   8
0
   6
CONTINUOUS
  62
7
 100
AcDbCircle
  10
 58.819775283174
  20
 152.88720510596
  30
0.0
  40
 20.000000000000
 100
AcDbArc
  50
 275.08709495259
  51
 281.39080377546
   0
POINT
   5
32A
 100
AcDbEntity
   8
0
 100
AcDbPoint
  62
7
  10
 60.319775283174
  20
 132.98720510596
  30
0.0
   0
ARC
   5
32B
 100
AcDbEntity
   8
0
   6
CONTINUOUS
  62
7
 100
AcDbCircle
  10
 60.619775283173
  20
 132.66716554121
  30
0.0
  40
 0.30000000000000
 100
AcDbArc
  50
 95.087094952425
  51
 179.99999999999
   0
LINE
   5
32C
 100
AcDbEntity
   8
0
 100
AcDbLine
   6
CONTINUOUS
  62
7
  10
 62.769775283174
  20
 134.28720510596
  30
0.0
  11
 62.769775283174
  21
 133.25152329961
  31
0.0
   0
LINE
   5
32D
 100
AcDbEntity
   8
0
 100
AcDbLine
   6
CONTINUOUS
  62
7
  10
 60.319775283174
  20
 131.48720510596
  30
0.0
  11
 60.319775283174
  21
 134.28720510596
  31
0.0
   0
LINE
   5
32E
 100
AcDbEntity
   8
0
 100
AcDbLine
   6
CONTINUOUS
  62
7
  10
 57.219775283174
  20
 131.48720510596
  30
0.0
  11
 57.219775283174
  21
 134.28720510596
  31
0.0
   0
LINE
   5
32F
 100
AcDbEntity
   8
0
 100
AcDbLine
   6
CONTINUOUS
  62
7
  10
 54.769775283174
  20
 134.28720510596
  30
0.0
  11
 54.769775283174
  21
 133.25152329961
  31
0.0
   0
LINE
   5
330
 100
AcDbEntity
   8
0
 100
AcDbLine
   6
DASHDOT
  62
2
  10
 140.02620022877
  20
 97.092809341801
  30
0.0
  11
 140.02620022877
  21
 77.093898286831
  31
0.0
   0
LINE
   5
331
 100
AcDbEntity
   8
0
 100
AcDbLine
   6
CONTINUOUS
  62
7
  10
 140.02620022877
  20
 83.224054331405
  30
0.0
  11
 151.06188203512
  21
 83.224054331405
  31
0.0
   0
LINE
   5
332
 100
AcDbEntity
   8
0
 100
AcDbLine
   6
CONTINUOUS
  62
7
  10
 152.82620022877
  20
 85.674054331405
  30
0.0
  11
 140.02620022877
  21
 85.674054331405
  31
0.0
   0
LINE
   5
333
 100
AcDbEntity
   8
0
 100
AcDbLine
   6
CONTINUOUS
  62
7
  10
 140.02620022877
  20
 91.224054331405
  30
0.0
  11
 151.06188203512
  21
 91.224054331405
  31
0.0
   0
LINE
   5
334
 100
AcDbEntity
   8
0
 100
AcDbLine
   6
CONTINUOUS
  62
7
  10
 152.82620022877
  20
 88.774054331405
  30
0.0
  11
 140.02620022877
  21
 88.774054331405
  31
0.0
   0
LINE
   5
335
 100
AcDbEntity
   8
0
 100
AcDbLine
   6
CONTINUOUS
  62
7
  10
 153.02620022877
  20
 88.574054331405
  30
0.0
  11
 153.02620022877
  21
 87.224054331405
  31
0.0
   0
ARC
   5
336
 100
AcDbEntity
   8
0
   6
CONTINUOUS
  62
7
 100
AcDbCircle
  10
 152.82620022877
  20
 88.574054331403
  30
0.0
  40
 0.20000000000000
 100
AcDbArc
  50
 0.61880871882558E-9
  51
 90.000000000000
   0
ARC
   5
337
 100
AcDbEntity
   8
0
   6
CONTINUOUS
  62
7
 100
AcDbCircle
  10
 152.82620022878
  20
 88.574054331405
  30
0.0
  40
 0.20000000000000
 100
AcDbArc
  50
0.0
  51
 90.000000000660
   0
POINT
   5
338
 100
AcDbEntity
   8
0
 100
AcDbPoint
  62
7
  10
 153.02620022877
  20
 88.774054331405
  30
0.0
   0
POINT
   5
339
 100
AcDbEntity
   8
0
 100
AcDbPoint
  62
7
  10
 153.02620022877
  20
 88.774054331405
  30
0.0
   0
ARC
   5
33A
 100
AcDbEntity
   8
0
   6
CONTINUOUS
  62
7
 100
AcDbCircle
  10
 131.42620022877
  20
 87.274054331405
  30
0.0
  40
 20.000000000000
 100
AcDbArc
  50
 5.0870949525893
  51
 11.390803775458
   0
POINT
   5
33B
 100
AcDbEntity
   8
0
 100
AcDbPoint
  62
7
  10
 151.32620022877
  20
 88.774054331405
  30
0.0
   0
ARC
   5
33C
 100
AcDbEntity
   8
0
   6
CONTINUOUS
  62
7
 100
AcDbCircle
  10
 151.64623979352
  20
 89.074054331409
  30
0.0
  40
 0.30000000000000
 100
AcDbArc
  50
 185.08709495332
  51
 270.00000000007
   0
ARC
   5
33D
 100
AcDbEntity
   8
0
   6
CONTINUOUS
  62
7
 100
AcDbCircle
  10
 131.42620022877
  20
 87.174054331405
  30
0.0
  40
 20.000000000000
 100
AcDbArc
  50
 348.60919622454
  51
 354.91290504741
   0
POINT
   5
33E
 100
AcDbEntity
   8
0
 100
AcDbPoint
  62
7
  10
 151.32620022877
  20
 85.674054331405
  30
0.0
   0
ARC
   5
33F
 100
AcDbEntity
   8
0
   6
CONTINUOUS
  62
7
 100
AcDbCircle
  10
 151.64623979352
  20
 85.374054331407
  30
0.0
  40
 0.30000000000000
 100
AcDbArc
  50
 90.000000000033
  51
 174.91290504775
   0
ARC
   5
340
 100
AcDbEntity
   8
0
   6
CONTINUOUS
  62
7
 100
AcDbCircle
  10
 152.82620022877
  20
 85.874054331407
  30
0.0
  40
 0.20000000000000
 100
AcDbArc
  50
 270.00000000000
  51
0.0
   0
ARC
   5
341
 100
AcDbEntity
   8
0
   6
CONTINUOUS
  62
7
 100
AcDbCircle
  10
 152.82620022878
  20
 85.874054331405
  30
0.0
  40
 0.20000000000000
 100
AcDbArc
  50
 269.99999999948
  51
0.0
   0
LINE
   5
342
 100
AcDbEntity
   8
0
 100
AcDbLine
   6
CONTINUOUS
  62
7
  10
 153.02620022877
  20
 85.874054331405
  30
0.0
  11
 153.02620022877
  21
 87.224054331405
  31
0.0
   0
POINT
   5
343
 100
AcDbEntity
   8
0
 100
AcDbPoint
  62
7
  10
 153.02620022877
  20
 85.674054331405
  30
0.0
   0
POINT
   5
344
 100
AcDbEntity
   8
0
 100
AcDbPoint
  62
7
  10
 153.02620022877
  20
 85.674054331405
  30
0.0
   0
LINE
   5
345
 100
AcDbEntity
   8
0
 100
AcDbLine
   6
CONTINUOUS
  62
7
  10
 154.02620022877
  20
 87.224054331405
  30
0.0
  11
 154.02620022877
  21
 81.224054331357
  31
0.0
   0
LINE
   5
346
 100
AcDbEntity
   8
0
 100
AcDbLine
   6
CONTINUOUS
  62
7
  10
 154.02620022877
  20
 93.224054331357
  30
0.0
  11
 154.02620022877
  21
 87.224054331405
  31
0.0
   0
LINE
   5
347
 100
AcDbEntity
   8
0
 100
AcDbLine
   6
CONTINUOUS
  62
7
  10
 148.52620022877
  20
 91.224054331405
  30
0.0
  11
 148.52620022877
  21
 93.224054331357
  31
0.0
   0
LINE
   5
348
 100
AcDbEntity
   8
0
 100
AcDbLine
   6
CONTINUOUS
  62
7
  10
 147.02620022877
  20
 91.224054331405
  30
0.0
  11
 147.02620022877
  21
 94.724054331357
  31
0.0
   0
LINE
   5
349
 100
AcDbEntity
   8
0
 100
AcDbLine
   6
CONTINUOUS
  62
7
  10
 148.52620022877
  20
 81.224054331357
  30
0.0
  11
 148.52620022877
  21
 83.224054331405
  31
0.0
   0
LINE
   5
34A
 100
AcDbEntity
   8
0
 100
AcDbLine
   6
CONTINUOUS
  62
7
  10
 147.02620022877
  20
 79.724054331357
  30
0.0
  11
 147.02620022877
  21
 83.224054331405
  31
0.0
   0
LINE
   5
34B
 100
AcDbEntity
   8
0
 100
AcDbLine
   6
CONTINUOUS
  62
7
  10
 140.02620022877
  20
 91.224054331405
  30
0.0
  11
 128.99051842243
  21
 91.224054331405
  31
0.0
   0
LINE
   5
34C
 100
AcDbEntity
   8
0
 100
AcDbLine
   6
CONTINUOUS
  62
7
  10
 127.22620022877
  20
 88.774054331405
  30
0.0
  11
 140.02620022877
  21
 88.774054331405
  31
0.0
   0
LINE
   5
34D
 100
AcDbEntity
   8
0
 100
AcDbLine
   6
CONTINUOUS
  62
7
  10
 127.02620022877
  20
 88.574054331405
  30
0.0
  11
 127.02620022877
  21
 87.224054331405
  31
0.0
   0
ARC
   5
34E
 100
AcDbEntity
   8
0
   6
CONTINUOUS
  62
7
 100
AcDbCircle
  10
 127.22620022877
  20
 88.574054331406
  30
0.0
  40
 0.20000000000000
 100
AcDbArc
  50
 90.000000000004
  51
 180.00000000028
   0
ARC
   5
34F
 100
AcDbEntity
   8
0
   6
CONTINUOUS
  62
7
 100
AcDbCircle
  10
 127.22620022877
  20
 88.574054331405
  30
0.0
  40
 0.20000000000000
 100
AcDbArc
  50
 90.000000000224
  51
 180.00000000001
   0
POINT
   5
350
 100
AcDbEntity
   8
0
 100
AcDbPoint
  62
7
  10
 127.02620022877
  20
 88.774054331405
  30
0.0
   0
POINT
   5
351
 100
AcDbEntity
   8
0
 100
AcDbPoint
  62
7
  10
 127.02620022877
  20
 88.774054331405
  30
0.0
   0
ARC
   5
352
 100
AcDbEntity
   8
0
   6
CONTINUOUS
  62
7
 100
AcDbCircle
  10
 148.62620022877
  20
 87.274054331405
  30
0.0
  40
 20.000000000000
 100
AcDbArc
  50
 168.60919622454
  51
 174.91290504741
   0
POINT
   5
353
 100
AcDbEntity
   8
0
 100
AcDbPoint
  62
7
  10
 128.72620022877
  20
 88.774054331405
  30
0.0
   0
ARC
   5
354
 100
AcDbEntity
   8
0
   6
CONTINUOUS
  62
7
 100
AcDbCircle
  10
 128.40616066402
  20
 89.074054331403
  30
0.0
  40
 0.30000000000000
 100
AcDbArc
  50
 270.00000000004
  51
 354.91290504792
   0
LINE
   5
355
 100
AcDbEntity
   8
0
 100
AcDbLine
   6
CONTINUOUS
  62
7
  10
 140.02620022877
  20
 83.224054331405
  30
0.0
  11
 128.99051842243
  21
 83.224054331405
  31
0.0
   0
LINE
   5
356
 100
AcDbEntity
   8
0
 100
AcDbLine
   6
CONTINUOUS
  62
7
  10
 127.22620022877
  20
 85.674054331405
  30
0.0
  11
 140.02620022877
  21
 85.674054331405
  31
0.0
   0
ARC
   5
357
 100
AcDbEntity
   8
0
   6
CONTINUOUS
  62
7
 100
AcDbCircle
  10
 148.62620022877
  20
 87.174054331406
  30
0.0
  40
 20.000000000000
 100
AcDbArc
  50
 185.08709495259
  51
 191.39080377546
   0
POINT
   5
358
 100
AcDbEntity
   8
0
 100
AcDbPoint
  62
7
  10
 128.72620022877
  20
 85.674054331405
  30
0.0
   0
ARC
   5
359
 100
AcDbEntity
   8
0
   6
CONTINUOUS
  62
7
 100
AcDbCircle
  10
 128.40616066403
  20
 85.374054331403
  30
0.0
  40
 0.30000000000000
 100
AcDbArc
  50
 5.0870949530471
  51
 90.000000000038
   0
ARC
   5
35A
 100
AcDbEntity
   8
0
   6
CONTINUOUS
  62
7
 100
AcDbCircle
  10
 127.22620022877
  20
 85.874054331404
  30
0.0
  40
 0.20000000000000
 100
AcDbArc
  50
 179.99999999964
  51
 270.00000000000
   0
ARC
   5
35B
 100
AcDbEntity
   8
0
   6
CONTINUOUS
  62
7
 100
AcDbCircle
  10
 127.22620022877
  20
 85.874054331405
  30
0.0
  40
 0.20000000000000
 100
AcDbArc
  50
 180.00000000000
  51
 269.99999999964
   0
LINE
   5
35C
 100
AcDbEntity
   8
0
 100
AcDbLine
   6
CONTINUOUS
  62
7
  10
 127.02620022877
  20
 85.874054331405
  30
0.0
  11
 127.02620022877
  21
 87.224054331405
  31
0.0
   0
POINT
   5
35D
 100
AcDbEntity
   8
0
 100
AcDbPoint
  62
7
  10
 127.02620022877
  20
 85.674054331405
  30
0.0
   0
POINT
   5
35E
 100
AcDbEntity
   8
0
 100
AcDbPoint
  62
7
  10
 127.02620022877
  20
 85.674054331405
  30
0.0
   0
LINE
   5
35F
 100
AcDbEntity
   8
0
 100
AcDbLine
   6
CONTINUOUS
  62
7
  10
 126.84680926752
  20
 83.024054331357
  30
0.0
  11
 126.84680926752
  21
 87.224054331405
  31
0.0
   0
LINE
   5
360
 100
AcDbEntity
   8
0
 100
AcDbLine
   6
CONTINUOUS
  62
7
  10
 126.84680926752
  20
 87.224054331405
  30
0.0
  11
 126.84680926752
  21
 91.424054331357
  31
0.0
   0
ARC
   5
361
 100
AcDbEntity
   8
0
   6
CONTINUOUS
  62
7
 100
AcDbCircle
  10
 140.00548476614
  20
 138.03723943648
  30
0.0
  40
 2.0500000000000
 100
AcDbArc
  50
 305.79510566529
  51
 45.271690415807
   0
ARC
   5
362
 100
AcDbEntity
   8
0
   6
CONTINUOUS
  62
7
 100
AcDbCircle
  10
 145.42847154000
  20
 141.14428215433
  30
0.0
  40
 2.0500000000000
 100
AcDbArc
  50
 194.34849814337
  51
 293.82508289394
   0
ARC
   5
363
 100
AcDbEntity
   8
0
   6
CONTINUOUS
  62
7
 100
AcDbCircle
  10
 145.42847154000
  20
 141.14428215433
  30
0.0
  40
 2.0500000000000
 100
AcDbArc
  50
 5.7951056652631
  51
 105.27169041584
   0
ARC
   5
364
 100
AcDbEntity
   8
0
   6
CONTINUOUS
  62
7
 100
AcDbCircle
  10
 140.02620022877
  20
 144.28720510596
  30
0.0
  40
 8.0000000000000
 100
AcDbArc
  50
 270.00000000000
  51
 12.155124359693
   0
ARC
   5
365
 100
AcDbEntity
   8
0
   6
CONTINUOUS
  62
7
 100
AcDbCircle
  10
 140.00548476614
  20
 138.03723943648
  30
0.0
  40
 2.0500000000000
 100
AcDbArc
  50
 161.56138796461
  51
 233.82508289390
   0
ARC
   5
366
 100
AcDbEntity
   8
0
   6
CONTINUOUS
  62
7
 100
AcDbCircle
  10
 140.02620022877
  20
 144.28720510596
  30
0.0
  40
 8.0000000000000
 100
AcDbArc
  50
 231.96745364932
  51
 270.00000000000
   0
LINE
   5
367
 100
AcDbEntity
   8
0
 100
AcDbLine
   6
CONTINUOUS
  62
7
  10
 141.45482229740
  20
 139.48703967117
  30
0.0
  11
 131.28316791257
  21
 137.08532413626
  31
0.0
   0
ARC
   5
368
 100
AcDbEntity
   8
0
   6
CONTINUOUS
  62
7
 100
AcDbCircle
  10
 140.02620022877
  20
 144.28720510596
  30
0.0
  40
 9.5000000000001
 100
AcDbArc
  50
 225.04213005512
  51
 14.743241683608
   0
ARC
   5
369
 100
AcDbEntity
   8
0
   6
CONTINUOUS
  62
7
 100
AcDbCircle
  10
 140.02620022877
  20
 144.28720510596
  30
0.0
  40
 5.0000000000000
 100
AcDbArc
  50
 283.28526619583
  51
 1.9445447805678
   0
LINE
   5
36A
 100
AcDbEntity
   8
0
 100
AcDbLine
   6
CONTINUOUS
  62
7
  10
 142.22620022882
  20
 91.424054331405
  30
0.0
  11
 142.22620022882
  21
 91.824054331405
  31
0.0
   0
LINE
   5
36B
 100
AcDbEntity
   8
0
 100
AcDbLine
   6
CONTINUOUS
  62
7
  10
 145.02620022882
  20
 91.124054331405
  30
0.0
  11
 145.02620022882
  21
 91.424054331405
  31
0.0
   0
LINE
   5
36C
 100
AcDbEntity
   8
0
 100
AcDbLine
   6
CONTINUOUS
  62
7
  10
 141.05943542937
  20
 91.824054331357
  30
0.0
  11
 142.22620022877
  21
 91.824054331357
  31
0.0
   0
LINE
   5
36D
 100
AcDbEntity
   8
0
 100
AcDbLine
   6
CONTINUOUS
  62
7
  10
 138.77359466617
  20
 91.824054331357
  30
0.0
  11
 141.05943542937
  21
 91.824054331357
  31
0.0
   0
POLYLINE
   5
36E
 100
AcDbEntity
   8
0
   6
CONTINUOUS
  62
7
 100
AcDb2dPolyline
  66
1
  10
0.0
  20
0.0
  30
0.0
  70
0
   0
VERTEX
   5
36F
 100
AcDbEntity
   8
0
   6
CONTINUOUS
  62
7
 100
AcDbVertex
 100
AcDb2dVertex
  10
 138.94522919644
  20
 91.424054331405
  30
0.0
   0
VERTEX
   5
370
 100
AcDbEntity
   8
0
   6
CONTINUOUS
  62
7
 100
AcDbVertex
 100
AcDb2dVertex
  10
 138.94522919644
  20
 91.537094564718
  30
0.0
   0
VERTEX
   5
371
 100
AcDbEntity
   8
0
   6
CONTINUOUS
  62
7
 100
AcDbVertex
 100
AcDb2dVertex
  10
 138.90627778965
  20
 91.645196117354
  30
0.0
   0
VERTEX
   5
372
 100
AcDbEntity
   8
0
   6
CONTINUOUS
  62
7
 100
AcDbVertex
 100
AcDb2dVertex
  10
 138.79078418376
  20
 91.833254175645
  30
0.0
   0
VERTEX
   5
373
 100
AcDbEntity
   8
0
   6
CONTINUOUS
  62
7
 100
AcDbVertex
 100
AcDb2dVertex
  10
 138.71502874350
  20
 91.915544077021
  30
0.0
   0
VERTEX
   5
374
 100
AcDbEntity
   8
0
   6
CONTINUOUS
  62
7
 100
AcDbVertex
 100
AcDb2dVertex
  10
 138.55225805534
  20
 92.060897181126
  30
0.0
   0
VERTEX
   5
375
 100
AcDbEntity
   8
0
   6
CONTINUOUS
  62
7
 100
AcDbVertex
 100
AcDb2dVertex
  10
 138.46295093266
  20
 92.125644948652
  30
0.0
   0
VERTEX
   5
376
 100
AcDbEntity
   8
0
   6
CONTINUOUS
  62
7
 100
AcDbVertex
 100
AcDb2dVertex
  10
 138.27883576369
  20
 92.241221823463
  30
0.0
   0
VERTEX
   5
377
 100
AcDbEntity
   8
0
   6
CONTINUOUS
  62
7
 100
AcDbVertex
 100
AcDb2dVertex
  10
 138.18370935243
  20
 92.292266055947
  30
0.0
   0
VERTEX
   5
378
 100
AcDbEntity
   8
0
   6
CONTINUOUS
  62
7
 100
AcDbVertex
 100
AcDb2dVertex
  10
 137.89104861796
  20
 92.429396568818
  30
0.0
   0
VERTEX
   5
379
 100
AcDbEntity
   8
0
   6
CONTINUOUS
  62
7
 100
AcDbVertex
 100
AcDb2dVertex
  10
 137.68428408624
  20
 92.500217473112
  30
0.0
   0
VERTEX
   5
37A
 100
AcDbEntity
   8
0
   6
CONTINUOUS
  62
7
 100
AcDbVertex
 100
AcDb2dVertex
  10
 137.26472943694
  20
 92.597291974304
  30
0.0
   0
VERTEX
   5
37B
 100
AcDbEntity
   8
0
   6
CONTINUOUS
  62
7
 100
AcDbVertex
 100
AcDb2dVertex
  10
 137.05171769285
  20
 92.624054331405
  30
0.0
   0
VERTEX
   5
37C
 100
AcDbEntity
   8
0
   6
CONTINUOUS
  62
7
 100
AcDbVertex
 100
AcDb2dVertex
  10
 136.83473069678
  20
 92.624054331405
  30
0.0
   0
SEQEND
   5
37D
 100
AcDbEntity
   8
0
   6
CONTINUOUS
  62
7
   0
LINE
   5
37E
 100
AcDbEntity
   8
0
 100
AcDbLine
   6
CONTINUOUS
  62
7
  10
 141.17519759547
  20
 91.424054331357
  30
0.0
  11
 138.94522919647
  21
 91.424054331357
  31
0.0
   0
SPLINE
   5
37F
 100
AcDbEntity
   8
0
   6
CONTINUOUS
  62
7
 100
AcDbSpline
  70
8
  71
3
  72
10
  73
6
  74
4
  42
 0.10000000000000E-6
  43
 0.10000000000000E-6
  44
 0.10000000000000E-4
  40
0.0
  40
0.0
  40
0.0
  40
0.0
  40
 0.47339312877386
  40
 0.96415334714152
  40
 1.0000000000000
  40
 1.0000000000000
  40
 1.0000000000000
  40
 1.0000000000000
  10
 137.13303660347
  20
 91.424054331405
  30
0.0
  10
 137.13607859916
  20
 91.375625505759
  30
0.0
  10
 137.14227419042
  20
 91.276991175206
  30
0.0
  10
 137.16715267296
  20
 91.175703355777
  30
0.0
  10
 137.19061556394
  20
 91.127346060531
  30
0.0
  10
 137.19221270624
  20
 91.124054331405
  30
0.0
  11
 137.13303660347
  21
 91.424054331405
  31
0.0
  11
 137.14645157043
  21
 91.279003466537
  31
0.0
  11
 137.18746929200
  21
 91.133952601668
  31
0.0
  11
 137.19221270624
  21
 91.124054331405
  31
0.0
   0
LINE
   5
380
 100
AcDbEntity
   8
0
 100
AcDbLine
   6
CONTINUOUS
  62
7
  10
 122.06029785887
  20
 92.624054331357
  30
0.0
  11
 136.83473069677
  21
 92.624054331357
  31
0.0
   0
LINE
   5
381
 100
AcDbEntity
   8
0
 100
AcDbLine
   6
CONTINUOUS
  62
7
  10
 124.22817251317
  20
 91.424054331357
  30
0.0
  11
 137.13303660347
  21
 91.424054331357
  31
0.0
   0
POLYLINE
   5
382
 100
AcDbEntity
   8
0
   6
CONTINUOUS
  62
7
 100
AcDb2dPolyline
  66
1
  10
0.0
  20
0.0
  30
0.0
  70
0
   0
VERTEX
   5
383
 100
AcDbEntity
   8
0
   6
CONTINUOUS
  62
7
 100
AcDbVertex
 100
AcDb2dVertex
  10
 142.61956436734
  20
 92.624054331405
  30
0.0
   0
VERTEX
   5
384
 100
AcDbEntity
   8
0
   6
CONTINUOUS
  62
7
 100
AcDbVertex
 100
AcDb2dVertex
  10
 142.71564075488
  20
 92.624054331405
  30
0.0
   0
VERTEX
   5
385
 100
AcDbEntity
   8
0
   6
CONTINUOUS
  62
7
 100
AcDbVertex
 100
AcDb2dVertex
  10
 142.80975973551
  20
 92.597247427652
  30
0.0
   0
VERTEX
   5
386
 100
AcDbEntity
   8
0
   6
CONTINUOUS
  62
7
 100
AcDbVertex
 100
AcDb2dVertex
  10
 142.99484777242
  20
 92.500495058213
  30
0.0
   0
VERTEX
   5
387
 100
AcDbEntity
   8
0
   6
CONTINUOUS
  62
7
 100
AcDbVertex
 100
AcDb2dVertex
  10
 143.08654227060
  20
 92.429618955646
  30
0.0
   0
VERTEX
   5
388
 100
AcDbEntity
   8
0
   6
CONTINUOUS
  62
7
 100
AcDbVertex
 100
AcDb2dVertex
  10
 143.21627200949
  20
 92.292186467068
  30
0.0
   0
VERTEX
   5
389
 100
AcDbEntity
   8
0
   6
CONTINUOUS
  62
7
 100
AcDbVertex
 100
AcDb2dVertex
  10
 143.25837577131
  20
 92.241078531232
  30
0.0
   0
VERTEX
   5
38A
 100
AcDbEntity
   8
0
   6
CONTINUOUS
  62
7
 100
AcDbVertex
 100
AcDb2dVertex
  10
 143.33972869784
  20
 92.125592532014
  30
0.0
   0
VERTEX
   5
38B
 100
AcDbEntity
   8
0
   6
CONTINUOUS
  62
7
 100
AcDbVertex
 100
AcDb2dVertex
  10
 143.37925742007
  20
 92.060842560693
  30
0.0
   0
VERTEX
   5
38C
 100
AcDbEntity
   8
0
   6
CONTINUOUS
  62
7
 100
AcDbVertex
 100
AcDb2dVertex
  10
 143.45159147845
  20
 91.914664583817
  30
0.0
   0
VERTEX
   5
38D
 100
AcDbEntity
   8
0
   6
CONTINUOUS
  62
7
 100
AcDbVertex
 100
AcDb2dVertex
  10
 143.48496593086
  20
 91.832372364143
  30
0.0
   0
VERTEX
   5
38E
 100
AcDbEntity
   8
0
   6
CONTINUOUS
  62
7
 100
AcDbVertex
 100
AcDb2dVertex
  10
 143.53572048698
  20
 91.645276223842
  30
0.0
   0
VERTEX
   5
38F
 100
AcDbEntity
   8
0
   6
CONTINUOUS
  62
7
 100
AcDbVertex
 100
AcDb2dVertex
  10
 143.55300239122
  20
 91.537213063855
  30
0.0
   0
VERTEX
   5
390
 100
AcDbEntity
   8
0
   6
CONTINUOUS
  62
7
 100
AcDbVertex
 100
AcDb2dVertex
  10
 143.55300239122
  20
 91.424054331405
  30
0.0
   0
SEQEND
   5
391
 100
AcDbEntity
   8
0
   6
CONTINUOUS
  62
7
   0
LINE
   5
392
 100
AcDbEntity
   8
0
 100
AcDbLine
   6
CONTINUOUS
  62
7
  10
 133.32620022877
  20
 92.624054331357
  30
0.0
  11
 142.61956436737
  21
 92.624054331357
  31
0.0
   0
LINE
   5
393
 100
AcDbEntity
   8
0
 100
AcDbLine
   6
CONTINUOUS
  62
7
  10
 145.02620022877
  20
 91.424054331357
  30
0.0
  11
 141.17519759547
  21
 91.424054331357
  31
0.0
   0
LINE
   5
394
 100
AcDbEntity
   8
0
 100
AcDbLine
   6
CONTINUOUS
  62
1
  10
 141.17519759547
  20
 91.124054331357
  30
0.0
  11
 141.17519759547
  21
 91.424054331357
  31
0.0
   0
LINE
   5
395
 100
AcDbEntity
   8
0
 100
AcDbLine
   6
CONTINUOUS
  62
7
  10
 145.02620022882
  20
 83.024054331405
  30
0.0
  11
 145.02620022882
  21
 83.324054331405
  31
0.0
   0
LINE
   5
396
 100
AcDbEntity
   8
0
 100
AcDbLine
   6
CONTINUOUS
  62
7
  10
 138.94522919647
  20
 83.024054331357
  30
0.0
  11
 141.17519759547
  21
 83.024054331357
  31
0.0
   0
POLYLINE
   5
397
 100
AcDbEntity
   8
0
   6
CONTINUOUS
  62
7
 100
AcDb2dPolyline
  66
1
  10
0.0
  20
0.0
  30
0.0
  70
0
   0
VERTEX
   5
398
 100
AcDbEntity
   8
0
   6
CONTINUOUS
  62
7
 100
AcDbVertex
 100
AcDb2dVertex
  10
 136.83473069678
  20
 81.824054331405
  30
0.0
   0
VERTEX
   5
399
 100
AcDbEntity
   8
0
   6
CONTINUOUS
  62
7
 100
AcDbVertex
 100
AcDb2dVertex
  10
 137.05195890749
  20
 81.824054331405
  30
0.0
   0
VERTEX
   5
39A
 100
AcDbEntity
   8
0
   6
CONTINUOUS
  62
7
 100
AcDbVertex
 100
AcDb2dVertex
  10
 137.26476143142
  20
 81.850861235159
  30
0.0
   0
VERTEX
   5
39B
 100
AcDbEntity
   8
0
   6
CONTINUOUS
  62
7
 100
AcDbVertex
 100
AcDb2dVertex
  10
 137.68324451676
  20
 81.947613604597
  30
0.0
   0
VERTEX
   5
39C
 100
AcDbEntity
   8
0
   6
CONTINUOUS
  62
7
 100
AcDbVertex
 100
AcDb2dVertex
  10
 137.89056529851
  20
 82.018489707165
  30
0.0
   0
VERTEX
   5
39D
 100
AcDbEntity
   8
0
   6
CONTINUOUS
  62
7
 100
AcDbVertex
 100
AcDb2dVertex
  10
 138.18388356099
  20
 82.155922195743
  30
0.0
   0
VERTEX
   5
39E
 100
AcDbEntity
   8
0
   6
CONTINUOUS
  62
7
 100
AcDbVertex
 100
AcDb2dVertex
  10
 138.27907994670
  20
 82.207030131578
  30
0.0
   0
VERTEX
   5
39F
 100
AcDbEntity
   8
0
   6
CONTINUOUS
  62
7
 100
AcDbVertex
 100
AcDb2dVertex
  10
 138.46301848894
  20
 82.322516130797
  30
0.0
   0
VERTEX
   5
3A0
 100
AcDbEntity
   8
0
   6
CONTINUOUS
  62
7
 100
AcDbVertex
 100
AcDb2dVertex
  10
 138.55239272358
  20
 82.387266102118
  30
0.0
   0
VERTEX
   5
3A1
 100
AcDbEntity
   8
0
   6
CONTINUOUS
  62
7
 100
AcDbVertex
 100
AcDb2dVertex
  10
 138.71593965200
  20
 82.533444078994
  30
0.0
   0
VERTEX
   5
3A2
 100
AcDbEntity
   8
0
   6
CONTINUOUS
  62
7
 100
AcDbVertex
 100
AcDb2dVertex
  10
 138.79139911470
  20
 82.615736298667
  30
0.0
   0
VERTEX
   5
3A3
 100
AcDbEntity
   8
0
   6
CONTINUOUS
  62
7
 100
AcDbVertex
 100
AcDb2dVertex
  10
 138.90615490115
  20
 82.802832438969
  30
0.0
   0
VERTEX
   5
3A4
 100
AcDbEntity
   8
0
   6
CONTINUOUS
  62
7
 100
AcDbVertex
 100
AcDb2dVertex
  10
 138.94522919644
  20
 82.910895598956
  30
0.0
   0
VERTEX
   5
3A5
 100
AcDbEntity
   8
0
   6
CONTINUOUS
  62
7
 100
AcDbVertex
 100
AcDb2dVertex
  10
 138.94522919644
  20
 83.024054331405
  30
0.0
   0
SEQEND
   5
3A6
 100
AcDbEntity
   8
0
   6
CONTINUOUS
  62
7
   0
SPLINE
   5
3A7
 100
AcDbEntity
   8
0
   6
CONTINUOUS
  62
7
 100
AcDbSpline
  70
8
  71
3
  72
10
  73
6
  74
4
  42
 0.10000000000000E-6
  43
 0.10000000000000E-6
  44
 0.10000000000000E-4
  40
0.0
  40
0.0
  40
0.0
  40
0.0
  40
 0.23678030544961
  40
 0.77679550912821
  40
 1.0000000000000
  40
 1.0000000000000
  40
 1.0000000000000
  40
 1.0000000000000
  10
 137.19524512241
  20
 83.324054331405
  30
0.0
  10
 137.18551782013
  20
 83.301778934892
  30
0.0
  10
 137.15360585552
  20
 83.228700948348
  30
0.0
  10
 137.13609177866
  20
 83.125503796022
  30
0.0
  10
 137.13372791744
  20
 83.047009948708
  30
0.0
  10
 137.13303660347
  20
 83.024054331405
  30
0.0
  11
 137.19524512241
  21
 83.324054331405
  31
0.0
  11
 137.16776418885
  21
 83.256569842254
  31
0.0
  11
 137.13605162594
  21
 83.092944126267
  31
0.0
  11
 137.13303660347
  21
 83.024054331405
  31
0.0
   0
LINE
   5
3A8
 100
AcDbEntity
   8
0
 100
AcDbLine
   6
CONTINUOUS
  62
7
  10
 137.13303660347
  20
 83.024054331357
  30
0.0
  11
 124.22817251317
  21
 83.024054331357
  31
0.0
   0
LINE
   5
3A9
 100
AcDbEntity
   8
0
 100
AcDbLine
   6
CONTINUOUS
  62
7
  10
 122.06029785887
  20
 81.824054331357
  30
0.0
  11
 136.83473069677
  21
 81.824054331357
  31
0.0
   0
POLYLINE
   5
3AA
 100
AcDbEntity
   8
0
   6
CONTINUOUS
  62
7
 100
AcDb2dPolyline
  66
1
  10
0.0
  20
0.0
  30
0.0
  70
0
   0
VERTEX
   5
3AB
 100
AcDbEntity
   8
0
   6
CONTINUOUS
  62
7
 100
AcDbVertex
 100
AcDb2dVertex
  10
 143.55300239122
  20
 83.024054331405
  30
0.0
   0
VERTEX
   5
3AC
 100
AcDbEntity
   8
0
   6
CONTINUOUS
  62
7
 100
AcDbVertex
 100
AcDb2dVertex
  10
 143.55300239122
  20
 82.911014098092
  30
0.0
   0
VERTEX
   5
3AD
 100
AcDbEntity
   8
0
   6
CONTINUOUS
  62
7
 100
AcDbVertex
 100
AcDb2dVertex
  10
 143.53577483850
  20
 82.802912545457
  30
0.0
   0
VERTEX
   5
3AE
 100
AcDbEntity
   8
0
   6
CONTINUOUS
  62
7
 100
AcDbVertex
 100
AcDb2dVertex
  10
 143.48469395724
  20
 82.614854487165
  30
0.0
   0
VERTEX
   5
3AF
 100
AcDbEntity
   8
0
   6
CONTINUOUS
  62
7
 100
AcDbVertex
 100
AcDb2dVertex
  10
 143.45118859893
  20
 82.532564585789
  30
0.0
   0
VERTEX
   5
3B0
 100
AcDbEntity
   8
0
   6
CONTINUOUS
  62
7
 100
AcDbVertex
 100
AcDb2dVertex
  10
 143.37919785858
  20
 82.387211481684
  30
0.0
   0
VERTEX
   5
3B1
 100
AcDbEntity
   8
0
   6
CONTINUOUS
  62
7
 100
AcDbVertex
 100
AcDb2dVertex
  10
 143.33969881884
  20
 82.322463714159
  30
0.0
   0
VERTEX
   5
3B2
 100
AcDbEntity
   8
0
   6
CONTINUOUS
  62
7
 100
AcDbVertex
 100
AcDb2dVertex
  10
 143.25826777327
  20
 82.206886839348
  30
0.0
   0
VERTEX
   5
3B3
 100
AcDbEntity
   8
0
   6
CONTINUOUS
  62
7
 100
AcDbVertex
 100
AcDb2dVertex
  10
 143.21619495997
  20
 82.155842606863
  30
0.0
   0
VERTEX
   5
3B4
 100
AcDbEntity
   8
0
   6
CONTINUOUS
  62
7
 100
AcDbVertex
 100
AcDb2dVertex
  10
 143.08675603467
  20
 82.018712093993
  30
0.0
   0
VERTEX
   5
3B5
 100
AcDbEntity
   8
0
   6
CONTINUOUS
  62
7
 100
AcDbVertex
 100
AcDb2dVertex
  10
 142.99530755653
  20
 81.947891189698
  30
0.0
   0
VERTEX
   5
3B6
 100
AcDbEntity
   8
0
   6
CONTINUOUS
  62
7
 100
AcDbVertex
 100
AcDb2dVertex
  10
 142.80974558489
  20
 81.850816688507
  30
0.0
   0
VERTEX
   5
3B7
 100
AcDbEntity
   8
0
   6
CONTINUOUS
  62
7
 100
AcDbVertex
 100
AcDb2dVertex
  10
 142.71553406969
  20
 81.824054331405
  30
0.0
   0
VERTEX
   5
3B8
 100
AcDbEntity
   8
0
   6
CONTINUOUS
  62
7
 100
AcDbVertex
 100
AcDb2dVertex
  10
 142.61956436734
  20
 81.824054331405
  30
0.0
   0
SEQEND
   5
3B9
 100
AcDbEntity
   8
0
   6
CONTINUOUS
  62
7
   0
LINE
   5
3BA
 100
AcDbEntity
   8
0
 100
AcDbLine
   6
CONTINUOUS
  62
7
  10
 142.61956436737
  20
 81.824054331357
  30
0.0
  11
 133.32620022877
  21
 81.824054331357
  31
0.0
   0
LINE
   5
3BB
 100
AcDbEntity
   8
0
 100
AcDbLine
   6
CONTINUOUS
  62
7
  10
 141.17519759547
  20
 83.024054331357
  30
0.0
  11
 145.02620022877
  21
 83.024054331357
  31
0.0
   0
LINE
   5
3BC
 100
AcDbEntity
   8
0
 100
AcDbLine
   6
CONTINUOUS
  62
1
  10
 141.17519759547
  20
 83.024054331357
  30
0.0
  11
 141.17519759547
  21
 83.324054331357
  31
0.0
   0
ARC
   5
3BD
 100
AcDbEntity
   8
0
   6
CONTINUOUS
  62
7
 100
AcDbCircle
  10
 120.51214939527
  20
 182.28720510596
  30
0.0
  40
 1.0000000000000
 100
AcDbArc
  50
 359.20057588670
  51
 90.028066652766
   0
LINE
   5
3BE
 100
AcDbEntity
   8
0
 100
AcDbLine
   6
CONTINUOUS
  62
7
  10
 113.52620022877
  20
 174.78720510596
  30
0.0
  11
 113.52620022877
  21
 164.28720510596
  31
0.0
   0
LINE
   5
3BF
 100
AcDbEntity
   8
0
 100
AcDbLine
   6
CONTINUOUS
  62
7
  10
 119.26088925937
  20
 164.28720510596
  30
0.0
  11
 119.40740088727
  21
 174.78720510596
  31
0.0
   0
LINE
   5
3C0
 100
AcDbEntity
   8
0
 100
AcDbLine
   6
CONTINUOUS
  62
7
  10
 121.51205205947
  20
 182.27325297286
  30
0.0
  11
 121.40740089677
  21
 174.77325297576
  31
0.0
   0
LINE
   5
3C1
 100
AcDbEntity
   8
0
 100
AcDbLine
   6
CONTINUOUS
  62
7
  10
 121.40740089677
  20
 174.77325297576
  30
0.0
  11
 121.28201418227
  21
 165.78720510596
  31
0.0
   0
LINE
   5
3C2
 100
AcDbEntity
   8
0
 100
AcDbLine
   6
CONTINUOUS
  62
7
  10
 119.52518188507
  20
 183.22817661406
  30
0.0
  11
 119.44228460817
  21
 177.28720510596
  31
0.0
   0
LINE
   5
3C3
 100
AcDbEntity
   8
0
 100
AcDbLine
   6
CONTINUOUS
  62
7
  10
 113.52620022877
  20
 177.28720510596
  30
0.0
  11
 113.52620022877
  21
 183.22817661406
  31
0.0
   0
LINE
   5
3C4
 100
AcDbEntity
   8
0
 100
AcDbLine
   6
CONTINUOUS
  62
7
  10
 119.44228460817
  20
 177.28720510596
  30
0.0
  11
 113.52620022877
  21
 177.28720510596
  31
0.0
   0
LINE
   5
3C5
 100
AcDbEntity
   8
0
 100
AcDbLine
   6
CONTINUOUS
  62
7
  10
 113.52620022877
  20
 175.28720510596
  30
0.0
  11
 119.41437763147
  21
 175.28720510596
  31
0.0
   0
LINE
   5
3C6
 100
AcDbEntity
   8
0
 100
AcDbLine
   6
CONTINUOUS
  62
7
  10
 113.52620022877
  20
 174.78720510596
  30
0.0
  11
 113.52620022877
  21
 175.28720510596
  31
0.0
   0
LINE
   5
3C7
 100
AcDbEntity
   8
0
 100
AcDbLine
   6
CONTINUOUS
  62
7
  10
 119.41437763147
  20
 175.28720510596
  30
0.0
  11
 119.40740088727
  21
 174.78720510596
  31
0.0
   0
LINE
   5
3C8
 100
AcDbEntity
   8
0
 100
AcDbLine
   6
CONTINUOUS
  62
7
  10
 115.00462735357
  20
 172.31102603556
  30
0.0
  11
 115.00462735357
  21
 175.28720510596
  31
0.0
   0
SPLINE
   5
3C9
 100
AcDbEntity
   8
0
   6
CONTINUOUS
  62
7
 100
AcDbSpline
  70
8
  71
3
  72
10
  73
6
  74
4
  42
 0.10000000000000E-6
  43
 0.10000000000000E-6
  44
 0.10000000000000E-4
  40
0.0
  40
0.0
  40
0.0
  40
0.0
  40
 0.33333333333333
  40
 0.66666666666667
  40
 1.0000000000000
  40
 1.0000000000000
  40
 1.0000000000000
  40
 1.0000000000000
  10
 113.52620022881
  20
 170.79914085836
  30
0.0
  10
 113.69098764926
  20
 170.96664156071
  30
0.0
  10
 114.02035656008
  20
 171.30185921984
  30
0.0
  10
 114.51337444647
  20
 171.80565878765
  30
0.0
  10
 114.84108425776
  20
 172.14239009617
  30
0.0
  10
 115.00462735356
  20
 172.31102603558
  30
0.0
  11
 113.52620022881
  21
 170.79914085836
  31
0.0
  11
 114.02018398011
  21
 171.30202139969
  31
0.0
  11
 114.51313225156
  21
 171.80587502014
  31
0.0
  11
 115.00462735356
  21
 172.31102603558
  31
0.0
   0
SPLINE
   5
3CA
 100
AcDbEntity
   8
0
   6
CONTINUOUS
  62
7
 100
AcDbSpline
  70
8
  71
3
  72
10
  73
6
  74
4
  42
 0.10000000000000E-6
  43
 0.10000000000000E-6
  44
 0.10000000000000E-4
  40
0.0
  40
0.0
  40
0.0
  40
0.0
  40
 0.33333333333333
  40
 0.66666666666667
  40
 1.0000000000000
  40
 1.0000000000000
  40
 1.0000000000000
  40
 1.0000000000000
  10
 113.52620022881
  20
 181.77526935362
  30
0.0
  10
 113.69097672668
  20
 181.60777975369
  30
0.0
  10
 114.02032187670
  20
 181.27258648844
  30
0.0
  10
 114.51332596703
  20
 180.76880130660
  30
0.0
  10
 114.84105953913
  20
 180.43204560420
  30
0.0
  10
 115.00462735356
  20
 180.26338417641
  30
0.0
  11
 113.52620022881
  21
 181.77526935362
  31
0.0
  11
 114.02015293758
  21
 181.27242060778
  31
0.0
  11
 114.51309201167
  21
 180.76857657797
  31
0.0
  11
 115.00462735356
  21
 180.26338417641
  31
0.0
   0
LINE
   5
3CB
 100
AcDbEntity
   8
0
 100
AcDbLine
   6
CONTINUOUS
  62
7
  10
 115.00462735357
  20
 177.28720510596
  30
0.0
  11
 115.00462735357
  21
 180.26338417636
  31
0.0
   0
LINE
   5
3CC
 100
AcDbEntity
   8
0
 100
AcDbLine
   6
CONTINUOUS
  62
7
  10
 115.00462735357
  20
 180.26338417636
  30
0.0
  11
 119.48381268827
  21
 180.26338417636
  31
0.0
   0
LINE
   5
3CD
 100
AcDbEntity
   8
0
 100
AcDbLine
   6
CONTINUOUS
  62
7
  10
 115.00462735357
  20
 172.31102603556
  30
0.0
  11
 119.37284955137
  21
 172.31102603556
  31
0.0
   0
LINE
   5
3CE
 100
AcDbEntity
   8
0
 100
AcDbLine
   6
CONTINUOUS
  62
1
  10
 113.52620022877
  20
 174.78720510596
  30
0.0
  11
 111.52620022877
  21
 174.78720510596
  31
0.0
   0
LINE
   5
3CF
 100
AcDbEntity
   8
0
 100
AcDbLine
   6
CONTINUOUS
  62
1
  10
 120.40749823247
  20
 174.78720510596
  30
0.0
  11
 119.40740088727
  21
 174.78720510596
  31
0.0
   0
LINE
   5
3D0
 100
AcDbEntity
   8
0
 100
AcDbLine
   6
CONTINUOUS
  62
1
  10
 120.22610288367
  20
 161.78720510596
  30
0.0
  11
 120.40749823247
  21
 174.78720510596
  31
0.0
   0
LINE
   5
3D1
 100
AcDbEntity
   8
0
 100
AcDbLine
   6
CONTINUOUS
  62
1
  10
 120.40749823247
  20
 174.78720510596
  30
0.0
  11
 120.51214939507
  21
 183.28720509436
  31
0.0
   0
LINE
   5
3D2
 100
AcDbEntity
   8
0
 100
AcDbLine
   6
CONTINUOUS
  62
1
  10
 120.40749823247
  20
 174.78720510596
  30
0.0
  11
 121.40740089677
  21
 174.77325297576
  31
0.0
   0
LINE
   5
3D3
 100
AcDbEntity
   8
0
 100
AcDbLine
   6
CONTINUOUS
  62
7
  10
 120.51214939527
  20
 183.28720510596
  30
0.0
  11
 111.52620022877
  21
 183.28720510596
  31
0.0
   0
LINE
   5
3D4
 100
AcDbEntity
   8
0
 100
AcDbLine
   6
CONTINUOUS
  62
7
  10
 113.52620022877
  20
 183.22817661406
  30
0.0
  11
 119.52518188507
  21
 183.22817661406
  31
0.0
   0
LINE
   5
3D5
 100
AcDbEntity
   8
0
 100
AcDbLine
   6
CONTINUOUS
  62
7
  10
 113.52620022877
  20
 164.28720510596
  30
0.0
  11
 119.26088925937
  21
 164.28720510596
  31
0.0
   0
SPLINE
   5
3D6
 100
AcDbEntity
   8
0
   6
CONTINUOUS
  62
7
 100
AcDbSpline
  70
8
  71
3
  72
10
  73
6
  74
4
  42
 0.10000000000000E-6
  43
 0.10000000000000E-6
  44
 0.10000000000000E-4
  40
0.0
  40
0.0
  40
0.0
  40
0.0
  40
 0.33333333333333
  40
 0.66666666666667
  40
 1.0000000000000
  40
 1.0000000000000
  40
 1.0000000000000
  40
 1.0000000000000
  10
 115.55462735356
  20
 168.72595492998
  30
0.0
  10
 115.33014377053
  20
 168.95606483554
  30
0.0
  10
 114.88039069336
  20
 169.41553060410
  30
0.0
  10
 114.20396666040
  20
 170.10300434864
  30
0.0
  10
 113.75219657101
  20
 170.56052838575
  30
0.0
  10
 113.52620022881
  20
 170.78918199272
  30
0.0
  11
 115.55462735356
  21
 168.72595492998
  31
0.0
  11
 114.88009162383
  21
 169.41524311938
  31
0.0
  11
 114.20376147688
  21
 170.10280640049
  31
0.0
  11
 113.52620022881
  21
 170.78918199272
  31
0.0
   0
LINE
   5
3D7
 100
AcDbEntity
   8
0
 100
AcDbLine
   6
CONTINUOUS
  62
7
  10
 115.55462735357
  20
 164.28720510596
  30
0.0
  11
 115.55462735357
  21
 168.72595492996
  31
0.0
   0
LINE
   5
3D8
 100
AcDbEntity
   8
0
 100
AcDbLine
   6
CONTINUOUS
  62
7
  10
 119.32282530347
  20
 168.72595492996
  30
0.0
  11
 115.55462735357
  21
 168.72595492996
  31
0.0
   0
LINE
   5
3D9
 100
AcDbEntity
   8
0
 100
AcDbLine
   6
CONTINUOUS
  62
7
  10
 121.34649141477
  20
 166.78095053086
  30
0.0
  11
 121.29443100607
  21
 166.67707747796
  31
0.0
   0
POLYLINE
   5
3DA
 100
AcDbEntity
   8
0
   6
CONTINUOUS
  62
7
 100
AcDb2dPolyline
  66
1
  10
0.0
  20
0.0
  30
0.0
  70
0
   0
VERTEX
   5
3DB
 100
AcDbEntity
   8
0
   6
CONTINUOUS
  62
7
 100
AcDbVertex
 100
AcDb2dVertex
  10
 121.28201418230
  20
 165.78720510599
  30
0.0
   0
VERTEX
   5
3DC
 100
AcDbEntity
   8
0
   6
CONTINUOUS
  62
7
 100
AcDbVertex
 100
AcDb2dVertex
  10
 121.27753378401
  20
 165.46610989501
  30
0.0
   0
VERTEX
   5
3DD
 100
AcDbEntity
   8
0
   6
CONTINUOUS
  62
7
 100
AcDbVertex
 100
AcDb2dVertex
  10
 121.23136792319
  20
 165.14160093296
  30
0.0
   0
VERTEX
   5
3DE
 100
AcDbEntity
   8
0
   6
CONTINUOUS
  62
7
 100
AcDbVertex
 100
AcDb2dVertex
  10
 121.09772963496
  20
 164.48163039533
  30
0.0
   0
VERTEX
   5
3DF
 100
AcDbEntity
   8
0
   6
CONTINUOUS
  62
7
 100
AcDbVertex
 100
AcDb2dVertex
  10
 121.00843548363
  20
 164.14431745734
  30
0.0
   0
VERTEX
   5
3E0
 100
AcDbEntity
   8
0
   6
CONTINUOUS
  62
7
 100
AcDbVertex
 100
AcDb2dVertex
  10
 120.80930519389
  20
 163.47353198763
  30
0.0
   0
VERTEX
   5
3E1
 100
AcDbEntity
   8
0
   6
CONTINUOUS
  62
7
 100
AcDbVertex
 100
AcDb2dVertex
  10
 120.69900797619
  20
 163.13840415325
  30
0.0
   0
VERTEX
   5
3E2
 100
AcDbEntity
   8
0
   6
CONTINUOUS
  62
7
 100
AcDbVertex
 100
AcDb2dVertex
  10
 120.52593073745
  20
 162.63367400424
  30
0.0
   0
VERTEX
   5
3E3
 100
AcDbEntity
   8
0
   6
CONTINUOUS
  62
7
 100
AcDbVertex
 100
AcDb2dVertex
  10
 120.46692426578
  20
 162.46510005683
  30
0.0
   0
VERTEX
   5
3E4
 100
AcDbEntity
   8
0
   6
CONTINUOUS
  62
7
 100
AcDbVertex
 100
AcDb2dVertex
  10
 120.34738189128
  20
 162.12693866382
  30
0.0
   0
VERTEX
   5
3E5
 100
AcDbEntity
   8
0
   6
CONTINUOUS
  62
7
 100
AcDbVertex
 100
AcDb2dVertex
  10
 120.28643925902
  20
 161.95622274888
  30
0.0
   0
VERTEX
   5
3E6
 100
AcDbEntity
   8
0
   6
CONTINUOUS
  62
7
 100
AcDbVertex
 100
AcDb2dVertex
  10
 120.22610288363
  20
 161.78720510599
  30
0.0
   0
SEQEND
   5
3E7
 100
AcDbEntity
   8
0
   6
CONTINUOUS
  62
7
   0
LINE
   5
3E8
 100
AcDbEntity
   8
0
 100
AcDbLine
   6
CONTINUOUS
  62
7
  10
 121.52620022882
  20
 226.62134126816
  30
0.0
  11
 121.57118485698
  21
 226.53156475658
  31
0.0
   0
LINE
   5
3E9
 100
AcDbEntity
   8
0
 100
AcDbLine
   6
CONTINUOUS
  62
7
  10
 155.52620022882
  20
 220.52307804927
  30
0.0
  11
 160.52620022882
  21
 220.52307804927
  31
0.0
   0
LINE
   5
3EA
 100
AcDbEntity
   8
0
 100
AcDbLine
   6
CONTINUOUS
  62
7
  10
 160.52620022882
  20
 237.52307804927
  30
0.0
  11
 155.52620022882
  21
 237.52307804927
  31
0.0
   0
ARC
   5
3EB
 100
AcDbEntity
   8
0
   6
CONTINUOUS
  62
7
 100
AcDbCircle
  10
 160.52620022877
  20
 236.52307804926
  30
0.0
  40
 1.0000000000000
 100
AcDbArc
  50
0.0
  51
 89.999999999860
   0
ARC
   5
3EC
 100
AcDbEntity
   8
0
   6
CONTINUOUS
  62
7
 100
AcDbCircle
  10
 160.52620022877
  20
 221.52307804926
  30
0.0
  40
 1.0000000000000
 100
AcDbArc
  50
 270.00000000000
  51
0.0
   0
ARC
   5
3ED
 100
AcDbEntity
   8
0
   6
CONTINUOUS
  62
7
 100
AcDbCircle
  10
 120.52620022877
  20
 236.52307804926
  30
0.0
  40
 1.0000000000000
 100
AcDbArc
  50
0.0
  51
 90.000000000068
   0
LINE
   5
3EE
 100
AcDbEntity
   8
0
 100
AcDbLine
   6
CONTINUOUS
  62
7
  10
 121.52620022877
  20
 236.52307804926
  30
0.0
  11
 121.52620022877
  21
 221.52307804926
  31
0.0
   0
ARC
   5
3EF
 100
AcDbEntity
   8
0
   6
CONTINUOUS
  62
7
 100
AcDbCircle
  10
 120.52620022877
  20
 221.52307804926
  30
0.0
  40
 1.0000000000000
 100
AcDbArc
  50
 270.00000000000
  51
0.0
   0
LINE
   5
3F0
 100
AcDbEntity
   8
0
 100
AcDbLine
   6
CONTINUOUS
  62
7
  10
 119.52620022877
  20
 228.02307804926
  30
0.0
  11
 119.52620022877
  21
 220.89903964466
  31
0.0
   0
LINE
   5
3F1
 100
AcDbEntity
   8
0
 100
AcDbLine
   6
CONTINUOUS
  62
7
  10
 113.52620022877
  20
 228.02307804926
  30
0.0
  11
 119.52620022877
  21
 228.02307804926
  31
0.0
   0
LINE
   5
3F2
 100
AcDbEntity
   8
0
 100
AcDbLine
   6
CONTINUOUS
  62
7
  10
 113.52620022877
  20
 220.89903964466
  30
0.0
  11
 113.52620022877
  21
 228.02307804926
  31
0.0
   0
LINE
   5
3F3
 100
AcDbEntity
   8
0
 100
AcDbLine
   6
CONTINUOUS
  62
7
  10
 119.52620022877
  20
 220.89903964466
  30
0.0
  11
 113.52620022877
  21
 220.89903964466
  31
0.0
   0
LINE
   5
3F4
 100
AcDbEntity
   8
0
 100
AcDbLine
   6
CONTINUOUS
  62
7
  10
 113.52620022877
  20
 237.14711645386
  30
0.0
  11
 113.52620022877
  21
 230.02307804926
  31
0.0
   0
LINE
   5
3F5
 100
AcDbEntity
   8
0
 100
AcDbLine
   6
CONTINUOUS
  62
7
  10
 119.52620022877
  20
 230.02307804926
  30
0.0
  11
 113.52620022877
  21
 230.02307804926
  31
0.0
   0
LINE
   5
3F6
 100
AcDbEntity
   8
0
 100
AcDbLine
   6
CONTINUOUS
  62
7
  10
 119.52620022877
  20
 230.02307804926
  30
0.0
  11
 119.52620022877
  21
 237.14711645386
  31
0.0
   0
LINE
   5
3F7
 100
AcDbEntity
   8
0
 100
AcDbLine
   6
CONTINUOUS
  62
7
  10
 119.52620022877
  20
 237.14711645386
  30
0.0
  11
 113.52620022877
  21
 237.14711645386
  31
0.0
   0
LINE
   5
3F8
 100
AcDbEntity
   8
0
 100
AcDbLine
   6
CONTINUOUS
  62
7
  10
 119.52620022877
  20
 220.53779667506
  30
0.0
  11
 119.52620022877
  21
 220.52307804926
  31
0.0
   0
LINE
   5
3F9
 100
AcDbEntity
   8
0
 100
AcDbLine
   6
CONTINUOUS
  62
7
  10
 113.52620022877
  20
 220.53779667506
  30
0.0
  11
 119.52620022877
  21
 220.53779667506
  31
0.0
   0
LINE
   5
3FA
 100
AcDbEntity
   8
0
 100
AcDbLine
   6
CONTINUOUS
  62
7
  10
 113.52620022877
  20
 220.52307804926
  30
0.0
  11
 113.52620022877
  21
 220.53779667506
  31
0.0
   0
LINE
   5
3FB
 100
AcDbEntity
   8
0
 100
AcDbLine
   6
CONTINUOUS
  62
7
  10
 113.52620022877
  20
 220.52307804926
  30
0.0
  11
 111.52620022877
  21
 220.52307804926
  31
0.0
   0
LINE
   5
3FC
 100
AcDbEntity
   8
0
 100
AcDbLine
   6
CONTINUOUS
  62
7
  10
 113.52620022877
  20
 237.52307804926
  30
0.0
  11
 111.52620022877
  21
 237.52307804926
  31
0.0
   0
LINE
   5
3FD
 100
AcDbEntity
   8
0
 100
AcDbLine
   6
CONTINUOUS
  62
7
  10
 113.52620022877
  20
 237.52307804926
  30
0.0
  11
 113.52620022877
  21
 237.50835942346
  31
0.0
   0
LINE
   5
3FE
 100
AcDbEntity
   8
0
 100
AcDbLine
   6
CONTINUOUS
  62
7
  10
 113.52620022877
  20
 237.50835942346
  30
0.0
  11
 119.52620022877
  21
 237.50835942346
  31
0.0
   0
LINE
   5
3FF
 100
AcDbEntity
   8
0
 100
AcDbLine
   6
CONTINUOUS
  62
7
  10
 119.52620022877
  20
 237.50835942346
  30
0.0
  11
 119.52620022877
  21
 237.52307804926
  31
0.0
   0
LINE
   5
400
 100
AcDbEntity
   8
0
 100
AcDbLine
   6
CONTINUOUS
  62
7
  10
 120.52620022877
  20
 237.52307804926
  30
0.0
  11
 119.52620022877
  21
 237.52307804926
  31
0.0
   0
LINE
   5
401
 100
AcDbEntity
   8
0
 100
AcDbLine
   6
CONTINUOUS
  62
7
  10
 120.52620022877
  20
 220.52307804926
  30
0.0
  11
 119.52620022877
  21
 220.52307804926
  31
0.0
   0
LINE
   5
402
 100
AcDbEntity
   8
0
 100
AcDbLine
   6
CONTINUOUS
  62
7
  10
 111.52620022877
  20
 220.52307804926
  30
0.0
  11
 111.52620022877
  21
 237.52307804926
  31
0.0
   0
SPLINE
   5
403
 100
AcDbEntity
   8
0
   6
CONTINUOUS
  62
7
 100
AcDbSpline
  70
8
  71
3
  72
10
  73
6
  74
4
  42
 0.10000000000000E-6
  43
 0.10000000000000E-6
  44
 0.10000000000000E-4
  40
0.0
  40
0.0
  40
0.0
  40
0.0
  40
 0.33333333333333
  40
 0.66666666666667
  40
 1.0000000000000
  40
 1.0000000000000
  40
 1.0000000000000
  40
 1.0000000000000
  10
 115.00462735357
  20
 232.99925711968
  30
0.0
  10
 114.84106298771
  20
 233.16791499151
  30
0.0
  10
 114.51333240046
  20
 233.50466762618
  30
0.0
  10
 114.02032589024
  20
 234.00845531836
  30
0.0
  10
 113.69097775538
  20
 234.34365165134
  30
0.0
  10
 113.52620022882
  20
 234.51114229689
  30
0.0
  11
 115.00462735357
  21
 232.99925711968
  31
0.0
  11
 114.51309729557
  21
 233.50444408287
  31
0.0
  11
 114.02015660823
  21
 234.00828978624
  31
0.0
  11
 113.52620022882
  21
 234.51114229689
  31
0.0
   0
LINE
   5
404
 100
AcDbEntity
   8
0
 100
AcDbLine
   6
CONTINUOUS
  62
7
  10
 115.00462735357
  20
 230.02307804926
  30
0.0
  11
 115.00462735357
  21
 232.99925711966
  31
0.0
   0
LINE
   5
405
 100
AcDbEntity
   8
0
 100
AcDbLine
   6
CONTINUOUS
  62
7
  10
 115.00462735357
  20
 225.04689897886
  30
0.0
  11
 115.00462735357
  21
 228.02307804926
  31
0.0
   0
SPLINE
   5
406
 100
AcDbEntity
   8
0
   6
CONTINUOUS
  62
7
 100
AcDbSpline
  70
8
  71
3
  72
10
  73
6
  74
4
  42
 0.10000000000000E-6
  43
 0.10000000000000E-6
  44
 0.10000000000000E-4
  40
0.0
  40
0.0
  40
0.0
  40
0.0
  40
 0.33333333333333
  40
 0.66666666666667
  40
 1.0000000000000
  40
 1.0000000000000
  40
 1.0000000000000
  40
 1.0000000000000
  10
 115.00462735357
  20
 225.04689897885
  30
0.0
  10
 114.84105432683
  20
 224.87823217644
  30
0.0
  10
 114.51331689789
  20
 224.54147250270
  30
0.0
  10
 114.02031744691
  20
 224.03769211309
  30
0.0
  10
 113.69097615374
  20
 223.70250281918
  30
0.0
  10
 113.52620022882
  20
 223.53501380164
  30
0.0
  11
 115.00462735357
  21
 225.04689897885
  31
0.0
  11
 114.51308467996
  21
 224.54169902286
  31
0.0
  11
 114.02014869878
  21
 224.03785818788
  31
0.0
  11
 113.52620022882
  21
 223.53501380164
  31
0.0
   0
LINE
   5
407
 100
AcDbEntity
   8
0
 100
AcDbLine
   6
CONTINUOUS
  62
7
  10
 119.52620022877
  20
 232.99925711966
  30
0.0
  11
 115.00462735357
  21
 232.99925711966
  31
0.0
   0
LINE
   5
408
 100
AcDbEntity
   8
0
 100
AcDbLine
   6
CONTINUOUS
  62
7
  10
 119.52620022877
  20
 225.04689897886
  30
0.0
  11
 115.00462735357
  21
 225.04689897886
  31
0.0
   0
LINE
   5
409
 100
AcDbEntity
   8
0
 100
AcDbLine
   6
CONTINUOUS
  62
7
  10
 155.52620022877
  20
 220.52307804926
  30
0.0
  11
 147.52620022877
  21
 220.52307804926
  31
0.0
   0
LINE
   5
40A
 100
AcDbEntity
   8
0
 100
AcDbLine
   6
CONTINUOUS
  62
7
  10
 155.52620022877
  20
 237.52307804926
  30
0.0
  11
 147.52620022877
  21
 237.52307804926
  31
0.0
   0
LINE
   5
40B
 100
AcDbEntity
   8
0
 100
AcDbLine
   6
CONTINUOUS
  62
7
  10
 135.12620022877
  20
 220.65647778396
  30
0.0
  11
 143.82620022877
  21
 220.65647778396
  31
0.0
   0
LINE
   5
40C
 100
AcDbEntity
   8
0
 100
AcDbLine
   6
CONTINUOUS
  62
7
  10
 143.82620022877
  20
 228.27307804926
  30
0.0
  11
 143.82620022877
  21
 220.65647778396
  31
0.0
   0
LINE
   5
40D
 100
AcDbEntity
   8
0
 100
AcDbLine
   6
CONTINUOUS
  62
7
  10
 143.82620022877
  20
 228.27307804926
  30
0.0
  11
 135.12620022877
  21
 228.27307804926
  31
0.0
   0
LINE
   5
40E
 100
AcDbEntity
   8
0
 100
AcDbLine
   6
CONTINUOUS
  62
7
  10
 135.12620022877
  20
 228.27307804926
  30
0.0
  11
 135.12620022877
  21
 220.65647778396
  31
0.0
   0
LINE
   5
40F
 100
AcDbEntity
   8
0
 100
AcDbLine
   6
CONTINUOUS
  62
7
  10
 145.32620022877
  20
 228.27307804926
  30
0.0
  11
 154.02620022877
  21
 228.27307804926
  31
0.0
   0
LINE
   5
410
 100
AcDbEntity
   8
0
 100
AcDbLine
   6
CONTINUOUS
  62
7
  10
 145.32620022877
  20
 220.65647778396
  30
0.0
  11
 145.32620022877
  21
 228.27307804926
  31
0.0
   0
LINE
   5
411
 100
AcDbEntity
   8
0
 100
AcDbLine
   6
CONTINUOUS
  62
7
  10
 154.02620022877
  20
 220.65647778396
  30
0.0
  11
 145.32620022877
  21
 220.65647778396
  31
0.0
   0
LINE
   5
412
 100
AcDbEntity
   8
0
 100
AcDbLine
   6
CONTINUOUS
  62
7
  10
 154.02620022877
  20
 220.65647778396
  30
0.0
  11
 154.02620022877
  21
 228.27307804926
  31
0.0
   0
LINE
   5
413
 100
AcDbEntity
   8
0
 100
AcDbLine
   6
CONTINUOUS
  62
7
  10
 145.32620022877
  20
 237.38967831456
  30
0.0
  11
 154.02620022877
  21
 237.38967831456
  31
0.0
   0
LINE
   5
414
 100
AcDbEntity
   8
0
 100
AcDbLine
   6
CONTINUOUS
  62
7
  10
 145.32620022877
  20
 229.77307804926
  30
0.0
  11
 145.32620022877
  21
 237.38967831456
  31
0.0
   0
LINE
   5
415
 100
AcDbEntity
   8
0
 100
AcDbLine
   6
CONTINUOUS
  62
7
  10
 154.02620022877
  20
 229.77307804926
  30
0.0
  11
 145.32620022877
  21
 229.77307804926
  31
0.0
   0
LINE
   5
416
 100
AcDbEntity
   8
0
 100
AcDbLine
   6
CONTINUOUS
  62
7
  10
 154.02620022877
  20
 229.77307804926
  30
0.0
  11
 154.02620022877
  21
 237.38967831456
  31
0.0
   0
LINE
   5
417
 100
AcDbEntity
   8
0
 100
AcDbLine
   6
CONTINUOUS
  62
7
  10
 135.12620022877
  20
 229.77307804926
  30
0.0
  11
 143.82620022877
  21
 229.77307804926
  31
0.0
   0
LINE
   5
418
 100
AcDbEntity
   8
0
 100
AcDbLine
   6
CONTINUOUS
  62
7
  10
 143.82620022877
  20
 237.38967831456
  30
0.0
  11
 143.82620022877
  21
 229.77307804926
  31
0.0
   0
LINE
   5
419
 100
AcDbEntity
   8
0
 100
AcDbLine
   6
CONTINUOUS
  62
7
  10
 143.82620022877
  20
 237.38967831456
  30
0.0
  11
 135.12620022877
  21
 237.38967831456
  31
0.0
   0
LINE
   5
41A
 100
AcDbEntity
   8
0
 100
AcDbLine
   6
CONTINUOUS
  62
7
  10
 135.12620022877
  20
 237.38967831456
  30
0.0
  11
 135.12620022877
  21
 229.77307804926
  31
0.0
   0
LINE
   5
41B
 100
AcDbEntity
   8
0
 100
AcDbLine
   6
CONTINUOUS
  62
7
  10
 147.52620022877
  20
 220.52307804926
  30
0.0
  11
 120.52620022877
  21
 220.52307804926
  31
0.0
   0
LINE
   5
41C
 100
AcDbEntity
   8
0
 100
AcDbLine
   6
CONTINUOUS
  62
7
  10
 147.52620022877
  20
 237.52307804926
  30
0.0
  11
 120.52620022877
  21
 237.52307804926
  31
0.0
   0
LINE
   5
41D
 100
AcDbEntity
   8
0
 100
AcDbLine
   6
CONTINUOUS
  62
7
  10
 161.52620022877
  20
 236.52307804926
  30
0.0
  11
 161.52620022877
  21
 221.52307804976
  31
0.0
   0
LINE
   5
41E
 100
AcDbEntity
   8
0
 100
AcDbLine
   6
CONTINUOUS
  62
7
  10
 135.12620022877
  20
 234.02307804926
  30
0.0
  11
 143.82620022877
  21
 234.02307804926
  31
0.0
   0
LINE
   5
41F
 100
AcDbEntity
   8
0
 100
AcDbLine
   6
CONTINUOUS
  62
7
  10
 154.02620022877
  20
 234.02307804926
  30
0.0
  11
 145.32620022877
  21
 234.02307804926
  31
0.0
   0
LINE
   5
420
 100
AcDbEntity
   8
0
 100
AcDbLine
   6
CONTINUOUS
  62
7
  10
 135.12620022877
  20
 224.02307804926
  30
0.0
  11
 143.82620022877
  21
 224.02307804926
  31
0.0
   0
LINE
   5
421
 100
AcDbEntity
   8
0
 100
AcDbLine
   6
CONTINUOUS
  62
7
  10
 154.02620022877
  20
 224.02307804926
  30
0.0
  11
 145.32620022877
  21
 224.02307804926
  31
0.0
   0
LINE
   5
422
 100
AcDbEntity
   8
0
 100
AcDbLine
   6
CONTINUOUS
  62
7
  10
 119.52620022877
  20
 237.52307804926
  30
0.0
  11
 113.52620022877
  21
 237.52307804926
  31
0.0
   0
LINE
   5
423
 100
AcDbEntity
   8
0
 100
AcDbLine
   6
CONTINUOUS
  62
7
  10
 119.52620022877
  20
 220.52307804926
  30
0.0
  11
 113.52620022877
  21
 220.52307804926
  31
0.0
   0
LINE
   5
424
 100
AcDbEntity
   8
0
 100
AcDbLine
   6
CONTINUOUS
  62
1
  10
 120.52620022877
  20
 220.52307804926
  30
0.0
  11
 120.52620022877
  21
 237.52307804926
  31
0.0
   0
LINE
   5
425
 100
AcDbEntity
   8
0
 100
AcDbLine
   6
CONTINUOUS
  62
1
  10
 160.52620022877
  20
 220.52307804926
  30
0.0
  11
 160.52620022877
  21
 237.52307804926
  31
0.0
   0
LINE
   5
426
 100
AcDbEntity
   8
0
 100
AcDbLine
   6
DASHDOT
  62
2
  10
 105.84359901653
  20
 229.02307804926
  30
0.0
  11
 168.10141938934
  21
 229.02307804926
  31
0.0
   0
DIMENSION
   5
427
 100
AcDbEntity
   8
0
   6
CONTINUOUS
  62
2
 100
AcDbDimension
   2
*D3
  10
 90.614611036910
  20
 183.28720510596
  30
0.0
  11
 90.614611036910
  21
 157.78720510596
  31
0.0
  70
0
   3
GMM002
 100
AcDbAlignedDimension
  13
 111.52620022877
  23
 132.28720510596
  33
0.0
  14
 111.52620022877
  24
 183.28720510596
  34
0.0
  50
 90.000000000000
 100
AcDbRotatedDimension
   0
LINE
   5
428
 100
AcDbEntity
   8
0
 100
AcDbLine
   6
DASHDOT
  62
2
  10
 58.769775283174
  20
 188.23565892747
  30
0.0
  11
 58.769775283174
  21
 124.36174164793
  31
0.0
   0
DIMENSION
   5
429
 100
AcDbEntity
   8
0
   6
CONTINUOUS
  62
2
 100
AcDbDimension
   2
*D4
  10
 90.614611036910
  20
 131.28720510596
  30
0.0
  11
 90.614611036910
  21
 117.39409176306
  31
0.0
  70
128
   1
\A1;上下調整1～7
   3
GMM003
 100
AcDbAlignedDimension
  13
 111.52620022877
  23
 132.28720510596
  33
0.0
  14
 140.02620022877
  24
 131.28720510596
  34
0.0
  50
 270.00000000000
 100
AcDbRotatedDimension
   0
CIRCLE
   5
42A
 100
AcDbEntity
   8
0
 100
AcDbCircle
   6
CONTINUOUS
  62
7
  10
 204.53533749037
  20
 164.28720510596
  30
0.0
  40
 1.0000000000000
   0
CIRCLE
   5
42B
 100
AcDbEntity
   8
0
 100
AcDbCircle
   6
CONTINUOUS
  62
7
  10
 204.53533749037
  20
 164.28720510596
  30
0.0
  40
 1.7000000000000
   0
LINE
   5
42C
 100
AcDbEntity
   8
0
 100
AcDbLine
   6
CONTINUOUS
  62
7
  10
 197.03533749037
  20
 155.28720510596
  30
0.0
  11
 199.03533749037
  21
 155.28720510596
  31
0.0
   0
LINE
   5
42D
 100
AcDbEntity
   8
0
 100
AcDbLine
   6
CONTINUOUS
  62
7
  10
 199.03533749037
  20
 155.28720510596
  30
0.0
  11
 199.03533749037
  21
 155.30646440746
  31
0.0
   0
LINE
   5
42E
 100
AcDbEntity
   8
0
 100
AcDbLine
   6
CONTINUOUS
  62
7
  10
 199.03533749037
  20
 157.45707808696
  30
0.0
  11
 199.03533749037
  21
 162.78720510596
  31
0.0
   0
ARC
   5
42F
 100
AcDbEntity
   8
0
   6
CONTINUOUS
  62
7
 100
AcDbCircle
  10
 204.53533749037
  20
 162.78720510596
  30
0.0
  40
 5.5000000000000
 100
AcDbArc
  50
0.0
  51
 180.00000000000
   0
LINE
   5
430
 100
AcDbEntity
   8
0
 100
AcDbLine
   6
CONTINUOUS
  62
7
  10
 210.03533749037
  20
 162.78720510596
  30
0.0
  11
 210.03533749037
  21
 157.45707808696
  31
0.0
   0
LINE
   5
431
 100
AcDbEntity
   8
0
 100
AcDbLine
   6
CONTINUOUS
  62
7
  10
 210.03533749037
  20
 155.30646440746
  30
0.0
  11
 210.03533749037
  21
 155.28720510596
  31
0.0
   0
LINE
   5
432
 100
AcDbEntity
   8
0
 100
AcDbLine
   6
CONTINUOUS
  62
7
  10
 210.03533749037
  20
 155.28720510596
  30
0.0
  11
 212.03533749037
  21
 155.28720510596
  31
0.0
   0
LINE
   5
433
 100
AcDbEntity
   8
0
 100
AcDbLine
   6
CONTINUOUS
  62
7
  10
 212.03533749037
  20
 148.78720510596
  30
0.0
  11
 197.03533749037
  21
 148.78720510596
  31
0.0
   0
CIRCLE
   5
434
 100
AcDbEntity
   8
0
 100
AcDbCircle
   6
CONTINUOUS
  62
7
  10
 204.53533749037
  20
 164.28720510596
  30
0.0
  40
 1.8500000000000
   0
LINE
   5
435
 100
AcDbEntity
   8
0
 100
AcDbLine
   6
CONTINUOUS
  62
7
  10
 212.03533749037
  20
 155.28720510596
  30
0.0
  11
 213.03533749037
  21
 155.28720510596
  31
0.0
   0
LINE
   5
436
 100
AcDbEntity
   8
0
 100
AcDbLine
   6
CONTINUOUS
  62
7
  10
 213.03533749037
  20
 155.28720510596
  30
0.0
  11
 213.03533749037
  21
 148.78720510596
  31
0.0
   0
LINE
   5
437
 100
AcDbEntity
   8
0
 100
AcDbLine
   6
CONTINUOUS
  62
7
  10
 213.03533749037
  20
 148.78720510596
  30
0.0
  11
 212.03533749037
  21
 148.78720510596
  31
0.0
   0
LINE
   5
438
 100
AcDbEntity
   8
0
 100
AcDbLine
   6
CONTINUOUS
  62
7
  10
 196.03533749037
  20
 155.28720510596
  30
0.0
  11
 196.03533749037
  21
 148.78720510596
  31
0.0
   0
LINE
   5
439
 100
AcDbEntity
   8
0
 100
AcDbLine
   6
CONTINUOUS
  62
7
  10
 196.03533749037
  20
 155.28720510596
  30
0.0
  11
 197.03533749037
  21
 155.28720510596
  31
0.0
   0
LINE
   5
43A
 100
AcDbEntity
   8
0
 100
AcDbLine
   6
CONTINUOUS
  62
7
  10
 197.03533749037
  20
 148.78720510596
  30
0.0
  11
 196.03533749037
  21
 148.78720510596
  31
0.0
   0
LINE
   5
43B
 100
AcDbEntity
   8
0
 100
AcDbLine
   6
CONTINUOUS
  62
7
  10
 213.03474923467
  20
 161.68720510596
  30
0.0
  11
 213.03533749037
  21
 161.68720510596
  31
0.0
   0
LINE
   5
43C
 100
AcDbEntity
   8
0
 100
AcDbLine
   6
CONTINUOUS
  62
7
  10
 213.03533749037
  20
 161.68720510596
  30
0.0
  11
 213.03533749037
  21
 161.18720510596
  31
0.0
   0
LINE
   5
43D
 100
AcDbEntity
   8
0
 100
AcDbLine
   6
CONTINUOUS
  62
7
  10
 213.03533749037
  20
 157.18720510596
  30
0.0
  11
 213.03533749037
  21
 161.18720510596
  31
0.0
   0
LINE
   5
43E
 100
AcDbEntity
   8
0
 100
AcDbLine
   6
CONTINUOUS
  62
7
  10
 212.03533749037
  20
 157.78720510596
  30
0.0
  11
 212.03533749037
  21
 157.18720510596
  31
0.0
   0
LINE
   5
43F
 100
AcDbEntity
   8
0
 100
AcDbLine
   6
CONTINUOUS
  62
7
  10
 213.03533749037
  20
 156.68720510596
  30
0.0
  11
 212.03533749037
  21
 156.68720510596
  31
0.0
   0
LINE
   5
440
 100
AcDbEntity
   8
0
 100
AcDbLine
   6
CONTINUOUS
  62
7
  10
 213.03533749037
  20
 157.18720510596
  30
0.0
  11
 213.03533749037
  21
 156.68720510596
  31
0.0
   0
LINE
   5
441
 100
AcDbEntity
   8
0
 100
AcDbLine
   6
CONTINUOUS
  62
7
  10
 212.03533749037
  20
 156.78720510596
  30
0.0
  11
 212.03533749037
  21
 157.18720510596
  31
0.0
   0
LINE
   5
442
 100
AcDbEntity
   8
0
 100
AcDbLine
   6
CONTINUOUS
  62
7
  10
 196.03533749037
  20
 161.68720510596
  30
0.0
  11
 196.03592574597
  21
 161.68720510596
  31
0.0
   0
LINE
   5
443
 100
AcDbEntity
   8
0
 100
AcDbLine
   6
CONTINUOUS
  62
7
  10
 196.03533749037
  20
 161.18720510596
  30
0.0
  11
 196.03533749037
  21
 161.68720510596
  31
0.0
   0
LINE
   5
444
 100
AcDbEntity
   8
0
 100
AcDbLine
   6
CONTINUOUS
  62
7
  10
 197.03533749037
  20
 156.68720510596
  30
0.0
  11
 196.03533749037
  21
 156.68720510596
  31
0.0
   0
LINE
   5
445
 100
AcDbEntity
   8
0
 100
AcDbLine
   6
CONTINUOUS
  62
7
  10
 196.03533749037
  20
 156.68720510596
  30
0.0
  11
 196.03533749037
  21
 157.18720510596
  31
0.0
   0
LINE
   5
446
 100
AcDbEntity
   8
0
 100
AcDbLine
   6
CONTINUOUS
  62
7
  10
 197.03533749037
  20
 157.18720510596
  30
0.0
  11
 197.03533749037
  21
 156.78720510596
  31
0.0
   0
LINE
   5
447
 100
AcDbEntity
   8
0
 100
AcDbLine
   6
CONTINUOUS
  62
7
  10
 196.03533749037
  20
 161.18720510596
  30
0.0
  11
 196.03533749037
  21
 157.18720510596
  31
0.0
   0
LINE
   5
448
 100
AcDbEntity
   8
0
 100
AcDbLine
   6
CONTINUOUS
  62
7
  10
 197.03533749037
  20
 157.18720510596
  30
0.0
  11
 197.03533749037
  21
 157.78720510596
  31
0.0
   0
LINE
   5
449
 100
AcDbEntity
   8
0
 100
AcDbLine
   6
CONTINUOUS
  62
7
  10
 213.03533749037
  20
 155.28720510596
  30
0.0
  11
 213.03533749037
  21
 156.68720510596
  31
0.0
   0
LINE
   5
44A
 100
AcDbEntity
   8
0
 100
AcDbLine
   6
CONTINUOUS
  62
7
  10
 196.03533749037
  20
 156.68720510596
  30
0.0
  11
 196.03533749037
  21
 155.28720510596
  31
0.0
   0
LINE
   5
44B
 100
AcDbEntity
   8
0
 100
AcDbLine
   6
CONTINUOUS
  62
7
  10
 213.03533749037
  20
 148.78720510596
  30
0.0
  11
 213.03533749037
  21
 133.97527564396
  31
0.0
   0
LINE
   5
44C
 100
AcDbEntity
   8
0
 100
AcDbLine
   6
CONTINUOUS
  62
7
  10
 212.03533749037
  20
 133.97527564396
  30
0.0
  11
 212.03533749037
  21
 148.78720510596
  31
0.0
   0
LINE
   5
44D
 100
AcDbEntity
   8
0
 100
AcDbLine
   6
CONTINUOUS
  62
7
  10
 196.03533749037
  20
 148.78720510596
  30
0.0
  11
 196.03533749037
  21
 133.97527564396
  31
0.0
   0
LINE
   5
44E
 100
AcDbEntity
   8
0
 100
AcDbLine
   6
CONTINUOUS
  62
7
  10
 197.03533749037
  20
 148.78720510596
  30
0.0
  11
 197.03533749037
  21
 133.97527564396
  31
0.0
   0
LINE
   5
44F
 100
AcDbEntity
   8
0
 100
AcDbLine
   6
CONTINUOUS
  62
7
  10
 213.03533749037
  20
 132.78720510596
  30
0.0
  11
 212.03533749037
  21
 132.78720510596
  31
0.0
   0
LINE
   5
450
 100
AcDbEntity
   8
0
 100
AcDbLine
   6
CONTINUOUS
  62
7
  10
 213.03533749037
  20
 133.97527564396
  30
0.0
  11
 213.03533749037
  21
 132.78720510596
  31
0.0
   0
LINE
   5
451
 100
AcDbEntity
   8
0
 100
AcDbLine
   6
CONTINUOUS
  62
7
  10
 212.03533749037
  20
 132.78720510596
  30
0.0
  11
 212.03533749037
  21
 133.97527564396
  31
0.0
   0
LINE
   5
452
 100
AcDbEntity
   8
0
 100
AcDbLine
   6
CONTINUOUS
  62
7
  10
 197.03533749037
  20
 132.78720510596
  30
0.0
  11
 196.03533749037
  21
 132.78720510596
  31
0.0
   0
LINE
   5
453
 100
AcDbEntity
   8
0
 100
AcDbLine
   6
CONTINUOUS
  62
7
  10
 196.03533749037
  20
 132.78720510596
  30
0.0
  11
 196.03533749037
  21
 133.97527564396
  31
0.0
   0
LINE
   5
454
 100
AcDbEntity
   8
0
 100
AcDbLine
   6
CONTINUOUS
  62
7
  10
 197.03533749037
  20
 133.97527564396
  30
0.0
  11
 197.03533749037
  21
 132.78720510596
  31
0.0
   0
CIRCLE
   5
455
 100
AcDbEntity
   8
0
 100
AcDbCircle
   6
CONTINUOUS
  62
7
  10
 204.53533749037
  20
 161.78720510596
  30
0.0
  40
 8.5000000000000
   0
CIRCLE
   5
456
 100
AcDbEntity
   8
0
 100
AcDbCircle
   6
CONTINUOUS
  62
7
  10
 204.53533749037
  20
 161.78720510596
  30
0.0
  40
 7.0000000000000
   0
LINE
   5
457
 100
AcDbEntity
   8
0
 100
AcDbLine
   6
CONTINUOUS
  62
7
  10
 212.03533749037
  20
 156.78720510596
  30
0.0
  11
 212.03533749037
  21
 155.28720510596
  31
0.0
   0
LINE
   5
458
 100
AcDbEntity
   8
0
 100
AcDbLine
   6
CONTINUOUS
  62
7
  10
 197.03533749037
  20
 155.28720510596
  30
0.0
  11
 197.03533749037
  21
 156.78720510596
  31
0.0
   0
LINE
   5
459
 100
AcDbEntity
   8
0
 100
AcDbLine
   6
CONTINUOUS
  62
7
  10
 213.03533749037
  20
 161.78720510596
  30
0.0
  11
 213.03533749037
  21
 161.68720510596
  31
0.0
   0
LINE
   5
45A
 100
AcDbEntity
   8
0
 100
AcDbLine
   6
CONTINUOUS
  62
7
  10
 196.03533749037
  20
 161.78720510596
  30
0.0
  11
 196.03533749037
  21
 161.68720510596
  31
0.0
   0
LINE
   5
45B
 100
AcDbEntity
   8
0
 100
AcDbLine
   6
CONTINUOUS
  62
7
  10
 213.03533749037
  20
 174.78720510596
  30
0.0
  11
 213.03533749037
  21
 161.78720510596
  31
0.0
   0
ARC
   5
45C
 100
AcDbEntity
   8
0
   6
CONTINUOUS
  62
7
 100
AcDbCircle
  10
 204.53533749037
  20
 174.78720510596
  30
0.0
  40
 8.5000000000000
 100
AcDbArc
  50
0.0
  51
 180.00000000000
   0
CIRCLE
   5
45D
 100
AcDbEntity
   8
0
 100
AcDbCircle
   6
CONTINUOUS
  62
7
  10
 204.53533749037
  20
 176.28720510596
  30
0.0
  40
 2.1000000000000
   0
LINE
   5
45E
 100
AcDbEntity
   8
0
 100
AcDbLine
   6
CONTINUOUS
  62
7
  10
 196.03533749037
  20
 161.78720510596
  30
0.0
  11
 196.03533749037
  21
 174.78720510596
  31
0.0
   0
LINE
   5
45F
 100
AcDbEntity
   8
0
 100
AcDbLine
   6
CONTINUOUS
  62
7
  10
 197.83533749037
  20
 135.28720510596
  30
0.0
  11
 198.73533749037
  21
 135.28720510596
  31
0.0
   0
LINE
   5
460
 100
AcDbEntity
   8
0
 100
AcDbLine
   6
CONTINUOUS
  62
7
  10
 197.83533749037
  20
 132.28720510596
  30
0.0
  11
 197.83533749037
  21
 135.28720510596
  31
0.0
   0
LINE
   5
461
 100
AcDbEntity
   8
0
 100
AcDbLine
   6
CONTINUOUS
  62
7
  10
 197.83533749037
  20
 132.28720510596
  30
0.0
  11
 197.03533749037
  21
 132.28720510596
  31
0.0
   0
LINE
   5
462
 100
AcDbEntity
   8
0
 100
AcDbLine
   6
CONTINUOUS
  62
7
  10
 197.03533749037
  20
 132.78720510596
  30
0.0
  11
 197.03533749037
  21
 132.28720510596
  31
0.0
   0
LINE
   5
463
 100
AcDbEntity
   8
0
 100
AcDbLine
   6
CONTINUOUS
  62
7
  10
 212.03533749037
  20
 132.78720510596
  30
0.0
  11
 212.03533749037
  21
 132.28720510596
  31
0.0
   0
LINE
   5
464
 100
AcDbEntity
   8
0
 100
AcDbLine
   6
CONTINUOUS
  62
7
  10
 211.23533749037
  20
 135.28720510596
  30
0.0
  11
 211.23533749037
  21
 132.28720510596
  31
0.0
   0
LINE
   5
465
 100
AcDbEntity
   8
0
 100
AcDbLine
   6
CONTINUOUS
  62
7
  10
 210.33533749037
  20
 135.28720510596
  30
0.0
  11
 211.23533749037
  21
 135.28720510596
  31
0.0
   0
LINE
   5
466
 100
AcDbEntity
   8
0
 100
AcDbLine
   6
CONTINUOUS
  62
7
  10
 212.03533749037
  20
 132.28720510596
  30
0.0
  11
 211.23533749037
  21
 132.28720510596
  31
0.0
   0
ARC
   5
467
 100
AcDbEntity
   8
0
   6
CONTINUOUS
  62
7
 100
AcDbCircle
  10
 204.53533749037
  20
 174.78720510596
  30
0.0
  40
 8.5000000000000
 100
AcDbArc
  50
0.0
  51
 3.3722866833481
   0
LINE
   5
468
 100
AcDbEntity
   8
0
 100
AcDbLine
   6
CONTINUOUS
  62
7
  10
 213.03533749037
  20
 164.28720510596
  30
0.0
  11
 213.03533749037
  21
 174.78720510596
  31
0.0
   0
ARC
   5
469
 100
AcDbEntity
   8
0
   6
CONTINUOUS
  62
7
 100
AcDbCircle
  10
 204.53533749037
  20
 174.78720510596
  30
0.0
  40
 8.5000000000000
 100
AcDbArc
  50
 176.62771331661
  51
 180.00000000001
   0
LINE
   5
46A
 100
AcDbEntity
   8
0
 100
AcDbLine
   6
CONTINUOUS
  62
7
  10
 196.03533749037
  20
 164.28720510596
  30
0.0
  11
 196.03533749037
  21
 174.78720510596
  31
0.0
   0
LINE
   5
46B
 100
AcDbEntity
   8
0
 100
AcDbLine
   6
CONTINUOUS
  62
7
  10
 213.03533749037
  20
 132.28720510596
  30
0.0
  11
 212.03533749037
  21
 132.28720510596
  31
0.0
   0
LINE
   5
46C
 100
AcDbEntity
   8
0
 100
AcDbLine
   6
CONTINUOUS
  62
7
  10
 213.03533749037
  20
 132.78720510596
  30
0.0
  11
 213.03533749037
  21
 132.28720510596
  31
0.0
   0
LINE
   5
46D
 100
AcDbEntity
   8
0
 100
AcDbLine
   6
CONTINUOUS
  62
7
  10
 196.03533749037
  20
 132.28720510596
  30
0.0
  11
 197.03533749037
  21
 132.28720510596
  31
0.0
   0
LINE
   5
46E
 100
AcDbEntity
   8
0
 100
AcDbLine
   6
CONTINUOUS
  62
7
  10
 196.03533749037
  20
 132.78720510596
  30
0.0
  11
 196.03533749037
  21
 132.28720510596
  31
0.0
   0
LINE
   5
46F
 100
AcDbEntity
   8
0
 100
AcDbLine
   6
CONTINUOUS
  62
1
  10
 197.03533749037
  20
 155.28720510596
  30
0.0
  11
 197.03533749037
  21
 148.78720510596
  31
0.0
   0
LINE
   5
470
 100
AcDbEntity
   8
0
 100
AcDbLine
   6
CONTINUOUS
  62
1
  10
 212.03533749037
  20
 155.28720510596
  30
0.0
  11
 212.03533749037
  21
 148.78720510596
  31
0.0
   0
LINE
   5
471
 100
AcDbEntity
   8
0
 100
AcDbLine
   6
CONTINUOUS
  62
1
  10
 213.03533749037
  20
 161.18720510596
  30
0.0
  11
 213.01413457487
  21
 161.18720510596
  31
0.0
   0
LINE
   5
472
 100
AcDbEntity
   8
0
 100
AcDbLine
   6
CONTINUOUS
  62
1
  10
 212.03533749037
  20
 157.18720510596
  30
0.0
  11
 213.03533749037
  21
 157.18720510596
  31
0.0
   0
LINE
   5
473
 100
AcDbEntity
   8
0
 100
AcDbLine
   6
CONTINUOUS
  62
1
  10
 196.05654040587
  20
 161.18720510596
  30
0.0
  11
 196.03533749037
  21
 161.18720510596
  31
0.0
   0
LINE
   5
474
 100
AcDbEntity
   8
0
 100
AcDbLine
   6
CONTINUOUS
  62
1
  10
 196.03533749037
  20
 157.18720510596
  30
0.0
  11
 197.03533749037
  21
 157.18720510596
  31
0.0
   0
LINE
   5
475
 100
AcDbEntity
   8
0
 100
AcDbLine
   6
CONTINUOUS
  62
1
  10
 212.03533749037
  20
 133.97527564396
  30
0.0
  11
 213.03533749037
  21
 133.97527564396
  31
0.0
   0
LINE
   5
476
 100
AcDbEntity
   8
0
 100
AcDbLine
   6
CONTINUOUS
  62
1
  10
 196.03533749037
  20
 133.97527564396
  30
0.0
  11
 197.03533749037
  21
 133.97527564396
  31
0.0
   0
CIRCLE
   5
477
 100
AcDbEntity
   8
0
 100
AcDbCircle
   6
CONTINUOUS
  62
1
  10
 204.53533749037
  20
 161.78720510596
  30
0.0
  40
 7.5000000000000
   0
LINE
   5
478
 100
AcDbEntity
   8
0
 100
AcDbLine
   6
CONTINUOUS
  62
1
  10
 197.33533749037
  20
 157.26946230666
  30
0.0
  11
 197.33533749037
  21
 155.28720510596
  31
0.0
   0
LINE
   5
479
 100
AcDbEntity
   8
0
 100
AcDbLine
   6
CONTINUOUS
  62
1
  10
 211.73533749037
  20
 155.28720510596
  30
0.0
  11
 211.73533749037
  21
 157.26946230666
  31
0.0
   0
LINE
   5
47A
 100
AcDbEntity
   8
0
 100
AcDbLine
   6
CONTINUOUS
  62
1
  10
 212.03533749037
  20
 165.78720510596
  30
0.0
  11
 212.03533749037
  21
 174.78720510596
  31
0.0
   0
LINE
   5
47B
 100
AcDbEntity
   8
0
 100
AcDbLine
   6
CONTINUOUS
  62
1
  10
 213.03533749037
  20
 174.78720510596
  30
0.0
  11
 212.03533749037
  21
 174.78720510596
  31
0.0
   0
ARC
   5
47C
 100
AcDbEntity
   8
0
   6
CONTINUOUS
  62
1
 100
AcDbCircle
  10
 204.53533749037
  20
 174.78720510596
  30
0.0
  40
 7.5000000000000
 100
AcDbArc
  50
0.0
  51
 180.00000000000
   0
LINE
   5
47D
 100
AcDbEntity
   8
0
 100
AcDbLine
   6
CONTINUOUS
  62
1
  10
 196.03533749037
  20
 174.78720510596
  30
0.0
  11
 197.03533749037
  21
 174.78720510596
  31
0.0
   0
LINE
   5
47E
 100
AcDbEntity
   8
0
 100
AcDbLine
   6
CONTINUOUS
  62
1
  10
 197.03533749037
  20
 174.78720510596
  30
0.0
  11
 197.03533749037
  21
 165.78720510596
  31
0.0
   0
LINE
   5
47F
 100
AcDbEntity
   8
0
 100
AcDbLine
   6
DASHDOT
  62
2
  10
 192.88560132476
  20
 176.28720510596
  30
0.0
  11
 216.06992782238
  21
 176.28720510596
  31
0.0
   0
LINE
   5
480
 100
AcDbEntity
   8
0
 100
AcDbLine
   6
DASHDOT
  62
2
  10
 204.53533749037
  20
 187.11052184854
  30
0.0
  11
 204.53533749037
  21
 122.63909008470
  31
0.0
   0
INSERT
   5
481
 100
AcDbEntity
   8
0
 100
AcDbBlockReference
   2
*D5
  10
0.0
  20
0.0
  30
0.0
   0
INSERT
   5
482
 100
AcDbEntity
   8
0
 100
AcDbBlockReference
   2
*D6
  10
0.0
  20
0.0
  30
0.0
   0
TEXT
   5
483
 100
AcDbEntity
   8
0
  62
2
 100
AcDbText
  10
 192.99458099328
  20
 116.01135450999
  30
0.0
  40
 3.8000000000000
   1
左右調整%%p２ｍｍ
  41
 0.84210526315789
   7
STANDARD
 100
AcDbText
   0
ARC
   5
484
 100
AcDbEntity
   8
0
   6
CONTINUOUS
  62
7
 100
AcDbCircle
  10
 204.48533749037
  20
 152.88720510596
  30
0.0
  40
 20.000000000000
 100
AcDbArc
  50
 258.60919622455
  51
 264.91290504741
   0
POINT
   5
485
 100
AcDbEntity
   8
0
 100
AcDbPoint
  62
7
  10
 202.98533749037
  20
 132.98720510596
  30
0.0
   0
ARC
   5
486
 100
AcDbEntity
   8
0
   6
CONTINUOUS
  62
7
 100
AcDbCircle
  10
 202.68533749038
  20
 132.66716554121
  30
0.0
  40
 0.30000000000000
 100
AcDbArc
  50
 0.12484737309936E-9
  51
 84.912905048779
   0
ARC
   5
487
 100
AcDbEntity
   8
0
   6
CONTINUOUS
  62
7
 100
AcDbCircle
  10
 203.18533749037
  20
 131.48720510596
  30
0.0
  40
 0.20000000000000
 100
AcDbArc
  50
 180.00000000000
  51
 270.00000000125
   0
ARC
   5
488
 100
AcDbEntity
   8
0
   6
CONTINUOUS
  62
7
 100
AcDbCircle
  10
 203.18533749037
  20
 131.48720510596
  30
0.0
  40
 0.20000000000000
 100
AcDbArc
  50
 180.00000000125
  51
 270.00000000000
   0
LINE
   5
489
 100
AcDbEntity
   8
0
 100
AcDbLine
   6
CONTINUOUS
  62
7
  10
 203.18533749037
  20
 131.28720510596
  30
0.0
  11
 204.53533749037
  21
 131.28720510596
  31
0.0
   0
LINE
   5
48A
 100
AcDbEntity
   8
0
 100
AcDbLine
   6
CONTINUOUS
  62
7
  10
 205.88533749037
  20
 131.28720510596
  30
0.0
  11
 204.53533749037
  21
 131.28720510596
  31
0.0
   0
ARC
   5
48B
 100
AcDbEntity
   8
0
   6
CONTINUOUS
  62
7
 100
AcDbCircle
  10
 205.88533749036
  20
 131.48720510596
  30
0.0
  40
 0.20000000000000
 100
AcDbArc
  50
 270.00000000474
  51
0.0
   0
ARC
   5
48C
 100
AcDbEntity
   8
0
   6
CONTINUOUS
  62
7
 100
AcDbCircle
  10
 205.88533749037
  20
 131.48720510595
  30
0.0
  40
 0.20000000000000
 100
AcDbArc
  50
 269.99999999998
  51
 0.65137759876377E-9
   0
POINT
   5
48D
 100
AcDbEntity
   8
0
 100
AcDbPoint
  62
7
  10
 206.08533749037
  20
 131.28720510596
  30
0.0
   0
POINT
   5
48E
 100
AcDbEntity
   8
0
 100
AcDbPoint
  62
7
  10
 206.08533749037
  20
 131.28720510596
  30
0.0
   0
POINT
   5
48F
 100
AcDbEntity
   8
0
 100
AcDbPoint
  62
7
  10
 202.98533749037
  20
 131.28720510596
  30
0.0
   0
POINT
   5
490
 100
AcDbEntity
   8
0
 100
AcDbPoint
  62
7
  10
 202.98533749037
  20
 131.28720510596
  30
0.0
   0
ARC
   5
491
 100
AcDbEntity
   8
0
   6
CONTINUOUS
  62
7
 100
AcDbCircle
  10
 204.58533749037
  20
 152.88720510596
  30
0.0
  40
 20.000000000000
 100
AcDbArc
  50
 275.08709495259
  51
 281.39080377546
   0
POINT
   5
492
 100
AcDbEntity
   8
0
 100
AcDbPoint
  62
7
  10
 206.08533749037
  20
 132.98720510596
  30
0.0
   0
ARC
   5
493
 100
AcDbEntity
   8
0
   6
CONTINUOUS
  62
7
 100
AcDbCircle
  10
 206.38533749038
  20
 132.66716554121
  30
0.0
  40
 0.30000000000000
 100
AcDbArc
  50
 95.087094953505
  51
 180.00000000008
   0
LINE
   5
494
 100
AcDbEntity
   8
0
 100
AcDbLine
   6
CONTINUOUS
  62
7
  10
 208.53533749037
  20
 148.78720510596
  30
0.0
  11
 208.53533749037
  21
 133.25152329961
  31
0.0
   0
LINE
   5
495
 100
AcDbEntity
   8
0
 100
AcDbLine
   6
CONTINUOUS
  62
7
  10
 206.08533749037
  20
 131.48720510596
  30
0.0
  11
 206.08533749037
  21
 148.78720510596
  31
0.0
   0
LINE
   5
496
 100
AcDbEntity
   8
0
 100
AcDbLine
   6
CONTINUOUS
  62
7
  10
 200.53533749037
  20
 148.78720510596
  30
0.0
  11
 200.53533749037
  21
 133.25152329961
  31
0.0
   0
LINE
   5
497
 100
AcDbEntity
   8
0
 100
AcDbLine
   6
CONTINUOUS
  62
7
  10
 202.98533749037
  20
 131.48720510596
  30
0.0
  11
 202.98533749037
  21
 148.78720510596
  31
0.0
   0
LINE
   5
498
 100
AcDbEntity
   8
0
 100
AcDbLine
   6
CONTINUOUS
  62
7
  10
 199.13533749035
  20
 134.78720510591
  30
0.0
  11
 200.33533749035
  21
 134.78720510591
  31
0.0
   0
LINE
   5
499
 100
AcDbEntity
   8
0
 100
AcDbLine
   6
CONTINUOUS
  62
7
  10
 200.33533749037
  20
 134.28720510596
  30
0.0
  11
 200.33533749037
  21
 135.41950937216
  31
0.0
   0
LINE
   5
49A
 100
AcDbEntity
   8
0
 100
AcDbLine
   6
CONTINUOUS
  62
7
  10
 199.13533749037
  20
 134.90763411186
  30
0.0
  11
 199.13533749037
  21
 138.39615068196
  31
0.0
   0
LINE
   5
49B
 100
AcDbEntity
   8
0
 100
AcDbLine
   6
CONTINUOUS
  62
7
  10
 199.13533749037
  20
 134.78720510596
  30
0.0
  11
 199.13533749037
  21
 134.90763411186
  31
0.0
   0
LINE
   5
49C
 100
AcDbEntity
   8
0
 100
AcDbLine
   6
CONTINUOUS
  62
1
  10
 200.33533749037
  20
 134.90763411186
  30
0.0
  11
 199.13533749037
  21
 134.90763411186
  31
0.0
   0
LINE
   5
49D
 100
AcDbEntity
   8
0
 100
AcDbLine
   6
CONTINUOUS
  62
7
  10
 197.03533749035
  20
 137.28720510591
  30
0.0
  11
 199.13533749035
  21
 137.28720510591
  31
0.0
   0
LINE
   5
49E
 100
AcDbEntity
   8
0
 100
AcDbLine
   6
CONTINUOUS
  62
7
  10
 200.33533749037
  20
 146.43943917386
  30
0.0
  11
 200.33533749037
  21
 139.42101511256
  31
0.0
   0
POLYLINE
   5
49F
 100
AcDbEntity
   8
0
   6
CONTINUOUS
  62
7
 100
AcDb2dPolyline
  66
1
  10
0.0
  20
0.0
  30
0.0
  70
0
   0
VERTEX
   5
4A0
 100
AcDbEntity
   8
0
   6
CONTINUOUS
  62
7
 100
AcDbVertex
 100
AcDb2dVertex
  10
 200.33533749035
  20
 138.89447837196
  30
0.0
   0
VERTEX
   5
4A1
 100
AcDbEntity
   8
0
   6
CONTINUOUS
  62
7
 100
AcDbVertex
 100
AcDb2dVertex
  10
 200.22229725703
  20
 138.89447837196
  30
0.0
   0
VERTEX
   5
4A2
 100
AcDbEntity
   8
0
   6
CONTINUOUS
  62
7
 100
AcDbVertex
 100
AcDb2dVertex
  10
 200.11419570440
  20
 138.88528122513
  30
0.0
   0
VERTEX
   5
4A3
 100
AcDbEntity
   8
0
   6
CONTINUOUS
  62
7
 100
AcDbVertex
 100
AcDb2dVertex
  10
 199.92613764611
  20
 138.85801105089
  30
0.0
   0
VERTEX
   5
4A4
 100
AcDbEntity
   8
0
   6
CONTINUOUS
  62
7
 100
AcDbVertex
 100
AcDb2dVertex
  10
 199.84384774473
  20
 138.84012379176
  30
0.0
   0
VERTEX
   5
4A5
 100
AcDbEntity
   8
0
   6
CONTINUOUS
  62
7
 100
AcDbVertex
 100
AcDb2dVertex
  10
 199.69849464063
  20
 138.80169062489
  30
0.0
   0
VERTEX
   5
4A6
 100
AcDbEntity
   8
0
   6
CONTINUOUS
  62
7
 100
AcDbVertex
 100
AcDb2dVertex
  10
 199.63374687310
  20
 138.78060356316
  30
0.0
   0
VERTEX
   5
4A7
 100
AcDbEntity
   8
0
   6
CONTINUOUS
  62
7
 100
AcDbVertex
 100
AcDb2dVertex
  10
 199.51816999829
  20
 138.73713056999
  30
0.0
   0
VERTEX
   5
4A8
 100
AcDbEntity
   8
0
   6
CONTINUOUS
  62
7
 100
AcDbVertex
 100
AcDb2dVertex
  10
 199.46712576580
  20
 138.71466946671
  30
0.0
   0
VERTEX
   5
4A9
 100
AcDbEntity
   8
0
   6
CONTINUOUS
  62
7
 100
AcDbVertex
 100
AcDb2dVertex
  10
 199.32999525293
  20
 138.64556686001
  30
0.0
   0
VERTEX
   5
4AA
 100
AcDbEntity
   8
0
   6
CONTINUOUS
  62
7
 100
AcDbVertex
 100
AcDb2dVertex
  10
 199.25917434864
  20
 138.59674593382
  30
0.0
   0
VERTEX
   5
4AB
 100
AcDbEntity
   8
0
   6
CONTINUOUS
  62
7
 100
AcDbVertex
 100
AcDb2dVertex
  10
 199.16209984745
  20
 138.49768132930
  30
0.0
   0
VERTEX
   5
4AC
 100
AcDbEntity
   8
0
   6
CONTINUOUS
  62
7
 100
AcDbVertex
 100
AcDb2dVertex
  10
 199.13533749035
  20
 138.44738532085
  30
0.0
   0
VERTEX
   5
4AD
 100
AcDbEntity
   8
0
   6
CONTINUOUS
  62
7
 100
AcDbVertex
 100
AcDb2dVertex
  10
 199.13533749035
  20
 138.39615068196
  30
0.0
   0
SEQEND
   5
4AE
 100
AcDbEntity
   8
0
   6
CONTINUOUS
  62
7
   0
LINE
   5
4AF
 100
AcDbEntity
   8
0
 100
AcDbLine
   6
CONTINUOUS
  62
7
  10
 199.13533749037
  20
 138.39615068196
  30
0.0
  11
 199.13533749037
  21
 148.78720510596
  31
0.0
   0
LINE
   5
4B0
 100
AcDbEntity
   8
0
 100
AcDbLine
   6
CONTINUOUS
  62
7
  10
 200.33533749037
  20
 135.41950937216
  30
0.0
  11
 200.33533749037
  21
 138.46658621816
  31
0.0
   0
LINE
   5
4B1
 100
AcDbEntity
   8
0
 100
AcDbLine
   6
CONTINUOUS
  62
7
  10
 200.33533749037
  20
 139.42101511256
  30
0.0
  11
 200.33533749037
  21
 138.89447837196
  31
0.0
   0
LINE
   5
4B2
 100
AcDbEntity
   8
0
 100
AcDbLine
   6
CONTINUOUS
  62
7
  10
 198.73533749037
  20
 135.28720510596
  30
0.0
  11
 198.73533749037
  21
 137.28720510596
  31
0.0
   0
LINE
   5
4B3
 100
AcDbEntity
   8
0
 100
AcDbLine
   6
CONTINUOUS
  62
7
  10
 198.73533749037
  20
 136.78720510596
  30
0.0
  11
 199.13533749037
  21
 136.78720510596
  31
0.0
   0
LINE
   5
4B4
 100
AcDbEntity
   8
0
 100
AcDbLine
   6
CONTINUOUS
  62
7
  10
 198.58642227160
  20
 148.78720510591
  30
0.0
  11
 198.54056300652
  21
 148.30020528983
  31
0.0
   0
LINE
   5
4B5
 100
AcDbEntity
   8
0
 100
AcDbLine
   6
CONTINUOUS
  62
7
  10
 199.93533749035
  20
 142.08720510591
  30
0.0
  11
 200.33533749035
  21
 142.08720510591
  31
0.0
   0
LINE
   5
4B6
 100
AcDbEntity
   8
0
 100
AcDbLine
   6
CONTINUOUS
  62
7
  10
 200.33533749035
  20
 146.48720510591
  30
0.0
  11
 199.93533749035
  21
 146.48720510591
  31
0.0
   0
LINE
   5
4B7
 100
AcDbEntity
   8
0
 100
AcDbLine
   6
CONTINUOUS
  62
7
  10
 199.13533749035
  20
 141.28720510591
  30
0.0
  11
 197.03533749035
  21
 141.28720510591
  31
0.0
   0
LINE
   5
4B8
 100
AcDbEntity
   8
0
 100
AcDbLine
   6
CONTINUOUS
  62
7
  10
 199.13533749037
  20
 148.30020683106
  30
0.0
  11
 198.54056300647
  21
 148.30020528986
  31
0.0
   0
LINE
   5
4B9
 100
AcDbEntity
   8
0
 100
AcDbLine
   6
CONTINUOUS
  62
7
  10
 199.93533749037
  20
 142.34493194796
  30
0.0
  11
 199.93533749037
  21
 146.48720510596
  31
0.0
   0
LINE
   5
4BA
 100
AcDbEntity
   8
0
 100
AcDbLine
   6
CONTINUOUS
  62
7
  10
 199.93533749037
  20
 142.08720510596
  30
0.0
  11
 199.93533749037
  21
 142.34493194796
  31
0.0
   0
ARC
   5
4BB
 100
AcDbEntity
   8
0
   6
CONTINUOUS
  62
7
 100
AcDbCircle
  10
 204.53533749037
  20
 147.28720510596
  30
0.0
  40
 6.6000000000000
 100
AcDbArc
  50
 166.86344121310
  51
 215.09680122760
   0
SPLINE
   5
4BC
 100
AcDbEntity
   8
0
   6
CONTINUOUS
  62
7
 100
AcDbSpline
  70
8
  71
3
  72
12
  73
8
  74
6
  42
 0.10000000000000E-6
  43
 0.10000000000000E-6
  44
 0.10000000000000E-4
  40
0.0
  40
0.0
  40
0.0
  40
0.0
  40
 0.20166836977787
  40
 0.43713649667621
  40
 0.67953383808496
  40
 0.83684045386726
  40
 1.0000000000000
  40
 1.0000000000000
  40
 1.0000000000000
  40
 1.0000000000000
  10
 199.78166357894
  20
 148.78720510591
  30
0.0
  10
 199.81128935627
  20
 148.75789693611
  30
0.0
  10
 199.87550621154
  20
 148.69436852714
  30
0.0
  10
 199.99101796943
  20
 148.60980726793
  30
0.0
  10
 200.11229934080
  20
 148.54828850821
  30
0.0
  10
 200.22983692534
  20
 148.51356420560
  30
0.0
  10
 200.29974503937
  20
 148.50960690372
  30
0.0
  10
 200.33533749035
  20
 148.50759211510
  30
0.0
  11
 199.78166357894
  21
 148.78720510591
  31
0.0
  11
 199.87268852797
  21
 148.70122400684
  31
0.0
  11
 199.99227152806
  21
 148.61387030528
  31
0.0
  11
 200.13117487792
  21
 148.54521589165
  31
0.0
  11
 200.22933470553
  21
 148.51773544438
  31
0.0
  11
 200.33533749035
  21
 148.50759211510
  31
0.0
   0
LINE
   5
4BD
 100
AcDbEntity
   8
0
 100
AcDbLine
   6
CONTINUOUS
  62
7
  10
 200.33533749037
  20
 148.50759211506
  30
0.0
  11
 200.33533749037
  21
 146.43943917386
  31
0.0
   0
LINE
   5
4BE
 100
AcDbEntity
   8
0
 100
AcDbLine
   6
CONTINUOUS
  62
7
  10
 198.73533749037
  20
 141.28720510596
  30
0.0
  11
 198.73533749037
  21
 144.13760195636
  31
0.0
   0
SPLINE
   5
4BF
 100
AcDbEntity
   8
0
   6
CONTINUOUS
  62
7
 100
AcDbSpline
  70
8
  71
3
  72
11
  73
7
  74
5
  42
 0.10000000000000E-6
  43
 0.10000000000000E-6
  44
 0.10000000000000E-4
  40
0.0
  40
0.0
  40
0.0
  40
0.0
  40
 0.30482619750974
  40
 0.61755316981569
  40
 0.93025128056576
  40
 1.0000000000000
  40
 1.0000000000000
  40
 1.0000000000000
  40
 1.0000000000000
  10
 209.93533749035
  20
 146.66175421575
  30
0.0
  10
 209.99790791369
  20
 146.87206425152
  30
0.0
  10
 210.12467052002
  20
 147.29813533823
  30
0.0
  10
 210.20961572887
  20
 147.96252257130
  30
0.0
  10
 210.23727679702
  20
 148.46393949316
  30
0.0
  10
 210.20833519851
  20
 148.73734313238
  30
0.0
  10
 210.20305697609
  20
 148.78720510591
  30
0.0
  11
 209.93533749035
  21
 146.66175421575
  31
0.0
  11
 210.10590323529
  21
 147.29633570999
  31
0.0
  11
 210.20156150245
  21
 147.96365043281
  31
0.0
  11
 210.21742288049
  21
 148.63753774038
  31
0.0
  11
 210.20305697609
  21
 148.78720510591
  31
0.0
   0
LINE
   5
4C0
 100
AcDbEntity
   8
0
 100
AcDbLine
   6
CONTINUOUS
  62
7
  10
 209.93533749035
  20
 137.28720510591
  30
0.0
  11
 212.03533749035
  21
 137.28720510591
  31
0.0
   0
LINE
   5
4C1
 100
AcDbEntity
   8
0
 100
AcDbLine
   6
CONTINUOUS
  62
7
  10
 212.03533749035
  20
 141.28720510591
  30
0.0
  11
 209.93533749035
  21
 141.28720510591
  31
0.0
   0
ARC
   5
4C2
 100
AcDbEntity
   8
0
   6
CONTINUOUS
  62
7
 100
AcDbCircle
  10
 204.53533749037
  20
 147.28720510596
  30
0.0
  40
 6.6000000000000
 100
AcDbArc
  50
 0.71552842288442E-11
  51
 13.136558786907
   0
ARC
   5
4C3
 100
AcDbEntity
   8
0
   6
CONTINUOUS
  62
7
 100
AcDbCircle
  10
 204.53533749037
  20
 147.28720510596
  30
0.0
  40
 6.6000000000000
 100
AcDbArc
  50
 324.90319877240
  51
 0.27140733281822E-11
   0
LINE
   5
4C4
 100
AcDbEntity
   8
0
 100
AcDbLine
   6
CONTINUOUS
  62
7
  10
 208.73533749037
  20
 139.42101511256
  30
0.0
  11
 208.73533749037
  21
 146.43943917386
  31
0.0
   0
SPLINE
   5
4C5
 100
AcDbEntity
   8
0
   6
CONTINUOUS
  62
7
 100
AcDbSpline
  70
8
  71
3
  72
13
  73
9
  74
7
  42
 0.10000000000000E-6
  43
 0.10000000000000E-6
  44
 0.10000000000000E-4
  40
0.0
  40
0.0
  40
0.0
  40
0.0
  40
 0.14265305672581
  40
 0.29011120635444
  40
 0.47566527298833
  40
 0.66640551643376
  40
 0.99848014072481
  40
 1.0000000000000
  40
 1.0000000000000
  40
 1.0000000000000
  40
 1.0000000000000
  10
 208.73533749035
  20
 148.50759211510
  30
0.0
  10
 208.76649475177
  20
 148.50913183825
  30
0.0
  10
 208.82985876868
  20
 148.51226314823
  30
0.0
  10
 208.93011783461
  20
 148.53894581422
  30
0.0
  10
 209.03346692479
  20
 148.58411236819
  30
0.0
  10
 209.15902468802
  20
 148.66558293968
  30
0.0
  10
 209.24547372163
  20
 148.73511666210
  30
0.0
  10
 209.29012119905
  20
 148.78696886683
  30
0.0
  10
 209.29032461333
  20
 148.78720510591
  30
0.0
  11
 208.73533749035
  21
 148.50759211510
  31
0.0
  11
 208.82827362199
  21
 148.51538899924
  31
0.0
  11
 208.92120975364
  21
 148.53877685004
  31
0.0
  11
 209.03060671866
  21
 148.58629800005
  31
0.0
  11
 209.13311211363
  21
 148.65055273718
  31
0.0
  11
 209.28971415558
  21
 148.78649654670
  31
0.0
  11
 209.29032461333
  21
 148.78720510591
  31
0.0
   0
LINE
   5
4C6
 100
AcDbEntity
   8
0
 100
AcDbLine
   6
CONTINUOUS
  62
7
  10
 208.73533749037
  20
 146.43943917386
  30
0.0
  11
 208.73533749037
  21
 148.50759211506
  31
0.0
   0
LINE
   5
4C7
 100
AcDbEntity
   8
0
 100
AcDbLine
   6
CONTINUOUS
  62
7
  10
 209.93533749037
  20
 148.78720510596
  30
0.0
  11
 209.93533749037
  21
 138.39615068196
  31
0.0
   0
POLYLINE
   5
4C8
 100
AcDbEntity
   8
0
   6
CONTINUOUS
  62
7
 100
AcDb2dPolyline
  66
1
  10
0.0
  20
0.0
  30
0.0
  70
0
   0
VERTEX
   5
4C9
 100
AcDbEntity
   8
0
   6
CONTINUOUS
  62
7
 100
AcDbVertex
 100
AcDb2dVertex
  10
 209.93533749035
  20
 138.39615068196
  30
0.0
   0
VERTEX
   5
4CA
 100
AcDbEntity
   8
0
   6
CONTINUOUS
  62
7
 100
AcDbVertex
 100
AcDb2dVertex
  10
 209.93533749035
  20
 138.44744227608
  30
0.0
   0
VERTEX
   5
4CB
 100
AcDbEntity
   8
0
   6
CONTINUOUS
  62
7
 100
AcDbVertex
 100
AcDb2dVertex
  10
 209.90853058659
  20
 138.49768888379
  30
0.0
   0
VERTEX
   5
4CC
 100
AcDbEntity
   8
0
   6
CONTINUOUS
  62
7
 100
AcDbVertex
 100
AcDb2dVertex
  10
 209.81177821715
  20
 138.59650047226
  30
0.0
   0
VERTEX
   5
4CD
 100
AcDbEntity
   8
0
   6
CONTINUOUS
  62
7
 100
AcDbVertex
 100
AcDb2dVertex
  10
 209.74090211459
  20
 138.64545273936
  30
0.0
   0
VERTEX
   5
4CE
 100
AcDbEntity
   8
0
   6
CONTINUOUS
  62
7
 100
AcDbVertex
 100
AcDb2dVertex
  10
 209.60346962601
  20
 138.71471060057
  30
0.0
   0
VERTEX
   5
4CF
 100
AcDbEntity
   8
0
   6
CONTINUOUS
  62
7
 100
AcDbVertex
 100
AcDb2dVertex
  10
 209.55236169017
  20
 138.73718822611
  30
0.0
   0
VERTEX
   5
4D0
 100
AcDbEntity
   8
0
   6
CONTINUOUS
  62
7
 100
AcDbVertex
 100
AcDb2dVertex
  10
 209.43687569095
  20
 138.78061951444
  30
0.0
   0
VERTEX
   5
4D1
 100
AcDbEntity
   8
0
   6
CONTINUOUS
  62
7
 100
AcDbVertex
 100
AcDb2dVertex
  10
 209.37212571963
  20
 138.80172242254
  30
0.0
   0
VERTEX
   5
4D2
 100
AcDbEntity
   8
0
   6
CONTINUOUS
  62
7
 100
AcDbVertex
 100
AcDb2dVertex
  10
 209.22594774276
  20
 138.84033887409
  30
0.0
   0
VERTEX
   5
4D3
 100
AcDbEntity
   8
0
   6
CONTINUOUS
  62
7
 100
AcDbVertex
 100
AcDb2dVertex
  10
 209.14365552308
  20
 138.85815624744
  30
0.0
   0
VERTEX
   5
4D4
 100
AcDbEntity
   8
0
   6
CONTINUOUS
  62
7
 100
AcDbVertex
 100
AcDb2dVertex
  10
 208.95655938278
  20
 138.88525220889
  30
0.0
   0
VERTEX
   5
4D5
 100
AcDbEntity
   8
0
   6
CONTINUOUS
  62
7
 100
AcDbVertex
 100
AcDb2dVertex
  10
 208.84849622280
  20
 138.89447837196
  30
0.0
   0
VERTEX
   5
4D6
 100
AcDbEntity
   8
0
   6
CONTINUOUS
  62
7
 100
AcDbVertex
 100
AcDb2dVertex
  10
 208.73533749035
  20
 138.89447837196
  30
0.0
   0
SEQEND
   5
4D7
 100
AcDbEntity
   8
0
   6
CONTINUOUS
  62
7
   0
LINE
   5
4D8
 100
AcDbEntity
   8
0
 100
AcDbLine
   6
CONTINUOUS
  62
7
  10
 209.93533749037
  20
 134.90763411186
  30
0.0
  11
 209.93533749037
  21
 138.39615068196
  31
0.0
   0
LINE
   5
4D9
 100
AcDbEntity
   8
0
 100
AcDbLine
   6
CONTINUOUS
  62
7
  10
 208.73533749037
  20
 138.46658621816
  30
0.0
  11
 208.73533749037
  21
 135.41950937216
  31
0.0
   0
LINE
   5
4DA
 100
AcDbEntity
   8
0
 100
AcDbLine
   6
CONTINUOUS
  62
7
  10
 208.73533749037
  20
 138.89447837196
  30
0.0
  11
 208.73533749037
  21
 139.42101511256
  31
0.0
   0
LINE
   5
4DB
 100
AcDbEntity
   8
0
 100
AcDbLine
   6
CONTINUOUS
  62
7
  10
 210.33533749037
  20
 135.28720510596
  30
0.0
  11
 210.33533749037
  21
 137.28720510596
  31
0.0
   0
LINE
   5
4DC
 100
AcDbEntity
   8
0
 100
AcDbLine
   6
CONTINUOUS
  62
7
  10
 210.33533749037
  20
 141.28720510596
  30
0.0
  11
 210.33533749037
  21
 144.13760195636
  31
0.0
   0
LINE
   5
4DD
 100
AcDbEntity
   8
0
 100
AcDbLine
   6
CONTINUOUS
  62
7
  10
 209.93533749037
  20
 136.78720510596
  30
0.0
  11
 210.33533749037
  21
 136.78720510596
  31
0.0
   0
LINE
   5
4DE
 100
AcDbEntity
   8
0
 100
AcDbLine
   6
CONTINUOUS
  62
7
  10
 208.73533749035
  20
 134.78720510591
  30
0.0
  11
 209.93533749035
  21
 134.78720510591
  31
0.0
   0
LINE
   5
4DF
 100
AcDbEntity
   8
0
 100
AcDbLine
   6
CONTINUOUS
  62
7
  10
 208.73533749037
  20
 134.28720510596
  30
0.0
  11
 208.73533749037
  21
 135.41950937216
  31
0.0
   0
LINE
   5
4E0
 100
AcDbEntity
   8
0
 100
AcDbLine
   6
CONTINUOUS
  62
7
  10
 209.93533749037
  20
 134.78720510596
  30
0.0
  11
 209.93533749037
  21
 134.90763411186
  31
0.0
   0
LINE
   5
4E1
 100
AcDbEntity
   8
0
 100
AcDbLine
   6
CONTINUOUS
  62
1
  10
 209.93533749037
  20
 134.90763411186
  30
0.0
  11
 208.73533749037
  21
 134.90763411186
  31
0.0
   0
LINE
   5
4E2
 100
AcDbEntity
   8
0
 100
AcDbLine
   6
CONTINUOUS
  62
7
  10
 208.53533749037
  20
 137.59014883106
  30
0.0
  11
 208.73533749037
  21
 137.59014883106
  31
0.0
   0
SPLINE
   5
4E3
 100
AcDbEntity
   8
0
   6
CONTINUOUS
  62
7
 100
AcDbSpline
  70
8
  71
3
  72
10
  73
6
  74
4
  42
 0.10000000000000E-6
  43
 0.10000000000000E-6
  44
 0.10000000000000E-4
  40
 0.34730713184515
  40
 0.34730713184515
  40
 0.34730713184515
  40
 0.34730713184515
  40
 0.56205132048669
  40
 0.77679550912823
  40
 1.0000000000000
  40
 1.0000000000000
  40
 1.0000000000000
  40
 1.0000000000000
  10
 208.53533749038
  20
 138.47238788631
  30
0.0
  10
 208.55663494939
  20
 138.47099602291
  30
0.0
  10
 208.60008246684
  20
 138.46882196899
  30
0.0
  10
 208.66734074396
  20
 138.46706972701
  30
0.0
  10
 208.71238187304
  20
 138.46674945012
  30
0.0
  10
 208.73533749035
  20
 138.46658621812
  30
0.0
  11
 208.53533749038
  21
 138.47238788631
  31
0.0
  11
 208.60028499836
  21
 138.46907722761
  31
0.0
  11
 208.66644769548
  21
 138.46729812063
  31
0.0
  11
 208.73533749035
  21
 138.46658621812
  31
0.0
   0
LINE
   5
4E4
 100
AcDbEntity
   8
0
 100
AcDbLine
   6
CONTINUOUS
  62
1
  10
 208.53533749037
  20
 136.28720510596
  30
0.0
  11
 208.73533749037
  21
 136.28720510596
  31
0.0
   0
LINE
   5
4E5
 100
AcDbEntity
   8
0
 100
AcDbLine
   6
CONTINUOUS
  62
1
  10
 208.73533749037
  20
 146.43943917386
  30
0.0
  11
 208.53533749037
  21
 146.43943917386
  31
0.0
   0
LINE
   5
4E6
 100
AcDbEntity
   8
0
 100
AcDbLine
   6
CONTINUOUS
  62
1
  10
 208.73533749037
  20
 139.42101511256
  30
0.0
  11
 208.53533749037
  21
 139.42101511256
  31
0.0
   0
LINE
   5
4E7
 100
AcDbEntity
   8
0
 100
AcDbLine
   6
CONTINUOUS
  62
7
  10
 208.53533749037
  20
 134.28720510596
  30
0.0
  11
 208.73533749037
  21
 134.28720510596
  31
0.0
   0
LINE
   5
4E8
 100
AcDbEntity
   8
0
 100
AcDbLine
   6
CONTINUOUS
  62
7
  10
 200.33533749037
  20
 134.28720510596
  30
0.0
  11
 200.53533749037
  21
 134.28720510596
  31
0.0
   0
LINE
   5
4E9
 100
AcDbEntity
   8
0
 100
AcDbLine
   6
CONTINUOUS
  62
7
  10
 200.33533749037
  20
 137.59014883106
  30
0.0
  11
 200.53533749037
  21
 137.59014883106
  31
0.0
   0
SPLINE
   5
4EA
 100
AcDbEntity
   8
0
   6
CONTINUOUS
  62
7
 100
AcDbSpline
  70
8
  71
3
  72
10
  73
6
  74
4
  42
 0.10000000000000E-6
  43
 0.10000000000000E-6
  44
 0.10000000000000E-4
  40
0.0
  40
0.0
  40
0.0
  40
0.0
  40
 0.23669656438695
  40
 0.47339312877390
  40
 0.65431787097281
  40
 0.65431787097281
  40
 0.65431787097281
  40
 0.65431787097281
  10
 200.33533749035
  20
 138.46658621812
  30
0.0
  10
 200.35955190317
  20
 138.46694535382
  30
0.0
  10
 200.40798072882
  20
 138.46766362520
  30
0.0
  10
 200.47475559642
  20
 138.46935628619
  30
0.0
  10
 200.51719158816
  20
 138.47122477827
  30
0.0
  10
 200.53533749037
  20
 138.47223411505
  30
0.0
  11
 200.33533749035
  21
 138.46658621812
  31
0.0
  11
 200.40795127731
  21
 138.46779021363
  31
0.0
  11
 200.48038835521
  21
 138.46975373968
  31
0.0
  11
 200.53533749037
  21
 138.47223411505
  31
0.0
   0
LINE
   5
4EB
 100
AcDbEntity
   8
0
 100
AcDbLine
   6
CONTINUOUS
  62
1
  10
 200.33533749037
  20
 136.28720510596
  30
0.0
  11
 200.53533749037
  21
 136.28720510596
  31
0.0
   0
LINE
   5
4EC
 100
AcDbEntity
   8
0
 100
AcDbLine
   6
CONTINUOUS
  62
1
  10
 200.53533749037
  20
 139.42101511256
  30
0.0
  11
 200.33533749037
  21
 139.42101511256
  31
0.0
   0
LINE
   5
4ED
 100
AcDbEntity
   8
0
 100
AcDbLine
   6
CONTINUOUS
  62
1
  10
 200.53533749037
  20
 146.43943917386
  30
0.0
  11
 200.33533749037
  21
 146.43943917386
  31
0.0
   0
LINE
   5
4EE
 100
AcDbEntity
   8
0
 100
AcDbLine
   6
DIVIDE
  62
2
  10
 269.99153456212
  20
 183.28720510596
  30
0.0
  11
 270.14153456212
  21
 183.28720510596
  31
0.0
   0
LINE
   5
4EF
 100
AcDbEntity
   8
0
 100
AcDbLine
   6
DIVIDE
  62
2
  10
 270.14153456212
  20
 183.28720510596
  30
0.0
  11
 270.29153456212
  21
 183.28720510596
  31
0.0
   0
CIRCLE
   5
4F0
 100
AcDbEntity
   8
0
 100
AcDbCircle
   6
CONTINUOUS
  62
15
  10
 270.14153456212
  20
 161.78720510596
  30
0.0
  40
 8.6500000000000
   0
LINE
   5
4F1
 100
AcDbEntity
   8
0
 100
AcDbLine
   6
CONTINUOUS
  62
7
  10
 261.64153456212
  20
 132.28720510596
  30
0.0
  11
 278.79153456212
  21
 132.28720510596
  31
0.0
   0
LINE
   5
4F2
 100
AcDbEntity
   8
0
 100
AcDbLine
   6
DIVIDE
  62
3
  10
 261.49153456212
  20
 132.28720510596
  30
0.0
  11
 255.14153456212
  21
 132.28720510596
  31
0.0
   0
LINE
   5
4F3
 100
AcDbEntity
   8
0
 100
AcDbLine
   6
DIVIDE
  62
3
  10
 278.79153456212
  20
 132.28720510596
  30
0.0
  11
 285.14153456212
  21
 132.28720510596
  31
0.0
   0
LINE
   5
4F4
 100
AcDbEntity
   8
0
 100
AcDbLine
   6
DASHDOT
  62
2
  10
 258.11869832581
  20
 161.78720510596
  30
0.0
  11
 282.23347594418
  21
 161.78720510596
  31
0.0
   0
ARC
   5
4F5
 100
AcDbEntity
   8
0
   6
CONTINUOUS
  62
7
 100
AcDbCircle
  10
 269.99153456212
  20
 174.78720510596
  30
0.0
  40
 8.5000000000000
 100
AcDbArc
  50
 90.000000000000
  51
 180.00000000000
   0
POINT
   5
4F6
 100
AcDbEntity
   8
0
 100
AcDbPoint
  62
7
  10
 261.49153456212
  20
 183.28720510596
  30
0.0
   0
LINE
   5
4F7
 100
AcDbEntity
   8
0
 100
AcDbLine
   6
CONTINUOUS
  62
7
  10
 261.49153456212
  20
 132.28720510596
  30
0.0
  11
 261.49153456212
  21
 174.78720510596
  31
0.0
   0
LINE
   5
4F8
 100
AcDbEntity
   8
0
 100
AcDbLine
   6
CONTINUOUS
  62
7
  10
 269.99153456212
  20
 183.28720510596
  30
0.0
  11
 270.29153456212
  21
 183.28720510596
  31
0.0
   0
ARC
   5
4F9
 100
AcDbEntity
   8
0
   6
CONTINUOUS
  62
7
 100
AcDbCircle
  10
 270.29153456212
  20
 174.78720510596
  30
0.0
  40
 8.5000000000000
 100
AcDbArc
  50
0.0
  51
 90.000000000000
   0
POINT
   5
4FA
 100
AcDbEntity
   8
0
 100
AcDbPoint
  62
7
  10
 278.79153456212
  20
 183.28720510596
  30
0.0
   0
LINE
   5
4FB
 100
AcDbEntity
   8
0
 100
AcDbLine
   6
CONTINUOUS
  62
7
  10
 278.79153456212
  20
 132.28720510596
  30
0.0
  11
 278.79153456212
  21
 174.78720510596
  31
0.0
   0
DIMENSION
   5
4FC
 100
AcDbEntity
   8
0
   6
CONTINUOUS
  62
2
 100
AcDbDimension
   2
*D7
  10
 270.29153456212
  20
 174.78720510596
  30
0.0
  11
 279.59250249265
  21
 184.52026274090
  31
0.0
  70
132
   3
GMM001
 100
AcDbRadialDimension
  15
 276.16398754373
  25
 180.93247124981
  35
0.0
  40
 5.2229500702654
   0
LINE
   5
4FD
 100
AcDbEntity
   8
0
 100
AcDbLine
   6
DIVIDE
  62
3
  10
 285.14153456212
  20
 132.28720510596
  30
0.0
  11
 285.14153456212
  21
 187.91130005596
  31
0.0
   0
LINE
   5
4FE
 100
AcDbEntity
   8
0
 100
AcDbLine
   6
DASHDOT
  62
2
  10
 270.14153456212
  20
 209.93159869032
  30
0.0
  11
 270.14153456212
  21
 124.83776741437
  31
0.0
   0
LINE
   5
4FF
 100
AcDbEntity
   8
0
 100
AcDbLine
   6
DIVIDE
  62
3
  10
 255.14153456212
  20
 132.28720510596
  30
0.0
  11
 255.14153456212
  21
 202.10546552703
  31
0.0
   0
CIRCLE
   5
500
 100
AcDbEntity
   8
0
 100
AcDbCircle
   6
CONTINUOUS
  62
7
  10
 270.14153456212
  20
 176.28720510596
  30
0.0
  40
 1.5000000000000
   0
DIMENSION
   5
501
 100
AcDbEntity
   8
0
   6
CONTINUOUS
  62
2
 100
AcDbDimension
   2
*D8
  10
 299.55475383405
  20
 174.78720510596
  30
0.0
  11
 299.55475383405
  21
 153.53720510596
  31
0.0
  70
0
   3
GMM002
 100
AcDbAlignedDimension
  13
 285.14153456212
  23
 132.28720510596
  33
0.0
  14
 280.87186940065
  24
 174.78720510596
  34
0.0
  50
 90.000000000000
 100
AcDbRotatedDimension
   0
DIMENSION
   5
502
 100
AcDbEntity
   8
0
   6
CONTINUOUS
  62
2
 100
AcDbDimension
   2
*D9
  10
 299.55475383405
  20
 174.78720510596
  30
0.0
  11
 299.55475383405
  21
 179.03720510596
  31
0.0
  70
0
   3
GMM002
 100
AcDbAlignedDimension
  13
 278.79153456212
  23
 183.28720510596
  33
0.0
  14
 299.55475383405
  24
 174.78720510596
  34
0.0
  50
 270.00000000000
 100
AcDbRotatedDimension
   0
DIMENSION
   5
503
 100
AcDbEntity
   8
0
   6
CONTINUOUS
  62
2
 100
AcDbDimension
   2
*D10
  10
 243.04342853531
  20
 176.28720510596
  30
0.0
  11
 243.04342853531
  21
 154.28720510596
  31
0.0
  70
0
   3
GMM002
 100
AcDbAlignedDimension
  13
 255.14153456212
  23
 132.28720510596
  33
0.0
  14
 260.25580465567
  24
 176.28720510596
  34
0.0
  50
 90.000000000000
 100
AcDbRotatedDimension
   0
DIMENSION
   5
504
 100
AcDbEntity
   8
0
   6
CONTINUOUS
  62
2
 100
AcDbDimension
   2
*D11
  10
 278.79153456212
  20
 114.98995407938
  30
0.0
  11
 270.14153456212
  21
 114.98995407938
  31
0.0
  70
0
   3
GMM002
 100
AcDbAlignedDimension
  13
 261.49153456212
  23
 132.28720510596
  33
0.0
  14
 278.79153456212
  24
 132.28720510596
  34
0.0
 100
AcDbRotatedDimension
   0
LINE
   5
505
 100
AcDbEntity
   8
0
 100
AcDbLine
   6
DASHDOT
  62
2
  10
 315.74697195433
  20
 176.28720510596
  30
0.0
  11
 336.45795553476
  21
 176.28720510596
  31
0.0
   0
LINE
   5
506
 100
AcDbEntity
   8
0
 100
AcDbLine
   6
DIVIDE
  62
3
  10
 321.64923280658
  20
 183.28720510596
  30
0.0
  11
 321.64923280658
  21
 202.10546552703
  31
0.0
   0
LINE
   5
507
 100
AcDbEntity
   8
0
 100
AcDbLine
   6
CONTINUOUS
  62
7
  10
 367.14923280658
  20
 132.28720510596
  30
0.0
  11
 367.14923280658
  21
 152.98720510596
  31
0.0
   0
POLYLINE
   5
508
 100
AcDbEntity
   8
0
   6
CONTINUOUS
  62
7
 100
AcDb2dPolyline
  66
1
  10
0.0
  20
0.0
  30
0.0
  70
0
   0
VERTEX
   5
509
 100
AcDbEntity
   8
0
   6
CONTINUOUS
  62
7
 100
AcDbVertex
 100
AcDb2dVertex
  10
 321.64923280658
  20
 183.28720510596
  30
0.0
   0
VERTEX
   5
50A
 100
AcDbEntity
   8
0
   6
CONTINUOUS
  62
7
 100
AcDbVertex
 100
AcDb2dVertex
  10
 321.64923280658
  20
 132.28720510596
  30
0.0
   0
VERTEX
   5
50B
 100
AcDbEntity
   8
0
   6
CONTINUOUS
  62
7
 100
AcDbVertex
 100
AcDb2dVertex
  10
 367.14923280658
  20
 132.28720510596
  30
0.0
   0
SEQEND
   5
50C
 100
AcDbEntity
   8
0
   6
CONTINUOUS
  62
7
   0
LINE
   5
50D
 100
AcDbEntity
   8
0
 100
AcDbLine
   6
DASHDOT
  62
2
  10
 315.64297056466
  20
 161.78720510596
  30
0.0
  11
 377.73388159751
  21
 161.78720510596
  31
0.0
   0
DIMENSION
   5
50E
 100
AcDbEntity
   8
0
   6
CONTINUOUS
  62
2
 100
AcDbDimension
   2
*D12
  10
 367.14923280658
  20
 114.98995407938
  30
0.0
  11
 344.39923280658
  21
 114.98995407938
  31
0.0
  70
0
   3
GMM002
 100
AcDbAlignedDimension
  13
 321.64923280658
  23
 132.28720510596
  33
0.0
  14
 367.14923280658
  24
 132.28720510596
  34
0.0
 100
AcDbRotatedDimension
   0
DIMENSION
   5
50F
 100
AcDbEntity
   8
0
   6
CONTINUOUS
  62
2
 100
AcDbDimension
   2
*D13
  10
 372.14923280658
  20
 114.98995407938
  30
0.0
  11
 369.64923280658
  21
 114.98995407938
  31
0.0
  70
0
   3
GMM002
 100
AcDbAlignedDimension
  13
 367.14923280658
  23
 132.28720510596
  33
0.0
  14
 372.14923280658
  24
 152.98720510596
  34
0.0
 100
AcDbRotatedDimension
   0
DIMENSION
   5
510
 100
AcDbEntity
   8
0
   6
CONTINUOUS
  62
2
 100
AcDbDimension
   2
*D14
  10
 391.11382188397
  20
 132.28720510596
  30
0.0
  11
 391.11382188397
  21
 147.03720510596
  31
0.0
  70
0
   3
GMM002
 100
AcDbAlignedDimension
  13
 377.73388159751
  23
 161.78720510596
  33
0.0
  14
 367.14923280658
  24
 132.28720510596
  34
0.0
  50
 270.00000000000
 100
AcDbRotatedDimension
   0
DIMENSION
   5
511
 100
AcDbEntity
   8
0
   6
CONTINUOUS
  62
2
 100
AcDbDimension
   2
*D15
  10
 381.81793812369
  20
 152.98720510596
  30
0.0
  11
 381.81793812369
  21
 181.23725470123
  31
0.0
  70
128
   3
GMM004
 100
AcDbAlignedDimension
  13
 372.14923280658
  23
 170.28720510596
  33
0.0
  14
 372.14923280658
  24
 152.98720510596
  34
0.0
  50
 270.00000000000
 100
AcDbRotatedDimension
   0
LINE
   5
512
 100
AcDbEntity
   8
0
 100
AcDbLine
   6
CONTINUOUS
  62
7
  10
 332.14923280658
  20
 183.28720510596
  30
0.0
  11
 321.64923280658
  21
 183.28720510596
  31
0.0
   0
LINE
   5
513
 100
AcDbEntity
   8
0
 100
AcDbLine
   6
CONTINUOUS
  62
7
  10
 332.14923280658
  20
 183.28720510596
  30
0.0
  11
 332.14923280658
  21
 170.28720510596
  31
0.0
   0
LINE
   5
514
 100
AcDbEntity
   8
0
 100
AcDbLine
   6
CONTINUOUS
  62
7
  10
 367.14923280658
  20
 152.98720510596
  30
0.0
  11
 372.14923280658
  21
 152.98720510596
  31
0.0
   0
LINE
   5
515
 100
AcDbEntity
   8
0
 100
AcDbLine
   6
CONTINUOUS
  62
7
  10
 332.14923280658
  20
 170.28720510596
  30
0.0
  11
 372.14923280658
  21
 170.28720510596
  31
0.0
   0
LINE
   5
516
 100
AcDbEntity
   8
0
 100
AcDbLine
   6
CONTINUOUS
  62
7
  10
 372.14923280658
  20
 170.28720510596
  30
0.0
  11
 372.14923280658
  21
 152.98720510596
  31
0.0
   0
DIMENSION
   5
517
 100
AcDbEntity
   8
0
   6
CONTINUOUS
  62
2
 100
AcDbDimension
   2
*D16
  10
 321.64923280658
  20
 193.82568497852
  30
0.0
  11
 340.64704087290
  21
 193.82568497852
  31
0.0
  70
128
   3
GMM005
 100
AcDbAlignedDimension
  13
 332.14923280658
  23
 183.28720510596
  33
0.0
  14
 321.64923280658
  24
 194.00422794042
  34
0.0
  50
 180.00000000000
 100
AcDbRotatedDimension
   0
DIMENSION
   5
518
 100
AcDbEntity
   8
0
   6
CONTINUOUS
  62
2
 100
AcDbDimension
   2
*D17
  10
 309.46425206215
  20
 183.28720510596
  30
0.0
  11
 309.46425206215
  21
 157.78720510596
  31
0.0
  70
0
   3
GMM002
 100
AcDbAlignedDimension
  13
 321.64923280658
  23
 132.28720510596
  33
0.0
  14
 321.64923280658
  24
 183.28720510596
  34
0.0
  50
 90.000000000000
 100
AcDbRotatedDimension
   0
LINE
   5
519
 100
AcDbEntity
   8
0
 100
AcDbLine
   6
DIVIDE
  62
3
  10
 285.14153456212
  20
 195.85646186052
  30
0.0
  11
 285.14153456212
  21
 202.10546552703
  31
0.0
   0
LINE
   5
51A
 100
AcDbEntity
   8
0
 100
AcDbLine
   6
DASHDOT
  62
2
  10
 69.979875300137
  20
 176.28720510596
  30
0.0
  11
 45.961008733598
  21
 176.28720510596
  31
0.0
   0
DIMENSION
   5
51B
 100
AcDbEntity
   8
0
   6
CONTINUOUS
  62
2
 100
AcDbDimension
   2
*D18
  10
 39.247966921169
  20
 132.28720510596
  30
0.0
  11
 39.247966921169
  21
 154.28720510596
  31
0.0
  70
0
   3
GMM002
 100
AcDbAlignedDimension
  13
 45.961008733598
  23
 176.28720510596
  33
0.0
  14
 50.269775283174
  24
 132.28720510596
  34
0.0
  50
 270.00000000000
 100
AcDbRotatedDimension
   0
POLYLINE
   5
51C
 100
AcDbEntity
   8
0
   6
CONTINUOUS
  62
2
 100
AcDb2dPolyline
  66
1
  10
0.0
  20
0.0
  30
0.0
  70
0
   0
VERTEX
   5
51D
 100
AcDbEntity
   8
0
   6
CONTINUOUS
  62
2
 100
AcDbVertex
 100
AcDb2dVertex
  10
 54.442495042753
  20
 147.15853684079
  30
0.0
   0
VERTEX
   5
51E
 100
AcDbEntity
   8
0
   6
CONTINUOUS
  62
2
 100
AcDbVertex
 100
AcDb2dVertex
  10
 54.442495042753
  20
 147.41587337112
  30
0.0
   0
VERTEX
   5
51F
 100
AcDbEntity
   8
0
   6
CONTINUOUS
  62
2
 100
AcDbVertex
 100
AcDb2dVertex
  10
 52.685507697711
  20
 147.41587337112
  30
0.0
   0
VERTEX
   5
520
 100
AcDbEntity
   8
0
   6
CONTINUOUS
  62
2
 100
AcDbVertex
 100
AcDb2dVertex
  10
 52.685507697711
  20
 147.15853684079
  30
0.0
   0
VERTEX
   5
521
 100
AcDbEntity
   8
0
   6
CONTINUOUS
  62
2
 100
AcDbVertex
 100
AcDb2dVertex
  10
 54.442495042753
  20
 147.15853684079
  30
0.0
   0
SEQEND
   5
522
 100
AcDbEntity
   8
0
   6
CONTINUOUS
  62
2
   0
DIMENSION
   5
523
 100
AcDbEntity
   8
0
   6
CONTINUOUS
  62
2
 100
AcDbDimension
   2
*D19
  10
 67.269775283174
  20
 115.70272682248
  30
0.0
  11
 58.769775283174
  21
 115.70272682248
  31
0.0
  70
0
   3
GMM002
 100
AcDbAlignedDimension
  13
 50.269775283174
  23
 132.28720510596
  33
0.0
  14
 67.269775283174
  24
 132.28720510596
  34
0.0
 100
AcDbRotatedDimension
   0
DIMENSION
   5
524
 100
AcDbEntity
   8
0
   6
CONTINUOUS
  62
2
 100
AcDbDimension
   2
*D20
  10
 177.74549713112
  20
 153.28720510596
  30
0.0
  11
 177.74549713112
  21
 161.78720510596
  31
0.0
  70
0
   3
GMM006
 100
AcDbAlignedDimension
  13
 161.22964877536
  23
 170.28720510596
  33
0.0
  14
 161.22964877536
  24
 153.28720510596
  34
0.0
  50
 270.00000000000
 100
AcDbRotatedDimension
   0
DIMENSION
   5
525
 100
AcDbEntity
   8
0
   6
CONTINUOUS
  62
2
 100
AcDbDimension
   2
*D21
  10
 121.52620022877
  20
 193.68801471307
  30
0.0
  11
 116.52620022877
  21
 193.68801471307
  31
0.0
  70
0
   3
GMM002
 100
AcDbAlignedDimension
  13
 111.52620022877
  23
 183.28720510596
  33
0.0
  14
 121.52620022877
  24
 183.48068319855
  34
0.0
 100
AcDbRotatedDimension
   0
DIMENSION
   5
526
 100
AcDbEntity
   8
0
   6
CONTINUOUS
  62
2
 100
AcDbDimension
   2
*D22
  10
 161.52620022877
  20
 204.13632398491
  30
0.0
  11
 136.52620022877
  21
 204.13632398491
  31
0.0
  70
0
   3
GMM002
 100
AcDbAlignedDimension
  13
 111.52620022877
  23
 195.68801471307
  33
0.0
  14
 161.52620022877
  24
 169.28720510596
  34
0.0
 100
AcDbRotatedDimension
   0
DIMENSION
   5
527
 100
AcDbEntity
   8
0
   6
CONTINUOUS
  62
2
 100
AcDbDimension
   2
*D23
  10
 111.52620022877
  20
 115.70272682248
  30
0.0
  11
 134.02620022877
  21
 115.70272682248
  31
0.0
  70
0
   3
GMM002
 100
AcDbAlignedDimension
  13
 156.52620022877
  23
 148.78720510596
  33
0.0
  14
 111.52620022877
  24
 132.28720510596
  34
0.0
  50
 180.00000000000
 100
AcDbRotatedDimension
   0
LINE
   5
528
 100
AcDbEntity
   8
0
 100
AcDbLine
   6
DASHDOT
  62
2
  10
 192.88560132476
  20
 161.78720510596
  30
0.0
  11
 216.06992782238
  21
 161.78720510596
  31
0.0
   0
INSERT
   5
529
 100
AcDbEntity
   8
0
 100
AcDbBlockReference
   2
*D24
  10
0.0
  20
0.0
  30
0.0
   0
TEXT
   5
52A
 100
AcDbEntity
   8
0
  62
7
 100
AcDbText
  10
 301.25972472277
  20
 102.95593756874
  30
0.0
  40
 4.0000000000000
   1
参考掘込図
   7
STANDARD
 100
AcDbText
   0
LINE
   5
52B
 100
AcDbEntity
   8
0
 100
AcDbLine
   6
CONTINUOUS
  62
7
  10
 300.57307483119
  20
 101.95458780807
  30
0.0
  11
 321.94643711143
  21
 101.95458780807
  31
0.0
   0
LINE
   5
52C
 100
AcDbEntity
   8
0
 100
AcDbLine
   6
DASHDOT
  62
2
  10
 157.02998735598
  20
 144.28720510596
  30
0.0
  11
 123.02241310157
  21
 144.28720510596
  31
0.0
   0
LINE
   5
52D
 100
AcDbEntity
   8
0
 100
AcDbLine
   6
DASHDOT
  62
2
  10
 140.02620022877
  20
 159.62018450372
  30
0.0
  11
 140.02620022877
  21
 127.04629641190
  31
0.0
   0
LINE
   5
52E
 100
AcDbEntity
   8
0
 100
AcDbLine
   6
DASHDOT
  62
2
  10
 280.87186940065
  20
 174.78720510596
  30
0.0
  11
 258.49746446641
  21
 174.78720510596
  31
0.0
   0
LINE
   5
52F
 100
AcDbEntity
   8
0
 100
AcDbLine
   6
DIVIDE
  62
2
  10
 260.25580465567
  20
 176.28720510596
  30
0.0
  11
 280.19971477015
  21
 176.28720510596
  31
0.0
   0
ENDSEC
  0
SECTION
  2
OBJECTS
  0
DICTIONARY
  5
C
100
AcDbDictionary
  3
ACAD_GROUP
350
D
  3
ACAD_MLINESTYLE
350
1B
  0
DICTIONARY
  5
D
102
{ACAD_REACTORS
330
C
102
}
100
AcDbDictionary
  0
DICTIONARY
  5
1B
102
{ACAD_REACTORS
330
C
102
}
100
AcDbDictionary
  3
STANDARD
350
1C
  0
MLINESTYLE
  5
1C
102
{ACAD_REACTORS
330
1B
102
}
100
AcDbMlineStyle
  2
STANDARD
 70
     0
  3

 62
   256
 51
90.0
 52
90.0
 71
     2
 49
0.5
 62
   256
  6
BYLAYER
 49
-0.5
 62
   256
  6
BYLAYER
  0
ENDSEC
   0
EOF
