   0
SECTION
   2
HEADER
   9
$ACADVER
   1
AC1015
   9
$LIMMIN
  10
0.0
  20
0.0
   9
$LIMMAX
  10
 420.00000000000
  20
 297.00000000000
   9
$EXTMIN
  10
0.0
  20
0.0
  30
0.0
   9
$EXTMAX
  10
 420.00000000000
  20
 297.00000000000
  30
0.0
   9
$LTSCALE
  40
 8.4000000000000
   9
$HANDSEED
   5
358
   0
ENDSEC
   0
SECTION
   2
TABLES
  0
TABLE
  2
VPORT
  5
8
100
AcDbSymbolTable
 70
     1
  0
VPORT
  5
357
100
AcDbSymbolTableRecord
100
AcDbViewportTableRecord
  2
*ACTIVE
 70
     0
 10
0.0
 20
0.0
 11
1.0
 21
1.0
  12
 210.00000000000
  22
 148.50000000000
 13
0.0
 23
0.0
 14
1.0
 24
1.0
 15
0.0
 25
0.0
 16
0.0
 26
0.0
 36
1.0
 17
0.0
 27
0.0
 37
0.0
  40
 420.00000000000
  41
 1.4787878787879
 42
50.0
 43
0.0
 44
0.0
 50
0.0
 51
0.0
 71
     0
 72
   100
 73
     1
 74
     1
 75
     0
 76
     0
 77
     0
 78
     0
  0
ENDTAB
  0
TABLE
  2
LTYPE
  5
5
100
AcDbSymbolTable
 70
    25
  0
LTYPE
  5
12
100
AcDbSymbolTableRecord
100
AcDbLinetypeTableRecord
  2
BYBLOCK
 70
     0
  3

 72
    65
 73
     0
 40
0.0
  0
LTYPE
  5
13
100
AcDbSymbolTableRecord
100
AcDbLinetypeTableRecord
  2
BYLAYER
 70
     0
  3

 72
    65
 73
     0
 40
0.0
  0
LTYPE
  5
14
100
AcDbSymbolTableRecord
100
AcDbLinetypeTableRecord
  2
CONTINUOUS
 70
     0
  3
Solid line
 72
    65
 73
     0
 40
0.0
  0
LTYPE
  5
20
100
AcDbSymbolTableRecord
100
AcDbLinetypeTableRecord
  2
BORDER
 70
     0
  3
__ __ . __ __ . __ __ . __ __ . __ __ . __ __ .
 72
    65
 73
     6
 40
1.75
 49
0.5
 74
     0
 49
-0.25
 74
     0
 49
0.5
 74
     0
 49
-0.25
 74
     0
 49
0.0
 74
     0
 49
-0.25
 74
     0
  0
LTYPE
  5
21
100
AcDbSymbolTableRecord
100
AcDbLinetypeTableRecord
  2
BORDER2
 70
     0
  3
__.__.__.__.__.__.__.__.__.__.__.__.__.__.__.__
 72
    65
 73
     6
 40
0.875
 49
0.25
 74
     0
 49
-0.125
 74
     0
 49
0.25
 74
     0
 49
-0.125
 74
     0
 49
0.0
 74
     0
 49
-0.125
 74
     0
  0
LTYPE
  5
22
100
AcDbSymbolTableRecord
100
AcDbLinetypeTableRecord
  2
BORDERX2
 70
     0
  3
____  ____  .  ____  ____  .  ____  ____  .  __
 72
    65
 73
     6
 40
3.5
 49
1.0
 74
     0
 49
-0.5
 74
     0
 49
1.0
 74
     0
 49
-0.5
 74
     0
 49
0.0
 74
     0
 49
-0.5
 74
     0
  0
LTYPE
  5
23
100
AcDbSymbolTableRecord
100
AcDbLinetypeTableRecord
  2
CENTER
 70
     0
  3
____ _ ____ _ ____ _ ____ _ ____ _ ____ _ ____ 
 72
    65
 73
     4
 40
2.0
 49
1.25
 74
     0
 49
-0.25
 74
     0
 49
0.25
 74
     0
 49
-0.25
 74
     0
  0
LTYPE
  5
24
100
AcDbSymbolTableRecord
100
AcDbLinetypeTableRecord
  2
CENTER2
 70
     0
  3
___ _ ___ _ ___ _ ___ _ ___ _ ___ _ ___ _ ___ _
 72
    65
 73
     4
 40
1.125
 49
0.75
 74
     0
 49
-0.125
 74
     0
 49
0.125
 74
     0
 49
-0.125
 74
     0
  0
LTYPE
  5
25
100
AcDbSymbolTableRecord
100
AcDbLinetypeTableRecord
  2
CENTERX2
 70
     0
  3
________  __  ________  __  ________  __  _____
 72
    65
 73
     4
 40
4.0
 49
2.5
 74
     0
 49
-0.5
 74
     0
 49
0.5
 74
     0
 49
-0.5
 74
     0
  0
LTYPE
  5
26
100
AcDbSymbolTableRecord
100
AcDbLinetypeTableRecord
  2
DASHDOT
 70
     0
  3
__ . __ . __ . __ . __ . __ . __ . __ . __ . __
 72
    65
 73
     4
 40
1.0
 49
0.5
 74
     0
 49
-0.25
 74
     0
 49
0.0
 74
     0
 49
-0.25
 74
     0
  0
LTYPE
  5
27
100
AcDbSymbolTableRecord
100
AcDbLinetypeTableRecord
  2
DASHDOT2
 70
     0
  3
_._._._._._._._._._._._._._._._._._._._._._._._
 72
    65
 73
     4
 40
0.5
 49
0.25
 74
     0
 49
-0.125
 74
     0
 49
0.0
 74
     0
 49
-0.125
 74
     0
  0
LTYPE
  5
28
100
AcDbSymbolTableRecord
100
AcDbLinetypeTableRecord
  2
DASHDOTX2
 70
     0
  3
____  .  ____  .  ____  .  ____  .  ____  .  __
 72
    65
 73
     4
 40
2.0
 49
1.0
 74
     0
 49
-0.5
 74
     0
 49
0.0
 74
     0
 49
-0.5
 74
     0
  0
LTYPE
  5
29
100
AcDbSymbolTableRecord
100
AcDbLinetypeTableRecord
  2
DASHED
 70
     0
  3
__ __ __ __ __ __ __ __ __ __ __ __ __ __ __ __
 72
    65
 73
     2
 40
0.75
 49
0.5
 74
     0
 49
-0.25
 74
     0
  0
LTYPE
  5
2A
100
AcDbSymbolTableRecord
100
AcDbLinetypeTableRecord
  2
DASHED2
 70
     0
  3
_ _ _ _ _ _ _ _ _ _ _ _ _ _ _ _ _ _ _ _ _ _ _ _
 72
    65
 73
     2
 40
0.375
 49
0.25
 74
     0
 49
-0.125
 74
     0
  0
LTYPE
  5
2B
100
AcDbSymbolTableRecord
100
AcDbLinetypeTableRecord
  2
DASHEDX2
 70
     0
  3
____  ____  ____  ____  ____  ____  ____  ____ 
 72
    65
 73
     2
 40
1.5
 49
1.0
 74
     0
 49
-0.5
 74
     0
  0
LTYPE
  5
2C
100
AcDbSymbolTableRecord
100
AcDbLinetypeTableRecord
  2
DIVIDE
 70
     0
  3
____ . . ____ . . ____ . . ____ . . ____ . . __
 72
    65
 73
     6
 40
1.25
 49
0.5
 74
     0
 49
-0.25
 74
     0
 49
0.0
 74
     0
 49
-0.25
 74
     0
 49
0.0
 74
     0
 49
-0.25
 74
     0
  0
LTYPE
  5
2D
100
AcDbSymbolTableRecord
100
AcDbLinetypeTableRecord
  2
DIVIDE2
 70
     0
  3
__..__..__..__..__..__..__..__..__..__..__..__.
 72
    65
 73
     6
 40
0.625
 49
0.25
 74
     0
 49
-0.125
 74
     0
 49
0.0
 74
     0
 49
-0.125
 74
     0
 49
0.0
 74
     0
 49
-0.125
 74
     0
  0
LTYPE
  5
2E
100
AcDbSymbolTableRecord
100
AcDbLinetypeTableRecord
  2
DIVIDEX2
 70
     0
  3
________  .  .  ________  .  .  ________  .  . 
 72
    65
 73
     6
 40
2.5
 49
1.0
 74
     0
 49
-0.5
 74
     0
 49
0.0
 74
     0
 49
-0.5
 74
     0
 49
0.0
 74
     0
 49
-0.5
 74
     0
  0
LTYPE
  5
2F
100
AcDbSymbolTableRecord
100
AcDbLinetypeTableRecord
  2
DOT
 70
     0
  3
. . . . . . . . . . . . . . . . . . . . . . . .
 72
    65
 73
     2
 40
0.25
 49
0.0
 74
     0
 49
-0.25
 74
     0
  0
LTYPE
  5
30
100
AcDbSymbolTableRecord
100
AcDbLinetypeTableRecord
  2
DOT2
 70
     0
  3
...............................................
 72
    65
 73
     2
 40
0.125
 49
0.0
 74
     0
 49
-0.125
 74
     0
  0
LTYPE
  5
31
100
AcDbSymbolTableRecord
100
AcDbLinetypeTableRecord
  2
DOTX2
 70
     0
  3
.  .  .  .  .  .  .  .  .  .  .  .  .  .  .  . 
 72
    65
 73
     2
 40
0.5
 49
0.0
 74
     0
 49
-0.5
 74
     0
  0
LTYPE
  5
32
100
AcDbSymbolTableRecord
100
AcDbLinetypeTableRecord
  2
HIDDEN
 70
     0
  3
__ __ __ __ __ __ __ __ __ __ __ __ __ __ __ __
 72
    65
 73
     2
 40
0.375
 49
0.25
 74
     0
 49
-0.125
 74
     0
  0
LTYPE
  5
33
100
AcDbSymbolTableRecord
100
AcDbLinetypeTableRecord
  2
HIDDEN2
 70
     0
  3
_ _ _ _ _ _ _ _ _ _ _ _ _ _ _ _ _ _ _ _ _ _ _ _
 72
    65
 73
     2
 40
0.1875
 49
0.125
 74
     0
 49
-0.0625
 74
     0
  0
LTYPE
  5
34
100
AcDbSymbolTableRecord
100
AcDbLinetypeTableRecord
  2
HIDDENX2
 70
     0
  3
____ ____ ____ ____ ____ ____ ____ ____ ____ __
 72
    65
 73
     2
 40
0.75
 49
0.5
 74
     0
 49
-0.25
 74
     0
  0
LTYPE
  5
35
100
AcDbSymbolTableRecord
100
AcDbLinetypeTableRecord
  2
PHANTOM
 70
     0
  3
______  __  __  ______  __  __  ______  __  __ 
 72
    65
 73
     6
 40
2.5
 49
1.25
 74
     0
 49
-0.25
 74
     0
 49
0.25
 74
     0
 49
-0.25
 74
     0
 49
0.25
 74
     0
 49
-0.25
 74
     0
  0
LTYPE
  5
36
100
AcDbSymbolTableRecord
100
AcDbLinetypeTableRecord
  2
PHANTOM2
 70
     0
  3
___ _ _ ___ _ _ ___ _ _ ___ _ _ ___ _ _ ___ _ _
 72
    65
 73
     6
 40
1.25
 49
0.625
 74
     0
 49
-0.125
 74
     0
 49
0.125
 74
     0
 49
-0.125
 74
     0
 49
0.125
 74
     0
 49
-0.125
 74
     0
  0
LTYPE
  5
37
100
AcDbSymbolTableRecord
100
AcDbLinetypeTableRecord
  2
PHANTOMX2
 70
     0
  3
____________    ____    ____    ____________   
 72
    65
 73
     6
 40
5.0
 49
2.5
 74
     0
 49
-0.5
 74
     0
 49
0.5
 74
     0
 49
-0.5
 74
     0
 49
0.5
 74
     0
 49
-0.5
 74
     0
  0
ENDTAB
   0
TABLE
   2
LAYER
   5
2
 100
AcDbSymbolTable
  70
2
   0
LAYER
   5
E
 100
AcDbSymbolTableRecord
 100
AcDbLayerTableRecord
   2
0
  70
0
  62
7
   6
CONTINUOUS
 390
30
   0
LAYER
   5
39
 100
AcDbSymbolTableRecord
 100
AcDbLayerTableRecord
   2
LEVEL001
  70
0
  62
7
   6
CONTINUOUS
 390
30
   0
ENDTAB
  0
TABLE
  2
STYLE
  5
3
100
AcDbSymbolTable
  70
3
  0
STYLE
  5
F
100
AcDbSymbolTableRecord
100
AcDbTextStyleTableRecord
  2
STANDARD
 70
     0
 40
0.0
 41
1.0
 50
0.0
 71
     0
 42
0.2
  3
TXT
  4
BIGFONT
  0
STYLE
  5
38
100
AcDbSymbolTableRecord
100
AcDbTextStyleTableRecord
  2
STANDARD1
 70
     4
 40
0.0
 41
1.0
 50
0.0
 71
     0
 42
0.2
  3
TXT
  4
BIGFONT
   0
STYLE
   5
3A
 100
AcDbSymbolTableRecord
 100
AcDbTextStyleTableRecord
   2
GMM001
  70
0
  40
0.0
  41
 0.75000000000000
  50
0.0
  71
     0
  42
1.0
   3
txt.shx
   4
bigfont.shx
   0
ENDTAB
  0
TABLE
  2
VIEW
  5
6
100
AcDbSymbolTable
 70
     0
  0
ENDTAB
  0
TABLE
  2
UCS
  5
7
100
AcDbSymbolTable
 70
     0
  0
ENDTAB
  0
TABLE
  2
APPID
  5
9
100
AcDbSymbolTable
 70
     1
  0
APPID
  5
10
100
AcDbSymbolTableRecord
100
AcDbRegAppTableRecord
  2
ACAD
 70
     0
  0
ENDTAB
   0
TABLE
   2
DIMSTYLE
   5
A
 100
AcDbSymbolTable
  70
8
 100
AcDbDimStyleTable
  0
DIMSTYLE
105
1D
100
AcDbSymbolTableRecord
100
AcDbDimStyleTableRecord
  2
STANDARD
 70
     0
  3

  4

  5

  6

  7

 40
1.0
 41
0.18
 42
0.0625
 43
0.38
 44
0.18
 45
0.0
 46
0.0
 47
0.0
 48
0.0
140
0.18
141
0.09
142
0.0
143
25.4
144
1.0
145
0.0
146
1.0
147
0.09
 71
     0
 72
     0
 73
     1
 74
     1
 75
     0
 76
     0
 77
     0
 78
     0
170
     0
171
     2
172
     0
173
     0
174
     0
175
     0
176
     0
177
     0
178
     0
270
     2
271
     4
272
     4
273
     2
274
     2
340
F
275
     0
280
     0
281
     0
282
     0
283
     1
284
     0
285
     0
286
     0
287
     3
288
     0
   0
DIMSTYLE
 105
3B
 100
AcDbSymbolTableRecord
 100
AcDbDimStyleTableRecord
   2
GMM001
  70
0
   3

   4

   5

   6
_OPEN30
   7
_OPEN30
  40
 1.0000000000000
  41
 3.0000000000000
  42
 0.50000000000000
  43
 8.0000000000000
  44
 1.0000000000000
  45
0.0
  46
0.0
  47
0.0
  48
0.0
 140
 4.0000000000000
 141
 1.0000000000000
 142
0.0
 143
 0.39400000000000E-1
 144
 1.0000000000000
 145
0.0
 146
 0.62500000000000
 147
 1.7142857142857
  71
0
  72
0
  73
0
  74
0
  75
0
  76
0
  77
3
  78
8
 170
0
 171
2
 172
1
 173
1
 174
0
 175
0
 176
3
 177
3
 178
3
 270
2
 271
6
 272
0
 273
2
 274
2
 340
3A
 275
1
 280
0
 281
0
 282
0
 283
1
 284
0
 285
0
 286
0
 287
3
 288
0
   0
DIMSTYLE
 105
3C
 100
AcDbSymbolTableRecord
 100
AcDbDimStyleTableRecord
   2
GMM002
  70
0
   3

   4

   5

   6
_OPEN30
   7
_OPEN30
  40
 1.0000000000000
  41
 3.0000000000000
  42
 0.50000000000000
  43
 8.0000000000000
  44
 1.0000000000000
  45
0.0
  46
0.0
  47
0.0
  48
0.0
 140
 4.0000000000000
 141
 1.0000000000000
 142
0.0
 143
 0.39400000000000E-1
 144
 1.0000000000000
 145
0.0
 146
 0.62500000000000
 147
 0.53433643529576
  71
0
  72
0
  73
0
  74
0
  75
0
  76
0
  77
3
  78
8
 170
0
 171
2
 172
1
 173
1
 174
0
 175
0
 176
3
 177
3
 178
3
 270
2
 271
6
 272
0
 273
2
 274
2
 340
3A
 275
1
 280
0
 281
0
 282
0
 283
1
 284
0
 285
0
 286
0
 287
3
 288
1
   0
DIMSTYLE
 105
3D
 100
AcDbSymbolTableRecord
 100
AcDbDimStyleTableRecord
   2
GMM003
  70
0
   3
R<>
   4

   5

   6
_NONE
   7
_OPEN30
  40
 1.0000000000000
  41
 3.0000000000000
  42
 0.50000000000000
  43
 8.0000000000000
  44
 1.0000000000000
  45
0.0
  46
0.0
  47
0.0
  48
0.0
 140
 4.0000000000000
 141
 1.0000000000000
 142
0.0
 143
 0.39400000000000E-1
 144
 1.0000000000000
 145
0.0
 146
 0.62500000000000
 147
 1.7142857142857
  71
0
  72
0
  73
0
  74
0
  75
0
  76
0
  77
3
  78
8
 170
0
 171
2
 172
1
 173
1
 174
0
 175
0
 176
3
 177
3
 178
3
 270
2
 271
6
 272
0
 273
2
 274
2
 340
3A
 275
1
 280
0
 281
0
 282
0
 283
1
 284
0
 285
0
 286
0
 287
3
 288
1
   0
DIMSTYLE
 105
3E
 100
AcDbSymbolTableRecord
 100
AcDbDimStyleTableRecord
   2
GMM004
  70
0
   3

   4

   5

   6
_OPEN30
   7
_OPEN30
  40
 1.0000000000000
  41
 3.0000000000000
  42
 0.50000000000000
  43
 8.0000000000000
  44
 1.0000000000000
  45
0.0
  46
0.0
  47
0.0
  48
0.0
 140
 4.0000000000000
 141
 1.0000000000000
 142
0.0
 143
 0.39400000000000E-1
 144
 1.0000000000000
 145
0.0
 146
 0.62500000000000
 147
 0.84635816874359
  71
0
  72
0
  73
0
  74
0
  75
0
  76
0
  77
3
  78
8
 170
0
 171
2
 172
1
 173
1
 174
0
 175
0
 176
3
 177
3
 178
3
 270
2
 271
6
 272
0
 273
2
 274
2
 340
3A
 275
1
 280
0
 281
0
 282
0
 283
1
 284
0
 285
0
 286
0
 287
3
 288
1
   0
DIMSTYLE
 105
3F
 100
AcDbSymbolTableRecord
 100
AcDbDimStyleTableRecord
   2
GMM005
  70
0
   3

   4

   5

   6
_OPEN30
   7
_OPEN30
  40
 1.0000000000000
  41
 3.0000000000000
  42
 0.50000000000000
  43
 8.0000000000000
  44
 1.0000000000000
  45
0.0
  46
0.0
  47
0.0
  48
0.0
 140
 4.0000000000000
 141
 1.0000000000000
 142
0.0
 143
 0.39400000000000E-1
 144
 1.0000000000000
 145
0.0
 146
 0.62500000000000
 147
 1.1788488068630
  71
0
  72
0
  73
0
  74
0
  75
0
  76
0
  77
3
  78
8
 170
0
 171
2
 172
1
 173
1
 174
0
 175
0
 176
3
 177
3
 178
3
 270
2
 271
6
 272
0
 273
2
 274
2
 340
3A
 275
1
 280
0
 281
0
 282
0
 283
1
 284
0
 285
0
 286
0
 287
3
 288
1
   0
DIMSTYLE
 105
40
 100
AcDbSymbolTableRecord
 100
AcDbDimStyleTableRecord
   2
GMM006
  70
0
   3

   4

   5

   6
_OPEN30
   7
_OPEN30
  40
 1.0000000000000
  41
 3.0000000000000
  42
 0.50000000000000
  43
 8.0000000000000
  44
 1.0000000000000
  45
0.0
  46
0.0
  47
0.0
  48
0.0
 140
 4.0000000000000
 141
 1.0000000000000
 142
0.0
 143
 0.39400000000000E-1
 144
 1.0000000000000
 145
0.0
 146
 0.62500000000000
 147
 1.4103398638553
  71
0
  72
0
  73
0
  74
0
  75
0
  76
0
  77
3
  78
8
 170
0
 171
2
 172
1
 173
1
 174
0
 175
0
 176
3
 177
3
 178
3
 270
2
 271
6
 272
0
 273
2
 274
2
 340
3A
 275
1
 280
0
 281
0
 282
0
 283
1
 284
0
 285
0
 286
0
 287
3
 288
1
   0
ENDTAB
  0
TABLE
  2
BLOCK_RECORD
  5
1
100
AcDbSymbolTable
 70
     0
  0
BLOCK_RECORD
  5
18
100
AcDbSymbolTableRecord
100
AcDbBlockTableRecord
  2
*MODEL_SPACE
  0
BLOCK_RECORD
  5
15
100
AcDbSymbolTableRecord
100
AcDbBlockTableRecord
  2
*PAPER_SPACE
   0
BLOCK_RECORD
   5
41
 100
AcDbSymbolTableRecord
 100
AcDbBlockTableRecord
   2
*D1
   0
BLOCK_RECORD
   5
42
 100
AcDbSymbolTableRecord
 100
AcDbBlockTableRecord
   2
*D2
   0
BLOCK_RECORD
   5
43
 100
AcDbSymbolTableRecord
 100
AcDbBlockTableRecord
   2
*D3
   0
BLOCK_RECORD
   5
44
 100
AcDbSymbolTableRecord
 100
AcDbBlockTableRecord
   2
*D4
   0
BLOCK_RECORD
   5
45
 100
AcDbSymbolTableRecord
 100
AcDbBlockTableRecord
   2
*D5
   0
BLOCK_RECORD
   5
46
 100
AcDbSymbolTableRecord
 100
AcDbBlockTableRecord
   2
*D6
   0
BLOCK_RECORD
   5
47
 100
AcDbSymbolTableRecord
 100
AcDbBlockTableRecord
   2
*D7
   0
BLOCK_RECORD
   5
48
 100
AcDbSymbolTableRecord
 100
AcDbBlockTableRecord
   2
*D8
   0
BLOCK_RECORD
   5
49
 100
AcDbSymbolTableRecord
 100
AcDbBlockTableRecord
   2
*D9
   0
BLOCK_RECORD
   5
4A
 100
AcDbSymbolTableRecord
 100
AcDbBlockTableRecord
   2
*D10
   0
BLOCK_RECORD
   5
4B
 100
AcDbSymbolTableRecord
 100
AcDbBlockTableRecord
   2
*D11
   0
BLOCK_RECORD
   5
4C
 100
AcDbSymbolTableRecord
 100
AcDbBlockTableRecord
   2
*D12
   0
BLOCK_RECORD
   5
4D
 100
AcDbSymbolTableRecord
 100
AcDbBlockTableRecord
   2
*D13
   0
BLOCK_RECORD
   5
4E
 100
AcDbSymbolTableRecord
 100
AcDbBlockTableRecord
   2
*D14
   0
BLOCK_RECORD
   5
4F
 100
AcDbSymbolTableRecord
 100
AcDbBlockTableRecord
   2
*D15
   0
BLOCK_RECORD
   5
50
 100
AcDbSymbolTableRecord
 100
AcDbBlockTableRecord
   2
*D16
   0
BLOCK_RECORD
   5
51
 100
AcDbSymbolTableRecord
 100
AcDbBlockTableRecord
   2
*D17
   0
BLOCK_RECORD
   5
52
 100
AcDbSymbolTableRecord
 100
AcDbBlockTableRecord
   2
*D18
   0
BLOCK_RECORD
   5
53
 100
AcDbSymbolTableRecord
 100
AcDbBlockTableRecord
   2
*D19
   0
BLOCK_RECORD
   5
54
 100
AcDbSymbolTableRecord
 100
AcDbBlockTableRecord
   2
*D20
   0
BLOCK_RECORD
   5
55
 100
AcDbSymbolTableRecord
 100
AcDbBlockTableRecord
   2
*D21
   0
BLOCK_RECORD
   5
56
 100
AcDbSymbolTableRecord
 100
AcDbBlockTableRecord
   2
*D22
   0
BLOCK_RECORD
   5
57
 100
AcDbSymbolTableRecord
 100
AcDbBlockTableRecord
   2
*D23
   0
BLOCK_RECORD
   5
58
 100
AcDbSymbolTableRecord
 100
AcDbBlockTableRecord
   2
*D24
   0
BLOCK_RECORD
   5
59
 100
AcDbSymbolTableRecord
 100
AcDbBlockTableRecord
   2
*D25
   0
BLOCK_RECORD
   5
5A
 100
AcDbSymbolTableRecord
 100
AcDbBlockTableRecord
   2
*D26
   0
BLOCK_RECORD
   5
5B
 100
AcDbSymbolTableRecord
 100
AcDbBlockTableRecord
   2
*D27
   0
BLOCK_RECORD
   5
5C
 100
AcDbSymbolTableRecord
 100
AcDbBlockTableRecord
   2
*D28
   0
BLOCK_RECORD
   5
5D
 100
AcDbSymbolTableRecord
 100
AcDbBlockTableRecord
   2
*D29
   0
BLOCK_RECORD
   5
5E
 100
AcDbSymbolTableRecord
 100
AcDbBlockTableRecord
   2
*D30
   0
BLOCK_RECORD
   5
5F
 100
AcDbSymbolTableRecord
 100
AcDbBlockTableRecord
   2
*D31
   0
BLOCK_RECORD
   5
60
 100
AcDbSymbolTableRecord
 100
AcDbBlockTableRecord
   2
*D32
   0
BLOCK_RECORD
   5
61
 100
AcDbSymbolTableRecord
 100
AcDbBlockTableRecord
   2
*D33
   0
BLOCK_RECORD
   5
62
 100
AcDbSymbolTableRecord
 100
AcDbBlockTableRecord
   2
*D34
   0
BLOCK_RECORD
   5
63
 100
AcDbSymbolTableRecord
 100
AcDbBlockTableRecord
   2
*D35
   0
BLOCK_RECORD
   5
64
 100
AcDbSymbolTableRecord
 100
AcDbBlockTableRecord
   2
*D36
   0
BLOCK_RECORD
   5
65
 100
AcDbSymbolTableRecord
 100
AcDbBlockTableRecord
   2
*D37
   0
BLOCK_RECORD
   5
66
 100
AcDbSymbolTableRecord
 100
AcDbBlockTableRecord
   2
*D38
   0
BLOCK_RECORD
   5
67
 100
AcDbSymbolTableRecord
 100
AcDbBlockTableRecord
   2
*D39
   0
BLOCK_RECORD
   5
68
 100
AcDbSymbolTableRecord
 100
AcDbBlockTableRecord
   2
*D40
   0
BLOCK_RECORD
   5
69
 100
AcDbSymbolTableRecord
 100
AcDbBlockTableRecord
   2
_ARCHTICK
   0
BLOCK_RECORD
   5
6A
 100
AcDbSymbolTableRecord
 100
AcDbBlockTableRecord
   2
_BOXBLANK
   0
BLOCK_RECORD
   5
6B
 100
AcDbSymbolTableRecord
 100
AcDbBlockTableRecord
   2
_BOXFILLED
   0
BLOCK_RECORD
   5
6C
 100
AcDbSymbolTableRecord
 100
AcDbBlockTableRecord
   2
_CLOSED
   0
BLOCK_RECORD
   5
6D
 100
AcDbSymbolTableRecord
 100
AcDbBlockTableRecord
   2
_CLOSEDBLANK
   0
BLOCK_RECORD
   5
6E
 100
AcDbSymbolTableRecord
 100
AcDbBlockTableRecord
   2
_DATUMBLANK
   0
BLOCK_RECORD
   5
6F
 100
AcDbSymbolTableRecord
 100
AcDbBlockTableRecord
   2
_DATUMFILLED
   0
BLOCK_RECORD
   5
70
 100
AcDbSymbolTableRecord
 100
AcDbBlockTableRecord
   2
_DOT
   0
BLOCK_RECORD
   5
71
 100
AcDbSymbolTableRecord
 100
AcDbBlockTableRecord
   2
_DOTBLANK
   0
BLOCK_RECORD
   5
72
 100
AcDbSymbolTableRecord
 100
AcDbBlockTableRecord
   2
_DOTSMALL
   0
BLOCK_RECORD
   5
73
 100
AcDbSymbolTableRecord
 100
AcDbBlockTableRecord
   2
_INTEGRAL
   0
BLOCK_RECORD
   5
74
 100
AcDbSymbolTableRecord
 100
AcDbBlockTableRecord
   2
_NONE
   0
BLOCK_RECORD
   5
75
 100
AcDbSymbolTableRecord
 100
AcDbBlockTableRecord
   2
_OBLIQUE
   0
BLOCK_RECORD
   5
76
 100
AcDbSymbolTableRecord
 100
AcDbBlockTableRecord
   2
_OPEN
   0
BLOCK_RECORD
   5
77
 100
AcDbSymbolTableRecord
 100
AcDbBlockTableRecord
   2
_OPEN30
   0
BLOCK_RECORD
   5
78
 100
AcDbSymbolTableRecord
 100
AcDbBlockTableRecord
   2
_OPEN90
   0
BLOCK_RECORD
   5
79
 100
AcDbSymbolTableRecord
 100
AcDbBlockTableRecord
   2
_ORIGIN
   0
ENDTAB
   0
ENDSEC
  0
SECTION
  2
BLOCKS
  0
BLOCK
  5
19
100
AcDbEntity
  8
0
100
AcDbBlockBegin
  2
*MODEL_SPACE
 70
     0
 10
0.0
 20
0.0
 30
0.0
  3
*MODEL_SPACE
  1

  0
ENDBLK
  5
1A
100
AcDbEntity
  8
0
100
AcDbBlockEnd
  0
BLOCK
  5
16
100
AcDbEntity
 67
     1
  8
0
100
AcDbBlockBegin
  2
*PAPER_SPACE
 70
     0
 10
0.0
 20
0.0
 30
0.0
  3
*PAPER_SPACE
  1

  0
ENDBLK
  5
17
100
AcDbEntity
 67
     1
  8
0
100
AcDbBlockEnd
   0
BLOCK
   5
7A
 100
AcDbEntity
   8
0
 100
AcDbBlockBegin
   2
_ARCHTICK
  70
0
  10
0.0
  20
0.0
  30
0.0
   3
_ARCHTICK
   0
POLYLINE
   5
7B
 100
AcDbEntity
   8
0
   6
BYBLOCK
  62
0
 100
AcDb2dPolyline
  66
1
  10
0.0
  20
0.0
  30
0.0
  70
1
  40
 0.15000000000000
  41
 0.15000000000000
   0
VERTEX
   5
7C
 100
AcDbEntity
   8
0
   6
BYBLOCK
  62
0
 100
AcDbVertex
 100
AcDb2dVertex
  10
-0.50000000000000
  20
-0.50000000000000
  30
0.0
  40
 0.15000000000000
  41
 0.15000000000000
   0
VERTEX
   5
7D
 100
AcDbEntity
   8
0
   6
BYBLOCK
  62
0
 100
AcDbVertex
 100
AcDb2dVertex
  10
 0.50000000000000
  20
 0.50000000000000
  30
0.0
  40
 0.15000000000000
  41
 0.15000000000000
   0
SEQEND
   5
7E
 100
AcDbEntity
   8
0
   6
BYBLOCK
  62
0
   0
ENDBLK
   5
7F
 100
AcDbEntity
   8
0
 100
AcDbBlockEnd
   0
BLOCK
   5
80
 100
AcDbEntity
   8
0
 100
AcDbBlockBegin
   2
_OBLIQUE
  70
0
  10
0.0
  20
0.0
  30
0.0
   3
_OBLIQUE
   0
LINE
   5
81
 100
AcDbEntity
   8
0
 100
AcDbLine
   6
BYBLOCK
  62
0
  10
-0.50000000000000
  20
-0.50000000000000
  30
0.0
  11
 0.50000000000000
  21
 0.50000000000000
  31
0.0
   0
ENDBLK
   5
82
 100
AcDbEntity
   8
0
 100
AcDbBlockEnd
   0
BLOCK
   5
83
 100
AcDbEntity
   8
0
 100
AcDbBlockBegin
   2
_BOXBLANK
  70
0
  10
0.0
  20
0.0
  30
0.0
   3
_BOXBLANK
   0
LINE
   5
84
 100
AcDbEntity
   8
0
 100
AcDbLine
   6
BYBLOCK
  62
0
  10
-0.50000000000000
  20
-0.50000000000000
  30
0.0
  11
 0.50000000000000
  21
-0.50000000000000
  31
0.0
   0
LINE
   5
85
 100
AcDbEntity
   8
0
 100
AcDbLine
   6
BYBLOCK
  62
0
  10
 0.50000000000000
  20
-0.50000000000000
  30
0.0
  11
 0.50000000000000
  21
 0.50000000000000
  31
0.0
   0
LINE
   5
86
 100
AcDbEntity
   8
0
 100
AcDbLine
   6
BYBLOCK
  62
0
  10
 0.50000000000000
  20
 0.50000000000000
  30
0.0
  11
-0.50000000000000
  21
 0.50000000000000
  31
0.0
   0
LINE
   5
87
 100
AcDbEntity
   8
0
 100
AcDbLine
   6
BYBLOCK
  62
0
  10
-0.50000000000000
  20
 0.50000000000000
  30
0.0
  11
-0.50000000000000
  21
-0.50000000000000
  31
0.0
   0
LINE
   5
88
 100
AcDbEntity
   8
0
 100
AcDbLine
   6
BYBLOCK
  62
0
  10
-0.50000000000000
  20
0.0
  30
0.0
  11
-1.0000000000000
  21
0.0
  31
0.0
   0
ENDBLK
   5
89
 100
AcDbEntity
   8
0
 100
AcDbBlockEnd
   0
BLOCK
   5
8A
 100
AcDbEntity
   8
0
 100
AcDbBlockBegin
   2
_BOXFILLED
  70
0
  10
0.0
  20
0.0
  30
0.0
   3
_BOXFILLED
   0
SOLID
   5
8B
 100
AcDbEntity
   8
0
 100
AcDbTrace
   6
BYBLOCK
  62
0
  10
-0.50000000000000
  20
 0.50000000000000
  30
0.0
  11
 0.50000000000000
  21
 0.50000000000000
  31
0.0
  12
-0.50000000000000
  22
-0.50000000000000
  32
0.0
  13
 0.50000000000000
  23
-0.50000000000000
  33
0.0
   0
LINE
   5
8C
 100
AcDbEntity
   8
0
 100
AcDbLine
   6
BYBLOCK
  62
0
  10
-0.50000000000000
  20
0.0
  30
0.0
  11
-1.0000000000000
  21
0.0
  31
0.0
   0
ENDBLK
   5
8D
 100
AcDbEntity
   8
0
 100
AcDbBlockEnd
   0
BLOCK
   5
8E
 100
AcDbEntity
   8
0
 100
AcDbBlockBegin
   2
_CLOSED
  70
0
  10
0.0
  20
0.0
  30
0.0
   3
_CLOSED
   0
LINE
   5
8F
 100
AcDbEntity
   8
0
 100
AcDbLine
   6
BYBLOCK
  62
0
  10
-1.0000000000000
  20
 0.16666666666667
  30
0.0
  11
0.0
  21
0.0
  31
0.0
   0
LINE
   5
90
 100
AcDbEntity
   8
0
 100
AcDbLine
   6
BYBLOCK
  62
0
  10
0.0
  20
0.0
  30
0.0
  11
-1.0000000000000
  21
-0.16666666666667
  31
0.0
   0
LINE
   5
91
 100
AcDbEntity
   8
0
 100
AcDbLine
   6
BYBLOCK
  62
0
  10
-1.0000000000000
  20
 0.16666666666667
  30
0.0
  11
-1.0000000000000
  21
-0.16666666666667
  31
0.0
   0
LINE
   5
92
 100
AcDbEntity
   8
0
 100
AcDbLine
   6
BYBLOCK
  62
0
  10
0.0
  20
0.0
  30
0.0
  11
-1.0000000000000
  21
0.0
  31
0.0
   0
ENDBLK
   5
93
 100
AcDbEntity
   8
0
 100
AcDbBlockEnd
   0
BLOCK
   5
94
 100
AcDbEntity
   8
0
 100
AcDbBlockBegin
   2
_OPEN
  70
0
  10
0.0
  20
0.0
  30
0.0
   3
_OPEN
   0
LINE
   5
95
 100
AcDbEntity
   8
0
 100
AcDbLine
   6
BYBLOCK
  62
0
  10
-1.0000000000000
  20
 0.16666666666667
  30
0.0
  11
0.0
  21
0.0
  31
0.0
   0
LINE
   5
96
 100
AcDbEntity
   8
0
 100
AcDbLine
   6
BYBLOCK
  62
0
  10
0.0
  20
0.0
  30
0.0
  11
-1.0000000000000
  21
-0.16666666666667
  31
0.0
   0
LINE
   5
97
 100
AcDbEntity
   8
0
 100
AcDbLine
   6
BYBLOCK
  62
0
  10
0.0
  20
0.0
  30
0.0
  11
-1.0000000000000
  21
0.0
  31
0.0
   0
ENDBLK
   5
98
 100
AcDbEntity
   8
0
 100
AcDbBlockEnd
   0
BLOCK
   5
99
 100
AcDbEntity
   8
0
 100
AcDbBlockBegin
   2
_OPEN30
  70
0
  10
0.0
  20
0.0
  30
0.0
   3
_OPEN30
   0
LINE
   5
9A
 100
AcDbEntity
   8
0
 100
AcDbLine
   6
BYBLOCK
  62
0
  10
-1.0000000000000
  20
 0.26794919243110
  30
0.0
  11
0.0
  21
0.0
  31
0.0
   0
LINE
   5
9B
 100
AcDbEntity
   8
0
 100
AcDbLine
   6
BYBLOCK
  62
0
  10
0.0
  20
0.0
  30
0.0
  11
-1.0000000000000
  21
-0.26794919243110
  31
0.0
   0
LINE
   5
9C
 100
AcDbEntity
   8
0
 100
AcDbLine
   6
BYBLOCK
  62
0
  10
0.0
  20
0.0
  30
0.0
  11
-1.0000000000000
  21
0.0
  31
0.0
   0
ENDBLK
   5
9D
 100
AcDbEntity
   8
0
 100
AcDbBlockEnd
   0
BLOCK
   5
9E
 100
AcDbEntity
   8
0
 100
AcDbBlockBegin
   2
_OPEN90
  70
0
  10
0.0
  20
0.0
  30
0.0
   3
_OPEN90
   0
LINE
   5
9F
 100
AcDbEntity
   8
0
 100
AcDbLine
   6
BYBLOCK
  62
0
  10
-0.50000000000000
  20
 0.50000000000000
  30
0.0
  11
0.0
  21
0.0
  31
0.0
   0
LINE
   5
A0
 100
AcDbEntity
   8
0
 100
AcDbLine
   6
BYBLOCK
  62
0
  10
0.0
  20
0.0
  30
0.0
  11
-0.50000000000000
  21
-0.50000000000000
  31
0.0
   0
LINE
   5
A1
 100
AcDbEntity
   8
0
 100
AcDbLine
   6
BYBLOCK
  62
0
  10
0.0
  20
0.0
  30
0.0
  11
-1.0000000000000
  21
0.0
  31
0.0
   0
ENDBLK
   5
A2
 100
AcDbEntity
   8
0
 100
AcDbBlockEnd
   0
BLOCK
   5
A3
 100
AcDbEntity
   8
0
 100
AcDbBlockBegin
   2
_CLOSEDBLANK
  70
0
  10
0.0
  20
0.0
  30
0.0
   3
_CLOSEDBLANK
   0
LINE
   5
A4
 100
AcDbEntity
   8
0
 100
AcDbLine
   6
BYBLOCK
  62
0
  10
-1.0000000000000
  20
 0.16666666666667
  30
0.0
  11
0.0
  21
0.0
  31
0.0
   0
LINE
   5
A5
 100
AcDbEntity
   8
0
 100
AcDbLine
   6
BYBLOCK
  62
0
  10
0.0
  20
0.0
  30
0.0
  11
-1.0000000000000
  21
-0.16666666666667
  31
0.0
   0
LINE
   5
A6
 100
AcDbEntity
   8
0
 100
AcDbLine
   6
BYBLOCK
  62
0
  10
-1.0000000000000
  20
 0.16666666666667
  30
0.0
  11
-1.0000000000000
  21
-0.16666666666667
  31
0.0
   0
ENDBLK
   5
A7
 100
AcDbEntity
   8
0
 100
AcDbBlockEnd
   0
BLOCK
   5
A8
 100
AcDbEntity
   8
0
 100
AcDbBlockBegin
   2
_DOT
  70
0
  10
0.0
  20
0.0
  30
0.0
   3
_DOT
   0
POLYLINE
   5
A9
 100
AcDbEntity
   8
0
   6
BYBLOCK
  62
0
 100
AcDb2dPolyline
  66
1
  10
0.0
  20
0.0
  30
0.0
  70
1
  40
 0.50000000000000
  41
 0.50000000000000
   0
VERTEX
   5
AA
 100
AcDbEntity
   8
0
   6
BYBLOCK
  62
0
 100
AcDbVertex
 100
AcDb2dVertex
  10
-0.25000000000000
  20
0.0
  30
0.0
  42
 1.0000000000000
  40
 0.50000000000000
  41
 0.50000000000000
   0
VERTEX
   5
AB
 100
AcDbEntity
   8
0
   6
BYBLOCK
  62
0
 100
AcDbVertex
 100
AcDb2dVertex
  10
 0.25000000000000
  20
0.0
  30
0.0
  42
 1.0000000000000
  40
 0.50000000000000
  41
 0.50000000000000
   0
SEQEND
   5
AC
 100
AcDbEntity
   8
0
   6
BYBLOCK
  62
0
   0
LINE
   5
AD
 100
AcDbEntity
   8
0
 100
AcDbLine
   6
BYBLOCK
  62
0
  10
-0.50000000000000
  20
0.0
  30
0.0
  11
-1.0000000000000
  21
0.0
  31
0.0
   0
ENDBLK
   5
AE
 100
AcDbEntity
   8
0
 100
AcDbBlockEnd
   0
BLOCK
   5
AF
 100
AcDbEntity
   8
0
 100
AcDbBlockBegin
   2
_DOTSMALL
  70
0
  10
0.0
  20
0.0
  30
0.0
   3
_DOTSMALL
   0
POLYLINE
   5
B0
 100
AcDbEntity
   8
0
   6
BYBLOCK
  62
0
 100
AcDb2dPolyline
  66
1
  10
0.0
  20
0.0
  30
0.0
  70
1
  40
 0.50000000000000
  41
 0.50000000000000
   0
VERTEX
   5
B1
 100
AcDbEntity
   8
0
   6
BYBLOCK
  62
0
 100
AcDbVertex
 100
AcDb2dVertex
  10
-0.62500000000000E-1
  20
0.0
  30
0.0
  42
 1.0000000000000
  40
 0.50000000000000
  41
 0.50000000000000
   0
VERTEX
   5
B2
 100
AcDbEntity
   8
0
   6
BYBLOCK
  62
0
 100
AcDbVertex
 100
AcDb2dVertex
  10
 0.62500000000000E-1
  20
0.0
  30
0.0
  42
 1.0000000000000
  40
 0.50000000000000
  41
 0.50000000000000
   0
SEQEND
   5
B3
 100
AcDbEntity
   8
0
   6
BYBLOCK
  62
0
   0
ENDBLK
   5
B4
 100
AcDbEntity
   8
0
 100
AcDbBlockEnd
   0
BLOCK
   5
B5
 100
AcDbEntity
   8
0
 100
AcDbBlockBegin
   2
_DATUMBLANK
  70
0
  10
0.0
  20
0.0
  30
0.0
   3
_DATUMBLANK
   0
LINE
   5
B6
 100
AcDbEntity
   8
0
 100
AcDbLine
   6
BYBLOCK
  62
0
  10
0.0
  20
 0.57735027000000
  30
0.0
  11
-1.0000000000000
  21
0.0
  31
0.0
   0
LINE
   5
B7
 100
AcDbEntity
   8
0
 100
AcDbLine
   6
BYBLOCK
  62
0
  10
-1.0000000000000
  20
0.0
  30
0.0
  11
0.0
  21
-0.57735027000000
  31
0.0
   0
LINE
   5
B8
 100
AcDbEntity
   8
0
 100
AcDbLine
   6
BYBLOCK
  62
0
  10
0.0
  20
-0.57735027000000
  30
0.0
  11
0.0
  21
 0.57735027000000
  31
0.0
   0
ENDBLK
   5
B9
 100
AcDbEntity
   8
0
 100
AcDbBlockEnd
   0
BLOCK
   5
BA
 100
AcDbEntity
   8
0
 100
AcDbBlockBegin
   2
_DATUMFILLED
  70
0
  10
0.0
  20
0.0
  30
0.0
   3
_DATUMFILLED
   0
SOLID
   5
BB
 100
AcDbEntity
   8
0
 100
AcDbTrace
   6
BYBLOCK
  62
0
  10
0.0
  20
 0.57735027000000
  30
0.0
  11
-1.0000000000000
  21
0.0
  31
0.0
  12
0.0
  22
-0.57735027000000
  32
0.0
  13
0.0
  23
-0.57735027000000
  33
0.0
   0
ENDBLK
   5
BC
 100
AcDbEntity
   8
0
 100
AcDbBlockEnd
   0
BLOCK
   5
BD
 100
AcDbEntity
   8
0
 100
AcDbBlockBegin
   2
_ORIGIN
  70
0
  10
0.0
  20
0.0
  30
0.0
   3
_ORIGIN
   0
CIRCLE
   5
BE
 100
AcDbEntity
   8
0
 100
AcDbCircle
   6
BYBLOCK
  62
0
  10
0.0
  20
0.0
  30
0.0
  40
 0.50000000000000
   0
LINE
   5
BF
 100
AcDbEntity
   8
0
 100
AcDbLine
   6
BYBLOCK
  62
0
  10
0.0
  20
0.0
  30
0.0
  11
-1.0000000000000
  21
0.0
  31
0.0
   0
ENDBLK
   5
C0
 100
AcDbEntity
   8
0
 100
AcDbBlockEnd
   0
BLOCK
   5
C1
 100
AcDbEntity
   8
0
 100
AcDbBlockBegin
   2
_NONE
  70
0
  10
0.0
  20
0.0
  30
0.0
   3
_NONE
   0
CIRCLE
   5
C2
 100
AcDbEntity
   8
0
 100
AcDbCircle
   6
BYBLOCK
  62
0
  10
0.0
  20
0.0
  30
0.0
  40
 0.25000000000000
   0
ENDBLK
   5
C3
 100
AcDbEntity
   8
0
 100
AcDbBlockEnd
   0
BLOCK
   5
C4
 100
AcDbEntity
   8
0
 100
AcDbBlockBegin
   2
_DOTBLANK
  70
0
  10
0.0
  20
0.0
  30
0.0
   3
_DOTBLANK
   0
CIRCLE
   5
C5
 100
AcDbEntity
   8
0
 100
AcDbCircle
   6
BYBLOCK
  62
0
  10
0.0
  20
0.0
  30
0.0
  40
 0.50000000000000
   0
LINE
   5
C6
 100
AcDbEntity
   8
0
 100
AcDbLine
   6
BYBLOCK
  62
0
  10
-0.50000000000000
  20
0.0
  30
0.0
  11
-1.0000000000000
  21
0.0
  31
0.0
   0
ENDBLK
   5
C7
 100
AcDbEntity
   8
0
 100
AcDbBlockEnd
   0
BLOCK
   5
C8
 100
AcDbEntity
   8
0
 100
AcDbBlockBegin
   2
_INTEGRAL
  70
0
  10
0.0
  20
0.0
  30
0.0
   3
_INTEGRAL
   0
ARC
   5
C9
 100
AcDbEntity
   8
0
   6
BYBLOCK
  62
0
 100
AcDbCircle
  10
 0.44488800000000
  20
-0.91335000000000E-1
  30
0.0
  40
 0.45416700000000
 100
AcDbArc
  50
 102.00000000000
  51
 168.00000000000
   0
ARC
   5
CA
 100
AcDbEntity
   8
0
   6
BYBLOCK
  62
0
 100
AcDbCircle
  10
-0.44488800000000
  20
 0.91335000000000E-1
  30
0.0
  40
 0.45416700000000
 100
AcDbArc
  50
 282.00000000000
  51
 348.00000000000
   0
ENDBLK
   5
CB
 100
AcDbEntity
   8
0
 100
AcDbBlockEnd
   0
BLOCK
   5
CC
 100
AcDbEntity
   8
0
 100
AcDbBlockBegin
   2
*D1
  70
65
  10
0.0
  20
0.0
  30
0.0
   3
*D1
   0
LINE
   5
CD
 100
AcDbEntity
   8
LEVEL001
 100
AcDbLine
   6
CONTINUOUS
  62
3
  10
 44.414775186927
  20
 190.99740065234
  30
0.0
  11
 44.414775186927
  21
 175.85742641814
  31
0.0
   0
LINE
   5
CE
 100
AcDbEntity
   8
LEVEL001
 100
AcDbLine
   6
CONTINUOUS
  62
3
  10
 65.414775186927
  20
 190.99740065234
  30
0.0
  11
 65.414775186927
  21
 175.85742641814
  31
0.0
   0
LINE
   5
CF
 100
AcDbEntity
   8
LEVEL001
 100
AcDbLine
   6
CONTINUOUS
  62
3
  10
 44.414775186927
  20
 176.85742641814
  30
0.0
  11
 54.914775186927
  21
 176.85742641814
  31
0.0
   0
LINE
   5
D0
 100
AcDbEntity
   8
LEVEL001
 100
AcDbLine
   6
CONTINUOUS
  62
3
  10
 65.414775186927
  20
 176.85742641814
  30
0.0
  11
 54.914775186927
  21
 176.85742641814
  31
0.0
   0
INSERT
   5
D1
 100
AcDbEntity
   8
LEVEL001
   6
CONTINUOUS
  62
3
 100
AcDbBlockReference
   2
_OPEN30
  10
 44.414775186927
  20
 176.85742641814
  30
0.0
  41
 3.0000000000000
  42
 3.0000000000000
  43
 3.0000000000000
  50
 180.00000000000
   0
INSERT
   5
D2
 100
AcDbEntity
   8
LEVEL001
   6
CONTINUOUS
  62
3
 100
AcDbBlockReference
   2
_OPEN30
  10
 65.414775186927
  20
 176.85742641814
  30
0.0
  41
 3.0000000000000
  42
 3.0000000000000
  43
 3.0000000000000
  50
0.0
   0
MTEXT
   5
D3
 100
AcDbEntity
   8
LEVEL001
  62
3
 100
AcDbMText
  10
 54.914775186927
  20
 178.57171213243
  30
0.0
  40
 4.0000000000000
  41
0.0
  71
8
  72
1
   1
\A1;21
   7
GMM001
   0
ENDBLK
   5
D4
 100
AcDbEntity
   8
0
 100
AcDbBlockEnd
   0
BLOCK
   5
D5
 100
AcDbEntity
   8
0
 100
AcDbBlockBegin
   2
*D2
  70
65
  10
0.0
  20
0.0
  30
0.0
   3
*D2
   0
LINE
   5
D6
 100
AcDbEntity
   8
LEVEL001
 100
AcDbLine
   6
CONTINUOUS
  62
3
  10
 287.41477518693
  20
 190.99740065234
  30
0.0
  11
 287.41477518693
  21
 175.85742641814
  31
0.0
   0
LINE
   5
D7
 100
AcDbEntity
   8
LEVEL001
 100
AcDbLine
   6
CONTINUOUS
  62
3
  10
 65.414775186927
  20
 176.85742641814
  30
0.0
  11
 176.41477518693
  21
 176.85742641814
  31
0.0
   0
LINE
   5
D8
 100
AcDbEntity
   8
LEVEL001
 100
AcDbLine
   6
CONTINUOUS
  62
3
  10
 287.41477518693
  20
 176.85742641814
  30
0.0
  11
 176.41477518693
  21
 176.85742641814
  31
0.0
   0
INSERT
   5
D9
 100
AcDbEntity
   8
LEVEL001
   6
CONTINUOUS
  62
3
 100
AcDbBlockReference
   2
_OPEN30
  10
 65.414775186927
  20
 176.85742641814
  30
0.0
  41
 3.0000000000000
  42
 3.0000000000000
  43
 3.0000000000000
  50
 180.00000000000
   0
INSERT
   5
DA
 100
AcDbEntity
   8
LEVEL001
   6
CONTINUOUS
  62
3
 100
AcDbBlockReference
   2
_OPEN30
  10
 287.41477518693
  20
 176.85742641814
  30
0.0
  41
 3.0000000000000
  42
 3.0000000000000
  43
 3.0000000000000
  50
0.0
   0
MTEXT
   5
DB
 100
AcDbEntity
   8
LEVEL001
  62
3
 100
AcDbMText
  10
 176.41477518693
  20
 178.57171213243
  30
0.0
  40
 4.0000000000000
  41
0.0
  71
8
  72
1
   1
\A1;222
   7
GMM001
   0
ENDBLK
   5
DC
 100
AcDbEntity
   8
0
 100
AcDbBlockEnd
   0
BLOCK
   5
DD
 100
AcDbEntity
   8
0
 100
AcDbBlockBegin
   2
*D3
  70
65
  10
0.0
  20
0.0
  30
0.0
   3
*D3
   0
LINE
   5
DE
 100
AcDbEntity
   8
LEVEL001
 100
AcDbLine
   6
CONTINUOUS
  62
3
  10
 308.41477518693
  20
 190.99740065234
  30
0.0
  11
 308.41477518693
  21
 175.85742641814
  31
0.0
   0
LINE
   5
DF
 100
AcDbEntity
   8
LEVEL001
 100
AcDbLine
   6
CONTINUOUS
  62
3
  10
 287.41477518693
  20
 176.85742641814
  30
0.0
  11
 297.91477518693
  21
 176.85742641814
  31
0.0
   0
LINE
   5
E0
 100
AcDbEntity
   8
LEVEL001
 100
AcDbLine
   6
CONTINUOUS
  62
3
  10
 308.41477518693
  20
 176.85742641814
  30
0.0
  11
 297.91477518693
  21
 176.85742641814
  31
0.0
   0
INSERT
   5
E1
 100
AcDbEntity
   8
LEVEL001
   6
CONTINUOUS
  62
3
 100
AcDbBlockReference
   2
_OPEN30
  10
 287.41477518693
  20
 176.85742641814
  30
0.0
  41
 3.0000000000000
  42
 3.0000000000000
  43
 3.0000000000000
  50
 180.00000000000
   0
INSERT
   5
E2
 100
AcDbEntity
   8
LEVEL001
   6
CONTINUOUS
  62
3
 100
AcDbBlockReference
   2
_OPEN30
  10
 308.41477518693
  20
 176.85742641814
  30
0.0
  41
 3.0000000000000
  42
 3.0000000000000
  43
 3.0000000000000
  50
0.0
   0
MTEXT
   5
E3
 100
AcDbEntity
   8
LEVEL001
  62
3
 100
AcDbMText
  10
 297.91477518693
  20
 178.57171213243
  30
0.0
  40
 4.0000000000000
  41
0.0
  71
8
  72
1
   1
\A1;21
   7
GMM001
   0
ENDBLK
   5
E4
 100
AcDbEntity
   8
0
 100
AcDbBlockEnd
   0
BLOCK
   5
E5
 100
AcDbEntity
   8
0
 100
AcDbBlockBegin
   2
*D4
  70
65
  10
0.0
  20
0.0
  30
0.0
   3
*D4
   0
LINE
   5
E6
 100
AcDbEntity
   8
LEVEL001
 100
AcDbLine
   6
CONTINUOUS
  62
3
  10
 286.91477518693
  20
 191.49740065234
  30
0.0
  11
 278.73062236603
  21
 191.49740065234
  31
0.0
   0
LINE
   5
E7
 100
AcDbEntity
   8
LEVEL001
 100
AcDbLine
   6
CONTINUOUS
  62
3
  10
 286.91477518693
  20
 197.49740065234
  30
0.0
  11
 278.73062236603
  21
 197.49740065234
  31
0.0
   0
LINE
   5
E8
 100
AcDbEntity
   8
LEVEL001
 100
AcDbLine
   6
CONTINUOUS
  62
3
  10
 279.73062236603
  20
 191.49740065234
  30
0.0
  11
 279.73062236603
  21
 194.49740065234
  31
0.0
   0
LINE
   5
E9
 100
AcDbEntity
   8
LEVEL001
 100
AcDbLine
   6
CONTINUOUS
  62
3
  10
 279.73062236603
  20
 197.49740065234
  30
0.0
  11
 279.73062236603
  21
 194.49740065234
  31
0.0
   0
INSERT
   5
EA
 100
AcDbEntity
   8
LEVEL001
   6
CONTINUOUS
  62
3
 100
AcDbBlockReference
   2
_OPEN30
  10
 279.73062236603
  20
 191.49740065234
  30
0.0
  41
 3.0000000000000
  42
 3.0000000000000
  43
 3.0000000000000
  50
 270.00000000000
   0
INSERT
   5
EB
 100
AcDbEntity
   8
LEVEL001
   6
CONTINUOUS
  62
3
 100
AcDbBlockReference
   2
_OPEN30
  10
 279.73062236603
  20
 197.49740065234
  30
0.0
  41
 3.0000000000000
  42
 3.0000000000000
  43
 3.0000000000000
  50
 90.000000000000
   0
MTEXT
   5
EC
 100
AcDbEntity
   8
LEVEL001
  62
3
 100
AcDbMText
  10
 278.01633665174
  20
 194.49740065234
  30
0.0
  40
 4.0000000000000
  41
0.0
  71
8
  72
1
   1
\A1;6
   7
GMM001
  11
0.0
  21
 1.0000000000000
  31
0.0
   0
ENDBLK
   5
ED
 100
AcDbEntity
   8
0
 100
AcDbBlockEnd
   0
BLOCK
   5
EE
 100
AcDbEntity
   8
0
 100
AcDbBlockBegin
   2
*D5
  70
65
  10
0.0
  20
0.0
  30
0.0
   3
*D5
   0
LINE
   5
EF
 100
AcDbEntity
   8
LEVEL001
 100
AcDbLine
   6
CONTINUOUS
  62
3
  10
 176.91477518693
  20
 225.49740065234
  30
0.0
  11
 187.19123060738
  21
 225.49740065234
  31
0.0
   0
LINE
   5
F0
 100
AcDbEntity
   8
LEVEL001
 100
AcDbLine
   6
CONTINUOUS
  62
3
  10
 176.91477518693
  20
 219.49740065234
  30
0.0
  11
 187.19123060738
  21
 219.49740065234
  31
0.0
   0
LINE
   5
F1
 100
AcDbEntity
   8
LEVEL001
 100
AcDbLine
   6
CONTINUOUS
  62
3
  10
 186.19123060738
  20
 229.24740065234
  30
0.0
  11
 186.19123060738
  21
 222.49740065234
  31
0.0
   0
LINE
   5
F2
 100
AcDbEntity
   8
LEVEL001
 100
AcDbLine
   6
CONTINUOUS
  62
3
  10
 186.19123060738
  20
 214.07210212629
  30
0.0
  11
 186.19123060738
  21
 222.49740065234
  31
0.0
   0
INSERT
   5
F3
 100
AcDbEntity
   8
LEVEL001
   6
CONTINUOUS
  62
3
 100
AcDbBlockReference
   2
_OPEN30
  10
 186.19123060738
  20
 225.49740065234
  30
0.0
  41
 3.0000000000000
  42
 3.0000000000000
  43
 3.0000000000000
  50
 270.00000000000
   0
INSERT
   5
F4
 100
AcDbEntity
   8
LEVEL001
   6
CONTINUOUS
  62
3
 100
AcDbBlockReference
   2
_OPEN30
  10
 186.19123060738
  20
 219.49740065234
  30
0.0
  41
 3.0000000000000
  42
 3.0000000000000
  43
 3.0000000000000
  50
 90.000000000000
   0
MTEXT
   5
F5
 100
AcDbEntity
   8
LEVEL001
  62
3
 100
AcDbMText
  10
 185.65689417209
  20
 217.07210212629
  30
0.0
  40
 4.0000000000000
  41
0.0
  71
9
  72
1
   1
\A1;6
   7
GMM001
  11
0.0
  21
 1.0000000000000
  31
0.0
   0
ENDBLK
   5
F6
 100
AcDbEntity
   8
0
 100
AcDbBlockEnd
   0
BLOCK
   5
F7
 100
AcDbEntity
   8
0
 100
AcDbBlockBegin
   2
*D6
  70
65
  10
0.0
  20
0.0
  30
0.0
   3
*D6
   0
LINE
   5
F8
 100
AcDbEntity
   8
LEVEL001
 100
AcDbLine
   6
CONTINUOUS
  62
3
  10
 308.91477518693
  20
 191.49740065234
  30
0.0
  11
 320.55272287061
  21
 191.49740065234
  31
0.0
   0
LINE
   5
F9
 100
AcDbEntity
   8
LEVEL001
 100
AcDbLine
   6
CONTINUOUS
  62
3
  10
 308.91477518693
  20
 209.49740065234
  30
0.0
  11
 320.55272287061
  21
 209.49740065234
  31
0.0
   0
LINE
   5
FA
 100
AcDbEntity
   8
LEVEL001
 100
AcDbLine
   6
CONTINUOUS
  62
3
  10
 319.55272287061
  20
 191.49740065234
  30
0.0
  11
 319.55272287061
  21
 200.49740065234
  31
0.0
   0
LINE
   5
FB
 100
AcDbEntity
   8
LEVEL001
 100
AcDbLine
   6
CONTINUOUS
  62
3
  10
 319.55272287061
  20
 209.49740065234
  30
0.0
  11
 319.55272287061
  21
 200.49740065234
  31
0.0
   0
INSERT
   5
FC
 100
AcDbEntity
   8
LEVEL001
   6
CONTINUOUS
  62
3
 100
AcDbBlockReference
   2
_OPEN30
  10
 319.55272287061
  20
 191.49740065234
  30
0.0
  41
 3.0000000000000
  42
 3.0000000000000
  43
 3.0000000000000
  50
 270.00000000000
   0
INSERT
   5
FD
 100
AcDbEntity
   8
LEVEL001
   6
CONTINUOUS
  62
3
 100
AcDbBlockReference
   2
_OPEN30
  10
 319.55272287061
  20
 209.49740065234
  30
0.0
  41
 3.0000000000000
  42
 3.0000000000000
  43
 3.0000000000000
  50
 90.000000000000
   0
MTEXT
   5
FE
 100
AcDbEntity
   8
LEVEL001
  62
3
 100
AcDbMText
  10
 317.83843715633
  20
 200.49740065234
  30
0.0
  40
 4.0000000000000
  41
0.0
  71
8
  72
1
   1
\A1;18
   7
GMM001
  11
0.0
  21
 1.0000000000000
  31
0.0
   0
ENDBLK
   5
FF
 100
AcDbEntity
   8
0
 100
AcDbBlockEnd
   0
BLOCK
   5
100
 100
AcDbEntity
   8
0
 100
AcDbBlockBegin
   2
*D7
  70
65
  10
0.0
  20
0.0
  30
0.0
   3
*D7
   0
LINE
   5
101
 100
AcDbEntity
   8
LEVEL001
 100
AcDbLine
   6
CONTINUOUS
  62
3
  10
 306.41477518693
  20
 207.92753627754
  30
0.0
  11
 307.21370306280
  21
 208.52896312193
  31
0.0
   0
LINE
   5
102
 100
AcDbEntity
   8
LEVEL001
 100
AcDbLine
   6
CONTINUOUS
  62
3
  10
 307.21370306280
  20
 208.52896312193
  30
0.0
  11
 316.81898339587
  21
 215.75974529212
  31
0.0
   0
INSERT
   5
103
 100
AcDbEntity
   8
LEVEL001
   6
CONTINUOUS
  62
3
 100
AcDbBlockReference
   2
_OPEN30
  10
 308.01263093868
  20
 209.13038996631
  30
0.0
  41
 3.0000000000000
  42
 3.0000000000000
  43
 3.0000000000000
  50
 216.97215634164
   0
MTEXT
   5
104
 100
AcDbEntity
   8
LEVEL001
  62
3
 100
AcDbMText
  10
 309.99102695148
  20
 212.76544423454
  30
0.0
  40
 4.0000000000000
  41
0.0
  71
7
  72
1
   1
\A1;R2
   7
GMM001
  11
 0.79892787587618
  21
 0.60142684438589
  31
0.0
   0
ENDBLK
   5
105
 100
AcDbEntity
   8
0
 100
AcDbBlockEnd
   0
BLOCK
   5
106
 100
AcDbEntity
   8
0
 100
AcDbBlockBegin
   2
*D8
  70
65
  10
0.0
  20
0.0
  30
0.0
   3
*D8
   0
LINE
   5
107
 100
AcDbEntity
   8
LEVEL001
 100
AcDbLine
   6
CONTINUOUS
  62
3
  10
 347.22806478368
  20
 224.49740065234
  30
0.0
  11
 346.86889254818
  21
 224.84524444665
  31
0.0
   0
LINE
   5
108
 100
AcDbEntity
   8
LEVEL001
 100
AcDbLine
   6
CONTINUOUS
  62
3
  10
 346.86889254818
  20
 224.84524444665
  30
0.0
  11
 340.25906017645
  21
 231.24659996567
  31
0.0
   0
INSERT
   5
109
 100
AcDbEntity
   8
LEVEL001
   6
CONTINUOUS
  62
3
 100
AcDbBlockReference
   2
_OPEN30
  10
 346.50972031268
  20
 225.19308824097
  30
0.0
  41
 3.0000000000000
  42
 3.0000000000000
  43
 3.0000000000000
  50
 315.91796551035
   0
MTEXT
   5
10A
 100
AcDbEntity
   8
LEVEL001
  62
3
 100
AcDbMText
  10
 345.76173429725
  20
 228.30392209842
  30
0.0
  40
 4.0000000000000
  41
0.0
  71
9
  72
1
   1
\A1;R1
   7
GMM001
  11
 0.71834447099985
  21
-0.69568758863727
  31
0.0
   0
ENDBLK
   5
10B
 100
AcDbEntity
   8
0
 100
AcDbBlockEnd
   0
BLOCK
   5
10C
 100
AcDbEntity
   8
0
 100
AcDbBlockBegin
   2
*D9
  70
65
  10
0.0
  20
0.0
  30
0.0
   3
*D9
   0
LINE
   5
10D
 100
AcDbEntity
   8
LEVEL001
 100
AcDbLine
   6
CONTINUOUS
  62
3
  10
 44.414775186927
  20
 135.67797274968
  30
0.0
  11
 44.414775186927
  21
 149.29103508933
  31
0.0
   0
LINE
   5
10E
 100
AcDbEntity
   8
LEVEL001
 100
AcDbLine
   6
CONTINUOUS
  62
3
  10
 56.414775186927
  20
 134.09110043440
  30
0.0
  11
 56.414775186927
  21
 149.29103508933
  31
0.0
   0
LINE
   5
10F
 100
AcDbEntity
   8
LEVEL001
 100
AcDbLine
   6
CONTINUOUS
  62
3
  10
 44.414775186927
  20
 148.29103508933
  30
0.0
  11
 50.414775186927
  21
 148.29103508933
  31
0.0
   0
LINE
   5
110
 100
AcDbEntity
   8
LEVEL001
 100
AcDbLine
   6
CONTINUOUS
  62
3
  10
 56.414775186927
  20
 148.29103508933
  30
0.0
  11
 50.414775186927
  21
 148.29103508933
  31
0.0
   0
INSERT
   5
111
 100
AcDbEntity
   8
LEVEL001
   6
CONTINUOUS
  62
3
 100
AcDbBlockReference
   2
_OPEN30
  10
 44.414775186927
  20
 148.29103508933
  30
0.0
  41
 3.0000000000000
  42
 3.0000000000000
  43
 3.0000000000000
  50
 180.00000000000
   0
INSERT
   5
112
 100
AcDbEntity
   8
LEVEL001
   6
CONTINUOUS
  62
3
 100
AcDbBlockReference
   2
_OPEN30
  10
 56.414775186927
  20
 148.29103508933
  30
0.0
  41
 3.0000000000000
  42
 3.0000000000000
  43
 3.0000000000000
  50
0.0
   0
MTEXT
   5
113
 100
AcDbEntity
   8
LEVEL001
  62
3
 100
AcDbMText
  10
 50.414775186927
  20
 150.00532080361
  30
0.0
  40
 4.0000000000000
  41
0.0
  71
8
  72
1
   1
\A1;12
   7
GMM001
   0
ENDBLK
   5
114
 100
AcDbEntity
   8
0
 100
AcDbBlockEnd
   0
BLOCK
   5
115
 100
AcDbEntity
   8
0
 100
AcDbBlockBegin
   2
*D10
  70
65
  10
0.0
  20
0.0
  30
0.0
   3
*D10
   0
LINE
   5
116
 100
AcDbEntity
   8
LEVEL001
 100
AcDbLine
   6
CONTINUOUS
  62
3
  10
 308.41477518693
  20
 135.67797274968
  30
0.0
  11
 308.41477518693
  21
 149.29103508933
  31
0.0
   0
LINE
   5
117
 100
AcDbEntity
   8
LEVEL001
 100
AcDbLine
   6
CONTINUOUS
  62
3
  10
 296.41477518693
  20
 148.29103508933
  30
0.0
  11
 302.41477518693
  21
 148.29103508933
  31
0.0
   0
LINE
   5
118
 100
AcDbEntity
   8
LEVEL001
 100
AcDbLine
   6
CONTINUOUS
  62
3
  10
 308.41477518693
  20
 148.29103508933
  30
0.0
  11
 302.41477518693
  21
 148.29103508933
  31
0.0
   0
INSERT
   5
119
 100
AcDbEntity
   8
LEVEL001
   6
CONTINUOUS
  62
3
 100
AcDbBlockReference
   2
_OPEN30
  10
 296.41477518693
  20
 148.29103508933
  30
0.0
  41
 3.0000000000000
  42
 3.0000000000000
  43
 3.0000000000000
  50
 180.00000000000
   0
INSERT
   5
11A
 100
AcDbEntity
   8
LEVEL001
   6
CONTINUOUS
  62
3
 100
AcDbBlockReference
   2
_OPEN30
  10
 308.41477518693
  20
 148.29103508933
  30
0.0
  41
 3.0000000000000
  42
 3.0000000000000
  43
 3.0000000000000
  50
0.0
   0
MTEXT
   5
11B
 100
AcDbEntity
   8
LEVEL001
  62
3
 100
AcDbMText
  10
 302.41477518693
  20
 150.00532080361
  30
0.0
  40
 4.0000000000000
  41
0.0
  71
8
  72
1
   1
\A1;12
   7
GMM001
   0
ENDBLK
   5
11C
 100
AcDbEntity
   8
0
 100
AcDbBlockEnd
   0
BLOCK
   5
11D
 100
AcDbEntity
   8
0
 100
AcDbBlockBegin
   2
*D11
  70
65
  10
0.0
  20
0.0
  30
0.0
   3
*D11
   0
LINE
   5
11E
 100
AcDbEntity
   8
LEVEL001
 100
AcDbLine
   6
CONTINUOUS
  62
3
  10
 287.41477518693
  20
 122.67797274968
  30
0.0
  11
 287.41477518693
  21
 110.74850777417
  31
0.0
   0
LINE
   5
11F
 100
AcDbEntity
   8
LEVEL001
 100
AcDbLine
   6
CONTINUOUS
  62
3
  10
 296.41477518693
  20
 124.26484506496
  30
0.0
  11
 296.41477518693
  21
 110.74850777417
  31
0.0
   0
LINE
   5
120
 100
AcDbEntity
   8
LEVEL001
 100
AcDbLine
   6
CONTINUOUS
  62
3
  10
 287.41477518693
  20
 111.74850777417
  30
0.0
  11
 291.91477518693
  21
 111.74850777417
  31
0.0
   0
LINE
   5
121
 100
AcDbEntity
   8
LEVEL001
 100
AcDbLine
   6
CONTINUOUS
  62
3
  10
 296.41477518693
  20
 111.74850777417
  30
0.0
  11
 291.91477518693
  21
 111.74850777417
  31
0.0
   0
INSERT
   5
122
 100
AcDbEntity
   8
LEVEL001
   6
CONTINUOUS
  62
3
 100
AcDbBlockReference
   2
_OPEN30
  10
 287.41477518693
  20
 111.74850777417
  30
0.0
  41
 3.0000000000000
  42
 3.0000000000000
  43
 3.0000000000000
  50
 180.00000000000
   0
INSERT
   5
123
 100
AcDbEntity
   8
LEVEL001
   6
CONTINUOUS
  62
3
 100
AcDbBlockReference
   2
_OPEN30
  10
 296.41477518693
  20
 111.74850777417
  30
0.0
  41
 3.0000000000000
  42
 3.0000000000000
  43
 3.0000000000000
  50
0.0
   0
MTEXT
   5
124
 100
AcDbEntity
   8
LEVEL001
  62
3
 100
AcDbMText
  10
 291.91477518693
  20
 113.46279348845
  30
0.0
  40
 4.0000000000000
  41
0.0
  71
8
  72
1
   1
\A1;9
   7
GMM001
   0
ENDBLK
   5
125
 100
AcDbEntity
   8
0
 100
AcDbBlockEnd
   0
BLOCK
   5
126
 100
AcDbEntity
   8
0
 100
AcDbBlockBegin
   2
*D12
  70
65
  10
0.0
  20
0.0
  30
0.0
   3
*D12
   0
LINE
   5
127
 100
AcDbEntity
   8
LEVEL001
 100
AcDbLine
   6
CONTINUOUS
  62
3
  10
 308.41477518693
  20
 122.67797274968
  30
0.0
  11
 308.41477518693
  21
 110.74850777417
  31
0.0
   0
LINE
   5
128
 100
AcDbEntity
   8
LEVEL001
 100
AcDbLine
   6
CONTINUOUS
  62
3
  10
 296.41477518693
  20
 111.74850777417
  30
0.0
  11
 302.41477518693
  21
 111.74850777417
  31
0.0
   0
LINE
   5
129
 100
AcDbEntity
   8
LEVEL001
 100
AcDbLine
   6
CONTINUOUS
  62
3
  10
 308.41477518693
  20
 111.74850777417
  30
0.0
  11
 302.41477518693
  21
 111.74850777417
  31
0.0
   0
INSERT
   5
12A
 100
AcDbEntity
   8
LEVEL001
   6
CONTINUOUS
  62
3
 100
AcDbBlockReference
   2
_OPEN30
  10
 296.41477518693
  20
 111.74850777417
  30
0.0
  41
 3.0000000000000
  42
 3.0000000000000
  43
 3.0000000000000
  50
 180.00000000000
   0
INSERT
   5
12B
 100
AcDbEntity
   8
LEVEL001
   6
CONTINUOUS
  62
3
 100
AcDbBlockReference
   2
_OPEN30
  10
 308.41477518693
  20
 111.74850777417
  30
0.0
  41
 3.0000000000000
  42
 3.0000000000000
  43
 3.0000000000000
  50
0.0
   0
MTEXT
   5
12C
 100
AcDbEntity
   8
LEVEL001
  62
3
 100
AcDbMText
  10
 302.41477518693
  20
 113.46279348845
  30
0.0
  40
 4.0000000000000
  41
0.0
  71
8
  72
1
   1
\A1;12
   7
GMM001
   0
ENDBLK
   5
12D
 100
AcDbEntity
   8
0
 100
AcDbBlockEnd
   0
BLOCK
   5
12E
 100
AcDbEntity
   8
0
 100
AcDbBlockBegin
   2
*D13
  70
65
  10
0.0
  20
0.0
  30
0.0
   3
*D13
   0
LINE
   5
12F
 100
AcDbEntity
   8
LEVEL001
 100
AcDbLine
   6
CONTINUOUS
  62
3
  10
 186.13774898552
  20
 132.17797274968
  30
0.0
  11
 187.13774898552
  21
 132.17797274968
  31
0.0
   0
LINE
   5
130
 100
AcDbEntity
   8
LEVEL001
 100
AcDbLine
   6
CONTINUOUS
  62
3
  10
 186.13774898552
  20
 126.17797274968
  30
0.0
  11
 185.13774898552
  21
 126.17797274968
  31
0.0
   0
LINE
   5
131
 100
AcDbEntity
   8
LEVEL001
 100
AcDbLine
   6
CONTINUOUS
  62
3
  10
 186.13774898552
  20
 135.92797274968
  30
0.0
  11
 186.13774898552
  21
 129.17797274968
  31
0.0
   0
LINE
   5
132
 100
AcDbEntity
   8
LEVEL001
 100
AcDbLine
   6
CONTINUOUS
  62
3
  10
 186.13774898552
  20
 117.92345350243
  30
0.0
  11
 186.13774898552
  21
 129.17797274968
  31
0.0
   0
INSERT
   5
133
 100
AcDbEntity
   8
LEVEL001
   6
CONTINUOUS
  62
3
 100
AcDbBlockReference
   2
_OPEN30
  10
 186.13774898552
  20
 132.17797274968
  30
0.0
  41
 3.0000000000000
  42
 3.0000000000000
  43
 3.0000000000000
  50
 270.00000000000
   0
INSERT
   5
134
 100
AcDbEntity
   8
LEVEL001
   6
CONTINUOUS
  62
3
 100
AcDbBlockReference
   2
_OPEN30
  10
 186.13774898552
  20
 126.17797274968
  30
0.0
  41
 3.0000000000000
  42
 3.0000000000000
  43
 3.0000000000000
  50
 90.000000000000
   0
MTEXT
   5
135
 100
AcDbEntity
   8
LEVEL001
  62
3
 100
AcDbMText
  10
 185.29139081678
  20
 120.92345350243
  30
0.0
  40
 4.0000000000000
  41
0.0
  71
9
  72
1
   1
\A1;6
   7
GMM001
  11
0.0
  21
 1.0000000000000
  31
0.0
   0
ENDBLK
   5
136
 100
AcDbEntity
   8
0
 100
AcDbBlockEnd
   0
BLOCK
   5
137
 100
AcDbEntity
   8
0
 100
AcDbBlockBegin
   2
*D14
  70
65
  10
0.0
  20
0.0
  30
0.0
   3
*D14
   0
POLYLINE
   5
138
 100
AcDbEntity
   8
LEVEL001
   6
CONTINUOUS
  62
3
 100
AcDb2dPolyline
  66
1
  10
0.0
  20
0.0
  30
0.0
  70
0
   0
VERTEX
   5
139
 100
AcDbEntity
   8
LEVEL001
   6
CONTINUOUS
  62
3
 100
AcDbVertex
 100
AcDb2dVertex
  10
 64.204137780905
  20
 133.38861015570
  30
0.0
   0
VERTEX
   5
13A
 100
AcDbEntity
   8
LEVEL001
   6
CONTINUOUS
  62
3
 100
AcDbVertex
 100
AcDb2dVertex
  10
 71.085388798009
  20
 140.01981245406
  30
0.0
   0
VERTEX
   5
13B
 100
AcDbEntity
   8
LEVEL001
   6
CONTINUOUS
  62
3
 100
AcDbVertex
 100
AcDb2dVertex
  10
 74.898631758983
  20
 112.57696557098
  30
0.0
   0
VERTEX
   5
13C
 100
AcDbEntity
   8
LEVEL001
   6
CONTINUOUS
  62
3
 100
AcDbVertex
 100
AcDb2dVertex
  10
 80.898631758983
  20
 112.57696557098
  30
0.0
   0
SEQEND
   5
13D
 100
AcDbEntity
   8
LEVEL001
   6
CONTINUOUS
  62
3
   0
INSERT
   5
13E
 100
AcDbEntity
   8
LEVEL001
   6
CONTINUOUS
  62
3
 100
AcDbBlockReference
   2
_OPEN30
  10
 64.204137780905
  20
 133.38861015570
  30
0.0
  41
 3.0000000000000
  42
 3.0000000000000
  43
 3.0000000000000
  50
 223.93985933397
   0
ENDBLK
   5
13F
 100
AcDbEntity
   8
0
 100
AcDbBlockEnd
   0
BLOCK
   5
140
 100
AcDbEntity
   8
0
 100
AcDbBlockBegin
   2
*D15
  70
65
  10
0.0
  20
0.0
  30
0.0
   3
*D15
   0
POLYLINE
   5
141
 100
AcDbEntity
   8
LEVEL001
   6
CONTINUOUS
  62
3
 100
AcDb2dPolyline
  66
1
  10
0.0
  20
0.0
  30
0.0
  70
0
   0
VERTEX
   5
142
 100
AcDbEntity
   8
LEVEL001
   6
CONTINUOUS
  62
3
 100
AcDbVertex
 100
AcDb2dVertex
  10
 64.137602129706
  20
 124.90079969246
  30
0.0
   0
VERTEX
   5
143
 100
AcDbEntity
   8
LEVEL001
   6
CONTINUOUS
  62
3
 100
AcDbVertex
 100
AcDb2dVertex
  10
 74.898631758983
  20
 112.57696557098
  30
0.0
   0
VERTEX
   5
144
 100
AcDbEntity
   8
LEVEL001
   6
CONTINUOUS
  62
3
 100
AcDbVertex
 100
AcDb2dVertex
  10
 83.277955318723
  20
 112.57696557098
  30
0.0
   0
SEQEND
   5
145
 100
AcDbEntity
   8
LEVEL001
   6
CONTINUOUS
  62
3
   0
INSERT
   5
146
 100
AcDbEntity
   8
LEVEL001
   6
CONTINUOUS
  62
3
 100
AcDbBlockReference
   2
_OPEN30
  10
 64.137602129706
  20
 124.90079969246
  30
0.0
  41
 3.0000000000000
  42
 3.0000000000000
  43
 3.0000000000000
  50
 131.12708632373
   0
MTEXT
   5
147
 100
AcDbEntity
   8
LEVEL001
  62
3
 100
AcDbMText
  10
 77.277955318723
  20
 113.89083682670
  30
0.0
  40
 4.0000000000000
  41
0.0
  71
7
  72
1
   1
\A1;Ｃ３
   7
GMM001
   0
ENDBLK
   5
148
 100
AcDbEntity
   8
0
 100
AcDbBlockEnd
   0
BLOCK
   5
149
 100
AcDbEntity
   8
0
 100
AcDbBlockBegin
   2
*D16
  70
65
  10
0.0
  20
0.0
  30
0.0
   3
*D16
   0
POLYLINE
   5
14A
 100
AcDbEntity
   8
LEVEL001
   6
CONTINUOUS
  62
3
 100
AcDb2dPolyline
  66
1
  10
0.0
  20
0.0
  30
0.0
  70
0
   0
VERTEX
   5
14B
 100
AcDbEntity
   8
LEVEL001
   6
CONTINUOUS
  62
3
 100
AcDbVertex
 100
AcDb2dVertex
  10
 296.41477518693
  20
 129.17797274968
  30
0.0
   0
VERTEX
   5
14C
 100
AcDbEntity
   8
LEVEL001
   6
CONTINUOUS
  62
3
 100
AcDbVertex
 100
AcDb2dVertex
  10
 281.40307270461
  20
 108.63860550259
  30
0.0
   0
VERTEX
   5
14D
 100
AcDbEntity
   8
LEVEL001
   6
CONTINUOUS
  62
3
 100
AcDbVertex
 100
AcDb2dVertex
  10
 245.40307270461
  20
 108.63860550259
  30
0.0
   0
SEQEND
   5
14E
 100
AcDbEntity
   8
LEVEL001
   6
CONTINUOUS
  62
3
   0
INSERT
   5
14F
 100
AcDbEntity
   8
LEVEL001
   6
CONTINUOUS
  62
3
 100
AcDbBlockReference
   2
_OPEN30
  10
 296.41477518693
  20
 129.17797274968
  30
0.0
  41
 3.0000000000000
  42
 3.0000000000000
  43
 3.0000000000000
  50
 53.837878014756
   0
MTEXT
   5
150
 100
AcDbEntity
   8
LEVEL001
  62
3
 100
AcDbMText
  10
 245.40307270461
  20
 110.35289121688
  30
0.0
  40
 4.0000000000000
  41
0.0
  71
7
  72
1
   1
\A1;２－Ｍ４タップ　深さ１３
   7
GMM001
   0
ENDBLK
   5
151
 100
AcDbEntity
   8
0
 100
AcDbBlockEnd
   0
BLOCK
   5
152
 100
AcDbEntity
   8
0
 100
AcDbBlockBegin
   2
*D17
  70
65
  10
0.0
  20
0.0
  30
0.0
   3
*D17
   0
POLYLINE
   5
153
 100
AcDbEntity
   8
LEVEL001
   6
CONTINUOUS
  62
3
 100
AcDb2dPolyline
  66
1
  10
0.0
  20
0.0
  30
0.0
  70
0
   0
VERTEX
   5
154
 100
AcDbEntity
   8
LEVEL001
   6
CONTINUOUS
  62
3
 100
AcDbVertex
 100
AcDb2dVertex
  10
-89.165514699655
  20
 128.90012042423
  30
0.0
   0
VERTEX
   5
155
 100
AcDbEntity
   8
LEVEL001
   6
CONTINUOUS
  62
3
 100
AcDbVertex
 100
AcDb2dVertex
  10
-105.39686228336
  20
 105.39987737290
  30
0.0
   0
VERTEX
   5
156
 100
AcDbEntity
   8
LEVEL001
   6
CONTINUOUS
  62
3
 100
AcDbVertex
 100
AcDb2dVertex
  10
-147.39686228336
  20
 105.39987737290
  30
0.0
   0
SEQEND
   5
157
 100
AcDbEntity
   8
LEVEL001
   6
CONTINUOUS
  62
3
   0
INSERT
   5
158
 100
AcDbEntity
   8
LEVEL001
   6
CONTINUOUS
  62
3
 100
AcDbBlockReference
   2
_OPEN30
  10
-89.165514699655
  20
 128.90012042423
  30
0.0
  41
 3.0000000000000
  42
 3.0000000000000
  43
 3.0000000000000
  50
 55.367608538630
   0
MTEXT
   5
159
 100
AcDbEntity
   8
LEVEL001
  62
3
 100
AcDbMText
  10
-147.39686228336
  20
 107.11416308718
  30
0.0
  40
 4.0000000000000
  41
0.0
  71
7
  72
1
   1
\A1;２－Ｍ４タップ　有効深さ１３
   7
GMM001
   0
ENDBLK
   5
15A
 100
AcDbEntity
   8
0
 100
AcDbBlockEnd
   0
BLOCK
   5
15B
 100
AcDbEntity
   8
0
 100
AcDbBlockBegin
   2
*D18
  70
65
  10
0.0
  20
0.0
  30
0.0
   3
*D18
   0
LINE
   5
15C
 100
AcDbEntity
   8
LEVEL001
 100
AcDbLine
   6
CONTINUOUS
  62
3
  10
-98.165514699655
  20
 173.73048927162
  30
0.0
  11
-98.165514699655
  21
 171.96407911422
  31
0.0
   0
LINE
   5
15D
 100
AcDbEntity
   8
LEVEL001
 100
AcDbLine
   6
CONTINUOUS
  62
3
  10
-77.165514699655
  20
 187.10405334841
  30
0.0
  11
-77.165514699655
  21
 171.96407911422
  31
0.0
   0
LINE
   5
15E
 100
AcDbEntity
   8
LEVEL001
 100
AcDbLine
   6
CONTINUOUS
  62
3
  10
-98.165514699655
  20
 172.96407911422
  30
0.0
  11
-87.665514699655
  21
 172.96407911422
  31
0.0
   0
LINE
   5
15F
 100
AcDbEntity
   8
LEVEL001
 100
AcDbLine
   6
CONTINUOUS
  62
3
  10
-77.165514699655
  20
 172.96407911422
  30
0.0
  11
-87.665514699655
  21
 172.96407911422
  31
0.0
   0
INSERT
   5
160
 100
AcDbEntity
   8
LEVEL001
   6
CONTINUOUS
  62
3
 100
AcDbBlockReference
   2
_OPEN30
  10
-98.165514699655
  20
 172.96407911422
  30
0.0
  41
 3.0000000000000
  42
 3.0000000000000
  43
 3.0000000000000
  50
 180.00000000000
   0
INSERT
   5
161
 100
AcDbEntity
   8
LEVEL001
   6
CONTINUOUS
  62
3
 100
AcDbBlockReference
   2
_OPEN30
  10
-77.165514699655
  20
 172.96407911422
  30
0.0
  41
 3.0000000000000
  42
 3.0000000000000
  43
 3.0000000000000
  50
0.0
   0
MTEXT
   5
162
 100
AcDbEntity
   8
LEVEL001
  62
3
 100
AcDbMText
  10
-87.665514699655
  20
 174.67836482850
  30
0.0
  40
 4.0000000000000
  41
0.0
  71
8
  72
1
   1
\A1;21
   7
GMM001
   0
ENDBLK
   5
163
 100
AcDbEntity
   8
0
 100
AcDbBlockEnd
   0
BLOCK
   5
164
 100
AcDbEntity
   8
0
 100
AcDbBlockBegin
   2
*D19
  70
65
  10
0.0
  20
0.0
  30
0.0
   3
*D19
   0
LINE
   5
165
 100
AcDbEntity
   8
LEVEL001
 100
AcDbLine
   6
CONTINUOUS
  62
3
  10
-200.16551469965
  20
 173.73048927162
  30
0.0
  11
-200.16551469965
  21
 171.96407911422
  31
0.0
   0
LINE
   5
166
 100
AcDbEntity
   8
LEVEL001
 100
AcDbLine
   6
CONTINUOUS
  62
3
  10
-98.165514699655
  20
 187.10405334841
  30
0.0
  11
-98.165514699655
  21
 171.96407911422
  31
0.0
   0
LINE
   5
167
 100
AcDbEntity
   8
LEVEL001
 100
AcDbLine
   6
CONTINUOUS
  62
3
  10
-200.16551469965
  20
 172.96407911422
  30
0.0
  11
-149.16551469965
  21
 172.96407911422
  31
0.0
   0
LINE
   5
168
 100
AcDbEntity
   8
LEVEL001
 100
AcDbLine
   6
CONTINUOUS
  62
3
  10
-98.165514699655
  20
 172.96407911422
  30
0.0
  11
-149.16551469965
  21
 172.96407911422
  31
0.0
   0
INSERT
   5
169
 100
AcDbEntity
   8
LEVEL001
   6
CONTINUOUS
  62
3
 100
AcDbBlockReference
   2
_OPEN30
  10
-200.16551469965
  20
 172.96407911422
  30
0.0
  41
 3.0000000000000
  42
 3.0000000000000
  43
 3.0000000000000
  50
 180.00000000000
   0
INSERT
   5
16A
 100
AcDbEntity
   8
LEVEL001
   6
CONTINUOUS
  62
3
 100
AcDbBlockReference
   2
_OPEN30
  10
-98.165514699655
  20
 172.96407911422
  30
0.0
  41
 3.0000000000000
  42
 3.0000000000000
  43
 3.0000000000000
  50
0.0
   0
MTEXT
   5
16B
 100
AcDbEntity
   8
LEVEL001
  62
3
 100
AcDbMText
  10
-149.16551469965
  20
 174.67836482850
  30
0.0
  40
 4.0000000000000
  41
0.0
  71
8
  72
1
   1
\A1;102
   7
GMM001
   0
ENDBLK
   5
16C
 100
AcDbEntity
   8
0
 100
AcDbBlockEnd
   0
BLOCK
   5
16D
 100
AcDbEntity
   8
0
 100
AcDbBlockBegin
   2
*D20
  70
65
  10
0.0
  20
0.0
  30
0.0
   3
*D20
   0
LINE
   5
16E
 100
AcDbEntity
   8
LEVEL001
 100
AcDbLine
   6
CONTINUOUS
  62
3
  10
-221.16551469965
  20
 187.10405334841
  30
0.0
  11
-221.16551469965
  21
 171.96407911422
  31
0.0
   0
LINE
   5
16F
 100
AcDbEntity
   8
LEVEL001
 100
AcDbLine
   6
CONTINUOUS
  62
3
  10
-200.16551469965
  20
 187.10405334841
  30
0.0
  11
-200.16551469965
  21
 171.96407911422
  31
0.0
   0
LINE
   5
170
 100
AcDbEntity
   8
LEVEL001
 100
AcDbLine
   6
CONTINUOUS
  62
3
  10
-221.16551469965
  20
 172.96407911422
  30
0.0
  11
-210.66551469965
  21
 172.96407911422
  31
0.0
   0
LINE
   5
171
 100
AcDbEntity
   8
LEVEL001
 100
AcDbLine
   6
CONTINUOUS
  62
3
  10
-200.16551469965
  20
 172.96407911422
  30
0.0
  11
-210.66551469965
  21
 172.96407911422
  31
0.0
   0
INSERT
   5
172
 100
AcDbEntity
   8
LEVEL001
   6
CONTINUOUS
  62
3
 100
AcDbBlockReference
   2
_OPEN30
  10
-221.16551469965
  20
 172.96407911422
  30
0.0
  41
 3.0000000000000
  42
 3.0000000000000
  43
 3.0000000000000
  50
 180.00000000000
   0
INSERT
   5
173
 100
AcDbEntity
   8
LEVEL001
   6
CONTINUOUS
  62
3
 100
AcDbBlockReference
   2
_OPEN30
  10
-200.16551469965
  20
 172.96407911422
  30
0.0
  41
 3.0000000000000
  42
 3.0000000000000
  43
 3.0000000000000
  50
0.0
   0
MTEXT
   5
174
 100
AcDbEntity
   8
LEVEL001
  62
3
 100
AcDbMText
  10
-210.66551469965
  20
 174.67836482850
  30
0.0
  40
 4.0000000000000
  41
0.0
  71
8
  72
1
   1
\A1;21
   7
GMM001
   0
ENDBLK
   5
175
 100
AcDbEntity
   8
0
 100
AcDbBlockEnd
   0
BLOCK
   5
176
 100
AcDbEntity
   8
0
 100
AcDbBlockBegin
   2
*D21
  70
65
  10
0.0
  20
0.0
  30
0.0
   3
*D21
   0
LINE
   5
177
 100
AcDbEntity
   8
LEVEL001
 100
AcDbLine
   6
CONTINUOUS
  62
3
  10
-148.66551469965
  20
 215.60405334841
  30
0.0
  11
-131.24593407884
  21
 215.60405334841
  31
0.0
   0
LINE
   5
178
 100
AcDbEntity
   8
LEVEL001
 100
AcDbLine
   6
CONTINUOUS
  62
3
  10
-148.66551469965
  20
 221.60405334841
  30
0.0
  11
-131.24593407884
  21
 221.60405334841
  31
0.0
   0
LINE
   5
179
 100
AcDbEntity
   8
LEVEL001
 100
AcDbLine
   6
CONTINUOUS
  62
3
  10
-132.24593407884
  20
 207.66498559660
  30
0.0
  11
-132.24593407884
  21
 218.60405334841
  31
0.0
   0
LINE
   5
17A
 100
AcDbEntity
   8
LEVEL001
 100
AcDbLine
   6
CONTINUOUS
  62
3
  10
-132.24593407884
  20
 225.35405334841
  30
0.0
  11
-132.24593407884
  21
 218.60405334841
  31
0.0
   0
INSERT
   5
17B
 100
AcDbEntity
   8
LEVEL001
   6
CONTINUOUS
  62
3
 100
AcDbBlockReference
   2
_OPEN30
  10
-132.24593407884
  20
 215.60405334841
  30
0.0
  41
 3.0000000000000
  42
 3.0000000000000
  43
 3.0000000000000
  50
 90.000000000000
   0
INSERT
   5
17C
 100
AcDbEntity
   8
LEVEL001
   6
CONTINUOUS
  62
3
 100
AcDbBlockReference
   2
_OPEN30
  10
-132.24593407884
  20
 221.60405334841
  30
0.0
  41
 3.0000000000000
  42
 3.0000000000000
  43
 3.0000000000000
  50
 270.00000000000
   0
MTEXT
   5
17D
 100
AcDbEntity
   8
LEVEL001
  62
3
 100
AcDbMText
  10
-133.42478288570
  20
 210.66498559660
  30
0.0
  40
 4.0000000000000
  41
0.0
  71
9
  72
1
   1
\A1;6
   7
GMM001
  11
0.0
  21
 1.0000000000000
  31
0.0
   0
ENDBLK
   5
17E
 100
AcDbEntity
   8
0
 100
AcDbBlockEnd
   0
BLOCK
   5
17F
 100
AcDbEntity
   8
0
 100
AcDbBlockBegin
   2
*D22
  70
65
  10
0.0
  20
0.0
  30
0.0
   3
*D22
   0
LINE
   5
180
 100
AcDbEntity
   8
LEVEL001
 100
AcDbLine
   6
CONTINUOUS
  62
3
  10
-77.165514699655
  20
 135.40012042423
  30
0.0
  11
-77.165514699655
  21
 145.18628331415
  31
0.0
   0
LINE
   5
181
 100
AcDbEntity
   8
LEVEL001
 100
AcDbLine
   6
CONTINUOUS
  62
3
  10
-89.165514699655
  20
 144.18628331415
  30
0.0
  11
-83.165514699655
  21
 144.18628331415
  31
0.0
   0
LINE
   5
182
 100
AcDbEntity
   8
LEVEL001
 100
AcDbLine
   6
CONTINUOUS
  62
3
  10
-77.165514699655
  20
 144.18628331415
  30
0.0
  11
-83.165514699655
  21
 144.18628331415
  31
0.0
   0
INSERT
   5
183
 100
AcDbEntity
   8
LEVEL001
   6
CONTINUOUS
  62
3
 100
AcDbBlockReference
   2
_OPEN30
  10
-89.165514699655
  20
 144.18628331415
  30
0.0
  41
 3.0000000000000
  42
 3.0000000000000
  43
 3.0000000000000
  50
 180.00000000000
   0
INSERT
   5
184
 100
AcDbEntity
   8
LEVEL001
   6
CONTINUOUS
  62
3
 100
AcDbBlockReference
   2
_OPEN30
  10
-77.165514699655
  20
 144.18628331415
  30
0.0
  41
 3.0000000000000
  42
 3.0000000000000
  43
 3.0000000000000
  50
0.0
   0
MTEXT
   5
185
 100
AcDbEntity
   8
LEVEL001
  62
3
 100
AcDbMText
  10
-83.165514699655
  20
 145.90056902844
  30
0.0
  40
 4.0000000000000
  41
0.0
  71
8
  72
1
   1
\A1;12
   7
GMM001
   0
ENDBLK
   5
186
 100
AcDbEntity
   8
0
 100
AcDbBlockEnd
   0
BLOCK
   5
187
 100
AcDbEntity
   8
0
 100
AcDbBlockBegin
   2
*D23
  70
65
  10
0.0
  20
0.0
  30
0.0
   3
*D23
   0
LINE
   5
188
 100
AcDbEntity
   8
LEVEL001
 100
AcDbLine
   6
CONTINUOUS
  62
3
  10
-221.16551469965
  20
 135.40012042423
  30
0.0
  11
-221.16551469965
  21
 145.18628331415
  31
0.0
   0
LINE
   5
189
 100
AcDbEntity
   8
LEVEL001
 100
AcDbLine
   6
CONTINUOUS
  62
3
  10
-209.16551469965
  20
 144.18628331415
  30
0.0
  11
-215.16551469965
  21
 144.18628331415
  31
0.0
   0
LINE
   5
18A
 100
AcDbEntity
   8
LEVEL001
 100
AcDbLine
   6
CONTINUOUS
  62
3
  10
-221.16551469965
  20
 144.18628331415
  30
0.0
  11
-215.16551469965
  21
 144.18628331415
  31
0.0
   0
INSERT
   5
18B
 100
AcDbEntity
   8
LEVEL001
   6
CONTINUOUS
  62
3
 100
AcDbBlockReference
   2
_OPEN30
  10
-209.16551469965
  20
 144.18628331415
  30
0.0
  41
 3.0000000000000
  42
 3.0000000000000
  43
 3.0000000000000
  50
0.0
   0
INSERT
   5
18C
 100
AcDbEntity
   8
LEVEL001
   6
CONTINUOUS
  62
3
 100
AcDbBlockReference
   2
_OPEN30
  10
-221.16551469965
  20
 144.18628331415
  30
0.0
  41
 3.0000000000000
  42
 3.0000000000000
  43
 3.0000000000000
  50
 180.00000000000
   0
MTEXT
   5
18D
 100
AcDbEntity
   8
LEVEL001
  62
3
 100
AcDbMText
  10
-215.16551469965
  20
 145.90056902844
  30
0.0
  40
 4.0000000000000
  41
0.0
  71
8
  72
1
   1
\A1;12
   7
GMM001
   0
ENDBLK
   5
18E
 100
AcDbEntity
   8
0
 100
AcDbBlockEnd
   0
BLOCK
   5
18F
 100
AcDbEntity
   8
0
 100
AcDbBlockBegin
   2
*D24
  70
65
  10
0.0
  20
0.0
  30
0.0
   3
*D24
   0
POLYLINE
   5
190
 100
AcDbEntity
   8
LEVEL001
   6
CONTINUOUS
  62
3
 100
AcDb2dPolyline
  66
1
  10
0.0
  20
0.0
  30
0.0
  70
0
   0
VERTEX
   5
191
 100
AcDbEntity
   8
LEVEL001
   6
CONTINUOUS
  62
3
 100
AcDbVertex
 100
AcDb2dVertex
  10
-201.53236749124
  20
 124.53326763265
  30
0.0
   0
VERTEX
   5
192
 100
AcDbEntity
   8
LEVEL001
   6
CONTINUOUS
  62
3
 100
AcDbVertex
 100
AcDb2dVertex
  10
-189.58304337169
  20
 111.51429559803
  30
0.0
   0
VERTEX
   5
193
 100
AcDbEntity
   8
LEVEL001
   6
CONTINUOUS
  62
3
 100
AcDbVertex
 100
AcDb2dVertex
  10
-183.58304337169
  20
 111.51429559803
  30
0.0
   0
SEQEND
   5
194
 100
AcDbEntity
   8
LEVEL001
   6
CONTINUOUS
  62
3
   0
INSERT
   5
195
 100
AcDbEntity
   8
LEVEL001
   6
CONTINUOUS
  62
3
 100
AcDbBlockReference
   2
_OPEN30
  10
-201.53236749124
  20
 124.53326763265
  30
0.0
  41
 3.0000000000000
  42
 3.0000000000000
  43
 3.0000000000000
  50
 132.54693474861
   0
MTEXT
   5
196
 100
AcDbEntity
   8
LEVEL001
  62
3
 100
AcDbMText
  10
-189.58304337169
  20
 113.22858131232
  30
0.0
  40
 4.0000000000000
  41
0.0
  71
7
  72
1
   1
\A1;Ｃ３
   7
GMM001
   0
ENDBLK
   5
197
 100
AcDbEntity
   8
0
 100
AcDbBlockEnd
   0
BLOCK
   5
198
 100
AcDbEntity
   8
0
 100
AcDbBlockBegin
   2
*D25
  70
65
  10
0.0
  20
0.0
  30
0.0
   3
*D25
   0
POLYLINE
   5
199
 100
AcDbEntity
   8
LEVEL001
   6
CONTINUOUS
  62
3
 100
AcDb2dPolyline
  66
1
  10
0.0
  20
0.0
  30
0.0
  70
0
   0
VERTEX
   5
19A
 100
AcDbEntity
   8
LEVEL001
   6
CONTINUOUS
  62
3
 100
AcDbVertex
 100
AcDb2dVertex
  10
-201.61745861109
  20
 133.35206433567
  30
0.0
   0
VERTEX
   5
19B
 100
AcDbEntity
   8
LEVEL001
   6
CONTINUOUS
  62
3
 100
AcDbVertex
 100
AcDb2dVertex
  10
-194.57473364199
  20
 140.03823999975
  30
0.0
   0
VERTEX
   5
19C
 100
AcDbEntity
   8
LEVEL001
   6
CONTINUOUS
  62
3
 100
AcDbVertex
 100
AcDb2dVertex
  10
-189.58304337169
  20
 111.51429559803
  30
0.0
   0
VERTEX
   5
19D
 100
AcDbEntity
   8
LEVEL001
   6
CONTINUOUS
  62
3
 100
AcDbVertex
 100
AcDb2dVertex
  10
-183.58304337169
  20
 111.51429559803
  30
0.0
   0
SEQEND
   5
19E
 100
AcDbEntity
   8
LEVEL001
   6
CONTINUOUS
  62
3
   0
INSERT
   5
19F
 100
AcDbEntity
   8
LEVEL001
   6
CONTINUOUS
  62
3
 100
AcDbBlockReference
   2
_OPEN30
  10
-201.61745861109
  20
 133.35206433567
  30
0.0
  41
 3.0000000000000
  42
 3.0000000000000
  43
 3.0000000000000
  50
 223.51232230081
   0
ENDBLK
   5
1A0
 100
AcDbEntity
   8
0
 100
AcDbBlockEnd
   0
BLOCK
   5
1A1
 100
AcDbEntity
   8
0
 100
AcDbBlockBegin
   2
*D26
  70
65
  10
0.0
  20
0.0
  30
0.0
   3
*D26
   0
LINE
   5
1A2
 100
AcDbEntity
   8
LEVEL001
 100
AcDbLine
   6
CONTINUOUS
  62
3
  10
-139.44254090106
  20
 131.90012042423
  30
0.0
  11
-138.44254090106
  21
 131.90012042423
  31
0.0
   0
LINE
   5
1A3
 100
AcDbEntity
   8
LEVEL001
 100
AcDbLine
   6
CONTINUOUS
  62
3
  10
-139.44254090106
  20
 125.90012042423
  30
0.0
  11
-140.44254090106
  21
 125.90012042423
  31
0.0
   0
LINE
   5
1A4
 100
AcDbEntity
   8
LEVEL001
 100
AcDbLine
   6
CONTINUOUS
  62
3
  10
-139.44254090106
  20
 135.65012042423
  30
0.0
  11
-139.44254090106
  21
 128.90012042423
  31
0.0
   0
LINE
   5
1A5
 100
AcDbEntity
   8
LEVEL001
 100
AcDbLine
   6
CONTINUOUS
  62
3
  10
-139.44254090106
  20
 117.64560117698
  30
0.0
  11
-139.44254090106
  21
 128.90012042423
  31
0.0
   0
INSERT
   5
1A6
 100
AcDbEntity
   8
LEVEL001
   6
CONTINUOUS
  62
3
 100
AcDbBlockReference
   2
_OPEN30
  10
-139.44254090106
  20
 131.90012042423
  30
0.0
  41
 3.0000000000000
  42
 3.0000000000000
  43
 3.0000000000000
  50
 270.00000000000
   0
INSERT
   5
1A7
 100
AcDbEntity
   8
LEVEL001
   6
CONTINUOUS
  62
3
 100
AcDbBlockReference
   2
_OPEN30
  10
-139.44254090106
  20
 125.90012042423
  30
0.0
  41
 3.0000000000000
  42
 3.0000000000000
  43
 3.0000000000000
  50
 90.000000000000
   0
MTEXT
   5
1A8
 100
AcDbEntity
   8
LEVEL001
  62
3
 100
AcDbMText
  10
-140.28889906980
  20
 120.64560117698
  30
0.0
  40
 4.0000000000000
  41
0.0
  71
9
  72
1
   1
\A1;6
   7
GMM001
  11
0.0
  21
 1.0000000000000
  31
0.0
   0
ENDBLK
   5
1A9
 100
AcDbEntity
   8
0
 100
AcDbBlockEnd
   0
BLOCK
   5
1AA
 100
AcDbEntity
   8
0
 100
AcDbBlockBegin
   2
*D27
  70
65
  10
0.0
  20
0.0
  30
0.0
   3
*D27
   0
LINE
   5
1AB
 100
AcDbEntity
   8
LEVEL001
 100
AcDbLine
   6
CONTINUOUS
  62
3
  10
-98.165514699655
  20
 122.40012042423
  30
0.0
  11
-98.165514699655
  21
 110.47065544872
  31
0.0
   0
LINE
   5
1AC
 100
AcDbEntity
   8
LEVEL001
 100
AcDbLine
   6
CONTINUOUS
  62
3
  10
-89.165514699655
  20
 123.98699273952
  30
0.0
  11
-89.165514699655
  21
 110.47065544872
  31
0.0
   0
LINE
   5
1AD
 100
AcDbEntity
   8
LEVEL001
 100
AcDbLine
   6
CONTINUOUS
  62
3
  10
-98.165514699655
  20
 111.47065544872
  30
0.0
  11
-93.665514699655
  21
 111.47065544872
  31
0.0
   0
LINE
   5
1AE
 100
AcDbEntity
   8
LEVEL001
 100
AcDbLine
   6
CONTINUOUS
  62
3
  10
-89.165514699655
  20
 111.47065544872
  30
0.0
  11
-93.665514699655
  21
 111.47065544872
  31
0.0
   0
INSERT
   5
1AF
 100
AcDbEntity
   8
LEVEL001
   6
CONTINUOUS
  62
3
 100
AcDbBlockReference
   2
_OPEN30
  10
-98.165514699655
  20
 111.47065544872
  30
0.0
  41
 3.0000000000000
  42
 3.0000000000000
  43
 3.0000000000000
  50
 180.00000000000
   0
INSERT
   5
1B0
 100
AcDbEntity
   8
LEVEL001
   6
CONTINUOUS
  62
3
 100
AcDbBlockReference
   2
_OPEN30
  10
-89.165514699655
  20
 111.47065544872
  30
0.0
  41
 3.0000000000000
  42
 3.0000000000000
  43
 3.0000000000000
  50
0.0
   0
MTEXT
   5
1B1
 100
AcDbEntity
   8
LEVEL001
  62
3
 100
AcDbMText
  10
-93.665514699655
  20
 113.18494116300
  30
0.0
  40
 4.0000000000000
  41
0.0
  71
8
  72
1
   1
\A1;9
   7
GMM001
   0
ENDBLK
   5
1B2
 100
AcDbEntity
   8
0
 100
AcDbBlockEnd
   0
BLOCK
   5
1B3
 100
AcDbEntity
   8
0
 100
AcDbBlockBegin
   2
*D28
  70
65
  10
0.0
  20
0.0
  30
0.0
   3
*D28
   0
LINE
   5
1B4
 100
AcDbEntity
   8
LEVEL001
 100
AcDbLine
   6
CONTINUOUS
  62
3
  10
-77.165514699655
  20
 122.40012042423
  30
0.0
  11
-77.165514699655
  21
 110.47065544872
  31
0.0
   0
LINE
   5
1B5
 100
AcDbEntity
   8
LEVEL001
 100
AcDbLine
   6
CONTINUOUS
  62
3
  10
-89.165514699655
  20
 111.47065544872
  30
0.0
  11
-83.165514699655
  21
 111.47065544872
  31
0.0
   0
LINE
   5
1B6
 100
AcDbEntity
   8
LEVEL001
 100
AcDbLine
   6
CONTINUOUS
  62
3
  10
-77.165514699655
  20
 111.47065544872
  30
0.0
  11
-83.165514699655
  21
 111.47065544872
  31
0.0
   0
INSERT
   5
1B7
 100
AcDbEntity
   8
LEVEL001
   6
CONTINUOUS
  62
3
 100
AcDbBlockReference
   2
_OPEN30
  10
-89.165514699655
  20
 111.47065544872
  30
0.0
  41
 3.0000000000000
  42
 3.0000000000000
  43
 3.0000000000000
  50
 180.00000000000
   0
INSERT
   5
1B8
 100
AcDbEntity
   8
LEVEL001
   6
CONTINUOUS
  62
3
 100
AcDbBlockReference
   2
_OPEN30
  10
-77.165514699655
  20
 111.47065544872
  30
0.0
  41
 3.0000000000000
  42
 3.0000000000000
  43
 3.0000000000000
  50
0.0
   0
MTEXT
   5
1B9
 100
AcDbEntity
   8
LEVEL001
  62
3
 100
AcDbMText
  10
-83.165514699655
  20
 113.18494116300
  30
0.0
  40
 4.0000000000000
  41
0.0
  71
8
  72
1
   1
\A1;12
   7
GMM001
   0
ENDBLK
   5
1BA
 100
AcDbEntity
   8
0
 100
AcDbBlockEnd
   0
BLOCK
   5
1BB
 100
AcDbEntity
   8
0
 100
AcDbBlockBegin
   2
*D29
  70
65
  10
0.0
  20
0.0
  30
0.0
   3
*D29
   0
LINE
   5
1BC
 100
AcDbEntity
   8
LEVEL001
 100
AcDbLine
   6
CONTINUOUS
  62
3
  10
-98.665514699655
  20
 187.60405334841
  30
0.0
  11
-106.73462630369
  21
 187.60405334841
  31
0.0
   0
LINE
   5
1BD
 100
AcDbEntity
   8
LEVEL001
 100
AcDbLine
   6
CONTINUOUS
  62
3
  10
-98.665514699655
  20
 193.60405334841
  30
0.0
  11
-106.73462630369
  21
 193.60405334841
  31
0.0
   0
LINE
   5
1BE
 100
AcDbEntity
   8
LEVEL001
 100
AcDbLine
   6
CONTINUOUS
  62
3
  10
-105.73462630369
  20
 187.60405334841
  30
0.0
  11
-105.73462630369
  21
 190.60405334841
  31
0.0
   0
LINE
   5
1BF
 100
AcDbEntity
   8
LEVEL001
 100
AcDbLine
   6
CONTINUOUS
  62
3
  10
-105.73462630369
  20
 193.60405334841
  30
0.0
  11
-105.73462630369
  21
 190.60405334841
  31
0.0
   0
INSERT
   5
1C0
 100
AcDbEntity
   8
LEVEL001
   6
CONTINUOUS
  62
3
 100
AcDbBlockReference
   2
_OPEN30
  10
-105.73462630369
  20
 187.60405334841
  30
0.0
  41
 3.0000000000000
  42
 3.0000000000000
  43
 3.0000000000000
  50
 270.00000000000
   0
INSERT
   5
1C1
 100
AcDbEntity
   8
LEVEL001
   6
CONTINUOUS
  62
3
 100
AcDbBlockReference
   2
_OPEN30
  10
-105.73462630369
  20
 193.60405334841
  30
0.0
  41
 3.0000000000000
  42
 3.0000000000000
  43
 3.0000000000000
  50
 90.000000000000
   0
MTEXT
   5
1C2
 100
AcDbEntity
   8
LEVEL001
  62
3
 100
AcDbMText
  10
-107.44891201797
  20
 190.60405334841
  30
0.0
  40
 4.0000000000000
  41
0.0
  71
8
  72
1
   1
\A1;6
   7
GMM001
  11
0.0
  21
 1.0000000000000
  31
0.0
   0
ENDBLK
   5
1C3
 100
AcDbEntity
   8
0
 100
AcDbBlockEnd
   0
BLOCK
   5
1C4
 100
AcDbEntity
   8
0
 100
AcDbBlockBegin
   2
*D30
  70
65
  10
0.0
  20
0.0
  30
0.0
   3
*D30
   0
LINE
   5
1C5
 100
AcDbEntity
   8
LEVEL001
 100
AcDbLine
   6
CONTINUOUS
  62
3
  10
-76.665514699655
  20
 187.60405334841
  30
0.0
  11
-66.142970144576
  21
 187.60405334841
  31
0.0
   0
LINE
   5
1C6
 100
AcDbEntity
   8
LEVEL001
 100
AcDbLine
   6
CONTINUOUS
  62
3
  10
-77.165514699655
  20
 205.60405334841
  30
0.0
  11
-66.142970144576
  21
 205.60405334841
  31
0.0
   0
LINE
   5
1C7
 100
AcDbEntity
   8
LEVEL001
 100
AcDbLine
   6
CONTINUOUS
  62
3
  10
-67.142970144576
  20
 187.60405334841
  30
0.0
  11
-67.142970144576
  21
 196.60405334841
  31
0.0
   0
LINE
   5
1C8
 100
AcDbEntity
   8
LEVEL001
 100
AcDbLine
   6
CONTINUOUS
  62
3
  10
-67.142970144576
  20
 205.60405334841
  30
0.0
  11
-67.142970144576
  21
 196.60405334841
  31
0.0
   0
INSERT
   5
1C9
 100
AcDbEntity
   8
LEVEL001
   6
CONTINUOUS
  62
3
 100
AcDbBlockReference
   2
_OPEN30
  10
-67.142970144576
  20
 187.60405334841
  30
0.0
  41
 3.0000000000000
  42
 3.0000000000000
  43
 3.0000000000000
  50
 270.00000000000
   0
INSERT
   5
1CA
 100
AcDbEntity
   8
LEVEL001
   6
CONTINUOUS
  62
3
 100
AcDbBlockReference
   2
_OPEN30
  10
-67.142970144576
  20
 205.60405334841
  30
0.0
  41
 3.0000000000000
  42
 3.0000000000000
  43
 3.0000000000000
  50
 90.000000000000
   0
MTEXT
   5
1CB
 100
AcDbEntity
   8
LEVEL001
  62
3
 100
AcDbMText
  10
-68.857255858862
  20
 196.60405334841
  30
0.0
  40
 4.0000000000000
  41
0.0
  71
8
  72
1
   1
\A1;18
   7
GMM001
  11
0.0
  21
 1.0000000000000
  31
0.0
   0
ENDBLK
   5
1CC
 100
AcDbEntity
   8
0
 100
AcDbBlockEnd
   0
BLOCK
   5
1CD
 100
AcDbEntity
   8
0
 100
AcDbBlockBegin
   2
*D31
  70
65
  10
0.0
  20
0.0
  30
0.0
   3
*D31
   0
LINE
   5
1CE
 100
AcDbEntity
   8
LEVEL001
 100
AcDbLine
   6
CONTINUOUS
  62
3
  10
-43.816753226994
  20
 187.10405334841
  30
0.0
  11
-43.816753226994
  21
 171.96407911422
  31
0.0
   0
LINE
   5
1CF
 100
AcDbEntity
   8
LEVEL001
 100
AcDbLine
   6
CONTINUOUS
  62
3
  10
-31.816753226994
  20
 187.10405334841
  30
0.0
  11
-31.816753226994
  21
 171.96407911422
  31
0.0
   0
LINE
   5
1D0
 100
AcDbEntity
   8
LEVEL001
 100
AcDbLine
   6
CONTINUOUS
  62
3
  10
-43.816753226994
  20
 172.96407911422
  30
0.0
  11
-37.816753226994
  21
 172.96407911422
  31
0.0
   0
LINE
   5
1D1
 100
AcDbEntity
   8
LEVEL001
 100
AcDbLine
   6
CONTINUOUS
  62
3
  10
-31.816753226994
  20
 172.96407911422
  30
0.0
  11
-37.816753226994
  21
 172.96407911422
  31
0.0
   0
INSERT
   5
1D2
 100
AcDbEntity
   8
LEVEL001
   6
CONTINUOUS
  62
3
 100
AcDbBlockReference
   2
_OPEN30
  10
-43.816753226994
  20
 172.96407911422
  30
0.0
  41
 3.0000000000000
  42
 3.0000000000000
  43
 3.0000000000000
  50
 180.00000000000
   0
INSERT
   5
1D3
 100
AcDbEntity
   8
LEVEL001
   6
CONTINUOUS
  62
3
 100
AcDbBlockReference
   2
_OPEN30
  10
-31.816753226994
  20
 172.96407911422
  30
0.0
  41
 3.0000000000000
  42
 3.0000000000000
  43
 3.0000000000000
  50
0.0
   0
MTEXT
   5
1D4
 100
AcDbEntity
   8
LEVEL001
  62
3
 100
AcDbMText
  10
-37.947792262344
  20
 174.37441897807
  30
0.0
  40
 4.0000000000000
  41
0.0
  71
8
  72
1
   1
\A1;12
   7
GMM001
   0
ENDBLK
   5
1D5
 100
AcDbEntity
   8
0
 100
AcDbBlockEnd
   0
BLOCK
   5
1D6
 100
AcDbEntity
   8
0
 100
AcDbBlockBegin
   2
*D32
  70
65
  10
0.0
  20
0.0
  30
0.0
   3
*D32
   0
LINE
   5
1D7
 100
AcDbEntity
   8
LEVEL001
 100
AcDbLine
   6
CONTINUOUS
  62
3
  10
-65.142970144576
  20
 187.60405334841
  30
0.0
  11
-56.961040627261
  21
 187.60405334841
  31
0.0
   0
LINE
   5
1D8
 100
AcDbEntity
   8
LEVEL001
 100
AcDbLine
   6
CONTINUOUS
  62
3
  10
-130.74593407884
  20
 221.60405334841
  30
0.0
  11
-56.961040627261
  21
 221.60405334841
  31
0.0
   0
LINE
   5
1D9
 100
AcDbEntity
   8
LEVEL001
 100
AcDbLine
   6
CONTINUOUS
  62
3
  10
-57.961040627261
  20
 187.60405334841
  30
0.0
  11
-57.961040627261
  21
 204.60405334841
  31
0.0
   0
LINE
   5
1DA
 100
AcDbEntity
   8
LEVEL001
 100
AcDbLine
   6
CONTINUOUS
  62
3
  10
-57.961040627261
  20
 221.60405334841
  30
0.0
  11
-57.961040627261
  21
 204.60405334841
  31
0.0
   0
INSERT
   5
1DB
 100
AcDbEntity
   8
LEVEL001
   6
CONTINUOUS
  62
3
 100
AcDbBlockReference
   2
_OPEN30
  10
-57.961040627261
  20
 187.60405334841
  30
0.0
  41
 3.0000000000000
  42
 3.0000000000000
  43
 3.0000000000000
  50
 270.00000000000
   0
INSERT
   5
1DC
 100
AcDbEntity
   8
LEVEL001
   6
CONTINUOUS
  62
3
 100
AcDbBlockReference
   2
_OPEN30
  10
-57.961040627261
  20
 221.60405334841
  30
0.0
  41
 3.0000000000000
  42
 3.0000000000000
  43
 3.0000000000000
  50
 90.000000000000
   0
MTEXT
   5
1DD
 100
AcDbEntity
   8
LEVEL001
  62
3
 100
AcDbMText
  10
-59.675326341547
  20
 204.60405334841
  30
0.0
  40
 4.0000000000000
  41
0.0
  71
8
  72
1
   1
\A1;34
   7
GMM001
  11
0.0
  21
 1.0000000000000
  31
0.0
   0
ENDBLK
   5
1DE
 100
AcDbEntity
   8
0
 100
AcDbBlockEnd
   0
BLOCK
   5
1DF
 100
AcDbEntity
   8
0
 100
AcDbBlockBegin
   2
*D33
  70
65
  10
0.0
  20
0.0
  30
0.0
   3
*D33
   0
LINE
   5
1E0
 100
AcDbEntity
   8
LEVEL001
 100
AcDbLine
   6
CONTINUOUS
  62
3
  10
-77.165514699655
  20
 171.46407911422
  30
0.0
  11
-77.165514699655
  21
 161.29480077025
  31
0.0
   0
LINE
   5
1E1
 100
AcDbEntity
   8
LEVEL001
 100
AcDbLine
   6
CONTINUOUS
  62
3
  10
-221.16551469965
  20
 171.46407911422
  30
0.0
  11
-221.16551469965
  21
 161.29480077025
  31
0.0
   0
LINE
   5
1E2
 100
AcDbEntity
   8
LEVEL001
 100
AcDbLine
   6
CONTINUOUS
  62
3
  10
-77.165514699655
  20
 162.29480077025
  30
0.0
  11
-149.16551469965
  21
 162.29480077025
  31
0.0
   0
LINE
   5
1E3
 100
AcDbEntity
   8
LEVEL001
 100
AcDbLine
   6
CONTINUOUS
  62
3
  10
-221.16551469965
  20
 162.29480077025
  30
0.0
  11
-149.16551469965
  21
 162.29480077025
  31
0.0
   0
INSERT
   5
1E4
 100
AcDbEntity
   8
LEVEL001
   6
CONTINUOUS
  62
3
 100
AcDbBlockReference
   2
_OPEN30
  10
-77.165514699655
  20
 162.29480077025
  30
0.0
  41
 3.0000000000000
  42
 3.0000000000000
  43
 3.0000000000000
  50
0.0
   0
INSERT
   5
1E5
 100
AcDbEntity
   8
LEVEL001
   6
CONTINUOUS
  62
3
 100
AcDbBlockReference
   2
_OPEN30
  10
-221.16551469965
  20
 162.29480077025
  30
0.0
  41
 3.0000000000000
  42
 3.0000000000000
  43
 3.0000000000000
  50
 180.00000000000
   0
MTEXT
   5
1E6
 100
AcDbEntity
   8
LEVEL001
  62
3
 100
AcDbMText
  10
-149.16551469965
  20
 164.00908648453
  30
0.0
  40
 4.0000000000000
  41
0.0
  71
8
  72
1
   1
\A1;144
   7
GMM001
   0
ENDBLK
   5
1E7
 100
AcDbEntity
   8
0
 100
AcDbBlockEnd
   0
BLOCK
   5
1E8
 100
AcDbEntity
   8
0
 100
AcDbBlockBegin
   2
*D34
  70
65
  10
0.0
  20
0.0
  30
0.0
   3
*D34
   0
LINE
   5
1E9
 100
AcDbEntity
   8
LEVEL001
 100
AcDbLine
   6
CONTINUOUS
  62
3
  10
-89.165514699655
  20
 134.62887597783
  30
0.0
  11
-89.165514699655
  21
 145.18628331415
  31
0.0
   0
LINE
   5
1EA
 100
AcDbEntity
   8
LEVEL001
 100
AcDbLine
   6
CONTINUOUS
  62
3
  10
-209.16551469965
  20
 134.62887597783
  30
0.0
  11
-209.16551469965
  21
 145.18628331415
  31
0.0
   0
LINE
   5
1EB
 100
AcDbEntity
   8
LEVEL001
 100
AcDbLine
   6
CONTINUOUS
  62
3
  10
-89.165514699655
  20
 144.18628331415
  30
0.0
  11
-149.16551469965
  21
 144.18628331415
  31
0.0
   0
LINE
   5
1EC
 100
AcDbEntity
   8
LEVEL001
 100
AcDbLine
   6
CONTINUOUS
  62
3
  10
-209.16551469965
  20
 144.18628331415
  30
0.0
  11
-149.16551469965
  21
 144.18628331415
  31
0.0
   0
INSERT
   5
1ED
 100
AcDbEntity
   8
LEVEL001
   6
CONTINUOUS
  62
3
 100
AcDbBlockReference
   2
_OPEN30
  10
-89.165514699655
  20
 144.18628331415
  30
0.0
  41
 3.0000000000000
  42
 3.0000000000000
  43
 3.0000000000000
  50
0.0
   0
INSERT
   5
1EE
 100
AcDbEntity
   8
LEVEL001
   6
CONTINUOUS
  62
3
 100
AcDbBlockReference
   2
_OPEN30
  10
-209.16551469965
  20
 144.18628331415
  30
0.0
  41
 3.0000000000000
  42
 3.0000000000000
  43
 3.0000000000000
  50
 180.00000000000
   0
MTEXT
   5
1EF
 100
AcDbEntity
   8
LEVEL001
  62
3
 100
AcDbMText
  10
-149.16551469965
  20
 145.90056902844
  30
0.0
  40
 4.0000000000000
  41
0.0
  71
8
  72
1
   1
\A1;120
   7
GMM001
   0
ENDBLK
   5
1F0
 100
AcDbEntity
   8
0
 100
AcDbBlockEnd
   0
BLOCK
   5
1F1
 100
AcDbEntity
   8
0
 100
AcDbBlockBegin
   2
*D35
  70
65
  10
0.0
  20
0.0
  30
0.0
   3
*D35
   0
LINE
   5
1F2
 100
AcDbEntity
   8
LEVEL001
 100
AcDbLine
   6
CONTINUOUS
  62
3
  10
-79.165514699655
  20
 204.32602295331
  30
0.0
  11
-78.382502744263
  21
 204.94802960738
  31
0.0
   0
LINE
   5
1F3
 100
AcDbEntity
   8
LEVEL001
 100
AcDbLine
   6
CONTINUOUS
  62
3
  10
-78.382502744263
  20
 204.94802960738
  30
0.0
  11
-70.255062022513
  21
 211.40428123255
  31
0.0
   0
INSERT
   5
1F4
 100
AcDbEntity
   8
LEVEL001
   6
CONTINUOUS
  62
3
 100
AcDbBlockReference
   2
_OPEN30
  10
-77.599490788871
  20
 205.57003626146
  30
0.0
  41
 3.0000000000000
  42
 3.0000000000000
  43
 3.0000000000000
  50
 218.46281951710
   0
MTEXT
   5
1F5
 100
AcDbEntity
   8
LEVEL001
  62
3
 100
AcDbMText
  10
-76.019430876136
  20
 209.01454751735
  30
0.0
  40
 4.0000000000000
  41
0.0
  71
7
  72
1
   1
\A1;R2
   7
GMM001
  11
 0.78301195539210
  21
 0.62200665407457
  31
0.0
   0
ENDBLK
   5
1F6
 100
AcDbEntity
   8
0
 100
AcDbBlockEnd
   0
BLOCK
   5
1F7
 100
AcDbEntity
   8
0
 100
AcDbBlockBegin
   2
*D36
  70
65
  10
0.0
  20
0.0
  30
0.0
   3
*D36
   0
LINE
   5
1F8
 100
AcDbEntity
   8
LEVEL001
 100
AcDbLine
   6
CONTINUOUS
  62
3
  10
-42.816753226997
  20
 220.60405334841
  30
0.0
  11
-43.197070269713
  21
 220.92864377806
  31
0.0
   0
LINE
   5
1F9
 100
AcDbEntity
   8
LEVEL001
 100
AcDbLine
   6
CONTINUOUS
  62
3
  10
-43.197070269713
  20
 220.92864377806
  30
0.0
  11
-50.179464352863
  21
 226.88793048065
  31
0.0
   0
INSERT
   5
1FA
 100
AcDbEntity
   8
LEVEL001
   6
CONTINUOUS
  62
3
 100
AcDbBlockReference
   2
_OPEN30
  10
-43.577387312429
  20
 221.25323420771
  30
0.0
  41
 3.0000000000000
  42
 3.0000000000000
  43
 3.0000000000000
  50
 319.52012938938
   0
MTEXT
   5
1FB
 100
AcDbEntity
   8
LEVEL001
  62
3
 100
AcDbMText
  10
-44.502778367187
  20
 224.29678947132
  30
0.0
  40
 4.0000000000000
  41
0.0
  71
9
  72
1
   1
\A1;R1
   7
GMM001
  11
 0.76063408543222
  21
-0.64918085929784
  31
0.0
   0
ENDBLK
   5
1FC
 100
AcDbEntity
   8
0
 100
AcDbBlockEnd
   0
BLOCK
   5
1FD
 100
AcDbEntity
   8
0
 100
AcDbBlockBegin
   2
*D37
  70
65
  10
0.0
  20
0.0
  30
0.0
   3
*D37
   0
LINE
   5
1FE
 100
AcDbEntity
   8
LEVEL001
 100
AcDbLine
   6
CONTINUOUS
  62
3
  10
 187.69123060738
  20
 225.49740065234
  30
0.0
  11
 331.03769782888
  21
 225.49740065234
  31
0.0
   0
LINE
   5
1FF
 100
AcDbEntity
   8
LEVEL001
 100
AcDbLine
   6
CONTINUOUS
  62
3
  10
 321.05272287061
  20
 191.49740065234
  30
0.0
  11
 331.03769782888
  21
 191.49740065234
  31
0.0
   0
LINE
   5
200
 100
AcDbEntity
   8
LEVEL001
 100
AcDbLine
   6
CONTINUOUS
  62
3
  10
 330.03769782888
  20
 225.49740065234
  30
0.0
  11
 330.03769782888
  21
 208.49740065234
  31
0.0
   0
LINE
   5
201
 100
AcDbEntity
   8
LEVEL001
 100
AcDbLine
   6
CONTINUOUS
  62
3
  10
 330.03769782888
  20
 191.49740065234
  30
0.0
  11
 330.03769782888
  21
 208.49740065234
  31
0.0
   0
INSERT
   5
202
 100
AcDbEntity
   8
LEVEL001
   6
CONTINUOUS
  62
3
 100
AcDbBlockReference
   2
_OPEN30
  10
 330.03769782888
  20
 225.49740065234
  30
0.0
  41
 3.0000000000000
  42
 3.0000000000000
  43
 3.0000000000000
  50
 90.000000000000
   0
INSERT
   5
203
 100
AcDbEntity
   8
LEVEL001
   6
CONTINUOUS
  62
3
 100
AcDbBlockReference
   2
_OPEN30
  10
 330.03769782888
  20
 191.49740065234
  30
0.0
  41
 3.0000000000000
  42
 3.0000000000000
  43
 3.0000000000000
  50
 270.00000000000
   0
MTEXT
   5
204
 100
AcDbEntity
   8
LEVEL001
  62
3
 100
AcDbMText
  10
 328.32341211459
  20
 208.49740065234
  30
0.0
  40
 4.0000000000000
  41
0.0
  71
8
  72
1
   1
\A1;34
   7
GMM001
  11
0.0
  21
 1.0000000000000
  31
0.0
   0
ENDBLK
   5
205
 100
AcDbEntity
   8
0
 100
AcDbBlockEnd
   0
BLOCK
   5
206
 100
AcDbEntity
   8
0
 100
AcDbBlockBegin
   2
*D38
  70
65
  10
0.0
  20
0.0
  30
0.0
   3
*D38
   0
LINE
   5
207
 100
AcDbEntity
   8
LEVEL001
 100
AcDbLine
   6
CONTINUOUS
  62
3
  10
 346.22806478369
  20
 190.99740065234
  30
0.0
  11
 346.22806478369
  21
 175.85742641814
  31
0.0
   0
LINE
   5
208
 100
AcDbEntity
   8
LEVEL001
 100
AcDbLine
   6
CONTINUOUS
  62
3
  10
 358.22806478369
  20
 190.99740065234
  30
0.0
  11
 358.22806478369
  21
 175.85742641814
  31
0.0
   0
LINE
   5
209
 100
AcDbEntity
   8
LEVEL001
 100
AcDbLine
   6
CONTINUOUS
  62
3
  10
 346.22806478369
  20
 176.85742641814
  30
0.0
  11
 352.22806478369
  21
 176.85742641814
  31
0.0
   0
LINE
   5
20A
 100
AcDbEntity
   8
LEVEL001
 100
AcDbLine
   6
CONTINUOUS
  62
3
  10
 358.22806478369
  20
 176.85742641814
  30
0.0
  11
 352.22806478369
  21
 176.85742641814
  31
0.0
   0
INSERT
   5
20B
 100
AcDbEntity
   8
LEVEL001
   6
CONTINUOUS
  62
3
 100
AcDbBlockReference
   2
_OPEN30
  10
 346.22806478369
  20
 176.85742641814
  30
0.0
  41
 3.0000000000000
  42
 3.0000000000000
  43
 3.0000000000000
  50
 180.00000000000
   0
INSERT
   5
20C
 100
AcDbEntity
   8
LEVEL001
   6
CONTINUOUS
  62
3
 100
AcDbBlockReference
   2
_OPEN30
  10
 358.22806478369
  20
 176.85742641814
  30
0.0
  41
 3.0000000000000
  42
 3.0000000000000
  43
 3.0000000000000
  50
0.0
   0
MTEXT
   5
20D
 100
AcDbEntity
   8
LEVEL001
  62
3
 100
AcDbMText
  10
 352.22806478369
  20
 178.57171213243
  30
0.0
  40
 4.0000000000000
  41
0.0
  71
8
  72
1
   1
\A1;12
   7
GMM001
   0
ENDBLK
   5
20E
 100
AcDbEntity
   8
0
 100
AcDbBlockEnd
   0
BLOCK
   5
20F
 100
AcDbEntity
   8
0
 100
AcDbBlockBegin
   2
*D39
  70
65
  10
0.0
  20
0.0
  30
0.0
   3
*D39
   0
LINE
   5
210
 100
AcDbEntity
   8
LEVEL001
 100
AcDbLine
   6
CONTINUOUS
  62
3
  10
 296.41477518693
  20
 134.09110043440
  30
0.0
  11
 296.41477518693
  21
 149.29103508933
  31
0.0
   0
LINE
   5
211
 100
AcDbEntity
   8
LEVEL001
 100
AcDbLine
   6
CONTINUOUS
  62
3
  10
 56.414775186927
  20
 148.29103508933
  30
0.0
  11
 176.41477518693
  21
 148.29103508933
  31
0.0
   0
LINE
   5
212
 100
AcDbEntity
   8
LEVEL001
 100
AcDbLine
   6
CONTINUOUS
  62
3
  10
 296.41477518693
  20
 148.29103508933
  30
0.0
  11
 176.41477518693
  21
 148.29103508933
  31
0.0
   0
INSERT
   5
213
 100
AcDbEntity
   8
LEVEL001
   6
CONTINUOUS
  62
3
 100
AcDbBlockReference
   2
_OPEN30
  10
 56.414775186927
  20
 148.29103508933
  30
0.0
  41
 3.0000000000000
  42
 3.0000000000000
  43
 3.0000000000000
  50
 180.00000000000
   0
INSERT
   5
214
 100
AcDbEntity
   8
LEVEL001
   6
CONTINUOUS
  62
3
 100
AcDbBlockReference
   2
_OPEN30
  10
 296.41477518693
  20
 148.29103508933
  30
0.0
  41
 3.0000000000000
  42
 3.0000000000000
  43
 3.0000000000000
  50
0.0
   0
MTEXT
   5
215
 100
AcDbEntity
   8
LEVEL001
  62
3
 100
AcDbMText
  10
 176.41477518693
  20
 150.00532080361
  30
0.0
  40
 4.0000000000000
  41
0.0
  71
8
  72
1
   1
\A1;240
   7
GMM001
   0
ENDBLK
   5
216
 100
AcDbEntity
   8
0
 100
AcDbBlockEnd
   0
BLOCK
   5
217
 100
AcDbEntity
   8
0
 100
AcDbBlockBegin
   2
*D40
  70
65
  10
0.0
  20
0.0
  30
0.0
   3
*D40
   0
LINE
   5
218
 100
AcDbEntity
   8
LEVEL001
 100
AcDbLine
   6
CONTINUOUS
  62
3
  10
 44.414775186927
  20
 175.35742641814
  30
0.0
  11
 44.414775186927
  21
 165.75070811049
  31
0.0
   0
LINE
   5
219
 100
AcDbEntity
   8
LEVEL001
 100
AcDbLine
   6
CONTINUOUS
  62
3
  10
 308.41477518693
  20
 176.35742641814
  30
0.0
  11
 308.41477518693
  21
 165.75070811049
  31
0.0
   0
LINE
   5
21A
 100
AcDbEntity
   8
LEVEL001
 100
AcDbLine
   6
CONTINUOUS
  62
3
  10
 44.414775186927
  20
 166.75070811049
  30
0.0
  11
 176.41477518693
  21
 166.75070811049
  31
0.0
   0
LINE
   5
21B
 100
AcDbEntity
   8
LEVEL001
 100
AcDbLine
   6
CONTINUOUS
  62
3
  10
 308.41477518693
  20
 166.75070811049
  30
0.0
  11
 176.41477518693
  21
 166.75070811049
  31
0.0
   0
INSERT
   5
21C
 100
AcDbEntity
   8
LEVEL001
   6
CONTINUOUS
  62
3
 100
AcDbBlockReference
   2
_OPEN30
  10
 44.414775186927
  20
 166.75070811049
  30
0.0
  41
 3.0000000000000
  42
 3.0000000000000
  43
 3.0000000000000
  50
 180.00000000000
   0
INSERT
   5
21D
 100
AcDbEntity
   8
LEVEL001
   6
CONTINUOUS
  62
3
 100
AcDbBlockReference
   2
_OPEN30
  10
 308.41477518693
  20
 166.75070811049
  30
0.0
  41
 3.0000000000000
  42
 3.0000000000000
  43
 3.0000000000000
  50
0.0
   0
MTEXT
   5
21E
 100
AcDbEntity
   8
LEVEL001
  62
3
 100
AcDbMText
  10
 176.41477518693
  20
 168.46499382477
  30
0.0
  40
 4.0000000000000
  41
0.0
  71
8
  72
1
   1
\A1;264
   7
GMM001
   0
ENDBLK
   5
21F
 100
AcDbEntity
   8
0
 100
AcDbBlockEnd
   0
ENDSEC
   0
SECTION
   2
ENTITIES
   0
LINE
   5
220
 100
AcDbEntity
   8
LEVEL001
 100
AcDbLine
   6
CONTINUOUS
  62
7
  10
 44.414775186927
  20
 191.49740065234
  30
0.0
  11
 62.414775186927
  21
 191.49740065234
  31
0.0
   0
LINE
   5
221
 100
AcDbEntity
   8
LEVEL001
 100
AcDbLine
   6
CONTINUOUS
  62
15
  10
 62.414775186927
  20
 191.49740065234
  30
0.0
  11
 65.414775186927
  21
 191.49740065234
  31
0.0
   0
LINE
   5
222
 100
AcDbEntity
   8
LEVEL001
 100
AcDbLine
   6
CONTINUOUS
  62
15
  10
 65.414775186927
  20
 191.49740065234
  30
0.0
  11
 65.414775186927
  21
 197.49740065234
  31
0.0
   0
DIMENSION
   5
223
 100
AcDbEntity
   8
LEVEL001
   6
CONTINUOUS
  62
3
 100
AcDbDimension
   2
*D1
  10
 65.414775186927
  20
 176.85742641814
  30
0.0
  11
 54.914775186927
  21
 176.85742641814
  31
0.0
  70
0
   3
GMM001
 100
AcDbAlignedDimension
  13
 44.414775186927
  23
 191.49740065234
  33
0.0
  14
 65.414775186927
  24
 191.49740065234
  34
0.0
 100
AcDbRotatedDimension
   0
LINE
   5
224
 100
AcDbEntity
   8
LEVEL001
 100
AcDbLine
   6
CONTINUOUS
  62
7
  10
 308.41477518693
  20
 191.49740065234
  30
0.0
  11
 290.41477518693
  21
 191.49740065234
  31
0.0
   0
LINE
   5
225
 100
AcDbEntity
   8
LEVEL001
 100
AcDbLine
   6
CONTINUOUS
  62
15
  10
 287.41477518693
  20
 191.49740065234
  30
0.0
  11
 290.41477518693
  21
 191.49740065234
  31
0.0
   0
LINE
   5
226
 100
AcDbEntity
   8
LEVEL001
 100
AcDbLine
   6
CONTINUOUS
  62
15
  10
 287.41477518693
  20
 191.49740065234
  30
0.0
  11
 287.41477518693
  21
 197.49740065234
  31
0.0
   0
DIMENSION
   5
227
 100
AcDbEntity
   8
LEVEL001
   6
CONTINUOUS
  62
3
 100
AcDbDimension
   2
*D2
  10
 287.41477518693
  20
 176.85742641814
  30
0.0
  11
 176.41477518693
  21
 176.85742641814
  31
0.0
  70
0
   3
GMM001
 100
AcDbAlignedDimension
  13
 65.414775186927
  23
 176.85742641814
  33
0.0
  14
 287.41477518693
  24
 191.49740065234
  34
0.0
 100
AcDbRotatedDimension
   0
DIMENSION
   5
228
 100
AcDbEntity
   8
LEVEL001
   6
CONTINUOUS
  62
3
 100
AcDbDimension
   2
*D3
  10
 308.41477518693
  20
 176.85742641814
  30
0.0
  11
 297.91477518693
  21
 176.85742641814
  31
0.0
  70
0
   3
GMM001
 100
AcDbAlignedDimension
  13
 287.41477518693
  23
 176.85742641814
  33
0.0
  14
 308.41477518693
  24
 191.49740065234
  34
0.0
 100
AcDbRotatedDimension
   0
DIMENSION
   5
229
 100
AcDbEntity
   8
LEVEL001
   6
CONTINUOUS
  62
3
 100
AcDbDimension
   2
*D4
  10
 279.73062236603
  20
 197.49740065234
  30
0.0
  11
 279.73062236603
  21
 194.49740065234
  31
0.0
  70
0
   3
GMM001
 100
AcDbAlignedDimension
  13
 287.41477518693
  23
 191.49740065234
  33
0.0
  14
 287.41477518693
  24
 197.49740065234
  34
0.0
  50
 90.000000000000
 100
AcDbRotatedDimension
   0
LINE
   5
22A
 100
AcDbEntity
   8
LEVEL001
 100
AcDbLine
   6
DASHDOT
  62
3
  10
 176.41477518693
  20
 232.31973987799
  30
0.0
  11
 176.41477518693
  21
 210.01312398259
  31
0.0
   0
DIMENSION
   5
22B
 100
AcDbEntity
   8
LEVEL001
   6
CONTINUOUS
  62
3
 100
AcDbDimension
   2
*D5
  10
 186.19123060738
  20
 219.49740065234
  30
0.0
  11
 186.19123060738
  21
 217.07210212629
  31
0.0
  70
128
   3
GMM002
 100
AcDbAlignedDimension
  13
 176.41477518693
  23
 225.49740065234
  33
0.0
  14
 176.41477518693
  24
 219.49740065234
  34
0.0
  50
 270.00000000000
 100
AcDbRotatedDimension
   0
ARC
   5
22C
 100
AcDbEntity
   8
LEVEL001
   6
CONTINUOUS
  62
15
 100
AcDbCircle
  10
 176.41477518693
  20
-71.522376315828
  30
0.0
  40
 291.02000000000
 100
AcDbArc
  50
 67.578512196856
  51
 112.42148780314
   0
DIMENSION
   5
22D
 100
AcDbEntity
   8
LEVEL001
   6
CONTINUOUS
  62
3
 100
AcDbDimension
   2
*D6
  10
 319.55272287061
  20
 209.49740065234
  30
0.0
  11
 319.55272287061
  21
 200.49740065234
  31
0.0
  70
0
   3
GMM001
 100
AcDbAlignedDimension
  13
 308.41477518693
  23
 191.49740065234
  33
0.0
  14
 308.41477518693
  24
 209.49740065234
  34
0.0
  50
 90.000000000000
 100
AcDbRotatedDimension
   0
LINE
   5
22E
 100
AcDbEntity
   8
LEVEL001
 100
AcDbLine
   6
CONTINUOUS
  62
7
  10
 308.41477518693
  20
 191.49740065234
  30
0.0
  11
 308.41477518693
  21
 207.92753627754
  31
0.0
   0
ARC
   5
22F
 100
AcDbEntity
   8
LEVEL001
   6
CONTINUOUS
  62
7
 100
AcDbCircle
  10
 306.41477518693
  20
 207.92753627754
  30
0.0
  40
 2.0000000000000
 100
AcDbArc
  50
0.0
  51
 76.340640560320
   0
LINE
   5
230
 100
AcDbEntity
   8
LEVEL001
 100
AcDbLine
   6
CONTINUOUS
  62
7
  10
 44.414775186927
  20
 191.49740065234
  30
0.0
  11
 44.414775186927
  21
 207.92753627754
  31
0.0
   0
ARC
   5
231
 100
AcDbEntity
   8
LEVEL001
   6
CONTINUOUS
  62
7
 100
AcDbCircle
  10
 46.414775186927
  20
 207.92753627754
  30
0.0
  40
 2.0000000000000
 100
AcDbArc
  50
 103.65935943964
  51
 180.00000000000
   0
ARC
   5
232
 100
AcDbEntity
   8
LEVEL001
   6
CONTINUOUS
  62
7
 100
AcDbCircle
  10
 176.41477518693
  20
-327.00259934766
  30
0.0
  40
 552.50000000000
 100
AcDbArc
  50
 76.340640560348
  51
 103.65935943965
   0
DIMENSION
   5
233
 100
AcDbEntity
   8
LEVEL001
   6
CONTINUOUS
  62
3
 100
AcDbDimension
   2
*D7
  10
 306.41477518693
  20
 207.92753627754
  30
0.0
  11
 311.02204439900
  21
 211.39585359018
  31
0.0
  70
132
   3
GMM003
 100
AcDbRadialDimension
  15
 308.01263093868
  25
 209.13038996631
  35
0.0
  40
 4.1385589661696
   0
LINE
   5
234
 100
AcDbEntity
   8
LEVEL001
 100
AcDbLine
   6
CONTINUOUS
  62
7
  10
 62.414775186927
  20
 191.49740065234
  30
0.0
  11
 62.414775186927
  21
 199.49747609355
  31
0.0
   0
LINE
   5
235
 100
AcDbEntity
   8
LEVEL001
 100
AcDbLine
   6
CONTINUOUS
  62
7
  10
 290.41477518693
  20
 191.49740065234
  30
0.0
  11
 290.41477518693
  21
 199.49747609355
  31
0.0
   0
ARC
   5
236
 100
AcDbEntity
   8
LEVEL001
   6
CONTINUOUS
  62
7
 100
AcDbCircle
  10
 176.41477518693
  20
-71.522376315828
  30
0.0
  40
 294.02000000000
 100
AcDbArc
  50
 67.186752278233
  51
 112.81324772177
   0
POLYLINE
   5
237
 100
AcDbEntity
   8
LEVEL001
   6
CONTINUOUS
  62
3
 100
AcDb2dPolyline
  66
1
  10
0.0
  20
0.0
  30
0.0
  70
0
   0
VERTEX
   5
238
 100
AcDbEntity
   8
LEVEL001
   6
CONTINUOUS
  62
3
 100
AcDbVertex
 100
AcDb2dVertex
  10
 114.20675570483
  20
 225.00379416879
  30
0.0
   0
VERTEX
   5
239
 100
AcDbEntity
   8
LEVEL001
   6
CONTINUOUS
  62
3
 100
AcDbVertex
 100
AcDb2dVertex
  10
 113.74836565566
  20
 221.93197882760
  30
0.0
   0
VERTEX
   5
23A
 100
AcDbEntity
   8
LEVEL001
   6
CONTINUOUS
  62
3
 100
AcDbVertex
 100
AcDb2dVertex
  10
 112.60943541249
  20
 224.82144397339
  30
0.0
   0
SEQEND
   5
23B
 100
AcDbEntity
   8
LEVEL001
   6
CONTINUOUS
  62
3
   0
TEXT
   5
23C
 100
AcDbEntity
   8
LEVEL001
  62
3
 100
AcDbText
  10
 112.87204263347
  20
 244.72228828298
  30
0.0
  40
 4.0000000000000
   1
Ｒ５５２.５
  50
 276.51269554280
  41
 0.75000000000000
   7
STANDARD
 100
AcDbText
   0
POLYLINE
   5
23D
 100
AcDbEntity
   8
LEVEL001
   6
CONTINUOUS
  62
3
 100
AcDb2dPolyline
  66
1
  10
0.0
  20
0.0
  30
0.0
  70
0
   0
VERTEX
   5
23E
 100
AcDbEntity
   8
LEVEL001
   6
CONTINUOUS
  62
3
 100
AcDbVertex
 100
AcDb2dVertex
  10
 136.37653505876
  20
 219.75986807673
  30
0.0
   0
VERTEX
   5
23F
 100
AcDbEntity
   8
LEVEL001
   6
CONTINUOUS
  62
3
 100
AcDbVertex
 100
AcDb2dVertex
  10
 135.99712586202
  20
 216.67730103140
  30
0.0
   0
VERTEX
   5
240
 100
AcDbEntity
   8
LEVEL001
   6
CONTINUOUS
  62
3
 100
AcDbVertex
 100
AcDb2dVertex
  10
 134.78442034216
  20
 219.53658699990
  30
0.0
   0
SEQEND
   5
241
 100
AcDbEntity
   8
LEVEL001
   6
CONTINUOUS
  62
3
   0
LINE
   5
242
 100
AcDbEntity
   8
LEVEL001
 100
AcDbLine
   6
CONTINUOUS
  62
3
  10
 113.74836565566
  20
 221.93197882760
  30
0.0
  11
 111.16881963720
  21
 244.52784822755
  31
0.0
   0
LINE
   5
243
 100
AcDbEntity
   8
LEVEL001
 100
AcDbLine
   6
CONTINUOUS
  62
7
  10
 346.22806478369
  20
 191.49740065234
  30
0.0
  11
 358.22806478369
  21
 191.49740065234
  31
0.0
   0
LINE
   5
244
 100
AcDbEntity
   8
LEVEL001
 100
AcDbLine
   6
CONTINUOUS
  62
7
  10
 346.22806478369
  20
 209.49740065234
  30
0.0
  11
 358.22806478369
  21
 209.49740065234
  31
0.0
   0
LINE
   5
245
 100
AcDbEntity
   8
LEVEL001
 100
AcDbLine
   6
CONTINUOUS
  62
7
  10
 346.22806478369
  20
 224.49740065234
  30
0.0
  11
 346.22806478369
  21
 191.49740065234
  31
0.0
   0
ARC
   5
246
 100
AcDbEntity
   8
LEVEL001
   6
CONTINUOUS
  62
7
 100
AcDbCircle
  10
 347.22806478368
  20
 224.49740065234
  30
0.0
  40
 1.0000000000000
 100
AcDbArc
  50
 89.999999999779
  51
 180.00000000000
   0
POINT
   5
247
 100
AcDbEntity
   8
LEVEL001
 100
AcDbPoint
  62
7
  10
 346.22806478369
  20
 225.49740065234
  30
0.0
   0
LINE
   5
248
 100
AcDbEntity
   8
LEVEL001
 100
AcDbLine
   6
CONTINUOUS
  62
7
  10
 347.22806478369
  20
 225.49740065234
  30
0.0
  11
 357.22806478369
  21
 225.49740065234
  31
0.0
   0
ARC
   5
249
 100
AcDbEntity
   8
LEVEL001
   6
CONTINUOUS
  62
7
 100
AcDbCircle
  10
 357.22806478369
  20
 224.49740065234
  30
0.0
  40
 1.0000000000000
 100
AcDbArc
  50
0.0
  51
 90.000000000000
   0
POINT
   5
24A
 100
AcDbEntity
   8
LEVEL001
 100
AcDbPoint
  62
7
  10
 358.22806478369
  20
 225.49740065234
  30
0.0
   0
LINE
   5
24B
 100
AcDbEntity
   8
LEVEL001
 100
AcDbLine
   6
CONTINUOUS
  62
7
  10
 358.22806478369
  20
 224.49740065234
  30
0.0
  11
 358.22806478369
  21
 191.49740065234
  31
0.0
   0
LINE
   5
24C
 100
AcDbEntity
   8
LEVEL001
 100
AcDbLine
   6
DASHDOT
  62
3
  10
 296.41477518693
  20
 207.88539549399
  30
0.0
  11
 296.41477518693
  21
 187.86408183048
  31
0.0
   0
LINE
   5
24D
 100
AcDbEntity
   8
LEVEL001
 100
AcDbLine
   6
DOT
  62
1
  10
 294.41477518693
  20
 204.49740065234
  30
0.0
  11
 296.41477518693
  21
 206.49740065234
  31
0.0
   0
LINE
   5
24E
 100
AcDbEntity
   8
LEVEL001
 100
AcDbLine
   6
DOT
  62
1
  10
 298.41477518693
  20
 204.49740065234
  30
0.0
  11
 296.41477518693
  21
 206.49740065234
  31
0.0
   0
LINE
   5
24F
 100
AcDbEntity
   8
LEVEL001
 100
AcDbLine
   6
DOT
  62
1
  10
 298.41477518693
  20
 204.49740065234
  30
0.0
  11
 294.41477518693
  21
 204.49740065234
  31
0.0
   0
LINE
   5
250
 100
AcDbEntity
   8
LEVEL001
 100
AcDbLine
   6
DASHDOT
  62
3
  10
 352.22806478369
  20
 207.88539549399
  30
0.0
  11
 352.22806478369
  21
 187.86408183048
  31
0.0
   0
LINE
   5
251
 100
AcDbEntity
   8
LEVEL001
 100
AcDbLine
   6
DOT
  62
1
  10
 350.22806478369
  20
 204.49740065234
  30
0.0
  11
 352.22806478369
  21
 206.49740065234
  31
0.0
   0
LINE
   5
252
 100
AcDbEntity
   8
LEVEL001
 100
AcDbLine
   6
DOT
  62
1
  10
 354.22806478369
  20
 204.49740065234
  30
0.0
  11
 352.22806478369
  21
 206.49740065234
  31
0.0
   0
LINE
   5
253
 100
AcDbEntity
   8
LEVEL001
 100
AcDbLine
   6
DOT
  62
1
  10
 354.22806478369
  20
 204.49740065234
  30
0.0
  11
 350.22806478369
  21
 204.49740065234
  31
0.0
   0
LINE
   5
254
 100
AcDbEntity
   8
LEVEL001
 100
AcDbLine
   6
DASHDOT
  62
3
  10
 56.414775186927
  20
 207.88539549399
  30
0.0
  11
 56.414775186927
  21
 187.86408183048
  31
0.0
   0
LINE
   5
255
 100
AcDbEntity
   8
LEVEL001
 100
AcDbLine
   6
DOT
  62
1
  10
 58.414775186927
  20
 204.49740065234
  30
0.0
  11
 56.414775186927
  21
 206.49740065234
  31
0.0
   0
LINE
   5
256
 100
AcDbEntity
   8
LEVEL001
 100
AcDbLine
   6
DOT
  62
1
  10
 54.414775186927
  20
 204.49740065234
  30
0.0
  11
 56.414775186927
  21
 206.49740065234
  31
0.0
   0
LINE
   5
257
 100
AcDbEntity
   8
LEVEL001
 100
AcDbLine
   6
DOT
  62
1
  10
 54.414775186927
  20
 204.49740065234
  30
0.0
  11
 58.414775186927
  21
 204.49740065234
  31
0.0
   0
LINE
   5
258
 100
AcDbEntity
   8
LEVEL001
 100
AcDbLine
   6
DOT
  62
1
  10
 349.57806478369
  20
 191.49740065234
  30
0.0
  11
 350.57806478369
  21
 192.49740065234
  31
0.0
   0
LINE
   5
259
 100
AcDbEntity
   8
LEVEL001
 100
AcDbLine
   6
DOT
  62
1
  10
 354.87806478369
  20
 191.49740065234
  30
0.0
  11
 353.87806478369
  21
 192.49740065234
  31
0.0
   0
LINE
   5
25A
 100
AcDbEntity
   8
LEVEL001
 100
AcDbLine
   6
DOT
  62
1
  10
 350.57806478369
  20
 192.49740065234
  30
0.0
  11
 353.87806478369
  21
 192.49740065234
  31
0.0
   0
LINE
   5
25B
 100
AcDbEntity
   8
LEVEL001
 100
AcDbLine
   6
DOT
  62
1
  10
 350.57806478369
  20
 192.49740065234
  30
0.0
  11
 350.57806478369
  21
 204.49740065234
  31
0.0
   0
LINE
   5
25C
 100
AcDbEntity
   8
LEVEL001
 100
AcDbLine
   6
DOT
  62
1
  10
 350.22806478369
  20
 192.14740065234
  30
0.0
  11
 350.22806478369
  21
 204.49740065234
  31
0.0
   0
LINE
   5
25D
 100
AcDbEntity
   8
LEVEL001
 100
AcDbLine
   6
DOT
  62
1
  10
 353.87806478369
  20
 192.49740065234
  30
0.0
  11
 353.87806478369
  21
 204.49740065234
  31
0.0
   0
LINE
   5
25E
 100
AcDbEntity
   8
LEVEL001
 100
AcDbLine
   6
DOT
  62
1
  10
 354.22806478369
  20
 192.14740065234
  30
0.0
  11
 354.22806478369
  21
 204.49740065234
  31
0.0
   0
LINE
   5
25F
 100
AcDbEntity
   8
LEVEL001
 100
AcDbLine
   6
DOT
  62
1
  10
 293.76477518693
  20
 191.49740065234
  30
0.0
  11
 294.76477518693
  21
 192.49740065234
  31
0.0
   0
LINE
   5
260
 100
AcDbEntity
   8
LEVEL001
 100
AcDbLine
   6
DOT
  62
1
  10
 294.76477518693
  20
 192.49740065234
  30
0.0
  11
 298.06477518693
  21
 192.49740065234
  31
0.0
   0
LINE
   5
261
 100
AcDbEntity
   8
LEVEL001
 100
AcDbLine
   6
DOT
  62
1
  10
 299.06477518693
  20
 191.49740065234
  30
0.0
  11
 298.06477518693
  21
 192.49740065234
  31
0.0
   0
LINE
   5
262
 100
AcDbEntity
   8
LEVEL001
 100
AcDbLine
   6
DOT
  62
1
  10
 53.764775186927
  20
 191.49740065234
  30
0.0
  11
 54.764775186927
  21
 192.49740065234
  31
0.0
   0
LINE
   5
263
 100
AcDbEntity
   8
LEVEL001
 100
AcDbLine
   6
DOT
  62
1
  10
 54.764775186927
  20
 192.49740065234
  30
0.0
  11
 58.064775186927
  21
 192.49740065234
  31
0.0
   0
LINE
   5
264
 100
AcDbEntity
   8
LEVEL001
 100
AcDbLine
   6
DOT
  62
1
  10
 59.064775186927
  20
 191.49740065234
  30
0.0
  11
 58.064775186927
  21
 192.49740065234
  31
0.0
   0
LINE
   5
265
 100
AcDbEntity
   8
LEVEL001
 100
AcDbLine
   6
DOT
  62
1
  10
 54.764775186927
  20
 192.49740065234
  30
0.0
  11
 54.764775186927
  21
 204.49740065234
  31
0.0
   0
LINE
   5
266
 100
AcDbEntity
   8
LEVEL001
 100
AcDbLine
   6
DOT
  62
1
  10
 54.414775186927
  20
 192.14740065234
  30
0.0
  11
 54.414775186927
  21
 204.49740065234
  31
0.0
   0
LINE
   5
267
 100
AcDbEntity
   8
LEVEL001
 100
AcDbLine
   6
DOT
  62
1
  10
 58.414775186927
  20
 192.14740065234
  30
0.0
  11
 58.414775186927
  21
 204.49740065234
  31
0.0
   0
LINE
   5
268
 100
AcDbEntity
   8
LEVEL001
 100
AcDbLine
   6
DOT
  62
1
  10
 58.064775186927
  20
 192.49740065234
  30
0.0
  11
 58.064775186927
  21
 204.49740065234
  31
0.0
   0
LINE
   5
269
 100
AcDbEntity
   8
LEVEL001
 100
AcDbLine
   6
DOT
  62
1
  10
 294.76477518693
  20
 192.49740065234
  30
0.0
  11
 294.76477518693
  21
 204.49740065234
  31
0.0
   0
LINE
   5
26A
 100
AcDbEntity
   8
LEVEL001
 100
AcDbLine
   6
DOT
  62
1
  10
 294.41477518693
  20
 192.14740065234
  30
0.0
  11
 294.41477518693
  21
 204.49740065234
  31
0.0
   0
LINE
   5
26B
 100
AcDbEntity
   8
LEVEL001
 100
AcDbLine
   6
DOT
  62
1
  10
 298.06477518693
  20
 192.49740065234
  30
0.0
  11
 298.06477518693
  21
 204.49740065234
  31
0.0
   0
LINE
   5
26C
 100
AcDbEntity
   8
LEVEL001
 100
AcDbLine
   6
DOT
  62
1
  10
 298.41477518693
  20
 192.14740065234
  30
0.0
  11
 298.41477518693
  21
 204.49740065234
  31
0.0
   0
DIMENSION
   5
26D
 100
AcDbEntity
   8
LEVEL001
   6
CONTINUOUS
  62
3
 100
AcDbDimension
   2
*D8
  10
 347.22806478368
  20
 224.49740065234
  30
0.0
  11
 344.56912700245
  21
 227.07247443385
  31
0.0
  70
132
   3
GMM003
 100
AcDbRadialDimension
  15
 346.50972031268
  25
 225.19308824097
  35
0.0
  40
 3.1994953301911
   0
LINE
   5
26E
 100
AcDbEntity
   8
LEVEL001
 100
AcDbLine
   6
CONTINUOUS
  62
7
  10
 62.414775186927
  20
 135.17797274968
  30
0.0
  11
 65.414775186927
  21
 132.17797274968
  31
0.0
   0
POINT
   5
26F
 100
AcDbEntity
   8
LEVEL001
 100
AcDbPoint
  62
7
  10
 65.414775186927
  20
 135.17797274968
  30
0.0
   0
LINE
   5
270
 100
AcDbEntity
   8
LEVEL001
 100
AcDbLine
   6
CONTINUOUS
  62
7
  10
 65.414775186927
  20
 132.17797274968
  30
0.0
  11
 65.414775186927
  21
 126.17797274968
  31
0.0
   0
LINE
   5
271
 100
AcDbEntity
   8
LEVEL001
 100
AcDbLine
   6
CONTINUOUS
  62
7
  10
 65.414775186927
  20
 126.17797274968
  30
0.0
  11
 62.414775186927
  21
 123.17797274968
  31
0.0
   0
POINT
   5
272
 100
AcDbEntity
   8
LEVEL001
 100
AcDbPoint
  62
7
  10
 65.414775186927
  20
 123.17797274968
  30
0.0
   0
LINE
   5
273
 100
AcDbEntity
   8
LEVEL001
 100
AcDbLine
   6
DASHDOT
  62
3
  10
 56.414775186927
  20
 133.59110043440
  30
0.0
  11
 56.414775186927
  21
 124.76484506496
  31
0.0
   0
CIRCLE
   5
274
 100
AcDbEntity
   8
LEVEL001
 100
AcDbCircle
   6
CONTINUOUS
  62
7
  10
 56.414775186927
  20
 129.17797274968
  30
0.0
  40
 2.0000000000000
   0
CIRCLE
   5
275
 100
AcDbEntity
   8
LEVEL001
 100
AcDbCircle
   6
CONTINUOUS
  62
15
  10
 56.414775186927
  20
 129.17797274968
  30
0.0
  40
 1.6500000000000
   0
DIMENSION
   5
276
 100
AcDbEntity
   8
LEVEL001
   6
CONTINUOUS
  62
3
 100
AcDbDimension
   2
*D9
  10
 56.414775186927
  20
 148.29103508933
  30
0.0
  11
 50.414775186927
  21
 148.29103508933
  31
0.0
  70
0
   3
GMM001
 100
AcDbAlignedDimension
  13
 44.414775186927
  23
 135.17797274968
  33
0.0
  14
 56.414775186927
  24
 133.59110043440
  34
0.0
 100
AcDbRotatedDimension
   0
LINE
   5
277
 100
AcDbEntity
   8
LEVEL001
 100
AcDbLine
   6
CONTINUOUS
  62
7
  10
 290.41477518693
  20
 135.17797274968
  30
0.0
  11
 287.41477518693
  21
 132.17797274968
  31
0.0
   0
POINT
   5
278
 100
AcDbEntity
   8
LEVEL001
 100
AcDbPoint
  62
7
  10
 287.41477518693
  20
 135.17797274968
  30
0.0
   0
LINE
   5
279
 100
AcDbEntity
   8
LEVEL001
 100
AcDbLine
   6
CONTINUOUS
  62
7
  10
 287.41477518693
  20
 132.17797274968
  30
0.0
  11
 287.41477518693
  21
 126.17797274968
  31
0.0
   0
LINE
   5
27A
 100
AcDbEntity
   8
LEVEL001
 100
AcDbLine
   6
CONTINUOUS
  62
7
  10
 287.41477518693
  20
 126.17797274968
  30
0.0
  11
 290.41477518693
  21
 123.17797274968
  31
0.0
   0
POINT
   5
27B
 100
AcDbEntity
   8
LEVEL001
 100
AcDbPoint
  62
7
  10
 287.41477518693
  20
 123.17797274968
  30
0.0
   0
LINE
   5
27C
 100
AcDbEntity
   8
LEVEL001
 100
AcDbLine
   6
DASHDOT
  62
3
  10
 296.41477518693
  20
 133.59110043440
  30
0.0
  11
 296.41477518693
  21
 124.76484506496
  31
0.0
   0
CIRCLE
   5
27D
 100
AcDbEntity
   8
LEVEL001
 100
AcDbCircle
   6
CONTINUOUS
  62
7
  10
 296.41477518693
  20
 129.17797274968
  30
0.0
  40
 2.0000000000000
   0
CIRCLE
   5
27E
 100
AcDbEntity
   8
LEVEL001
 100
AcDbCircle
   6
CONTINUOUS
  62
15
  10
 296.41477518693
  20
 129.17797274968
  30
0.0
  40
 1.6500000000000
   0
LINE
   5
27F
 100
AcDbEntity
   8
LEVEL001
 100
AcDbLine
   6
CONTINUOUS
  62
15
  10
 65.414775186927
  20
 132.17797274968
  30
0.0
  11
 287.41477518693
  21
 132.17797274968
  31
0.0
   0
LINE
   5
280
 100
AcDbEntity
   8
LEVEL001
 100
AcDbLine
   6
CONTINUOUS
  62
15
  10
 65.414775186927
  20
 126.17797274968
  30
0.0
  11
 287.41477518693
  21
 126.17797274968
  31
0.0
   0
DIMENSION
   5
281
 100
AcDbEntity
   8
LEVEL001
   6
CONTINUOUS
  62
3
 100
AcDbDimension
   2
*D10
  10
 308.41477518693
  20
 148.29103508933
  30
0.0
  11
 302.41477518693
  21
 148.29103508933
  31
0.0
  70
0
   3
GMM001
 100
AcDbAlignedDimension
  13
 296.41477518693
  23
 148.29103508933
  33
0.0
  14
 308.41477518693
  24
 135.17797274968
  34
0.0
 100
AcDbRotatedDimension
   0
LINE
   5
282
 100
AcDbEntity
   8
LEVEL001
 100
AcDbLine
   6
DASHDOT
  62
3
  10
 313.13112132497
  20
 129.17797274968
  30
0.0
  11
 38.600773386173
  21
 129.17797274968
  31
0.0
   0
DIMENSION
   5
283
 100
AcDbEntity
   8
LEVEL001
   6
CONTINUOUS
  62
3
 100
AcDbDimension
   2
*D11
  10
 296.41477518693
  20
 111.74850777417
  30
0.0
  11
 291.91477518693
  21
 111.74850777417
  31
0.0
  70
0
   3
GMM001
 100
AcDbAlignedDimension
  13
 287.41477518693
  23
 123.17797274968
  33
0.0
  14
 296.41477518693
  24
 124.76484506496
  34
0.0
 100
AcDbRotatedDimension
   0
DIMENSION
   5
284
 100
AcDbEntity
   8
LEVEL001
   6
CONTINUOUS
  62
3
 100
AcDbDimension
   2
*D12
  10
 308.41477518693
  20
 111.74850777417
  30
0.0
  11
 302.41477518693
  21
 111.74850777417
  31
0.0
  70
0
   3
GMM001
 100
AcDbAlignedDimension
  13
 296.41477518693
  23
 111.74850777417
  33
0.0
  14
 308.41477518693
  24
 123.17797274968
  34
0.0
 100
AcDbRotatedDimension
   0
DIMENSION
   5
285
 100
AcDbEntity
   8
LEVEL001
   6
CONTINUOUS
  62
3
 100
AcDbDimension
   2
*D13
  10
 186.13774898552
  20
 126.17797274968
  30
0.0
  11
 186.13774898552
  21
 120.92345350243
  31
0.0
  70
128
   3
GMM004
 100
AcDbAlignedDimension
  13
 185.71456990115
  23
 132.17797274968
  33
0.0
  14
 186.24354375662
  24
 126.17797274968
  34
0.0
  50
 270.00000000000
 100
AcDbRotatedDimension
   0
INSERT
   5
286
 100
AcDbEntity
   8
LEVEL001
 100
AcDbBlockReference
   2
*D14
  10
0.0
  20
0.0
  30
0.0
   0
INSERT
   5
287
 100
AcDbEntity
   8
LEVEL001
 100
AcDbBlockReference
   2
*D15
  10
0.0
  20
0.0
  30
0.0
   0
ARC
   5
288
 100
AcDbEntity
   8
LEVEL001
   6
CONTINUOUS
  62
7
 100
AcDbCircle
  10
 45.414775186929
  20
 134.17797274968
  30
0.0
  40
 1.0000000000000
 100
AcDbArc
  50
 90.000000000087
  51
 180.00000000000
   0
POINT
   5
289
 100
AcDbEntity
   8
LEVEL001
 100
AcDbPoint
  62
7
  10
 44.414775186927
  20
 135.17797274968
  30
0.0
   0
LINE
   5
28A
 100
AcDbEntity
   8
LEVEL001
 100
AcDbLine
   6
CONTINUOUS
  62
7
  10
 44.414775186927
  20
 124.17797274968
  30
0.0
  11
 44.414775186927
  21
 134.17797274968
  31
0.0
   0
ARC
   5
28B
 100
AcDbEntity
   8
LEVEL001
   6
CONTINUOUS
  62
7
 100
AcDbCircle
  10
 45.414775186927
  20
 124.17797274968
  30
0.0
  40
 1.0000000000000
 100
AcDbArc
  50
 180.00000000000
  51
 270.00000000000
   0
POINT
   5
28C
 100
AcDbEntity
   8
LEVEL001
 100
AcDbPoint
  62
7
  10
 44.414775186927
  20
 123.17797274968
  30
0.0
   0
LINE
   5
28D
 100
AcDbEntity
   8
LEVEL001
 100
AcDbLine
   6
CONTINUOUS
  62
7
  10
 45.414775186927
  20
 135.17797274968
  30
0.0
  11
 307.41477518693
  21
 135.17797274968
  31
0.0
   0
ARC
   5
28E
 100
AcDbEntity
   8
LEVEL001
   6
CONTINUOUS
  62
7
 100
AcDbCircle
  10
 307.41477518693
  20
 134.17797274969
  30
0.0
  40
 1.0000000000000
 100
AcDbArc
  50
0.0
  51
 90.000000000000
   0
POINT
   5
28F
 100
AcDbEntity
   8
LEVEL001
 100
AcDbPoint
  62
7
  10
 308.41477518693
  20
 135.17797274968
  30
0.0
   0
LINE
   5
290
 100
AcDbEntity
   8
LEVEL001
 100
AcDbLine
   6
CONTINUOUS
  62
7
  10
 45.414775186927
  20
 123.17797274968
  30
0.0
  11
 307.41477518693
  21
 123.17797274968
  31
0.0
   0
ARC
   5
291
 100
AcDbEntity
   8
LEVEL001
   6
CONTINUOUS
  62
7
 100
AcDbCircle
  10
 307.41477518693
  20
 124.17797274968
  30
0.0
  40
 1.0000000000000
 100
AcDbArc
  50
 270.00000000000
  51
 0.22635371557040E-9
   0
POINT
   5
292
 100
AcDbEntity
   8
LEVEL001
 100
AcDbPoint
  62
7
  10
 308.41477518693
  20
 123.17797274968
  30
0.0
   0
LINE
   5
293
 100
AcDbEntity
   8
LEVEL001
 100
AcDbLine
   6
CONTINUOUS
  62
7
  10
 308.41477518693
  20
 124.17797274968
  30
0.0
  11
 308.41477518693
  21
 134.17797274968
  31
0.0
   0
INSERT
   5
294
 100
AcDbEntity
   8
LEVEL001
 100
AcDbBlockReference
   2
*D16
  10
0.0
  20
0.0
  30
0.0
   0
LINE
   5
295
 100
AcDbEntity
   8
LEVEL001
 100
AcDbLine
   6
CONTINUOUS
  62
15
  10
 49.759775186927
  20
 134.01297274968
  30
0.0
  11
 49.669775186927
  21
 134.01297274968
  31
0.0
   0
LINE
   5
296
 100
AcDbEntity
   8
LEVEL001
 100
AcDbLine
   6
CONTINUOUS
  62
15
  10
 49.669775186927
  20
 134.01297274968
  30
0.0
  11
 49.669775186927
  21
 127.00659131583
  31
0.0
   0
LINE
   5
297
 100
AcDbEntity
   8
LEVEL001
 100
AcDbLine
   6
CONTINUOUS
  62
15
  10
 49.759775186927
  20
 127.02084591545
  30
0.0
  11
 49.759775186927
  21
 134.01297274968
  31
0.0
   0
LINE
   5
298
 100
AcDbEntity
   8
LEVEL001
 100
AcDbLine
   6
CONTINUOUS
  62
15
  10
 49.669775186927
  20
 130.97229572446
  30
0.0
  11
 47.874775186927
  21
 131.45326452487
  31
0.0
   0
LINE
   5
299
 100
AcDbEntity
   8
LEVEL001
 100
AcDbLine
   6
CONTINUOUS
  62
15
  10
 49.669775186927
  20
 131.21558562686
  30
0.0
  11
 47.874775186927
  21
 131.69655442727
  31
0.0
   0
LINE
   5
29A
 100
AcDbEntity
   8
LEVEL001
 100
AcDbLine
   6
CONTINUOUS
  62
15
  10
 49.669775186927
  20
 131.73322371706
  30
0.0
  11
 47.874775186927
  21
 132.21419251747
  31
0.0
   0
LINE
   5
29B
 100
AcDbEntity
   8
LEVEL001
 100
AcDbLine
   6
CONTINUOUS
  62
15
  10
 49.669775186927
  20
 132.79955818288
  30
0.0
  11
 47.874775186927
  21
 133.28052698329
  31
0.0
   0
LINE
   5
29C
 100
AcDbEntity
   8
LEVEL001
 100
AcDbLine
   6
CONTINUOUS
  62
15
  10
 49.669775186927
  20
 133.31719627308
  30
0.0
  11
 47.874775186927
  21
 133.79816507350
  31
0.0
   0
LINE
   5
29D
 100
AcDbEntity
   8
LEVEL001
 100
AcDbLine
   6
CONTINUOUS
  62
15
  10
 47.874775186927
  20
 133.28052698329
  30
0.0
  11
 47.874775186927
  21
 133.79816507350
  31
0.0
   0
LINE
   5
29E
 100
AcDbEntity
   8
LEVEL001
 100
AcDbLine
   6
CONTINUOUS
  62
15
  10
 47.874775186927
  20
 130.93562643467
  30
0.0
  11
 47.874775186927
  21
 131.45326452487
  31
0.0
   0
LINE
   5
29F
 100
AcDbEntity
   8
LEVEL001
 100
AcDbLine
   6
CONTINUOUS
  62
15
  10
 48.674775186925
  20
 131.99983316353
  30
0.0
  11
 49.669775186927
  21
 132.15742568165
  31
0.0
   0
LINE
   5
2A0
 100
AcDbEntity
   8
LEVEL001
 100
AcDbLine
   6
CONTINUOUS
  62
15
  10
 48.674775186925
  20
 131.99983316353
  30
0.0
  11
 47.874775186927
  21
 132.67111286847
  31
0.0
   0
LINE
   5
2A1
 100
AcDbEntity
   8
LEVEL001
 100
AcDbLine
   6
CONTINUOUS
  62
15
  10
 49.669775186927
  20
 132.73453080335
  30
0.0
  11
 48.645868399338
  21
 132.57235989985
  31
0.0
   0
LINE
   5
2A2
 100
AcDbEntity
   8
LEVEL001
 100
AcDbLine
   6
CONTINUOUS
  62
15
  10
 47.874775186927
  20
 133.21938392999
  30
0.0
  11
 48.645868399338
  21
 132.57235989985
  31
0.0
   0
LINE
   5
2A3
 100
AcDbEntity
   8
LEVEL001
 100
AcDbLine
   6
CONTINUOUS
  62
15
  10
 47.874775186927
  20
 131.69655442727
  30
0.0
  11
 47.874775186927
  21
 132.21419251747
  31
0.0
   0
LINE
   5
2A4
 100
AcDbEntity
   8
LEVEL001
 100
AcDbLine
   6
CONTINUOUS
  62
15
  10
 47.874775186927
  20
 132.67111286847
  30
0.0
  11
 47.874775186927
  21
 133.21938392999
  31
0.0
   0
LINE
   5
2A5
 100
AcDbEntity
   8
LEVEL001
 100
AcDbLine
   6
CONTINUOUS
  62
15
  10
 49.669775186927
  20
 130.45465763426
  30
0.0
  11
 47.874775186927
  21
 130.93562643467
  31
0.0
   0
LINE
   5
2A6
 100
AcDbEntity
   8
LEVEL001
 100
AcDbLine
   6
CONTINUOUS
  62
15
  10
 47.874775186927
  20
 129.40341768766
  30
0.0
  11
 47.874775186927
  21
 129.92105577787
  31
0.0
   0
LINE
   5
2A7
 100
AcDbEntity
   8
LEVEL001
 100
AcDbLine
   6
CONTINUOUS
  62
15
  10
 47.874775186927
  20
 129.92105577787
  30
0.0
  11
 47.874775186927
  21
 130.08274422725
  31
0.0
   0
LINE
   5
2A8
 100
AcDbEntity
   8
LEVEL001
 100
AcDbLine
   6
CONTINUOUS
  62
15
  10
 49.669775186927
  20
 130.35113001622
  30
0.0
  11
 49.001331155837
  21
 130.24525888246
  31
0.0
   0
ARC
   5
2A9
 100
AcDbEntity
   8
LEVEL001
   6
CONTINUOUS
  62
15
 100
AcDbCircle
  10
 48.449775186927
  20
 130.08274422725
  30
0.0
  40
 0.57500000000000
 100
AcDbArc
  50
 16.417484083212
  51
 180.00000000074
   0
LINE
   5
2AA
 100
AcDbEntity
   8
LEVEL001
 100
AcDbLine
   6
CONTINUOUS
  62
15
  10
 48.374775186927
  20
 129.78708118165
  30
0.0
  11
 48.374775186927
  21
 129.93274422725
  31
0.0
   0
LINE
   5
2AB
 100
AcDbEntity
   8
LEVEL001
 100
AcDbLine
   6
CONTINUOUS
  62
15
  10
 48.674775186927
  20
 129.81022404196
  30
0.0
  11
 48.674775186927
  21
 129.93274422725
  31
0.0
   0
ARC
   5
2AC
 100
AcDbEntity
   8
LEVEL001
   6
CONTINUOUS
  62
15
 100
AcDbCircle
  10
 48.524775186927
  20
 129.93274422725
  30
0.0
  40
 0.15000000000000
 100
AcDbArc
  50
0.0
  51
 180.00000000000
   0
LINE
   5
2AD
 100
AcDbEntity
   8
LEVEL001
 100
AcDbLine
   6
CONTINUOUS
  62
15
  10
 47.414775186927
  20
 128.06786096470
  30
0.0
  11
 48.836779409681
  21
 126.87465774585
  31
0.0
   0
LINE
   5
2AE
 100
AcDbEntity
   8
LEVEL001
 100
AcDbLine
   6
CONTINUOUS
  62
15
  10
 47.414775186927
  20
 125.27297274968
  30
0.0
  11
 47.414775186927
  21
 126.22025045476
  31
0.0
   0
LINE
   5
2AF
 100
AcDbEntity
   8
LEVEL001
 100
AcDbLine
   6
CONTINUOUS
  62
15
  10
 50.704775186927
  20
 125.33869761166
  30
0.0
  11
 50.704775186927
  21
 124.39141990658
  31
0.0
   0
LINE
   5
2B0
 100
AcDbEntity
   8
LEVEL001
 100
AcDbLine
   6
CONTINUOUS
  62
15
  10
 49.759775186927
  20
 124.17797274968
  30
0.0
  11
 49.669775186927
  21
 124.17797274968
  31
0.0
   0
LINE
   5
2B1
 100
AcDbEntity
   8
LEVEL001
 100
AcDbLine
   6
CONTINUOUS
  62
15
  10
 48.889775186917
  20
 125.82502539592
  30
0.0
  11
 47.414775186927
  21
 127.06269735191
  31
0.0
   0
LINE
   5
2B2
 100
AcDbEntity
   8
LEVEL001
 100
AcDbLine
   6
CONTINUOUS
  62
15
  10
 47.414775186927
  20
 127.06269735191
  30
0.0
  11
 47.414775186927
  21
 128.06786096470
  31
0.0
   0
LINE
   5
2B3
 100
AcDbEntity
   8
LEVEL001
 100
AcDbLine
   6
CONTINUOUS
  62
15
  10
 50.704775186927
  20
 126.11249315511
  30
0.0
  11
 50.704775186927
  21
 127.17051921156
  31
0.0
   0
LINE
   5
2B4
 100
AcDbEntity
   8
LEVEL001
 100
AcDbLine
   6
CONTINUOUS
  62
15
  10
 47.414775186927
  20
 126.22025045476
  30
0.0
  11
 49.669775186927
  21
 125.61602502582
  31
0.0
   0
LINE
   5
2B5
 100
AcDbEntity
   8
LEVEL001
 100
AcDbLine
   6
CONTINUOUS
  62
15
  10
 49.759775186927
  20
 125.59190959850
  30
0.0
  11
 50.704775186927
  21
 125.33869761166
  31
0.0
   0
LINE
   5
2B6
 100
AcDbEntity
   8
LEVEL001
 100
AcDbLine
   6
CONTINUOUS
  62
15
  10
 48.889775186917
  20
 125.82502539592
  30
0.0
  11
 49.669775186927
  21
 125.94856525938
  31
0.0
   0
LINE
   5
2B7
 100
AcDbEntity
   8
LEVEL001
 100
AcDbLine
   6
CONTINUOUS
  62
15
  10
 49.759775186927
  20
 125.96281985901
  30
0.0
  11
 50.704775186927
  21
 126.11249315511
  31
0.0
   0
LINE
   5
2B8
 100
AcDbEntity
   8
LEVEL001
 100
AcDbLine
   6
CONTINUOUS
  62
15
  10
 50.704775186927
  20
 127.17051921156
  30
0.0
  11
 49.759775186927
  21
 127.02084591545
  31
0.0
   0
LINE
   5
2B9
 100
AcDbEntity
   8
LEVEL001
 100
AcDbLine
   6
CONTINUOUS
  62
15
  10
 49.669775186927
  20
 127.00659131583
  30
0.0
  11
 48.836779409681
  21
 126.87465774585
  31
0.0
   0
LINE
   5
2BA
 100
AcDbEntity
   8
LEVEL001
 100
AcDbLine
   6
CONTINUOUS
  62
15
  10
 49.669775186927
  20
 125.94856525938
  30
0.0
  11
 49.669775186927
  21
 125.61602502582
  31
0.0
   0
LINE
   5
2BB
 100
AcDbEntity
   8
LEVEL001
 100
AcDbLine
   6
CONTINUOUS
  62
15
  10
 49.669775186927
  20
 124.66874732075
  30
0.0
  11
 49.669775186927
  21
 124.17797274968
  31
0.0
   0
LINE
   5
2BC
 100
AcDbEntity
   8
LEVEL001
 100
AcDbLine
   6
CONTINUOUS
  62
15
  10
 49.759775186927
  20
 124.17797274968
  30
0.0
  11
 49.759775186927
  21
 124.64463189343
  31
0.0
   0
LINE
   5
2BD
 100
AcDbEntity
   8
LEVEL001
 100
AcDbLine
   6
CONTINUOUS
  62
15
  10
 49.759775186927
  20
 125.59190959850
  30
0.0
  11
 49.759775186927
  21
 125.96281985901
  31
0.0
   0
LINE
   5
2BE
 100
AcDbEntity
   8
LEVEL001
 100
AcDbLine
   6
CONTINUOUS
  62
15
  10
 50.704775186927
  20
 124.39141990658
  30
0.0
  11
 49.759775186927
  21
 124.64463189343
  31
0.0
   0
LINE
   5
2BF
 100
AcDbEntity
   8
LEVEL001
 100
AcDbLine
   6
CONTINUOUS
  62
15
  10
 49.669775186927
  20
 124.66874732075
  30
0.0
  11
 47.414775186927
  21
 125.27297274968
  31
0.0
   0
LINE
   5
2C0
 100
AcDbEntity
   8
LEVEL001
 100
AcDbLine
   6
CONTINUOUS
  62
15
  10
 49.669775186927
  20
 128.92244888725
  30
0.0
  11
 47.874775186927
  21
 129.40341768766
  31
0.0
   0
LINE
   5
2C1
 100
AcDbEntity
   8
LEVEL001
 100
AcDbLine
   6
CONTINUOUS
  62
15
  10
 47.874775186927
  20
 127.92297274968
  30
0.0
  11
 47.874775186927
  21
 128.44061083989
  31
0.0
   0
LINE
   5
2C2
 100
AcDbEntity
   8
LEVEL001
 100
AcDbLine
   6
CONTINUOUS
  62
15
  10
 47.874775186927
  20
 128.65284245687
  30
0.0
  11
 47.874775186927
  21
 129.17048054707
  31
0.0
   0
LINE
   5
2C3
 100
AcDbEntity
   8
LEVEL001
 100
AcDbLine
   6
CONTINUOUS
  62
15
  10
 49.129329204436
  20
 129.68842666005
  30
0.0
  11
 49.669775186927
  21
 129.77402489452
  31
0.0
   0
LINE
   5
2C4
 100
AcDbEntity
   8
LEVEL001
 100
AcDbLine
   6
CONTINUOUS
  62
15
  10
 49.669775186927
  20
 129.44008697745
  30
0.0
  11
 48.374775186927
  21
 129.78708118165
  31
0.0
   0
LINE
   5
2C5
 100
AcDbEntity
   8
LEVEL001
 100
AcDbLine
   6
CONTINUOUS
  62
15
  10
 49.047192578815
  20
 127.60882445633
  30
0.0
  11
 47.874775186927
  21
 127.92297274968
  31
0.0
   0
ARC
   5
2C6
 100
AcDbEntity
   8
LEVEL001
   6
CONTINUOUS
  62
15
 100
AcDbCircle
  10
 49.169775186927
  20
 128.09356511296
  30
0.0
  40
 0.50000000000000
 100
AcDbArc
  50
 255.80840229941
  51
0.0
   0
LINE
   5
2C7
 100
AcDbEntity
   8
LEVEL001
 100
AcDbLine
   6
CONTINUOUS
  62
15
  10
 49.188007566243
  20
 128.81860099156
  30
0.0
  11
 47.874775186927
  21
 129.17048054707
  31
0.0
   0
ARC
   5
2C8
 100
AcDbEntity
   8
LEVEL001
   6
CONTINUOUS
  62
15
 100
AcDbCircle
  10
 49.019775186928
  20
 128.19074920447
  30
0.0
  40
 0.65000000000000
 100
AcDbArc
  50
 358.34236379723
  51
 75.000000000094
   0
ARC
   5
2C9
 100
AcDbEntity
   8
LEVEL001
   6
CONTINUOUS
  62
15
 100
AcDbCircle
  10
 49.120275186927
  20
 128.15812113935
  30
0.0
  40
 0.50000000000000E-1
 100
AcDbArc
  50
 263.14994158298
  51
 0.27162445868445E-7
   0
ARC
   5
2CA
 100
AcDbEntity
   8
LEVEL001
   6
CONTINUOUS
  62
15
 100
AcDbCircle
  10
 49.105275186920
  20
 128.25635566195
  30
0.0
  40
 0.65000000000000E-1
 100
AcDbArc
  50
 358.34236379447
  51
 67.888769730332
   0
LINE
   5
2CB
 100
AcDbEntity
   8
LEVEL001
 100
AcDbLine
   6
CONTINUOUS
  62
15
  10
 49.170275186927
  20
 128.15812113937
  30
0.0
  11
 49.170275186927
  21
 128.25447539565
  31
0.0
   0
LINE
   5
2CC
 100
AcDbEntity
   8
LEVEL001
 100
AcDbLine
   6
CONTINUOUS
  62
15
  10
 49.669775186927
  20
 128.17187365646
  30
0.0
  11
 49.669503176063
  21
 128.17194654155
  31
0.0
   0
LINE
   5
2CD
 100
AcDbEntity
   8
LEVEL001
 100
AcDbLine
   6
CONTINUOUS
  62
15
  10
 49.129741567841
  20
 128.31657522858
  30
0.0
  11
 47.874775186927
  21
 128.65284245687
  31
0.0
   0
LINE
   5
2CE
 100
AcDbEntity
   8
LEVEL001
 100
AcDbLine
   6
CONTINUOUS
  62
15
  10
 49.114775186927
  20
 128.10835384127
  30
0.0
  11
 47.874775186927
  21
 128.44061083989
  31
0.0
   0
LINE
   5
2CF
 100
AcDbEntity
   8
LEVEL001
 100
AcDbLine
   6
CONTINUOUS
  62
15
  10
 49.129329204436
  20
 129.68842666005
  30
0.0
  11
 48.674775186927
  21
 129.81022404196
  31
0.0
   0
CIRCLE
   5
2D0
 100
AcDbEntity
   8
LEVEL001
 100
AcDbCircle
   6
CONTINUOUS
  62
7
  10
 296.41477518693
  20
 129.17797274968
  30
0.0
  40
 2.6500000000000
   0
CIRCLE
   5
2D1
 100
AcDbEntity
   8
LEVEL001
 100
AcDbCircle
   6
CONTINUOUS
  62
7
  10
 56.414775186927
  20
 129.17797274968
  30
0.0
  40
 2.6500000000000
   0
LINE
   5
2D2
 100
AcDbEntity
   8
LEVEL001
 100
AcDbLine
   6
DASHDOT
  62
3
  10
 176.41477518693
  20
 140.65510874138
  30
0.0
  11
 176.41477518693
  21
 117.89790156362
  31
0.0
   0
LINE
   5
2D3
 100
AcDbEntity
   8
LEVEL001
 100
AcDbLine
   6
CONTINUOUS
  62
7
  10
-221.16551469965
  20
 187.60405334841
  30
0.0
  11
-203.16551469965
  21
 187.60405334841
  31
0.0
   0
LINE
   5
2D4
 100
AcDbEntity
   8
LEVEL001
 100
AcDbLine
   6
CONTINUOUS
  62
7
  10
-77.165514699655
  20
 187.60405334841
  30
0.0
  11
-95.165514699655
  21
 187.60405334841
  31
0.0
   0
LINE
   5
2D5
 100
AcDbEntity
   8
LEVEL001
 100
AcDbLine
   6
DOT
  62
1
  10
-207.16551469965
  20
 200.60405334841
  30
0.0
  11
-209.16551469966
  21
 202.60405334841
  31
0.0
   0
LINE
   5
2D6
 100
AcDbEntity
   8
LEVEL001
 100
AcDbLine
   6
DOT
  62
1
  10
-211.16551469965
  20
 200.60405334841
  30
0.0
  11
-209.16551469966
  21
 202.60405334841
  31
0.0
   0
LINE
   5
2D7
 100
AcDbEntity
   8
LEVEL001
 100
AcDbLine
   6
DOT
  62
1
  10
-211.16551469965
  20
 200.60405334841
  30
0.0
  11
-207.16551469965
  21
 200.60405334841
  31
0.0
   0
LINE
   5
2D8
 100
AcDbEntity
   8
LEVEL001
 100
AcDbLine
   6
DOT
  62
1
  10
-91.165514699655
  20
 200.60405334841
  30
0.0
  11
-89.165514699655
  21
 202.60405334841
  31
0.0
   0
LINE
   5
2D9
 100
AcDbEntity
   8
LEVEL001
 100
AcDbLine
   6
DOT
  62
1
  10
-87.165514699655
  20
 200.60405334841
  30
0.0
  11
-89.165514699655
  21
 202.60405334841
  31
0.0
   0
LINE
   5
2DA
 100
AcDbEntity
   8
LEVEL001
 100
AcDbLine
   6
DOT
  62
1
  10
-87.165514699655
  20
 200.60405334841
  30
0.0
  11
-91.165514699655
  21
 200.60405334841
  31
0.0
   0
LINE
   5
2DB
 100
AcDbEntity
   8
LEVEL001
 100
AcDbLine
   6
DASHDOT
  62
3
  10
-149.16551469965
  20
 231.46925016611
  30
0.0
  11
-149.16551469965
  21
 201.93401417213
  31
0.0
   0
LINE
   5
2DC
 100
AcDbEntity
   8
LEVEL001
 100
AcDbLine
   6
CONTINUOUS
  62
7
  10
-203.16551469965
  20
 134.90012042423
  30
0.0
  11
-200.16551469965
  21
 131.90012042423
  31
0.0
   0
POINT
   5
2DD
 100
AcDbEntity
   8
LEVEL001
 100
AcDbPoint
  62
7
  10
-200.16551469965
  20
 134.90012042423
  30
0.0
   0
LINE
   5
2DE
 100
AcDbEntity
   8
LEVEL001
 100
AcDbLine
   6
CONTINUOUS
  62
7
  10
-200.16551469965
  20
 131.90012042423
  30
0.0
  11
-200.16551469965
  21
 125.90012042423
  31
0.0
   0
LINE
   5
2DF
 100
AcDbEntity
   8
LEVEL001
 100
AcDbLine
   6
CONTINUOUS
  62
7
  10
-200.16551469965
  20
 125.90012042423
  30
0.0
  11
-203.16551469965
  21
 122.90012042423
  31
0.0
   0
POINT
   5
2E0
 100
AcDbEntity
   8
LEVEL001
 100
AcDbPoint
  62
7
  10
-200.16551469965
  20
 122.90012042423
  30
0.0
   0
LINE
   5
2E1
 100
AcDbEntity
   8
LEVEL001
 100
AcDbLine
   6
CONTINUOUS
  62
7
  10
-95.165514699655
  20
 134.90012042423
  30
0.0
  11
-98.165514699655
  21
 131.90012042423
  31
0.0
   0
POINT
   5
2E2
 100
AcDbEntity
   8
LEVEL001
 100
AcDbPoint
  62
7
  10
-98.165514699655
  20
 134.90012042423
  30
0.0
   0
LINE
   5
2E3
 100
AcDbEntity
   8
LEVEL001
 100
AcDbLine
   6
CONTINUOUS
  62
7
  10
-98.165514699655
  20
 131.90012042423
  30
0.0
  11
-98.165514699655
  21
 125.90012042423
  31
0.0
   0
LINE
   5
2E4
 100
AcDbEntity
   8
LEVEL001
 100
AcDbLine
   6
CONTINUOUS
  62
7
  10
-98.165514699655
  20
 125.90012042423
  30
0.0
  11
-95.165514699655
  21
 122.90012042423
  31
0.0
   0
POINT
   5
2E5
 100
AcDbEntity
   8
LEVEL001
 100
AcDbPoint
  62
7
  10
-98.165514699655
  20
 122.90012042423
  30
0.0
   0
CIRCLE
   5
2E6
 100
AcDbEntity
   8
LEVEL001
 100
AcDbCircle
   6
CONTINUOUS
  62
7
  10
-209.16551469965
  20
 128.90012042423
  30
0.0
  40
 2.0000000000000
   0
CIRCLE
   5
2E7
 100
AcDbEntity
   8
LEVEL001
 100
AcDbCircle
   6
CONTINUOUS
  62
15
  10
-209.16551469965
  20
 128.90012042423
  30
0.0
  40
 1.6500000000000
   0
CIRCLE
   5
2E8
 100
AcDbEntity
   8
LEVEL001
 100
AcDbCircle
   6
CONTINUOUS
  62
7
  10
-89.165514699655
  20
 128.90012042423
  30
0.0
  40
 2.0000000000000
   0
CIRCLE
   5
2E9
 100
AcDbEntity
   8
LEVEL001
 100
AcDbCircle
   6
CONTINUOUS
  62
15
  10
-89.165514699655
  20
 128.90012042423
  30
0.0
  40
 1.6500000000000
   0
LINE
   5
2EA
 100
AcDbEntity
   8
LEVEL001
 100
AcDbLine
   6
DASHDOT
  62
3
  10
-149.16551469965
  20
 139.92666513358
  30
0.0
  11
-149.16551469965
  21
 117.62004923818
  31
0.0
   0
LINE
   5
2EB
 100
AcDbEntity
   8
LEVEL001
 100
AcDbLine
   6
CONTINUOUS
  62
15
  10
-200.16551469965
  20
 131.90012042423
  30
0.0
  11
-98.165514699655
  21
 131.90012042423
  31
0.0
   0
LINE
   5
2EC
 100
AcDbEntity
   8
LEVEL001
 100
AcDbLine
   6
CONTINUOUS
  62
15
  10
-200.16551469965
  20
 125.90012042423
  30
0.0
  11
-98.165514699655
  21
 125.90012042423
  31
0.0
   0
LINE
   5
2ED
 100
AcDbEntity
   8
LEVEL001
 100
AcDbLine
   6
DASHDOT
  62
3
  10
-72.449168561617
  20
 128.90012042423
  30
0.0
  11
-226.97951650041
  21
 128.90012042423
  31
0.0
   0
ARC
   5
2EE
 100
AcDbEntity
   8
LEVEL001
   6
CONTINUOUS
  62
7
 100
AcDbCircle
  10
-78.165514699655
  20
 133.90012042423
  30
0.0
  40
 1.0000000000000
 100
AcDbArc
  50
 0.97706639814559E-11
  51
 89.999999999998
   0
POINT
   5
2EF
 100
AcDbEntity
   8
LEVEL001
 100
AcDbPoint
  62
7
  10
-77.165514699655
  20
 134.90012042423
  30
0.0
   0
ARC
   5
2F0
 100
AcDbEntity
   8
LEVEL001
   6
CONTINUOUS
  62
7
 100
AcDbCircle
  10
-78.165514699655
  20
 123.90012042423
  30
0.0
  40
 1.0000000000000
 100
AcDbArc
  50
 270.00000000000
  51
 0.17912883966003E-10
   0
POINT
   5
2F1
 100
AcDbEntity
   8
LEVEL001
 100
AcDbPoint
  62
7
  10
-77.165514699655
  20
 122.90012042423
  30
0.0
   0
LINE
   5
2F2
 100
AcDbEntity
   8
LEVEL001
 100
AcDbLine
   6
CONTINUOUS
  62
7
  10
-77.165514699655
  20
 123.90012042423
  30
0.0
  11
-77.165514699655
  21
 133.90012042423
  31
0.0
   0
ARC
   5
2F3
 100
AcDbEntity
   8
LEVEL001
   6
CONTINUOUS
  62
7
 100
AcDbCircle
  10
-220.16551469965
  20
 133.90012042423
  30
0.0
  40
 1.0000000000000
 100
AcDbArc
  50
 90.000000000182
  51
 180.00000000000
   0
POINT
   5
2F4
 100
AcDbEntity
   8
LEVEL001
 100
AcDbPoint
  62
7
  10
-221.16551469965
  20
 134.90012042423
  30
0.0
   0
LINE
   5
2F5
 100
AcDbEntity
   8
LEVEL001
 100
AcDbLine
   6
CONTINUOUS
  62
7
  10
-220.16551469965
  20
 134.90012042423
  30
0.0
  11
-78.165514699655
  21
 134.90012042423
  31
0.0
   0
LINE
   5
2F6
 100
AcDbEntity
   8
LEVEL001
 100
AcDbLine
   6
CONTINUOUS
  62
7
  10
-221.16551469965
  20
 123.90012042423
  30
0.0
  11
-221.16551469965
  21
 133.90012042423
  31
0.0
   0
ARC
   5
2F7
 100
AcDbEntity
   8
LEVEL001
   6
CONTINUOUS
  62
7
 100
AcDbCircle
  10
-220.16551469965
  20
 123.90012042423
  30
0.0
  40
 1.0000000000000
 100
AcDbArc
  50
 180.00000000000
  51
 269.99999999979
   0
POINT
   5
2F8
 100
AcDbEntity
   8
LEVEL001
 100
AcDbPoint
  62
7
  10
-221.16551469965
  20
 122.90012042423
  30
0.0
   0
LINE
   5
2F9
 100
AcDbEntity
   8
LEVEL001
 100
AcDbLine
   6
CONTINUOUS
  62
7
  10
-220.16551469965
  20
 122.90012042423
  30
0.0
  11
-78.165514699655
  21
 122.90012042423
  31
0.0
   0
INSERT
   5
2FA
 100
AcDbEntity
   8
LEVEL001
 100
AcDbBlockReference
   2
*D17
  10
0.0
  20
0.0
  30
0.0
   0
LINE
   5
2FB
 100
AcDbEntity
   8
LEVEL001
 100
AcDbLine
   6
DASHDOT
  62
3
  10
-209.16551469965
  20
 205.81644010294
  30
0.0
  11
-209.16551469965
  21
 183.97073452655
  31
0.0
   0
DIMENSION
   5
2FC
 100
AcDbEntity
   8
LEVEL001
   6
CONTINUOUS
  62
3
 100
AcDbDimension
   2
*D18
  10
-77.165514699655
  20
 172.96407911422
  30
0.0
  11
-87.665514699655
  21
 172.96407911422
  31
0.0
  70
0
   3
GMM001
 100
AcDbAlignedDimension
  13
-98.165514699655
  23
 174.23048927162
  33
0.0
  14
-77.165514699655
  24
 187.60405334841
  34
0.0
 100
AcDbRotatedDimension
   0
DIMENSION
   5
2FD
 100
AcDbEntity
   8
LEVEL001
   6
CONTINUOUS
  62
3
 100
AcDbDimension
   2
*D19
  10
-98.165514699655
  20
 172.96407911422
  30
0.0
  11
-149.16551469965
  21
 172.96407911422
  31
0.0
  70
0
   3
GMM001
 100
AcDbAlignedDimension
  13
-200.16551469965
  23
 174.23048927162
  33
0.0
  14
-98.165514699655
  24
 187.60405334841
  34
0.0
 100
AcDbRotatedDimension
   0
DIMENSION
   5
2FE
 100
AcDbEntity
   8
LEVEL001
   6
CONTINUOUS
  62
3
 100
AcDbDimension
   2
*D20
  10
-200.16551469965
  20
 172.96407911422
  30
0.0
  11
-210.66551469965
  21
 172.96407911422
  31
0.0
  70
0
   3
GMM001
 100
AcDbAlignedDimension
  13
-221.16551469965
  23
 187.60405334841
  33
0.0
  14
-200.16551469965
  24
 187.60405334841
  34
0.0
 100
AcDbRotatedDimension
   0
DIMENSION
   5
2FF
 100
AcDbEntity
   8
LEVEL001
   6
CONTINUOUS
  62
3
 100
AcDbDimension
   2
*D21
  10
-132.24593407884
  20
 221.60405334841
  30
0.0
  11
-132.24593407884
  21
 210.66498559660
  31
0.0
  70
128
   3
GMM005
 100
AcDbAlignedDimension
  13
-149.16551469965
  23
 215.60405334841
  33
0.0
  14
-149.16551469965
  24
 221.60405334841
  34
0.0
  50
 90.000000000000
 100
AcDbRotatedDimension
   0
DIMENSION
   5
300
 100
AcDbEntity
   8
LEVEL001
   6
CONTINUOUS
  62
3
 100
AcDbDimension
   2
*D22
  10
-77.165514699655
  20
 144.18628331415
  30
0.0
  11
-83.165514699655
  21
 144.18628331415
  31
0.0
  70
0
   3
GMM001
 100
AcDbAlignedDimension
  13
-89.165514699655
  23
 144.18628331415
  33
0.0
  14
-77.165514699655
  24
 134.90012042423
  34
0.0
 100
AcDbRotatedDimension
   0
LINE
   5
301
 100
AcDbEntity
   8
LEVEL001
 100
AcDbLine
   6
DASHDOT
  62
3
  10
-209.16551469965
  20
 134.12887597783
  30
0.0
  11
-209.16551469965
  21
 123.53298485256
  31
0.0
   0
LINE
   5
302
 100
AcDbEntity
   8
LEVEL001
 100
AcDbLine
   6
DASHDOT
  62
3
  10
-89.165514699655
  20
 134.12887597783
  30
0.0
  11
-89.165514699655
  21
 123.53298485256
  31
0.0
   0
DIMENSION
   5
303
 100
AcDbEntity
   8
LEVEL001
   6
CONTINUOUS
  62
3
 100
AcDbDimension
   2
*D23
  10
-221.16551469965
  20
 144.18628331415
  30
0.0
  11
-215.16551469965
  21
 144.18628331415
  31
0.0
  70
0
   3
GMM001
 100
AcDbAlignedDimension
  13
-209.16551469965
  23
 144.18628331415
  33
0.0
  14
-221.16551469965
  24
 134.90012042423
  34
0.0
  50
 180.00000000000
 100
AcDbRotatedDimension
   0
INSERT
   5
304
 100
AcDbEntity
   8
LEVEL001
 100
AcDbBlockReference
   2
*D24
  10
0.0
  20
0.0
  30
0.0
   0
INSERT
   5
305
 100
AcDbEntity
   8
LEVEL001
 100
AcDbBlockReference
   2
*D25
  10
0.0
  20
0.0
  30
0.0
   0
DIMENSION
   5
306
 100
AcDbEntity
   8
LEVEL001
   6
CONTINUOUS
  62
3
 100
AcDbDimension
   2
*D26
  10
-139.44254090106
  20
 125.90012042423
  30
0.0
  11
-139.44254090106
  21
 120.64560117698
  31
0.0
  70
128
   3
GMM004
 100
AcDbAlignedDimension
  13
-139.86571998543
  23
 131.90012042423
  33
0.0
  14
-139.33674612997
  24
 125.90012042423
  34
0.0
  50
 270.00000000000
 100
AcDbRotatedDimension
   0
DIMENSION
   5
307
 100
AcDbEntity
   8
LEVEL001
   6
CONTINUOUS
  62
3
 100
AcDbDimension
   2
*D27
  10
-89.165514699655
  20
 111.47065544872
  30
0.0
  11
-93.665514699655
  21
 111.47065544872
  31
0.0
  70
0
   3
GMM001
 100
AcDbAlignedDimension
  13
-98.165514699655
  23
 122.90012042423
  33
0.0
  14
-89.165514699655
  24
 124.48699273952
  34
0.0
 100
AcDbRotatedDimension
   0
DIMENSION
   5
308
 100
AcDbEntity
   8
LEVEL001
   6
CONTINUOUS
  62
3
 100
AcDbDimension
   2
*D28
  10
-77.165514699655
  20
 111.47065544872
  30
0.0
  11
-83.165514699655
  21
 111.47065544872
  31
0.0
  70
0
   3
GMM001
 100
AcDbAlignedDimension
  13
-89.165514699655
  23
 111.47065544872
  33
0.0
  14
-77.165514699655
  24
 122.90012042423
  34
0.0
 100
AcDbRotatedDimension
   0
LINE
   5
309
 100
AcDbEntity
   8
LEVEL001
 100
AcDbLine
   6
CONTINUOUS
  62
15
  10
-200.16551469965
  20
 187.60405334841
  30
0.0
  11
-203.16551469965
  21
 187.60405334841
  31
0.0
   0
LINE
   5
30A
 100
AcDbEntity
   8
LEVEL001
 100
AcDbLine
   6
CONTINUOUS
  62
15
  10
-98.165514699655
  20
 187.60405334841
  30
0.0
  11
-95.165514699655
  21
 187.60405334841
  31
0.0
   0
ARC
   5
30B
 100
AcDbEntity
   8
LEVEL001
   6
CONTINUOUS
  62
7
 100
AcDbCircle
  10
-149.16551469965
  20
 145.49041698477
  30
0.0
  40
 73.113636363636
 100
AcDbArc
  50
 42.389719884003
  51
 137.61028011600
   0
ARC
   5
30C
 100
AcDbEntity
   8
LEVEL001
   6
CONTINUOUS
  62
15
 100
AcDbCircle
  10
-149.16551469965
  20
 145.49041698477
  30
0.0
  40
 70.113636363636
 100
AcDbArc
  50
 43.331917446580
  51
 136.66808255342
   0
POLYLINE
   5
30D
 100
AcDbEntity
   8
LEVEL001
   6
CONTINUOUS
  62
3
 100
AcDb2dPolyline
  66
1
  10
0.0
  20
0.0
  30
0.0
  70
0
   0
VERTEX
   5
30E
 100
AcDbEntity
   8
LEVEL001
   6
CONTINUOUS
  62
3
 100
AcDbVertex
 100
AcDb2dVertex
  10
-164.11409489767
  20
 217.06408493120
  30
0.0
   0
VERTEX
   5
30F
 100
AcDbEntity
   8
LEVEL001
   6
CONTINUOUS
  62
3
 100
AcDbVertex
 100
AcDb2dVertex
  10
-164.25352830501
  20
 213.96138783795
  30
0.0
   0
VERTEX
   5
310
 100
AcDbEntity
   8
LEVEL001
   6
CONTINUOUS
  62
3
 100
AcDbVertex
 100
AcDb2dVertex
  10
-165.68412397874
  20
 216.71811904462
  30
0.0
   0
SEQEND
   5
311
 100
AcDbEntity
   8
LEVEL001
   6
CONTINUOUS
  62
3
   0
LINE
   5
312
 100
AcDbEntity
   8
LEVEL001
 100
AcDbLine
   6
CONTINUOUS
  62
3
  10
-164.25352830501
  20
 213.96138783795
  30
0.0
  11
-170.76919475285
  21
 243.53015806235
  31
0.0
   0
TEXT
   5
313
 100
AcDbEntity
   8
LEVEL001
  62
3
 100
AcDbText
  10
-183.79295525812
  20
 233.62974133787
  30
0.0
  40
 4.0000000000000
   1
Ｒ１７０
  50
 281.30099876787
  41
 0.75000000000000
   7
STANDARD
 100
AcDbText
   0
POLYLINE
   5
314
 100
AcDbEntity
   8
LEVEL001
   6
CONTINUOUS
  62
3
 100
AcDb2dPolyline
  66
1
  10
0.0
  20
0.0
  30
0.0
  70
0
   0
VERTEX
   5
315
 100
AcDbEntity
   8
LEVEL001
   6
CONTINUOUS
  62
3
 100
AcDbVertex
 100
AcDb2dVertex
  10
-182.27889291568
  20
 221.40732291072
  30
0.0
   0
VERTEX
   5
316
 100
AcDbEntity
   8
LEVEL001
   6
CONTINUOUS
  62
3
 100
AcDbVertex
 100
AcDb2dVertex
  10
-182.47926517316
  20
 218.30796460843
  30
0.0
   0
VERTEX
   5
317
 100
AcDbEntity
   8
LEVEL001
   6
CONTINUOUS
  62
3
 100
AcDbVertex
 100
AcDb2dVertex
  10
-183.85541685912
  20
 221.09227376238
  30
0.0
   0
SEQEND
   5
318
 100
AcDbEntity
   8
LEVEL001
   6
CONTINUOUS
  62
3
   0
LINE
   5
319
 100
AcDbEntity
   8
LEVEL001
 100
AcDbLine
   6
CONTINUOUS
  62
3
  10
-182.47926517316
  20
 218.30796460843
  30
0.0
  11
-185.47400310276
  21
 233.29380435830
  31
0.0
   0
LINE
   5
31A
 100
AcDbEntity
   8
LEVEL001
 100
AcDbLine
   6
CONTINUOUS
  62
7
  10
-203.16551469965
  20
 187.60405334841
  30
0.0
  11
-203.16551469965
  21
 194.78142856208
  31
0.0
   0
LINE
   5
31B
 100
AcDbEntity
   8
LEVEL001
 100
AcDbLine
   6
CONTINUOUS
  62
15
  10
-200.16551469965
  20
 187.60405334841
  30
0.0
  11
-200.16551469965
  21
 193.60405334841
  31
0.0
   0
LINE
   5
31C
 100
AcDbEntity
   8
LEVEL001
 100
AcDbLine
   6
CONTINUOUS
  62
7
  10
-95.165514699655
  20
 187.60405334841
  30
0.0
  11
-95.165514699655
  21
 194.78142856208
  31
0.0
   0
LINE
   5
31D
 100
AcDbEntity
   8
LEVEL001
 100
AcDbLine
   6
CONTINUOUS
  62
15
  10
-98.165514699655
  20
 187.60405334841
  30
0.0
  11
-98.165514699655
  21
 193.60405334841
  31
0.0
   0
DIMENSION
   5
31E
 100
AcDbEntity
   8
LEVEL001
   6
CONTINUOUS
  62
3
 100
AcDbDimension
   2
*D29
  10
-105.73462630369
  20
 193.60405334841
  30
0.0
  11
-105.73462630369
  21
 190.60405334841
  31
0.0
  70
0
   3
GMM001
 100
AcDbAlignedDimension
  13
-98.165514699655
  23
 187.60405334841
  33
0.0
  14
-98.165514699655
  24
 193.60405334841
  34
0.0
  50
 90.000000000000
 100
AcDbRotatedDimension
   0
LINE
   5
31F
 100
AcDbEntity
   8
LEVEL001
 100
AcDbLine
   6
CONTINUOUS
  62
7
  10
-221.16551469965
  20
 187.60405334841
  30
0.0
  11
-221.16551469965
  21
 204.32602295331
  31
0.0
   0
ARC
   5
320
 100
AcDbEntity
   8
LEVEL001
   6
CONTINUOUS
  62
7
 100
AcDbCircle
  10
-219.16551469965
  20
 204.32602295331
  30
0.0
  40
 2.0000000000000
 100
AcDbArc
  50
 114.62431835218
  51
 180.00000000001
   0
ARC
   5
321
 100
AcDbEntity
   8
LEVEL001
   6
CONTINUOUS
  62
7
 100
AcDbCircle
  10
-79.165514699656
  20
 204.32602295331
  30
0.0
  40
 2.0000000000000
 100
AcDbArc
  50
0.0
  51
 65.375681647809
   0
DIMENSION
   5
322
 100
AcDbEntity
   8
LEVEL001
   6
CONTINUOUS
  62
3
 100
AcDbDimension
   2
*D30
  10
-67.142970144576
  20
 205.60405334841
  30
0.0
  11
-67.142970144576
  21
 196.60405334841
  31
0.0
  70
0
   3
GMM001
 100
AcDbAlignedDimension
  13
-77.165514699655
  23
 187.60405334841
  33
0.0
  14
-77.665514699655
  24
 205.60405334841
  34
0.0
  50
 90.000000000000
 100
AcDbRotatedDimension
   0
LINE
   5
323
 100
AcDbEntity
   8
LEVEL001
 100
AcDbLine
   6
CONTINUOUS
  62
7
  10
-77.165514699655
  20
 187.60405334841
  30
0.0
  11
-77.165514699655
  21
 204.32602295331
  31
0.0
   0
ARC
   5
324
 100
AcDbEntity
   8
LEVEL001
   6
CONTINUOUS
  62
7
 100
AcDbCircle
  10
-149.16551469965
  20
 51.604053348408
  30
0.0
  40
 170.00000000000
 100
AcDbArc
  50
 65.375681647836
  51
 114.62431835216
   0
LINE
   5
325
 100
AcDbEntity
   8
LEVEL001
 100
AcDbLine
   6
DOT
  62
1
  10
-91.815514699655
  20
 187.60405334841
  30
0.0
  11
-90.815514699655
  21
 188.60405334841
  31
0.0
   0
LINE
   5
326
 100
AcDbEntity
   8
LEVEL001
 100
AcDbLine
   6
DOT
  62
1
  10
-90.815514699655
  20
 188.60405334841
  30
0.0
  11
-87.515514699655
  21
 188.60405334841
  31
0.0
   0
LINE
   5
327
 100
AcDbEntity
   8
LEVEL001
 100
AcDbLine
   6
DOT
  62
1
  10
-86.515514699655
  20
 187.60405334841
  30
0.0
  11
-87.515514699655
  21
 188.60405334841
  31
0.0
   0
LINE
   5
328
 100
AcDbEntity
   8
LEVEL001
 100
AcDbLine
   6
DOT
  62
1
  10
-211.81551469966
  20
 187.60405334841
  30
0.0
  11
-210.81551469966
  21
 188.60405334841
  31
0.0
   0
LINE
   5
329
 100
AcDbEntity
   8
LEVEL001
 100
AcDbLine
   6
DOT
  62
1
  10
-210.81551469966
  20
 188.60405334841
  30
0.0
  11
-207.51551469965
  21
 188.60405334841
  31
0.0
   0
LINE
   5
32A
 100
AcDbEntity
   8
LEVEL001
 100
AcDbLine
   6
DOT
  62
1
  10
-206.51551469965
  20
 187.60405334841
  30
0.0
  11
-207.51551469965
  21
 188.60405334841
  31
0.0
   0
LINE
   5
32B
 100
AcDbEntity
   8
LEVEL001
 100
AcDbLine
   6
DOT
  62
1
  10
-210.81551469965
  20
 188.60405334841
  30
0.0
  11
-210.81551469965
  21
 200.60405334841
  31
0.0
   0
LINE
   5
32C
 100
AcDbEntity
   8
LEVEL001
 100
AcDbLine
   6
DOT
  62
1
  10
-211.16551469965
  20
 188.25405334841
  30
0.0
  11
-211.16551469965
  21
 200.60405334841
  31
0.0
   0
LINE
   5
32D
 100
AcDbEntity
   8
LEVEL001
 100
AcDbLine
   6
DOT
  62
1
  10
-207.16551469965
  20
 188.25405334841
  30
0.0
  11
-207.16551469965
  21
 200.60405334841
  31
0.0
   0
LINE
   5
32E
 100
AcDbEntity
   8
LEVEL001
 100
AcDbLine
   6
DOT
  62
1
  10
-207.51551469965
  20
 188.60405334841
  30
0.0
  11
-207.51551469965
  21
 200.60405334841
  31
0.0
   0
LINE
   5
32F
 100
AcDbEntity
   8
LEVEL001
 100
AcDbLine
   6
DOT
  62
1
  10
-90.815514699655
  20
 188.60405334841
  30
0.0
  11
-90.815514699655
  21
 200.60405334841
  31
0.0
   0
LINE
   5
330
 100
AcDbEntity
   8
LEVEL001
 100
AcDbLine
   6
DOT
  62
1
  10
-91.165514699655
  20
 188.25405334841
  30
0.0
  11
-91.165514699655
  21
 200.60405334841
  31
0.0
   0
LINE
   5
331
 100
AcDbEntity
   8
LEVEL001
 100
AcDbLine
   6
DOT
  62
1
  10
-87.515514699655
  20
 188.60405334841
  30
0.0
  11
-87.515514699655
  21
 200.60405334841
  31
0.0
   0
LINE
   5
332
 100
AcDbEntity
   8
LEVEL001
 100
AcDbLine
   6
DOT
  62
1
  10
-87.165514699655
  20
 188.25405334841
  30
0.0
  11
-87.165514699655
  21
 200.60405334841
  31
0.0
   0
CIRCLE
   5
333
 100
AcDbEntity
   8
LEVEL001
 100
AcDbCircle
   6
CONTINUOUS
  62
7
  10
-89.165514699655
  20
 128.90012042423
  30
0.0
  40
 2.6500000000000
   0
CIRCLE
   5
334
 100
AcDbEntity
   8
LEVEL001
 100
AcDbCircle
   6
CONTINUOUS
  62
7
  10
-209.16551469965
  20
 128.90012042423
  30
0.0
  40
 2.6500000000000
   0
LINE
   5
335
 100
AcDbEntity
   8
LEVEL001
 100
AcDbLine
   6
CONTINUOUS
  62
7
  10
-43.816753226994
  20
 220.60405334841
  30
0.0
  11
-43.816753226994
  21
 187.60405334841
  31
0.0
   0
ARC
   5
336
 100
AcDbEntity
   8
LEVEL001
   6
CONTINUOUS
  62
7
 100
AcDbCircle
  10
-42.816753226992
  20
 220.60405334841
  30
0.0
  40
 1.0000000000000
 100
AcDbArc
  50
 90.000000000112
  51
 180.00000000000
   0
POINT
   5
337
 100
AcDbEntity
   8
LEVEL001
 100
AcDbPoint
  62
7
  10
-43.816753226994
  20
 221.60405334841
  30
0.0
   0
LINE
   5
338
 100
AcDbEntity
   8
LEVEL001
 100
AcDbLine
   6
CONTINUOUS
  62
7
  10
-42.816753226994
  20
 221.60405334841
  30
0.0
  11
-32.816753226994
  21
 221.60405334841
  31
0.0
   0
ARC
   5
339
 100
AcDbEntity
   8
LEVEL001
   6
CONTINUOUS
  62
7
 100
AcDbCircle
  10
-32.816753226994
  20
 220.60405334841
  30
0.0
  40
 1.0000000000000
 100
AcDbArc
  50
 0.29311991944368E-10
  51
 90.000000000003
   0
POINT
   5
33A
 100
AcDbEntity
   8
LEVEL001
 100
AcDbPoint
  62
7
  10
-31.816753226994
  20
 221.60405334841
  30
0.0
   0
LINE
   5
33B
 100
AcDbEntity
   8
LEVEL001
 100
AcDbLine
   6
CONTINUOUS
  62
7
  10
-31.816753226994
  20
 220.60405334841
  30
0.0
  11
-31.816753226994
  21
 187.60405334841
  31
0.0
   0
LINE
   5
33C
 100
AcDbEntity
   8
LEVEL001
 100
AcDbLine
   6
DOT
  62
1
  10
-39.816753226994
  20
 200.60405334841
  30
0.0
  11
-37.816753226994
  21
 202.60405334841
  31
0.0
   0
LINE
   5
33D
 100
AcDbEntity
   8
LEVEL001
 100
AcDbLine
   6
DOT
  62
1
  10
-35.816753226994
  20
 200.60405334841
  30
0.0
  11
-37.816753226994
  21
 202.60405334841
  31
0.0
   0
LINE
   5
33E
 100
AcDbEntity
   8
LEVEL001
 100
AcDbLine
   6
DOT
  62
1
  10
-35.816753226994
  20
 200.60405334841
  30
0.0
  11
-39.816753226994
  21
 200.60405334841
  31
0.0
   0
LINE
   5
33F
 100
AcDbEntity
   8
LEVEL001
 100
AcDbLine
   6
DASHDOT
  62
3
  10
-37.816753226994
  20
 205.79694294069
  30
0.0
  11
-37.816753226994
  21
 183.97073452655
  31
0.0
   0
LINE
   5
340
 100
AcDbEntity
   8
LEVEL001
 100
AcDbLine
   6
CONTINUOUS
  62
7
  10
-43.816753226994
  20
 202.60405334841
  30
0.0
  11
-31.816753226994
  21
 202.60405334841
  31
0.0
   0
LINE
   5
341
 100
AcDbEntity
   8
LEVEL001
 100
AcDbLine
   6
DOT
  62
1
  10
-39.466753226994
  20
 188.60405334841
  30
0.0
  11
-39.466753226994
  21
 200.60405334841
  31
0.0
   0
LINE
   5
342
 100
AcDbEntity
   8
LEVEL001
 100
AcDbLine
   6
CONTINUOUS
  62
7
  10
-43.816753226994
  20
 187.60405334841
  30
0.0
  11
-31.816753226994
  21
 187.60405334841
  31
0.0
   0
LINE
   5
343
 100
AcDbEntity
   8
LEVEL001
 100
AcDbLine
   6
DOT
  62
1
  10
-39.816753226994
  20
 188.25405334841
  30
0.0
  11
-39.816753226994
  21
 200.60405334841
  31
0.0
   0
LINE
   5
344
 100
AcDbEntity
   8
LEVEL001
 100
AcDbLine
   6
DOT
  62
1
  10
-36.166753226994
  20
 188.60405334841
  30
0.0
  11
-36.166753226994
  21
 200.60405334841
  31
0.0
   0
LINE
   5
345
 100
AcDbEntity
   8
LEVEL001
 100
AcDbLine
   6
DOT
  62
1
  10
-35.816753226994
  20
 188.25405334841
  30
0.0
  11
-35.816753226994
  21
 200.60405334841
  31
0.0
   0
LINE
   5
346
 100
AcDbEntity
   8
LEVEL001
 100
AcDbLine
   6
DOT
  62
1
  10
-40.466753226994
  20
 187.60405334841
  30
0.0
  11
-39.466753226994
  21
 188.60405334841
  31
0.0
   0
LINE
   5
347
 100
AcDbEntity
   8
LEVEL001
 100
AcDbLine
   6
DOT
  62
1
  10
-39.466753226994
  20
 188.60405334841
  30
0.0
  11
-36.166753226994
  21
 188.60405334841
  31
0.0
   0
LINE
   5
348
 100
AcDbEntity
   8
LEVEL001
 100
AcDbLine
   6
DOT
  62
1
  10
-35.166753226994
  20
 187.60405334841
  30
0.0
  11
-36.166753226994
  21
 188.60405334841
  31
0.0
   0
LINE
   5
349
 100
AcDbEntity
   8
LEVEL001
 100
AcDbLine
   6
DASHDOT
  62
3
  10
-89.165514699655
  20
 204.57994919523
  30
0.0
  11
-89.165514699655
  21
 183.97073452655
  31
0.0
   0
DIMENSION
   5
34A
 100
AcDbEntity
   8
LEVEL001
   6
CONTINUOUS
  62
3
 100
AcDbDimension
   2
*D31
  10
-31.816753226994
  20
 172.96407911422
  30
0.0
  11
-37.947792262344
  21
 172.96407911422
  31
0.0
  70
128
   3
GMM006
 100
AcDbAlignedDimension
  13
-43.816753226994
  23
 187.60405334841
  33
0.0
  14
-31.816753226994
  24
 187.60405334841
  34
0.0
 100
AcDbRotatedDimension
   0
DIMENSION
   5
34B
 100
AcDbEntity
   8
LEVEL001
   6
CONTINUOUS
  62
3
 100
AcDbDimension
   2
*D32
  10
-57.961040627261
  20
 221.60405334841
  30
0.0
  11
-57.961040627261
  21
 204.60405334841
  31
0.0
  70
0
   3
GMM001
 100
AcDbAlignedDimension
  13
-65.642970144576
  23
 187.60405334841
  33
0.0
  14
-131.24593407884
  24
 221.60405334841
  34
0.0
  50
 90.000000000000
 100
AcDbRotatedDimension
   0
DIMENSION
   5
34C
 100
AcDbEntity
   8
LEVEL001
   6
CONTINUOUS
  62
3
 100
AcDbDimension
   2
*D33
  10
-221.16551469965
  20
 162.29480077025
  30
0.0
  11
-149.16551469965
  21
 162.29480077025
  31
0.0
  70
0
   3
GMM001
 100
AcDbAlignedDimension
  13
-77.165514699655
  23
 171.96407911422
  33
0.0
  14
-221.16551469965
  24
 171.96407911422
  34
0.0
  50
 180.00000000000
 100
AcDbRotatedDimension
   0
DIMENSION
   5
34D
 100
AcDbEntity
   8
LEVEL001
   6
CONTINUOUS
  62
3
 100
AcDbDimension
   2
*D34
  10
-209.16551469965
  20
 144.18628331415
  30
0.0
  11
-149.16551469965
  21
 144.18628331415
  31
0.0
  70
0
   3
GMM001
 100
AcDbAlignedDimension
  13
-89.165514699655
  23
 134.12887597783
  33
0.0
  14
-209.16551469965
  24
 134.12887597783
  34
0.0
  50
 180.00000000000
 100
AcDbRotatedDimension
   0
DIMENSION
   5
34E
 100
AcDbEntity
   8
LEVEL001
   6
CONTINUOUS
  62
3
 100
AcDbDimension
   2
*D35
  10
-79.165514699655
  20
 204.32602295331
  30
0.0
  11
-74.953133754865
  21
 207.67224130810
  31
0.0
  70
132
   3
GMM003
 100
AcDbRadialDimension
  15
-77.599490788871
  25
 205.57003626146
  35
0.0
  40
 3.7896236118875
   0
DIMENSION
   5
34F
 100
AcDbEntity
   8
LEVEL001
   6
CONTINUOUS
  62
3
 100
AcDbDimension
   2
*D36
  10
-42.816753226997
  20
 220.60405334841
  30
0.0
  11
-45.615659840269
  21
 222.99284532486
  31
0.0
  70
132
   3
GMM003
 100
AcDbRadialDimension
  15
-43.577387312429
  25
 221.25323420771
  35
0.0
  40
 3.1811282977720
   0
TEXT
   5
350
 100
AcDbEntity
   8
LEVEL001
  62
3
 100
AcDbText
  10
-169.98002243124
  20
 245.38820000666
  30
0.0
  40
 4.0000000000000
   1
（Ｒ７０.１１４）
  50
 282.42689215153
  41
 0.75000000000000
   7
STANDARD
 100
AcDbText
   0
TEXT
   5
351
 100
AcDbEntity
   8
LEVEL001
  62
3
 100
AcDbText
  10
 133.32096319249
  20
 250.57885549604
  30
0.0
  40
 4.0000000000000
   1
（Ｒ２９１.０２）
  50
 277.98319926515
  41
 0.75000000000000
   7
STANDARD
 100
AcDbText
   0
LINE
   5
352
 100
AcDbEntity
   8
LEVEL001
 100
AcDbLine
   6
CONTINUOUS
  62
3
  10
 135.99712586202
  20
 216.67730103140
  30
0.0
  11
 131.50083260016
  21
 248.73830133619
  31
0.0
   0
DIMENSION
   5
353
 100
AcDbEntity
   8
LEVEL001
   6
CONTINUOUS
  62
3
 100
AcDbDimension
   2
*D37
  10
 330.03769782888
  20
 191.49740065234
  30
0.0
  11
 330.03769782888
  21
 208.49740065234
  31
0.0
  70
0
   3
GMM001
 100
AcDbAlignedDimension
  13
 187.19123060738
  23
 225.49740065234
  33
0.0
  14
 320.55272287061
  24
 191.49740065234
  34
0.0
  50
 270.00000000000
 100
AcDbRotatedDimension
   0
DIMENSION
   5
354
 100
AcDbEntity
   8
LEVEL001
   6
CONTINUOUS
  62
3
 100
AcDbDimension
   2
*D38
  10
 358.22806478369
  20
 176.85742641814
  30
0.0
  11
 352.22806478369
  21
 176.85742641814
  31
0.0
  70
0
   3
GMM001
 100
AcDbAlignedDimension
  13
 346.22806478369
  23
 191.49740065234
  33
0.0
  14
 358.22806478369
  24
 191.49740065234
  34
0.0
 100
AcDbRotatedDimension
   0
DIMENSION
   5
355
 100
AcDbEntity
   8
LEVEL001
   6
CONTINUOUS
  62
3
 100
AcDbDimension
   2
*D39
  10
 296.41477518693
  20
 148.29103508933
  30
0.0
  11
 176.41477518693
  21
 148.29103508933
  31
0.0
  70
0
   3
GMM001
 100
AcDbAlignedDimension
  13
 56.414775186927
  23
 148.29103508933
  33
0.0
  14
 296.41477518693
  24
 133.59110043440
  34
0.0
 100
AcDbRotatedDimension
   0
DIMENSION
   5
356
 100
AcDbEntity
   8
LEVEL001
   6
CONTINUOUS
  62
3
 100
AcDbDimension
   2
*D40
  10
 308.41477518693
  20
 166.75070811049
  30
0.0
  11
 176.41477518693
  21
 166.75070811049
  31
0.0
  70
0
   3
GMM001
 100
AcDbAlignedDimension
  13
 44.414775186927
  23
 175.85742641814
  33
0.0
  14
 308.41477518693
  24
 176.85742641814
  34
0.0
 100
AcDbRotatedDimension
   0
ENDSEC
  0
SECTION
  2
OBJECTS
  0
DICTIONARY
  5
C
100
AcDbDictionary
  3
ACAD_GROUP
350
D
  3
ACAD_MLINESTYLE
350
1B
  0
DICTIONARY
  5
D
102
{ACAD_REACTORS
330
C
102
}
100
AcDbDictionary
  0
DICTIONARY
  5
1B
102
{ACAD_REACTORS
330
C
102
}
100
AcDbDictionary
  3
STANDARD
350
1C
  0
MLINESTYLE
  5
1C
102
{ACAD_REACTORS
330
1B
102
}
100
AcDbMlineStyle
  2
STANDARD
 70
     0
  3

 62
   256
 51
90.0
 52
90.0
 71
     2
 49
0.5
 62
   256
  6
BYLAYER
 49
-0.5
 62
   256
  6
BYLAYER
  0
ENDSEC
   0
EOF
