   0
SECTION
   2
HEADER
   9
$ACADVER
   1
AC1015
   9
$LIMMIN
  10
0.0
  20
0.0
   9
$LIMMAX
  10
 842.00000000000
  20
 596.00000000000
   9
$EXTMIN
  10
0.0
  20
0.0
  30
0.0
   9
$EXTMAX
  10
 842.00000000000
  20
 596.00000000000
  30
0.0
   9
$LTSCALE
  40
 16.840000000000
   9
$HANDSEED
   5
35A
   0
ENDSEC
   0
SECTION
   2
TABLES
  0
TABLE
  2
VPORT
  5
8
100
AcDbSymbolTable
 70
     1
  0
VPORT
  5
359
100
AcDbSymbolTableRecord
100
AcDbViewportTableRecord
  2
*ACTIVE
 70
     0
 10
0.0
 20
0.0
 11
1.0
 21
1.0
  12
 421.00000000000
  22
 298.00000000000
 13
0.0
 23
0.0
 14
1.0
 24
1.0
 15
0.0
 25
0.0
 16
0.0
 26
0.0
 36
1.0
 17
0.0
 27
0.0
 37
0.0
  40
 842.00000000000
  41
 1.4787878787879
 42
50.0
 43
0.0
 44
0.0
 50
0.0
 51
0.0
 71
     0
 72
   100
 73
     1
 74
     1
 75
     0
 76
     0
 77
     0
 78
     0
  0
ENDTAB
  0
TABLE
  2
LTYPE
  5
5
100
AcDbSymbolTable
 70
    25
  0
LTYPE
  5
12
100
AcDbSymbolTableRecord
100
AcDbLinetypeTableRecord
  2
BYBLOCK
 70
     0
  3

 72
    65
 73
     0
 40
0.0
  0
LTYPE
  5
13
100
AcDbSymbolTableRecord
100
AcDbLinetypeTableRecord
  2
BYLAYER
 70
     0
  3

 72
    65
 73
     0
 40
0.0
  0
LTYPE
  5
14
100
AcDbSymbolTableRecord
100
AcDbLinetypeTableRecord
  2
CONTINUOUS
 70
     0
  3
Solid line
 72
    65
 73
     0
 40
0.0
  0
LTYPE
  5
20
100
AcDbSymbolTableRecord
100
AcDbLinetypeTableRecord
  2
BORDER
 70
     0
  3
__ __ . __ __ . __ __ . __ __ . __ __ . __ __ .
 72
    65
 73
     6
 40
1.75
 49
0.5
 74
     0
 49
-0.25
 74
     0
 49
0.5
 74
     0
 49
-0.25
 74
     0
 49
0.0
 74
     0
 49
-0.25
 74
     0
  0
LTYPE
  5
21
100
AcDbSymbolTableRecord
100
AcDbLinetypeTableRecord
  2
BORDER2
 70
     0
  3
__.__.__.__.__.__.__.__.__.__.__.__.__.__.__.__
 72
    65
 73
     6
 40
0.875
 49
0.25
 74
     0
 49
-0.125
 74
     0
 49
0.25
 74
     0
 49
-0.125
 74
     0
 49
0.0
 74
     0
 49
-0.125
 74
     0
  0
LTYPE
  5
22
100
AcDbSymbolTableRecord
100
AcDbLinetypeTableRecord
  2
BORDERX2
 70
     0
  3
____  ____  .  ____  ____  .  ____  ____  .  __
 72
    65
 73
     6
 40
3.5
 49
1.0
 74
     0
 49
-0.5
 74
     0
 49
1.0
 74
     0
 49
-0.5
 74
     0
 49
0.0
 74
     0
 49
-0.5
 74
     0
  0
LTYPE
  5
23
100
AcDbSymbolTableRecord
100
AcDbLinetypeTableRecord
  2
CENTER
 70
     0
  3
____ _ ____ _ ____ _ ____ _ ____ _ ____ _ ____ 
 72
    65
 73
     4
 40
2.0
 49
1.25
 74
     0
 49
-0.25
 74
     0
 49
0.25
 74
     0
 49
-0.25
 74
     0
  0
LTYPE
  5
24
100
AcDbSymbolTableRecord
100
AcDbLinetypeTableRecord
  2
CENTER2
 70
     0
  3
___ _ ___ _ ___ _ ___ _ ___ _ ___ _ ___ _ ___ _
 72
    65
 73
     4
 40
1.125
 49
0.75
 74
     0
 49
-0.125
 74
     0
 49
0.125
 74
     0
 49
-0.125
 74
     0
  0
LTYPE
  5
25
100
AcDbSymbolTableRecord
100
AcDbLinetypeTableRecord
  2
CENTERX2
 70
     0
  3
________  __  ________  __  ________  __  _____
 72
    65
 73
     4
 40
4.0
 49
2.5
 74
     0
 49
-0.5
 74
     0
 49
0.5
 74
     0
 49
-0.5
 74
     0
  0
LTYPE
  5
26
100
AcDbSymbolTableRecord
100
AcDbLinetypeTableRecord
  2
DASHDOT
 70
     0
  3
__ . __ . __ . __ . __ . __ . __ . __ . __ . __
 72
    65
 73
     4
 40
1.0
 49
0.5
 74
     0
 49
-0.25
 74
     0
 49
0.0
 74
     0
 49
-0.25
 74
     0
  0
LTYPE
  5
27
100
AcDbSymbolTableRecord
100
AcDbLinetypeTableRecord
  2
DASHDOT2
 70
     0
  3
_._._._._._._._._._._._._._._._._._._._._._._._
 72
    65
 73
     4
 40
0.5
 49
0.25
 74
     0
 49
-0.125
 74
     0
 49
0.0
 74
     0
 49
-0.125
 74
     0
  0
LTYPE
  5
28
100
AcDbSymbolTableRecord
100
AcDbLinetypeTableRecord
  2
DASHDOTX2
 70
     0
  3
____  .  ____  .  ____  .  ____  .  ____  .  __
 72
    65
 73
     4
 40
2.0
 49
1.0
 74
     0
 49
-0.5
 74
     0
 49
0.0
 74
     0
 49
-0.5
 74
     0
  0
LTYPE
  5
29
100
AcDbSymbolTableRecord
100
AcDbLinetypeTableRecord
  2
DASHED
 70
     0
  3
__ __ __ __ __ __ __ __ __ __ __ __ __ __ __ __
 72
    65
 73
     2
 40
0.75
 49
0.5
 74
     0
 49
-0.25
 74
     0
  0
LTYPE
  5
2A
100
AcDbSymbolTableRecord
100
AcDbLinetypeTableRecord
  2
DASHED2
 70
     0
  3
_ _ _ _ _ _ _ _ _ _ _ _ _ _ _ _ _ _ _ _ _ _ _ _
 72
    65
 73
     2
 40
0.375
 49
0.25
 74
     0
 49
-0.125
 74
     0
  0
LTYPE
  5
2B
100
AcDbSymbolTableRecord
100
AcDbLinetypeTableRecord
  2
DASHEDX2
 70
     0
  3
____  ____  ____  ____  ____  ____  ____  ____ 
 72
    65
 73
     2
 40
1.5
 49
1.0
 74
     0
 49
-0.5
 74
     0
  0
LTYPE
  5
2C
100
AcDbSymbolTableRecord
100
AcDbLinetypeTableRecord
  2
DIVIDE
 70
     0
  3
____ . . ____ . . ____ . . ____ . . ____ . . __
 72
    65
 73
     6
 40
1.25
 49
0.5
 74
     0
 49
-0.25
 74
     0
 49
0.0
 74
     0
 49
-0.25
 74
     0
 49
0.0
 74
     0
 49
-0.25
 74
     0
  0
LTYPE
  5
2D
100
AcDbSymbolTableRecord
100
AcDbLinetypeTableRecord
  2
DIVIDE2
 70
     0
  3
__..__..__..__..__..__..__..__..__..__..__..__.
 72
    65
 73
     6
 40
0.625
 49
0.25
 74
     0
 49
-0.125
 74
     0
 49
0.0
 74
     0
 49
-0.125
 74
     0
 49
0.0
 74
     0
 49
-0.125
 74
     0
  0
LTYPE
  5
2E
100
AcDbSymbolTableRecord
100
AcDbLinetypeTableRecord
  2
DIVIDEX2
 70
     0
  3
________  .  .  ________  .  .  ________  .  . 
 72
    65
 73
     6
 40
2.5
 49
1.0
 74
     0
 49
-0.5
 74
     0
 49
0.0
 74
     0
 49
-0.5
 74
     0
 49
0.0
 74
     0
 49
-0.5
 74
     0
  0
LTYPE
  5
2F
100
AcDbSymbolTableRecord
100
AcDbLinetypeTableRecord
  2
DOT
 70
     0
  3
. . . . . . . . . . . . . . . . . . . . . . . .
 72
    65
 73
     2
 40
0.25
 49
0.0
 74
     0
 49
-0.25
 74
     0
  0
LTYPE
  5
30
100
AcDbSymbolTableRecord
100
AcDbLinetypeTableRecord
  2
DOT2
 70
     0
  3
...............................................
 72
    65
 73
     2
 40
0.125
 49
0.0
 74
     0
 49
-0.125
 74
     0
  0
LTYPE
  5
31
100
AcDbSymbolTableRecord
100
AcDbLinetypeTableRecord
  2
DOTX2
 70
     0
  3
.  .  .  .  .  .  .  .  .  .  .  .  .  .  .  . 
 72
    65
 73
     2
 40
0.5
 49
0.0
 74
     0
 49
-0.5
 74
     0
  0
LTYPE
  5
32
100
AcDbSymbolTableRecord
100
AcDbLinetypeTableRecord
  2
HIDDEN
 70
     0
  3
__ __ __ __ __ __ __ __ __ __ __ __ __ __ __ __
 72
    65
 73
     2
 40
0.375
 49
0.25
 74
     0
 49
-0.125
 74
     0
  0
LTYPE
  5
33
100
AcDbSymbolTableRecord
100
AcDbLinetypeTableRecord
  2
HIDDEN2
 70
     0
  3
_ _ _ _ _ _ _ _ _ _ _ _ _ _ _ _ _ _ _ _ _ _ _ _
 72
    65
 73
     2
 40
0.1875
 49
0.125
 74
     0
 49
-0.0625
 74
     0
  0
LTYPE
  5
34
100
AcDbSymbolTableRecord
100
AcDbLinetypeTableRecord
  2
HIDDENX2
 70
     0
  3
____ ____ ____ ____ ____ ____ ____ ____ ____ __
 72
    65
 73
     2
 40
0.75
 49
0.5
 74
     0
 49
-0.25
 74
     0
  0
LTYPE
  5
35
100
AcDbSymbolTableRecord
100
AcDbLinetypeTableRecord
  2
PHANTOM
 70
     0
  3
______  __  __  ______  __  __  ______  __  __ 
 72
    65
 73
     6
 40
2.5
 49
1.25
 74
     0
 49
-0.25
 74
     0
 49
0.25
 74
     0
 49
-0.25
 74
     0
 49
0.25
 74
     0
 49
-0.25
 74
     0
  0
LTYPE
  5
36
100
AcDbSymbolTableRecord
100
AcDbLinetypeTableRecord
  2
PHANTOM2
 70
     0
  3
___ _ _ ___ _ _ ___ _ _ ___ _ _ ___ _ _ ___ _ _
 72
    65
 73
     6
 40
1.25
 49
0.625
 74
     0
 49
-0.125
 74
     0
 49
0.125
 74
     0
 49
-0.125
 74
     0
 49
0.125
 74
     0
 49
-0.125
 74
     0
  0
LTYPE
  5
37
100
AcDbSymbolTableRecord
100
AcDbLinetypeTableRecord
  2
PHANTOMX2
 70
     0
  3
____________    ____    ____    ____________   
 72
    65
 73
     6
 40
5.0
 49
2.5
 74
     0
 49
-0.5
 74
     0
 49
0.5
 74
     0
 49
-0.5
 74
     0
 49
0.5
 74
     0
 49
-0.5
 74
     0
  0
ENDTAB
   0
TABLE
   2
LAYER
   5
2
 100
AcDbSymbolTable
  70
2
   0
LAYER
   5
E
 100
AcDbSymbolTableRecord
 100
AcDbLayerTableRecord
   2
0
  70
0
  62
7
   6
CONTINUOUS
 390
30
   0
LAYER
   5
39
 100
AcDbSymbolTableRecord
 100
AcDbLayerTableRecord
   2
FORMAT
  70
0
  62
7
   6
CONTINUOUS
 390
30
   0
ENDTAB
  0
TABLE
  2
STYLE
  5
3
100
AcDbSymbolTable
  70
3
  0
STYLE
  5
F
100
AcDbSymbolTableRecord
100
AcDbTextStyleTableRecord
  2
STANDARD
 70
     0
 40
0.0
 41
1.0
 50
0.0
 71
     0
 42
0.2
  3
TXT
  4
BIGFONT
  0
STYLE
  5
38
100
AcDbSymbolTableRecord
100
AcDbTextStyleTableRecord
  2
STANDARD1
 70
     4
 40
0.0
 41
1.0
 50
0.0
 71
     0
 42
0.2
  3
TXT
  4
BIGFONT
   0
STYLE
   5
3A
 100
AcDbSymbolTableRecord
 100
AcDbTextStyleTableRecord
   2
GMM001
  70
0
  40
0.0
  41
 0.84210526315789
  50
0.0
  71
     0
  42
1.0
   3
txt.shx
   4
bigfont.shx
   0
ENDTAB
  0
TABLE
  2
VIEW
  5
6
100
AcDbSymbolTable
 70
     0
  0
ENDTAB
  0
TABLE
  2
UCS
  5
7
100
AcDbSymbolTable
 70
     0
  0
ENDTAB
  0
TABLE
  2
APPID
  5
9
100
AcDbSymbolTable
 70
     1
  0
APPID
  5
10
100
AcDbSymbolTableRecord
100
AcDbRegAppTableRecord
  2
ACAD
 70
     0
  0
ENDTAB
   0
TABLE
   2
DIMSTYLE
   5
A
 100
AcDbSymbolTable
  70
5
 100
AcDbDimStyleTable
  0
DIMSTYLE
105
1D
100
AcDbSymbolTableRecord
100
AcDbDimStyleTableRecord
  2
STANDARD
 70
     0
  3

  4

  5

  6

  7

 40
1.0
 41
0.18
 42
0.0625
 43
0.38
 44
0.18
 45
0.0
 46
0.0
 47
0.0
 48
0.0
140
0.18
141
0.09
142
0.0
143
25.4
144
1.0
145
0.0
146
1.0
147
0.09
 71
     0
 72
     0
 73
     1
 74
     1
 75
     0
 76
     0
 77
     0
 78
     0
170
     0
171
     2
172
     0
173
     0
174
     0
175
     0
176
     0
177
     0
178
     0
270
     2
271
     4
272
     4
273
     2
274
     2
340
F
275
     0
280
     0
281
     0
282
     0
283
     1
284
     0
285
     0
286
     0
287
     3
288
     0
   0
DIMSTYLE
 105
3B
 100
AcDbSymbolTableRecord
 100
AcDbDimStyleTableRecord
   2
GMM001
  70
0
   3
%%c<>
   4

   5

   6
_OPEN30
   7
_OPEN30
  40
 1.0000000000000
  41
 6.0000000000000
  42
0.0
  43
 16.000000000000
  44
 4.0000000000000
  45
0.0
  46
0.0
  47
0.0
  48
0.0
 140
 7.6000000000000
 141
 2.0000000000000
 142
0.0
 143
 0.39400000000000E-1
 144
 1.0000000000000
 145
0.0
 146
 0.65789473684211
 147
 4.2428820000000
  71
0
  72
0
  73
0
  74
0
  75
0
  76
0
  77
3
  78
8
 170
0
 171
2
 172
1
 173
1
 174
0
 175
0
 176
2
 177
2
 178
2
 270
2
 271
6
 272
0
 273
2
 274
2
 340
3A
 275
1
 280
0
 281
0
 282
0
 283
1
 284
0
 285
0
 286
0
 287
3
 288
1
   0
DIMSTYLE
 105
3C
 100
AcDbSymbolTableRecord
 100
AcDbDimStyleTableRecord
   2
GMM002
  70
0
   3

   4

   5

   6
_OPEN30
   7
_OPEN30
  40
 1.0000000000000
  41
 6.0000000000000
  42
0.0
  43
 16.000000000000
  44
 4.0000000000000
  45
0.0
  46
0.0
  47
0.0
  48
0.0
 140
 7.6000000000000
 141
 2.0000000000000
 142
0.0
 143
 0.39400000000000E-1
 144
 1.0000000000000
 145
0.0
 146
 0.65789473684211
 147
 3.2571428571429
  71
0
  72
0
  73
0
  74
0
  75
0
  76
0
  77
3
  78
8
 170
0
 171
2
 172
1
 173
1
 174
0
 175
0
 176
2
 177
2
 178
2
 270
2
 271
6
 272
0
 273
2
 274
2
 340
3A
 275
1
 280
0
 281
0
 282
0
 283
1
 284
0
 285
0
 286
0
 287
3
 288
0
   0
DIMSTYLE
 105
3D
 100
AcDbSymbolTableRecord
 100
AcDbDimStyleTableRecord
   2
GMM003
  70
0
   3
(<>
   4

   5

   6
_OPEN30
   7
_OPEN30
  40
 1.0000000000000
  41
 6.0000000000000
  42
0.0
  43
 16.000000000000
  44
 4.0000000000000
  45
0.0
  46
0.0
  47
0.0
  48
0.0
 140
 7.6000000000000
 141
 2.0000000000000
 142
0.0
 143
 0.39400000000000E-1
 144
 1.0000000000000
 145
0.0
 146
 0.65789473684211
 147
 3.2571428571429
  71
0
  72
0
  73
0
  74
0
  75
0
  76
0
  77
3
  78
8
 170
0
 171
2
 172
1
 173
1
 174
0
 175
0
 176
2
 177
2
 178
2
 270
2
 271
6
 272
0
 273
2
 274
2
 340
3A
 275
1
 280
0
 281
0
 282
0
 283
1
 284
0
 285
0
 286
0
 287
3
 288
0
   0
ENDTAB
  0
TABLE
  2
BLOCK_RECORD
  5
1
100
AcDbSymbolTable
 70
     0
  0
BLOCK_RECORD
  5
18
100
AcDbSymbolTableRecord
100
AcDbBlockTableRecord
  2
*MODEL_SPACE
  0
BLOCK_RECORD
  5
15
100
AcDbSymbolTableRecord
100
AcDbBlockTableRecord
  2
*PAPER_SPACE
   0
BLOCK_RECORD
   5
3E
 100
AcDbSymbolTableRecord
 100
AcDbBlockTableRecord
   2
*D1
   0
BLOCK_RECORD
   5
3F
 100
AcDbSymbolTableRecord
 100
AcDbBlockTableRecord
   2
*D2
   0
BLOCK_RECORD
   5
40
 100
AcDbSymbolTableRecord
 100
AcDbBlockTableRecord
   2
*D3
   0
BLOCK_RECORD
   5
41
 100
AcDbSymbolTableRecord
 100
AcDbBlockTableRecord
   2
*D4
   0
BLOCK_RECORD
   5
42
 100
AcDbSymbolTableRecord
 100
AcDbBlockTableRecord
   2
*D5
   0
BLOCK_RECORD
   5
43
 100
AcDbSymbolTableRecord
 100
AcDbBlockTableRecord
   2
*D6
   0
BLOCK_RECORD
   5
44
 100
AcDbSymbolTableRecord
 100
AcDbBlockTableRecord
   2
*D7
   0
BLOCK_RECORD
   5
45
 100
AcDbSymbolTableRecord
 100
AcDbBlockTableRecord
   2
*D8
   0
BLOCK_RECORD
   5
46
 100
AcDbSymbolTableRecord
 100
AcDbBlockTableRecord
   2
*D9
   0
BLOCK_RECORD
   5
47
 100
AcDbSymbolTableRecord
 100
AcDbBlockTableRecord
   2
*D10
   0
BLOCK_RECORD
   5
48
 100
AcDbSymbolTableRecord
 100
AcDbBlockTableRecord
   2
_ARCHTICK
   0
BLOCK_RECORD
   5
49
 100
AcDbSymbolTableRecord
 100
AcDbBlockTableRecord
   2
_BOXBLANK
   0
BLOCK_RECORD
   5
4A
 100
AcDbSymbolTableRecord
 100
AcDbBlockTableRecord
   2
_BOXFILLED
   0
BLOCK_RECORD
   5
4B
 100
AcDbSymbolTableRecord
 100
AcDbBlockTableRecord
   2
_CLOSED
   0
BLOCK_RECORD
   5
4C
 100
AcDbSymbolTableRecord
 100
AcDbBlockTableRecord
   2
_CLOSEDBLANK
   0
BLOCK_RECORD
   5
4D
 100
AcDbSymbolTableRecord
 100
AcDbBlockTableRecord
   2
_DATUMBLANK
   0
BLOCK_RECORD
   5
4E
 100
AcDbSymbolTableRecord
 100
AcDbBlockTableRecord
   2
_DATUMFILLED
   0
BLOCK_RECORD
   5
4F
 100
AcDbSymbolTableRecord
 100
AcDbBlockTableRecord
   2
_DOT
   0
BLOCK_RECORD
   5
50
 100
AcDbSymbolTableRecord
 100
AcDbBlockTableRecord
   2
_DOTBLANK
   0
BLOCK_RECORD
   5
51
 100
AcDbSymbolTableRecord
 100
AcDbBlockTableRecord
   2
_DOTSMALL
   0
BLOCK_RECORD
   5
52
 100
AcDbSymbolTableRecord
 100
AcDbBlockTableRecord
   2
_INTEGRAL
   0
BLOCK_RECORD
   5
53
 100
AcDbSymbolTableRecord
 100
AcDbBlockTableRecord
   2
_NONE
   0
BLOCK_RECORD
   5
54
 100
AcDbSymbolTableRecord
 100
AcDbBlockTableRecord
   2
_OBLIQUE
   0
BLOCK_RECORD
   5
55
 100
AcDbSymbolTableRecord
 100
AcDbBlockTableRecord
   2
_OPEN
   0
BLOCK_RECORD
   5
56
 100
AcDbSymbolTableRecord
 100
AcDbBlockTableRecord
   2
_OPEN30
   0
BLOCK_RECORD
   5
57
 100
AcDbSymbolTableRecord
 100
AcDbBlockTableRecord
   2
_OPEN90
   0
BLOCK_RECORD
   5
58
 100
AcDbSymbolTableRecord
 100
AcDbBlockTableRecord
   2
_ORIGIN
   0
ENDTAB
   0
ENDSEC
  0
SECTION
  2
BLOCKS
  0
BLOCK
  5
19
100
AcDbEntity
  8
0
100
AcDbBlockBegin
  2
*MODEL_SPACE
 70
     0
 10
0.0
 20
0.0
 30
0.0
  3
*MODEL_SPACE
  1

  0
ENDBLK
  5
1A
100
AcDbEntity
  8
0
100
AcDbBlockEnd
  0
BLOCK
  5
16
100
AcDbEntity
 67
     1
  8
0
100
AcDbBlockBegin
  2
*PAPER_SPACE
 70
     0
 10
0.0
 20
0.0
 30
0.0
  3
*PAPER_SPACE
  1

  0
ENDBLK
  5
17
100
AcDbEntity
 67
     1
  8
0
100
AcDbBlockEnd
   0
BLOCK
   5
59
 100
AcDbEntity
   8
0
 100
AcDbBlockBegin
   2
_ARCHTICK
  70
0
  10
0.0
  20
0.0
  30
0.0
   3
_ARCHTICK
   0
POLYLINE
   5
5A
 100
AcDbEntity
   8
0
   6
BYBLOCK
  62
0
 100
AcDb2dPolyline
  66
1
  10
0.0
  20
0.0
  30
0.0
  70
1
  40
 0.15000000000000
  41
 0.15000000000000
   0
VERTEX
   5
5B
 100
AcDbEntity
   8
0
   6
BYBLOCK
  62
0
 100
AcDbVertex
 100
AcDb2dVertex
  10
-0.50000000000000
  20
-0.50000000000000
  30
0.0
  40
 0.15000000000000
  41
 0.15000000000000
   0
VERTEX
   5
5C
 100
AcDbEntity
   8
0
   6
BYBLOCK
  62
0
 100
AcDbVertex
 100
AcDb2dVertex
  10
 0.50000000000000
  20
 0.50000000000000
  30
0.0
  40
 0.15000000000000
  41
 0.15000000000000
   0
SEQEND
   5
5D
 100
AcDbEntity
   8
0
   6
BYBLOCK
  62
0
   0
ENDBLK
   5
5E
 100
AcDbEntity
   8
0
 100
AcDbBlockEnd
   0
BLOCK
   5
5F
 100
AcDbEntity
   8
0
 100
AcDbBlockBegin
   2
_OBLIQUE
  70
0
  10
0.0
  20
0.0
  30
0.0
   3
_OBLIQUE
   0
LINE
   5
60
 100
AcDbEntity
   8
0
 100
AcDbLine
   6
BYBLOCK
  62
0
  10
-0.50000000000000
  20
-0.50000000000000
  30
0.0
  11
 0.50000000000000
  21
 0.50000000000000
  31
0.0
   0
ENDBLK
   5
61
 100
AcDbEntity
   8
0
 100
AcDbBlockEnd
   0
BLOCK
   5
62
 100
AcDbEntity
   8
0
 100
AcDbBlockBegin
   2
_BOXBLANK
  70
0
  10
0.0
  20
0.0
  30
0.0
   3
_BOXBLANK
   0
LINE
   5
63
 100
AcDbEntity
   8
0
 100
AcDbLine
   6
BYBLOCK
  62
0
  10
-0.50000000000000
  20
-0.50000000000000
  30
0.0
  11
 0.50000000000000
  21
-0.50000000000000
  31
0.0
   0
LINE
   5
64
 100
AcDbEntity
   8
0
 100
AcDbLine
   6
BYBLOCK
  62
0
  10
 0.50000000000000
  20
-0.50000000000000
  30
0.0
  11
 0.50000000000000
  21
 0.50000000000000
  31
0.0
   0
LINE
   5
65
 100
AcDbEntity
   8
0
 100
AcDbLine
   6
BYBLOCK
  62
0
  10
 0.50000000000000
  20
 0.50000000000000
  30
0.0
  11
-0.50000000000000
  21
 0.50000000000000
  31
0.0
   0
LINE
   5
66
 100
AcDbEntity
   8
0
 100
AcDbLine
   6
BYBLOCK
  62
0
  10
-0.50000000000000
  20
 0.50000000000000
  30
0.0
  11
-0.50000000000000
  21
-0.50000000000000
  31
0.0
   0
LINE
   5
67
 100
AcDbEntity
   8
0
 100
AcDbLine
   6
BYBLOCK
  62
0
  10
-0.50000000000000
  20
0.0
  30
0.0
  11
-1.0000000000000
  21
0.0
  31
0.0
   0
ENDBLK
   5
68
 100
AcDbEntity
   8
0
 100
AcDbBlockEnd
   0
BLOCK
   5
69
 100
AcDbEntity
   8
0
 100
AcDbBlockBegin
   2
_BOXFILLED
  70
0
  10
0.0
  20
0.0
  30
0.0
   3
_BOXFILLED
   0
SOLID
   5
6A
 100
AcDbEntity
   8
0
 100
AcDbTrace
   6
BYBLOCK
  62
0
  10
-0.50000000000000
  20
 0.50000000000000
  30
0.0
  11
 0.50000000000000
  21
 0.50000000000000
  31
0.0
  12
-0.50000000000000
  22
-0.50000000000000
  32
0.0
  13
 0.50000000000000
  23
-0.50000000000000
  33
0.0
   0
LINE
   5
6B
 100
AcDbEntity
   8
0
 100
AcDbLine
   6
BYBLOCK
  62
0
  10
-0.50000000000000
  20
0.0
  30
0.0
  11
-1.0000000000000
  21
0.0
  31
0.0
   0
ENDBLK
   5
6C
 100
AcDbEntity
   8
0
 100
AcDbBlockEnd
   0
BLOCK
   5
6D
 100
AcDbEntity
   8
0
 100
AcDbBlockBegin
   2
_CLOSED
  70
0
  10
0.0
  20
0.0
  30
0.0
   3
_CLOSED
   0
LINE
   5
6E
 100
AcDbEntity
   8
0
 100
AcDbLine
   6
BYBLOCK
  62
0
  10
-1.0000000000000
  20
 0.16666666666667
  30
0.0
  11
0.0
  21
0.0
  31
0.0
   0
LINE
   5
6F
 100
AcDbEntity
   8
0
 100
AcDbLine
   6
BYBLOCK
  62
0
  10
0.0
  20
0.0
  30
0.0
  11
-1.0000000000000
  21
-0.16666666666667
  31
0.0
   0
LINE
   5
70
 100
AcDbEntity
   8
0
 100
AcDbLine
   6
BYBLOCK
  62
0
  10
-1.0000000000000
  20
 0.16666666666667
  30
0.0
  11
-1.0000000000000
  21
-0.16666666666667
  31
0.0
   0
LINE
   5
71
 100
AcDbEntity
   8
0
 100
AcDbLine
   6
BYBLOCK
  62
0
  10
0.0
  20
0.0
  30
0.0
  11
-1.0000000000000
  21
0.0
  31
0.0
   0
ENDBLK
   5
72
 100
AcDbEntity
   8
0
 100
AcDbBlockEnd
   0
BLOCK
   5
73
 100
AcDbEntity
   8
0
 100
AcDbBlockBegin
   2
_OPEN
  70
0
  10
0.0
  20
0.0
  30
0.0
   3
_OPEN
   0
LINE
   5
74
 100
AcDbEntity
   8
0
 100
AcDbLine
   6
BYBLOCK
  62
0
  10
-1.0000000000000
  20
 0.16666666666667
  30
0.0
  11
0.0
  21
0.0
  31
0.0
   0
LINE
   5
75
 100
AcDbEntity
   8
0
 100
AcDbLine
   6
BYBLOCK
  62
0
  10
0.0
  20
0.0
  30
0.0
  11
-1.0000000000000
  21
-0.16666666666667
  31
0.0
   0
LINE
   5
76
 100
AcDbEntity
   8
0
 100
AcDbLine
   6
BYBLOCK
  62
0
  10
0.0
  20
0.0
  30
0.0
  11
-1.0000000000000
  21
0.0
  31
0.0
   0
ENDBLK
   5
77
 100
AcDbEntity
   8
0
 100
AcDbBlockEnd
   0
BLOCK
   5
78
 100
AcDbEntity
   8
0
 100
AcDbBlockBegin
   2
_OPEN30
  70
0
  10
0.0
  20
0.0
  30
0.0
   3
_OPEN30
   0
LINE
   5
79
 100
AcDbEntity
   8
0
 100
AcDbLine
   6
BYBLOCK
  62
0
  10
-1.0000000000000
  20
 0.26794919243110
  30
0.0
  11
0.0
  21
0.0
  31
0.0
   0
LINE
   5
7A
 100
AcDbEntity
   8
0
 100
AcDbLine
   6
BYBLOCK
  62
0
  10
0.0
  20
0.0
  30
0.0
  11
-1.0000000000000
  21
-0.26794919243110
  31
0.0
   0
LINE
   5
7B
 100
AcDbEntity
   8
0
 100
AcDbLine
   6
BYBLOCK
  62
0
  10
0.0
  20
0.0
  30
0.0
  11
-1.0000000000000
  21
0.0
  31
0.0
   0
ENDBLK
   5
7C
 100
AcDbEntity
   8
0
 100
AcDbBlockEnd
   0
BLOCK
   5
7D
 100
AcDbEntity
   8
0
 100
AcDbBlockBegin
   2
_OPEN90
  70
0
  10
0.0
  20
0.0
  30
0.0
   3
_OPEN90
   0
LINE
   5
7E
 100
AcDbEntity
   8
0
 100
AcDbLine
   6
BYBLOCK
  62
0
  10
-0.50000000000000
  20
 0.50000000000000
  30
0.0
  11
0.0
  21
0.0
  31
0.0
   0
LINE
   5
7F
 100
AcDbEntity
   8
0
 100
AcDbLine
   6
BYBLOCK
  62
0
  10
0.0
  20
0.0
  30
0.0
  11
-0.50000000000000
  21
-0.50000000000000
  31
0.0
   0
LINE
   5
80
 100
AcDbEntity
   8
0
 100
AcDbLine
   6
BYBLOCK
  62
0
  10
0.0
  20
0.0
  30
0.0
  11
-1.0000000000000
  21
0.0
  31
0.0
   0
ENDBLK
   5
81
 100
AcDbEntity
   8
0
 100
AcDbBlockEnd
   0
BLOCK
   5
82
 100
AcDbEntity
   8
0
 100
AcDbBlockBegin
   2
_CLOSEDBLANK
  70
0
  10
0.0
  20
0.0
  30
0.0
   3
_CLOSEDBLANK
   0
LINE
   5
83
 100
AcDbEntity
   8
0
 100
AcDbLine
   6
BYBLOCK
  62
0
  10
-1.0000000000000
  20
 0.16666666666667
  30
0.0
  11
0.0
  21
0.0
  31
0.0
   0
LINE
   5
84
 100
AcDbEntity
   8
0
 100
AcDbLine
   6
BYBLOCK
  62
0
  10
0.0
  20
0.0
  30
0.0
  11
-1.0000000000000
  21
-0.16666666666667
  31
0.0
   0
LINE
   5
85
 100
AcDbEntity
   8
0
 100
AcDbLine
   6
BYBLOCK
  62
0
  10
-1.0000000000000
  20
 0.16666666666667
  30
0.0
  11
-1.0000000000000
  21
-0.16666666666667
  31
0.0
   0
ENDBLK
   5
86
 100
AcDbEntity
   8
0
 100
AcDbBlockEnd
   0
BLOCK
   5
87
 100
AcDbEntity
   8
0
 100
AcDbBlockBegin
   2
_DOT
  70
0
  10
0.0
  20
0.0
  30
0.0
   3
_DOT
   0
POLYLINE
   5
88
 100
AcDbEntity
   8
0
   6
BYBLOCK
  62
0
 100
AcDb2dPolyline
  66
1
  10
0.0
  20
0.0
  30
0.0
  70
1
  40
 0.50000000000000
  41
 0.50000000000000
   0
VERTEX
   5
89
 100
AcDbEntity
   8
0
   6
BYBLOCK
  62
0
 100
AcDbVertex
 100
AcDb2dVertex
  10
-0.25000000000000
  20
0.0
  30
0.0
  42
 1.0000000000000
  40
 0.50000000000000
  41
 0.50000000000000
   0
VERTEX
   5
8A
 100
AcDbEntity
   8
0
   6
BYBLOCK
  62
0
 100
AcDbVertex
 100
AcDb2dVertex
  10
 0.25000000000000
  20
0.0
  30
0.0
  42
 1.0000000000000
  40
 0.50000000000000
  41
 0.50000000000000
   0
SEQEND
   5
8B
 100
AcDbEntity
   8
0
   6
BYBLOCK
  62
0
   0
LINE
   5
8C
 100
AcDbEntity
   8
0
 100
AcDbLine
   6
BYBLOCK
  62
0
  10
-0.50000000000000
  20
0.0
  30
0.0
  11
-1.0000000000000
  21
0.0
  31
0.0
   0
ENDBLK
   5
8D
 100
AcDbEntity
   8
0
 100
AcDbBlockEnd
   0
BLOCK
   5
8E
 100
AcDbEntity
   8
0
 100
AcDbBlockBegin
   2
_DOTSMALL
  70
0
  10
0.0
  20
0.0
  30
0.0
   3
_DOTSMALL
   0
POLYLINE
   5
8F
 100
AcDbEntity
   8
0
   6
BYBLOCK
  62
0
 100
AcDb2dPolyline
  66
1
  10
0.0
  20
0.0
  30
0.0
  70
1
  40
 0.50000000000000
  41
 0.50000000000000
   0
VERTEX
   5
90
 100
AcDbEntity
   8
0
   6
BYBLOCK
  62
0
 100
AcDbVertex
 100
AcDb2dVertex
  10
-0.62500000000000E-1
  20
0.0
  30
0.0
  42
 1.0000000000000
  40
 0.50000000000000
  41
 0.50000000000000
   0
VERTEX
   5
91
 100
AcDbEntity
   8
0
   6
BYBLOCK
  62
0
 100
AcDbVertex
 100
AcDb2dVertex
  10
 0.62500000000000E-1
  20
0.0
  30
0.0
  42
 1.0000000000000
  40
 0.50000000000000
  41
 0.50000000000000
   0
SEQEND
   5
92
 100
AcDbEntity
   8
0
   6
BYBLOCK
  62
0
   0
ENDBLK
   5
93
 100
AcDbEntity
   8
0
 100
AcDbBlockEnd
   0
BLOCK
   5
94
 100
AcDbEntity
   8
0
 100
AcDbBlockBegin
   2
_DATUMBLANK
  70
0
  10
0.0
  20
0.0
  30
0.0
   3
_DATUMBLANK
   0
LINE
   5
95
 100
AcDbEntity
   8
0
 100
AcDbLine
   6
BYBLOCK
  62
0
  10
0.0
  20
 0.57735027000000
  30
0.0
  11
-1.0000000000000
  21
0.0
  31
0.0
   0
LINE
   5
96
 100
AcDbEntity
   8
0
 100
AcDbLine
   6
BYBLOCK
  62
0
  10
-1.0000000000000
  20
0.0
  30
0.0
  11
0.0
  21
-0.57735027000000
  31
0.0
   0
LINE
   5
97
 100
AcDbEntity
   8
0
 100
AcDbLine
   6
BYBLOCK
  62
0
  10
0.0
  20
-0.57735027000000
  30
0.0
  11
0.0
  21
 0.57735027000000
  31
0.0
   0
ENDBLK
   5
98
 100
AcDbEntity
   8
0
 100
AcDbBlockEnd
   0
BLOCK
   5
99
 100
AcDbEntity
   8
0
 100
AcDbBlockBegin
   2
_DATUMFILLED
  70
0
  10
0.0
  20
0.0
  30
0.0
   3
_DATUMFILLED
   0
SOLID
   5
9A
 100
AcDbEntity
   8
0
 100
AcDbTrace
   6
BYBLOCK
  62
0
  10
0.0
  20
 0.57735027000000
  30
0.0
  11
-1.0000000000000
  21
0.0
  31
0.0
  12
0.0
  22
-0.57735027000000
  32
0.0
  13
0.0
  23
-0.57735027000000
  33
0.0
   0
ENDBLK
   5
9B
 100
AcDbEntity
   8
0
 100
AcDbBlockEnd
   0
BLOCK
   5
9C
 100
AcDbEntity
   8
0
 100
AcDbBlockBegin
   2
_ORIGIN
  70
0
  10
0.0
  20
0.0
  30
0.0
   3
_ORIGIN
   0
CIRCLE
   5
9D
 100
AcDbEntity
   8
0
 100
AcDbCircle
   6
BYBLOCK
  62
0
  10
0.0
  20
0.0
  30
0.0
  40
 0.50000000000000
   0
LINE
   5
9E
 100
AcDbEntity
   8
0
 100
AcDbLine
   6
BYBLOCK
  62
0
  10
0.0
  20
0.0
  30
0.0
  11
-1.0000000000000
  21
0.0
  31
0.0
   0
ENDBLK
   5
9F
 100
AcDbEntity
   8
0
 100
AcDbBlockEnd
   0
BLOCK
   5
A0
 100
AcDbEntity
   8
0
 100
AcDbBlockBegin
   2
_NONE
  70
0
  10
0.0
  20
0.0
  30
0.0
   3
_NONE
   0
CIRCLE
   5
A1
 100
AcDbEntity
   8
0
 100
AcDbCircle
   6
BYBLOCK
  62
0
  10
0.0
  20
0.0
  30
0.0
  40
 0.25000000000000
   0
ENDBLK
   5
A2
 100
AcDbEntity
   8
0
 100
AcDbBlockEnd
   0
BLOCK
   5
A3
 100
AcDbEntity
   8
0
 100
AcDbBlockBegin
   2
_DOTBLANK
  70
0
  10
0.0
  20
0.0
  30
0.0
   3
_DOTBLANK
   0
CIRCLE
   5
A4
 100
AcDbEntity
   8
0
 100
AcDbCircle
   6
BYBLOCK
  62
0
  10
0.0
  20
0.0
  30
0.0
  40
 0.50000000000000
   0
LINE
   5
A5
 100
AcDbEntity
   8
0
 100
AcDbLine
   6
BYBLOCK
  62
0
  10
-0.50000000000000
  20
0.0
  30
0.0
  11
-1.0000000000000
  21
0.0
  31
0.0
   0
ENDBLK
   5
A6
 100
AcDbEntity
   8
0
 100
AcDbBlockEnd
   0
BLOCK
   5
A7
 100
AcDbEntity
   8
0
 100
AcDbBlockBegin
   2
_INTEGRAL
  70
0
  10
0.0
  20
0.0
  30
0.0
   3
_INTEGRAL
   0
ARC
   5
A8
 100
AcDbEntity
   8
0
   6
BYBLOCK
  62
0
 100
AcDbCircle
  10
 0.44488800000000
  20
-0.91335000000000E-1
  30
0.0
  40
 0.45416700000000
 100
AcDbArc
  50
 102.00000000000
  51
 168.00000000000
   0
ARC
   5
A9
 100
AcDbEntity
   8
0
   6
BYBLOCK
  62
0
 100
AcDbCircle
  10
-0.44488800000000
  20
 0.91335000000000E-1
  30
0.0
  40
 0.45416700000000
 100
AcDbArc
  50
 282.00000000000
  51
 348.00000000000
   0
ENDBLK
   5
AA
 100
AcDbEntity
   8
0
 100
AcDbBlockEnd
   0
BLOCK
   5
AB
 100
AcDbEntity
   8
0
 100
AcDbBlockBegin
   2
*D1
  70
65
  10
0.0
  20
0.0
  30
0.0
   3
*D1
   0
LINE
   5
AC
 100
AcDbEntity
   8
0
 100
AcDbLine
   6
CONTINUOUS
  62
2
  10
 459.52176645953
  20
 206.29862313710
  30
0.0
  11
 464.79463116097
  21
 206.29862313710
  31
0.0
   0
LINE
   5
AD
 100
AcDbEntity
   8
0
 100
AcDbLine
   6
CONTINUOUS
  62
2
  10
 460.37034292716
  20
 216.29862313710
  30
0.0
  11
 464.79463116097
  21
 216.29862313710
  31
0.0
   0
LINE
   5
AE
 100
AcDbEntity
   8
0
 100
AcDbLine
   6
CONTINUOUS
  62
2
  10
 460.79463116097
  20
 182.67329757263
  30
0.0
  11
 460.79463116097
  21
 211.29862313710
  31
0.0
   0
LINE
   5
AF
 100
AcDbEntity
   8
0
 100
AcDbLine
   6
CONTINUOUS
  62
2
  10
 460.79463116097
  20
 223.79862313710
  30
0.0
  11
 460.79463116097
  21
 211.29862313710
  31
0.0
   0
INSERT
   5
B0
 100
AcDbEntity
   8
0
   6
CONTINUOUS
  62
2
 100
AcDbBlockReference
   2
_OPEN30
  10
 460.79463116097
  20
 206.29862313710
  30
0.0
  41
 6.0000000000000
  42
 6.0000000000000
  43
 6.0000000000000
  50
 90.000000000000
   0
INSERT
   5
B1
 100
AcDbEntity
   8
0
   6
CONTINUOUS
  62
2
 100
AcDbBlockReference
   2
_OPEN30
  10
 460.79463116097
  20
 216.29862313710
  30
0.0
  41
 6.0000000000000
  42
 6.0000000000000
  43
 6.0000000000000
  50
 270.00000000000
   0
MTEXT
   5
B2
 100
AcDbEntity
   8
0
  62
2
 100
AcDbMText
  10
 456.55174916097
  20
 201.87329757263
  30
0.0
  40
 7.6000000000000
  41
0.0
  71
9
  72
1
   1
\A1;%%c10
   7
GMM001
  11
0.0
  21
 1.0000000000000
  31
0.0
   0
ENDBLK
   5
B3
 100
AcDbEntity
   8
0
 100
AcDbBlockEnd
   0
BLOCK
   5
B4
 100
AcDbEntity
   8
0
 100
AcDbBlockBegin
   2
*D2
  70
65
  10
0.0
  20
0.0
  30
0.0
   3
*D2
   0
LINE
   5
B5
 100
AcDbEntity
   8
0
 100
AcDbLine
   6
CONTINUOUS
  62
2
  10
 590.65008325472
  20
 199.79862313710
  30
0.0
  11
 561.46893091208
  21
 199.79862313710
  31
0.0
   0
LINE
   5
B6
 100
AcDbEntity
   8
0
 100
AcDbLine
   6
CONTINUOUS
  62
2
  10
 640.64628215070
  20
 246.79862313710
  30
0.0
  11
 561.46893091208
  21
 246.79862313710
  31
0.0
   0
LINE
   5
B7
 100
AcDbEntity
   8
0
 100
AcDbLine
   6
CONTINUOUS
  62
2
  10
 565.46893091208
  20
 199.79862313710
  30
0.0
  11
 565.46893091208
  21
 223.29862313710
  31
0.0
   0
LINE
   5
B8
 100
AcDbEntity
   8
0
 100
AcDbLine
   6
CONTINUOUS
  62
2
  10
 565.46893091208
  20
 246.79862313710
  30
0.0
  11
 565.46893091208
  21
 223.29862313710
  31
0.0
   0
INSERT
   5
B9
 100
AcDbEntity
   8
0
   6
CONTINUOUS
  62
2
 100
AcDbBlockReference
   2
_OPEN30
  10
 565.46893091208
  20
 199.79862313710
  30
0.0
  41
 6.0000000000000
  42
 6.0000000000000
  43
 6.0000000000000
  50
 270.00000000000
   0
INSERT
   5
BA
 100
AcDbEntity
   8
0
   6
CONTINUOUS
  62
2
 100
AcDbBlockReference
   2
_OPEN30
  10
 565.46893091208
  20
 246.79862313710
  30
0.0
  41
 6.0000000000000
  42
 6.0000000000000
  43
 6.0000000000000
  50
 90.000000000000
   0
MTEXT
   5
BB
 100
AcDbEntity
   8
0
  62
2
 100
AcDbMText
  10
 562.21178805494
  20
 223.29862313710
  30
0.0
  40
 7.6000000000000
  41
0.0
  71
8
  72
1
   1
\A1;47
   7
GMM001
  11
0.0
  21
 1.0000000000000
  31
0.0
   0
ENDBLK
   5
BC
 100
AcDbEntity
   8
0
 100
AcDbBlockEnd
   0
BLOCK
   5
BD
 100
AcDbEntity
   8
0
 100
AcDbBlockBegin
   2
*D3
  70
65
  10
0.0
  20
0.0
  30
0.0
   3
*D3
   0
LINE
   5
BE
 100
AcDbEntity
   8
0
 100
AcDbLine
   6
CONTINUOUS
  62
2
  10
 586.64628215070
  20
 211.29862313703
  30
0.0
  11
 586.64628215070
  21
 271.00364655329
  31
0.0
   0
LINE
   5
BF
 100
AcDbEntity
   8
0
 100
AcDbLine
   6
CONTINUOUS
  62
2
  10
 640.64628215070
  20
 246.79862313710
  30
0.0
  11
 640.64628215070
  21
 271.00364655329
  31
0.0
   0
LINE
   5
C0
 100
AcDbEntity
   8
0
 100
AcDbLine
   6
CONTINUOUS
  62
2
  10
 586.64628215070
  20
 267.00364655329
  30
0.0
  11
 613.64628215070
  21
 267.00364655329
  31
0.0
   0
LINE
   5
C1
 100
AcDbEntity
   8
0
 100
AcDbLine
   6
CONTINUOUS
  62
2
  10
 640.64628215070
  20
 267.00364655329
  30
0.0
  11
 613.64628215070
  21
 267.00364655329
  31
0.0
   0
INSERT
   5
C2
 100
AcDbEntity
   8
0
   6
CONTINUOUS
  62
2
 100
AcDbBlockReference
   2
_OPEN30
  10
 586.64628215070
  20
 267.00364655329
  30
0.0
  41
 6.0000000000000
  42
 6.0000000000000
  43
 6.0000000000000
  50
 180.00000000000
   0
INSERT
   5
C3
 100
AcDbEntity
   8
0
   6
CONTINUOUS
  62
2
 100
AcDbBlockReference
   2
_OPEN30
  10
 640.64628215070
  20
 267.00364655329
  30
0.0
  41
 6.0000000000000
  42
 6.0000000000000
  43
 6.0000000000000
  50
0.0
   0
MTEXT
   5
C4
 100
AcDbEntity
   8
0
  62
2
 100
AcDbMText
  10
 613.64628215070
  20
 270.26078941044
  30
0.0
  40
 7.6000000000000
  41
0.0
  71
8
  72
1
   1
\A1;54
   7
GMM001
   0
ENDBLK
   5
C5
 100
AcDbEntity
   8
0
 100
AcDbBlockEnd
   0
BLOCK
   5
C6
 100
AcDbEntity
   8
0
 100
AcDbBlockBegin
   2
*D4
  70
65
  10
0.0
  20
0.0
  30
0.0
   3
*D4
   0
LINE
   5
C7
 100
AcDbEntity
   8
0
 100
AcDbLine
   6
CONTINUOUS
  62
2
  10
 640.64628215070
  20
 210.79862313703
  30
0.0
  11
 640.64628215070
  21
 183.17329119457
  31
0.0
   0
LINE
   5
C8
 100
AcDbEntity
   8
0
 100
AcDbLine
   6
CONTINUOUS
  62
2
  10
 671.64628215070
  20
 231.79862313710
  30
0.0
  11
 671.64628215070
  21
 183.17329119457
  31
0.0
   0
LINE
   5
C9
 100
AcDbEntity
   8
0
 100
AcDbLine
   6
CONTINUOUS
  62
2
  10
 640.64628215070
  20
 187.17329119457
  30
0.0
  11
 656.14628215070
  21
 187.17329119457
  31
0.0
   0
LINE
   5
CA
 100
AcDbEntity
   8
0
 100
AcDbLine
   6
CONTINUOUS
  62
2
  10
 671.64628215070
  20
 187.17329119457
  30
0.0
  11
 656.14628215070
  21
 187.17329119457
  31
0.0
   0
INSERT
   5
CB
 100
AcDbEntity
   8
0
   6
CONTINUOUS
  62
2
 100
AcDbBlockReference
   2
_OPEN30
  10
 640.64628215070
  20
 187.17329119457
  30
0.0
  41
 6.0000000000000
  42
 6.0000000000000
  43
 6.0000000000000
  50
 180.00000000000
   0
INSERT
   5
CC
 100
AcDbEntity
   8
0
   6
CONTINUOUS
  62
2
 100
AcDbBlockReference
   2
_OPEN30
  10
 671.64628215070
  20
 187.17329119457
  30
0.0
  41
 6.0000000000000
  42
 6.0000000000000
  43
 6.0000000000000
  50
0.0
   0
MTEXT
   5
CD
 100
AcDbEntity
   8
0
  62
2
 100
AcDbMText
  10
 656.14628215070
  20
 190.43043405171
  30
0.0
  40
 7.6000000000000
  41
0.0
  71
8
  72
1
   1
\A1;(31)
   7
GMM001
   0
ENDBLK
   5
CE
 100
AcDbEntity
   8
0
 100
AcDbBlockEnd
   0
BLOCK
   5
CF
 100
AcDbEntity
   8
0
 100
AcDbBlockBegin
   2
*D5
  70
65
  10
0.0
  20
0.0
  30
0.0
   3
*D5
   0
LINE
   5
D0
 100
AcDbEntity
   8
0
 100
AcDbLine
   6
CONTINUOUS
  62
2
  10
 640.64628215070
  20
 210.79862313703
  30
0.0
  11
 720.85630329110
  21
 210.79862313703
  31
0.0
   0
LINE
   5
D1
 100
AcDbEntity
   8
0
 100
AcDbLine
   6
CONTINUOUS
  62
2
  10
 640.64628215070
  20
 246.79862313710
  30
0.0
  11
 720.85630329110
  21
 246.79862313710
  31
0.0
   0
LINE
   5
D2
 100
AcDbEntity
   8
0
 100
AcDbLine
   6
CONTINUOUS
  62
2
  10
 716.85630329110
  20
 210.79862313703
  30
0.0
  11
 716.85630329110
  21
 228.79862313706
  31
0.0
   0
LINE
   5
D3
 100
AcDbEntity
   8
0
 100
AcDbLine
   6
CONTINUOUS
  62
2
  10
 716.85630329110
  20
 246.79862313710
  30
0.0
  11
 716.85630329110
  21
 228.79862313706
  31
0.0
   0
INSERT
   5
D4
 100
AcDbEntity
   8
0
   6
CONTINUOUS
  62
2
 100
AcDbBlockReference
   2
_OPEN30
  10
 716.85630329110
  20
 210.79862313703
  30
0.0
  41
 6.0000000000000
  42
 6.0000000000000
  43
 6.0000000000000
  50
 270.00000000000
   0
INSERT
   5
D5
 100
AcDbEntity
   8
0
   6
CONTINUOUS
  62
2
 100
AcDbBlockReference
   2
_OPEN30
  10
 716.85630329110
  20
 246.79862313710
  30
0.0
  41
 6.0000000000000
  42
 6.0000000000000
  43
 6.0000000000000
  50
 90.000000000000
   0
MTEXT
   5
D6
 100
AcDbEntity
   8
0
  62
2
 100
AcDbMText
  10
 713.59916043396
  20
 228.79862313706
  30
0.0
  40
 7.6000000000000
  41
0.0
  71
8
  72
1
   1
\A1;36
   7
GMM001
  11
0.0
  21
 1.0000000000000
  31
0.0
   0
ENDBLK
   5
D7
 100
AcDbEntity
   8
0
 100
AcDbBlockEnd
   0
BLOCK
   5
D8
 100
AcDbEntity
   8
0
 100
AcDbBlockBegin
   2
*D6
  70
65
  10
0.0
  20
0.0
  30
0.0
   3
*D6
   0
LINE
   5
D9
 100
AcDbEntity
   8
0
 100
AcDbLine
   6
CONTINUOUS
  62
2
  10
 640.64628215070
  20
 216.79862313688
  30
0.0
  11
 705.27720740323
  21
 216.79862313688
  31
0.0
   0
LINE
   5
DA
 100
AcDbEntity
   8
0
 100
AcDbLine
   6
CONTINUOUS
  62
2
  10
 640.64628215070
  20
 246.79862313710
  30
0.0
  11
 705.27720740323
  21
 246.79862313710
  31
0.0
   0
LINE
   5
DB
 100
AcDbEntity
   8
0
 100
AcDbLine
   6
CONTINUOUS
  62
2
  10
 701.27720740323
  20
 216.79862313688
  30
0.0
  11
 701.27720740323
  21
 231.79862313699
  31
0.0
   0
LINE
   5
DC
 100
AcDbEntity
   8
0
 100
AcDbLine
   6
CONTINUOUS
  62
2
  10
 701.27720740323
  20
 246.79862313710
  30
0.0
  11
 701.27720740323
  21
 231.79862313699
  31
0.0
   0
INSERT
   5
DD
 100
AcDbEntity
   8
0
   6
CONTINUOUS
  62
2
 100
AcDbBlockReference
   2
_OPEN30
  10
 701.27720740323
  20
 216.79862313688
  30
0.0
  41
 6.0000000000000
  42
 6.0000000000000
  43
 6.0000000000000
  50
 270.00000000000
   0
INSERT
   5
DE
 100
AcDbEntity
   8
0
   6
CONTINUOUS
  62
2
 100
AcDbBlockReference
   2
_OPEN30
  10
 701.27720740323
  20
 246.79862313710
  30
0.0
  41
 6.0000000000000
  42
 6.0000000000000
  43
 6.0000000000000
  50
 90.000000000000
   0
MTEXT
   5
DF
 100
AcDbEntity
   8
0
  62
2
 100
AcDbMText
  10
 698.02006454609
  20
 231.79862313699
  30
0.0
  40
 7.6000000000000
  41
0.0
  71
8
  72
1
   1
\A1;30
   7
GMM001
  11
0.0
  21
 1.0000000000000
  31
0.0
   0
ENDBLK
   5
E0
 100
AcDbEntity
   8
0
 100
AcDbBlockEnd
   0
BLOCK
   5
E1
 100
AcDbEntity
   8
0
 100
AcDbBlockBegin
   2
*D7
  70
65
  10
0.0
  20
0.0
  30
0.0
   3
*D7
   0
LINE
   5
E2
 100
AcDbEntity
   8
0
 100
AcDbLine
   6
CONTINUOUS
  62
2
  10
 675.21921957917
  20
 231.79862313710
  30
0.0
  11
 689.16700597373
  21
 231.79862313710
  31
0.0
   0
LINE
   5
E3
 100
AcDbEntity
   8
0
 100
AcDbLine
   6
CONTINUOUS
  62
2
  10
 640.64628215070
  20
 246.79862313710
  30
0.0
  11
 689.16700597373
  21
 246.79862313710
  31
0.0
   0
LINE
   5
E4
 100
AcDbEntity
   8
0
 100
AcDbLine
   6
CONTINUOUS
  62
2
  10
 685.16700597373
  20
 231.79862313710
  30
0.0
  11
 685.16700597373
  21
 239.29862313710
  31
0.0
   0
LINE
   5
E5
 100
AcDbEntity
   8
0
 100
AcDbLine
   6
CONTINUOUS
  62
2
  10
 685.16700597373
  20
 246.79862313710
  30
0.0
  11
 685.16700597373
  21
 239.29862313710
  31
0.0
   0
INSERT
   5
E6
 100
AcDbEntity
   8
0
   6
CONTINUOUS
  62
2
 100
AcDbBlockReference
   2
_OPEN30
  10
 685.16700597373
  20
 231.79862313710
  30
0.0
  41
 6.0000000000000
  42
 6.0000000000000
  43
 6.0000000000000
  50
 270.00000000000
   0
INSERT
   5
E7
 100
AcDbEntity
   8
0
   6
CONTINUOUS
  62
2
 100
AcDbBlockReference
   2
_OPEN30
  10
 685.16700597373
  20
 246.79862313710
  30
0.0
  41
 6.0000000000000
  42
 6.0000000000000
  43
 6.0000000000000
  50
 90.000000000000
   0
MTEXT
   5
E8
 100
AcDbEntity
   8
0
  62
2
 100
AcDbMText
  10
 681.90986311659
  20
 239.29862313710
  30
0.0
  40
 7.6000000000000
  41
0.0
  71
8
  72
1
   1
\A1;15
   7
GMM001
  11
0.0
  21
 1.0000000000000
  31
0.0
   0
ENDBLK
   5
E9
 100
AcDbEntity
   8
0
 100
AcDbBlockEnd
   0
BLOCK
   5
EA
 100
AcDbEntity
   8
0
 100
AcDbBlockBegin
   2
*D8
  70
65
  10
0.0
  20
0.0
  30
0.0
   3
*D8
   0
LINE
   5
EB
 100
AcDbEntity
   8
0
 100
AcDbLine
   6
CONTINUOUS
  62
2
  10
 507.03926180817
  20
 355.12447828538
  30
0.0
  11
 507.03926180817
  21
 323.27349053148
  31
0.0
   0
LINE
   5
EC
 100
AcDbEntity
   8
0
 100
AcDbLine
   6
CONTINUOUS
  62
2
  10
 543.03926180817
  20
 355.32181582603
  30
0.0
  11
 543.03926180817
  21
 323.27349053148
  31
0.0
   0
LINE
   5
ED
 100
AcDbEntity
   8
0
 100
AcDbLine
   6
CONTINUOUS
  62
2
  10
 507.03926180817
  20
 327.27349053148
  30
0.0
  11
 525.03926180817
  21
 327.27349053148
  31
0.0
   0
LINE
   5
EE
 100
AcDbEntity
   8
0
 100
AcDbLine
   6
CONTINUOUS
  62
2
  10
 543.03926180817
  20
 327.27349053148
  30
0.0
  11
 525.03926180817
  21
 327.27349053148
  31
0.0
   0
INSERT
   5
EF
 100
AcDbEntity
   8
0
   6
CONTINUOUS
  62
2
 100
AcDbBlockReference
   2
_OPEN30
  10
 507.03926180817
  20
 327.27349053148
  30
0.0
  41
 6.0000000000000
  42
 6.0000000000000
  43
 6.0000000000000
  50
 180.00000000000
   0
INSERT
   5
F0
 100
AcDbEntity
   8
0
   6
CONTINUOUS
  62
2
 100
AcDbBlockReference
   2
_OPEN30
  10
 543.03926180817
  20
 327.27349053148
  30
0.0
  41
 6.0000000000000
  42
 6.0000000000000
  43
 6.0000000000000
  50
0.0
   0
MTEXT
   5
F1
 100
AcDbEntity
   8
0
  62
2
 100
AcDbMText
  10
 525.03926180817
  20
 330.53063338862
  30
0.0
  40
 7.6000000000000
  41
0.0
  71
8
  72
1
   1
\A1;36
   7
GMM001
   0
ENDBLK
   5
F2
 100
AcDbEntity
   8
0
 100
AcDbBlockEnd
   0
BLOCK
   5
F3
 100
AcDbEntity
   8
0
 100
AcDbBlockBegin
   2
*D9
  70
65
  10
0.0
  20
0.0
  30
0.0
   3
*D9
   0
LINE
   5
F4
 100
AcDbEntity
   8
0
 100
AcDbLine
   6
CONTINUOUS
  62
2
  10
 125.03926180817
  20
 443.00906035316
  30
0.0
  11
 125.03926180817
  21
 476.77452671831
  31
0.0
   0
LINE
   5
F5
 100
AcDbEntity
   8
0
 100
AcDbLine
   6
CONTINUOUS
  62
2
  10
 525.03926180817
  20
 443.00906035315
  30
0.0
  11
 525.03926180817
  21
 476.77452671831
  31
0.0
   0
LINE
   5
F6
 100
AcDbEntity
   8
0
 100
AcDbLine
   6
CONTINUOUS
  62
2
  10
 125.03926180817
  20
 472.77452671831
  30
0.0
  11
 325.03926180817
  21
 472.77452671831
  31
0.0
   0
LINE
   5
F7
 100
AcDbEntity
   8
0
 100
AcDbLine
   6
CONTINUOUS
  62
2
  10
 525.03926180817
  20
 472.77452671831
  30
0.0
  11
 325.03926180817
  21
 472.77452671831
  31
0.0
   0
INSERT
   5
F8
 100
AcDbEntity
   8
0
   6
CONTINUOUS
  62
2
 100
AcDbBlockReference
   2
_OPEN30
  10
 125.03926180817
  20
 472.77452671831
  30
0.0
  41
 6.0000000000000
  42
 6.0000000000000
  43
 6.0000000000000
  50
 180.00000000000
   0
INSERT
   5
F9
 100
AcDbEntity
   8
0
   6
CONTINUOUS
  62
2
 100
AcDbBlockReference
   2
_OPEN30
  10
 525.03926180817
  20
 472.77452671831
  30
0.0
  41
 6.0000000000000
  42
 6.0000000000000
  43
 6.0000000000000
  50
0.0
   0
MTEXT
   5
FA
 100
AcDbEntity
   8
0
  62
2
 100
AcDbMText
  10
 325.03926180817
  20
 476.03166957545
  30
0.0
  40
 7.6000000000000
  41
0.0
  71
8
  72
1
   1
\A1;400
   7
GMM001
   0
ENDBLK
   5
FB
 100
AcDbEntity
   8
0
 100
AcDbBlockEnd
   0
BLOCK
   5
FC
 100
AcDbEntity
   8
0
 100
AcDbBlockBegin
   2
*D10
  70
65
  10
0.0
  20
0.0
  30
0.0
   3
*D10
   0
LINE
   5
FD
 100
AcDbEntity
   8
0
 100
AcDbLine
   6
CONTINUOUS
  62
2
  10
 515.03926180817
  20
 439.11162861453
  30
0.0
  11
 515.03926180817
  21
 455.83526320803
  31
0.0
   0
LINE
   5
FE
 100
AcDbEntity
   8
0
 100
AcDbLine
   6
CONTINUOUS
  62
2
  10
 535.03926180817
  20
 439.11162861453
  30
0.0
  11
 535.03926180817
  21
 455.83526320803
  31
0.0
   0
LINE
   5
FF
 100
AcDbEntity
   8
0
 100
AcDbLine
   6
CONTINUOUS
  62
2
  10
 515.03926180817
  20
 451.83526320803
  30
0.0
  11
 525.03926180817
  21
 451.83526320803
  31
0.0
   0
LINE
   5
100
 100
AcDbEntity
   8
0
 100
AcDbLine
   6
CONTINUOUS
  62
2
  10
 535.03926180817
  20
 451.83526320803
  30
0.0
  11
 525.03926180817
  21
 451.83526320803
  31
0.0
   0
INSERT
   5
101
 100
AcDbEntity
   8
0
   6
CONTINUOUS
  62
2
 100
AcDbBlockReference
   2
_OPEN30
  10
 515.03926180817
  20
 451.83526320803
  30
0.0
  41
 6.0000000000000
  42
 6.0000000000000
  43
 6.0000000000000
  50
 180.00000000000
   0
INSERT
   5
102
 100
AcDbEntity
   8
0
   6
CONTINUOUS
  62
2
 100
AcDbBlockReference
   2
_OPEN30
  10
 535.03926180817
  20
 451.83526320803
  30
0.0
  41
 6.0000000000000
  42
 6.0000000000000
  43
 6.0000000000000
  50
0.0
   0
MTEXT
   5
103
 100
AcDbEntity
   8
0
  62
2
 100
AcDbMText
  10
 525.03926180817
  20
 455.09240606517
  30
0.0
  40
 7.6000000000000
  41
0.0
  71
8
  72
1
   1
\A1;20
   7
GMM001
   0
ENDBLK
   5
104
 100
AcDbEntity
   8
0
 100
AcDbBlockEnd
   0
ENDSEC
   0
SECTION
   2
ENTITIES
   0
LINE
   5
105
 100
AcDbEntity
   8
0
 100
AcDbLine
   6
CONTINUOUS
  62
7
  10
 622.96473437121
  20
 479.96651338808
  30
0.0
  11
 741.69147882515
  21
 411.42702271892
  31
0.0
   0
LINE
   5
106
 100
AcDbEntity
   8
0
 100
AcDbLine
   6
CONTINUOUS
  62
7
  10
 744.17986006707
  20
 415.37896735668
  30
0.0
  11
 625.29787808075
  21
 484.00807474590
  31
0.0
   0
LINE
   5
107
 100
AcDbEntity
   8
0
 100
AcDbLine
   6
CONTINUOUS
  62
7
  10
 623.08934168887
  20
 477.20390948038
  30
0.0
  11
 624.71331043275
  21
 478.95708191412
  31
0.0
   0
SPLINE
   5
108
 100
AcDbEntity
   8
0
   6
CONTINUOUS
  62
7
 100
AcDbSpline
  70
8
  71
3
  72
11
  73
7
  74
5
  42
 0.10000000000000E-6
  43
 0.10000000000000E-6
  44
 0.10000000000000E-4
  40
0.0
  40
0.0
  40
0.0
  40
0.0
  40
 0.30640182790955E-1
  40
 0.39602760196433
  40
 0.76140278091919
  40
 1.0000000000000
  40
 1.0000000000000
  40
 1.0000000000000
  40
 1.0000000000000
  10
 628.02077626631
  20
 482.43617908205
  30
0.0
  10
 628.11663023937
  20
 482.53699642143
  30
0.0
  10
 629.35555297519
  20
 483.84007119175
  30
0.0
  10
 631.77399839247
  20
 486.26020767946
  30
0.0
  10
 634.86809813308
  20
 489.29779804518
  30
0.0
  10
 636.81659466427
  20
 491.12980449364
  30
0.0
  10
 637.58634151899
  20
 491.85353234174
  30
0.0
  11
 628.02077626631
  21
 482.43617908205
  31
0.0
  11
 628.30845180240
  21
 482.73836597246
  31
0.0
  11
 631.77688694378
  21
 486.25204007888
  31
0.0
  11
 635.28032783603
  21
 489.67289079371
  31
0.0
  11
 637.58634151899
  21
 491.85353234174
  31
0.0
   0
ARC
   5
109
 100
AcDbEntity
   8
0
   6
CONTINUOUS
  62
7
 100
AcDbCircle
  10
 622.40167331979
  20
 477.83495886466
  30
0.0
  40
 0.93333333333339
 100
AcDbArc
  50
 240.00268826645
  51
 317.45847734030
   0
LINE
   5
10A
 100
AcDbEntity
   8
0
 100
AcDbLine
   6
CONTINUOUS
  62
7
  10
 611.37558331227
  20
 483.12249382814
  30
0.0
  11
 621.93504457791
  21
 477.02664659318
  31
0.0
   0
LINE
   5
10B
 100
AcDbEntity
   8
0
 100
AcDbLine
   6
CONTINUOUS
  62
7
  10
 609.02674362915
  20
 484.92061147198
  30
0.0
  11
 611.27282112393
  21
 483.19127578936
  31
0.0
   0
ARC
   5
10C
 100
AcDbEntity
   8
0
   6
CONTINUOUS
  62
7
 100
AcDbCircle
  10
 611.84221205433
  20
 483.93080609952
  30
0.0
  40
 0.93333333333328
 100
AcDbArc
  50
 232.40603479318
  51
 240.00268825367
   0
ARC
   5
10D
 100
AcDbEntity
   8
0
   6
CONTINUOUS
  62
7
 100
AcDbCircle
  10
 625.09940621443
  20
 483.24305690000
  30
0.0
  40
 1.1822573833463
 100
AcDbArc
  50
 10.118579178847
  51
 58.035954298617
   0
ARC
   5
10E
 100
AcDbEntity
   8
0
   6
CONTINUOUS
  62
7
 100
AcDbCircle
  10
 623.52709095707
  20
 480.50859033441
  30
0.0
  40
 1.1709386142186
 100
AcDbArc
  50
 241.72307711842
  51
 290.13314246843
   0
LINE
   5
10F
 100
AcDbEntity
   8
0
 100
AcDbLine
   6
CONTINUOUS
  62
7
  10
 625.76691038715
  20
 483.73730815876
  30
0.0
  11
 625.69887139767
  21
 483.80765898798
  31
0.0
   0
LINE
   5
110
 100
AcDbEntity
   8
0
 100
AcDbLine
   6
CONTINUOUS
  62
7
  10
 624.52497007607
  20
 483.87844276314
  30
0.0
  11
 624.06705843755
  21
 483.59193631550
  31
0.0
   0
LINE
   5
111
 100
AcDbEntity
   8
0
 100
AcDbLine
   6
CONTINUOUS
  62
7
  10
 624.06705843755
  20
 483.59193631550
  30
0.0
  11
 623.63130475387
  21
 483.17638013334
  31
0.0
   0
LINE
   5
112
 100
AcDbEntity
   8
0
 100
AcDbLine
   6
CONTINUOUS
  62
7
  10
 623.63130475387
  20
 483.17638013334
  30
0.0
  11
 623.25002688221
  21
 482.66259411780
  31
0.0
   0
LINE
   5
113
 100
AcDbEntity
   8
0
 100
AcDbLine
   6
CONTINUOUS
  62
7
  10
 623.25002688221
  20
 482.66259411780
  30
0.0
  11
 622.95150245811
  21
 482.08868342730
  31
0.0
   0
LINE
   5
114
 100
AcDbEntity
   8
0
 100
AcDbLine
   6
CONTINUOUS
  62
7
  10
 622.95150245811
  20
 482.08868342730
  30
0.0
  11
 622.75787167251
  21
 481.49721239218
  31
0.0
   0
LINE
   5
115
 100
AcDbEntity
   8
0
 100
AcDbLine
   6
CONTINUOUS
  62
7
  10
 622.75787167251
  20
 481.49721239218
  30
0.0
  11
 622.68349523499
  21
 480.93204771336
  31
0.0
   0
LINE
   5
116
 100
AcDbEntity
   8
0
 100
AcDbLine
   6
CONTINUOUS
  62
7
  10
 622.68349523499
  20
 480.93204771336
  30
0.0
  11
 622.73388930557
  21
 480.43510506968
  31
0.0
   0
LINE
   5
117
 100
AcDbEntity
   8
0
 100
AcDbLine
   6
CONTINUOUS
  62
7
  10
 622.73388930557
  20
 480.43510506968
  30
0.0
  11
 622.90531638657
  21
 480.04324042350
  31
0.0
   0
LINE
   5
118
 100
AcDbEntity
   8
0
 100
AcDbLine
   6
CONTINUOUS
  62
7
  10
 622.90531638657
  20
 480.04324042350
  30
0.0
  11
 623.18506251575
  21
 479.78551658314
  31
0.0
   0
LINE
   5
119
 100
AcDbEntity
   8
0
 100
AcDbLine
   6
CONTINUOUS
  62
7
  10
 623.18506251575
  20
 479.78551658314
  30
0.0
  11
 623.43376667761
  21
 479.69574680094
  31
0.0
   0
LINE
   5
11A
 100
AcDbEntity
   8
0
 100
AcDbLine
   6
CONTINUOUS
  62
7
  10
 622.56741413237
  20
 480.62321656514
  30
0.0
  11
 622.62909794841
  21
 481.22267091924
  31
0.0
   0
LINE
   5
11B
 100
AcDbEntity
   8
0
 100
AcDbLine
   6
CONTINUOUS
  62
7
  10
 622.62909794841
  20
 481.22267091924
  30
0.0
  11
 622.81027357563
  21
 481.85567796958
  31
0.0
   0
LINE
   5
11C
 100
AcDbEntity
   8
0
 100
AcDbLine
   6
CONTINUOUS
  62
7
  10
 622.81027357563
  20
 481.85567796958
  30
0.0
  11
 623.09955708301
  21
 482.48246355544
  31
0.0
   0
LINE
   5
11D
 100
AcDbEntity
   8
0
 100
AcDbLine
   6
CONTINUOUS
  62
7
  10
 623.09955708301
  20
 482.48246355544
  30
0.0
  11
 623.47877172371
  21
 483.06364443320
  31
0.0
   0
LINE
   5
11E
 100
AcDbEntity
   8
0
 100
AcDbLine
   6
CONTINUOUS
  62
7
  10
 623.47877172371
  20
 483.06364443320
  30
0.0
  11
 623.92409004751
  21
 483.56270287070
  31
0.0
   0
LINE
   5
11F
 100
AcDbEntity
   8
0
 100
AcDbLine
   6
CONTINUOUS
  62
7
  10
 623.92409004751
  20
 483.56270287070
  30
0.0
  11
 624.40753106613
  21
 483.94828119124
  31
0.0
   0
LINE
   5
120
 100
AcDbEntity
   8
0
 100
AcDbLine
   6
CONTINUOUS
  62
7
  10
 626.11923778999
  20
 484.00630368164
  30
0.0
  11
 626.35633695495
  21
 483.64514983502
  31
0.0
   0
LINE
   5
121
 100
AcDbEntity
   8
0
 100
AcDbLine
   6
CONTINUOUS
  62
7
  10
 626.35633695495
  20
 483.64514983502
  30
0.0
  11
 626.45001479683
  21
 483.34296037696
  31
0.0
   0
LINE
   5
122
 100
AcDbEntity
   8
0
 100
AcDbLine
   6
CONTINUOUS
  62
7
  10
 624.11687108729
  20
 479.30139901928
  30
0.0
  11
 623.92409004751
  21
 479.25011492978
  31
0.0
   0
LINE
   5
123
 100
AcDbEntity
   8
0
 100
AcDbLine
   6
CONTINUOUS
  62
7
  10
 623.92409004751
  20
 479.25011492978
  30
0.0
  11
 623.47877172371
  21
 479.23501977474
  31
0.0
   0
LINE
   5
124
 100
AcDbEntity
   8
0
 100
AcDbLine
   6
CONTINUOUS
  62
7
  10
 623.47877172371
  20
 479.23501977474
  30
0.0
  11
 623.09955708301
  21
 479.37836874778
  31
0.0
   0
LINE
   5
125
 100
AcDbEntity
   8
0
 100
AcDbLine
   6
CONTINUOUS
  62
7
  10
 623.09955708301
  20
 479.37836874778
  30
0.0
  11
 622.81027357563
  21
 479.67115470544
  31
0.0
   0
LINE
   5
126
 100
AcDbEntity
   8
0
 100
AcDbLine
   6
CONTINUOUS
  62
7
  10
 622.81027357563
  20
 479.67115470544
  30
0.0
  11
 622.62909794841
  21
 480.09498082914
  31
0.0
   0
LINE
   5
127
 100
AcDbEntity
   8
0
 100
AcDbLine
   6
CONTINUOUS
  62
7
  10
 622.62909794841
  20
 480.09498082914
  30
0.0
  11
 622.56741413237
  21
 480.62321656514
  31
0.0
   0
LINE
   5
128
 100
AcDbEntity
   8
0
 100
AcDbLine
   6
CONTINUOUS
  62
7
  10
 643.99569976539
  20
 503.17944286768
  30
0.0
  11
 644.11298136311
  21
 503.24714809282
  31
0.0
   0
LINE
   5
129
 100
AcDbEntity
   8
0
 100
AcDbLine
   6
CONTINUOUS
  62
7
  10
 643.33573343627
  20
 502.79845241546
  30
0.0
  11
 643.45301503399
  21
 502.86615764074
  31
0.0
   0
LINE
   5
12A
 100
AcDbEntity
   8
0
 100
AcDbLine
   6
CONTINUOUS
  62
7
  10
 642.67576710715
  20
 502.41746196324
  30
0.0
  11
 642.79304870487
  21
 502.48516718852
  31
0.0
   0
LINE
   5
12B
 100
AcDbEntity
   8
0
 100
AcDbLine
   6
CONTINUOUS
  62
7
  10
 642.01580077803
  20
 502.03647151116
  30
0.0
  11
 642.13308237575
  21
 502.10417673630
  31
0.0
   0
LINE
   5
12C
 100
AcDbEntity
   8
0
 100
AcDbLine
   6
CONTINUOUS
  62
7
  10
 641.35583444891
  20
 501.65548105894
  30
0.0
  11
 641.47311604663
  21
 501.72318628408
  31
0.0
   0
LINE
   5
12D
 100
AcDbEntity
   8
0
 100
AcDbLine
   6
CONTINUOUS
  62
7
  10
 640.69586811979
  20
 501.27449060672
  30
0.0
  11
 640.81314971751
  21
 501.34219583200
  31
0.0
   0
LINE
   5
12E
 100
AcDbEntity
   8
0
 100
AcDbLine
   6
CONTINUOUS
  62
7
  10
 640.03590179067
  20
 500.89350015450
  30
0.0
  11
 640.15318338839
  21
 500.96120537978
  31
0.0
   0
LINE
   5
12F
 100
AcDbEntity
   8
0
 100
AcDbLine
   6
CONTINUOUS
  62
7
  10
 639.37593546155
  20
 500.51250970242
  30
0.0
  11
 639.49321705927
  21
 500.58021492756
  31
0.0
   0
LINE
   5
130
 100
AcDbEntity
   8
0
 100
AcDbLine
   6
CONTINUOUS
  62
7
  10
 638.71596913243
  20
 500.13151925020
  30
0.0
  11
 638.83325073015
  21
 500.19922447534
  31
0.0
   0
LINE
   5
131
 100
AcDbEntity
   8
0
 100
AcDbLine
   6
CONTINUOUS
  62
7
  10
 638.05600280331
  20
 499.75052879798
  30
0.0
  11
 638.17328440103
  21
 499.81823402326
  31
0.0
   0
LINE
   5
132
 100
AcDbEntity
   8
0
 100
AcDbLine
   6
CONTINUOUS
  62
7
  10
 637.91998163831
  20
 501.01911958872
  30
0.0
  11
 637.73014054365
  21
 500.90952665758
  31
0.0
   0
LINE
   5
133
 100
AcDbEntity
   8
0
 100
AcDbLine
   6
CONTINUOUS
  62
7
  10
 638.57994796743
  20
 501.40011004094
  30
0.0
  11
 638.26629150361
  21
 501.21904001852
  31
0.0
   0
LINE
   5
134
 100
AcDbEntity
   8
0
 100
AcDbLine
   6
CONTINUOUS
  62
7
  10
 639.23991429655
  20
 501.78110049316
  30
0.0
  11
 638.92625783273
  21
 501.60003047074
  31
0.0
   0
LINE
   5
135
 100
AcDbEntity
   8
0
 100
AcDbLine
   6
CONTINUOUS
  62
7
  10
 639.89988062553
  20
 502.16209094524
  30
0.0
  11
 639.58622416185
  21
 501.98102092296
  31
0.0
   0
LINE
   5
136
 100
AcDbEntity
   8
0
 100
AcDbLine
   6
CONTINUOUS
  62
7
  10
 640.55984695465
  20
 502.54308139746
  30
0.0
  11
 640.24619049097
  21
 502.36201137518
  31
0.0
   0
LINE
   5
137
 100
AcDbEntity
   8
0
 100
AcDbLine
   6
CONTINUOUS
  62
7
  10
 641.21981328377
  20
 502.92407184968
  30
0.0
  11
 640.90615682009
  21
 502.74300182726
  31
0.0
   0
LINE
   5
138
 100
AcDbEntity
   8
0
 100
AcDbLine
   6
CONTINUOUS
  62
7
  10
 641.87977961289
  20
 503.30506230190
  30
0.0
  11
 641.56612314921
  21
 503.12399227948
  31
0.0
   0
LINE
   5
139
 100
AcDbEntity
   8
0
 100
AcDbLine
   6
CONTINUOUS
  62
7
  10
 642.53974594201
  20
 503.68605275398
  30
0.0
  11
 642.22608947819
  21
 503.50498273170
  31
0.0
   0
LINE
   5
13A
 100
AcDbEntity
   8
0
 100
AcDbLine
   6
CONTINUOUS
  62
7
  10
 643.19971227113
  20
 504.06704320620
  30
0.0
  11
 642.88605580731
  21
 503.88597318392
  31
0.0
   0
LINE
   5
13B
 100
AcDbEntity
   8
0
 100
AcDbLine
   6
CONTINUOUS
  62
7
  10
 643.85967860025
  20
 504.44803365842
  30
0.0
  11
 643.54602213643
  21
 504.26696363600
  31
0.0
   0
SPLINE
   5
13C
 100
AcDbEntity
   8
0
   6
CONTINUOUS
  62
7
 100
AcDbSpline
  70
8
  71
3
  72
10
  73
6
  74
4
  42
 0.10000000000000E-6
  43
 0.10000000000000E-6
  44
 0.10000000000000E-4
  40
0.0
  40
0.0
  40
0.0
  40
0.0
  40
 0.26641490769701
  40
 0.53282981539402
  40
 1.0000000000000
  40
 1.0000000000000
  40
 1.0000000000000
  40
 1.0000000000000
  10
 644.68823299352
  20
 503.60877744061
  30
0.0
  10
 644.87433187047
  20
 503.82354560532
  30
0.0
  10
 645.24652962438
  20
 504.25308193474
  30
0.0
  10
 645.48987428474
  20
 504.79645056947
  30
0.0
  10
 644.74893221023
  20
 504.66426699718
  30
0.0
  10
 644.27707686670
  20
 504.58008831836
  30
0.0
  11
 644.68823299352
  21
 503.60877744061
  31
0.0
  11
 645.18589550851
  21
 504.21807860472
  31
0.0
  11
 645.31975332834
  21
 504.61735978870
  31
0.0
  11
 644.27707686670
  21
 504.58008831836
  31
0.0
   0
LINE
   5
13D
 100
AcDbEntity
   8
0
 100
AcDbLine
   6
CONTINUOUS
  62
7
  10
 637.57275975309
  20
 507.09136756674
  30
0.0
  11
 637.70163697765
  21
 507.16576680494
  31
0.0
   0
LINE
   5
13E
 100
AcDbEntity
   8
0
 100
AcDbLine
   6
CONTINUOUS
  62
7
  10
 636.91279342397
  20
 506.71037711466
  30
0.0
  11
 637.04167064853
  21
 506.78477635272
  31
0.0
   0
LINE
   5
13F
 100
AcDbEntity
   8
0
 100
AcDbLine
   6
CONTINUOUS
  62
7
  10
 636.25282709485
  20
 506.32938666244
  30
0.0
  11
 636.38170431941
  21
 506.40378590050
  31
0.0
   0
LINE
   5
140
 100
AcDbEntity
   8
0
 100
AcDbLine
   6
CONTINUOUS
  62
7
  10
 635.59286076573
  20
 505.94839621022
  30
0.0
  11
 635.72173799029
  21
 506.02279544828
  31
0.0
   0
LINE
   5
141
 100
AcDbEntity
   8
0
 100
AcDbLine
   6
CONTINUOUS
  62
7
  10
 634.93289443661
  20
 505.56740575800
  30
0.0
  11
 635.06177166117
  21
 505.64180499620
  31
0.0
   0
LINE
   5
142
 100
AcDbEntity
   8
0
 100
AcDbLine
   6
CONTINUOUS
  62
7
  10
 634.27292810749
  20
 505.18641530592
  30
0.0
  11
 634.40180533205
  21
 505.26081454398
  31
0.0
   0
LINE
   5
143
 100
AcDbEntity
   8
0
 100
AcDbLine
   6
CONTINUOUS
  62
7
  10
 633.48853624021
  20
 506.08070965736
  30
0.0
  11
 633.18294032987
  21
 505.90429289348
  31
0.0
   0
LINE
   5
144
 100
AcDbEntity
   8
0
 100
AcDbLine
   6
CONTINUOUS
  62
7
  10
 634.14850256933
  20
 506.46170010958
  30
0.0
  11
 633.84290665899
  21
 506.28528334570
  31
0.0
   0
LINE
   5
145
 100
AcDbEntity
   8
0
 100
AcDbLine
   6
CONTINUOUS
  62
7
  10
 634.80846889845
  20
 506.84269056166
  30
0.0
  11
 634.50287298811
  21
 506.66627379778
  31
0.0
   0
LINE
   5
146
 100
AcDbEntity
   8
0
 100
AcDbLine
   6
CONTINUOUS
  62
7
  10
 635.46843522743
  20
 507.22368101388
  30
0.0
  11
 635.16283931723
  21
 507.04726425000
  31
0.0
   0
LINE
   5
147
 100
AcDbEntity
   8
0
 100
AcDbLine
   6
CONTINUOUS
  62
7
  10
 636.12840155655
  20
 507.60467146610
  30
0.0
  11
 635.82280564635
  21
 507.42825470222
  31
0.0
   0
LINE
   5
148
 100
AcDbEntity
   8
0
 100
AcDbLine
   6
CONTINUOUS
  62
7
  10
 636.78836788567
  20
 507.98566191832
  30
0.0
  11
 636.48277197547
  21
 507.80924515430
  31
0.0
   0
LINE
   5
149
 100
AcDbEntity
   8
0
 100
AcDbLine
   6
CONTINUOUS
  62
7
  10
 637.43263478461
  20
 508.35758928224
  30
0.0
  11
 637.14273830445
  21
 508.19023560652
  31
0.0
   0
SPLINE
   5
14A
 100
AcDbEntity
   8
0
   6
CONTINUOUS
  62
7
 100
AcDbSpline
  70
8
  71
3
  72
10
  73
6
  74
4
  42
 0.10000000000000E-6
  43
 0.10000000000000E-6
  44
 0.10000000000000E-4
  40
0.0
  40
0.0
  40
0.0
  40
0.0
  40
 0.26971780209420
  40
 0.53943560418841
  40
 1.0000000000000
  40
 1.0000000000000
  40
 1.0000000000000
  40
 1.0000000000000
  10
 638.23647247696
  20
 507.65489308565
  30
0.0
  10
 638.37975433708
  20
 507.81980540119
  30
0.0
  10
 638.66631805733
  20
 508.14963003228
  30
0.0
  10
 638.84896621637
  20
 508.55982412251
  30
0.0
  10
 638.29310363595
  20
 508.46148757928
  30
0.0
  10
 637.94253982070
  20
 508.39947003216
  30
0.0
  11
 638.23647247696
  21
 507.65489308565
  31
0.0
  11
 638.61930885727
  21
 508.12249219873
  31
0.0
  11
 638.72009003726
  21
 508.42726431054
  31
0.0
  11
 637.94253982070
  21
 508.39947003216
  31
0.0
   0
LINE
   5
14B
 100
AcDbEntity
   8
0
 100
AcDbLine
   6
CONTINUOUS
  62
7
  10
 637.74771489541
  20
 508.39250582838
  30
0.0
  11
 637.53086794033
  21
 508.38475442584
  31
0.0
   0
SPLINE
   5
14C
 100
AcDbEntity
   8
0
   6
CONTINUOUS
  62
7
 100
AcDbSpline
  70
8
  71
3
  72
16
  73
12
  74
10
  42
 0.10000000000000E-6
  43
 0.10000000000000E-6
  44
 0.10000000000000E-4
  40
0.0
  40
0.0
  40
0.0
  40
0.0
  40
 0.51470824293453E-1
  40
 0.17116202517711
  40
 0.29084951151547
  40
 0.41052836369699
  40
 0.53019982882712
  40
 0.64986519494153
  40
 0.76952577746004
  40
 0.88918291032146
  40
 1.0000000000000
  40
 1.0000000000000
  40
 1.0000000000000
  40
 1.0000000000000
  10
 625.98498665587
  20
 509.35230283763
  30
0.0
  10
 625.65869554226
  20
 508.99683246827
  30
0.0
  10
 624.57364107556
  20
 507.81474476821
  30
0.0
  10
 622.76218900191
  20
 505.74333719256
  30
0.0
  10
 620.57098727049
  20
 503.11294369320
  30
0.0
  10
 618.43269007748
  20
 500.40592745708
  30
0.0
  10
 616.35010821252
  20
 497.62919433329
  30
0.0
  10
 614.32667816842
  20
 494.78729707516
  30
0.0
  10
 612.36754751416
  20
 491.88430281874
  30
0.0
  10
 610.51648312048
  20
 489.00194689955
  30
0.0
  10
 609.35270633184
  20
 487.06647522251
  30
0.0
  10
 608.79313678288
  20
 486.13585775023
  30
0.0
  11
 625.98498665587
  21
 509.35230283763
  31
0.0
  11
 625.00783445435
  21
 508.28255355297
  31
0.0
  11
 622.76967625788
  21
 505.73110772598
  31
0.0
  11
 620.57973285042
  21
 503.10008454779
  31
0.0
  11
 618.44191083881
  21
 500.39422344700
  31
0.0
  11
 616.35991452325
  21
 497.61826212992
  31
0.0
  11
 614.33735490990
  21
 494.77705689082
  31
0.0
  11
 612.37774344841
  21
 491.87557452226
  31
0.0
  11
 610.48448589824
  21
 488.91888392497
  31
0.0
  11
 608.79313678288
  21
 486.13585775023
  31
0.0
   0
ARC
   5
14D
 100
AcDbEntity
   8
0
   6
CONTINUOUS
  62
7
 100
AcDbCircle
  10
 609.59613455923
  20
 485.66014178224
  30
0.0
  40
 0.93333333333339
 100
AcDbArc
  50
 149.35643873349
  51
 232.40603480574
   0
LINE
   5
14E
 100
AcDbEntity
   8
0
 100
AcDbLine
   6
CONTINUOUS
  62
7
  10
 643.68295181883
  20
 504.34601145912
  30
0.0
  11
 643.67250822609
  21
 504.35683026222
  31
0.0
   0
SPLINE
   5
14F
 100
AcDbEntity
   8
0
   6
CONTINUOUS
  62
7
 100
AcDbSpline
  70
8
  71
3
  72
13
  73
9
  74
7
  42
 0.10000000000000E-6
  43
 0.10000000000000E-6
  44
 0.10000000000000E-4
  40
0.0
  40
0.0
  40
0.0
  40
0.0
  40
 0.70916319406753E-1
  40
 0.26201550257998
  40
 0.44800097405788
  40
 0.63398644553578
  40
 0.82508562870901
  40
 1.0000000000000
  40
 1.0000000000000
  40
 1.0000000000000
  40
 1.0000000000000
  10
 637.73014054360
  20
 499.17916199289
  30
0.0
  10
 637.76143109113
  20
 499.18911429254
  30
0.0
  10
 637.87704070827
  20
 499.22588519123
  30
0.0
  10
 638.00419273902
  20
 499.42049029038
  30
0.0
  10
 638.07510479961
  20
 499.72552369305
  30
0.0
  10
 638.03913530754
  20
 500.08501881438
  30
0.0
  10
 637.92242031133
  20
 500.44245927062
  30
0.0
  10
 637.79231609987
  20
 500.62663999387
  30
0.0
  10
 637.73014054360
  20
 500.71465819707
  30
0.0
  11
 637.73014054360
  21
 499.17916199289
  31
0.0
  11
 637.82099083838
  21
 499.21466282479
  31
0.0
  11
 637.99035391659
  21
 499.43310767948
  31
0.0
  11
 638.05745298766
  21
 499.73451821074
  31
0.0
  11
 638.02592609485
  21
 500.08258712491
  31
0.0
  11
 637.90462840745
  21
 500.43853898856
  31
0.0
  11
 637.73014054360
  21
 500.71465819707
  31
0.0
   0
SPLINE
   5
150
 100
AcDbEntity
   8
0
   6
CONTINUOUS
  62
7
 100
AcDbSpline
  70
8
  71
3
  72
18
  73
14
  74
12
  42
 0.10000000000000E-6
  43
 0.10000000000000E-6
  44
 0.10000000000000E-4
  40
0.0
  40
0.0
  40
0.0
  40
0.0
  40
 0.75937871394532E-1
  40
 0.16753080234692
  40
 0.26307305708735
  40
 0.35605865231019
  40
 0.44904424753302
  40
 0.54458650227345
  40
 0.63617943322584
  40
 0.73085357979188
  40
 0.82552772635792
  40
 0.91712065731031
  40
 1.0000000000000
  40
 1.0000000000000
  40
 1.0000000000000
  40
 1.0000000000000
  10
 638.01219639555
  20
 499.53122458455
  30
0.0
  10
 638.09251014501
  20
 499.51544507326
  30
0.0
  10
 638.26969481768
  20
 499.48063300730
  30
0.0
  10
 638.49537253802
  20
 499.57926017457
  30
0.0
  10
 638.66676957544
  20
 499.79596282447
  30
0.0
  10
 638.73428518227
  20
 500.10768421547
  30
0.0
  10
 638.69967813468
  20
 500.46678256103
  30
0.0
  10
 638.57912134273
  20
 500.82444823126
  30
0.0
  10
 638.38373374962
  20
 501.12672060896
  30
0.0
  10
 638.16381904573
  20
 501.33644523286
  30
0.0
  10
 637.95567439428
  20
 501.41873905556
  30
0.0
  10
 637.78748427140
  20
 501.37680125947
  30
0.0
  10
 637.74860792506
  20
 501.26035741075
  30
0.0
  10
 637.73014054360
  20
 501.20504323710
  30
0.0
  11
 638.01219639555
  21
 499.53122458455
  31
0.0
  11
 638.24626129358
  21
 499.50394307628
  31
0.0
  11
 638.48095716749
  21
 499.59565327697
  31
0.0
  11
 638.65032024570
  21
 499.81409813166
  31
0.0
  11
 638.71741931677
  21
 500.11550866293
  31
0.0
  11
 638.68589242396
  21
 500.46357757710
  31
0.0
  11
 638.56459473655
  21
 500.81952944074
  31
0.0
  11
 638.38184151828
  21
 501.10872820146
  31
0.0
  11
 638.16580223576
  21
 501.31497383366
  31
0.0
  11
 637.95897260794
  21
 501.39804820667
  31
0.0
  11
 637.80137258407
  21
 501.35084449287
  31
0.0
  11
 637.73014054360
  21
 501.20504323710
  31
0.0
   0
SPLINE
   5
151
 100
AcDbEntity
   8
0
   6
CONTINUOUS
  62
7
 100
AcDbSpline
  70
8
  71
3
  72
23
  73
19
  74
17
  42
 0.10000000000000E-6
  43
 0.10000000000000E-6
  44
 0.10000000000000E-4
  40
0.0
  40
0.0
  40
0.0
  40
0.0
  40
 0.52866565431046E-1
  40
 0.11663189870011
  40
 0.18314667938737
  40
 0.24788156020135
  40
 0.31261644101534
  40
 0.37913122170259
  40
 0.44289655497166
  40
 0.50880697453107
  40
 0.57471739409048
  40
 0.63848272735955
  40
 0.70499750804680
  40
 0.76973238886079
  40
 0.83446726967477
  40
 0.90098205036204
  40
 0.96474738363110
  40
 1.0000000000000
  40
 1.0000000000000
  40
 1.0000000000000
  40
 1.0000000000000
  10
 638.67216272466
  20
 499.91221503674
  30
0.0
  10
 638.75247646505
  20
 499.89643553529
  30
0.0
  10
 638.92966111771
  20
 499.86162349107
  30
0.0
  10
 639.15533901460
  20
 499.96025046658
  30
0.0
  10
 639.32673533510
  20
 500.17695389518
  30
0.0
  10
 639.39425357030
  20
 500.48867243127
  30
0.0
  10
 639.35963668432
  20
 500.84778146320
  30
0.0
  10
 639.23911707283
  20
 501.20540674832
  30
0.0
  10
 639.04359399954
  20
 501.50782628353
  30
0.0
  10
 638.82419668784
  20
 501.71698892005
  30
0.0
  10
 638.61412832333
  20
 501.80137226498
  30
0.0
  10
 638.44507620178
  20
 501.74980253390
  30
0.0
  10
 638.36385130302
  20
 501.58175519202
  30
0.0
  10
 638.37590866671
  20
 501.31714692114
  30
0.0
  10
 638.49010721909
  20
 501.00264385518
  30
0.0
  10
 638.70077980786
  20
 500.70128741898
  30
0.0
  10
 638.92714352617
  20
 500.46876174291
  30
0.0
  10
 639.07995377534
  20
 500.39817888889
  30
0.0
  10
 639.13435765980
  20
 500.37304980589
  30
0.0
  11
 638.67216272466
  21
 499.91221503674
  31
0.0
  11
 638.90622762269
  21
 499.88493352847
  31
0.0
  11
 639.14092349660
  21
 499.97664372915
  31
0.0
  11
 639.31028657480
  21
 500.19508858384
  31
0.0
  11
 639.37738564588
  21
 500.49649911511
  31
0.0
  11
 639.34585875307
  21
 500.84456802928
  31
0.0
  11
 639.22456106566
  21
 501.20051989293
  31
0.0
  11
 639.04180784739
  21
 501.48971865364
  31
0.0
  11
 638.82576856487
  21
 501.69596428584
  31
0.0
  11
 638.61893893705
  21
 501.77903865885
  31
0.0
  11
 638.46133891318
  21
 501.73183494505
  31
0.0
  11
 638.37922352066
  21
 501.56375710722
  31
0.0
  11
 638.39277759320
  21
 501.30890664470
  31
0.0
  11
 638.50495762962
  21
 501.00739779927
  31
0.0
  11
 638.71350300272
  21
 500.70181295249
  31
0.0
  11
 638.97335207104
  21
 500.45712067866
  31
0.0
  11
 639.13435765980
  21
 500.37304980589
  31
0.0
   0
SPLINE
   5
152
 100
AcDbEntity
   8
0
   6
CONTINUOUS
  62
7
 100
AcDbSpline
  70
8
  71
3
  72
23
  73
19
  74
17
  42
 0.10000000000000E-6
  43
 0.10000000000000E-6
  44
 0.10000000000000E-4
  40
0.0
  40
0.0
  40
0.0
  40
0.0
  40
 0.52866565431046E-1
  40
 0.11663189870011
  40
 0.18314667938737
  40
 0.24788156020136
  40
 0.31261644101534
  40
 0.37913122170260
  40
 0.44289655497167
  40
 0.50880697453107
  40
 0.57471739409048
  40
 0.63848272735955
  40
 0.70499750804680
  40
 0.76973238886079
  40
 0.83446726967477
  40
 0.90098205036204
  40
 0.96474738363110
  40
 1.0000000000000
  40
 1.0000000000000
  40
 1.0000000000000
  40
 1.0000000000000
  10
 639.33212905376
  20
 500.29320548892
  30
0.0
  10
 639.41244279415
  20
 500.27742598748
  30
0.0
  10
 639.58962744682
  20
 500.24261394326
  30
0.0
  10
 639.81530534370
  20
 500.34124091876
  30
0.0
  10
 639.98670166421
  20
 500.55794434736
  30
0.0
  10
 640.05421989941
  20
 500.86966288346
  30
0.0
  10
 640.01960301343
  20
 501.22877191538
  30
0.0
  10
 639.89908340194
  20
 501.58639720050
  30
0.0
  10
 639.70356032865
  20
 501.88881673572
  30
0.0
  10
 639.48416301695
  20
 502.09797937223
  30
0.0
  10
 639.27409465244
  20
 502.18236271716
  30
0.0
  10
 639.10504253088
  20
 502.13079298609
  30
0.0
  10
 639.02381763212
  20
 501.96274564420
  30
0.0
  10
 639.03587499582
  20
 501.69813737332
  30
0.0
  10
 639.15007354819
  20
 501.38363430737
  30
0.0
  10
 639.36074613696
  20
 501.08227787117
  30
0.0
  10
 639.58710985528
  20
 500.84975219509
  30
0.0
  10
 639.73992010445
  20
 500.77916934107
  30
0.0
  10
 639.79432398891
  20
 500.75404025807
  30
0.0
  11
 639.33212905376
  21
 500.29320548892
  31
0.0
  11
 639.56619395180
  21
 500.26592398065
  31
0.0
  11
 639.80088982570
  21
 500.35763418134
  31
0.0
  11
 639.97025290391
  21
 500.57607903603
  31
0.0
  11
 640.03735197498
  21
 500.87748956729
  31
0.0
  11
 640.00582508218
  21
 501.22555848147
  31
0.0
  11
 639.88452739477
  21
 501.58151034511
  31
0.0
  11
 639.70177417649
  21
 501.87070910582
  31
0.0
  11
 639.48573489398
  21
 502.07695473802
  31
0.0
  11
 639.27890526615
  21
 502.16002911104
  31
0.0
  11
 639.12130524229
  21
 502.11282539723
  31
0.0
  11
 639.03918984977
  21
 501.94474755940
  31
0.0
  11
 639.05274392231
  21
 501.68989709688
  31
0.0
  11
 639.16492395873
  21
 501.38838825146
  31
0.0
  11
 639.37346933183
  21
 501.08280340467
  31
0.0
  11
 639.63331840014
  21
 500.83811113084
  31
0.0
  11
 639.79432398891
  21
 500.75404025807
  31
0.0
   0
SPLINE
   5
153
 100
AcDbEntity
   8
0
   6
CONTINUOUS
  62
7
 100
AcDbSpline
  70
8
  71
3
  72
23
  73
19
  74
17
  42
 0.10000000000000E-6
  43
 0.10000000000000E-6
  44
 0.10000000000000E-4
  40
0.0
  40
0.0
  40
0.0
  40
0.0
  40
 0.52866565431046E-1
  40
 0.11663189870011
  40
 0.18314667938737
  40
 0.24788156020136
  40
 0.31261644101534
  40
 0.37913122170260
  40
 0.44289655497167
  40
 0.50880697453107
  40
 0.57471739409048
  40
 0.63848272735954
  40
 0.70499750804680
  40
 0.76973238886079
  40
 0.83446726967477
  40
 0.90098205036203
  40
 0.96474738363110
  40
 1.0000000000000
  40
 1.0000000000000
  40
 1.0000000000000
  40
 1.0000000000000
  10
 639.99209538287
  20
 500.67419594110
  30
0.0
  10
 640.07240912326
  20
 500.65841643966
  30
0.0
  10
 640.24959377592
  20
 500.62360439544
  30
0.0
  10
 640.47527167281
  20
 500.72223137095
  30
0.0
  10
 640.64666799332
  20
 500.93893479954
  30
0.0
  10
 640.71418622851
  20
 501.25065333564
  30
0.0
  10
 640.67956934254
  20
 501.60976236757
  30
0.0
  10
 640.55904973104
  20
 501.96738765268
  30
0.0
  10
 640.36352665776
  20
 502.26980718790
  30
0.0
  10
 640.14412934606
  20
 502.47896982441
  30
0.0
  10
 639.93406098154
  20
 502.56335316934
  30
0.0
  10
 639.76500885999
  20
 502.51178343827
  30
0.0
  10
 639.68378396123
  20
 502.34373609639
  30
0.0
  10
 639.69584132493
  20
 502.07912782550
  30
0.0
  10
 639.81003987730
  20
 501.76462475955
  30
0.0
  10
 640.02071246607
  20
 501.46326832335
  30
0.0
  10
 640.24707618439
  20
 501.23074264728
  30
0.0
  10
 640.39988643356
  20
 501.16015979326
  30
0.0
  10
 640.45429031801
  20
 501.13503071026
  30
0.0
  11
 639.99209538287
  21
 500.67419594110
  31
0.0
  11
 640.22616028090
  21
 500.64691443284
  31
0.0
  11
 640.46085615481
  21
 500.73862463352
  31
0.0
  11
 640.63021923302
  21
 500.95706948821
  31
0.0
  11
 640.69731830409
  21
 501.25848001948
  31
0.0
  11
 640.66579141128
  21
 501.60654893365
  31
0.0
  11
 640.54449372388
  21
 501.96250079730
  31
0.0
  11
 640.36174050560
  21
 502.25169955801
  31
0.0
  11
 640.14570122308
  21
 502.45794519021
  31
0.0
  11
 639.93887159526
  21
 502.54101956322
  31
0.0
  11
 639.78127157140
  21
 502.49381584942
  31
0.0
  11
 639.69915617888
  21
 502.32573801158
  31
0.0
  11
 639.71271025142
  21
 502.07088754907
  31
0.0
  11
 639.82489028783
  21
 501.76937870364
  31
0.0
  11
 640.03343566093
  21
 501.46379385685
  31
0.0
  11
 640.29328472925
  21
 501.21910158302
  31
0.0
  11
 640.45429031801
  21
 501.13503071026
  31
0.0
   0
SPLINE
   5
154
 100
AcDbEntity
   8
0
   6
CONTINUOUS
  62
7
 100
AcDbSpline
  70
8
  71
3
  72
23
  73
19
  74
17
  42
 0.10000000000000E-6
  43
 0.10000000000000E-6
  44
 0.10000000000000E-4
  40
0.0
  40
0.0
  40
0.0
  40
0.0
  40
 0.52866565431046E-1
  40
 0.11663189870011
  40
 0.18314667938737
  40
 0.24788156020136
  40
 0.31261644101534
  40
 0.37913122170260
  40
 0.44289655497167
  40
 0.50880697453107
  40
 0.57471739409048
  40
 0.63848272735954
  40
 0.70499750804680
  40
 0.76973238886079
  40
 0.83446726967477
  40
 0.90098205036204
  40
 0.96474738363110
  40
 1.0000000000000
  40
 1.0000000000000
  40
 1.0000000000000
  40
 1.0000000000000
  10
 640.65206171198
  20
 501.05518639329
  30
0.0
  10
 640.73237545237
  20
 501.03940689185
  30
0.0
  10
 640.90956010503
  20
 501.00459484762
  30
0.0
  10
 641.13523800192
  20
 501.10322182313
  30
0.0
  10
 641.30663432243
  20
 501.31992525173
  30
0.0
  10
 641.37415255762
  20
 501.63164378782
  30
0.0
  10
 641.33953567165
  20
 501.99075281975
  30
0.0
  10
 641.21901606015
  20
 502.34837810487
  30
0.0
  10
 641.02349298686
  20
 502.65079764008
  30
0.0
  10
 640.80409567516
  20
 502.85996027660
  30
0.0
  10
 640.59402731065
  20
 502.94434362153
  30
0.0
  10
 640.42497518910
  20
 502.89277389045
  30
0.0
  10
 640.34375029034
  20
 502.72472654857
  30
0.0
  10
 640.35580765404
  20
 502.46011827769
  30
0.0
  10
 640.47000620641
  20
 502.14561521174
  30
0.0
  10
 640.68067879518
  20
 501.84425877554
  30
0.0
  10
 640.90704251350
  20
 501.61173309946
  30
0.0
  10
 641.05985276267
  20
 501.54115024544
  30
0.0
  10
 641.11425664712
  20
 501.51602116244
  30
0.0
  11
 640.65206171198
  21
 501.05518639329
  31
0.0
  11
 640.88612661001
  21
 501.02790488502
  31
0.0
  11
 641.12082248392
  21
 501.11961508571
  31
0.0
  11
 641.29018556213
  21
 501.33805994040
  31
0.0
  11
 641.35728463320
  21
 501.63947047166
  31
0.0
  11
 641.32575774039
  21
 501.98753938583
  31
0.0
  11
 641.20446005298
  21
 502.34349124948
  31
0.0
  11
 641.02170683471
  21
 502.63269001019
  31
0.0
  11
 640.80566755219
  21
 502.83893564239
  31
0.0
  11
 640.59883792437
  21
 502.92201001540
  31
0.0
  11
 640.44123790050
  21
 502.87480630160
  31
0.0
  11
 640.35912250799
  21
 502.70672846377
  31
0.0
  11
 640.37267658053
  21
 502.45187800125
  31
0.0
  11
 640.48485661694
  21
 502.15036915583
  31
0.0
  11
 640.69340199004
  21
 501.84478430904
  31
0.0
  11
 640.95325105836
  21
 501.60009203521
  31
0.0
  11
 641.11425664712
  21
 501.51602116244
  31
0.0
   0
SPLINE
   5
155
 100
AcDbEntity
   8
0
   6
CONTINUOUS
  62
7
 100
AcDbSpline
  70
8
  71
3
  72
23
  73
19
  74
17
  42
 0.10000000000000E-6
  43
 0.10000000000000E-6
  44
 0.10000000000000E-4
  40
0.0
  40
0.0
  40
0.0
  40
0.0
  40
 0.52866565431046E-1
  40
 0.11663189870011
  40
 0.18314667938737
  40
 0.24788156020135
  40
 0.31261644101534
  40
 0.37913122170259
  40
 0.44289655497166
  40
 0.50880697453106
  40
 0.57471739409048
  40
 0.63848272735954
  40
 0.70499750804680
  40
 0.76973238886079
  40
 0.83446726967477
  40
 0.90098205036203
  40
 0.96474738363110
  40
 1.0000000000000
  40
 1.0000000000000
  40
 1.0000000000000
  40
 1.0000000000000
  10
 641.31202804108
  20
 501.43617684547
  30
0.0
  10
 641.39234178147
  20
 501.42039734403
  30
0.0
  10
 641.56952643414
  20
 501.38558529981
  30
0.0
  10
 641.79520433103
  20
 501.48421227531
  30
0.0
  10
 641.96660065153
  20
 501.70091570391
  30
0.0
  10
 642.03411888673
  20
 502.01263424001
  30
0.0
  10
 641.99950200075
  20
 502.37174327194
  30
0.0
  10
 641.87898238926
  20
 502.72936855705
  30
0.0
  10
 641.68345931597
  20
 503.03178809227
  30
0.0
  10
 641.46406200427
  20
 503.24095072878
  30
0.0
  10
 641.25399363976
  20
 503.32533407371
  30
0.0
  10
 641.08494151821
  20
 503.27376434264
  30
0.0
  10
 641.00371661945
  20
 503.10571700075
  30
0.0
  10
 641.01577398314
  20
 502.84110872987
  30
0.0
  10
 641.12997253552
  20
 502.52660566392
  30
0.0
  10
 641.34064512429
  20
 502.22524922772
  30
0.0
  10
 641.56700884260
  20
 501.99272355165
  30
0.0
  10
 641.71981909177
  20
 501.92214069763
  30
0.0
  10
 641.77422297623
  20
 501.89701161463
  30
0.0
  11
 641.31202804108
  21
 501.43617684547
  31
0.0
  11
 641.54609293912
  21
 501.40889533720
  31
0.0
  11
 641.78078881303
  21
 501.50060553789
  31
0.0
  11
 641.95015189123
  21
 501.71905039258
  31
0.0
  11
 642.01725096230
  21
 502.02046092385
  31
0.0
  11
 641.98572406950
  21
 502.36852983802
  31
0.0
  11
 641.86442638209
  21
 502.72448170166
  31
0.0
  11
 641.68167316382
  21
 503.01368046238
  31
0.0
  11
 641.46563388130
  21
 503.21992609457
  31
0.0
  11
 641.25880425348
  21
 503.30300046759
  31
0.0
  11
 641.10120422961
  21
 503.25579675378
  31
0.0
  11
 641.01908883709
  21
 503.08771891595
  31
0.0
  11
 641.03264290963
  21
 502.83286845343
  31
0.0
  11
 641.14482294605
  21
 502.53135960801
  31
0.0
  11
 641.35336831915
  21
 502.22577476122
  31
0.0
  11
 641.61321738747
  21
 501.98108248739
  31
0.0
  11
 641.77422297623
  21
 501.89701161463
  31
0.0
   0
SPLINE
   5
156
 100
AcDbEntity
   8
0
   6
CONTINUOUS
  62
7
 100
AcDbSpline
  70
8
  71
3
  72
23
  73
19
  74
17
  42
 0.10000000000000E-6
  43
 0.10000000000000E-6
  44
 0.10000000000000E-4
  40
0.0
  40
0.0
  40
0.0
  40
0.0
  40
 0.52866565431041E-1
  40
 0.11663189870011
  40
 0.18314667938737
  40
 0.24788156020135
  40
 0.31261644101533
  40
 0.37913122170259
  40
 0.44289655497166
  40
 0.50880697453106
  40
 0.57471739409048
  40
 0.63848272735954
  40
 0.70499750804680
  40
 0.76973238886079
  40
 0.83446726967477
  40
 0.90098205036203
  40
 0.96474738363110
  40
 1.0000000000000
  40
 1.0000000000000
  40
 1.0000000000000
  40
 1.0000000000000
  10
 641.97199437019
  20
 501.81716729766
  30
0.0
  10
 642.05230811058
  20
 501.80138779621
  30
0.0
  10
 642.22949276325
  20
 501.76657575199
  30
0.0
  10
 642.45517066013
  20
 501.86520272750
  30
0.0
  10
 642.62656698064
  20
 502.08190615609
  30
0.0
  10
 642.69408521584
  20
 502.39362469219
  30
0.0
  10
 642.65946832986
  20
 502.75273372412
  30
0.0
  10
 642.53894871837
  20
 503.11035900924
  30
0.0
  10
 642.34342564508
  20
 503.41277854445
  30
0.0
  10
 642.12402833338
  20
 503.62194118096
  30
0.0
  10
 641.91395996887
  20
 503.70632452590
  30
0.0
  10
 641.74490784731
  20
 503.65475479482
  30
0.0
  10
 641.66368294855
  20
 503.48670745294
  30
0.0
  10
 641.67574031225
  20
 503.22209918206
  30
0.0
  10
 641.78993886462
  20
 502.90759611610
  30
0.0
  10
 642.00061145339
  20
 502.60623967990
  30
0.0
  10
 642.22697517171
  20
 502.37371400383
  30
0.0
  10
 642.37978542088
  20
 502.30313114981
  30
0.0
  10
 642.43418930534
  20
 502.27800206681
  30
0.0
  11
 641.97199437019
  21
 501.81716729766
  31
0.0
  11
 642.20605926823
  21
 501.78988578939
  31
0.0
  11
 642.44075514213
  21
 501.88159599007
  31
0.0
  11
 642.61011822034
  21
 502.10004084476
  31
0.0
  11
 642.67721729141
  21
 502.40145137603
  31
0.0
  11
 642.64569039861
  21
 502.74952029020
  31
0.0
  11
 642.52439271120
  21
 503.10547215385
  31
0.0
  11
 642.34163949292
  21
 503.39467091456
  31
0.0
  11
 642.12560021041
  21
 503.60091654676
  31
0.0
  11
 641.91877058258
  21
 503.68399091977
  31
0.0
  11
 641.76117055872
  21
 503.63678720597
  31
0.0
  11
 641.67905516620
  21
 503.46870936814
  31
0.0
  11
 641.69260923874
  21
 503.21385890562
  31
0.0
  11
 641.80478927516
  21
 502.91235006019
  31
0.0
  11
 642.01333464826
  21
 502.60676521341
  31
0.0
  11
 642.27318371657
  21
 502.36207293958
  31
0.0
  11
 642.43418930534
  21
 502.27800206681
  31
0.0
   0
SPLINE
   5
157
 100
AcDbEntity
   8
0
   6
CONTINUOUS
  62
7
 100
AcDbSpline
  70
8
  71
3
  72
23
  73
19
  74
17
  42
 0.10000000000000E-6
  43
 0.10000000000000E-6
  44
 0.10000000000000E-4
  40
0.0
  40
0.0
  40
0.0
  40
0.0
  40
 0.52866565431041E-1
  40
 0.11663189870011
  40
 0.18314667938737
  40
 0.24788156020135
  40
 0.31261644101533
  40
 0.37913122170259
  40
 0.44289655497166
  40
 0.50880697453106
  40
 0.57471739409047
  40
 0.63848272735954
  40
 0.70499750804680
  40
 0.76973238886078
  40
 0.83446726967476
  40
 0.90098205036203
  40
 0.96474738363110
  40
 1.0000000000000
  40
 1.0000000000000
  40
 1.0000000000000
  40
 1.0000000000000
  10
 642.63196069930
  20
 502.19815774984
  30
0.0
  10
 642.71227443969
  20
 502.18237824840
  30
0.0
  10
 642.88945909235
  20
 502.14756620418
  30
0.0
  10
 643.11513698924
  20
 502.24619317968
  30
0.0
  10
 643.28653330975
  20
 502.46289660828
  30
0.0
  10
 643.35405154494
  20
 502.77461514438
  30
0.0
  10
 643.31943465897
  20
 503.13372417630
  30
0.0
  10
 643.19891504747
  20
 503.49134946142
  30
0.0
  10
 643.00339197419
  20
 503.79376899664
  30
0.0
  10
 642.78399466249
  20
 504.00293163315
  30
0.0
  10
 642.57392629797
  20
 504.08731497808
  30
0.0
  10
 642.40487417642
  20
 504.03574524700
  30
0.0
  10
 642.32364927766
  20
 503.86769790512
  30
0.0
  10
 642.33570664136
  20
 503.60308963424
  30
0.0
  10
 642.44990519373
  20
 503.28858656829
  30
0.0
  10
 642.66057778250
  20
 502.98723013209
  30
0.0
  10
 642.88694150082
  20
 502.75470445601
  30
0.0
  10
 643.03975174999
  20
 502.68412160199
  30
0.0
  10
 643.09415563444
  20
 502.65899251899
  30
0.0
  11
 642.63196069930
  21
 502.19815774984
  31
0.0
  11
 642.86602559733
  21
 502.17087624157
  31
0.0
  11
 643.10072147124
  21
 502.26258644226
  31
0.0
  11
 643.27008454945
  21
 502.48103129695
  31
0.0
  11
 643.33718362052
  21
 502.78244182821
  31
0.0
  11
 643.30565672771
  21
 503.13051074239
  31
0.0
  11
 643.18435904031
  21
 503.48646260603
  31
0.0
  11
 643.00160582203
  21
 503.77566136674
  31
0.0
  11
 642.78556653951
  21
 503.98190699894
  31
0.0
  11
 642.57873691169
  21
 504.06498137196
  31
0.0
  11
 642.42113688783
  21
 504.01777765815
  31
0.0
  11
 642.33902149531
  21
 503.84969982032
  31
0.0
  11
 642.35257556785
  21
 503.59484935780
  31
0.0
  11
 642.46475560426
  21
 503.29334051238
  31
0.0
  11
 642.67330097736
  21
 502.98775566559
  31
0.0
  11
 642.93315004568
  21
 502.74306339176
  31
0.0
  11
 643.09415563444
  21
 502.65899251899
  31
0.0
   0
SPLINE
   5
158
 100
AcDbEntity
   8
0
   6
CONTINUOUS
  62
7
 100
AcDbSpline
  70
8
  71
3
  72
23
  73
19
  74
17
  42
 0.10000000000000E-6
  43
 0.10000000000000E-6
  44
 0.10000000000000E-4
  40
0.0
  40
0.0
  40
0.0
  40
0.0
  40
 0.52866565431041E-1
  40
 0.11663189870011
  40
 0.18314667938737
  40
 0.24788156020135
  40
 0.31261644101534
  40
 0.37913122170259
  40
 0.44289655497166
  40
 0.50880697453107
  40
 0.57471739409047
  40
 0.63848272735954
  40
 0.70499750804680
  40
 0.76973238886079
  40
 0.83446726967477
  40
 0.90098205036204
  40
 0.96474738363110
  40
 1.0000000000000
  40
 1.0000000000000
  40
 1.0000000000000
  40
 1.0000000000000
  10
 643.29192702841
  20
 502.57914820202
  30
0.0
  10
 643.37224076880
  20
 502.56336870058
  30
0.0
  10
 643.54942542146
  20
 502.52855665636
  30
0.0
  10
 643.77510331835
  20
 502.62718363187
  30
0.0
  10
 643.94649963886
  20
 502.84388706046
  30
0.0
  10
 644.01401787405
  20
 503.15560559656
  30
0.0
  10
 643.97940098808
  20
 503.51471462849
  30
0.0
  10
 643.85888137658
  20
 503.87233991360
  30
0.0
  10
 643.66335830329
  20
 504.17475944882
  30
0.0
  10
 643.44396099159
  20
 504.38392208533
  30
0.0
  10
 643.23389262708
  20
 504.46830543026
  30
0.0
  10
 643.06484050553
  20
 504.41673569919
  30
0.0
  10
 642.98361560677
  20
 504.24868835731
  30
0.0
  10
 642.99567297047
  20
 503.98408008642
  30
0.0
  10
 643.10987152284
  20
 503.66957702047
  30
0.0
  10
 643.32054411161
  20
 503.36822058427
  30
0.0
  10
 643.54690782993
  20
 503.13569490820
  30
0.0
  10
 643.69971807910
  20
 503.06511205418
  30
0.0
  10
 643.75412196355
  20
 503.03998297118
  30
0.0
  11
 643.29192702841
  21
 502.57914820202
  31
0.0
  11
 643.52599192644
  21
 502.55186669376
  31
0.0
  11
 643.76068780035
  21
 502.64357689444
  31
0.0
  11
 643.93005087856
  21
 502.86202174913
  31
0.0
  11
 643.99714994963
  21
 503.16343228040
  31
0.0
  11
 643.96562305682
  21
 503.51150119457
  31
0.0
  11
 643.84432536941
  21
 503.86745305822
  31
0.0
  11
 643.66157215114
  21
 504.15665181893
  31
0.0
  11
 643.44553286862
  21
 504.36289745113
  31
0.0
  11
 643.23870324080
  21
 504.44597182414
  31
0.0
  11
 643.08110321693
  21
 504.39876811034
  31
0.0
  11
 642.99898782442
  21
 504.23069027250
  31
0.0
  11
 643.01254189696
  21
 503.97583980999
  31
0.0
  11
 643.12472193337
  21
 503.67433096456
  31
0.0
  11
 643.33326730647
  21
 503.36874611777
  31
0.0
  11
 643.59311637479
  21
 503.12405384394
  31
0.0
  11
 643.75412196355
  21
 503.03998297118
  31
0.0
   0
LINE
   5
159
 100
AcDbEntity
   8
0
 100
AcDbLine
   6
CONTINUOUS
  62
7
  10
 643.95189335757
  20
 502.96013865416
  30
0.0
  11
 644.18595825549
  21
 502.93285714592
  31
0.0
   0
LINE
   5
15A
 100
AcDbEntity
   8
0
 100
AcDbLine
   6
CONTINUOUS
  62
7
  10
 644.18595825549
  20
 502.93285714592
  30
0.0
  11
 644.42065412949
  21
 503.02456734660
  31
0.0
   0
LINE
   5
15B
 100
AcDbEntity
   8
0
 100
AcDbLine
   6
CONTINUOUS
  62
7
  10
 644.42065412949
  20
 503.02456734660
  30
0.0
  11
 644.59001720771
  21
 503.24301220134
  31
0.0
   0
LINE
   5
15C
 100
AcDbEntity
   8
0
 100
AcDbLine
   6
CONTINUOUS
  62
7
  10
 644.59001720771
  20
 503.24301220134
  30
0.0
  11
 644.65711627877
  21
 503.54442273258
  31
0.0
   0
LINE
   5
15D
 100
AcDbEntity
   8
0
 100
AcDbLine
   6
CONTINUOUS
  62
7
  10
 644.65711627877
  20
 503.54442273258
  30
0.0
  11
 644.62558938589
  21
 503.89249164678
  31
0.0
   0
LINE
   5
15E
 100
AcDbEntity
   8
0
 100
AcDbLine
   6
CONTINUOUS
  62
7
  10
 644.62558938589
  20
 503.89249164678
  30
0.0
  11
 644.50429169847
  21
 504.24844351046
  31
0.0
   0
LINE
   5
15F
 100
AcDbEntity
   8
0
 100
AcDbLine
   6
CONTINUOUS
  62
7
  10
 644.50429169847
  20
 504.24844351046
  30
0.0
  11
 644.32153848027
  21
 504.53764227108
  31
0.0
   0
LINE
   5
160
 100
AcDbEntity
   8
0
 100
AcDbLine
   6
CONTINUOUS
  62
7
  10
 644.32153848027
  20
 504.53764227108
  30
0.0
  11
 644.10549919779
  21
 504.74388790326
  31
0.0
   0
LINE
   5
161
 100
AcDbEntity
   8
0
 100
AcDbLine
   6
CONTINUOUS
  62
7
  10
 644.10549919779
  20
 504.74388790326
  30
0.0
  11
 643.89866956989
  21
 504.82696227632
  31
0.0
   0
LINE
   5
162
 100
AcDbEntity
   8
0
 100
AcDbLine
   6
CONTINUOUS
  62
7
  10
 643.89866956989
  20
 504.82696227632
  30
0.0
  11
 643.74106954605
  21
 504.77975856256
  31
0.0
   0
LINE
   5
163
 100
AcDbEntity
   8
0
 100
AcDbLine
   6
CONTINUOUS
  62
7
  10
 643.74106954605
  20
 504.77975856256
  30
0.0
  11
 643.65895415353
  21
 504.61168072466
  31
0.0
   0
LINE
   5
164
 100
AcDbEntity
   8
0
 100
AcDbLine
   6
CONTINUOUS
  62
7
  10
 643.65895415353
  20
 504.61168072466
  30
0.0
  11
 643.67250822609
  21
 504.35683026222
  31
0.0
   0
SPLINE
   5
165
 100
AcDbEntity
   8
0
   6
CONTINUOUS
  62
7
 100
AcDbSpline
  70
8
  71
3
  72
16
  73
12
  74
10
  42
 0.10000000000000E-6
  43
 0.10000000000000E-6
  44
 0.10000000000000E-4
  40
0.0
  40
0.0
  40
0.0
  40
0.0
  40
 0.94983532714048E-1
  40
 0.22137631316101
  40
 0.34776909360794
  40
 0.46976014449869
  40
 0.59739851135893
  40
 0.72137631316101
  40
 0.84535411496307
  40
 0.97299248182330
  40
 1.0000000000000
  40
 1.0000000000000
  40
 1.0000000000000
  40
 1.0000000000000
  10
 643.86297230821
  20
 504.44141662918
  30
0.0
  10
 643.88337625268
  20
 504.45074868797
  30
0.0
  10
 643.93093133798
  20
 504.47249873991
  30
0.0
  10
 644.04170122104
  20
 504.40833706195
  30
0.0
  10
 644.16132614627
  20
 504.27059253107
  30
0.0
  10
 644.27025377283
  20
 504.07212568104
  30
0.0
  10
 644.32822650489
  20
 503.84025405879
  30
0.0
  10
 644.33578633045
  20
 503.60527409531
  30
0.0
  10
 644.27576554228
  20
 503.40732551899
  30
0.0
  10
 644.19120711566
  20
 503.28337743337
  30
0.0
  10
 644.12180764994
  20
 503.25816776483
  30
0.0
  10
 644.10968765508
  20
 503.25376512211
  30
0.0
  11
 643.86297230821
  21
 504.44141662918
  31
0.0
  11
 643.92841028537
  21
 504.45788997121
  31
0.0
  11
 644.04174383678
  21
 504.39676942802
  31
0.0
  11
 644.16083342238
  21
 504.25866684785
  31
0.0
  11
 644.26059871192
  21
 504.06957265611
  31
0.0
  11
 644.32005082548
  21
 503.83765892567
  31
0.0
  11
 644.32463266906
  21
 503.61138584142
  31
0.0
  11
 644.26757328521
  21
 503.41427424649
  31
0.0
  11
 644.14536242026
  21
 503.26830239665
  31
0.0
  11
 644.10968765508
  21
 503.25376512211
  31
0.0
   0
SPLINE
   5
166
 100
AcDbEntity
   8
0
   6
CONTINUOUS
  62
7
 100
AcDbSpline
  70
8
  71
3
  72
16
  73
12
  74
10
  42
 0.10000000000000E-6
  43
 0.10000000000000E-6
  44
 0.10000000000000E-4
  40
0.0
  40
0.0
  40
0.0
  40
0.0
  40
 0.94983532714039E-1
  40
 0.22137631316100
  40
 0.34776909360794
  40
 0.46976014449870
  40
 0.59739851135893
  40
 0.72137631316101
  40
 0.84535411496307
  40
 0.97299248182330
  40
 1.0000000000000
  40
 1.0000000000000
  40
 1.0000000000000
  40
 1.0000000000000
  10
 643.20300597910
  20
 504.06042617700
  30
0.0
  10
 643.22340992357
  20
 504.06975823579
  30
0.0
  10
 643.27096500888
  20
 504.09150828772
  30
0.0
  10
 643.38173489194
  20
 504.02734660976
  30
0.0
  10
 643.50135981717
  20
 503.88960207889
  30
0.0
  10
 643.61028744372
  20
 503.69113522885
  30
0.0
  10
 643.66826017578
  20
 503.45926360660
  30
0.0
  10
 643.67582000134
  20
 503.22428364313
  30
0.0
  10
 643.61579921318
  20
 503.02633506681
  30
0.0
  10
 643.53124078655
  20
 502.90238698118
  30
0.0
  10
 643.46184132083
  20
 502.87717731265
  30
0.0
  10
 643.44972132597
  20
 502.87277466992
  30
0.0
  11
 643.20300597910
  21
 504.06042617700
  31
0.0
  11
 643.26844395626
  21
 504.07689951902
  31
0.0
  11
 643.38177750768
  21
 504.01577897584
  31
0.0
  11
 643.50086709327
  21
 503.87767639566
  31
0.0
  11
 643.60063238281
  21
 503.68858220393
  31
0.0
  11
 643.66008449637
  21
 503.45666847349
  31
0.0
  11
 643.66466633995
  21
 503.23039538924
  31
0.0
  11
 643.60760695611
  21
 503.03328379431
  31
0.0
  11
 643.48539609116
  21
 502.88731194447
  31
0.0
  11
 643.44972132597
  21
 502.87277466992
  31
0.0
   0
SPLINE
   5
167
 100
AcDbEntity
   8
0
   6
CONTINUOUS
  62
7
 100
AcDbSpline
  70
8
  71
3
  72
16
  73
12
  74
10
  42
 0.10000000000000E-6
  43
 0.10000000000000E-6
  44
 0.10000000000000E-4
  40
0.0
  40
0.0
  40
0.0
  40
0.0
  40
 0.94983532714039E-1
  40
 0.22137631316100
  40
 0.34776909360794
  40
 0.46976014449870
  40
 0.59739851135894
  40
 0.72137631316101
  40
 0.84535411496307
  40
 0.97299248182330
  40
 1.0000000000000
  40
 1.0000000000000
  40
 1.0000000000000
  40
 1.0000000000000
  10
 642.54303964999
  20
 503.67943572481
  30
0.0
  10
 642.56344359446
  20
 503.68876778360
  30
0.0
  10
 642.61099867977
  20
 503.71051783554
  30
0.0
  10
 642.72176856283
  20
 503.64635615758
  30
0.0
  10
 642.84139348806
  20
 503.50861162670
  30
0.0
  10
 642.95032111462
  20
 503.31014477667
  30
0.0
  10
 643.00829384667
  20
 503.07827315442
  30
0.0
  10
 643.01585367224
  20
 502.84329319094
  30
0.0
  10
 642.95583288407
  20
 502.64534461463
  30
0.0
  10
 642.87127445744
  20
 502.52139652900
  30
0.0
  10
 642.80187499173
  20
 502.49618686047
  30
0.0
  10
 642.78975499687
  20
 502.49178421774
  30
0.0
  11
 642.54303964999
  21
 503.67943572481
  31
0.0
  11
 642.60847762716
  21
 503.69590906684
  31
0.0
  11
 642.72181117857
  21
 503.63478852365
  31
0.0
  11
 642.84090076417
  21
 503.49668594348
  31
0.0
  11
 642.94066605370
  21
 503.30759175174
  31
0.0
  11
 643.00011816727
  21
 503.07567802130
  31
0.0
  11
 643.00470001084
  21
 502.84940493706
  31
0.0
  11
 642.94764062700
  21
 502.65229334212
  31
0.0
  11
 642.82542976205
  21
 502.50632149228
  31
0.0
  11
 642.78975499687
  21
 502.49178421774
  31
0.0
   0
SPLINE
   5
168
 100
AcDbEntity
   8
0
   6
CONTINUOUS
  62
7
 100
AcDbSpline
  70
8
  71
3
  72
16
  73
12
  74
10
  42
 0.10000000000000E-6
  43
 0.10000000000000E-6
  44
 0.10000000000000E-4
  40
0.0
  40
0.0
  40
0.0
  40
0.0
  40
 0.94983532714038E-1
  40
 0.22137631316100
  40
 0.34776909360794
  40
 0.46976014449870
  40
 0.59739851135894
  40
 0.72137631316101
  40
 0.84535411496307
  40
 0.97299248182330
  40
 1.0000000000000
  40
 1.0000000000000
  40
 1.0000000000000
  40
 1.0000000000000
  10
 641.88307332088
  20
 503.29844527263
  30
0.0
  10
 641.90347726535
  20
 503.30777733142
  30
0.0
  10
 641.95103235066
  20
 503.32952738335
  30
0.0
  10
 642.06180223372
  20
 503.26536570540
  30
0.0
  10
 642.18142715895
  20
 503.12762117452
  30
0.0
  10
 642.29035478551
  20
 502.92915432449
  30
0.0
  10
 642.34832751757
  20
 502.69728270223
  30
0.0
  10
 642.35588734313
  20
 502.46230273876
  30
0.0
  10
 642.29586655496
  20
 502.26435416244
  30
0.0
  10
 642.21130812834
  20
 502.14040607682
  30
0.0
  10
 642.14190866262
  20
 502.11519640828
  30
0.0
  10
 642.12978866776
  20
 502.11079376555
  30
0.0
  11
 641.88307332088
  21
 503.29844527263
  31
0.0
  11
 641.94851129805
  21
 503.31491861465
  31
0.0
  11
 642.06184484946
  21
 503.25379807147
  31
0.0
  11
 642.18093443506
  21
 503.11569549129
  31
0.0
  11
 642.28069972460
  21
 502.92660129956
  31
0.0
  11
 642.34015183816
  21
 502.69468756912
  31
0.0
  11
 642.34473368174
  21
 502.46841448487
  31
0.0
  11
 642.28767429789
  21
 502.27130288994
  31
0.0
  11
 642.16546343294
  21
 502.12533104010
  31
0.0
  11
 642.12978866776
  21
 502.11079376555
  31
0.0
   0
SPLINE
   5
169
 100
AcDbEntity
   8
0
   6
CONTINUOUS
  62
7
 100
AcDbSpline
  70
8
  71
3
  72
16
  73
12
  74
10
  42
 0.10000000000000E-6
  43
 0.10000000000000E-6
  44
 0.10000000000000E-4
  40
0.0
  40
0.0
  40
0.0
  40
0.0
  40
 0.94983532714039E-1
  40
 0.22137631316100
  40
 0.34776909360793
  40
 0.46976014449870
  40
 0.59739851135894
  40
 0.72137631316101
  40
 0.84535411496307
  40
 0.97299248182330
  40
 1.0000000000000
  40
 1.0000000000000
  40
 1.0000000000000
  40
 1.0000000000000
  10
 641.22310699178
  20
 502.91745482045
  30
0.0
  10
 641.24351093625
  20
 502.92678687924
  30
0.0
  10
 641.29106602155
  20
 502.94853693117
  30
0.0
  10
 641.40183590461
  20
 502.88437525321
  30
0.0
  10
 641.52146082984
  20
 502.74663072233
  30
0.0
  10
 641.63038845640
  20
 502.54816387230
  30
0.0
  10
 641.68836118846
  20
 502.31629225005
  30
0.0
  10
 641.69592101402
  20
 502.08131228658
  30
0.0
  10
 641.63590022585
  20
 501.88336371026
  30
0.0
  10
 641.55134179923
  20
 501.75941562463
  30
0.0
  10
 641.48194233351
  20
 501.73420595610
  30
0.0
  10
 641.46982233865
  20
 501.72980331337
  30
0.0
  11
 641.22310699178
  21
 502.91745482045
  31
0.0
  11
 641.28854496894
  21
 502.93392816247
  31
0.0
  11
 641.40187852035
  21
 502.87280761929
  31
0.0
  11
 641.52096810595
  21
 502.73470503911
  31
0.0
  11
 641.62073339549
  21
 502.54561084737
  31
0.0
  11
 641.68018550905
  21
 502.31369711694
  31
0.0
  11
 641.68476735263
  21
 502.08742403269
  31
0.0
  11
 641.62770796878
  21
 501.89031243776
  31
0.0
  11
 641.50549710384
  21
 501.74434058792
  31
0.0
  11
 641.46982233865
  21
 501.72980331337
  31
0.0
   0
SPLINE
   5
16A
 100
AcDbEntity
   8
0
   6
CONTINUOUS
  62
7
 100
AcDbSpline
  70
8
  71
3
  72
16
  73
12
  74
10
  42
 0.10000000000000E-6
  43
 0.10000000000000E-6
  44
 0.10000000000000E-4
  40
0.0
  40
0.0
  40
0.0
  40
0.0
  40
 0.94983532714040E-1
  40
 0.22137631316100
  40
 0.34776909360793
  40
 0.46976014449870
  40
 0.59739851135894
  40
 0.72137631316102
  40
 0.84535411496308
  40
 0.97299248182331
  40
 1.0000000000000
  40
 1.0000000000000
  40
 1.0000000000000
  40
 1.0000000000000
  10
 640.56314066267
  20
 502.53646436826
  30
0.0
  10
 640.58354460714
  20
 502.54579642705
  30
0.0
  10
 640.63109969245
  20
 502.56754647899
  30
0.0
  10
 640.74186957551
  20
 502.50338480103
  30
0.0
  10
 640.86149450074
  20
 502.36564027015
  30
0.0
  10
 640.97042212729
  20
 502.16717342012
  30
0.0
  10
 641.02839485935
  20
 501.93530179787
  30
0.0
  10
 641.03595468491
  20
 501.70032183439
  30
0.0
  10
 640.97593389675
  20
 501.50237325807
  30
0.0
  10
 640.89137547012
  20
 501.37842517245
  30
0.0
  10
 640.82197600440
  20
 501.35321550391
  30
0.0
  10
 640.80985600954
  20
 501.34881286119
  30
0.0
  11
 640.56314066267
  21
 502.53646436826
  31
0.0
  11
 640.62857863983
  21
 502.55293771029
  31
0.0
  11
 640.74191219125
  21
 502.49181716710
  31
0.0
  11
 640.86100177684
  21
 502.35371458693
  31
0.0
  11
 640.96076706638
  21
 502.16462039519
  31
0.0
  11
 641.02021917994
  21
 501.93270666475
  31
0.0
  11
 641.02480102352
  21
 501.70643358050
  31
0.0
  11
 640.96774163968
  21
 501.50932198557
  31
0.0
  11
 640.84553077473
  21
 501.36335013573
  31
0.0
  11
 640.80985600954
  21
 501.34881286119
  31
0.0
   0
SPLINE
   5
16B
 100
AcDbEntity
   8
0
   6
CONTINUOUS
  62
7
 100
AcDbSpline
  70
8
  71
3
  72
16
  73
12
  74
10
  42
 0.10000000000000E-6
  43
 0.10000000000000E-6
  44
 0.10000000000000E-4
  40
0.0
  40
0.0
  40
0.0
  40
0.0
  40
 0.94983532714040E-1
  40
 0.22137631316101
  40
 0.34776909360793
  40
 0.46976014449871
  40
 0.59739851135895
  40
 0.72137631316102
  40
 0.84535411496308
  40
 0.97299248182331
  40
 1.0000000000000
  40
 1.0000000000000
  40
 1.0000000000000
  40
 1.0000000000000
  10
 639.90317433356
  20
 502.15547391608
  30
0.0
  10
 639.92357827803
  20
 502.16480597487
  30
0.0
  10
 639.97113336334
  20
 502.18655602680
  30
0.0
  10
 640.08190324640
  20
 502.12239434885
  30
0.0
  10
 640.20152817163
  20
 501.98464981797
  30
0.0
  10
 640.31045579819
  20
 501.78618296794
  30
0.0
  10
 640.36842853024
  20
 501.55431134568
  30
0.0
  10
 640.37598835581
  20
 501.31933138221
  30
0.0
  10
 640.31596756764
  20
 501.12138280589
  30
0.0
  10
 640.23140914101
  20
 500.99743472026
  30
0.0
  10
 640.16200967530
  20
 500.97222505173
  30
0.0
  10
 640.14988968044
  20
 500.96782240900
  30
0.0
  11
 639.90317433356
  21
 502.15547391608
  31
0.0
  11
 639.96861231073
  21
 502.17194725810
  31
0.0
  11
 640.08194586214
  21
 502.11082671492
  31
0.0
  11
 640.20103544774
  21
 501.97272413474
  31
0.0
  11
 640.30080073728
  21
 501.78362994301
  31
0.0
  11
 640.36025285084
  21
 501.55171621257
  31
0.0
  11
 640.36483469441
  21
 501.32544312832
  31
0.0
  11
 640.30777531057
  21
 501.12833153339
  31
0.0
  11
 640.18556444562
  21
 500.98235968355
  31
0.0
  11
 640.14988968044
  21
 500.96782240900
  31
0.0
   0
SPLINE
   5
16C
 100
AcDbEntity
   8
0
   6
CONTINUOUS
  62
7
 100
AcDbSpline
  70
8
  71
3
  72
16
  73
12
  74
10
  42
 0.10000000000000E-6
  43
 0.10000000000000E-6
  44
 0.10000000000000E-4
  40
0.0
  40
0.0
  40
0.0
  40
0.0
  40
 0.94983532714050E-1
  40
 0.22137631316100
  40
 0.34776909360793
  40
 0.46976014449870
  40
 0.59739851135893
  40
 0.72137631316101
  40
 0.84535411496307
  40
 0.97299248182330
  40
 1.0000000000000
  40
 1.0000000000000
  40
 1.0000000000000
  40
 1.0000000000000
  10
 639.24320800445
  20
 501.77448346389
  30
0.0
  10
 639.26361194893
  20
 501.78381552268
  30
0.0
  10
 639.31116703423
  20
 501.80556557462
  30
0.0
  10
 639.42193691729
  20
 501.74140389666
  30
0.0
  10
 639.54156184252
  20
 501.60365936578
  30
0.0
  10
 639.65048946908
  20
 501.40519251575
  30
0.0
  10
 639.70846220114
  20
 501.17332089350
  30
0.0
  10
 639.71602202670
  20
 500.93834093002
  30
0.0
  10
 639.65600123853
  20
 500.74039235371
  30
0.0
  10
 639.57144281191
  20
 500.61644426808
  30
0.0
  10
 639.50204334619
  20
 500.59123459955
  30
0.0
  10
 639.48992335133
  20
 500.58683195682
  30
0.0
  11
 639.24320800445
  21
 501.77448346389
  31
0.0
  11
 639.30864598162
  21
 501.79095680592
  31
0.0
  11
 639.42197953303
  21
 501.72983626273
  31
0.0
  11
 639.54106911863
  21
 501.59173368256
  31
0.0
  11
 639.64083440817
  21
 501.40263949082
  31
0.0
  11
 639.70028652173
  21
 501.17072576038
  31
0.0
  11
 639.70486836531
  21
 500.94445267614
  31
0.0
  11
 639.64780898146
  21
 500.74734108121
  31
0.0
  11
 639.52559811651
  21
 500.60136923136
  31
0.0
  11
 639.48992335133
  21
 500.58683195682
  31
0.0
   0
SPLINE
   5
16D
 100
AcDbEntity
   8
0
   6
CONTINUOUS
  62
7
 100
AcDbSpline
  70
8
  71
3
  72
16
  73
12
  74
10
  42
 0.10000000000000E-6
  43
 0.10000000000000E-6
  44
 0.10000000000000E-4
  40
0.0
  40
0.0
  40
0.0
  40
0.0
  40
 0.94983532714053E-1
  40
 0.22137631316100
  40
 0.34776909360793
  40
 0.46976014449870
  40
 0.59739851135894
  40
 0.72137631316102
  40
 0.84535411496308
  40
 0.97299248182331
  40
 1.0000000000000
  40
 1.0000000000000
  40
 1.0000000000000
  40
 1.0000000000000
  10
 638.58324167535
  20
 501.39349301171
  30
0.0
  10
 638.60364561982
  20
 501.40282507050
  30
0.0
  10
 638.65120070512
  20
 501.42457512243
  30
0.0
  10
 638.76197058818
  20
 501.36041344448
  30
0.0
  10
 638.88159551341
  20
 501.22266891360
  30
0.0
  10
 638.99052313997
  20
 501.02420206357
  30
0.0
  10
 639.04849587203
  20
 500.79233044131
  30
0.0
  10
 639.05605569759
  20
 500.55735047784
  30
0.0
  10
 638.99603490942
  20
 500.35940190152
  30
0.0
  10
 638.91147648280
  20
 500.23545381590
  30
0.0
  10
 638.84207701708
  20
 500.21024414736
  30
0.0
  10
 638.82995702222
  20
 500.20584150463
  30
0.0
  11
 638.58324167535
  21
 501.39349301171
  31
0.0
  11
 638.64867965251
  21
 501.40996635373
  31
0.0
  11
 638.76201320392
  21
 501.34884581055
  31
0.0
  11
 638.88110278952
  21
 501.21074323037
  31
0.0
  11
 638.98086807906
  21
 501.02164903864
  31
0.0
  11
 639.04032019262
  21
 500.78973530820
  31
0.0
  11
 639.04490203620
  21
 500.56346222395
  31
0.0
  11
 638.98784265235
  21
 500.36635062902
  31
0.0
  11
 638.86563178741
  21
 500.22037877918
  31
0.0
  11
 638.82995702222
  21
 500.20584150463
  31
0.0
   0
SPLINE
   5
16E
 100
AcDbEntity
   8
0
   6
CONTINUOUS
  62
7
 100
AcDbSpline
  70
8
  71
3
  72
16
  73
12
  74
10
  42
 0.10000000000000E-6
  43
 0.10000000000000E-6
  44
 0.10000000000000E-4
  40
0.0
  40
0.0
  40
0.0
  40
0.0
  40
 0.94983532714053E-1
  40
 0.22137631316100
  40
 0.34776909360793
  40
 0.46976014449870
  40
 0.59739851135894
  40
 0.72137631316102
  40
 0.84535411496308
  40
 0.97299248182331
  40
 1.0000000000000
  40
 1.0000000000000
  40
 1.0000000000000
  40
 1.0000000000000
  10
 637.92327534624
  20
 501.01250255953
  30
0.0
  10
 637.94367929071
  20
 501.02183461832
  30
0.0
  10
 637.99123437602
  20
 501.04358467025
  30
0.0
  10
 638.10200425908
  20
 500.97942299229
  30
0.0
  10
 638.22162918431
  20
 500.84167846141
  30
0.0
  10
 638.33055681086
  20
 500.64321161138
  30
0.0
  10
 638.38852954292
  20
 500.41133998913
  30
0.0
  10
 638.39608936848
  20
 500.17636002566
  30
0.0
  10
 638.33606858032
  20
 499.97841144934
  30
0.0
  10
 638.25151015369
  20
 499.85446336371
  30
0.0
  10
 638.18211068797
  20
 499.82925369518
  30
0.0
  10
 638.16999069311
  20
 499.82485105245
  30
0.0
  11
 637.92327534624
  21
 501.01250255953
  31
0.0
  11
 637.98871332340
  21
 501.02897590155
  31
0.0
  11
 638.10204687482
  21
 500.96785535837
  31
0.0
  11
 638.22113646041
  21
 500.82975277819
  31
0.0
  11
 638.32090174995
  21
 500.64065858646
  31
0.0
  11
 638.38035386351
  21
 500.40874485602
  31
0.0
  11
 638.38493570709
  21
 500.18247177177
  31
0.0
  11
 638.32787632325
  21
 499.98536017684
  31
0.0
  11
 638.20566545830
  21
 499.83938832700
  31
0.0
  11
 638.16999069311
  21
 499.82485105245
  31
0.0
   0
ARC
   5
16F
 100
AcDbEntity
   8
0
   6
CONTINUOUS
  62
7
 100
AcDbCircle
  10
 643.95110537652
  20
 503.84093791575
  30
0.0
  40
 0.77282314274284
 100
AcDbArc
  50
 342.51802812823
  51
 59.013745295483
   0
LINE
   5
170
 100
AcDbEntity
   8
0
 100
AcDbLine
   6
CONTINUOUS
  62
7
  10
 637.69494434121
  20
 508.24949518032
  30
0.0
  11
 637.81142302997
  21
 508.56515782594
  31
0.0
   0
SPLINE
   5
171
 100
AcDbEntity
   8
0
   6
CONTINUOUS
  62
7
 100
AcDbSpline
  70
8
  71
3
  72
13
  73
9
  74
7
  42
 0.10000000000000E-6
  43
 0.10000000000000E-6
  44
 0.10000000000000E-4
  40
0.0
  40
0.0
  40
0.0
  40
0.0
  40
 0.17429941906998
  40
 0.35343101408603
  40
 0.53256260910205
  40
 0.71661946696341
  40
 0.89306817145765
  40
 1.0000000000000
  40
 1.0000000000000
  40
 1.0000000000000
  40
 1.0000000000000
  10
 633.54065792723
  20
 505.32236848874
  30
0.0
  10
 633.49585870614
  20
 505.43346124245
  30
0.0
  10
 633.40501827636
  20
 505.65872662091
  30
0.0
  10
 633.19297423016
  20
 505.91590910460
  30
0.0
  10
 632.96907981843
  20
 506.07072446302
  30
0.0
  10
 632.78220294200
  20
 506.09235264688
  30
0.0
  10
 632.65389784352
  20
 506.00764045423
  30
0.0
  10
 632.64153702628
  20
 505.88891344249
  30
0.0
  10
 632.63687275109
  20
 505.84411256529
  30
0.0
  11
 633.54065792723
  21
 505.32236848874
  31
0.0
  11
 633.39412868765
  21
 505.64237031100
  31
0.0
  11
 633.19165872626
  21
 505.89822466066
  31
0.0
  11
 632.97699248140
  21
 506.04763800295
  31
0.0
  11
 632.78631671253
  21
 506.07186132083
  31
0.0
  11
 632.66018107029
  21
 505.96892238250
  31
0.0
  11
 632.63687275109
  21
 505.84411256529
  31
0.0
   0
SPLINE
   5
172
 100
AcDbEntity
   8
0
   6
CONTINUOUS
  62
7
 100
AcDbSpline
  70
8
  71
3
  72
21
  73
17
  74
15
  42
 0.10000000000000E-6
  43
 0.10000000000000E-6
  44
 0.10000000000000E-4
  40
0.0
  40
0.0
  40
0.0
  40
0.0
  40
 0.23484869093886E-1
  40
 0.10543302557759
  40
 0.18471413991276
  40
 0.26741371446676
  40
 0.34790029274012
  40
 0.42838687101347
  40
 0.51108644556747
  40
 0.59036755990264
  40
 0.67231571638635
  40
 0.75426387287004
  40
 0.83354498720521
  40
 0.91624456175921
  40
 0.99673114003257
  40
 1.0000000000000
  40
 1.0000000000000
  40
 1.0000000000000
  40
 1.0000000000000
  10
 634.22454407836
  20
 504.92756941722
  30
0.0
  10
 634.23740030285
  20
 504.95180653352
  30
0.0
  10
 634.29511706680
  20
 505.06061669943
  30
0.0
  10
 634.29665944356
  20
 505.33442749691
  30
0.0
  10
 634.22056310503
  20
 505.69294333816
  30
0.0
  10
 634.06492649564
  20
 506.03385164948
  30
0.0
  10
 633.85379955632
  20
 506.29736918312
  30
0.0
  10
 633.62950603455
  20
 506.45096399476
  30
0.0
  10
 633.43940095541
  20
 506.47589648680
  30
0.0
  10
 633.30339362577
  20
 506.36581381897
  30
0.0
  10
 633.26303512815
  20
 506.14937615319
  30
0.0
  10
 633.32569039014
  20
 505.85969711714
  30
0.0
  10
 633.48197131018
  20
 505.53607524406
  30
0.0
  10
 633.72578989980
  20
 505.25928487204
  30
0.0
  10
 633.92456834056
  20
 505.08311857727
  30
0.0
  10
 634.02703801726
  20
 505.04813986781
  30
0.0
  10
 634.03103726830
  20
 505.04677469672
  30
0.0
  11
 634.22454407836
  21
 504.92756941722
  31
0.0
  11
 634.26029274971
  21
 505.00263645898
  31
0.0
  11
 634.28334015001
  21
 505.33785645976
  31
0.0
  11
 634.20882709542
  21
 505.68544495010
  31
0.0
  11
 634.05409501676
  21
 506.02336076318
  31
0.0
  11
 633.85162505537
  21
 506.27921511285
  31
0.0
  11
 633.63695881051
  21
 506.42862845513
  31
0.0
  11
 633.44628304164
  21
 506.45285177301
  31
0.0
  11
 633.32014739940
  21
 506.34991283468
  31
0.0
  11
 633.28039238821
  21
 506.13703537934
  31
0.0
  11
 633.34233147311
  21
 505.85087703216
  31
0.0
  11
 633.49394037775
  21
 505.54779502870
  31
0.0
  11
 633.73592014210
  21
 505.26024623248
  31
0.0
  11
 634.01904324710
  21
 505.05095195156
  31
0.0
  11
 634.03103726830
  21
 505.04677469672
  31
0.0
   0
SPLINE
   5
173
 100
AcDbEntity
   8
0
   6
CONTINUOUS
  62
7
 100
AcDbSpline
  70
8
  71
3
  72
24
  73
20
  74
18
  42
 0.10000000000000E-6
  43
 0.10000000000000E-6
  44
 0.10000000000000E-4
  40
0.0
  40
0.0
  40
0.0
  40
0.0
  40
 0.15100045226115E-1
  40
 0.81838714776834E-1
  40
 0.14581868226474
  40
 0.21195095640703
  40
 0.27808323054933
  40
 0.34206319803724
  40
 0.40880186758796
  40
 0.47375464611944
  40
 0.53870742465093
  40
 0.60544609420165
  40
 0.66942606168956
  40
 0.73555833583185
  40
 0.80169060997415
  40
 0.86567057746205
  40
 0.93240924701277
  40
 0.99736202554426
  40
 1.0000000000000
  40
 1.0000000000000
  40
 1.0000000000000
  40
 1.0000000000000
  10
 634.24570758766
  20
 504.97200972721
  30
0.0
  10
 634.26868799091
  20
 504.96322783720
  30
0.0
  10
 634.39323640379
  20
 504.91563204653
  30
0.0
  10
 634.60017734071
  20
 504.95824946398
  30
0.0
  10
 634.81133370692
  20
 505.10351850528
  30
0.0
  10
 634.93758384497
  20
 505.37158307671
  30
0.0
  10
 634.96101307177
  20
 505.71112671007
  30
0.0
  10
 634.87931344697
  20
 506.07512315343
  30
0.0
  10
 634.72521457293
  20
 506.41452739817
  30
0.0
  10
 634.51368073234
  20
 506.67844292396
  30
0.0
  10
 634.28949591041
  20
 506.83193141575
  30
0.0
  10
 634.09936120261
  20
 506.85689288774
  30
0.0
  10
 633.96336161561
  20
 506.74680264677
  30
0.0
  10
 633.92300100559
  20
 506.53036704715
  30
0.0
  10
 633.98565683577
  20
 506.24068745535
  30
0.0
  10
 634.14193760686
  20
 505.91706572796
  30
0.0
  10
 634.38575623802
  20
 505.64027531532
  30
0.0
  10
 634.58453466960
  20
 505.46410902952
  30
0.0
  10
 634.68700434636
  20
 505.42913032000
  30
0.0
  10
 634.69100359741
  20
 505.42776514891
  30
0.0
  11
 634.24570758766
  21
 504.97200972721
  31
0.0
  11
 634.31436263557
  21
 504.94809867802
  31
0.0
  11
 634.59228609013
  21
 504.97424237700
  31
0.0
  11
 634.79551758241
  21
 505.12168780221
  31
0.0
  11
 634.92025907882
  21
 505.38362691116
  31
0.0
  11
 634.94330647912
  21
 505.71884691195
  31
0.0
  11
 634.86879342453
  21
 506.06643540228
  31
0.0
  11
 634.71406134587
  21
 506.40435121536
  31
0.0
  11
 634.51159138448
  21
 506.66020556503
  31
0.0
  11
 634.29692513961
  21
 506.80961890731
  31
0.0
  11
 634.10624937075
  21
 506.83384222520
  31
0.0
  11
 633.98011372851
  21
 506.73090328687
  31
0.0
  11
 633.94035871731
  21
 506.51802583152
  31
0.0
  11
 634.00229780222
  21
 506.23186748434
  31
0.0
  11
 634.15390670685
  21
 505.92878548089
  31
0.0
  11
 634.39588647120
  21
 505.64123668466
  31
0.0
  11
 634.67900957620
  21
 505.43194240374
  31
0.0
  11
 634.69100359741
  21
 505.42776514891
  31
0.0
   0
SPLINE
   5
174
 100
AcDbEntity
   8
0
   6
CONTINUOUS
  62
7
 100
AcDbSpline
  70
8
  71
3
  72
24
  73
20
  74
18
  42
 0.10000000000000E-6
  43
 0.10000000000000E-6
  44
 0.10000000000000E-4
  40
0.0
  40
0.0
  40
0.0
  40
0.0
  40
 0.15100045226115E-1
  40
 0.81838714776833E-1
  40
 0.14581868226473
  40
 0.21195095640703
  40
 0.27808323054933
  40
 0.34206319803724
  40
 0.40880186758795
  40
 0.47375464611944
  40
 0.53870742465093
  40
 0.60544609420165
  40
 0.66942606168955
  40
 0.73555833583185
  40
 0.80169060997415
  40
 0.86567057746205
  40
 0.93240924701277
  40
 0.99736202554425
  40
 1.0000000000000
  40
 1.0000000000000
  40
 1.0000000000000
  40
 1.0000000000000
  10
 634.90567391677
  20
 505.35300017939
  30
0.0
  10
 634.92865432002
  20
 505.34421828938
  30
0.0
  10
 635.05320273290
  20
 505.29662249872
  30
0.0
  10
 635.26014366982
  20
 505.33923991617
  30
0.0
  10
 635.47130003603
  20
 505.48450895747
  30
0.0
  10
 635.59755017408
  20
 505.75257352889
  30
0.0
  10
 635.62097940088
  20
 506.09211716226
  30
0.0
  10
 635.53927977607
  20
 506.45611360561
  30
0.0
  10
 635.38518090204
  20
 506.79551785036
  30
0.0
  10
 635.17364706145
  20
 507.05943337614
  30
0.0
  10
 634.94946223952
  20
 507.21292186794
  30
0.0
  10
 634.75932753172
  20
 507.23788333992
  30
0.0
  10
 634.62332794472
  20
 507.12779309896
  30
0.0
  10
 634.58296733470
  20
 506.91135749933
  30
0.0
  10
 634.64562316487
  20
 506.62167790753
  30
0.0
  10
 634.80190393597
  20
 506.29805618015
  30
0.0
  10
 635.04572256713
  20
 506.02126576750
  30
0.0
  10
 635.24450099871
  20
 505.84509948170
  30
0.0
  10
 635.34697067547
  20
 505.81012077218
  30
0.0
  10
 635.35096992652
  20
 505.80875560109
  30
0.0
  11
 634.90567391677
  21
 505.35300017939
  31
0.0
  11
 634.97432896468
  21
 505.32908913021
  31
0.0
  11
 635.25225241924
  21
 505.35523282918
  31
0.0
  11
 635.45548391152
  21
 505.50267825439
  31
0.0
  11
 635.58022540792
  21
 505.76461736334
  31
0.0
  11
 635.60327280823
  21
 506.09983736413
  31
0.0
  11
 635.52875975363
  21
 506.44742585447
  31
0.0
  11
 635.37402767498
  21
 506.78534166755
  31
0.0
  11
 635.17155771359
  21
 507.04119601722
  31
0.0
  11
 634.95689146872
  21
 507.19060935950
  31
0.0
  11
 634.76621569985
  21
 507.21483267738
  31
0.0
  11
 634.64008005761
  21
 507.11189373905
  31
0.0
  11
 634.60032504642
  21
 506.89901628371
  31
0.0
  11
 634.66226413132
  21
 506.61285793652
  31
0.0
  11
 634.81387303596
  21
 506.30977593307
  31
0.0
  11
 635.05585280031
  21
 506.02222713685
  31
0.0
  11
 635.33897590531
  21
 505.81293285593
  31
0.0
  11
 635.35096992652
  21
 505.80875560109
  31
0.0
   0
SPLINE
   5
175
 100
AcDbEntity
   8
0
   6
CONTINUOUS
  62
7
 100
AcDbSpline
  70
8
  71
3
  72
24
  73
20
  74
18
  42
 0.10000000000000E-6
  43
 0.10000000000000E-6
  44
 0.10000000000000E-4
  40
0.0
  40
0.0
  40
0.0
  40
0.0
  40
 0.15100045226120E-1
  40
 0.81838714776838E-1
  40
 0.14581868226474
  40
 0.21195095640704
  40
 0.27808323054934
  40
 0.34206319803724
  40
 0.40880186758796
  40
 0.47375464611944
  40
 0.53870742465093
  40
 0.60544609420165
  40
 0.66942606168956
  40
 0.73555833583185
  40
 0.80169060997415
  40
 0.86567057746205
  40
 0.93240924701277
  40
 0.99736202554425
  40
 1.0000000000000
  40
 1.0000000000000
  40
 1.0000000000000
  40
 1.0000000000000
  10
 635.56564024587
  20
 505.73399063157
  30
0.0
  10
 635.58862064913
  20
 505.72520874157
  30
0.0
  10
 635.71316906200
  20
 505.67761295090
  30
0.0
  10
 635.92010999893
  20
 505.72023036835
  30
0.0
  10
 636.13126636514
  20
 505.86549940965
  30
0.0
  10
 636.25751650319
  20
 506.13356398108
  30
0.0
  10
 636.28094572999
  20
 506.47310761444
  30
0.0
  10
 636.19924610518
  20
 506.83710405780
  30
0.0
  10
 636.04514723114
  20
 507.17650830254
  30
0.0
  10
 635.83361339056
  20
 507.44042382833
  30
0.0
  10
 635.60942856863
  20
 507.59391232012
  30
0.0
  10
 635.41929386082
  20
 507.61887379210
  30
0.0
  10
 635.28329427383
  20
 507.50878355114
  30
0.0
  10
 635.24293366380
  20
 507.29234795152
  30
0.0
  10
 635.30558949398
  20
 507.00266835972
  30
0.0
  10
 635.46187026507
  20
 506.67904663233
  30
0.0
  10
 635.70568889623
  20
 506.40225621968
  30
0.0
  10
 635.90446732782
  20
 506.22608993389
  30
0.0
  10
 636.00693700458
  20
 506.19111122437
  30
0.0
  10
 636.01093625562
  20
 506.18974605327
  30
0.0
  11
 635.56564024587
  21
 505.73399063157
  31
0.0
  11
 635.63429529379
  21
 505.71007958239
  31
0.0
  11
 635.91221874835
  21
 505.73622328137
  31
0.0
  11
 636.11545024063
  21
 505.88366870658
  31
0.0
  11
 636.24019173703
  21
 506.14560781553
  31
0.0
  11
 636.26323913734
  21
 506.48082781631
  31
0.0
  11
 636.18872608274
  21
 506.82841630665
  31
0.0
  11
 636.03399400408
  21
 507.16633211973
  31
0.0
  11
 635.83152404269
  21
 507.42218646940
  31
0.0
  11
 635.61685779783
  21
 507.57159981168
  31
0.0
  11
 635.42618202896
  21
 507.59582312956
  31
0.0
  11
 635.30004638672
  21
 507.49288419123
  31
0.0
  11
 635.26029137553
  21
 507.28000673589
  31
0.0
  11
 635.32223046043
  21
 506.99384838871
  31
0.0
  11
 635.47383936507
  21
 506.69076638526
  31
0.0
  11
 635.71581912942
  21
 506.40321758903
  31
0.0
  11
 635.99894223442
  21
 506.19392330811
  31
0.0
  11
 636.01093625562
  21
 506.18974605327
  31
0.0
   0
SPLINE
   5
176
 100
AcDbEntity
   8
0
   6
CONTINUOUS
  62
7
 100
AcDbSpline
  70
8
  71
3
  72
24
  73
20
  74
18
  42
 0.10000000000000E-6
  43
 0.10000000000000E-6
  44
 0.10000000000000E-4
  40
0.0
  40
0.0
  40
0.0
  40
0.0
  40
 0.15100045226110E-1
  40
 0.81838714776829E-1
  40
 0.14581868226473
  40
 0.21195095640703
  40
 0.27808323054933
  40
 0.34206319803723
  40
 0.40880186758795
  40
 0.47375464611944
  40
 0.53870742465092
  40
 0.60544609420165
  40
 0.66942606168955
  40
 0.73555833583185
  40
 0.80169060997415
  40
 0.86567057746205
  40
 0.93240924701277
  40
 0.99736202554425
  40
 1.0000000000000
  40
 1.0000000000000
  40
 1.0000000000000
  40
 1.0000000000000
  10
 636.22560657498
  20
 506.11498108376
  30
0.0
  10
 636.24858697823
  20
 506.10619919375
  30
0.0
  10
 636.37313539111
  20
 506.05860340308
  30
0.0
  10
 636.58007632804
  20
 506.10122082054
  30
0.0
  10
 636.79123269424
  20
 506.24648986184
  30
0.0
  10
 636.91748283229
  20
 506.51455443326
  30
0.0
  10
 636.94091205910
  20
 506.85409806662
  30
0.0
  10
 636.85921243429
  20
 507.21809450998
  30
0.0
  10
 636.70511356025
  20
 507.55749875473
  30
0.0
  10
 636.49357971966
  20
 507.82141428051
  30
0.0
  10
 636.26939489773
  20
 507.97490277230
  30
0.0
  10
 636.07926018993
  20
 507.99986424429
  30
0.0
  10
 635.94326060294
  20
 507.88977400333
  30
0.0
  10
 635.90289999291
  20
 507.67333840370
  30
0.0
  10
 635.96555582309
  20
 507.38365881190
  30
0.0
  10
 636.12183659418
  20
 507.06003708451
  30
0.0
  10
 636.36565522534
  20
 506.78324667187
  30
0.0
  10
 636.56443365693
  20
 506.60708038607
  30
0.0
  10
 636.66690333368
  20
 506.57210167655
  30
0.0
  10
 636.67090258473
  20
 506.57073650546
  30
0.0
  11
 636.22560657498
  21
 506.11498108376
  31
0.0
  11
 636.29426162289
  21
 506.09107003458
  31
0.0
  11
 636.57218507745
  21
 506.11721373355
  31
0.0
  11
 636.77541656973
  21
 506.26465915876
  31
0.0
  11
 636.90015806614
  21
 506.52659826771
  31
0.0
  11
 636.92320546644
  21
 506.86181826850
  31
0.0
  11
 636.84869241185
  21
 507.20940675883
  31
0.0
  11
 636.69396033319
  21
 507.54732257192
  31
0.0
  11
 636.49149037180
  21
 507.80317692158
  31
0.0
  11
 636.27682412694
  21
 507.95259026387
  31
0.0
  11
 636.08614835807
  21
 507.97681358175
  31
0.0
  11
 635.96001271583
  21
 507.87387464342
  31
0.0
  11
 635.92025770464
  21
 507.66099718807
  31
0.0
  11
 635.98219678954
  21
 507.37483884089
  31
0.0
  11
 636.13380569418
  21
 507.07175683744
  31
0.0
  11
 636.37578545853
  21
 506.78420804122
  31
0.0
  11
 636.65890856353
  21
 506.57491376029
  31
0.0
  11
 636.67090258473
  21
 506.57073650546
  31
0.0
   0
SPLINE
   5
177
 100
AcDbEntity
   8
0
   6
CONTINUOUS
  62
7
 100
AcDbSpline
  70
8
  71
3
  72
24
  73
20
  74
18
  42
 0.10000000000000E-6
  43
 0.10000000000000E-6
  44
 0.10000000000000E-4
  40
0.0
  40
0.0
  40
0.0
  40
0.0
  40
 0.15100045226120E-1
  40
 0.81838714776838E-1
  40
 0.14581868226474
  40
 0.21195095640703
  40
 0.27808323054934
  40
 0.34206319803724
  40
 0.40880186758796
  40
 0.47375464611944
  40
 0.53870742465093
  40
 0.60544609420166
  40
 0.66942606168956
  40
 0.73555833583186
  40
 0.80169060997415
  40
 0.86567057746205
  40
 0.93240924701277
  40
 0.99736202554425
  40
 1.0000000000000
  40
 1.0000000000000
  40
 1.0000000000000
  40
 1.0000000000000
  10
 636.88557290409
  20
 506.49597153594
  30
0.0
  10
 636.90855330734
  20
 506.48718964593
  30
0.0
  10
 637.03310172022
  20
 506.43959385527
  30
0.0
  10
 637.24004265714
  20
 506.48221127272
  30
0.0
  10
 637.45119902335
  20
 506.62748031402
  30
0.0
  10
 637.57744916140
  20
 506.89554488545
  30
0.0
  10
 637.60087838820
  20
 507.23508851881
  30
0.0
  10
 637.51917876340
  20
 507.59908496216
  30
0.0
  10
 637.36507988936
  20
 507.93848920691
  30
0.0
  10
 637.15354604877
  20
 508.20240473269
  30
0.0
  10
 636.92936122684
  20
 508.35589322449
  30
0.0
  10
 636.73922651904
  20
 508.38085469647
  30
0.0
  10
 636.60322693204
  20
 508.27076445551
  30
0.0
  10
 636.56286632202
  20
 508.05432885589
  30
0.0
  10
 636.62552215220
  20
 507.76464926409
  30
0.0
  10
 636.78180292329
  20
 507.44102753670
  30
0.0
  10
 637.02562155445
  20
 507.16423712405
  30
0.0
  10
 637.22439998603
  20
 506.98807083826
  30
0.0
  10
 637.32686966279
  20
 506.95309212874
  30
0.0
  10
 637.33086891384
  20
 506.95172695764
  30
0.0
  11
 636.88557290409
  21
 506.49597153594
  31
0.0
  11
 636.95422795200
  21
 506.47206048676
  31
0.0
  11
 637.23215140656
  21
 506.49820418574
  31
0.0
  11
 637.43538289884
  21
 506.64564961095
  31
0.0
  11
 637.56012439525
  21
 506.90758871990
  31
0.0
  11
 637.58317179555
  21
 507.24280872068
  31
0.0
  11
 637.50865874096
  21
 507.59039721102
  31
0.0
  11
 637.35392666230
  21
 507.92831302410
  31
0.0
  11
 637.15145670091
  21
 508.18416737377
  31
0.0
  11
 636.93679045604
  21
 508.33358071605
  31
0.0
  11
 636.74611468718
  21
 508.35780403393
  31
0.0
  11
 636.61997904494
  21
 508.25486509560
  31
0.0
  11
 636.58022403374
  21
 508.04198764026
  31
0.0
  11
 636.64216311865
  21
 507.75582929308
  31
0.0
  11
 636.79377202328
  21
 507.45274728962
  31
0.0
  11
 637.03575178763
  21
 507.16519849340
  31
0.0
  11
 637.31887489263
  21
 506.95590421248
  31
0.0
  11
 637.33086891384
  21
 506.95172695764
  31
0.0
   0
SPLINE
   5
178
 100
AcDbEntity
   8
0
   6
CONTINUOUS
  62
7
 100
AcDbSpline
  70
8
  71
3
  72
15
  73
11
  74
9
  42
 0.10000000000000E-6
  43
 0.10000000000000E-6
  44
 0.10000000000000E-4
  40
0.0
  40
0.0
  40
0.0
  40
0.0
  40
 0.31873133804186E-1
  40
 0.17274493336833
  40
 0.30779367222918
  40
 0.44738549403819
  40
 0.58697731584721
  40
 0.72202605470807
  40
 0.86289785427239
  40
 1.0000000000000
  40
 1.0000000000000
  40
 1.0000000000000
  40
 1.0000000000000
  10
 637.54553923320
  20
 506.87696198813
  30
0.0
  10
 637.56851964229
  20
 506.86818014914
  30
0.0
  10
 637.69306808685
  20
 506.82058463498
  30
0.0
  10
 637.90000816249
  20
 506.86319453455
  30
0.0
  10
 638.11116821917
  20
 507.00849578897
  30
0.0
  10
 638.23740440620
  20
 507.27643858564
  30
0.0
  10
 638.26088546636
  20
 507.61643465853
  30
0.0
  10
 638.17899586425
  20
 507.97877284082
  30
0.0
  10
 638.02562397043
  20
 508.32452270150
  30
0.0
  10
 637.88217489740
  20
 508.48567458754
  30
0.0
  10
 637.81142303002
  20
 508.56515782595
  30
0.0
  11
 637.54553923320
  21
 506.87696198813
  31
0.0
  11
 637.61419428111
  21
 506.85305093894
  31
0.0
  11
 637.89211773567
  21
 506.87919463792
  31
0.0
  11
 638.09534922795
  21
 507.02664006313
  31
0.0
  11
 638.22009072435
  21
 507.28857917208
  31
0.0
  11
 638.24313812466
  21
 507.62379917287
  31
0.0
  11
 638.16862507006
  21
 507.97138766320
  31
0.0
  11
 638.01389299141
  21
 508.30930347628
  31
0.0
  11
 637.81142303002
  21
 508.56515782595
  31
0.0
   0
SPLINE
   5
179
 100
AcDbEntity
   8
0
   6
CONTINUOUS
  62
7
 100
AcDbSpline
  70
8
  71
3
  72
13
  73
9
  74
7
  42
 0.10000000000000E-6
  43
 0.10000000000000E-6
  44
 0.10000000000000E-4
  40
0.0
  40
0.0
  40
0.0
  40
0.0
  40
 0.17442620448586
  40
 0.35400251213607
  40
 0.52563352735674
  40
 0.70345740104483
  40
 0.88128127473287
  40
 1.0000000000000
  40
 1.0000000000000
  40
 1.0000000000000
  40
 1.0000000000000
  10
 637.69494434116
  20
 508.24949518025
  30
0.0
  10
 637.73425125232
  20
 508.19690069516
  30
0.0
  10
 637.81402564937
  20
 508.09015882169
  30
0.0
  10
 637.89272643187
  20
 507.86527312940
  30
0.0
  10
 637.93044149152
  20
 507.62937615692
  30
0.0
  10
 637.89815749944
  20
 507.40983382276
  30
0.0
  10
 637.81753374251
  20
 507.24477059974
  30
0.0
  10
 637.73126774269
  20
 507.19386766851
  30
0.0
  10
 637.69673176179
  20
 507.17348904118
  30
0.0
  11
 637.69494434116
  21
 508.24949518025
  31
0.0
  11
 637.80636560261
  21
 508.08085619882
  31
0.0
  11
 637.88671421070
  21
 507.86021499998
  31
0.0
  11
 637.91882939794
  21
 507.63462722723
  31
0.0
  11
 637.88848980677
  21
 507.41591566669
  31
0.0
  11
 637.79459140554
  21
 507.24300466355
  31
0.0
  11
 637.69673176179
  21
 507.17348904118
  31
0.0
   0
SPLINE
   5
17A
 100
AcDbEntity
   8
0
   6
CONTINUOUS
  62
7
 100
AcDbSpline
  70
8
  71
3
  72
16
  73
12
  74
10
  42
 0.10000000000000E-6
  43
 0.10000000000000E-6
  44
 0.10000000000000E-4
  40
0.0
  40
0.0
  40
0.0
  40
0.0
  40
 0.37608737838977E-1
  40
 0.16524710469919
  40
 0.28922490650126
  40
 0.41320270830333
  40
 0.54084107516356
  40
 0.66283212605432
  40
 0.78922490650128
  40
 0.91561768694821
  40
 1.0000000000000
  40
 1.0000000000000
  40
 1.0000000000000
  40
 1.0000000000000
  10
 636.79327310156
  20
 507.97793968198
  30
0.0
  10
 636.79951427235
  20
 507.98451097682
  30
0.0
  10
 636.82693703268
  20
 508.01338425224
  30
0.0
  10
 636.91291572884
  20
 507.98106280633
  30
0.0
  10
 637.03576623468
  20
 507.88087373436
  30
0.0
  10
 637.15384085871
  20
 507.70574021078
  30
0.0
  10
 637.23281638296
  20
 507.48516584147
  30
0.0
  10
 637.27045976602
  20
 507.24814410031
  30
0.0
  10
 637.23819539360
  20
 507.02890964330
  30
0.0
  10
 637.15756675535
  20
 506.86376982120
  30
0.0
  10
 637.07130122545
  20
 506.81287426413
  30
0.0
  10
 637.03676543268
  20
 506.79249858900
  30
0.0
  11
 636.79327310156
  21
 507.97793968198
  31
0.0
  11
 636.81312065897
  21
 507.99520146922
  31
0.0
  11
 636.91593407344
  21
 507.97061807989
  31
0.0
  11
 637.03497801206
  21
 507.86850472807
  31
0.0
  11
 637.14639927350
  21
 507.69986574664
  31
0.0
  11
 637.22674788159
  21
 507.47922454780
  31
0.0
  11
 637.25886306883
  21
 507.25363677505
  31
0.0
  11
 637.22852347766
  21
 507.03492521451
  31
0.0
  11
 637.13462507643
  21
 506.86201421136
  31
0.0
  11
 637.03676543268
  21
 506.79249858900
  31
0.0
   0
SPLINE
   5
17B
 100
AcDbEntity
   8
0
   6
CONTINUOUS
  62
7
 100
AcDbSpline
  70
8
  71
3
  72
16
  73
12
  74
10
  42
 0.10000000000000E-6
  43
 0.10000000000000E-6
  44
 0.10000000000000E-4
  40
0.0
  40
0.0
  40
0.0
  40
0.0
  40
 0.37608737838979E-1
  40
 0.16524710469920
  40
 0.28922490650126
  40
 0.41320270830333
  40
 0.54084107516356
  40
 0.66283212605432
  40
 0.78922490650128
  40
 0.91561768694821
  40
 1.0000000000000
  40
 1.0000000000000
  40
 1.0000000000000
  40
 1.0000000000000
  10
 636.13330677245
  20
 507.59694922980
  30
0.0
  10
 636.13954794325
  20
 507.60352052463
  30
0.0
  10
 636.16697070357
  20
 507.63239380006
  30
0.0
  10
 636.25294939973
  20
 507.60007235414
  30
0.0
  10
 636.37579990557
  20
 507.49988328218
  30
0.0
  10
 636.49387452961
  20
 507.32474975859
  30
0.0
  10
 636.57285005385
  20
 507.10417538929
  30
0.0
  10
 636.61049343691
  20
 506.86715364812
  30
0.0
  10
 636.57822906449
  20
 506.64791919111
  30
0.0
  10
 636.49760042624
  20
 506.48277936902
  30
0.0
  10
 636.41133489634
  20
 506.43188381194
  30
0.0
  10
 636.37679910358
  20
 506.41150813682
  30
0.0
  11
 636.13330677245
  21
 507.59694922980
  31
0.0
  11
 636.15315432986
  21
 507.61421101704
  31
0.0
  11
 636.25596774434
  21
 507.58962762770
  31
0.0
  11
 636.37501168295
  21
 507.48751427589
  31
0.0
  11
 636.48643294439
  21
 507.31887529445
  31
0.0
  11
 636.56678155249
  21
 507.09823409562
  31
0.0
  11
 636.59889673972
  21
 506.87264632287
  31
0.0
  11
 636.56855714856
  21
 506.65393476232
  31
0.0
  11
 636.47465874733
  21
 506.48102375918
  31
0.0
  11
 636.37679910358
  21
 506.41150813682
  31
0.0
   0
SPLINE
   5
17C
 100
AcDbEntity
   8
0
   6
CONTINUOUS
  62
7
 100
AcDbSpline
  70
8
  71
3
  72
16
  73
12
  74
10
  42
 0.10000000000000E-6
  43
 0.10000000000000E-6
  44
 0.10000000000000E-4
  40
0.0
  40
0.0
  40
0.0
  40
0.0
  40
 0.37608737838978E-1
  40
 0.16524710469920
  40
 0.28922490650126
  40
 0.41320270830333
  40
 0.54084107516356
  40
 0.66283212605432
  40
 0.78922490650128
  40
 0.91561768694821
  40
 1.0000000000000
  40
 1.0000000000000
  40
 1.0000000000000
  40
 1.0000000000000
  10
 635.47334044335
  20
 507.21595877761
  30
0.0
  10
 635.47958161414
  20
 507.22253007245
  30
0.0
  10
 635.50700437446
  20
 507.25140334787
  30
0.0
  10
 635.59298307062
  20
 507.21908190196
  30
0.0
  10
 635.71583357646
  20
 507.11889283000
  30
0.0
  10
 635.83390820050
  20
 506.94375930641
  30
0.0
  10
 635.91288372474
  20
 506.72318493710
  30
0.0
  10
 635.95052710780
  20
 506.48616319594
  30
0.0
  10
 635.91826273538
  20
 506.26692873893
  30
0.0
  10
 635.83763409713
  20
 506.10178891684
  30
0.0
  10
 635.75136856723
  20
 506.05089335976
  30
0.0
  10
 635.71683277447
  20
 506.03051768463
  30
0.0
  11
 635.47334044335
  21
 507.21595877761
  31
0.0
  11
 635.49318800075
  21
 507.23322056486
  31
0.0
  11
 635.59600141523
  21
 507.20863717552
  31
0.0
  11
 635.71504535384
  21
 507.10652382370
  31
0.0
  11
 635.82646661528
  21
 506.93788484227
  31
0.0
  11
 635.90681522338
  21
 506.71724364343
  31
0.0
  11
 635.93893041062
  21
 506.49165587068
  31
0.0
  11
 635.90859081945
  21
 506.27294431014
  31
0.0
  11
 635.81469241822
  21
 506.10003330700
  31
0.0
  11
 635.71683277447
  21
 506.03051768463
  31
0.0
   0
SPLINE
   5
17D
 100
AcDbEntity
   8
0
   6
CONTINUOUS
  62
7
 100
AcDbSpline
  70
8
  71
3
  72
16
  73
12
  74
10
  42
 0.10000000000000E-6
  43
 0.10000000000000E-6
  44
 0.10000000000000E-4
  40
0.0
  40
0.0
  40
0.0
  40
0.0
  40
 0.37608737838979E-1
  40
 0.16524710469920
  40
 0.28922490650126
  40
 0.41320270830333
  40
 0.54084107516356
  40
 0.66283212605432
  40
 0.78922490650128
  40
 0.91561768694820
  40
 1.0000000000000
  40
 1.0000000000000
  40
 1.0000000000000
  40
 1.0000000000000
  10
 634.81337411424
  20
 506.83496832543
  30
0.0
  10
 634.81961528503
  20
 506.84153962026
  30
0.0
  10
 634.84703804535
  20
 506.87041289569
  30
0.0
  10
 634.93301674151
  20
 506.83809144978
  30
0.0
  10
 635.05586724736
  20
 506.73790237781
  30
0.0
  10
 635.17394187139
  20
 506.56276885423
  30
0.0
  10
 635.25291739563
  20
 506.34219448492
  30
0.0
  10
 635.29056077870
  20
 506.10517274376
  30
0.0
  10
 635.25829640628
  20
 505.88593828674
  30
0.0
  10
 635.17766776802
  20
 505.72079846465
  30
0.0
  10
 635.09140223813
  20
 505.66990290758
  30
0.0
  10
 635.05686644536
  20
 505.64952723245
  30
0.0
  11
 634.81337411424
  21
 506.83496832543
  31
0.0
  11
 634.83322167165
  21
 506.85223011267
  31
0.0
  11
 634.93603508612
  21
 506.82764672334
  31
0.0
  11
 635.05507902473
  21
 506.72553337152
  31
0.0
  11
 635.16650028618
  21
 506.55689439009
  31
0.0
  11
 635.24684889427
  21
 506.33625319125
  31
0.0
  11
 635.27896408151
  21
 506.11066541850
  31
0.0
  11
 635.24862449034
  21
 505.89195385796
  31
0.0
  11
 635.15472608911
  21
 505.71904285481
  31
0.0
  11
 635.05686644536
  21
 505.64952723245
  31
0.0
   0
SPLINE
   5
17E
 100
AcDbEntity
   8
0
   6
CONTINUOUS
  62
7
 100
AcDbSpline
  70
8
  71
3
  72
16
  73
12
  74
10
  42
 0.10000000000000E-6
  43
 0.10000000000000E-6
  44
 0.10000000000000E-4
  40
0.0
  40
0.0
  40
0.0
  40
0.0
  40
 0.37608737838977E-1
  40
 0.16524710469919
  40
 0.28922490650126
  40
 0.41320270830333
  40
 0.54084107516356
  40
 0.66283212605432
  40
 0.78922490650128
  40
 0.91561768694820
  40
 1.0000000000000
  40
 1.0000000000000
  40
 1.0000000000000
  40
 1.0000000000000
  10
 634.15340778513
  20
 506.45397787324
  30
0.0
  10
 634.15964895592
  20
 506.46054916808
  30
0.0
  10
 634.18707171625
  20
 506.48942244351
  30
0.0
  10
 634.27305041241
  20
 506.45710099759
  30
0.0
  10
 634.39590091825
  20
 506.35691192563
  30
0.0
  10
 634.51397554229
  20
 506.18177840204
  30
0.0
  10
 634.59295106653
  20
 505.96120403273
  30
0.0
  10
 634.63059444959
  20
 505.72418229157
  30
0.0
  10
 634.59833007717
  20
 505.50494783456
  30
0.0
  10
 634.51770143892
  20
 505.33980801247
  30
0.0
  10
 634.43143590902
  20
 505.28891245539
  30
0.0
  10
 634.39690011625
  20
 505.26853678026
  30
0.0
  11
 634.15340778513
  21
 506.45397787324
  31
0.0
  11
 634.17325534254
  21
 506.47123966049
  31
0.0
  11
 634.27606875701
  21
 506.44665627115
  31
0.0
  11
 634.39511269563
  21
 506.34454291934
  31
0.0
  11
 634.50653395707
  21
 506.17590393790
  31
0.0
  11
 634.58688256516
  21
 505.95526273906
  31
0.0
  11
 634.61899775240
  21
 505.72967496632
  31
0.0
  11
 634.58865816123
  21
 505.51096340577
  31
0.0
  11
 634.49475976000
  21
 505.33805240263
  31
0.0
  11
 634.39690011625
  21
 505.26853678026
  31
0.0
   0
SPLINE
   5
17F
 100
AcDbEntity
   8
0
   6
CONTINUOUS
  62
7
 100
AcDbSpline
  70
8
  71
3
  72
15
  73
11
  74
9
  42
 0.10000000000000E-6
  43
 0.10000000000000E-6
  44
 0.10000000000000E-4
  40
0.0
  40
0.0
  40
0.0
  40
0.0
  40
 0.46613711007284E-1
  40
 0.20481359454865
  40
 0.35847643346824
  40
 0.51213927238784
  40
 0.67033915592923
  40
 0.82153953962845
  40
 0.97819559563296
  40
 1.0000000000000
  40
 1.0000000000000
  40
 1.0000000000000
  40
 1.0000000000000
  10
 633.49344145602
  20
 506.07298742106
  30
0.0
  10
 633.49968286538
  20
 506.07955848032
  30
0.0
  10
 633.52710667393
  20
 506.10843072064
  30
0.0
  10
 633.61306302104
  20
 506.07613134401
  30
0.0
  10
 633.73600832462
  20
 505.97584866100
  30
0.0
  10
 633.85373097931
  20
 505.80106270075
  30
0.0
  10
 633.93403708858
  20
 505.57917440292
  30
0.0
  10
 633.96684049782
  20
 505.34693204787
  30
0.0
  10
 633.95708191303
  20
 505.17836838149
  30
0.0
  10
 633.92013646162
  20
 505.11379561868
  30
0.0
  10
 633.91562244456
  20
 505.10590608041
  30
0.0
  11
 633.49344145602
  21
 506.07298742106
  31
0.0
  11
 633.51328901343
  21
 506.09024920830
  31
0.0
  11
 633.61610242791
  21
 506.06566581897
  31
0.0
  11
 633.73514636652
  21
 505.96355246715
  31
0.0
  11
 633.84656762796
  21
 505.79491348572
  31
0.0
  11
 633.92691623606
  21
 505.57427228688
  31
0.0
  11
 633.95903142329
  21
 505.34868451413
  31
0.0
  11
 633.92869183213
  21
 505.12997295359
  31
0.0
  11
 633.91562244456
  21
 505.10590608041
  31
0.0
   0
SPLINE
   5
180
 100
AcDbEntity
   8
0
   6
CONTINUOUS
  62
7
 100
AcDbSpline
  70
8
  71
3
  72
10
  73
6
  74
4
  42
 0.10000000000000E-6
  43
 0.10000000000000E-6
  44
 0.10000000000000E-4
  40
0.0
  40
0.0
  40
0.0
  40
0.0
  40
 0.14600434031994
  40
 0.64152098415761
  40
 1.0000000000000
  40
 1.0000000000000
  40
 1.0000000000000
  40
 1.0000000000000
  10
 632.83347512692
  20
 505.69199696888
  30
0.0
  10
 632.83971682860
  20
 505.69850359467
  30
0.0
  10
 632.86714192159
  20
 505.72709272410
  30
0.0
  10
 632.94367106762
  20
 505.70370245596
  30
0.0
  10
 633.01490079117
  20
 505.63673254043
  30
0.0
  10
 633.04480066350
  20
 505.60862079404
  30
0.0
  11
 632.83347512692
  21
 505.69199696888
  31
0.0
  11
 632.85332268432
  21
 505.70925875612
  31
0.0
  11
 632.95613609880
  21
 505.68467536678
  31
0.0
  11
 633.04480066350
  21
 505.60862079404
  31
0.0
   0
ARC
   5
181
 100
AcDbEntity
   8
0
   6
CONTINUOUS
  62
7
 100
AcDbCircle
  10
 637.55480408003
  20
 508.10441478868
  30
0.0
  40
 0.28110969553968
 100
AcDbArc
  50
 52.945798583727
  51
 115.75962261329
   0
LINE
   5
182
 100
AcDbEntity
   8
0
 100
AcDbLine
   6
CONTINUOUS
  62
7
  10
 625.69887139767
  20
 483.80765898798
  30
0.0
  11
 625.37229776539
  21
 483.99045792556
  31
0.0
   0
LINE
   5
183
 100
AcDbEntity
   8
0
 100
AcDbLine
   6
CONTINUOUS
  62
7
  10
 625.37229776539
  20
 483.99045792556
  30
0.0
  11
 624.97107845795
  21
 484.01465060400
  31
0.0
   0
LINE
   5
184
 100
AcDbEntity
   8
0
 100
AcDbLine
   6
CONTINUOUS
  62
7
  10
 624.97107845795
  20
 484.01465060400
  30
0.0
  11
 624.52497007607
  21
 483.87844276314
  31
0.0
   0
SPLINE
   5
185
 100
AcDbEntity
   8
0
   6
CONTINUOUS
  62
7
 100
AcDbSpline
  70
8
  71
3
  72
12
  73
8
  74
6
  42
 0.10000000000000E-6
  43
 0.10000000000000E-6
  44
 0.10000000000000E-4
  40
0.0
  40
0.0
  40
0.0
  40
0.0
  40
 0.24084883491911
  40
 0.48208589593654
  40
 0.71110331150770
  40
 0.91994608783065
  40
 1.0000000000000
  40
 1.0000000000000
  40
 1.0000000000000
  40
 1.0000000000000
  10
 637.73014054360
  20
 502.07111577405
  30
0.0
  10
 637.72179920747
  20
 502.17650050405
  30
0.0
  10
 637.70510308974
  20
 502.38743983451
  30
0.0
  10
 637.57363537379
  20
 502.72776216790
  30
0.0
  10
 637.38406132750
  20
 503.02296064446
  30
0.0
  10
 637.20300785929
  20
 503.20142912774
  30
0.0
  10
 637.09899610261
  20
 503.26672772154
  30
0.0
  10
 637.07017421449
  20
 503.28482210650
  30
0.0
  11
 637.73014054360
  21
 502.07111577405
  31
0.0
  11
 637.68703788776
  21
 502.39220676309
  31
0.0
  11
 637.55970912237
  21
 502.72817864887
  31
0.0
  11
 637.36999348614
  21
 503.02093761055
  31
0.0
  11
 637.15640808886
  21
 503.22790884592
  31
0.0
  11
 637.07017421449
  21
 503.28482210650
  31
0.0
   0
LINE
   5
186
 100
AcDbEntity
   8
0
 100
AcDbLine
   6
CONTINUOUS
  62
7
  10
 626.51071294875
  20
 509.38066934150
  30
0.0
  11
 637.07017421453
  21
 503.28482210654
  31
0.0
   0
LINE
   5
187
 100
AcDbEntity
   8
0
 100
AcDbLine
   6
CONTINUOUS
  62
7
  10
 637.73014054365
  20
 492.27005991636
  30
0.0
  11
 637.73014054365
  21
 502.07111577410
  31
0.0
   0
LINE
   5
188
 100
AcDbEntity
   8
0
 100
AcDbLine
   6
CONTINUOUS
  62
7
  10
 624.40753106613
  20
 483.94828119124
  30
0.0
  11
 624.89871840249
  21
 484.19615209060
  31
0.0
   0
LINE
   5
189
 100
AcDbEntity
   8
0
 100
AcDbLine
   6
CONTINUOUS
  62
7
  10
 624.89871840249
  20
 484.19615209060
  30
0.0
  11
 625.36678894977
  21
 484.29074092858
  31
0.0
   0
LINE
   5
18A
 100
AcDbEntity
   8
0
 100
AcDbLine
   6
CONTINUOUS
  62
7
  10
 625.36678894977
  20
 484.29074092858
  30
0.0
  11
 625.78233211403
  21
 484.22610434076
  31
0.0
   0
LINE
   5
18B
 100
AcDbEntity
   8
0
 100
AcDbLine
   6
CONTINUOUS
  62
7
  10
 625.78233211403
  20
 484.22610434076
  30
0.0
  11
 626.11923778999
  21
 484.00630368164
  31
0.0
   0
SPLINE
   5
18C
 100
AcDbEntity
   8
0
   6
CONTINUOUS
  62
7
 100
AcDbSpline
  70
8
  71
3
  72
10
  73
6
  74
4
  42
 0.10000000000000E-6
  43
 0.10000000000000E-6
  44
 0.10000000000000E-4
  40
0.0
  40
0.0
  40
0.0
  40
0.0
  40
 0.33476778421129
  40
 0.66911190614477
  40
 1.0000000000000
  40
 1.0000000000000
  40
 1.0000000000000
  40
 1.0000000000000
  10
 626.51071294878
  20
 509.38066934144
  30
0.0
  10
 626.44129418171
  20
 509.41242524335
  30
0.0
  10
 626.30254449985
  20
 509.47589685879
  30
0.0
  10
 626.11562125883
  20
 509.46268556036
  30
0.0
  10
 626.02838822975
  20
 509.38896169226
  30
0.0
  10
 625.98499831262
  20
 509.35229126408
  30
0.0
  11
 626.51071294878
  21
 509.38066934144
  31
0.0
  11
 626.30588025786
  21
 509.45783628405
  31
0.0
  11
 626.12435048904
  21
 509.44623696532
  31
0.0
  11
 625.98499831262
  21
 509.35229126408
  31
0.0
   0
SPLINE
   5
18D
 100
AcDbEntity
   8
0
   6
CONTINUOUS
  62
7
 100
AcDbSpline
  70
8
  71
3
  72
11
  73
7
  74
5
  42
 0.10000000000000E-6
  43
 0.10000000000000E-6
  44
 0.10000000000000E-4
  40
0.0
  40
0.0
  40
0.0
  40
0.0
  40
 0.11422446846983
  40
 0.35717337092422
  40
 0.60663438027667
  40
 1.0000000000000
  40
 1.0000000000000
  40
 1.0000000000000
  40
 1.0000000000000
  10
 637.58298597190
  20
 491.85710616782
  30
0.0
  10
 637.59411647856
  20
 491.86654895534
  30
0.0
  10
 637.62892093542
  20
 491.89607601110
  30
0.0
  10
 637.67153685993
  20
 491.96883868341
  30
0.0
  10
 637.71892017630
  20
 492.09079774190
  30
0.0
  10
 637.72588099935
  20
 492.20200731665
  30
0.0
  10
 637.73014054360
  20
 492.27005991639
  30
0.0
  11
 637.58298597190
  21
 491.85710616782
  31
0.0
  11
 637.61538410489
  21
 491.88679619578
  31
0.0
  11
 637.66907085757
  21
 491.97018420739
  31
0.0
  11
 637.70709187306
  21
 492.07440281104
  31
0.0
  11
 637.73014054360
  21
 492.27005991639
  31
0.0
   0
LINE
   5
18E
 100
AcDbEntity
   8
0
 100
AcDbLine
   6
CONTINUOUS
  62
7
  10
 769.42978134855
  20
 430.81462501242
  30
0.0
  11
 769.55052745011
  21
 430.88433025320
  31
0.0
   0
LINE
   5
18F
 100
AcDbEntity
   8
0
 100
AcDbLine
   6
CONTINUOUS
  62
7
  10
 768.76981501943
  20
 430.43363456020
  30
0.0
  11
 768.89056112113
  21
 430.50333980112
  31
0.0
   0
LINE
   5
190
 100
AcDbEntity
   8
0
 100
AcDbLine
   6
CONTINUOUS
  62
7
  10
 768.10984869031
  20
 430.05264410812
  30
0.0
  11
 768.23059479201
  21
 430.12234934890
  31
0.0
   0
LINE
   5
191
 100
AcDbEntity
   8
0
 100
AcDbLine
   6
CONTINUOUS
  62
7
  10
 767.44988236119
  20
 429.67165365590
  30
0.0
  11
 767.57062846289
  21
 429.74135889668
  31
0.0
   0
LINE
   5
192
 100
AcDbEntity
   8
0
 100
AcDbLine
   6
CONTINUOUS
  62
7
  10
 766.78991603207
  20
 429.29066320368
  30
0.0
  11
 766.91066213377
  21
 429.36036844446
  31
0.0
   0
LINE
   5
193
 100
AcDbEntity
   8
0
 100
AcDbLine
   6
CONTINUOUS
  62
7
  10
 766.12994970295
  20
 428.90967275160
  30
0.0
  11
 766.25069580465
  21
 428.97937799238
  31
0.0
   0
LINE
   5
194
 100
AcDbEntity
   8
0
 100
AcDbLine
   6
CONTINUOUS
  62
7
  10
 765.33742671267
  20
 429.79927310562
  30
0.0
  11
 765.02384512631
  21
 429.61824630918
  31
0.0
   0
LINE
   5
195
 100
AcDbEntity
   8
0
 100
AcDbLine
   6
CONTINUOUS
  62
7
  10
 765.99739304179
  20
 430.18026355784
  30
0.0
  11
 765.68381145543
  21
 429.99923676126
  31
0.0
   0
LINE
   5
196
 100
AcDbEntity
   8
0
 100
AcDbLine
   6
CONTINUOUS
  62
7
  10
 766.65735937091
  20
 430.56125401006
  30
0.0
  11
 766.34377778455
  21
 430.38022721348
  31
0.0
   0
LINE
   5
197
 100
AcDbEntity
   8
0
 100
AcDbLine
   6
CONTINUOUS
  62
7
  10
 767.31732570003
  20
 430.94224446228
  30
0.0
  11
 767.00374411367
  21
 430.76121766570
  31
0.0
   0
LINE
   5
198
 100
AcDbEntity
   8
0
 100
AcDbLine
   6
CONTINUOUS
  62
7
  10
 767.97729202915
  20
 431.32323491436
  30
0.0
  11
 767.66371044279
  21
 431.14220811792
  31
0.0
   0
LINE
   5
199
 100
AcDbEntity
   8
0
 100
AcDbLine
   6
CONTINUOUS
  62
7
  10
 768.63725835827
  20
 431.70422536658
  30
0.0
  11
 768.32367677191
  21
 431.52319857000
  31
0.0
   0
LINE
   5
19A
 100
AcDbEntity
   8
0
 100
AcDbLine
   6
CONTINUOUS
  62
7
  10
 769.29722468739
  20
 432.08521581880
  30
0.0
  11
 768.98364310103
  21
 431.90418902222
  31
0.0
   0
SPLINE
   5
19B
 100
AcDbEntity
   8
0
   6
CONTINUOUS
  62
7
 100
AcDbSpline
  70
8
  71
3
  72
10
  73
6
  74
4
  42
 0.10000000000000E-6
  43
 0.10000000000000E-6
  44
 0.10000000000000E-4
  40
0.0
  40
0.0
  40
0.0
  40
0.0
  40
 0.27457210801373
  40
 0.54914421602745
  40
 1.0000000000000
  40
 1.0000000000000
  40
 1.0000000000000
  40
 1.0000000000000
  10
 770.08183552393
  20
 431.22059152566
  30
0.0
  10
 770.27040976101
  20
 431.43678868535
  30
0.0
  10
 770.64755823516
  20
 431.86918300474
  30
0.0
  10
 770.87916575577
  20
 432.39380660259
  30
0.0
  10
 770.17477037437
  20
 432.27075165682
  30
0.0
  10
 769.73698636384
  20
 432.19427260955
  30
0.0
  11
 770.08183552393
  21
 431.22059152566
  31
0.0
  11
 770.58506759921
  21
 431.83310792848
  31
0.0
  11
 770.71335585875
  21
 432.22917387375
  31
0.0
  11
 769.73698636384
  21
 432.19427260955
  31
0.0
   0
LINE
   5
19C
 100
AcDbEntity
   8
0
 100
AcDbLine
   6
CONTINUOUS
  62
7
  10
 775.90722883541
  20
 426.93416680870
  30
0.0
  11
 776.03371575933
  21
 427.00718615566
  31
0.0
   0
LINE
   5
19D
 100
AcDbEntity
   8
0
 100
AcDbLine
   6
CONTINUOUS
  62
7
  10
 775.24726250629
  20
 426.55317635648
  30
0.0
  11
 775.37374943021
  21
 426.62619570344
  31
0.0
   0
LINE
   5
19E
 100
AcDbEntity
   8
0
 100
AcDbLine
   6
CONTINUOUS
  62
7
  10
 774.58729617717
  20
 426.17218590426
  30
0.0
  11
 774.71378310123
  21
 426.24520525122
  31
0.0
   0
LINE
   5
19F
 100
AcDbEntity
   8
0
 100
AcDbLine
   6
CONTINUOUS
  62
7
  10
 773.92732984805
  20
 425.79119545204
  30
0.0
  11
 774.05381677211
  21
 425.86421479900
  31
0.0
   0
LINE
   5
1A0
 100
AcDbEntity
   8
0
 100
AcDbLine
   6
CONTINUOUS
  62
7
  10
 773.26736351893
  20
 425.41020499996
  30
0.0
  11
 773.39385044299
  21
 425.48322434692
  31
0.0
   0
LINE
   5
1A1
 100
AcDbEntity
   8
0
 100
AcDbLine
   6
CONTINUOUS
  62
7
  10
 772.60739718995
  20
 425.02921454774
  30
0.0
  11
 772.73388411387
  21
 425.10223389470
  31
0.0
   0
LINE
   5
1A2
 100
AcDbEntity
   8
0
 100
AcDbLine
   6
CONTINUOUS
  62
7
  10
 771.94743086083
  20
 424.64822409552
  30
0.0
  11
 772.07391778475
  21
 424.72124344248
  31
0.0
   0
LINE
   5
1A3
 100
AcDbEntity
   8
0
 100
AcDbLine
   6
CONTINUOUS
  62
7
  10
 771.28746453171
  20
 424.26723364330
  30
0.0
  11
 771.41395145563
  21
 424.34025299026
  31
0.0
   0
LINE
   5
1A4
 100
AcDbEntity
   8
0
 100
AcDbLine
   6
CONTINUOUS
  62
7
  10
 770.62749820259
  20
 423.88624319122
  30
0.0
  11
 770.75398512651
  21
 423.95926253818
  31
0.0
   0
LINE
   5
1A5
 100
AcDbEntity
   8
0
 100
AcDbLine
   6
CONTINUOUS
  62
7
  10
 769.96753187347
  20
 423.50525273900
  30
0.0
  11
 770.09401879739
  21
 423.57827208596
  31
0.0
   0
LINE
   5
1A6
 100
AcDbEntity
   8
0
 100
AcDbLine
   6
CONTINUOUS
  62
7
  10
 769.84071603453
  20
 424.77915765142
  30
0.0
  11
 769.72340636513
  21
 424.71143622072
  31
0.0
   0
LINE
   5
1A7
 100
AcDbEntity
   8
0
 100
AcDbLine
   6
CONTINUOUS
  62
7
  10
 770.50068236365
  20
 425.16014810364
  30
0.0
  11
 770.18954959569
  21
 424.98053497988
  31
0.0
   0
LINE
   5
1A8
 100
AcDbEntity
   8
0
 100
AcDbLine
   6
CONTINUOUS
  62
7
  10
 771.16064869277
  20
 425.54113855586
  30
0.0
  11
 770.84951592481
  21
 425.36152543196
  31
0.0
   0
LINE
   5
1A9
 100
AcDbEntity
   8
0
 100
AcDbLine
   6
CONTINUOUS
  62
7
  10
 771.82061502189
  20
 425.92212900808
  30
0.0
  11
 771.50948225379
  21
 425.74251588418
  31
0.0
   0
LINE
   5
1AA
 100
AcDbEntity
   8
0
 100
AcDbLine
   6
CONTINUOUS
  62
7
  10
 772.48058135101
  20
 426.30311946016
  30
0.0
  11
 772.16944858291
  21
 426.12350633640
  31
0.0
   0
LINE
   5
1AB
 100
AcDbEntity
   8
0
 100
AcDbLine
   6
CONTINUOUS
  62
7
  10
 773.14054768013
  20
 426.68410991238
  30
0.0
  11
 772.82941491203
  21
 426.50449678862
  31
0.0
   0
LINE
   5
1AC
 100
AcDbEntity
   8
0
 100
AcDbLine
   6
CONTINUOUS
  62
7
  10
 773.80051400925
  20
 427.06510036460
  30
0.0
  11
 773.48938124115
  21
 426.88548724070
  31
0.0
   0
LINE
   5
1AD
 100
AcDbEntity
   8
0
 100
AcDbLine
   6
CONTINUOUS
  62
7
  10
 774.46048033837
  20
 427.44609081682
  30
0.0
  11
 774.14934757027
  21
 427.26647769292
  31
0.0
   0
LINE
   5
1AE
 100
AcDbEntity
   8
0
 100
AcDbLine
   6
CONTINUOUS
  62
7
  10
 775.12044666749
  20
 427.82708126890
  30
0.0
  11
 774.80931389939
  21
 427.64746814514
  31
0.0
   0
LINE
   5
1AF
 100
AcDbEntity
   8
0
 100
AcDbLine
   6
CONTINUOUS
  62
7
  10
 775.78041299661
  20
 428.20807172112
  30
0.0
  11
 775.46928022851
  21
 428.02845859736
  31
0.0
   0
LINE
   5
1B0
 100
AcDbEntity
   8
0
 100
AcDbLine
   6
CONTINUOUS
  62
7
  10
 776.68149881497
  20
 427.41068700376
  30
0.0
  11
 777.31301914987
  21
 428.41926935196
  31
0.0
   0
LINE
   5
1B1
 100
AcDbEntity
   8
0
 100
AcDbLine
   6
CONTINUOUS
  62
7
  10
 777.31301914987
  20
 428.41926935196
  30
0.0
  11
 776.12379705287
  21
 428.37675946720
  31
0.0
   0
SPLINE
   5
1B2
 100
AcDbEntity
   8
0
   6
CONTINUOUS
  62
7
 100
AcDbSpline
  70
8
  71
3
  72
16
  73
12
  74
10
  42
 0.10000000000000E-6
  43
 0.10000000000000E-6
  44
 0.10000000000000E-4
  40
0.0
  40
0.0
  40
0.0
  40
0.0
  40
 0.51450779580741E-1
  40
 0.17114450982861
  40
 0.29083452545268
  40
 0.41051590673742
  40
 0.53018990081469
  40
 0.64985779574734
  40
 0.76952090698301
  40
 0.88918056848869
  40
 1.0000000000000
  40
 1.0000000000000
  40
 1.0000000000000
  40
 1.0000000000000
  10
 757.97785129572
  20
 433.15377320234
  30
0.0
  10
 757.65169430221
  20
 432.79844847046
  30
0.0
  10
 756.56677432167
  20
 431.61650569792
  30
0.0
  10
 754.75545516316
  20
 429.54524609680
  30
0.0
  10
 752.56425300095
  20
 426.91485343296
  30
0.0
  10
 750.42595592336
  20
 424.20783697300
  30
0.0
  10
 748.34337402747
  20
 421.43110390917
  30
0.0
  10
 746.31994399166
  20
 418.58920663498
  30
0.0
  10
 744.36081333518
  20
 415.68621238287
  30
0.0
  10
 742.50974894207
  20
 412.80385646255
  30
0.0
  10
 741.34597215336
  20
 410.86838478565
  30
0.0
  10
 740.78640260437
  20
 409.93776731344
  30
0.0
  11
 757.97785129572
  21
 433.15377320234
  31
0.0
  11
 757.00110027583
  21
 432.08446311619
  31
0.0
  11
 754.76294207937
  21
 429.53301728919
  31
0.0
  11
 752.57299867191
  21
 426.90199411100
  31
0.0
  11
 750.43517666030
  21
 424.19613301021
  31
0.0
  11
 748.35318034474
  21
 421.42017169313
  31
0.0
  11
 746.33062073139
  21
 418.57896645403
  31
0.0
  11
 744.37100926990
  21
 415.67748408547
  31
0.0
  11
 742.47775171972
  21
 412.72079348818
  31
0.0
  11
 740.78640260437
  21
 409.93776731344
  31
0.0
   0
SPLINE
   5
1B3
 100
AcDbEntity
   8
0
   6
CONTINUOUS
  62
7
 100
AcDbSpline
  70
8
  71
3
  72
12
  73
8
  74
6
  42
 0.10000000000000E-6
  43
 0.10000000000000E-6
  44
 0.10000000000000E-4
  40
0.0
  40
0.0
  40
0.0
  40
0.0
  40
 0.12588131444021
  40
 0.36517340205555
  40
 0.60446352474340
  40
 0.84374563138240
  40
 1.0000000000000
  40
 1.0000000000000
  40
 1.0000000000000
  40
 1.0000000000000
  10
 755.08260751030
  20
 401.00581904365
  30
0.0
  10
 755.67803525349
  20
 401.65099948019
  30
0.0
  10
 757.40533191882
  20
 403.52262543196
  30
0.0
  10
 760.29565671732
  20
 406.55486789965
  30
0.0
  10
 763.76453118544
  20
 410.06836477786
  30
0.0
  10
 766.86177117733
  20
 413.09875157442
  30
0.0
  10
 768.80996246178
  20
 414.93143069717
  30
0.0
  10
 769.57958402171
  20
 415.65541985397
  30
0.0
  11
 755.08260751030
  21
 401.00581904365
  31
0.0
  11
 756.87112827199
  21
 402.93663532827
  31
0.0
  11
 760.30171762389
  21
 406.54027553567
  31
0.0
  11
 763.77015276527
  21
 410.05394964210
  31
0.0
  11
 767.27359365752
  21
 413.47480035693
  31
0.0
  11
 769.57958402171
  21
 415.65541985397
  31
0.0
   0
ARC
   5
1B4
 100
AcDbEntity
   8
0
   6
CONTINUOUS
  62
7
 100
AcDbCircle
  10
 754.39493914126
  20
 401.63686842794
  30
0.0
  40
 0.93333333333342
 100
AcDbArc
  50
 240.00268826655
  51
 317.45847734079
   0
LINE
   5
1B5
 100
AcDbEntity
   8
0
 100
AcDbLine
   6
CONTINUOUS
  62
7
  10
 743.36884913375
  20
 406.92440339128
  30
0.0
  11
 753.92831039939
  21
 400.82855615632
  31
0.0
   0
ARC
   5
1B6
 100
AcDbEntity
   8
0
   6
CONTINUOUS
  62
7
 100
AcDbCircle
  10
 741.58940038073
  20
 409.46205134537
  30
0.0
  40
 0.93333333333332
 100
AcDbArc
  50
 149.35643873333
  51
 232.40603480444
   0
LINE
   5
1B7
 100
AcDbEntity
   8
0
 100
AcDbLine
   6
CONTINUOUS
  62
7
  10
 741.02000945063
  20
 408.72252103512
  30
0.0
  11
 743.26608694541
  21
 406.99318535264
  31
0.0
   0
ARC
   5
1B8
 100
AcDbEntity
   8
0
   6
CONTINUOUS
  62
7
 100
AcDbCircle
  10
 743.83547787559
  20
 407.73271566293
  30
0.0
  40
 0.93333333333332
 100
AcDbArc
  50
 232.40603480865
  51
 240.00268826927
   0
LINE
   5
1B9
 100
AcDbEntity
   8
0
 100
AcDbLine
   6
CONTINUOUS
  62
7
  10
 769.21625938143
  20
 432.03847554256
  30
0.0
  11
 769.09690103799
  21
 432.25894859578
  31
0.0
   0
SPLINE
   5
1BA
 100
AcDbEntity
   8
0
   6
CONTINUOUS
  62
7
 100
AcDbSpline
  70
8
  71
3
  72
12
  73
8
  74
6
  42
 0.10000000000000E-6
  43
 0.10000000000000E-6
  44
 0.10000000000000E-4
  40
0.0
  40
0.0
  40
0.0
  40
0.0
  40
 0.18819435044606
  40
 0.43461654650290
  40
 0.67301881372404
  40
 0.92170056141674
  40
 1.0000000000000
  40
 1.0000000000000
  40
 1.0000000000000
  40
 1.0000000000000
  10
 765.28621546534
  20
 429.26727700013
  30
0.0
  10
 765.24142280116
  20
 429.34856252300
  30
0.0
  10
 765.13797850027
  20
 429.53628353135
  30
0.0
  10
 764.93063185905
  20
 429.72840861996
  30
0.0
  10
 764.71823146520
  20
 429.81155798768
  30
0.0
  10
 764.57815961069
  20
 429.79777129655
  30
0.0
  10
 764.54333165287
  20
 429.71965508525
  30
0.0
  10
 764.53499169431
  20
 429.70094925217
  30
0.0
  11
 765.28621546534
  21
 429.26727700013
  31
0.0
  11
 765.14612729872
  21
 429.49919882626
  31
0.0
  11
 764.93048013706
  21
 429.70914154550
  31
0.0
  11
 764.72608810019
  21
 429.79432005501
  31
0.0
  11
 764.56265964768
  21
 429.75304462819
  31
0.0
  11
 764.53499169431
  21
 429.70094925217
  31
0.0
   0
SPLINE
   5
1BB
 100
AcDbEntity
   8
0
   6
CONTINUOUS
  62
7
 100
AcDbSpline
  70
8
  71
3
  72
22
  73
18
  74
16
  42
 0.10000000000000E-6
  43
 0.10000000000000E-6
  44
 0.10000000000000E-4
  40
0.0
  40
0.0
  40
0.0
  40
0.0
  40
 0.64819929903952E-1
  40
 0.13323417467130
  40
 0.20164841943865
  40
 0.27194372900539
  40
 0.33933331964166
  40
 0.40898991775007
  40
 0.47864651585849
  40
 0.54603610649476
  40
 0.61633141606150
  40
 0.68474566082885
  40
 0.75315990559620
  40
 0.82345521516295
  40
 0.89084480579921
  40
 0.96050140390763
  40
 1.0000000000000
  40
 1.0000000000000
  40
 1.0000000000000
  40
 1.0000000000000
  10
 766.32277012941
  20
 428.66888672966
  30
0.0
  10
 766.40460901578
  20
 428.68899679332
  30
0.0
  10
 766.57282481759
  20
 428.73033203912
  30
0.0
  10
 766.73555718348
  20
 428.94746916894
  30
0.0
  10
 766.80909626033
  20
 429.25231206359
  30
0.0
  10
 766.78355992276
  20
 429.61210818654
  30
0.0
  10
 766.65791288045
  20
 429.96905145596
  30
0.0
  10
 766.47155491231
  20
 430.27718832476
  30
0.0
  10
 766.25258488384
  20
 430.49031564356
  30
0.0
  10
 766.03428203875
  20
 430.57800995395
  30
0.0
  10
 765.87152050888
  20
 430.53720901577
  30
0.0
  10
 765.78095949745
  20
 430.36939300423
  30
0.0
  10
 765.78794374640
  20
 430.10835030697
  30
0.0
  10
 765.90283227757
  20
 429.79990768334
  30
0.0
  10
 766.10343689300
  20
 429.48979680095
  30
0.0
  10
 766.33512789313
  20
 429.25623249133
  30
0.0
  10
 766.49405434023
  20
 429.18047745025
  30
0.0
  10
 766.55156302397
  20
 429.15306494101
  30
0.0
  11
 766.32277012941
  21
 428.66888672966
  31
0.0
  11
 766.55392082505
  21
 428.75339104171
  31
0.0
  11
 766.72009688208
  21
 428.96098030813
  31
0.0
  11
 766.79226699879
  21
 429.25878756132
  31
0.0
  11
 766.76589805157
  21
 429.61631160531
  31
0.0
  11
 766.64949178461
  21
 429.95750065858
  31
0.0
  11
 766.46605995693
  21
 430.26117973063
  31
0.0
  11
 766.25041279527
  21
 430.47112244987
  31
0.0
  11
 766.04602075840
  21
 430.55630095938
  31
0.0
  11
 765.88259230589
  21
 430.51502553256
  31
0.0
  11
 765.79706939247
  21
 430.35399633489
  31
0.0
  11
 765.80555241937
  21
 430.10274915045
  31
0.0
  11
 765.91916905228
  21
 429.79559212331
  31
0.0
  11
 766.11267116929
  21
 429.49890955693
  31
0.0
  11
 766.38108948217
  21
 429.24429213848
  31
0.0
  11
 766.55156302397
  21
 429.15306494101
  31
0.0
   0
SPLINE
   5
1BC
 100
AcDbEntity
   8
0
   6
CONTINUOUS
  62
7
 100
AcDbSpline
  70
8
  71
3
  72
23
  73
19
  74
17
  42
 0.10000000000000E-6
  43
 0.10000000000000E-6
  44
 0.10000000000000E-4
  40
0.0
  40
0.0
  40
0.0
  40
0.0
  40
 0.48859599362341E-1
  40
 0.11535621405487
  40
 0.18007341498639
  40
 0.24479061591792
  40
 0.31128723061044
  40
 0.37503514879227
  40
 0.44092756741531
  40
 0.50681998603835
  40
 0.57056790422018
  40
 0.63706451891270
  40
 0.70178171984423
  40
 0.76649892077575
  40
 0.83299553546828
  40
 0.89674345365011
  40
 0.96263587227315
  40
 1.0000000000000
  40
 1.0000000000000
  40
 1.0000000000000
  40
 1.0000000000000
  10
 766.74746459204
  20
 429.07391212673
  30
0.0
  10
 766.82088625359
  20
 429.05750936690
  30
0.0
  10
 766.99423284295
  20
 429.01878288739
  30
0.0
  10
 767.22551246795
  20
 429.11526217338
  30
0.0
  10
 767.39628043066
  20
 429.32585654795
  30
0.0
  10
 767.46885328448
  20
 429.63402232435
  30
0.0
  10
 767.44358031345
  20
 429.99291271869
  30
0.0
  10
 767.31786444742
  20
 430.35009267574
  30
0.0
  10
 767.13152525613
  20
 430.65816497017
  30
0.0
  10
 766.91255017754
  20
 430.87130965657
  30
0.0
  10
 766.69424865483
  20
 430.95899941922
  30
0.0
  10
 766.53148676205
  20
 430.91819972909
  30
0.0
  10
 766.44092584666
  20
 430.75038338731
  30
0.0
  10
 766.44791006995
  20
 430.48934077826
  30
0.0
  10
 766.56279860811
  20
 430.18089813058
  30
0.0
  10
 766.76340322171
  20
 429.87078725451
  30
0.0
  10
 766.99509422229
  20
 429.63722294334
  30
0.0
  10
 767.15402066935
  20
 429.56146790239
  30
0.0
  10
 767.21152935308
  20
 429.53405539320
  30
0.0
  11
 766.74746459204
  21
 429.07391212673
  31
0.0
  11
 766.96321101595
  21
 429.04273905022
  31
0.0
  11
 767.21388715416
  21
 429.13438149390
  31
0.0
  11
 767.38006321119
  21
 429.34197076031
  31
0.0
  11
 767.45223332790
  21
 429.63977801350
  31
0.0
  11
 767.42586438068
  21
 429.99730205749
  31
0.0
  11
 767.30945811372
  21
 430.33849111076
  31
0.0
  11
 767.12602628604
  21
 430.64217018281
  31
0.0
  11
 766.91037912438
  21
 430.85211290205
  31
0.0
  11
 766.70598708751
  21
 430.93729141156
  31
0.0
  11
 766.54255863500
  21
 430.89601598474
  31
0.0
  11
 766.45703572158
  21
 430.73498678707
  31
0.0
  11
 766.46551874848
  21
 430.48373960263
  31
0.0
  11
 766.57913538139
  21
 430.17658257550
  31
0.0
  11
 766.77263749840
  21
 429.87990000911
  31
0.0
  11
 767.04105581128
  21
 429.62528259066
  31
0.0
  11
 767.21152935308
  21
 429.53405539320
  31
0.0
   0
SPLINE
   5
1BD
 100
AcDbEntity
   8
0
   6
CONTINUOUS
  62
7
 100
AcDbSpline
  70
8
  71
3
  72
23
  73
19
  74
17
  42
 0.10000000000000E-6
  43
 0.10000000000000E-6
  44
 0.10000000000000E-4
  40
0.0
  40
0.0
  40
0.0
  40
0.0
  40
 0.48859599362340E-1
  40
 0.11535621405486
  40
 0.18007341498639
  40
 0.24479061591792
  40
 0.31128723061044
  40
 0.37503514879227
  40
 0.44092756741531
  40
 0.50681998603835
  40
 0.57056790422018
  40
 0.63706451891270
  40
 0.70178171984423
  40
 0.76649892077576
  40
 0.83299553546829
  40
 0.89674345365011
  40
 0.96263587227315
  40
 1.0000000000000
  40
 1.0000000000000
  40
 1.0000000000000
  40
 1.0000000000000
  10
 767.40743092114
  20
 429.45490257891
  30
0.0
  10
 767.48085258270
  20
 429.43849981908
  30
0.0
  10
 767.65419917205
  20
 429.39977333957
  30
0.0
  10
 767.88547879705
  20
 429.49625262557
  30
0.0
  10
 768.05624675976
  20
 429.70684700014
  30
0.0
  10
 768.12881961358
  20
 430.01501277654
  30
0.0
  10
 768.10354664255
  20
 430.37390317087
  30
0.0
  10
 767.97783077653
  20
 430.73108312793
  30
0.0
  10
 767.79149158524
  20
 431.03915542235
  30
0.0
  10
 767.57251650665
  20
 431.25230010875
  30
0.0
  10
 767.35421498393
  20
 431.33998987140
  30
0.0
  10
 767.19145309116
  20
 431.29919018128
  30
0.0
  10
 767.10089217577
  20
 431.13137383949
  30
0.0
  10
 767.10787639906
  20
 430.87033123045
  30
0.0
  10
 767.22276493722
  20
 430.56188858276
  30
0.0
  10
 767.42336955081
  20
 430.25177770669
  30
0.0
  10
 767.65506055140
  20
 430.01821339552
  30
0.0
  10
 767.81398699846
  20
 429.94245835457
  30
0.0
  10
 767.87149568219
  20
 429.91504584538
  30
0.0
  11
 767.40743092114
  21
 429.45490257891
  31
0.0
  11
 767.62317734506
  21
 429.42372950240
  31
0.0
  11
 767.87385348326
  21
 429.51537194608
  31
0.0
  11
 768.04002954029
  21
 429.72296121250
  31
0.0
  11
 768.11219965700
  21
 430.02076846569
  31
0.0
  11
 768.08583070979
  21
 430.37829250968
  31
0.0
  11
 767.96942444282
  21
 430.71948156294
  31
0.0
  11
 767.78599261515
  21
 431.02316063500
  31
0.0
  11
 767.57034545349
  21
 431.23310335424
  31
0.0
  11
 767.36595341662
  21
 431.31828186375
  31
0.0
  11
 767.20252496411
  21
 431.27700643692
  31
0.0
  11
 767.11700205069
  21
 431.11597723926
  31
0.0
  11
 767.12548507759
  21
 430.86473005482
  31
0.0
  11
 767.23910171050
  21
 430.55757302768
  31
0.0
  11
 767.43260382750
  21
 430.26089046130
  31
0.0
  11
 767.70102214039
  21
 430.00627304285
  31
0.0
  11
 767.87149568219
  21
 429.91504584538
  31
0.0
   0
SPLINE
   5
1BE
 100
AcDbEntity
   8
0
   6
CONTINUOUS
  62
7
 100
AcDbSpline
  70
8
  71
3
  72
23
  73
19
  74
17
  42
 0.10000000000000E-6
  43
 0.10000000000000E-6
  44
 0.10000000000000E-4
  40
0.0
  40
0.0
  40
0.0
  40
0.0
  40
 0.48859599362339E-1
  40
 0.11535621405486
  40
 0.18007341498639
  40
 0.24479061591792
  40
 0.31128723061044
  40
 0.37503514879227
  40
 0.44092756741530
  40
 0.50681998603835
  40
 0.57056790422017
  40
 0.63706451891269
  40
 0.70178171984423
  40
 0.76649892077575
  40
 0.83299553546828
  40
 0.89674345365011
  40
 0.96263587227315
  40
 1.0000000000000
  40
 1.0000000000000
  40
 1.0000000000000
  40
 1.0000000000000
  10
 768.06739725025
  20
 429.83589303110
  30
0.0
  10
 768.14081891181
  20
 429.81949027127
  30
0.0
  10
 768.31416550116
  20
 429.78076379176
  30
0.0
  10
 768.54544512616
  20
 429.87724307775
  30
0.0
  10
 768.71621308887
  20
 430.08783745232
  30
0.0
  10
 768.78878594269
  20
 430.39600322872
  30
0.0
  10
 768.76351297166
  20
 430.75489362306
  30
0.0
  10
 768.63779710564
  20
 431.11207358011
  30
0.0
  10
 768.45145791435
  20
 431.42014587453
  30
0.0
  10
 768.23248283575
  20
 431.63329056093
  30
0.0
  10
 768.01418131304
  20
 431.72098032359
  30
0.0
  10
 767.85141942026
  20
 431.68018063346
  30
0.0
  10
 767.76085850487
  20
 431.51236429167
  30
0.0
  10
 767.76784272817
  20
 431.25132168263
  30
0.0
  10
 767.88273126633
  20
 430.94287903495
  30
0.0
  10
 768.08333587992
  20
 430.63276815887
  30
0.0
  10
 768.31502688050
  20
 430.39920384771
  30
0.0
  10
 768.47395332757
  20
 430.32344880676
  30
0.0
  10
 768.53146201130
  20
 430.29603629757
  30
0.0
  11
 768.06739725025
  21
 429.83589303110
  31
0.0
  11
 768.28314367417
  21
 429.80471995458
  31
0.0
  11
 768.53381981237
  21
 429.89636239827
  31
0.0
  11
 768.69999586940
  21
 430.10395166468
  31
0.0
  11
 768.77216598611
  21
 430.40175891787
  31
0.0
  11
 768.74579703890
  21
 430.75928296186
  31
0.0
  11
 768.62939077193
  21
 431.10047201513
  31
0.0
  11
 768.44595894426
  21
 431.40415108718
  31
0.0
  11
 768.23031178260
  21
 431.61409380642
  31
0.0
  11
 768.02591974573
  21
 431.69927231593
  31
0.0
  11
 767.86249129322
  21
 431.65799688911
  31
0.0
  11
 767.77696837979
  21
 431.49696769144
  31
0.0
  11
 767.78545140670
  21
 431.24572050700
  31
0.0
  11
 767.89906803960
  21
 430.93856347986
  31
0.0
  11
 768.09257015661
  21
 430.64188091348
  31
0.0
  11
 768.36098846949
  21
 430.38726349503
  31
0.0
  11
 768.53146201130
  21
 430.29603629757
  31
0.0
   0
SPLINE
   5
1BF
 100
AcDbEntity
   8
0
   6
CONTINUOUS
  62
7
 100
AcDbSpline
  70
8
  71
3
  72
23
  73
19
  74
17
  42
 0.10000000000000E-6
  43
 0.10000000000000E-6
  44
 0.10000000000000E-4
  40
0.0
  40
0.0
  40
0.0
  40
0.0
  40
 0.48859599362340E-1
  40
 0.11535621405486
  40
 0.18007341498639
  40
 0.24479061591792
  40
 0.31128723061045
  40
 0.37503514879227
  40
 0.44092756741531
  40
 0.50681998603835
  40
 0.57056790422017
  40
 0.63706451891270
  40
 0.70178171984423
  40
 0.76649892077576
  40
 0.83299553546829
  40
 0.89674345365011
  40
 0.96263587227315
  40
 1.0000000000000
  40
 1.0000000000000
  40
 1.0000000000000
  40
 1.0000000000000
  10
 768.72736357936
  20
 430.21688348328
  30
0.0
  10
 768.80078524091
  20
 430.20048072345
  30
0.0
  10
 768.97413183027
  20
 430.16175424394
  30
0.0
  10
 769.20541145527
  20
 430.25823352993
  30
0.0
  10
 769.37617941798
  20
 430.46882790450
  30
0.0
  10
 769.44875227180
  20
 430.77699368091
  30
0.0
  10
 769.42347930077
  20
 431.13588407524
  30
0.0
  10
 769.29776343475
  20
 431.49306403229
  30
0.0
  10
 769.11142424346
  20
 431.80113632672
  30
0.0
  10
 768.89244916486
  20
 432.01428101312
  30
0.0
  10
 768.67414764215
  20
 432.10197077577
  30
0.0
  10
 768.51138574937
  20
 432.06117108564
  30
0.0
  10
 768.42082483398
  20
 431.89335474386
  30
0.0
  10
 768.42780905727
  20
 431.63231213482
  30
0.0
  10
 768.54269759543
  20
 431.32386948713
  30
0.0
  10
 768.74330220903
  20
 431.01375861106
  30
0.0
  10
 768.97499320961
  20
 430.78019429989
  30
0.0
  10
 769.13391965667
  20
 430.70443925894
  30
0.0
  10
 769.19142834040
  20
 430.67702674975
  30
0.0
  11
 768.72736357936
  21
 430.21688348328
  31
0.0
  11
 768.94311000328
  21
 430.18571040677
  31
0.0
  11
 769.19378614148
  21
 430.27735285045
  31
0.0
  11
 769.35996219851
  21
 430.48494211687
  31
0.0
  11
 769.43213231522
  21
 430.78274937005
  31
0.0
  11
 769.40576336800
  21
 431.14027341405
  31
0.0
  11
 769.28935710104
  21
 431.48146246731
  31
0.0
  11
 769.10592527336
  21
 431.78514153937
  31
0.0
  11
 768.89027811170
  21
 431.99508425861
  31
0.0
  11
 768.68588607483
  21
 432.08026276812
  31
0.0
  11
 768.52245762232
  21
 432.03898734129
  31
0.0
  11
 768.43693470890
  21
 431.87795814362
  31
0.0
  11
 768.44541773580
  21
 431.62671095918
  31
0.0
  11
 768.55903436871
  21
 431.31955393205
  31
0.0
  11
 768.75253648572
  21
 431.02287136567
  31
0.0
  11
 769.02095479860
  21
 430.76825394722
  31
0.0
  11
 769.19142834040
  21
 430.67702674975
  31
0.0
   0
LINE
   5
1C0
 100
AcDbEntity
   8
0
 100
AcDbLine
   6
CONTINUOUS
  62
7
  10
 769.38732990847
  20
 430.59787393550
  30
0.0
  11
 769.60307633237
  21
 430.56670085888
  31
0.0
   0
LINE
   5
1C1
 100
AcDbEntity
   8
0
 100
AcDbLine
   6
CONTINUOUS
  62
7
  10
 769.60307633237
  20
 430.56670085888
  30
0.0
  11
 769.85375247053
  21
 430.65834330264
  31
0.0
   0
LINE
   5
1C2
 100
AcDbEntity
   8
0
 100
AcDbLine
   6
CONTINUOUS
  62
7
  10
 769.85375247053
  20
 430.65834330264
  30
0.0
  11
 770.01992852757
  21
 430.86593256900
  31
0.0
   0
LINE
   5
1C3
 100
AcDbEntity
   8
0
 100
AcDbLine
   6
CONTINUOUS
  62
7
  10
 770.01992852757
  20
 430.86593256900
  30
0.0
  11
 770.09209864433
  21
 431.16373982224
  31
0.0
   0
LINE
   5
1C4
 100
AcDbEntity
   8
0
 100
AcDbLine
   6
CONTINUOUS
  62
7
  10
 770.09209864433
  20
 431.16373982224
  30
0.0
  11
 770.06572969711
  21
 431.52126386618
  31
0.0
   0
LINE
   5
1C5
 100
AcDbEntity
   8
0
 100
AcDbLine
   6
CONTINUOUS
  62
7
  10
 770.06572969711
  20
 431.52126386618
  30
0.0
  11
 769.94932343021
  21
 431.86245291956
  31
0.0
   0
LINE
   5
1C6
 100
AcDbEntity
   8
0
 100
AcDbLine
   6
CONTINUOUS
  62
7
  10
 769.94932343021
  20
 431.86245291956
  30
0.0
  11
 769.76589160247
  21
 432.16613199148
  31
0.0
   0
LINE
   5
1C7
 100
AcDbEntity
   8
0
 100
AcDbLine
   6
CONTINUOUS
  62
7
  10
 769.76589160247
  20
 432.16613199148
  30
0.0
  11
 769.55024444081
  21
 432.37607471076
  31
0.0
   0
LINE
   5
1C8
 100
AcDbEntity
   8
0
 100
AcDbLine
   6
CONTINUOUS
  62
7
  10
 769.55024444081
  20
 432.37607471076
  30
0.0
  11
 769.34585240401
  21
 432.46125322026
  31
0.0
   0
LINE
   5
1C9
 100
AcDbEntity
   8
0
 100
AcDbLine
   6
CONTINUOUS
  62
7
  10
 769.34585240401
  20
 432.46125322026
  30
0.0
  11
 769.18242395141
  21
 432.41997779348
  31
0.0
   0
LINE
   5
1CA
 100
AcDbEntity
   8
0
 100
AcDbLine
   6
CONTINUOUS
  62
7
  10
 769.18242395141
  20
 432.41997779348
  30
0.0
  11
 769.09690103799
  21
 432.25894859578
  31
0.0
   0
SPLINE
   5
1CB
 100
AcDbEntity
   8
0
   6
CONTINUOUS
  62
7
 100
AcDbSpline
  70
8
  71
3
  72
16
  73
12
  74
10
  42
 0.10000000000000E-6
  43
 0.10000000000000E-6
  44
 0.10000000000000E-4
  40
0.0
  40
0.0
  40
0.0
  40
0.0
  40
 0.10360401501867
  40
 0.22559506590944
  40
 0.35198784635640
  40
 0.47838062680332
  40
 0.60037167769409
  40
 0.72801004455432
  40
 0.85198784635640
  40
 0.97596564815846
  40
 1.0000000000000
  40
 1.0000000000000
  40
 1.0000000000000
  40
 1.0000000000000
  10
 769.30032526491
  20
 432.07882307065
  30
0.0
  10
 769.32143304441
  20
 432.08753064617
  30
0.0
  10
 769.36739468891
  20
 432.10649116691
  30
0.0
  10
 769.48576783890
  20
 432.04102186108
  30
0.0
  10
 769.60528684646
  20
 431.90047362226
  30
0.0
  10
 769.70584766994
  20
 431.69841962187
  30
0.0
  10
 769.77032642323
  20
 431.46679669324
  30
0.0
  10
 769.77009461939
  20
 431.23190049565
  30
0.0
  10
 769.70679263295
  20
 431.03647923079
  30
0.0
  10
 769.62672171307
  20
 430.91813259194
  30
0.0
  10
 769.55850411066
  20
 430.89455203435
  30
0.0
  10
 769.54742687262
  20
 430.89072300137
  30
0.0
  11
 769.30032526491
  21
 432.07882307065
  31
0.0
  11
 769.36995597743
  21
 432.09209705938
  31
0.0
  11
 769.48324552859
  21
 432.03051552464
  31
0.0
  11
 769.60209003865
  21
 431.89010226507
  31
0.0
  11
 769.70079996497
  21
 431.69110378498
  31
0.0
  11
 769.75909840994
  21
 431.46951566040
  31
0.0
  11
 769.75922006089
  21
 431.23661931724
  31
0.0
  11
 769.69899127352
  21
 431.04175977111
  31
0.0
  11
 769.58000877345
  21
 430.90328646671
  31
0.0
  11
 769.54742687262
  21
 430.89072300137
  31
0.0
   0
SPLINE
   5
1CC
 100
AcDbEntity
   8
0
   6
CONTINUOUS
  62
7
 100
AcDbSpline
  70
8
  71
3
  72
16
  73
12
  74
10
  42
 0.10000000000000E-6
  43
 0.10000000000000E-6
  44
 0.10000000000000E-4
  40
0.0
  40
0.0
  40
0.0
  40
0.0
  40
 0.10360401501868
  40
 0.22559506590944
  40
 0.35198784635640
  40
 0.47838062680333
  40
 0.60037167769409
  40
 0.72801004455432
  40
 0.85198784635640
  40
 0.97596564815846
  40
 1.0000000000000
  40
 1.0000000000000
  40
 1.0000000000000
  40
 1.0000000000000
  10
 768.64035893581
  20
 431.69783261846
  30
0.0
  10
 768.66146671530
  20
 431.70654019399
  30
0.0
  10
 768.70742835980
  20
 431.72550071472
  30
0.0
  10
 768.82580150979
  20
 431.66003140889
  30
0.0
  10
 768.94532051736
  20
 431.51948317008
  30
0.0
  10
 769.04588134083
  20
 431.31742916968
  30
0.0
  10
 769.11036009412
  20
 431.08580624106
  30
0.0
  10
 769.11012829029
  20
 430.85091004347
  30
0.0
  10
 769.04682630384
  20
 430.65548877861
  30
0.0
  10
 768.96675538397
  20
 430.53714213975
  30
0.0
  10
 768.89853778155
  20
 430.51356158217
  30
0.0
  10
 768.88746054351
  20
 430.50973254919
  30
0.0
  11
 768.64035893581
  21
 431.69783261846
  31
0.0
  11
 768.70998964832
  21
 431.71110660719
  31
0.0
  11
 768.82327919949
  21
 431.64952507246
  31
0.0
  11
 768.94212370955
  21
 431.50911181288
  31
0.0
  11
 769.04083363587
  21
 431.31011333280
  31
0.0
  11
 769.09913208084
  21
 431.08852520822
  31
0.0
  11
 769.09925373178
  21
 430.85562886506
  31
0.0
  11
 769.03902494441
  21
 430.66076931893
  31
0.0
  11
 768.92004244434
  21
 430.52229601453
  31
0.0
  11
 768.88746054351
  21
 430.50973254919
  31
0.0
   0
SPLINE
   5
1CD
 100
AcDbEntity
   8
0
   6
CONTINUOUS
  62
7
 100
AcDbSpline
  70
8
  71
3
  72
16
  73
12
  74
10
  42
 0.10000000000000E-6
  43
 0.10000000000000E-6
  44
 0.10000000000000E-4
  40
0.0
  40
0.0
  40
0.0
  40
0.0
  40
 0.10360401501868
  40
 0.22559506590944
  40
 0.35198784635640
  40
 0.47838062680333
  40
 0.60037167769409
  40
 0.72801004455433
  40
 0.85198784635640
  40
 0.97596564815846
  40
 1.0000000000000
  40
 1.0000000000000
  40
 1.0000000000000
  40
 1.0000000000000
  10
 767.98039260670
  20
 431.31684216628
  30
0.0
  10
 768.00150038619
  20
 431.32554974180
  30
0.0
  10
 768.04746203069
  20
 431.34451026254
  30
0.0
  10
 768.16583518068
  20
 431.27904095671
  30
0.0
  10
 768.28535418825
  20
 431.13849271789
  30
0.0
  10
 768.38591501172
  20
 430.93643871750
  30
0.0
  10
 768.45039376501
  20
 430.70481578887
  30
0.0
  10
 768.45016196118
  20
 430.46991959128
  30
0.0
  10
 768.38685997474
  20
 430.27449832642
  30
0.0
  10
 768.30678905486
  20
 430.15615168757
  30
0.0
  10
 768.23857145244
  20
 430.13257112999
  30
0.0
  10
 768.22749421441
  20
 430.12874209701
  30
0.0
  11
 767.98039260670
  21
 431.31684216628
  31
0.0
  11
 768.05002331922
  21
 431.33011615501
  31
0.0
  11
 768.16331287038
  21
 431.26853462027
  31
0.0
  11
 768.28215738044
  21
 431.12812136070
  31
0.0
  11
 768.38086730676
  21
 430.92912288061
  31
0.0
  11
 768.43916575173
  21
 430.70753475603
  31
0.0
  11
 768.43928740267
  21
 430.47463841288
  31
0.0
  11
 768.37905861530
  21
 430.27977886674
  31
0.0
  11
 768.26007611523
  21
 430.14130556234
  31
0.0
  11
 768.22749421441
  21
 430.12874209701
  31
0.0
   0
SPLINE
   5
1CE
 100
AcDbEntity
   8
0
   6
CONTINUOUS
  62
7
 100
AcDbSpline
  70
8
  71
3
  72
16
  73
12
  74
10
  42
 0.10000000000000E-6
  43
 0.10000000000000E-6
  44
 0.10000000000000E-4
  40
0.0
  40
0.0
  40
0.0
  40
0.0
  40
 0.10360401501868
  40
 0.22559506590943
  40
 0.35198784635640
  40
 0.47838062680333
  40
 0.60037167769409
  40
 0.72801004455432
  40
 0.85198784635640
  40
 0.97596564815846
  40
 1.0000000000000
  40
 1.0000000000000
  40
 1.0000000000000
  40
 1.0000000000000
  10
 767.32042627759
  20
 430.93585171409
  30
0.0
  10
 767.34153405709
  20
 430.94455928962
  30
0.0
  10
 767.38749570158
  20
 430.96351981035
  30
0.0
  10
 767.50586885157
  20
 430.89805050453
  30
0.0
  10
 767.62538785914
  20
 430.75750226571
  30
0.0
  10
 767.72594868262
  20
 430.55544826531
  30
0.0
  10
 767.79042743591
  20
 430.32382533669
  30
0.0
  10
 767.79019563207
  20
 430.08892913910
  30
0.0
  10
 767.72689364563
  20
 429.89350787424
  30
0.0
  10
 767.64682272575
  20
 429.77516123539
  30
0.0
  10
 767.57860512334
  20
 429.75158067780
  30
0.0
  10
 767.56752788530
  20
 429.74775164482
  30
0.0
  11
 767.32042627759
  21
 430.93585171409
  31
0.0
  11
 767.39005699011
  21
 430.94912570282
  31
0.0
  11
 767.50334654127
  21
 430.88754416809
  31
0.0
  11
 767.62219105133
  21
 430.74713090851
  31
0.0
  11
 767.72090097765
  21
 430.54813242843
  31
0.0
  11
 767.77919942262
  21
 430.32654430385
  31
0.0
  11
 767.77932107356
  21
 430.09364796069
  31
0.0
  11
 767.71909228619
  21
 429.89878841456
  31
0.0
  11
 767.60010978612
  21
 429.76031511016
  31
0.0
  11
 767.56752788530
  21
 429.74775164482
  31
0.0
   0
SPLINE
   5
1CF
 100
AcDbEntity
   8
0
   6
CONTINUOUS
  62
7
 100
AcDbSpline
  70
8
  71
3
  72
16
  73
12
  74
10
  42
 0.10000000000000E-6
  43
 0.10000000000000E-6
  44
 0.10000000000000E-4
  40
0.0
  40
0.0
  40
0.0
  40
0.0
  40
 0.10360401501867
  40
 0.22559506590943
  40
 0.35198784635639
  40
 0.47838062680332
  40
 0.60037167769409
  40
 0.72801004455432
  40
 0.85198784635640
  40
 0.97596564815845
  40
 1.0000000000000
  40
 1.0000000000000
  40
 1.0000000000000
  40
 1.0000000000000
  10
 766.66045994848
  20
 430.55486126191
  30
0.0
  10
 766.68156772798
  20
 430.56356883744
  30
0.0
  10
 766.72752937248
  20
 430.58252935817
  30
0.0
  10
 766.84590252247
  20
 430.51706005234
  30
0.0
  10
 766.96542153003
  20
 430.37651181353
  30
0.0
  10
 767.06598235351
  20
 430.17445781313
  30
0.0
  10
 767.13046110680
  20
 429.94283488450
  30
0.0
  10
 767.13022930296
  20
 429.70793868691
  30
0.0
  10
 767.06692731652
  20
 429.51251742205
  30
0.0
  10
 766.98685639664
  20
 429.39417078320
  30
0.0
  10
 766.91863879423
  20
 429.37059022562
  30
0.0
  10
 766.90756155619
  20
 429.36676119264
  30
0.0
  11
 766.66045994848
  21
 430.55486126191
  31
0.0
  11
 766.73009066100
  21
 430.56813525064
  31
0.0
  11
 766.84338021216
  21
 430.50655371591
  31
0.0
  11
 766.96222472222
  21
 430.36614045633
  31
0.0
  11
 767.06093464854
  21
 430.16714197625
  31
0.0
  11
 767.11923309351
  21
 429.94555385166
  31
0.0
  11
 767.11935474445
  21
 429.71265750851
  31
0.0
  11
 767.05912595709
  21
 429.51779796238
  31
0.0
  11
 766.94014345701
  21
 429.37932465798
  31
0.0
  11
 766.90756155619
  21
 429.36676119264
  31
0.0
   0
SPLINE
   5
1D0
 100
AcDbEntity
   8
0
   6
CONTINUOUS
  62
7
 100
AcDbSpline
  70
8
  71
3
  72
16
  73
12
  74
10
  42
 0.10000000000000E-6
  43
 0.10000000000000E-6
  44
 0.10000000000000E-4
  40
0.0
  40
0.0
  40
0.0
  40
0.0
  40
 0.10360401501867
  40
 0.22559506590943
  40
 0.35198784635639
  40
 0.47838062680332
  40
 0.60037167769409
  40
 0.72801004455432
  40
 0.85198784635640
  40
 0.97596564815846
  40
 1.0000000000000
  40
 1.0000000000000
  40
 1.0000000000000
  40
 1.0000000000000
  10
 766.00049361937
  20
 430.17387080973
  30
0.0
  10
 766.02160139887
  20
 430.18257838525
  30
0.0
  10
 766.06756304337
  20
 430.20153890599
  30
0.0
  10
 766.18593619336
  20
 430.13606960016
  30
0.0
  10
 766.30545520093
  20
 429.99552136134
  30
0.0
  10
 766.40601602440
  20
 429.79346736095
  30
0.0
  10
 766.47049477769
  20
 429.56184443232
  30
0.0
  10
 766.47026297386
  20
 429.32694823473
  30
0.0
  10
 766.40696098741
  20
 429.13152696987
  30
0.0
  10
 766.32689006754
  20
 429.01318033102
  30
0.0
  10
 766.25867246512
  20
 428.98959977343
  30
0.0
  10
 766.24759522708
  20
 428.98577074045
  30
0.0
  11
 766.00049361937
  21
 430.17387080973
  31
0.0
  11
 766.07012433189
  21
 430.18714479846
  31
0.0
  11
 766.18341388306
  21
 430.12556326372
  31
0.0
  11
 766.30225839312
  21
 429.98515000415
  31
0.0
  11
 766.40096831944
  21
 429.78615152406
  31
0.0
  11
 766.45926676441
  21
 429.56456339948
  31
0.0
  11
 766.45938841535
  21
 429.33166705632
  31
0.0
  11
 766.39915962798
  21
 429.13680751019
  31
0.0
  11
 766.28017712791
  21
 428.99833420579
  31
0.0
  11
 766.24759522708
  21
 428.98577074045
  31
0.0
   0
SPLINE
   5
1D1
 100
AcDbEntity
   8
0
   6
CONTINUOUS
  62
7
 100
AcDbSpline
  70
8
  71
3
  72
13
  73
9
  74
7
  42
 0.10000000000000E-6
  43
 0.10000000000000E-6
  44
 0.10000000000000E-4
  40
0.0
  40
0.0
  40
0.0
  40
0.0
  40
 0.14452405076395
  40
 0.31469738650297
  40
 0.49101098413931
  40
 0.66732458177562
  40
 0.83749791751465
  40
 1.0000000000000
  40
 1.0000000000000
  40
 1.0000000000000
  40
 1.0000000000000
  10
 765.34052729027
  20
 429.79288035754
  30
0.0
  10
 765.36163928355
  20
 429.80158567578
  30
0.0
  10
 765.40761010345
  20
 429.82054128131
  30
0.0
  10
 765.52590405097
  20
 429.75511440364
  30
0.0
  10
 765.64574420675
  20
 429.61439412820
  30
0.0
  10
 765.74511195334
  20
 429.41297924993
  30
0.0
  10
 765.81191722153
  20
 429.18595220030
  30
0.0
  10
 765.80351546945
  20
 429.04155097571
  30
0.0
  10
 765.79941146256
  20
 428.97101525704
  30
0.0
  11
 765.34052729027
  21
 429.79288035754
  31
0.0
  11
 765.41015800279
  21
 429.80615434627
  31
0.0
  11
 765.52344755395
  21
 429.74457281154
  31
0.0
  11
 765.64229206401
  21
 429.60415955196
  31
0.0
  11
 765.74100199033
  21
 429.40516107188
  31
0.0
  11
 765.79930043530
  21
 429.18357294730
  31
0.0
  11
 765.79941146256
  21
 428.97101525704
  31
0.0
   0
LINE
   5
1D2
 100
AcDbEntity
   8
0
 100
AcDbLine
   6
CONTINUOUS
  62
7
  10
 770.08183552391
  20
 431.22059152568
  30
0.0
  11
 770.09312877973
  21
 431.24058098034
  31
0.0
   0
SPLINE
   5
1D3
 100
AcDbEntity
   8
0
   6
CONTINUOUS
  62
7
 100
AcDbSpline
  70
8
  71
3
  72
12
  73
8
  74
6
  42
 0.10000000000000E-6
  43
 0.10000000000000E-6
  44
 0.10000000000000E-4
  40
0.0
  40
0.0
  40
0.0
  40
0.0
  40
 0.18499050224179
  40
 0.39589098110065
  40
 0.61588511237793
  40
 0.82999231863892
  40
 1.0000000000000
  40
 1.0000000000000
  40
 1.0000000000000
  40
 1.0000000000000
  10
 769.72340636509
  20
 422.97286976848
  30
0.0
  10
 769.78153240686
  20
 423.02113104800
  30
0.0
  10
 769.90592568881
  20
 423.12441313583
  30
0.0
  10
 769.98471734197
  20
 423.41097424990
  30
0.0
  10
 769.97899689197
  20
 423.75998474776
  30
0.0
  10
 769.88214539404
  20
 424.10398968952
  30
0.0
  10
 769.77210832340
  20
 424.28374790319
  30
0.0
  10
 769.72340636509
  20
 424.36330815482
  30
0.0
  11
 769.72340636509
  21
 422.97286976848
  31
0.0
  11
 769.88168225632
  21
 423.13532213460
  31
0.0
  11
 769.96943268412
  21
 423.41456928143
  31
0.0
  11
 769.96205944914
  21
 423.76632995514
  31
0.0
  11
 769.86002027548
  21
 424.11699296001
  31
0.0
  11
 769.72340636509
  21
 424.36330815482
  31
0.0
   0
SPLINE
   5
1D4
 100
AcDbEntity
   8
0
   6
CONTINUOUS
  62
7
 100
AcDbSpline
  70
8
  71
3
  72
18
  73
14
  74
12
  42
 0.10000000000000E-6
  43
 0.10000000000000E-6
  44
 0.10000000000000E-4
  40
0.0
  40
0.0
  40
0.0
  40
0.0
  40
 0.57006101215604E-1
  40
 0.15955322894365
  40
 0.26210035667169
  40
 0.36131003882931
  40
 0.46479746549926
  40
 0.56551562411010
  40
 0.66623378272094
  40
 0.76972120939088
  40
 0.86893089154850
  40
 0.97147801927654
  40
 1.0000000000000
  40
 1.0000000000000
  40
 1.0000000000000
  40
 1.0000000000000
  10
 769.93199542530
  20
 423.29543313620
  30
0.0
  10
 769.98752422437
  20
 423.27950326356
  30
0.0
  10
 770.14294266207
  20
 423.23491746376
  30
0.0
  10
 770.36694055512
  20
 423.30703478843
  30
0.0
  10
 770.55693707292
  20
 423.49665392753
  30
0.0
  10
 770.64578220353
  20
 423.78980825245
  30
0.0
  10
 770.63950433659
  20
 424.14281513682
  30
0.0
  10
 770.53190603180
  20
 424.50503877165
  30
0.0
  10
 770.35213570914
  20
 424.82454227238
  30
0.0
  10
 770.13762795208
  20
 425.06032352106
  30
0.0
  10
 769.91966634228
  20
 425.16512357889
  30
0.0
  10
 769.77220090972
  20
 425.17229564652
  30
0.0
  10
 769.73212688369
  20
 425.10657444083
  30
0.0
  10
 769.72340636509
  20
 425.09227283319
  30
0.0
  11
 769.93199542530
  21
 423.29543313620
  31
0.0
  11
 770.09614874984
  21
 423.25893917669
  31
0.0
  11
 770.35513419538
  21
 423.32487658385
  31
0.0
  11
 770.54164858543
  21
 423.51631258678
  31
0.0
  11
 770.62939901323
  21
 423.79555973362
  31
0.0
  11
 770.62202577824
  21
 424.14732040732
  31
0.0
  11
 770.51998660458
  21
 424.49798341219
  31
0.0
  11
 770.34793542163
  21
 424.80819209099
  31
0.0
  11
 770.13422966098
  21
 425.04072974342
  31
0.0
  11
 769.92564382424
  21
 425.14874792548
  31
0.0
  11
 769.75164486390
  21
 425.13187217193
  31
0.0
  11
 769.72340636509
  21
 425.09227283319
  31
0.0
   0
SPLINE
   5
1D5
 100
AcDbEntity
   8
0
   6
CONTINUOUS
  62
7
 100
AcDbSpline
  70
8
  71
3
  72
23
  73
19
  74
17
  42
 0.10000000000000E-6
  43
 0.10000000000000E-6
  44
 0.10000000000000E-4
  40
0.0
  40
0.0
  40
0.0
  40
0.0
  40
 0.36663238705668E-1
  40
 0.10261600064345
  40
 0.16856876258124
  40
 0.23237506017562
  40
 0.29893257149683
  40
 0.36370903949590
  40
 0.42848550749498
  40
 0.49504301881618
  40
 0.55884931641057
  40
 0.62480207834835
  40
 0.69075484028614
  40
 0.75456113788052
  40
 0.82111864920173
  40
 0.88589511720081
  40
 0.95067158519988
  40
 1.0000000000000
  40
 1.0000000000000
  40
 1.0000000000000
  40
 1.0000000000000
  10
 770.59196175441
  20
 423.67642358839
  30
0.0
  10
 770.64749054056
  20
 423.66049373474
  30
0.0
  10
 770.80290894213
  20
 423.61590798809
  30
0.0
  10
 771.02690727428
  20
 423.68802466693
  30
0.0
  10
 771.21690198697
  20
 423.87764646100
  30
0.0
  10
 771.30575370994
  20
 424.17079108980
  30
0.0
  10
 771.29945062266
  20
 424.52383506851
  30
0.0
  10
 771.19194484301
  20
 424.88592261642
  30
0.0
  10
 771.01182816703
  20
 425.20593553712
  30
0.0
  10
 770.79862932629
  20
 425.43979161845
  30
0.0
  10
 770.57589821383
  20
 425.55160670895
  30
0.0
  10
 770.39924321641
  20
 425.53429423299
  30
0.0
  10
 770.29599103509
  20
 425.38978710779
  30
0.0
  10
 770.28158113190
  20
 425.14109394215
  30
0.0
  10
 770.37751660255
  20
 424.83870678799
  30
0.0
  10
 770.56496312348
  20
 424.52555469893
  30
0.0
  10
 770.80099657128
  20
 424.26585224436
  30
0.0
  10
 770.97658611916
  20
 424.17211279939
  30
0.0
  10
 771.05249482560
  20
 424.13158851935
  30
0.0
  11
 770.59196175441
  21
 423.67642358839
  31
0.0
  11
 770.75611507894
  21
 423.63992962888
  31
0.0
  11
 771.01510052449
  21
 423.70586703603
  31
0.0
  11
 771.20161491454
  21
 423.89730303897
  31
0.0
  11
 771.28936534233
  21
 424.17655018580
  31
0.0
  11
 771.28199210735
  21
 424.52831085950
  31
0.0
  11
 771.17995293369
  21
 424.87897386438
  31
0.0
  11
 771.00790175074
  21
 425.18918254317
  31
0.0
  11
 770.79419599009
  21
 425.42172019560
  31
0.0
  11
 770.58561015335
  21
 425.52973837766
  31
0.0
  11
 770.41161119301
  21
 425.51286262411
  31
0.0
  11
 770.31008328817
  21
 425.37048827478
  31
0.0
  11
 770.29942871042
  21
 425.13574761483
  31
0.0
  11
 770.39404963109
  21
 424.83435395799
  31
0.0
  11
 770.57674194837
  21
 424.53025102186
  31
0.0
  11
 770.82944627493
  21
 424.26660241181
  31
0.0
  11
 771.05249482560
  21
 424.13158851935
  31
0.0
   0
SPLINE
   5
1D6
 100
AcDbEntity
   8
0
   6
CONTINUOUS
  62
7
 100
AcDbSpline
  70
8
  71
3
  72
23
  73
19
  74
17
  42
 0.10000000000000E-6
  43
 0.10000000000000E-6
  44
 0.10000000000000E-4
  40
0.0
  40
0.0
  40
0.0
  40
0.0
  40
 0.36663238705669E-1
  40
 0.10261600064346
  40
 0.16856876258124
  40
 0.23237506017562
  40
 0.29893257149683
  40
 0.36370903949591
  40
 0.42848550749498
  40
 0.49504301881619
  40
 0.55884931641057
  40
 0.62480207834835
  40
 0.69075484028614
  40
 0.75456113788053
  40
 0.82111864920173
  40
 0.88589511720081
  40
 0.95067158519988
  40
 1.0000000000000
  40
 1.0000000000000
  40
 1.0000000000000
  40
 1.0000000000000
  10
 771.25192808352
  20
 424.05741404057
  30
0.0
  10
 771.30745686967
  20
 424.04148418692
  30
0.0
  10
 771.46287527123
  20
 423.99689844027
  30
0.0
  10
 771.68687360339
  20
 424.06901511911
  30
0.0
  10
 771.87686831608
  20
 424.25863691318
  30
0.0
  10
 771.96572003905
  20
 424.55178154198
  30
0.0
  10
 771.95941695177
  20
 424.90482552070
  30
0.0
  10
 771.85191117212
  20
 425.26691306860
  30
0.0
  10
 771.67179449614
  20
 425.58692598930
  30
0.0
  10
 771.45859565540
  20
 425.82078207063
  30
0.0
  10
 771.23586454294
  20
 425.93259716113
  30
0.0
  10
 771.05920954552
  20
 425.91528468517
  30
0.0
  10
 770.95595736420
  20
 425.77077755998
  30
0.0
  10
 770.94154746100
  20
 425.52208439433
  30
0.0
  10
 771.03748293166
  20
 425.21969724017
  30
0.0
  10
 771.22492945259
  20
 424.90654515112
  30
0.0
  10
 771.46096290039
  20
 424.64684269654
  30
0.0
  10
 771.63655244827
  20
 424.55310325157
  30
0.0
  10
 771.71246115471
  20
 424.51257897154
  30
0.0
  11
 771.25192808352
  21
 424.05741404057
  31
0.0
  11
 771.41608140805
  21
 424.02092008106
  31
0.0
  11
 771.67506685360
  21
 424.08685748822
  31
0.0
  11
 771.86158124365
  21
 424.27829349115
  31
0.0
  11
 771.94933167144
  21
 424.55754063799
  31
0.0
  11
 771.94195843646
  21
 424.90930131169
  31
0.0
  11
 771.83991926280
  21
 425.25996431656
  31
0.0
  11
 771.66786807985
  21
 425.57017299536
  31
0.0
  11
 771.45416231919
  21
 425.80271064779
  31
0.0
  11
 771.24557648246
  21
 425.91072882985
  31
0.0
  11
 771.07157752212
  21
 425.89385307630
  31
0.0
  11
 770.97004961728
  21
 425.75147872697
  31
0.0
  11
 770.95939503953
  21
 425.51673806701
  31
0.0
  11
 771.05401596020
  21
 425.21534441017
  31
0.0
  11
 771.23670827747
  21
 424.91124147404
  31
0.0
  11
 771.48941260403
  21
 424.64759286399
  31
0.0
  11
 771.71246115471
  21
 424.51257897154
  31
0.0
   0
SPLINE
   5
1D7
 100
AcDbEntity
   8
0
   6
CONTINUOUS
  62
7
 100
AcDbSpline
  70
8
  71
3
  72
23
  73
19
  74
17
  42
 0.10000000000000E-6
  43
 0.10000000000000E-6
  44
 0.10000000000000E-4
  40
0.0
  40
0.0
  40
0.0
  40
0.0
  40
 0.36663238705668E-1
  40
 0.10261600064345
  40
 0.16856876258124
  40
 0.23237506017562
  40
 0.29893257149683
  40
 0.36370903949590
  40
 0.42848550749498
  40
 0.49504301881619
  40
 0.55884931641057
  40
 0.62480207834835
  40
 0.69075484028614
  40
 0.75456113788052
  40
 0.82111864920173
  40
 0.88589511720081
  40
 0.95067158519988
  40
 1.0000000000000
  40
 1.0000000000000
  40
 1.0000000000000
  40
 1.0000000000000
  10
 771.91189441263
  20
 424.43840449275
  30
0.0
  10
 771.96742319878
  20
 424.42247463911
  30
0.0
  10
 772.12284160034
  20
 424.37788889245
  30
0.0
  10
 772.34683993249
  20
 424.45000557130
  30
0.0
  10
 772.53683464519
  20
 424.63962736537
  30
0.0
  10
 772.62568636816
  20
 424.93277199417
  30
0.0
  10
 772.61938328088
  20
 425.28581597288
  30
0.0
  10
 772.51187750123
  20
 425.64790352079
  30
0.0
  10
 772.33176082525
  20
 425.96791644149
  30
0.0
  10
 772.11856198451
  20
 426.20177252282
  30
0.0
  10
 771.89583087205
  20
 426.31358761332
  30
0.0
  10
 771.71917587463
  20
 426.29627513736
  30
0.0
  10
 771.61592369330
  20
 426.15176801216
  30
0.0
  10
 771.60151379011
  20
 425.90307484651
  30
0.0
  10
 771.69744926077
  20
 425.60068769235
  30
0.0
  10
 771.88489578170
  20
 425.28753560330
  30
0.0
  10
 772.12092922949
  20
 425.02783314872
  30
0.0
  10
 772.29651877737
  20
 424.93409370376
  30
0.0
  10
 772.37242748382
  20
 424.89356942372
  30
0.0
  11
 771.91189441263
  21
 424.43840449275
  31
0.0
  11
 772.07604773716
  21
 424.40191053324
  31
0.0
  11
 772.33503318271
  21
 424.46784794040
  31
0.0
  11
 772.52154757275
  21
 424.65928394333
  31
0.0
  11
 772.60929800055
  21
 424.93853109017
  31
0.0
  11
 772.60192476557
  21
 425.29029176387
  31
0.0
  11
 772.49988559191
  21
 425.64095476874
  31
0.0
  11
 772.32783440895
  21
 425.95116344754
  31
0.0
  11
 772.11412864830
  21
 426.18370109997
  31
0.0
  11
 771.90554281157
  21
 426.29171928203
  31
0.0
  11
 771.73154385123
  21
 426.27484352848
  31
0.0
  11
 771.63001594639
  21
 426.13246917915
  31
0.0
  11
 771.61936136863
  21
 425.89772851920
  31
0.0
  11
 771.71398228931
  21
 425.59633486235
  31
0.0
  11
 771.89667460658
  21
 425.29223192623
  31
0.0
  11
 772.14937893314
  21
 425.02858331618
  31
0.0
  11
 772.37242748382
  21
 424.89356942372
  31
0.0
   0
SPLINE
   5
1D8
 100
AcDbEntity
   8
0
   6
CONTINUOUS
  62
7
 100
AcDbSpline
  70
8
  71
3
  72
23
  73
19
  74
17
  42
 0.10000000000000E-6
  43
 0.10000000000000E-6
  44
 0.10000000000000E-4
  40
0.0
  40
0.0
  40
0.0
  40
0.0
  40
 0.36663238705668E-1
  40
 0.10261600064345
  40
 0.16856876258124
  40
 0.23237506017562
  40
 0.29893257149683
  40
 0.36370903949590
  40
 0.42848550749498
  40
 0.49504301881619
  40
 0.55884931641057
  40
 0.62480207834835
  40
 0.69075484028614
  40
 0.75456113788052
  40
 0.82111864920173
  40
 0.88589511720081
  40
 0.95067158519988
  40
 1.0000000000000
  40
 1.0000000000000
  40
 1.0000000000000
  40
 1.0000000000000
  10
 772.57186074173
  20
 424.81939494494
  30
0.0
  10
 772.62738952789
  20
 424.80346509129
  30
0.0
  10
 772.78280792945
  20
 424.75887934464
  30
0.0
  10
 773.00680626160
  20
 424.83099602348
  30
0.0
  10
 773.19680097430
  20
 425.02061781755
  30
0.0
  10
 773.28565269727
  20
 425.31376244635
  30
0.0
  10
 773.27934960998
  20
 425.66680642507
  30
0.0
  10
 773.17184383034
  20
 426.02889397297
  30
0.0
  10
 772.99172715436
  20
 426.34890689367
  30
0.0
  10
 772.77852831361
  20
 426.58276297500
  30
0.0
  10
 772.55579720116
  20
 426.69457806550
  30
0.0
  10
 772.37914220374
  20
 426.67726558954
  30
0.0
  10
 772.27589002241
  20
 426.53275846435
  30
0.0
  10
 772.26148011922
  20
 426.28406529870
  30
0.0
  10
 772.35741558988
  20
 425.98167814454
  30
0.0
  10
 772.54486211080
  20
 425.66852605548
  30
0.0
  10
 772.78089555860
  20
 425.40882360091
  30
0.0
  10
 772.95648510648
  20
 425.31508415594
  30
0.0
  10
 773.03239381293
  20
 425.27455987590
  30
0.0
  11
 772.57186074173
  21
 424.81939494494
  31
0.0
  11
 772.73601406626
  21
 424.78290098543
  31
0.0
  11
 772.99499951181
  21
 424.84883839258
  31
0.0
  11
 773.18151390186
  21
 425.04027439552
  31
0.0
  11
 773.26926432966
  21
 425.31952154235
  31
0.0
  11
 773.26189109467
  21
 425.67128221606
  31
0.0
  11
 773.15985192101
  21
 426.02194522093
  31
0.0
  11
 772.98780073806
  21
 426.33215389972
  31
0.0
  11
 772.77409497741
  21
 426.56469155215
  31
0.0
  11
 772.56550914067
  21
 426.67270973422
  31
0.0
  11
 772.39151018033
  21
 426.65583398066
  31
0.0
  11
 772.28998227549
  21
 426.51345963134
  31
0.0
  11
 772.27932769774
  21
 426.27871897138
  31
0.0
  11
 772.37394861842
  21
 425.97732531454
  31
0.0
  11
 772.55664093569
  21
 425.67322237841
  31
0.0
  11
 772.80934526225
  21
 425.40957376836
  31
0.0
  11
 773.03239381293
  21
 425.27455987590
  31
0.0
   0
SPLINE
   5
1D9
 100
AcDbEntity
   8
0
   6
CONTINUOUS
  62
7
 100
AcDbSpline
  70
8
  71
3
  72
23
  73
19
  74
17
  42
 0.10000000000000E-6
  43
 0.10000000000000E-6
  44
 0.10000000000000E-4
  40
0.0
  40
0.0
  40
0.0
  40
0.0
  40
 0.36663238705668E-1
  40
 0.10261600064345
  40
 0.16856876258124
  40
 0.23237506017562
  40
 0.29893257149683
  40
 0.36370903949590
  40
 0.42848550749498
  40
 0.49504301881618
  40
 0.55884931641056
  40
 0.62480207834835
  40
 0.69075484028614
  40
 0.75456113788052
  40
 0.82111864920173
  40
 0.88589511720081
  40
 0.95067158519988
  40
 1.0000000000000
  40
 1.0000000000000
  40
 1.0000000000000
  40
 1.0000000000000
  10
 773.23182707084
  20
 425.20038539712
  30
0.0
  10
 773.28735585699
  20
 425.18445554347
  30
0.0
  10
 773.44277425855
  20
 425.13986979682
  30
0.0
  10
 773.66677259071
  20
 425.21198647566
  30
0.0
  10
 773.85676730340
  20
 425.40160826974
  30
0.0
  10
 773.94561902637
  20
 425.69475289854
  30
0.0
  10
 773.93931593909
  20
 426.04779687725
  30
0.0
  10
 773.83181015944
  20
 426.40988442515
  30
0.0
  10
 773.65169348346
  20
 426.72989734585
  30
0.0
  10
 773.43849464272
  20
 426.96375342718
  30
0.0
  10
 773.21576353026
  20
 427.07556851768
  30
0.0
  10
 773.03910853284
  20
 427.05825604173
  30
0.0
  10
 772.93585635152
  20
 426.91374891653
  30
0.0
  10
 772.92144644833
  20
 426.66505575088
  30
0.0
  10
 773.01738191898
  20
 426.36266859672
  30
0.0
  10
 773.20482843991
  20
 426.04951650767
  30
0.0
  10
 773.44086188771
  20
 425.78981405309
  30
0.0
  10
 773.61645143559
  20
 425.69607460813
  30
0.0
  10
 773.69236014203
  20
 425.65555032809
  30
0.0
  11
 773.23182707084
  21
 425.20038539712
  31
0.0
  11
 773.39598039537
  21
 425.16389143761
  31
0.0
  11
 773.65496584092
  21
 425.22982884477
  31
0.0
  11
 773.84148023097
  21
 425.42126484770
  31
0.0
  11
 773.92923065876
  21
 425.70051199454
  31
0.0
  11
 773.92185742378
  21
 426.05227266824
  31
0.0
  11
 773.81981825012
  21
 426.40293567311
  31
0.0
  11
 773.64776706717
  21
 426.71314435191
  31
0.0
  11
 773.43406130652
  21
 426.94568200434
  31
0.0
  11
 773.22547546978
  21
 427.05370018640
  31
0.0
  11
 773.05147650944
  21
 427.03682443285
  31
0.0
  11
 772.94994860460
  21
 426.89445008352
  31
0.0
  11
 772.93929402685
  21
 426.65970942356
  31
0.0
  11
 773.03391494752
  21
 426.35831576672
  31
0.0
  11
 773.21660726479
  21
 426.05421283060
  31
0.0
  11
 773.46931159136
  21
 425.79056422055
  31
0.0
  11
 773.69236014203
  21
 425.65555032809
  31
0.0
   0
SPLINE
   5
1DA
 100
AcDbEntity
   8
0
   6
CONTINUOUS
  62
7
 100
AcDbSpline
  70
8
  71
3
  72
23
  73
19
  74
17
  42
 0.10000000000000E-6
  43
 0.10000000000000E-6
  44
 0.10000000000000E-4
  40
0.0
  40
0.0
  40
0.0
  40
0.0
  40
 0.36663238705665E-1
  40
 0.10261600064345
  40
 0.16856876258124
  40
 0.23237506017562
  40
 0.29893257149683
  40
 0.36370903949590
  40
 0.42848550749498
  40
 0.49504301881618
  40
 0.55884931641057
  40
 0.62480207834835
  40
 0.69075484028614
  40
 0.75456113788052
  40
 0.82111864920173
  40
 0.88589511720080
  40
 0.95067158519988
  40
 1.0000000000000
  40
 1.0000000000000
  40
 1.0000000000000
  40
 1.0000000000000
  10
 773.89179339995
  20
 425.58137584931
  30
0.0
  10
 773.94732218610
  20
 425.56544599566
  30
0.0
  10
 774.10274058766
  20
 425.52086024901
  30
0.0
  10
 774.32673891982
  20
 425.59297692785
  30
0.0
  10
 774.51673363251
  20
 425.78259872192
  30
0.0
  10
 774.60558535548
  20
 426.07574335072
  30
0.0
  10
 774.59928226820
  20
 426.42878732943
  30
0.0
  10
 774.49177648855
  20
 426.79087487734
  30
0.0
  10
 774.31165981257
  20
 427.11088779804
  30
0.0
  10
 774.09846097183
  20
 427.34474387937
  30
0.0
  10
 773.87572985937
  20
 427.45655896987
  30
0.0
  10
 773.69907486195
  20
 427.43924649391
  30
0.0
  10
 773.59582268063
  20
 427.29473936871
  30
0.0
  10
 773.58141277743
  20
 427.04604620307
  30
0.0
  10
 773.67734824809
  20
 426.74365904891
  30
0.0
  10
 773.86479476902
  20
 426.43050695985
  30
0.0
  10
 774.10082821682
  20
 426.17080450528
  30
0.0
  10
 774.27641776470
  20
 426.07706506031
  30
0.0
  10
 774.35232647114
  20
 426.03654078027
  30
0.0
  11
 773.89179339995
  21
 425.58137584931
  31
0.0
  11
 774.05594672448
  21
 425.54488188980
  31
0.0
  11
 774.31493217003
  21
 425.61081929695
  31
0.0
  11
 774.50144656008
  21
 425.80225529989
  31
0.0
  11
 774.58919698787
  21
 426.08150244672
  31
0.0
  11
 774.58182375289
  21
 426.43326312042
  31
0.0
  11
 774.47978457923
  21
 426.78392612530
  31
0.0
  11
 774.30773339628
  21
 427.09413480409
  31
0.0
  11
 774.09402763562
  21
 427.32667245652
  31
0.0
  11
 773.88544179889
  21
 427.43469063858
  31
0.0
  11
 773.71144283855
  21
 427.41781488503
  31
0.0
  11
 773.60991493371
  21
 427.27544053570
  31
0.0
  11
 773.59926035596
  21
 427.04069987575
  31
0.0
  11
 773.69388127663
  21
 426.73930621890
  31
0.0
  11
 773.87657359390
  21
 426.43520328278
  31
0.0
  11
 774.12927792046
  21
 426.17155467273
  31
0.0
  11
 774.35232647114
  21
 426.03654078027
  31
0.0
   0
SPLINE
   5
1DB
 100
AcDbEntity
   8
0
   6
CONTINUOUS
  62
7
 100
AcDbSpline
  70
8
  71
3
  72
23
  73
19
  74
17
  42
 0.10000000000000E-6
  43
 0.10000000000000E-6
  44
 0.10000000000000E-4
  40
0.0
  40
0.0
  40
0.0
  40
0.0
  40
 0.36663238705667E-1
  40
 0.10261600064345
  40
 0.16856876258123
  40
 0.23237506017562
  40
 0.29893257149683
  40
 0.36370903949590
  40
 0.42848550749498
  40
 0.49504301881618
  40
 0.55884931641057
  40
 0.62480207834835
  40
 0.69075484028614
  40
 0.75456113788052
  40
 0.82111864920173
  40
 0.88589511720080
  40
 0.95067158519988
  40
 1.0000000000000
  40
 1.0000000000000
  40
 1.0000000000000
  40
 1.0000000000000
  10
 774.55175972906
  20
 425.96236630149
  30
0.0
  10
 774.60728851521
  20
 425.94643644784
  30
0.0
  10
 774.76270691677
  20
 425.90185070119
  30
0.0
  10
 774.98670524892
  20
 425.97396738003
  30
0.0
  10
 775.17669996162
  20
 426.16358917410
  30
0.0
  10
 775.26555168459
  20
 426.45673380290
  30
0.0
  10
 775.25924859731
  20
 426.80977778162
  30
0.0
  10
 775.15174281766
  20
 427.17186532952
  30
0.0
  10
 774.97162614168
  20
 427.49187825022
  30
0.0
  10
 774.75842730094
  20
 427.72573433155
  30
0.0
  10
 774.53569618848
  20
 427.83754942205
  30
0.0
  10
 774.35904119106
  20
 427.82023694609
  30
0.0
  10
 774.25578900974
  20
 427.67572982090
  30
0.0
  10
 774.24137910654
  20
 427.42703665525
  30
0.0
  10
 774.33731457720
  20
 427.12464950109
  30
0.0
  10
 774.52476109813
  20
 426.81149741204
  30
0.0
  10
 774.76079454592
  20
 426.55179495746
  30
0.0
  10
 774.93638409380
  20
 426.45805551249
  30
0.0
  10
 775.01229280025
  20
 426.41753123245
  30
0.0
  11
 774.55175972906
  21
 425.96236630149
  31
0.0
  11
 774.71591305359
  21
 425.92587234198
  31
0.0
  11
 774.97489849914
  21
 425.99180974914
  31
0.0
  11
 775.16141288918
  21
 426.18324575207
  31
0.0
  11
 775.24916331698
  21
 426.46249289891
  31
0.0
  11
 775.24179008200
  21
 426.81425357261
  31
0.0
  11
 775.13975090834
  21
 427.16491657748
  31
0.0
  11
 774.96769972538
  21
 427.47512525628
  31
0.0
  11
 774.75399396473
  21
 427.70766290871
  31
0.0
  11
 774.54540812800
  21
 427.81568109077
  31
0.0
  11
 774.37140916766
  21
 427.79880533722
  31
0.0
  11
 774.26988126282
  21
 427.65643098789
  31
0.0
  11
 774.25922668506
  21
 427.42169032793
  31
0.0
  11
 774.35384760574
  21
 427.12029667109
  31
0.0
  11
 774.53653992301
  21
 426.81619373496
  31
0.0
  11
 774.78924424957
  21
 426.55254512491
  31
0.0
  11
 775.01229280025
  21
 426.41753123245
  31
0.0
   0
SPLINE
   5
1DC
 100
AcDbEntity
   8
0
   6
CONTINUOUS
  62
7
 100
AcDbSpline
  70
8
  71
3
  72
23
  73
19
  74
17
  42
 0.10000000000000E-6
  43
 0.10000000000000E-6
  44
 0.10000000000000E-4
  40
0.0
  40
0.0
  40
0.0
  40
0.0
  40
 0.36663238705667E-1
  40
 0.10261600064346
  40
 0.16856876258124
  40
 0.23237506017562
  40
 0.29893257149683
  40
 0.36370903949590
  40
 0.42848550749498
  40
 0.49504301881619
  40
 0.55884931641057
  40
 0.62480207834835
  40
 0.69075484028614
  40
 0.75456113788052
  40
 0.82111864920173
  40
 0.88589511720081
  40
 0.95067158519988
  40
 1.0000000000000
  40
 1.0000000000000
  40
 1.0000000000000
  40
 1.0000000000000
  10
 775.21172605816
  20
 426.34335675367
  30
0.0
  10
 775.26725484432
  20
 426.32742690002
  30
0.0
  10
 775.42267324588
  20
 426.28284115337
  30
0.0
  10
 775.64667157803
  20
 426.35495783222
  30
0.0
  10
 775.83666629073
  20
 426.54457962629
  30
0.0
  10
 775.92551801370
  20
 426.83772425509
  30
0.0
  10
 775.91921492641
  20
 427.19076823380
  30
0.0
  10
 775.81170914677
  20
 427.55285578171
  30
0.0
  10
 775.63159247079
  20
 427.87286870241
  30
0.0
  10
 775.41839363004
  20
 428.10672478373
  30
0.0
  10
 775.19566251759
  20
 428.21853987424
  30
0.0
  10
 775.01900752017
  20
 428.20122739828
  30
0.0
  10
 774.91575533884
  20
 428.05672027308
  30
0.0
  10
 774.90134543565
  20
 427.80802710743
  30
0.0
  10
 774.99728090631
  20
 427.50563995327
  30
0.0
  10
 775.18472742723
  20
 427.19248786422
  30
0.0
  10
 775.42076087503
  20
 426.93278540964
  30
0.0
  10
 775.59635042291
  20
 426.83904596468
  30
0.0
  10
 775.67225912936
  20
 426.79852168464
  30
0.0
  11
 775.21172605816
  21
 426.34335675367
  31
0.0
  11
 775.37587938269
  21
 426.30686279416
  31
0.0
  11
 775.63486482824
  21
 426.37280020132
  31
0.0
  11
 775.82137921829
  21
 426.56423620425
  31
0.0
  11
 775.90912964609
  21
 426.84348335109
  31
0.0
  11
 775.90175641110
  21
 427.19524402479
  31
0.0
  11
 775.79971723744
  21
 427.54590702966
  31
0.0
  11
 775.62766605449
  21
 427.85611570846
  31
0.0
  11
 775.41396029384
  21
 428.08865336089
  31
0.0
  11
 775.20537445710
  21
 428.19667154295
  31
0.0
  11
 775.03137549676
  21
 428.17979578940
  31
0.0
  11
 774.92984759192
  21
 428.03742144007
  31
0.0
  11
 774.91919301417
  21
 427.80268078012
  31
0.0
  11
 775.01381393485
  21
 427.50128712327
  31
0.0
  11
 775.19650625212
  21
 427.19718418715
  31
0.0
  11
 775.44921057868
  21
 426.93353557710
  31
0.0
  11
 775.67225912936
  21
 426.79852168464
  31
0.0
   0
LINE
   5
1DD
 100
AcDbEntity
   8
0
 100
AcDbLine
   6
CONTINUOUS
  62
7
  10
 775.87169238733
  20
 426.72434720584
  30
0.0
  11
 776.03584571177
  21
 426.68785324638
  31
0.0
   0
LINE
   5
1DE
 100
AcDbEntity
   8
0
 100
AcDbLine
   6
CONTINUOUS
  62
7
  10
 776.03584571177
  20
 426.68785324638
  30
0.0
  11
 776.29483115737
  21
 426.75379065344
  31
0.0
   0
LINE
   5
1DF
 100
AcDbEntity
   8
0
 100
AcDbLine
   6
CONTINUOUS
  62
7
  10
 776.29483115737
  20
 426.75379065344
  30
0.0
  11
 776.48134554739
  21
 426.94522665638
  31
0.0
   0
LINE
   5
1E0
 100
AcDbEntity
   8
0
 100
AcDbLine
   6
CONTINUOUS
  62
7
  10
 776.48134554739
  20
 426.94522665638
  30
0.0
  11
 776.56909597519
  21
 427.22447380330
  31
0.0
   0
LINE
   5
1E1
 100
AcDbEntity
   8
0
 100
AcDbLine
   6
CONTINUOUS
  62
7
  10
 776.56909597519
  20
 427.22447380330
  30
0.0
  11
 776.56172274023
  21
 427.57623447704
  31
0.0
   0
LINE
   5
1E2
 100
AcDbEntity
   8
0
 100
AcDbLine
   6
CONTINUOUS
  62
7
  10
 776.56172274023
  20
 427.57623447704
  30
0.0
  11
 776.45968356649
  21
 427.92689748190
  31
0.0
   0
LINE
   5
1E3
 100
AcDbEntity
   8
0
 100
AcDbLine
   6
CONTINUOUS
  62
7
  10
 776.45968356649
  20
 427.92689748190
  30
0.0
  11
 776.28763238355
  21
 428.23710616068
  31
0.0
   0
LINE
   5
1E4
 100
AcDbEntity
   8
0
 100
AcDbLine
   6
CONTINUOUS
  62
7
  10
 776.28763238355
  20
 428.23710616068
  30
0.0
  11
 776.07392662289
  21
 428.46964381302
  31
0.0
   0
LINE
   5
1E5
 100
AcDbEntity
   8
0
 100
AcDbLine
   6
CONTINUOUS
  62
7
  10
 776.07392662289
  20
 428.46964381302
  30
0.0
  11
 775.86534078627
  21
 428.57766199518
  31
0.0
   0
LINE
   5
1E6
 100
AcDbEntity
   8
0
 100
AcDbLine
   6
CONTINUOUS
  62
7
  10
 775.86534078627
  20
 428.57766199518
  30
0.0
  11
 775.69134182589
  21
 428.56078624160
  31
0.0
   0
LINE
   5
1E7
 100
AcDbEntity
   8
0
 100
AcDbLine
   6
CONTINUOUS
  62
7
  10
 775.69134182589
  20
 428.56078624160
  30
0.0
  11
 775.58981392109
  21
 428.41841189228
  31
0.0
   0
LINE
   5
1E8
 100
AcDbEntity
   8
0
 100
AcDbLine
   6
CONTINUOUS
  62
7
  10
 775.58981392109
  20
 428.41841189228
  30
0.0
  11
 775.57915934331
  21
 428.18367123228
  31
0.0
   0
LINE
   5
1E9
 100
AcDbEntity
   8
0
 100
AcDbLine
   6
CONTINUOUS
  62
7
  10
 775.57915934331
  20
 428.18367123228
  30
0.0
  11
 775.67378026397
  21
 427.88227757552
  31
0.0
   0
LINE
   5
1EA
 100
AcDbEntity
   8
0
 100
AcDbLine
   6
CONTINUOUS
  62
7
  10
 775.67378026397
  20
 427.88227757552
  30
0.0
  11
 775.85647258119
  21
 427.57817463932
  31
0.0
   0
SPLINE
   5
1EB
 100
AcDbEntity
   8
0
   6
CONTINUOUS
  62
7
 100
AcDbSpline
  70
8
  71
3
  72
16
  73
12
  74
10
  42
 0.10000000000000E-6
  43
 0.10000000000000E-6
  44
 0.10000000000000E-4
  40
0.0
  40
0.0
  40
0.0
  40
0.0
  40
 0.12632033188868
  40
 0.24831138277944
  40
 0.37594974963968
  40
 0.49992755144175
  40
 0.62390535324381
  40
 0.75154372010404
  40
 0.87353477099480
  40
 0.99992755144173
  40
 1.0000000000000
  40
 1.0000000000000
  40
 1.0000000000000
  40
 1.0000000000000
  10
 775.78042336380
  20
 428.20804774849
  30
0.0
  10
 775.80886285064
  20
 428.21426308806
  30
0.0
  10
 775.86476713935
  20
 428.22648075358
  30
0.0
  10
 775.99294999091
  20
 428.14377674874
  30
0.0
  10
 776.10824350806
  20
 427.98964271836
  30
0.0
  10
 776.20633698474
  20
 427.78031470627
  30
0.0
  10
 776.25822971934
  20
 427.54574431813
  30
0.0
  10
 776.24648616182
  20
 427.31378345969
  30
0.0
  10
 776.17304359570
  20
 427.13035044738
  30
0.0
  10
 776.09304384331
  20
 427.02402557533
  30
0.0
  10
 776.03373936609
  20
 427.00721975585
  30
0.0
  10
 776.03370539214
  20
 427.00721012825
  30
0.0
  11
 775.78042336380
  21
 428.20804774849
  31
0.0
  11
 775.87318454667
  21
 428.20939526157
  31
0.0
  11
 775.98909522274
  21
 428.13353893149
  31
0.0
  11
 776.10630238208
  21
 427.97875908306
  31
0.0
  11
 776.19871190700
  21
 427.77614864592
  31
0.0
  11
 776.24736392611
  21
 427.54825425498
  31
0.0
  11
 776.23561325691
  21
 427.31896001826
  31
0.0
  11
 776.16631376766
  21
 427.13608558520
  31
0.0
  11
 776.03380730790
  21
 427.00723902331
  31
0.0
  11
 776.03370539214
  21
 427.00721012825
  31
0.0
   0
SPLINE
   5
1EC
 100
AcDbEntity
   8
0
   6
CONTINUOUS
  62
7
 100
AcDbSpline
  70
8
  71
3
  72
16
  73
12
  74
10
  42
 0.10000000000000E-6
  43
 0.10000000000000E-6
  44
 0.10000000000000E-4
  40
0.0
  40
0.0
  40
0.0
  40
0.0
  40
 0.12632033188868
  40
 0.24831138277944
  40
 0.37594974963968
  40
 0.49992755144175
  40
 0.62390535324381
  40
 0.75154372010405
  40
 0.87353477099481
  40
 0.99992755144174
  40
 1.0000000000000
  40
 1.0000000000000
  40
 1.0000000000000
  40
 1.0000000000000
  10
 775.12045703469
  20
 427.82705729630
  30
0.0
  10
 775.14889652153
  20
 427.83327263588
  30
0.0
  10
 775.20480081025
  20
 427.84549030140
  30
0.0
  10
 775.33298366181
  20
 427.76278629656
  30
0.0
  10
 775.44827717896
  20
 427.60865226617
  30
0.0
  10
 775.54637065563
  20
 427.39932425408
  30
0.0
  10
 775.59826339023
  20
 427.16475386595
  30
0.0
  10
 775.58651983271
  20
 426.93279300750
  30
0.0
  10
 775.51307726659
  20
 426.74935999519
  30
0.0
  10
 775.43307751420
  20
 426.64303512314
  30
0.0
  10
 775.37377303698
  20
 426.62622930367
  30
0.0
  10
 775.37373906303
  20
 426.62621967606
  30
0.0
  11
 775.12045703469
  21
 427.82705729630
  31
0.0
  11
 775.21321821756
  21
 427.82840480938
  31
0.0
  11
 775.32912889364
  21
 427.75254847930
  31
0.0
  11
 775.44633605298
  21
 427.59776863087
  31
0.0
  11
 775.53874557790
  21
 427.39515819374
  31
0.0
  11
 775.58739759701
  21
 427.16726380280
  31
0.0
  11
 775.57564692780
  21
 426.93796956608
  31
0.0
  11
 775.50634743855
  21
 426.75509513301
  31
0.0
  11
 775.37384097879
  21
 426.62624857113
  31
0.0
  11
 775.37373906303
  21
 426.62621967606
  31
0.0
   0
SPLINE
   5
1ED
 100
AcDbEntity
   8
0
   6
CONTINUOUS
  62
7
 100
AcDbSpline
  70
8
  71
3
  72
16
  73
12
  74
10
  42
 0.10000000000000E-6
  43
 0.10000000000000E-6
  44
 0.10000000000000E-4
  40
0.0
  40
0.0
  40
0.0
  40
0.0
  40
 0.12632033188868
  40
 0.24831138277944
  40
 0.37594974963968
  40
 0.49992755144176
  40
 0.62390535324382
  40
 0.75154372010405
  40
 0.87353477099481
  40
 0.99992755144174
  40
 1.0000000000000
  40
 1.0000000000000
  40
 1.0000000000000
  40
 1.0000000000000
  10
 774.46049070558
  20
 427.44606684412
  30
0.0
  10
 774.48893019243
  20
 427.45228218369
  30
0.0
  10
 774.54483448114
  20
 427.46449984922
  30
0.0
  10
 774.67301733270
  20
 427.38179584437
  30
0.0
  10
 774.78831084985
  20
 427.22766181399
  30
0.0
  10
 774.88640432652
  20
 427.01833380190
  30
0.0
  10
 774.93829706113
  20
 426.78376341376
  30
0.0
  10
 774.92655350360
  20
 426.55180255532
  30
0.0
  10
 774.85311093748
  20
 426.36836954301
  30
0.0
  10
 774.77311118509
  20
 426.26204467096
  30
0.0
  10
 774.71380670787
  20
 426.24523885149
  30
0.0
  10
 774.71377273392
  20
 426.24522922388
  30
0.0
  11
 774.46049070558
  21
 427.44606684412
  31
0.0
  11
 774.55325188845
  21
 427.44741435720
  31
0.0
  11
 774.66916256453
  21
 427.37155802712
  31
0.0
  11
 774.78636972387
  21
 427.21677817869
  31
0.0
  11
 774.87877924879
  21
 427.01416774155
  31
0.0
  11
 774.92743126790
  21
 426.78627335062
  31
0.0
  11
 774.91568059870
  21
 426.55697911389
  31
0.0
  11
 774.84638110944
  21
 426.37410468083
  31
0.0
  11
 774.71387464968
  21
 426.24525811894
  31
0.0
  11
 774.71377273392
  21
 426.24522922388
  31
0.0
   0
SPLINE
   5
1EE
 100
AcDbEntity
   8
0
   6
CONTINUOUS
  62
7
 100
AcDbSpline
  70
8
  71
3
  72
16
  73
12
  74
10
  42
 0.10000000000000E-6
  43
 0.10000000000000E-6
  44
 0.10000000000000E-4
  40
0.0
  40
0.0
  40
0.0
  40
0.0
  40
 0.12632033188868
  40
 0.24831138277944
  40
 0.37594974963968
  40
 0.49992755144176
  40
 0.62390535324382
  40
 0.75154372010405
  40
 0.87353477099481
  40
 0.99992755144174
  40
 1.0000000000000
  40
 1.0000000000000
  40
 1.0000000000000
  40
 1.0000000000000
  10
 773.80052437647
  20
 427.06507639194
  30
0.0
  10
 773.82896386332
  20
 427.07129173151
  30
0.0
  10
 773.88486815203
  20
 427.08350939703
  30
0.0
  10
 774.01305100359
  20
 427.00080539219
  30
0.0
  10
 774.12834452074
  20
 426.84667136180
  30
0.0
  10
 774.22643799742
  20
 426.63734334972
  30
0.0
  10
 774.27833073202
  20
 426.40277296158
  30
0.0
  10
 774.26658717449
  20
 426.17081210314
  30
0.0
  10
 774.19314460837
  20
 425.98737909082
  30
0.0
  10
 774.11314485598
  20
 425.88105421877
  30
0.0
  10
 774.05384037877
  20
 425.86424839930
  30
0.0
  10
 774.05380640481
  20
 425.86423877170
  30
0.0
  11
 773.80052437647
  21
 427.06507639194
  31
0.0
  11
 773.89328555934
  21
 427.06642390501
  31
0.0
  11
 774.00919623542
  21
 426.99056757494
  31
0.0
  11
 774.12640339476
  21
 426.83578772651
  31
0.0
  11
 774.21881291968
  21
 426.63317728937
  31
0.0
  11
 774.26746493879
  21
 426.40528289843
  31
0.0
  11
 774.25571426959
  21
 426.17598866171
  31
0.0
  11
 774.18641478033
  21
 425.99311422865
  31
0.0
  11
 774.05390832058
  21
 425.86426766676
  31
0.0
  11
 774.05380640481
  21
 425.86423877170
  31
0.0
   0
SPLINE
   5
1EF
 100
AcDbEntity
   8
0
   6
CONTINUOUS
  62
7
 100
AcDbSpline
  70
8
  71
3
  72
16
  73
12
  74
10
  42
 0.10000000000000E-6
  43
 0.10000000000000E-6
  44
 0.10000000000000E-4
  40
0.0
  40
0.0
  40
0.0
  40
0.0
  40
 0.12632033188868
  40
 0.24831138277944
  40
 0.37594974963968
  40
 0.49992755144175
  40
 0.62390535324381
  40
 0.75154372010404
  40
 0.87353477099480
  40
 0.99992755144173
  40
 1.0000000000000
  40
 1.0000000000000
  40
 1.0000000000000
  40
 1.0000000000000
  10
 773.14055804737
  20
 426.68408593975
  30
0.0
  10
 773.16899753421
  20
 426.69030127932
  30
0.0
  10
 773.22490182292
  20
 426.70251894485
  30
0.0
  10
 773.35308467448
  20
 426.61981494001
  30
0.0
  10
 773.46837819163
  20
 426.46568090962
  30
0.0
  10
 773.56647166831
  20
 426.25635289753
  30
0.0
  10
 773.61836440291
  20
 426.02178250939
  30
0.0
  10
 773.60662084539
  20
 425.78982165095
  30
0.0
  10
 773.53317827927
  20
 425.60638863864
  30
0.0
  10
 773.45317852688
  20
 425.50006376659
  30
0.0
  10
 773.39387404966
  20
 425.48325794712
  30
0.0
  10
 773.39384007571
  20
 425.48324831951
  30
0.0
  11
 773.14055804737
  21
 426.68408593975
  31
0.0
  11
 773.23331923024
  21
 426.68543345283
  31
0.0
  11
 773.34922990631
  21
 426.60957712275
  31
0.0
  11
 773.46643706565
  21
 426.45479727432
  31
0.0
  11
 773.55884659057
  21
 426.25218683718
  31
0.0
  11
 773.60749860968
  21
 426.02429244625
  31
0.0
  11
 773.59574794048
  21
 425.79499820952
  31
0.0
  11
 773.52644845123
  21
 425.61212377646
  31
0.0
  11
 773.39394199147
  21
 425.48327721458
  31
0.0
  11
 773.39384007571
  21
 425.48324831951
  31
0.0
   0
SPLINE
   5
1F0
 100
AcDbEntity
   8
0
   6
CONTINUOUS
  62
7
 100
AcDbSpline
  70
8
  71
3
  72
16
  73
12
  74
10
  42
 0.10000000000000E-6
  43
 0.10000000000000E-6
  44
 0.10000000000000E-4
  40
0.0
  40
0.0
  40
0.0
  40
0.0
  40
 0.12632033188868
  40
 0.24831138277944
  40
 0.37594974963968
  40
 0.49992755144176
  40
 0.62390535324381
  40
 0.75154372010404
  40
 0.87353477099480
  40
 0.99992755144173
  40
 1.0000000000000
  40
 1.0000000000000
  40
 1.0000000000000
  40
 1.0000000000000
  10
 772.48059171826
  20
 426.30309548757
  30
0.0
  10
 772.50903120510
  20
 426.30931082714
  30
0.0
  10
 772.56493549382
  20
 426.32152849266
  30
0.0
  10
 772.69311834538
  20
 426.23882448782
  30
0.0
  10
 772.80841186253
  20
 426.08469045744
  30
0.0
  10
 772.90650533920
  20
 425.87536244535
  30
0.0
  10
 772.95839807380
  20
 425.64079205721
  30
0.0
  10
 772.94665451628
  20
 425.40883119877
  30
0.0
  10
 772.87321195016
  20
 425.22539818646
  30
0.0
  10
 772.79321219777
  20
 425.11907331441
  30
0.0
  10
 772.73390772055
  20
 425.10226749494
  30
0.0
  10
 772.73387374660
  20
 425.10225786733
  30
0.0
  11
 772.48059171826
  21
 426.30309548757
  31
0.0
  11
 772.57335290113
  21
 426.30444300065
  31
0.0
  11
 772.68926357721
  21
 426.22858667057
  31
0.0
  11
 772.80647073655
  21
 426.07380682214
  31
0.0
  11
 772.89888026146
  21
 425.87119638500
  31
0.0
  11
 772.94753228058
  21
 425.64330199407
  31
0.0
  11
 772.93578161137
  21
 425.41400775734
  31
0.0
  11
 772.86648212212
  21
 425.23113332428
  31
0.0
  11
 772.73397566236
  21
 425.10228676239
  31
0.0
  11
 772.73387374660
  21
 425.10225786733
  31
0.0
   0
SPLINE
   5
1F1
 100
AcDbEntity
   8
0
   6
CONTINUOUS
  62
7
 100
AcDbSpline
  70
8
  71
3
  72
16
  73
12
  74
10
  42
 0.10000000000000E-6
  43
 0.10000000000000E-6
  44
 0.10000000000000E-4
  40
0.0
  40
0.0
  40
0.0
  40
0.0
  40
 0.12632033188868
  40
 0.24831138277944
  40
 0.37594974963968
  40
 0.49992755144175
  40
 0.62390535324381
  40
 0.75154372010404
  40
 0.87353477099480
  40
 0.99992755144173
  40
 1.0000000000000
  40
 1.0000000000000
  40
 1.0000000000000
  40
 1.0000000000000
  10
 771.82062538915
  20
 425.92210503538
  30
0.0
  10
 771.84906487600
  20
 425.92832037496
  30
0.0
  10
 771.90496916471
  20
 425.94053804048
  30
0.0
  10
 772.03315201627
  20
 425.85783403564
  30
0.0
  10
 772.14844553342
  20
 425.70370000525
  30
0.0
  10
 772.24653901009
  20
 425.49437199316
  30
0.0
  10
 772.29843174470
  20
 425.25980160503
  30
0.0
  10
 772.28668818717
  20
 425.02784074658
  30
0.0
  10
 772.21324562105
  20
 424.84440773427
  30
0.0
  10
 772.13324586866
  20
 424.73808286222
  30
0.0
  10
 772.07394139144
  20
 424.72127704275
  30
0.0
  10
 772.07390741749
  20
 424.72126741515
  30
0.0
  11
 771.82062538915
  21
 425.92210503538
  31
0.0
  11
 771.91338657202
  21
 425.92345254846
  31
0.0
  11
 772.02929724810
  21
 425.84759621838
  31
0.0
  11
 772.14650440744
  21
 425.69281636995
  31
0.0
  11
 772.23891393236
  21
 425.49020593282
  31
0.0
  11
 772.28756595147
  21
 425.26231154188
  31
0.0
  11
 772.27581528227
  21
 425.03301730516
  31
0.0
  11
 772.20651579301
  21
 424.85014287209
  31
0.0
  11
 772.07400933325
  21
 424.72129631021
  31
0.0
  11
 772.07390741749
  21
 424.72126741515
  31
0.0
   0
SPLINE
   5
1F2
 100
AcDbEntity
   8
0
   6
CONTINUOUS
  62
7
 100
AcDbSpline
  70
8
  71
3
  72
16
  73
12
  74
10
  42
 0.10000000000000E-6
  43
 0.10000000000000E-6
  44
 0.10000000000000E-4
  40
0.0
  40
0.0
  40
0.0
  40
0.0
  40
 0.12632033188868
  40
 0.24831138277944
  40
 0.37594974963968
  40
 0.49992755144176
  40
 0.62390535324382
  40
 0.75154372010405
  40
 0.87353477099480
  40
 0.99992755144173
  40
 1.0000000000000
  40
 1.0000000000000
  40
 1.0000000000000
  40
 1.0000000000000
  10
 771.16065906004
  20
 425.54111458320
  30
0.0
  10
 771.18909854689
  20
 425.54732992277
  30
0.0
  10
 771.24500283560
  20
 425.55954758830
  30
0.0
  10
 771.37318568716
  20
 425.47684358345
  30
0.0
  10
 771.48847920431
  20
 425.32270955307
  30
0.0
  10
 771.58657268099
  20
 425.11338154098
  30
0.0
  10
 771.63846541559
  20
 424.87881115284
  30
0.0
  10
 771.62672185806
  20
 424.64685029440
  30
0.0
  10
 771.55327929194
  20
 424.46341728209
  30
0.0
  10
 771.47327953955
  20
 424.35709241004
  30
0.0
  10
 771.41397506234
  20
 424.34028659057
  30
0.0
  10
 771.41394108838
  20
 424.34027696296
  30
0.0
  11
 771.16065906004
  21
 425.54111458320
  31
0.0
  11
 771.25342024291
  21
 425.54246209628
  31
0.0
  11
 771.36933091899
  21
 425.46660576620
  31
0.0
  11
 771.48653807833
  21
 425.31182591777
  31
0.0
  11
 771.57894760325
  21
 425.10921548063
  31
0.0
  11
 771.62759962236
  21
 424.88132108970
  31
0.0
  11
 771.61584895316
  21
 424.65202685297
  31
0.0
  11
 771.54654946390
  21
 424.46915241991
  31
0.0
  11
 771.41404300415
  21
 424.34030585802
  31
0.0
  11
 771.41394108838
  21
 424.34027696296
  31
0.0
   0
SPLINE
   5
1F3
 100
AcDbEntity
   8
0
   6
CONTINUOUS
  62
7
 100
AcDbSpline
  70
8
  71
3
  72
16
  73
12
  74
10
  42
 0.10000000000000E-6
  43
 0.10000000000000E-6
  44
 0.10000000000000E-4
  40
0.0
  40
0.0
  40
0.0
  40
0.0
  40
 0.12632033188868
  40
 0.24831138277944
  40
 0.37594974963968
  40
 0.49992755144176
  40
 0.62390535324382
  40
 0.75154372010405
  40
 0.87353477099481
  40
 0.99992755144173
  40
 1.0000000000000
  40
 1.0000000000000
  40
 1.0000000000000
  40
 1.0000000000000
  10
 770.50069273094
  20
 425.16012413102
  30
0.0
  10
 770.52913221778
  20
 425.16633947059
  30
0.0
  10
 770.58503650649
  20
 425.17855713611
  30
0.0
  10
 770.71321935806
  20
 425.09585313127
  30
0.0
  10
 770.82851287520
  20
 424.94171910089
  30
0.0
  10
 770.92660635188
  20
 424.73239108880
  30
0.0
  10
 770.97849908648
  20
 424.49782070066
  30
0.0
  10
 770.96675552896
  20
 424.26585984222
  30
0.0
  10
 770.89331296283
  20
 424.08242682990
  30
0.0
  10
 770.81331321045
  20
 423.97610195786
  30
0.0
  10
 770.75400873323
  20
 423.95929613838
  30
0.0
  10
 770.75397475928
  20
 423.95928651078
  30
0.0
  11
 770.50069273094
  21
 425.16012413102
  31
0.0
  11
 770.59345391381
  21
 425.16147164409
  31
0.0
  11
 770.70936458988
  21
 425.08561531402
  31
0.0
  11
 770.82657174922
  21
 424.93083546559
  31
0.0
  11
 770.91898127414
  21
 424.72822502845
  31
0.0
  11
 770.96763329325
  21
 424.50033063751
  31
0.0
  11
 770.95588262405
  21
 424.27103640079
  31
0.0
  11
 770.88658313480
  21
 424.08816196773
  31
0.0
  11
 770.75407667504
  21
 423.95931540584
  31
0.0
  11
 770.75397475928
  21
 423.95928651078
  31
0.0
   0
SPLINE
   5
1F4
 100
AcDbEntity
   8
0
   6
CONTINUOUS
  62
7
 100
AcDbSpline
  70
8
  71
3
  72
16
  73
12
  74
10
  42
 0.10000000000000E-6
  43
 0.10000000000000E-6
  44
 0.10000000000000E-4
  40
0.0
  40
0.0
  40
0.0
  40
0.0
  40
 0.12632033188868
  40
 0.24831138277944
  40
 0.37594974963968
  40
 0.49992755144176
  40
 0.62390535324382
  40
 0.75154372010405
  40
 0.87353477099481
  40
 0.99992755144173
  40
 1.0000000000000
  40
 1.0000000000000
  40
 1.0000000000000
  40
 1.0000000000000
  10
 769.84072640183
  20
 424.77913367883
  30
0.0
  10
 769.86916588867
  20
 424.78534901840
  30
0.0
  10
 769.92507017739
  20
 424.79756668393
  30
0.0
  10
 770.05325302895
  20
 424.71486267909
  30
0.0
  10
 770.16854654610
  20
 424.56072864870
  30
0.0
  10
 770.26664002277
  20
 424.35140063661
  30
0.0
  10
 770.31853275737
  20
 424.11683024847
  30
0.0
  10
 770.30678919985
  20
 423.88486939003
  30
0.0
  10
 770.23334663373
  20
 423.70143637772
  30
0.0
  10
 770.15334688134
  20
 423.59511150567
  30
0.0
  10
 770.09404240412
  20
 423.57830568620
  30
0.0
  10
 770.09400843017
  20
 423.57829605859
  30
0.0
  11
 769.84072640183
  21
 424.77913367883
  31
0.0
  11
 769.93348758470
  21
 424.78048119191
  31
0.0
  11
 770.04939826078
  21
 424.70462486183
  31
0.0
  11
 770.16660542012
  21
 424.54984501340
  31
0.0
  11
 770.25901494504
  21
 424.34723457626
  31
0.0
  11
 770.30766696415
  21
 424.11934018533
  31
0.0
  11
 770.29591629494
  21
 423.89004594861
  31
0.0
  11
 770.22661680569
  21
 423.70717151554
  31
0.0
  11
 770.09411034593
  21
 423.57832495366
  31
0.0
  11
 770.09400843017
  21
 423.57829605859
  31
0.0
   0
LINE
   5
1F5
 100
AcDbEntity
   8
0
 100
AcDbLine
   6
CONTINUOUS
  62
7
  10
 776.60884982443
  20
 427.33920398418
  30
0.0
  11
 776.63510089893
  21
 427.35737060440
  31
0.0
   0
LINE
   5
1F6
 100
AcDbEntity
   8
0
 100
AcDbLine
   6
CONTINUOUS
  62
7
  10
 776.63510089893
  20
 427.35737060440
  30
0.0
  11
 776.71423435053
  21
 427.48605200060
  31
0.0
   0
LINE
   5
1F7
 100
AcDbEntity
   8
0
 100
AcDbLine
   6
CONTINUOUS
  62
7
  10
 776.71423435053
  20
 427.48605200060
  30
0.0
  11
 776.72555070607
  21
 427.67594342386
  31
0.0
   0
LINE
   5
1F8
 100
AcDbEntity
   8
0
 100
AcDbLine
   6
CONTINUOUS
  62
7
  10
 776.72555070607
  20
 427.67594342386
  30
0.0
  11
 776.66711699507
  21
 427.89460912272
  31
0.0
   0
LINE
   5
1F9
 100
AcDbEntity
   8
0
 100
AcDbLine
   6
CONTINUOUS
  62
7
  10
 776.66711699507
  20
 427.89460912272
  30
0.0
  11
 776.54891440189
  21
 428.10469835186
  31
0.0
   0
LINE
   5
1FA
 100
AcDbEntity
   8
0
 100
AcDbLine
   6
CONTINUOUS
  62
7
  10
 776.54891440189
  20
 428.10469835186
  30
0.0
  11
 776.39113335889
  21
 428.27032533030
  31
0.0
   0
LINE
   5
1FB
 100
AcDbEntity
   8
0
 100
AcDbLine
   6
CONTINUOUS
  62
7
  10
 776.39113335889
  20
 428.27032533030
  30
0.0
  11
 776.22072477607
  21
 428.36319896752
  31
0.0
   0
LINE
   5
1FC
 100
AcDbEntity
   8
0
 100
AcDbLine
   6
CONTINUOUS
  62
7
  10
 776.22072477607
  20
 428.36319896752
  30
0.0
  11
 776.12379705287
  21
 428.37675946720
  31
0.0
   0
POLYLINE
   5
1FD
 100
AcDbEntity
   8
0
   6
CONTINUOUS
  62
7
 100
AcDb2dPolyline
  66
1
  10
0.0
  20
0.0
  30
0.0
  70
0
   0
VERTEX
   5
1FE
 100
AcDbEntity
   8
0
   6
CONTINUOUS
  62
7
 100
AcDbVertex
 100
AcDb2dVertex
  10
 769.06344003598
  20
 427.08673166971
  30
0.0
   0
VERTEX
   5
1FF
 100
AcDbEntity
   8
0
   6
CONTINUOUS
  62
7
 100
AcDbVertex
 100
AcDb2dVertex
  10
 769.10909298888
  20
 427.06037678098
  30
0.0
   0
VERTEX
   5
200
 100
AcDbEntity
   8
0
   6
CONTINUOUS
  62
7
 100
AcDbVertex
 100
AcDb2dVertex
  10
 769.15385771829
  20
 427.02862894312
  30
0.0
   0
VERTEX
   5
201
 100
AcDbEntity
   8
0
   6
CONTINUOUS
  62
7
 100
AcDbVertex
 100
AcDb2dVertex
  10
 769.24170137320
  20
 426.95489771888
  30
0.0
   0
VERTEX
   5
202
 100
AcDbEntity
   8
0
   6
CONTINUOUS
  62
7
 100
AcDbVertex
 100
AcDb2dVertex
  10
 769.28519497670
  20
 426.91235056245
  30
0.0
   0
VERTEX
   5
203
 100
AcDbEntity
   8
0
   6
CONTINUOUS
  62
7
 100
AcDbVertex
 100
AcDb2dVertex
  10
 769.40753909226
  20
 426.77485114107
  30
0.0
   0
VERTEX
   5
204
 100
AcDbEntity
   8
0
   6
CONTINUOUS
  62
7
 100
AcDbVertex
 100
AcDb2dVertex
  10
 769.48090966492
  20
 426.66716531582
  30
0.0
   0
VERTEX
   5
205
 100
AcDbEntity
   8
0
   6
CONTINUOUS
  62
7
 100
AcDbVertex
 100
AcDb2dVertex
  10
 769.56998672849
  20
 426.49832240249
  30
0.0
   0
VERTEX
   5
206
 100
AcDbEntity
   8
0
   6
CONTINUOUS
  62
7
 100
AcDbVertex
 100
AcDb2dVertex
  10
 769.59670191672
  20
 426.43990472242
  30
0.0
   0
VERTEX
   5
207
 100
AcDbEntity
   8
0
   6
CONTINUOUS
  62
7
 100
AcDbVertex
 100
AcDb2dVertex
  10
 769.64236995317
  20
 426.32338910817
  30
0.0
   0
VERTEX
   5
208
 100
AcDbEntity
   8
0
   6
CONTINUOUS
  62
7
 100
AcDbVertex
 100
AcDb2dVertex
  10
 769.66142117864
  20
 426.26529020179
  30
0.0
   0
VERTEX
   5
209
 100
AcDbEntity
   8
0
   6
CONTINUOUS
  62
7
 100
AcDbVertex
 100
AcDb2dVertex
  10
 769.69227024160
  20
 426.14939707629
  30
0.0
   0
VERTEX
   5
20A
 100
AcDbEntity
   8
0
   6
CONTINUOUS
  62
7
 100
AcDbVertex
 100
AcDb2dVertex
  10
 769.70401236381
  20
 426.09147657407
  30
0.0
   0
VERTEX
   5
20B
 100
AcDbEntity
   8
0
   6
CONTINUOUS
  62
7
 100
AcDbVertex
 100
AcDb2dVertex
  10
 769.71950000013
  20
 425.97984661524
  30
0.0
   0
VERTEX
   5
20C
 100
AcDbEntity
   8
0
   6
CONTINUOUS
  62
7
 100
AcDbVertex
 100
AcDb2dVertex
  10
 769.72340636509
  20
 425.92562499179
  30
0.0
   0
VERTEX
   5
20D
 100
AcDbEntity
   8
0
   6
CONTINUOUS
  62
7
 100
AcDbVertex
 100
AcDb2dVertex
  10
 769.72340636509
  20
 425.87302533726
  30
0.0
   0
SEQEND
   5
20E
 100
AcDbEntity
   8
0
   6
CONTINUOUS
  62
7
   0
LINE
   5
20F
 100
AcDbEntity
   8
0
 100
AcDbLine
   6
CONTINUOUS
  62
7
  10
 769.06344003601
  20
 427.08673166968
  30
0.0
  11
 758.50397877023
  21
 433.18257890464
  31
0.0
   0
LINE
   5
210
 100
AcDbEntity
   8
0
 100
AcDbLine
   6
CONTINUOUS
  62
7
  10
 769.72340636513
  20
 416.07196947964
  30
0.0
  11
 769.72340636513
  21
 425.87302533724
  31
0.0
   0
SPLINE
   5
211
 100
AcDbEntity
   8
0
   6
CONTINUOUS
  62
7
 100
AcDbSpline
  70
8
  71
3
  72
13
  73
9
  74
7
  42
 0.10000000000000E-6
  43
 0.10000000000000E-6
  44
 0.10000000000000E-4
  40
0.0
  40
0.0
  40
0.0
  40
0.0
  40
 0.99324144616485E-1
  40
 0.29520503256602
  40
 0.49788234814354
  40
 0.67656306126585
  40
 0.86128191310015
  40
 1.0000000000000
  40
 1.0000000000000
  40
 1.0000000000000
  40
 1.0000000000000
  10
 757.97957821270
  20
 433.15220152356
  30
0.0
  10
 757.99076560730
  20
 433.16581550491
  30
0.0
  10
 758.02401608433
  20
 433.20627813183
  30
0.0
  10
 758.09951476989
  20
 433.24616853641
  30
0.0
  10
 758.19785828200
  20
 433.26961023903
  30
0.0
  10
 758.30592982855
  20
 433.26250481848
  30
0.0
  10
 758.40789285363
  20
 433.23337159303
  30
0.0
  10
 758.47513811335
  20
 433.19782457801
  30
0.0
  10
 758.50397877026
  20
 433.18257890465
  30
0.0
  11
 757.97957821270
  21
 433.15220152356
  31
0.0
  11
 758.01444386239
  21
 433.19114042093
  31
0.0
  11
 758.10028722887
  21
 433.24182035701
  31
0.0
  11
 758.20415949862
  21
 433.26485837145
  31
0.0
  11
 758.30584476410
  21
 433.25858591800
  31
0.0
  11
 758.41774489590
  21
 433.22522915615
  31
0.0
  11
 758.50397877026
  21
 433.18257890465
  31
0.0
   0
SPLINE
   5
212
 100
AcDbEntity
   8
0
   6
CONTINUOUS
  62
7
 100
AcDbSpline
  70
8
  71
3
  72
10
  73
6
  74
4
  42
 0.10000000000000E-6
  43
 0.10000000000000E-6
  44
 0.10000000000000E-4
  40
0.0
  40
0.0
  40
0.0
  40
0.0
  40
 0.25973610252441
  40
 0.51947220504882
  40
 1.0000000000000
  40
 1.0000000000000
  40
 1.0000000000000
  40
 1.0000000000000
  10
 769.72340636509
  20
 416.07196947961
  30
0.0
  10
 769.72005359540
  20
 416.02695344939
  30
0.0
  10
 769.71334805601
  20
 415.93692138897
  30
0.0
  10
 769.68125688305
  20
 415.78245242123
  30
0.0
  10
 769.61702911207
  20
 415.70786486167
  30
0.0
  10
 769.57533691382
  20
 415.65944780979
  30
0.0
  11
 769.72340636509
  21
 416.07196947961
  31
0.0
  11
 769.71085682276
  21
 415.93936882025
  31
0.0
  11
 769.68335988094
  21
 415.82145274861
  31
0.0
  11
 769.57533691382
  21
 415.65944780979
  31
0.0
   0
ARC
   5
213
 100
AcDbEntity
   8
0
   6
CONTINUOUS
  62
1
 100
AcDbCircle
  10
 739.46185061693
  20
 409.19520184554
  30
0.0
  40
 137.75077576007
 100
AcDbArc
  50
 137.60549884130
  51
 149.46412669260
   0
ARC
   5
214
 100
AcDbEntity
   8
0
   6
CONTINUOUS
  62
1
 100
AcDbCircle
  10
 596.59627138559
  20
 439.82575733184
  30
0.0
  40
 46.212449973505
 100
AcDbArc
  50
 58.393277028507
  51
 60.006301630907
   0
ARC
   5
215
 100
AcDbEntity
   8
0
   6
CONTINUOUS
  62
1
 100
AcDbCircle
  10
 739.54811914809
  20
 409.16392612204
  30
0.0
  40
 139.14191409751
 100
AcDbArc
  50
 137.43407103510
  51
 149.46861136980
   0
LINE
   5
216
 100
AcDbEntity
   8
0
 100
AcDbLine
   6
CONTINUOUS
  62
1
  10
 619.69809453741
  20
 479.84945405786
  30
0.0
  11
 609.13863327177
  21
 485.94530129282
  31
0.0
   0
ARC
   5
217
 100
AcDbEntity
   8
0
   6
CONTINUOUS
  62
1
 100
AcDbCircle
  10
 819.72897765605
  20
 297.51683972406
  30
0.0
  40
 266.55654838245
 100
AcDbArc
  50
 133.06107669860
  51
 136.04322278910
   0
LINE
   5
218
 100
AcDbEntity
   8
0
 100
AcDbLine
   6
CONTINUOUS
  62
1
  10
 624.54275831213
  20
 479.05553955760
  30
0.0
  11
 623.06163964891
  21
 477.45396841258
  31
0.0
   0
LINE
   5
219
 100
AcDbEntity
   8
0
 100
AcDbLine
   6
CONTINUOUS
  62
1
  10
 623.06163964891
  20
 477.45396841258
  30
0.0
  11
 620.81556215413
  21
 479.18330409506
  31
0.0
   0
ARC
   5
21A
 100
AcDbEntity
   8
0
   6
CONTINUOUS
  62
1
 100
AcDbCircle
  10
 620.01655580333
  20
 479.60868065968
  30
0.0
  40
 0.90518305896844
 100
AcDbArc
  50
 246.42385559272
  51
 331.96996830019
   0
ARC
   5
21B
 100
AcDbEntity
   8
0
   6
CONTINUOUS
  62
1
 100
AcDbCircle
  10
 620.37202701902
  20
 479.28592679775
  30
0.0
  40
 0.87849186819861
 100
AcDbArc
  50
 140.09838682732
  51
 215.23846939169
   0
LINE
   5
21C
 100
AcDbEntity
   8
0
 100
AcDbLine
   6
CONTINUOUS
  62
1
  10
 623.06163964891
  20
 477.45396841258
  30
0.0
  11
 623.10118258143
  21
 477.35553783530
  31
0.0
   0
LINE
   5
21D
 100
AcDbEntity
   8
0
 100
AcDbLine
   6
CONTINUOUS
  62
1
  10
 623.10118258143
  20
 477.35553783530
  30
0.0
  11
 623.11384376535
  21
 477.27553113930
  31
0.0
   0
LINE
   5
21E
 100
AcDbEntity
   8
0
 100
AcDbLine
   6
CONTINUOUS
  62
1
  10
 623.11384376535
  20
 477.27553113930
  30
0.0
  11
 623.09913663837
  21
 477.21702293710
  31
0.0
   0
LINE
   5
21F
 100
AcDbEntity
   8
0
 100
AcDbLine
   6
CONTINUOUS
  62
1
  10
 623.09913663837
  20
 477.21702293710
  30
0.0
  11
 623.08921638775
  21
 477.20377325198
  31
0.0
   0
LINE
   5
220
 100
AcDbEntity
   8
0
 100
AcDbLine
   6
CONTINUOUS
  62
1
  10
 619.65451203229
  20
 478.77905382906
  30
0.0
  11
 621.90058952707
  21
 477.04971814644
  31
0.0
   0
ARC
   5
221
 100
AcDbEntity
   8
0
   6
CONTINUOUS
  62
1
 100
AcDbCircle
  10
 622.26263329812
  20
 477.87934497708
  30
0.0
  40
 0.90518305896837
 100
AcDbArc
  50
 246.42385559262
  51
 331.96996829871
   0
LINE
   5
222
 100
AcDbEntity
   8
0
 100
AcDbLine
   6
CONTINUOUS
  62
1
  10
 609.09505076651
  20
 484.87490106402
  30
0.0
  11
 619.65451203229
  21
 478.77905382906
  31
0.0
   0
LINE
   5
223
 100
AcDbEntity
   8
0
 100
AcDbLine
   6
CONTINUOUS
  62
1
  10
 621.90058952707
  20
 477.04971814644
  30
0.0
  11
 611.34112826143
  21
 483.14556538140
  31
0.0
   0
LINE
   5
224
 100
AcDbEntity
   8
0
 100
AcDbLine
   6
CONTINUOUS
  62
1
  10
 611.34112826143
  20
 483.14556538140
  30
0.0
  11
 609.09505076651
  21
 484.87490106402
  31
0.0
   0
LINE
   5
225
 100
AcDbEntity
   8
0
 100
AcDbLine
   6
CONTINUOUS
  62
1
  10
 621.93504457791
  20
 477.02664659318
  30
0.0
  11
 621.90058952707
  21
 477.04971814644
  31
0.0
   0
LINE
   5
226
 100
AcDbEntity
   8
0
 100
AcDbLine
   6
CONTINUOUS
  62
1
  10
 611.34112826143
  20
 483.14556538140
  30
0.0
  11
 611.37558331227
  21
 483.12249382814
  31
0.0
   0
LINE
   5
227
 100
AcDbEntity
   8
0
 100
AcDbLine
   6
CONTINUOUS
  62
1
  10
 611.34112826143
  20
 483.14556538140
  30
0.0
  11
 611.27282112393
  21
 483.19127578936
  31
0.0
   0
ARC
   5
228
 100
AcDbEntity
   8
0
   6
CONTINUOUS
  62
1
 100
AcDbCircle
  10
 728.98865788231
  20
 415.25977335700
  30
0.0
  40
 139.14191409753
 100
AcDbArc
  50
 137.43407103510
  51
 149.46861136980
   0
ARC
   5
229
 100
AcDbEntity
   8
0
   6
CONTINUOUS
  62
1
 100
AcDbCircle
  10
 606.72652952591
  20
 481.98045481677
  30
0.0
  40
 4.6409322403150
 100
AcDbArc
  50
 58.684816891571
  51
 63.557454032966
   0
ARC
   5
22A
 100
AcDbEntity
   8
0
   6
CONTINUOUS
  62
1
 100
AcDbCircle
  10
 609.81256575322
  20
 485.38177403274
  30
0.0
  40
 0.87849186819882
 100
AcDbArc
  50
 140.09838682805
  51
 215.23846939446
   0
LINE
   5
22B
 100
AcDbEntity
   8
0
 100
AcDbLine
   6
CONTINUOUS
  62
1
  10
 609.09505076651
  20
 484.87490106402
  30
0.0
  11
 609.02674362915
  21
 484.92061147198
  31
0.0
   0
ARC
   5
22C
 100
AcDbEntity
   8
0
   6
CONTINUOUS
  62
1
 100
AcDbCircle
  10
 871.45511643841
  20
 332.99711140868
  30
0.0
  40
 137.75077576008
 100
AcDbArc
  50
 137.60549884130
  51
 149.46412669260
   0
ARC
   5
22D
 100
AcDbEntity
   8
0
   6
CONTINUOUS
  62
1
 100
AcDbCircle
  10
 728.58953720736
  20
 363.62766689554
  30
0.0
  40
 46.212449972983
 100
AcDbArc
  50
 58.393277028522
  51
 60.006301631022
   0
ARC
   5
22E
 100
AcDbEntity
   8
0
   6
CONTINUOUS
  62
1
 100
AcDbCircle
  10
 871.54138496957
  20
 332.96583568532
  30
0.0
  40
 139.14191409751
 100
AcDbArc
  50
 137.43407103510
  51
 149.46861136980
   0
LINE
   5
22F
 100
AcDbEntity
   8
0
 100
AcDbLine
   6
CONTINUOUS
  62
1
  10
 741.13189909325
  20
 409.74721085596
  30
0.0
  11
 751.69136035889
  21
 403.65136362100
  31
0.0
   0
ARC
   5
230
 100
AcDbEntity
   8
0
   6
CONTINUOUS
  62
1
 100
AcDbCircle
  10
 860.98192370379
  20
 339.06168292015
  30
0.0
  40
 139.14191409753
 100
AcDbArc
  50
 137.43407103510
  51
 149.46861136980
   0
ARC
   5
231
 100
AcDbEntity
   8
0
   6
CONTINUOUS
  62
1
 100
AcDbCircle
  10
 954.58918862461
  20
 218.37849312108
  30
0.0
  40
 270.66227673085
 100
AcDbArc
  50
 133.07951984570
  51
 137.49408471760
   0
LINE
   5
232
 100
AcDbEntity
   8
0
 100
AcDbLine
   6
CONTINUOUS
  62
1
  10
 752.80882797561
  20
 402.98521365834
  30
0.0
  11
 755.05490547039
  21
 401.25587797572
  31
0.0
   0
ARC
   5
233
 100
AcDbEntity
   8
0
   6
CONTINUOUS
  62
1
 100
AcDbCircle
  10
 739.06200671136
  20
 406.40288066718
  30
0.0
  40
 3.9330648207291
 100
AcDbArc
  50
 58.245564394354
  51
 63.995850513254
   0
ARC
   5
234
 100
AcDbEntity
   8
0
   6
CONTINUOUS
  62
1
 100
AcDbCircle
  10
 752.36529284050
  20
 403.08783636089
  30
0.0
  40
 0.87849186819860
 100
AcDbArc
  50
 140.09838682747
  51
 215.23846939228
   0
ARC
   5
235
 100
AcDbEntity
   8
0
   6
CONTINUOUS
  62
1
 100
AcDbCircle
  10
 752.00982162482
  20
 403.41059022285
  30
0.0
  40
 0.90518305896839
 100
AcDbArc
  50
 246.42385559257
  51
 331.96996829779
   0
LINE
   5
236
 100
AcDbEntity
   8
0
 100
AcDbLine
   6
CONTINUOUS
  62
1
  10
 755.08245315027
  20
 401.00565131176
  30
0.0
  11
 755.09240245985
  21
 401.01893250038
  31
0.0
   0
LINE
   5
237
 100
AcDbEntity
   8
0
 100
AcDbLine
   6
CONTINUOUS
  62
1
  10
 755.09240245985
  20
 401.01893250038
  30
0.0
  11
 755.10710958683
  21
 401.07744070258
  31
0.0
   0
LINE
   5
238
 100
AcDbEntity
   8
0
 100
AcDbLine
   6
CONTINUOUS
  62
1
  10
 755.10710958683
  20
 401.07744070258
  30
0.0
  11
 755.09444840291
  21
 401.15744739844
  31
0.0
   0
LINE
   5
239
 100
AcDbEntity
   8
0
 100
AcDbLine
   6
CONTINUOUS
  62
1
  10
 755.09444840291
  20
 401.15744739844
  30
0.0
  11
 755.05490547039
  21
 401.25587797572
  31
0.0
   0
LINE
   5
23A
 100
AcDbEntity
   8
0
 100
AcDbLine
   6
CONTINUOUS
  62
1
  10
 753.89385534855
  20
 400.85162770958
  30
0.0
  11
 751.64777785377
  21
 402.58096339220
  31
0.0
   0
ARC
   5
23B
 100
AcDbEntity
   8
0
   6
CONTINUOUS
  62
1
 100
AcDbCircle
  10
 754.25589911959
  20
 401.68125454034
  30
0.0
  40
 0.90518305896849
 100
AcDbArc
  50
 246.42385559274
  51
 331.96996830017
   0
LINE
   5
23C
 100
AcDbEntity
   8
0
 100
AcDbLine
   6
CONTINUOUS
  62
1
  10
 751.64777785377
  20
 402.58096339220
  30
0.0
  11
 741.08831658799
  21
 408.67681062716
  31
0.0
   0
ARC
   5
23D
 100
AcDbEntity
   8
0
   6
CONTINUOUS
  62
1
 100
AcDbCircle
  10
 741.80583157471
  20
 409.18368359586
  30
0.0
  40
 0.87849186819861
 100
AcDbArc
  50
 140.09838682770
  51
 215.23846939326
   0
LINE
   5
23E
 100
AcDbEntity
   8
0
 100
AcDbLine
   6
CONTINUOUS
  62
1
  10
 743.33439408291
  20
 406.94747494454
  30
0.0
  11
 753.89385534855
  21
 400.85162770958
  31
0.0
   0
LINE
   5
23F
 100
AcDbEntity
   8
0
 100
AcDbLine
   6
CONTINUOUS
  62
1
  10
 741.08831658799
  20
 408.67681062716
  30
0.0
  11
 743.33439408291
  21
 406.94747494454
  31
0.0
   0
LINE
   5
240
 100
AcDbEntity
   8
0
 100
AcDbLine
   6
CONTINUOUS
  62
1
  10
 753.89385534855
  20
 400.85162770958
  30
0.0
  11
 753.92831039939
  21
 400.82855615632
  31
0.0
   0
LINE
   5
241
 100
AcDbEntity
   8
0
 100
AcDbLine
   6
CONTINUOUS
  62
1
  10
 743.36884913375
  20
 406.92440339128
  30
0.0
  11
 743.33439408291
  21
 406.94747494454
  31
0.0
   0
LINE
   5
242
 100
AcDbEntity
   8
0
 100
AcDbLine
   6
CONTINUOUS
  62
1
  10
 741.02000945063
  20
 408.72252103512
  30
0.0
  11
 741.08831658799
  21
 408.67681062716
  31
0.0
   0
LINE
   5
243
 100
AcDbEntity
   8
0
 100
AcDbLine
   6
CONTINUOUS
  62
1
  10
 743.26608694541
  20
 406.99318535264
  30
0.0
  11
 743.33439408291
  21
 406.94747494454
  31
0.0
   0
SPLINE
   5
244
 100
AcDbEntity
   8
0
   6
CONTINUOUS
  62
7
 100
AcDbSpline
  70
8
  71
3
  72
18
  73
14
  74
12
  42
 0.10000000000000E-6
  43
 0.10000000000000E-6
  44
 0.10000000000000E-4
  40
 0.22622059370175
  40
 0.22622059370175
  40
 0.22622059370175
  40
 0.22622059370175
  40
 0.24479061591792
  40
 0.31128723061045
  40
 0.37503514879227
  40
 0.44092756741531
  40
 0.50681998603835
  40
 0.57056790422018
  40
 0.63706451891270
  40
 0.70178171984423
  40
 0.76649892077576
  40
 0.83299553546829
  40
 0.87604959374035
  40
 0.87604959374035
  40
 0.87604959374035
  40
 0.87604959374035
  10
 766.12145666178
  20
 428.78510252078
  30
0.0
  10
 766.12638950906
  20
 428.81517732009
  30
0.0
  10
 766.14293854820
  20
 428.95699029094
  30
0.0
  10
 766.12364765523
  20
 429.23093181432
  30
0.0
  10
 765.99793178921
  20
 429.58811177137
  30
0.0
  10
 765.81159259792
  20
 429.89618406580
  30
0.0
  10
 765.59261751932
  20
 430.10932875220
  30
0.0
  10
 765.37431599661
  20
 430.19701851485
  30
0.0
  10
 765.21155410384
  20
 430.15621882472
  30
0.0
  10
 765.12099318844
  20
 429.98840248294
  30
0.0
  10
 765.12797741174
  20
 429.72735987390
  30
0.0
  10
 765.23067131422
  20
 429.45165631207
  30
0.0
  10
 765.33517205819
  20
 429.27842949157
  30
0.0
  10
 765.38176466844
  20
 429.21211761927
  30
0.0
  11
 766.12145666178
  21
 428.78510252078
  31
0.0
  11
 766.13230066968
  21
 428.87779710913
  31
0.0
  11
 766.10593172247
  21
 429.23532115313
  31
0.0
  11
 765.98952545550
  21
 429.57651020639
  31
0.0
  11
 765.80609362783
  21
 429.88018927845
  31
0.0
  11
 765.59044646617
  21
 430.09013199769
  31
0.0
  11
 765.38605442930
  21
 430.17531050720
  31
0.0
  11
 765.22262597679
  21
 430.13403508037
  31
0.0
  11
 765.13710306336
  21
 429.97300588270
  31
0.0
  11
 765.14558609027
  21
 429.72175869826
  31
0.0
  11
 765.25920272317
  21
 429.41460167113
  31
0.0
  11
 765.38176466844
  21
 429.21211761927
  31
0.0
   0
LINE
   5
245
 100
AcDbEntity
   8
FORMAT
 100
AcDbLine
   6
DASHDOT
  62
2
  10
 125.03926180817
  20
 348.66938232682
  30
0.0
  11
 125.03926180817
  21
 443.00906035316
  31
0.0
   0
LINE
   5
246
 100
AcDbEntity
   8
FORMAT
 100
AcDbLine
   6
DASHDOT
  62
2
  10
 525.03926180817
  20
 348.66938232682
  30
0.0
  11
 525.03926180817
  21
 443.00906035315
  31
0.0
   0
LINE
   5
247
 100
AcDbEntity
   8
0
 100
AcDbLine
   6
CONTINUOUS
  62
7
  10
 143.03926180817
  20
 210.17387002350
  30
0.0
  11
 143.03926180817
  21
 244.61331758230
  31
0.0
   0
SPLINE
   5
248
 100
AcDbEntity
   8
0
   6
CONTINUOUS
  62
7
 100
AcDbSpline
  70
8
  71
3
  72
12
  73
8
  74
6
  42
 0.10000000000000E-6
  43
 0.10000000000000E-6
  44
 0.10000000000000E-4
  40
0.0
  40
0.0
  40
0.0
  40
0.0
  40
 0.24084883491911
  40
 0.48208589593654
  40
 0.71110331150770
  40
 0.91994608783065
  40
 1.0000000000000
  40
 1.0000000000000
  40
 1.0000000000000
  40
 1.0000000000000
  10
 143.03926180813
  20
 244.61331758221
  30
0.0
  10
 143.01398374238
  20
 244.87724292351
  30
0.0
  10
 142.96338686496
  20
 245.40551902941
  30
0.0
  10
 142.56497952156
  20
 246.09945941947
  30
0.0
  10
 141.99048340585
  20
 246.58695069207
  30
0.0
  10
 141.44180854101
  20
 246.78101467108
  30
0.0
  10
 141.12660531900
  20
 246.79480249934
  30
0.0
  10
 141.03926180813
  20
 246.79862313708
  30
0.0
  11
 143.03926180813
  21
 244.61331758221
  31
0.0
  11
 142.90864103571
  21
 245.39066046702
  31
0.0
  11
 142.52277660664
  21
 246.07945436695
  31
0.0
  11
 141.94785140861
  21
 246.56032908721
  31
0.0
  11
 141.30058991097
  21
 246.77990785033
  31
0.0
  11
 141.03926180813
  21
 246.79862313708
  31
0.0
   0
LINE
   5
249
 100
AcDbEntity
   8
0
 100
AcDbLine
   6
CONTINUOUS
  62
7
  10
 109.03926180817
  20
 246.79862313710
  30
0.0
  11
 141.03926180817
  21
 246.79862313710
  31
0.0
   0
LINE
   5
24A
 100
AcDbEntity
   8
0
 100
AcDbLine
   6
CONTINUOUS
  62
7
  10
 143.03926180817
  20
 206.29862313710
  30
0.0
  11
 507.03926180817
  21
 206.29862313710
  31
0.0
   0
LINE
   5
24B
 100
AcDbEntity
   8
0
 100
AcDbLine
   6
CONTINUOUS
  62
7
  10
 507.03926180817
  20
 216.29862313710
  30
0.0
  11
 143.03926180817
  21
 216.29862313710
  31
0.0
   0
LINE
   5
24C
 100
AcDbEntity
   8
0
 100
AcDbLine
   6
CONTINUOUS
  62
7
  10
 109.03926180817
  20
 200.23278688510
  30
0.0
  11
 141.03926180817
  21
 200.23278688510
  31
0.0
   0
ARC
   5
24D
 100
AcDbEntity
   8
0
   6
CONTINUOUS
  62
7
 100
AcDbCircle
  10
 109.03926180817
  20
 202.23278688510
  30
0.0
  40
 2.0000000000000
 100
AcDbArc
  50
 180.00000000000
  51
 270.00000000001
   0
ARC
   5
24E
 100
AcDbEntity
   8
0
   6
CONTINUOUS
  62
7
 100
AcDbCircle
  10
 141.03926180817
  20
 202.23278688510
  30
0.0
  40
 2.0000000000000
 100
AcDbArc
  50
 270.00000000000
  51
0.0
   0
LINE
   5
24F
 100
AcDbEntity
   8
0
 100
AcDbLine
   6
CONTINUOUS
  62
7
  10
 509.03926180817
  20
 200.23278688510
  30
0.0
  11
 541.03926180817
  21
 200.23278688510
  31
0.0
   0
ARC
   5
250
 100
AcDbEntity
   8
0
   6
CONTINUOUS
  62
7
 100
AcDbCircle
  10
 509.03926180818
  20
 202.23278688510
  30
0.0
  40
 2.0000000000000
 100
AcDbArc
  50
 180.00000000000
  51
 269.99999999985
   0
ARC
   5
251
 100
AcDbEntity
   8
0
   6
CONTINUOUS
  62
7
 100
AcDbCircle
  10
 541.03926180817
  20
 202.23278688509
  30
0.0
  40
 2.0000000000000
 100
AcDbArc
  50
 270.00000000000
  51
 0.23938126754567E-9
   0
LINE
   5
252
 100
AcDbEntity
   8
0
 100
AcDbLine
   6
CONTINUOUS
  62
7
  10
 143.03926180817
  20
 202.23278688510
  30
0.0
  11
 143.03926180817
  21
 210.17387002350
  31
0.0
   0
LINE
   5
253
 100
AcDbEntity
   8
0
 100
AcDbLine
   6
CONTINUOUS
  62
7
  10
 107.03926180817
  20
 210.17387002350
  30
0.0
  11
 107.03926180817
  21
 202.23278688510
  31
0.0
   0
LINE
   5
254
 100
AcDbEntity
   8
0
 100
AcDbLine
   6
CONTINUOUS
  62
7
  10
 107.03926180817
  20
 244.61331758230
  30
0.0
  11
 107.03926180817
  21
 210.17387002350
  31
0.0
   0
SPLINE
   5
255
 100
AcDbEntity
   8
0
   6
CONTINUOUS
  62
7
 100
AcDbSpline
  70
8
  71
3
  72
12
  73
8
  74
6
  42
 0.10000000000000E-6
  43
 0.10000000000000E-6
  44
 0.10000000000000E-4
  40
0.0
  40
0.0
  40
0.0
  40
0.0
  40
 0.19234729015780
  40
 0.38445115697881
  40
 0.58319210660540
  40
 0.79780959270649
  40
 1.0000000000000
  40
 1.0000000000000
  40
 1.0000000000000
  40
 1.0000000000000
  10
 109.03926180813
  20
 246.79862313708
  30
0.0
  10
 108.82830405071
  20
 246.77724757226
  30
0.0
  10
 108.40665551150
  20
 246.73452349429
  30
0.0
  10
 107.84058537334
  20
 246.40500037850
  30
0.0
  10
 107.38999007304
  20
 245.91290852536
  30
0.0
  10
 107.09388131058
  20
 245.29107515079
  30
0.0
  10
 107.05710279321
  20
 244.83470119293
  30
0.0
  10
 107.03926180813
  20
 244.61331758221
  30
0.0
  11
 109.03926180813
  21
 246.79862313708
  31
0.0
  11
 108.41852501632
  21
 246.69081524722
  31
0.0
  11
 107.86840674268
  21
 246.38536059037
  31
0.0
  11
 107.42695241511
  21
 245.90694459912
  31
0.0
  11
 107.13131196843
  21
 245.26915930647
  31
0.0
  11
 107.03926180813
  21
 244.61331758221
  31
0.0
   0
LINE
   5
256
 100
AcDbEntity
   8
0
 100
AcDbLine
   6
CONTINUOUS
  62
7
  10
 543.03926180817
  20
 210.17387002350
  30
0.0
  11
 543.03926180817
  21
 202.23278688510
  31
0.0
   0
LINE
   5
257
 100
AcDbEntity
   8
0
 100
AcDbLine
   6
CONTINUOUS
  62
7
  10
 507.03926180817
  20
 202.23278688510
  30
0.0
  11
 507.03926180817
  21
 210.17387002350
  31
0.0
   0
LINE
   5
258
 100
AcDbEntity
   8
0
 100
AcDbLine
   6
CONTINUOUS
  62
7
  10
 543.03926180817
  20
 244.61331758230
  30
0.0
  11
 543.03926180817
  21
 210.17387002350
  31
0.0
   0
POLYLINE
   5
259
 100
AcDbEntity
   8
0
   6
CONTINUOUS
  62
7
 100
AcDb2dPolyline
  66
1
  10
0.0
  20
0.0
  30
0.0
  70
0
   0
VERTEX
   5
25A
 100
AcDbEntity
   8
0
   6
CONTINUOUS
  62
7
 100
AcDbVertex
 100
AcDb2dVertex
  10
 541.03926180813
  20
 246.79862313708
  30
0.0
   0
VERTEX
   5
25B
 100
AcDbEntity
   8
0
   6
CONTINUOUS
  62
7
 100
AcDbVertex
 100
AcDb2dVertex
  10
 541.17761114773
  20
 246.79862313708
  30
0.0
   0
VERTEX
   5
25C
 100
AcDbEntity
   8
0
   6
CONTINUOUS
  62
7
 100
AcDbVertex
 100
AcDb2dVertex
  10
 541.31326876368
  20
 246.78312471754
  30
0.0
   0
VERTEX
   5
25D
 100
AcDbEntity
   8
0
   6
CONTINUOUS
  62
7
 100
AcDbVertex
 100
AcDb2dVertex
  10
 541.57947523829
  20
 246.72271265097
  30
0.0
   0
VERTEX
   5
25E
 100
AcDbEntity
   8
0
   6
CONTINUOUS
  62
7
 100
AcDbVertex
 100
AcDb2dVertex
  10
 541.71128076102
  20
 246.67694772587
  30
0.0
   0
VERTEX
   5
25F
 100
AcDbEntity
   8
0
   6
CONTINUOUS
  62
7
 100
AcDbVertex
 100
AcDb2dVertex
  10
 542.08203941994
  20
 246.50145566617
  30
0.0
   0
VERTEX
   5
260
 100
AcDbEntity
   8
0
   6
CONTINUOUS
  62
7
 100
AcDbVertex
 100
AcDb2dVertex
  10
 542.30438583196
  20
 246.33000969486
  30
0.0
   0
VERTEX
   5
261
 100
AcDbEntity
   8
0
   6
CONTINUOUS
  62
7
 100
AcDbVertex
 100
AcDb2dVertex
  10
 542.57433009925
  20
 246.02186355640
  30
0.0
   0
VERTEX
   5
262
 100
AcDbEntity
   8
0
   6
CONTINUOUS
  62
7
 100
AcDbVertex
 100
AcDb2dVertex
  10
 542.65528934534
  20
 245.90903043277
  30
0.0
   0
VERTEX
   5
263
 100
AcDbEntity
   8
0
   6
CONTINUOUS
  62
7
 100
AcDbVertex
 100
AcDb2dVertex
  10
 542.79368439501
  20
 245.67244348835
  30
0.0
   0
VERTEX
   5
264
 100
AcDbEntity
   8
0
   6
CONTINUOUS
  62
7
 100
AcDbVertex
 100
AcDb2dVertex
  10
 542.85141832667
  20
 245.54883615606
  30
0.0
   0
VERTEX
   5
265
 100
AcDbEntity
   8
0
   6
CONTINUOUS
  62
7
 100
AcDbVertex
 100
AcDb2dVertex
  10
 542.94490510502
  20
 245.29143232931
  30
0.0
   0
VERTEX
   5
266
 100
AcDbEntity
   8
0
   6
CONTINUOUS
  62
7
 100
AcDbVertex
 100
AcDb2dVertex
  10
 542.98048910889
  20
 245.15722002100
  30
0.0
   0
VERTEX
   5
267
 100
AcDbEntity
   8
0
   6
CONTINUOUS
  62
7
 100
AcDbVertex
 100
AcDb2dVertex
  10
 543.02742373462
  20
 244.88773177639
  30
0.0
   0
VERTEX
   5
268
 100
AcDbEntity
   8
0
   6
CONTINUOUS
  62
7
 100
AcDbVertex
 100
AcDb2dVertex
  10
 543.03926180813
  20
 244.75135544115
  30
0.0
   0
VERTEX
   5
269
 100
AcDbEntity
   8
0
   6
CONTINUOUS
  62
7
 100
AcDbVertex
 100
AcDb2dVertex
  10
 543.03926180813
  20
 244.61331758221
  30
0.0
   0
SEQEND
   5
26A
 100
AcDbEntity
   8
0
   6
CONTINUOUS
  62
7
   0
LINE
   5
26B
 100
AcDbEntity
   8
0
 100
AcDbLine
   6
CONTINUOUS
  62
7
  10
 507.03926180817
  20
 210.17387002350
  30
0.0
  11
 507.03926180817
  21
 244.61331758230
  31
0.0
   0
POLYLINE
   5
26C
 100
AcDbEntity
   8
0
   6
CONTINUOUS
  62
7
 100
AcDb2dPolyline
  66
1
  10
0.0
  20
0.0
  30
0.0
  70
0
   0
VERTEX
   5
26D
 100
AcDbEntity
   8
0
   6
CONTINUOUS
  62
7
 100
AcDbVertex
 100
AcDb2dVertex
  10
 507.03926180813
  20
 244.61331758221
  30
0.0
   0
VERTEX
   5
26E
 100
AcDbEntity
   8
0
   6
CONTINUOUS
  62
7
 100
AcDbVertex
 100
AcDb2dVertex
  10
 507.03926180813
  20
 244.88976162930
  30
0.0
   0
VERTEX
   5
26F
 100
AcDbEntity
   8
0
   6
CONTINUOUS
  62
7
 100
AcDbVertex
 100
AcDb2dVertex
  10
 507.08588104240
  20
 245.15954933358
  30
0.0
   0
VERTEX
   5
270
 100
AcDbEntity
   8
0
   6
CONTINUOUS
  62
7
 100
AcDbVertex
 100
AcDb2dVertex
  10
 507.27397951372
  20
 245.67834028691
  30
0.0
   0
VERTEX
   5
271
 100
AcDbEntity
   8
0
   6
CONTINUOUS
  62
7
 100
AcDbVertex
 100
AcDb2dVertex
  10
 507.41175017687
  20
 245.91602403993
  30
0.0
   0
VERTEX
   5
272
 100
AcDbEntity
   8
0
   6
CONTINUOUS
  62
7
 100
AcDbVertex
 100
AcDb2dVertex
  10
 507.68382471824
  20
 246.22707129825
  30
0.0
   0
VERTEX
   5
273
 100
AcDbEntity
   8
0
   6
CONTINUOUS
  62
7
 100
AcDbVertex
 100
AcDb2dVertex
  10
 507.78317768805
  20
 246.32039823609
  30
0.0
   0
VERTEX
   5
274
 100
AcDbEntity
   8
0
   6
CONTINUOUS
  62
7
 100
AcDbVertex
 100
AcDb2dVertex
  10
 507.99951944352
  20
 246.48596704638
  30
0.0
   0
VERTEX
   5
275
 100
AcDbEntity
   8
0
   6
CONTINUOUS
  62
7
 100
AcDbVertex
 100
AcDb2dVertex
  10
 508.11821461518
  20
 246.55894382384
  30
0.0
   0
VERTEX
   5
276
 100
AcDbEntity
   8
0
   6
CONTINUOUS
  62
7
 100
AcDbVertex
 100
AcDb2dVertex
  10
 508.36613332871
  20
 246.67655178141
  30
0.0
   0
VERTEX
   5
277
 100
AcDbEntity
   8
0
   6
CONTINUOUS
  62
7
 100
AcDbVertex
 100
AcDb2dVertex
  10
 508.49481003418
  20
 246.72145023424
  30
0.0
   0
VERTEX
   5
278
 100
AcDbEntity
   8
0
   6
CONTINUOUS
  62
7
 100
AcDbVertex
 100
AcDb2dVertex
  10
 508.76186560114
  20
 246.78264768907
  30
0.0
   0
VERTEX
   5
279
 100
AcDbEntity
   8
0
   6
CONTINUOUS
  62
7
 100
AcDbVertex
 100
AcDb2dVertex
  10
 508.90063613279
  20
 246.79862313708
  30
0.0
   0
VERTEX
   5
27A
 100
AcDbEntity
   8
0
   6
CONTINUOUS
  62
7
 100
AcDbVertex
 100
AcDb2dVertex
  10
 509.03926180813
  20
 246.79862313708
  30
0.0
   0
SEQEND
   5
27B
 100
AcDbEntity
   8
0
   6
CONTINUOUS
  62
7
   0
LINE
   5
27C
 100
AcDbEntity
   8
0
 100
AcDbLine
   6
CONTINUOUS
  62
7
  10
 541.03926180817
  20
 246.79862313710
  30
0.0
  11
 509.03926180817
  21
 246.79862313710
  31
0.0
   0
LINE
   5
27D
 100
AcDbEntity
   8
0
 100
AcDbLine
   6
CONTINUOUS
  62
1
  10
 141.03926180817
  20
 246.79862313710
  30
0.0
  11
 141.03926180817
  21
 211.61532377770
  31
0.0
   0
LINE
   5
27E
 100
AcDbEntity
   8
0
 100
AcDbLine
   6
CONTINUOUS
  62
1
  10
 143.03926180817
  20
 210.17387002350
  30
0.0
  11
 143.00083236897
  21
 209.91994382630
  31
0.0
   0
LINE
   5
27F
 100
AcDbEntity
   8
0
 100
AcDbLine
   6
CONTINUOUS
  62
1
  10
 143.00083236897
  20
 209.91994382630
  30
0.0
  11
 142.88702087317
  21
 209.67577587030
  31
0.0
   0
LINE
   5
280
 100
AcDbEntity
   8
0
 100
AcDbLine
   6
CONTINUOUS
  62
1
  10
 142.88702087317
  20
 209.67577587030
  30
0.0
  11
 142.70220103277
  21
 209.45074939350
  31
0.0
   0
LINE
   5
281
 100
AcDbEntity
   8
0
 100
AcDbLine
   6
CONTINUOUS
  62
1
  10
 142.70220103277
  20
 209.45074939350
  30
0.0
  11
 142.45347537057
  21
 209.25351203690
  31
0.0
   0
LINE
   5
282
 100
AcDbEntity
   8
0
 100
AcDbLine
   6
CONTINUOUS
  62
1
  10
 142.45347537057
  20
 209.25351203690
  30
0.0
  11
 142.15040227417
  21
 209.09164352150
  31
0.0
   0
LINE
   5
283
 100
AcDbEntity
   8
0
 100
AcDbLine
   6
CONTINUOUS
  62
1
  10
 142.15040227417
  20
 209.09164352150
  30
0.0
  11
 141.80462867277
  21
 208.97136436370
  31
0.0
   0
LINE
   5
284
 100
AcDbEntity
   8
0
 100
AcDbLine
   6
CONTINUOUS
  62
1
  10
 141.80462867277
  20
 208.97136436370
  30
0.0
  11
 141.42944245217
  21
 208.89729682410
  31
0.0
   0
LINE
   5
285
 100
AcDbEntity
   8
0
 100
AcDbLine
   6
CONTINUOUS
  62
1
  10
 141.42944245217
  20
 208.89729682410
  30
0.0
  11
 141.03926180817
  21
 208.87228727650
  31
0.0
   0
LINE
   5
286
 100
AcDbEntity
   8
0
 100
AcDbLine
   6
CONTINUOUS
  62
1
  10
 141.03926180817
  20
 211.61532377770
  30
0.0
  11
 141.03926180817
  21
 208.87228727650
  31
0.0
   0
ARC
   5
287
 100
AcDbEntity
   8
0
   6
CONTINUOUS
  62
1
 100
AcDbCircle
  10
 141.27953819238
  20
 209.84048938790
  30
0.0
  40
 1.7910248048949
 100
AcDbArc
  50
 10.727580637002
  51
 97.709807344063
   0
LINE
   5
288
 100
AcDbEntity
   8
0
 100
AcDbLine
   6
CONTINUOUS
  62
1
  10
 141.03926180817
  20
 211.61532377770
  30
0.0
  11
 109.03926180817
  21
 211.61532377770
  31
0.0
   0
LINE
   5
289
 100
AcDbEntity
   8
0
 100
AcDbLine
   6
CONTINUOUS
  62
1
  10
 109.03926180817
  20
 208.87228727650
  30
0.0
  11
 141.03926180817
  21
 208.87228727650
  31
0.0
   0
LINE
   5
28A
 100
AcDbEntity
   8
0
 100
AcDbLine
   6
CONTINUOUS
  62
1
  10
 109.03926180817
  20
 208.87228727650
  30
0.0
  11
 109.03926180817
  21
 211.61532377770
  31
0.0
   0
ARC
   5
28B
 100
AcDbEntity
   8
0
   6
CONTINUOUS
  62
1
 100
AcDbCircle
  10
 108.79898542377
  20
 209.84048938789
  30
0.0
  40
 1.7910248048948
 100
AcDbArc
  50
 82.290192655999
  51
 169.27241936295
   0
LINE
   5
28C
 100
AcDbEntity
   8
0
 100
AcDbLine
   6
CONTINUOUS
  62
1
  10
 109.03926180817
  20
 208.87228727650
  30
0.0
  11
 108.64908116417
  21
 208.89729682410
  31
0.0
   0
LINE
   5
28D
 100
AcDbEntity
   8
0
 100
AcDbLine
   6
CONTINUOUS
  62
1
  10
 108.64908116417
  20
 208.89729682410
  30
0.0
  11
 108.27389494337
  21
 208.97136436370
  31
0.0
   0
LINE
   5
28E
 100
AcDbEntity
   8
0
 100
AcDbLine
   6
CONTINUOUS
  62
1
  10
 108.27389494337
  20
 208.97136436370
  30
0.0
  11
 107.92812134217
  21
 209.09164352150
  31
0.0
   0
LINE
   5
28F
 100
AcDbEntity
   8
0
 100
AcDbLine
   6
CONTINUOUS
  62
1
  10
 107.92812134217
  20
 209.09164352150
  30
0.0
  11
 107.62504824577
  21
 209.25351203690
  31
0.0
   0
LINE
   5
290
 100
AcDbEntity
   8
0
 100
AcDbLine
   6
CONTINUOUS
  62
1
  10
 107.62504824577
  20
 209.25351203690
  30
0.0
  11
 107.37632258357
  21
 209.45074939350
  31
0.0
   0
LINE
   5
291
 100
AcDbEntity
   8
0
 100
AcDbLine
   6
CONTINUOUS
  62
1
  10
 107.37632258357
  20
 209.45074939350
  30
0.0
  11
 107.19150274317
  21
 209.67577587030
  31
0.0
   0
LINE
   5
292
 100
AcDbEntity
   8
0
 100
AcDbLine
   6
CONTINUOUS
  62
1
  10
 107.19150274317
  20
 209.67577587030
  30
0.0
  11
 107.07769124737
  21
 209.91994382630
  31
0.0
   0
LINE
   5
293
 100
AcDbEntity
   8
0
 100
AcDbLine
   6
CONTINUOUS
  62
1
  10
 107.07769124737
  20
 209.91994382630
  30
0.0
  11
 107.03926180817
  21
 210.17387002350
  31
0.0
   0
LINE
   5
294
 100
AcDbEntity
   8
0
 100
AcDbLine
   6
CONTINUOUS
  62
1
  10
 141.03926180817
  20
 208.87228727650
  30
0.0
  11
 141.03926180817
  21
 200.93120413830
  31
0.0
   0
LINE
   5
295
 100
AcDbEntity
   8
0
 100
AcDbLine
   6
CONTINUOUS
  62
1
  10
 141.03926180817
  20
 200.93120413830
  30
0.0
  11
 109.03926180817
  21
 200.93120413830
  31
0.0
   0
LINE
   5
296
 100
AcDbEntity
   8
0
 100
AcDbLine
   6
CONTINUOUS
  62
1
  10
 109.03926180817
  20
 200.93120413830
  30
0.0
  11
 109.03926180817
  21
 208.87228727650
  31
0.0
   0
LINE
   5
297
 100
AcDbEntity
   8
0
 100
AcDbLine
   6
CONTINUOUS
  62
1
  10
 143.03926180817
  20
 202.23278688510
  30
0.0
  11
 143.00083236897
  21
 201.97886068790
  31
0.0
   0
LINE
   5
298
 100
AcDbEntity
   8
0
 100
AcDbLine
   6
CONTINUOUS
  62
1
  10
 143.00083236897
  20
 201.97886068790
  30
0.0
  11
 142.88702087317
  21
 201.73469273210
  31
0.0
   0
LINE
   5
299
 100
AcDbEntity
   8
0
 100
AcDbLine
   6
CONTINUOUS
  62
1
  10
 142.88702087317
  20
 201.73469273210
  30
0.0
  11
 142.70220103277
  21
 201.50966625510
  31
0.0
   0
LINE
   5
29A
 100
AcDbEntity
   8
0
 100
AcDbLine
   6
CONTINUOUS
  62
1
  10
 142.70220103277
  20
 201.50966625510
  30
0.0
  11
 142.45347537057
  21
 201.31242889850
  31
0.0
   0
LINE
   5
29B
 100
AcDbEntity
   8
0
 100
AcDbLine
   6
CONTINUOUS
  62
1
  10
 142.45347537057
  20
 201.31242889850
  30
0.0
  11
 142.15040227417
  21
 201.15056038330
  31
0.0
   0
LINE
   5
29C
 100
AcDbEntity
   8
0
 100
AcDbLine
   6
CONTINUOUS
  62
1
  10
 142.15040227417
  20
 201.15056038330
  30
0.0
  11
 141.80462867277
  21
 201.03028122550
  31
0.0
   0
LINE
   5
29D
 100
AcDbEntity
   8
0
 100
AcDbLine
   6
CONTINUOUS
  62
1
  10
 141.80462867277
  20
 201.03028122550
  30
0.0
  11
 141.42944245217
  21
 200.95621368570
  31
0.0
   0
LINE
   5
29E
 100
AcDbEntity
   8
0
 100
AcDbLine
   6
CONTINUOUS
  62
1
  10
 141.42944245217
  20
 200.95621368570
  30
0.0
  11
 141.03926180817
  21
 200.93120413830
  31
0.0
   0
LINE
   5
29F
 100
AcDbEntity
   8
0
 100
AcDbLine
   6
CONTINUOUS
  62
1
  10
 109.03926180817
  20
 200.93120413830
  30
0.0
  11
 108.64908116417
  21
 200.95621368570
  31
0.0
   0
LINE
   5
2A0
 100
AcDbEntity
   8
0
 100
AcDbLine
   6
CONTINUOUS
  62
1
  10
 108.64908116417
  20
 200.95621368570
  30
0.0
  11
 108.27389494337
  21
 201.03028122550
  31
0.0
   0
LINE
   5
2A1
 100
AcDbEntity
   8
0
 100
AcDbLine
   6
CONTINUOUS
  62
1
  10
 108.27389494337
  20
 201.03028122550
  30
0.0
  11
 107.92812134217
  21
 201.15056038330
  31
0.0
   0
LINE
   5
2A2
 100
AcDbEntity
   8
0
 100
AcDbLine
   6
CONTINUOUS
  62
1
  10
 107.92812134217
  20
 201.15056038330
  30
0.0
  11
 107.62504824577
  21
 201.31242889850
  31
0.0
   0
LINE
   5
2A3
 100
AcDbEntity
   8
0
 100
AcDbLine
   6
CONTINUOUS
  62
1
  10
 107.62504824577
  20
 201.31242889850
  30
0.0
  11
 107.37632258357
  21
 201.50966625510
  31
0.0
   0
LINE
   5
2A4
 100
AcDbEntity
   8
0
 100
AcDbLine
   6
CONTINUOUS
  62
1
  10
 107.37632258357
  20
 201.50966625510
  30
0.0
  11
 107.19150274317
  21
 201.73469273210
  31
0.0
   0
LINE
   5
2A5
 100
AcDbEntity
   8
0
 100
AcDbLine
   6
CONTINUOUS
  62
1
  10
 107.19150274317
  20
 201.73469273210
  30
0.0
  11
 107.07769124737
  21
 201.97886068790
  31
0.0
   0
LINE
   5
2A6
 100
AcDbEntity
   8
0
 100
AcDbLine
   6
CONTINUOUS
  62
1
  10
 107.07769124737
  20
 201.97886068790
  30
0.0
  11
 107.03926180817
  21
 202.23278688510
  31
0.0
   0
LINE
   5
2A7
 100
AcDbEntity
   8
0
 100
AcDbLine
   6
CONTINUOUS
  62
1
  10
 109.03926180817
  20
 211.61532377770
  30
0.0
  11
 109.03926180817
  21
 246.79862313710
  31
0.0
   0
LINE
   5
2A8
 100
AcDbEntity
   8
0
 100
AcDbLine
   6
CONTINUOUS
  62
1
  10
 109.03926180817
  20
 200.93120413830
  30
0.0
  11
 109.03926180817
  21
 200.23278688510
  31
0.0
   0
LINE
   5
2A9
 100
AcDbEntity
   8
0
 100
AcDbLine
   6
CONTINUOUS
  62
1
  10
 141.03926180817
  20
 200.23278688510
  30
0.0
  11
 141.03926180817
  21
 200.93120413830
  31
0.0
   0
LINE
   5
2AA
 100
AcDbEntity
   8
0
 100
AcDbLine
   6
CONTINUOUS
  62
1
  10
 541.03926180817
  20
 208.87228727650
  30
0.0
  11
 509.03926180817
  21
 208.87228727650
  31
0.0
   0
LINE
   5
2AB
 100
AcDbEntity
   8
0
 100
AcDbLine
   6
CONTINUOUS
  62
1
  10
 509.03926180817
  20
 211.61532377770
  30
0.0
  11
 509.03926180817
  21
 208.87228727650
  31
0.0
   0
LINE
   5
2AC
 100
AcDbEntity
   8
0
 100
AcDbLine
   6
CONTINUOUS
  62
1
  10
 509.03926180817
  20
 211.61532377770
  30
0.0
  11
 541.03926180817
  21
 211.61532377770
  31
0.0
   0
LINE
   5
2AD
 100
AcDbEntity
   8
0
 100
AcDbLine
   6
CONTINUOUS
  62
1
  10
 541.03926180817
  20
 208.87228727650
  30
0.0
  11
 541.03926180817
  21
 211.61532377770
  31
0.0
   0
LINE
   5
2AE
 100
AcDbEntity
   8
0
 100
AcDbLine
   6
CONTINUOUS
  62
1
  10
 507.03926180817
  20
 210.17387002350
  30
0.0
  11
 507.07769124737
  21
 209.91994382630
  31
0.0
   0
LINE
   5
2AF
 100
AcDbEntity
   8
0
 100
AcDbLine
   6
CONTINUOUS
  62
1
  10
 507.07769124737
  20
 209.91994382630
  30
0.0
  11
 507.19150274317
  21
 209.67577587030
  31
0.0
   0
LINE
   5
2B0
 100
AcDbEntity
   8
0
 100
AcDbLine
   6
CONTINUOUS
  62
1
  10
 507.19150274317
  20
 209.67577587030
  30
0.0
  11
 507.37632258357
  21
 209.45074939350
  31
0.0
   0
LINE
   5
2B1
 100
AcDbEntity
   8
0
 100
AcDbLine
   6
CONTINUOUS
  62
1
  10
 507.37632258357
  20
 209.45074939350
  30
0.0
  11
 507.62504824577
  21
 209.25351203690
  31
0.0
   0
LINE
   5
2B2
 100
AcDbEntity
   8
0
 100
AcDbLine
   6
CONTINUOUS
  62
1
  10
 507.62504824577
  20
 209.25351203690
  30
0.0
  11
 507.92812134217
  21
 209.09164352150
  31
0.0
   0
LINE
   5
2B3
 100
AcDbEntity
   8
0
 100
AcDbLine
   6
CONTINUOUS
  62
1
  10
 507.92812134217
  20
 209.09164352150
  30
0.0
  11
 508.27389494337
  21
 208.97136436370
  31
0.0
   0
LINE
   5
2B4
 100
AcDbEntity
   8
0
 100
AcDbLine
   6
CONTINUOUS
  62
1
  10
 508.27389494337
  20
 208.97136436370
  30
0.0
  11
 508.64908116417
  21
 208.89729682410
  31
0.0
   0
LINE
   5
2B5
 100
AcDbEntity
   8
0
 100
AcDbLine
   6
CONTINUOUS
  62
1
  10
 508.64908116417
  20
 208.89729682410
  30
0.0
  11
 509.03926180817
  21
 208.87228727650
  31
0.0
   0
ARC
   5
2B6
 100
AcDbEntity
   8
0
   6
CONTINUOUS
  62
1
 100
AcDbCircle
  10
 508.79898542377
  20
 209.84048938790
  30
0.0
  40
 1.7910248048948
 100
AcDbArc
  50
 82.290192655998
  51
 169.27241936302
   0
ARC
   5
2B7
 100
AcDbEntity
   8
0
   6
CONTINUOUS
  62
1
 100
AcDbCircle
  10
 541.27953819238
  20
 209.84048938790
  30
0.0
  40
 1.7910248048950
 100
AcDbArc
  50
 10.727580636995
  51
 97.709807344037
   0
LINE
   5
2B8
 100
AcDbEntity
   8
0
 100
AcDbLine
   6
CONTINUOUS
  62
1
  10
 541.03926180817
  20
 208.87228727650
  30
0.0
  11
 541.42944245217
  21
 208.89729682410
  31
0.0
   0
LINE
   5
2B9
 100
AcDbEntity
   8
0
 100
AcDbLine
   6
CONTINUOUS
  62
1
  10
 541.42944245217
  20
 208.89729682410
  30
0.0
  11
 541.80462867277
  21
 208.97136436370
  31
0.0
   0
LINE
   5
2BA
 100
AcDbEntity
   8
0
 100
AcDbLine
   6
CONTINUOUS
  62
1
  10
 541.80462867277
  20
 208.97136436370
  30
0.0
  11
 542.15040227417
  21
 209.09164352150
  31
0.0
   0
LINE
   5
2BB
 100
AcDbEntity
   8
0
 100
AcDbLine
   6
CONTINUOUS
  62
1
  10
 542.15040227417
  20
 209.09164352150
  30
0.0
  11
 542.45347537057
  21
 209.25351203690
  31
0.0
   0
LINE
   5
2BC
 100
AcDbEntity
   8
0
 100
AcDbLine
   6
CONTINUOUS
  62
1
  10
 542.45347537057
  20
 209.25351203690
  30
0.0
  11
 542.70220103277
  21
 209.45074939350
  31
0.0
   0
LINE
   5
2BD
 100
AcDbEntity
   8
0
 100
AcDbLine
   6
CONTINUOUS
  62
1
  10
 542.70220103277
  20
 209.45074939350
  30
0.0
  11
 542.88702087317
  21
 209.67577587030
  31
0.0
   0
LINE
   5
2BE
 100
AcDbEntity
   8
0
 100
AcDbLine
   6
CONTINUOUS
  62
1
  10
 542.88702087317
  20
 209.67577587030
  30
0.0
  11
 543.00083236897
  21
 209.91994382630
  31
0.0
   0
LINE
   5
2BF
 100
AcDbEntity
   8
0
 100
AcDbLine
   6
CONTINUOUS
  62
1
  10
 543.00083236897
  20
 209.91994382630
  30
0.0
  11
 543.03926180817
  21
 210.17387002350
  31
0.0
   0
LINE
   5
2C0
 100
AcDbEntity
   8
0
 100
AcDbLine
   6
CONTINUOUS
  62
1
  10
 509.03926180817
  20
 200.93120413830
  30
0.0
  11
 541.03926180817
  21
 200.93120413830
  31
0.0
   0
LINE
   5
2C1
 100
AcDbEntity
   8
0
 100
AcDbLine
   6
CONTINUOUS
  62
1
  10
 509.03926180817
  20
 208.87228727650
  30
0.0
  11
 509.03926180817
  21
 200.93120413830
  31
0.0
   0
LINE
   5
2C2
 100
AcDbEntity
   8
0
 100
AcDbLine
   6
CONTINUOUS
  62
1
  10
 541.03926180817
  20
 200.93120413830
  30
0.0
  11
 541.03926180817
  21
 208.87228727650
  31
0.0
   0
LINE
   5
2C3
 100
AcDbEntity
   8
0
 100
AcDbLine
   6
CONTINUOUS
  62
1
  10
 541.03926180817
  20
 200.93120413830
  30
0.0
  11
 541.42944245217
  21
 200.95621368570
  31
0.0
   0
LINE
   5
2C4
 100
AcDbEntity
   8
0
 100
AcDbLine
   6
CONTINUOUS
  62
1
  10
 541.42944245217
  20
 200.95621368570
  30
0.0
  11
 541.80462867277
  21
 201.03028122550
  31
0.0
   0
LINE
   5
2C5
 100
AcDbEntity
   8
0
 100
AcDbLine
   6
CONTINUOUS
  62
1
  10
 541.80462867277
  20
 201.03028122550
  30
0.0
  11
 542.15040227417
  21
 201.15056038330
  31
0.0
   0
LINE
   5
2C6
 100
AcDbEntity
   8
0
 100
AcDbLine
   6
CONTINUOUS
  62
1
  10
 542.15040227417
  20
 201.15056038330
  30
0.0
  11
 542.45347537057
  21
 201.31242889850
  31
0.0
   0
LINE
   5
2C7
 100
AcDbEntity
   8
0
 100
AcDbLine
   6
CONTINUOUS
  62
1
  10
 542.45347537057
  20
 201.31242889850
  30
0.0
  11
 542.70220103277
  21
 201.50966625510
  31
0.0
   0
LINE
   5
2C8
 100
AcDbEntity
   8
0
 100
AcDbLine
   6
CONTINUOUS
  62
1
  10
 542.70220103277
  20
 201.50966625510
  30
0.0
  11
 542.88702087317
  21
 201.73469273210
  31
0.0
   0
LINE
   5
2C9
 100
AcDbEntity
   8
0
 100
AcDbLine
   6
CONTINUOUS
  62
1
  10
 542.88702087317
  20
 201.73469273210
  30
0.0
  11
 543.00083236897
  21
 201.97886068790
  31
0.0
   0
LINE
   5
2CA
 100
AcDbEntity
   8
0
 100
AcDbLine
   6
CONTINUOUS
  62
1
  10
 543.00083236897
  20
 201.97886068790
  30
0.0
  11
 543.03926180817
  21
 202.23278688510
  31
0.0
   0
LINE
   5
2CB
 100
AcDbEntity
   8
0
 100
AcDbLine
   6
CONTINUOUS
  62
1
  10
 507.03926180817
  20
 202.23278688510
  30
0.0
  11
 507.07769124737
  21
 201.97886068790
  31
0.0
   0
LINE
   5
2CC
 100
AcDbEntity
   8
0
 100
AcDbLine
   6
CONTINUOUS
  62
1
  10
 507.07769124737
  20
 201.97886068790
  30
0.0
  11
 507.19150274317
  21
 201.73469273210
  31
0.0
   0
LINE
   5
2CD
 100
AcDbEntity
   8
0
 100
AcDbLine
   6
CONTINUOUS
  62
1
  10
 507.19150274317
  20
 201.73469273210
  30
0.0
  11
 507.37632258357
  21
 201.50966625510
  31
0.0
   0
LINE
   5
2CE
 100
AcDbEntity
   8
0
 100
AcDbLine
   6
CONTINUOUS
  62
1
  10
 507.37632258357
  20
 201.50966625510
  30
0.0
  11
 507.62504824577
  21
 201.31242889850
  31
0.0
   0
LINE
   5
2CF
 100
AcDbEntity
   8
0
 100
AcDbLine
   6
CONTINUOUS
  62
1
  10
 507.62504824577
  20
 201.31242889850
  30
0.0
  11
 507.92812134217
  21
 201.15056038330
  31
0.0
   0
LINE
   5
2D0
 100
AcDbEntity
   8
0
 100
AcDbLine
   6
CONTINUOUS
  62
1
  10
 507.92812134217
  20
 201.15056038330
  30
0.0
  11
 508.27389494337
  21
 201.03028122550
  31
0.0
   0
LINE
   5
2D1
 100
AcDbEntity
   8
0
 100
AcDbLine
   6
CONTINUOUS
  62
1
  10
 508.27389494337
  20
 201.03028122550
  30
0.0
  11
 508.64908116417
  21
 200.95621368570
  31
0.0
   0
LINE
   5
2D2
 100
AcDbEntity
   8
0
 100
AcDbLine
   6
CONTINUOUS
  62
1
  10
 508.64908116417
  20
 200.95621368570
  30
0.0
  11
 509.03926180817
  21
 200.93120413830
  31
0.0
   0
LINE
   5
2D3
 100
AcDbEntity
   8
0
 100
AcDbLine
   6
CONTINUOUS
  62
1
  10
 541.03926180817
  20
 211.61532377770
  30
0.0
  11
 541.03926180817
  21
 246.79862313710
  31
0.0
   0
LINE
   5
2D4
 100
AcDbEntity
   8
0
 100
AcDbLine
   6
CONTINUOUS
  62
1
  10
 509.03926180817
  20
 246.79862313710
  30
0.0
  11
 509.03926180817
  21
 211.61532377770
  31
0.0
   0
LINE
   5
2D5
 100
AcDbEntity
   8
0
 100
AcDbLine
   6
CONTINUOUS
  62
1
  10
 541.03926180817
  20
 200.93120413830
  30
0.0
  11
 541.03926180817
  21
 200.23278688510
  31
0.0
   0
LINE
   5
2D6
 100
AcDbEntity
   8
0
 100
AcDbLine
   6
CONTINUOUS
  62
1
  10
 509.03926180817
  20
 200.23278688510
  30
0.0
  11
 509.03926180817
  21
 200.93120413830
  31
0.0
   0
LINE
   5
2D7
 100
AcDbEntity
   8
0
 100
AcDbLine
   6
CONTINUOUS
  62
7
  10
 143.03926180817
  20
 363.11162861452
  30
0.0
  11
 507.03926180817
  21
 363.11162861452
  31
0.0
   0
LINE
   5
2D8
 100
AcDbEntity
   8
0
 100
AcDbLine
   6
CONTINUOUS
  62
7
  10
 507.03926180817
  20
 373.11162861452
  30
0.0
  11
 143.03926180817
  21
 373.11162861452
  31
0.0
   0
ARC
   5
2D9
 100
AcDbEntity
   8
0
   6
CONTINUOUS
  62
7
 100
AcDbCircle
  10
 141.03926180817
  20
 356.85271541393
  30
0.0
  40
 2.0000000000000
 100
AcDbArc
  50
 270.00000000000
  51
0.0
   0
LINE
   5
2DA
 100
AcDbEntity
   8
0
 100
AcDbLine
   6
CONTINUOUS
  62
7
  10
 109.03926180817
  20
 354.85271541393
  30
0.0
  11
 141.03926180817
  21
 354.85271541393
  31
0.0
   0
LINE
   5
2DB
 100
AcDbEntity
   8
0
 100
AcDbLine
   6
CONTINUOUS
  62
7
  10
 143.03926180817
  20
 356.85271541393
  30
0.0
  11
 143.03926180817
  21
 408.11162861453
  31
0.0
   0
SPLINE
   5
2DC
 100
AcDbEntity
   8
0
   6
CONTINUOUS
  62
7
 100
AcDbSpline
  70
8
  71
3
  72
12
  73
8
  74
6
  42
 0.10000000000000E-6
  43
 0.10000000000000E-6
  44
 0.10000000000000E-4
  40
0.0
  40
0.0
  40
0.0
  40
0.0
  40
 0.24084883491911
  40
 0.48208589593654
  40
 0.71110331150770
  40
 0.91994608783065
  40
 1.0000000000000
  40
 1.0000000000000
  40
 1.0000000000000
  40
 1.0000000000000
  10
 143.03926180813
  20
 408.11162861454
  30
0.0
  10
 143.01398374238
  20
 408.11162861454
  30
0.0
  10
 142.96338686496
  20
 408.11162861454
  30
0.0
  10
 142.56497952156
  20
 408.11162861454
  30
0.0
  10
 141.99048340585
  20
 408.11162861454
  30
0.0
  10
 141.44180854101
  20
 408.11162861454
  30
0.0
  10
 141.12660531900
  20
 408.11162861454
  30
0.0
  10
 141.03926180813
  20
 408.11162861454
  30
0.0
  11
 143.03926180813
  21
 408.11162861454
  31
0.0
  11
 142.90864103571
  21
 408.11162861454
  31
0.0
  11
 142.52277660664
  21
 408.11162861454
  31
0.0
  11
 141.94785140861
  21
 408.11162861454
  31
0.0
  11
 141.30058991097
  21
 408.11162861454
  31
0.0
  11
 141.03926180813
  21
 408.11162861454
  31
0.0
   0
LINE
   5
2DD
 100
AcDbEntity
   8
0
 100
AcDbLine
   6
CONTINUOUS
  62
7
  10
 109.03926180817
  20
 408.11162861453
  30
0.0
  11
 141.03926180817
  21
 408.11162861453
  31
0.0
   0
ARC
   5
2DE
 100
AcDbEntity
   8
0
   6
CONTINUOUS
  62
7
 100
AcDbCircle
  10
 109.03926180818
  20
 356.85271541393
  30
0.0
  40
 2.0000000000000
 100
AcDbArc
  50
 180.00000000000
  51
 269.99999999990
   0
ARC
   5
2DF
 100
AcDbEntity
   8
0
   6
CONTINUOUS
  62
7
 100
AcDbCircle
  10
 541.03926180817
  20
 356.85271541391
  30
0.0
  40
 2.0000000000000
 100
AcDbArc
  50
 270.00000000000
  51
 0.29637680743750E-9
   0
ARC
   5
2E0
 100
AcDbEntity
   8
0
   6
CONTINUOUS
  62
7
 100
AcDbCircle
  10
 509.03926180818
  20
 356.85271541393
  30
0.0
  40
 2.0000000000000
 100
AcDbArc
  50
 180.00000000000
  51
 269.99999999979
   0
LINE
   5
2E1
 100
AcDbEntity
   8
0
 100
AcDbLine
   6
CONTINUOUS
  62
7
  10
 509.03926180817
  20
 354.85271541393
  30
0.0
  11
 541.03926180817
  21
 354.85271541393
  31
0.0
   0
LINE
   5
2E2
 100
AcDbEntity
   8
0
 100
AcDbLine
   6
CONTINUOUS
  62
7
  10
 107.03926180817
  20
 408.11162861453
  30
0.0
  11
 107.03926180817
  21
 356.85271541393
  31
0.0
   0
SPLINE
   5
2E3
 100
AcDbEntity
   8
0
   6
CONTINUOUS
  62
7
 100
AcDbSpline
  70
8
  71
3
  72
12
  73
8
  74
6
  42
 0.10000000000000E-6
  43
 0.10000000000000E-6
  44
 0.10000000000000E-4
  40
0.0
  40
0.0
  40
0.0
  40
0.0
  40
 0.19234729015780
  40
 0.38445115697881
  40
 0.58319210660540
  40
 0.79780959270649
  40
 1.0000000000000
  40
 1.0000000000000
  40
 1.0000000000000
  40
 1.0000000000000
  10
 109.03926180813
  20
 408.11162861454
  30
0.0
  10
 108.82830405071
  20
 408.11162861454
  30
0.0
  10
 108.40665551150
  20
 408.11162861454
  30
0.0
  10
 107.84058537334
  20
 408.11162861454
  30
0.0
  10
 107.38999007304
  20
 408.11162861454
  30
0.0
  10
 107.09388131058
  20
 408.11162861454
  30
0.0
  10
 107.05710279321
  20
 408.11162861454
  30
0.0
  10
 107.03926180813
  20
 408.11162861454
  30
0.0
  11
 109.03926180813
  21
 408.11162861454
  31
0.0
  11
 108.41852501632
  21
 408.11162861454
  31
0.0
  11
 107.86840674268
  21
 408.11162861454
  31
0.0
  11
 107.42695241511
  21
 408.11162861454
  31
0.0
  11
 107.13131196843
  21
 408.11162861454
  31
0.0
  11
 107.03926180813
  21
 408.11162861454
  31
0.0
   0
LINE
   5
2E4
 100
AcDbEntity
   8
0
 100
AcDbLine
   6
CONTINUOUS
  62
7
  10
 507.03926180817
  20
 356.85271541393
  30
0.0
  11
 507.03926180817
  21
 408.11162861453
  31
0.0
   0
LINE
   5
2E5
 100
AcDbEntity
   8
0
 100
AcDbLine
   6
CONTINUOUS
  62
7
  10
 543.03926180817
  20
 408.11162861453
  30
0.0
  11
 543.03926180817
  21
 356.85271541393
  31
0.0
   0
ARC
   5
2E6
 100
AcDbEntity
   8
0
   6
CONTINUOUS
  62
1
 100
AcDbCircle
  10
 141.29898542377
  20
 357.22737849352
  30
0.0
  40
 1.7801500826780
 100
AcDbArc
  50
 261.61060949200
  51
 347.85027132921
   0
LINE
   5
2E7
 100
AcDbEntity
   8
0
 100
AcDbLine
   6
CONTINUOUS
  62
1
  10
 141.03926180817
  20
 408.11162861453
  30
0.0
  11
 141.03926180817
  21
 355.46627714473
  31
0.0
   0
LINE
   5
2E8
 100
AcDbEntity
   8
0
 100
AcDbLine
   6
CONTINUOUS
  62
1
  10
 141.03926180817
  20
 355.46627714473
  30
0.0
  11
 109.03926180817
  21
 355.46627714473
  31
0.0
   0
LINE
   5
2E9
 100
AcDbEntity
   8
0
 100
AcDbLine
   6
CONTINUOUS
  62
1
  10
 141.03926180817
  20
 355.46627714473
  30
0.0
  11
 141.03926180817
  21
 354.85271541393
  31
0.0
   0
LINE
   5
2EA
 100
AcDbEntity
   8
0
 100
AcDbLine
   6
CONTINUOUS
  62
1
  10
 109.03926180817
  20
 355.46627714473
  30
0.0
  11
 109.03926180817
  21
 408.11162861453
  31
0.0
   0
ARC
   5
2EB
 100
AcDbEntity
   8
0
   6
CONTINUOUS
  62
1
 100
AcDbCircle
  10
 108.77953819238
  20
 357.22737849353
  30
0.0
  40
 1.7801500826780
 100
AcDbArc
  50
 192.14972867079
  51
 278.38939050793
   0
LINE
   5
2EC
 100
AcDbEntity
   8
0
 100
AcDbLine
   6
CONTINUOUS
  62
1
  10
 109.03926180817
  20
 354.85271541393
  30
0.0
  11
 109.03926180817
  21
 355.46627714473
  31
0.0
   0
LINE
   5
2ED
 100
AcDbEntity
   8
0
 100
AcDbLine
   6
CONTINUOUS
  62
1
  10
 509.03926180817
  20
 408.11162861453
  30
0.0
  11
 509.03926180817
  21
 355.46627714473
  31
0.0
   0
ARC
   5
2EE
 100
AcDbEntity
   8
0
   6
CONTINUOUS
  62
1
 100
AcDbCircle
  10
 508.77953819238
  20
 357.22737849353
  30
0.0
  40
 1.7801500826780
 100
AcDbArc
  50
 192.14972867078
  51
 278.38939050786
   0
ARC
   5
2EF
 100
AcDbEntity
   8
0
   6
CONTINUOUS
  62
1
 100
AcDbCircle
  10
 541.29898542378
  20
 357.22737849353
  30
0.0
  40
 1.7801500826781
 100
AcDbArc
  50
 261.61060949199
  51
 347.85027132904
   0
LINE
   5
2F0
 100
AcDbEntity
   8
0
 100
AcDbLine
   6
CONTINUOUS
  62
1
  10
 541.03926180817
  20
 355.46627714473
  30
0.0
  11
 541.03926180817
  21
 408.11162861453
  31
0.0
   0
LINE
   5
2F1
 100
AcDbEntity
   8
0
 100
AcDbLine
   6
CONTINUOUS
  62
1
  10
 509.03926180817
  20
 355.46627714473
  30
0.0
  11
 541.03926180817
  21
 355.46627714473
  31
0.0
   0
LINE
   5
2F2
 100
AcDbEntity
   8
0
 100
AcDbLine
   6
CONTINUOUS
  62
1
  10
 541.03926180817
  20
 354.85271541393
  30
0.0
  11
 541.03926180817
  21
 355.46627714473
  31
0.0
   0
LINE
   5
2F3
 100
AcDbEntity
   8
0
 100
AcDbLine
   6
CONTINUOUS
  62
1
  10
 509.03926180817
  20
 355.46627714473
  30
0.0
  11
 509.03926180817
  21
 354.85271541393
  31
0.0
   0
LINE
   5
2F4
 100
AcDbEntity
   8
0
 100
AcDbLine
   6
CONTINUOUS
  62
7
  10
 543.03926180817
  20
 408.11162861453
  30
0.0
  11
 507.03926180817
  21
 408.11162861453
  31
0.0
   0
LINE
   5
2F5
 100
AcDbEntity
   8
0
 100
AcDbLine
   6
DASHDOT
  62
2
  10
 535.03926180817
  20
 442.68456604299
  30
0.0
  11
 535.03926180817
  21
 405.21804218783
  31
0.0
   0
POLYLINE
   5
2F6
 100
AcDbEntity
   8
0
   6
CONTINUOUS
  62
7
 100
AcDb2dPolyline
  66
1
  10
0.0
  20
0.0
  30
0.0
  70
0
   0
VERTEX
   5
2F7
 100
AcDbEntity
   8
0
   6
CONTINUOUS
  62
7
 100
AcDbVertex
 100
AcDb2dVertex
  10
 533.03926180817
  20
 408.11162861453
  30
0.0
   0
VERTEX
   5
2F8
 100
AcDbEntity
   8
0
   6
CONTINUOUS
  62
7
 100
AcDbVertex
 100
AcDb2dVertex
  10
 533.03926180817
  20
 435.41162861453
  30
0.0
   0
VERTEX
   5
2F9
 100
AcDbEntity
   8
0
   6
CONTINUOUS
  62
7
 100
AcDbVertex
 100
AcDb2dVertex
  10
 535.03926180817
  20
 439.11162861453
  30
0.0
   0
SEQEND
   5
2FA
 100
AcDbEntity
   8
0
   6
CONTINUOUS
  62
7
   0
LINE
   5
2FB
 100
AcDbEntity
   8
0
 100
AcDbLine
   6
CONTINUOUS
  62
2
  10
 533.73926180817
  20
 408.11162861453
  30
0.0
  11
 533.73926180817
  21
 436.62406417982
  31
0.0
   0
POLYLINE
   5
2FC
 100
AcDbEntity
   8
0
   6
CONTINUOUS
  62
7
 100
AcDb2dPolyline
  66
1
  10
0.0
  20
0.0
  30
0.0
  70
0
   0
VERTEX
   5
2FD
 100
AcDbEntity
   8
0
   6
CONTINUOUS
  62
7
 100
AcDbVertex
 100
AcDb2dVertex
  10
 537.03926180817
  20
 408.11162861453
  30
0.0
   0
VERTEX
   5
2FE
 100
AcDbEntity
   8
0
   6
CONTINUOUS
  62
7
 100
AcDbVertex
 100
AcDb2dVertex
  10
 537.03926180817
  20
 435.41162861453
  30
0.0
   0
VERTEX
   5
2FF
 100
AcDbEntity
   8
0
   6
CONTINUOUS
  62
7
 100
AcDbVertex
 100
AcDb2dVertex
  10
 535.03926180817
  20
 439.11162861453
  30
0.0
   0
SEQEND
   5
300
 100
AcDbEntity
   8
0
   6
CONTINUOUS
  62
7
   0
LINE
   5
301
 100
AcDbEntity
   8
0
 100
AcDbLine
   6
CONTINUOUS
  62
2
  10
 536.33926180817
  20
 408.11162861453
  30
0.0
  11
 536.33926180817
  21
 436.62406417982
  31
0.0
   0
LINE
   5
302
 100
AcDbEntity
   8
0
 100
AcDbLine
   6
DASHDOT
  62
2
  10
 515.03926180817
  20
 442.68456604299
  30
0.0
  11
 515.03926180817
  21
 405.21804218783
  31
0.0
   0
POLYLINE
   5
303
 100
AcDbEntity
   8
0
   6
CONTINUOUS
  62
7
 100
AcDb2dPolyline
  66
1
  10
0.0
  20
0.0
  30
0.0
  70
0
   0
VERTEX
   5
304
 100
AcDbEntity
   8
0
   6
CONTINUOUS
  62
7
 100
AcDbVertex
 100
AcDb2dVertex
  10
 513.03926180817
  20
 408.11162861453
  30
0.0
   0
VERTEX
   5
305
 100
AcDbEntity
   8
0
   6
CONTINUOUS
  62
7
 100
AcDbVertex
 100
AcDb2dVertex
  10
 513.03926180817
  20
 435.41162861453
  30
0.0
   0
VERTEX
   5
306
 100
AcDbEntity
   8
0
   6
CONTINUOUS
  62
7
 100
AcDbVertex
 100
AcDb2dVertex
  10
 515.03926180817
  20
 439.11162861453
  30
0.0
   0
SEQEND
   5
307
 100
AcDbEntity
   8
0
   6
CONTINUOUS
  62
7
   0
LINE
   5
308
 100
AcDbEntity
   8
0
 100
AcDbLine
   6
CONTINUOUS
  62
2
  10
 513.73926180817
  20
 408.11162861453
  30
0.0
  11
 513.73926180817
  21
 436.62406417982
  31
0.0
   0
POLYLINE
   5
309
 100
AcDbEntity
   8
0
   6
CONTINUOUS
  62
7
 100
AcDb2dPolyline
  66
1
  10
0.0
  20
0.0
  30
0.0
  70
0
   0
VERTEX
   5
30A
 100
AcDbEntity
   8
0
   6
CONTINUOUS
  62
7
 100
AcDbVertex
 100
AcDb2dVertex
  10
 517.03926180817
  20
 408.11162861453
  30
0.0
   0
VERTEX
   5
30B
 100
AcDbEntity
   8
0
   6
CONTINUOUS
  62
7
 100
AcDbVertex
 100
AcDb2dVertex
  10
 517.03926180817
  20
 435.41162861453
  30
0.0
   0
VERTEX
   5
30C
 100
AcDbEntity
   8
0
   6
CONTINUOUS
  62
7
 100
AcDbVertex
 100
AcDb2dVertex
  10
 515.03926180817
  20
 439.11162861453
  30
0.0
   0
SEQEND
   5
30D
 100
AcDbEntity
   8
0
   6
CONTINUOUS
  62
7
   0
LINE
   5
30E
 100
AcDbEntity
   8
0
 100
AcDbLine
   6
CONTINUOUS
  62
2
  10
 516.33926180817
  20
 408.11162861453
  30
0.0
  11
 516.33926180817
  21
 436.62406417982
  31
0.0
   0
LINE
   5
30F
 100
AcDbEntity
   8
0
 100
AcDbLine
   6
DASHDOT
  62
2
  10
 115.03926180817
  20
 442.68456604299
  30
0.0
  11
 115.03926180817
  21
 405.21804218783
  31
0.0
   0
POLYLINE
   5
310
 100
AcDbEntity
   8
0
   6
CONTINUOUS
  62
7
 100
AcDb2dPolyline
  66
1
  10
0.0
  20
0.0
  30
0.0
  70
0
   0
VERTEX
   5
311
 100
AcDbEntity
   8
0
   6
CONTINUOUS
  62
7
 100
AcDbVertex
 100
AcDb2dVertex
  10
 113.03926180817
  20
 408.11162861453
  30
0.0
   0
VERTEX
   5
312
 100
AcDbEntity
   8
0
   6
CONTINUOUS
  62
7
 100
AcDbVertex
 100
AcDb2dVertex
  10
 113.03926180817
  20
 435.41162861453
  30
0.0
   0
VERTEX
   5
313
 100
AcDbEntity
   8
0
   6
CONTINUOUS
  62
7
 100
AcDbVertex
 100
AcDb2dVertex
  10
 115.03926180817
  20
 439.11162861453
  30
0.0
   0
SEQEND
   5
314
 100
AcDbEntity
   8
0
   6
CONTINUOUS
  62
7
   0
LINE
   5
315
 100
AcDbEntity
   8
0
 100
AcDbLine
   6
CONTINUOUS
  62
2
  10
 113.73926180817
  20
 408.11162861453
  30
0.0
  11
 113.73926180817
  21
 436.62406417982
  31
0.0
   0
POLYLINE
   5
316
 100
AcDbEntity
   8
0
   6
CONTINUOUS
  62
7
 100
AcDb2dPolyline
  66
1
  10
0.0
  20
0.0
  30
0.0
  70
0
   0
VERTEX
   5
317
 100
AcDbEntity
   8
0
   6
CONTINUOUS
  62
7
 100
AcDbVertex
 100
AcDb2dVertex
  10
 117.03926180817
  20
 408.11162861453
  30
0.0
   0
VERTEX
   5
318
 100
AcDbEntity
   8
0
   6
CONTINUOUS
  62
7
 100
AcDbVertex
 100
AcDb2dVertex
  10
 117.03926180817
  20
 435.41162861453
  30
0.0
   0
VERTEX
   5
319
 100
AcDbEntity
   8
0
   6
CONTINUOUS
  62
7
 100
AcDbVertex
 100
AcDb2dVertex
  10
 115.03926180817
  20
 439.11162861453
  30
0.0
   0
SEQEND
   5
31A
 100
AcDbEntity
   8
0
   6
CONTINUOUS
  62
7
   0
LINE
   5
31B
 100
AcDbEntity
   8
0
 100
AcDbLine
   6
CONTINUOUS
  62
2
  10
 116.33926180817
  20
 408.11162861453
  30
0.0
  11
 116.33926180817
  21
 436.62406417982
  31
0.0
   0
POLYLINE
   5
31C
 100
AcDbEntity
   8
0
   6
CONTINUOUS
  62
7
 100
AcDb2dPolyline
  66
1
  10
0.0
  20
0.0
  30
0.0
  70
0
   0
VERTEX
   5
31D
 100
AcDbEntity
   8
0
   6
CONTINUOUS
  62
7
 100
AcDbVertex
 100
AcDb2dVertex
  10
 133.03926180817
  20
 408.11162861453
  30
0.0
   0
VERTEX
   5
31E
 100
AcDbEntity
   8
0
   6
CONTINUOUS
  62
7
 100
AcDbVertex
 100
AcDb2dVertex
  10
 133.03926180817
  20
 435.41162861453
  30
0.0
   0
VERTEX
   5
31F
 100
AcDbEntity
   8
0
   6
CONTINUOUS
  62
7
 100
AcDbVertex
 100
AcDb2dVertex
  10
 135.03926180817
  20
 439.11162861453
  30
0.0
   0
SEQEND
   5
320
 100
AcDbEntity
   8
0
   6
CONTINUOUS
  62
7
   0
LINE
   5
321
 100
AcDbEntity
   8
0
 100
AcDbLine
   6
DASHDOT
  62
2
  10
 135.03926180817
  20
 442.68456604299
  30
0.0
  11
 135.03926180817
  21
 405.21804218783
  31
0.0
   0
LINE
   5
322
 100
AcDbEntity
   8
0
 100
AcDbLine
   6
CONTINUOUS
  62
2
  10
 133.73926180817
  20
 408.11162861453
  30
0.0
  11
 133.73926180817
  21
 436.62406417982
  31
0.0
   0
POLYLINE
   5
323
 100
AcDbEntity
   8
0
   6
CONTINUOUS
  62
7
 100
AcDb2dPolyline
  66
1
  10
0.0
  20
0.0
  30
0.0
  70
0
   0
VERTEX
   5
324
 100
AcDbEntity
   8
0
   6
CONTINUOUS
  62
7
 100
AcDbVertex
 100
AcDb2dVertex
  10
 137.03926180817
  20
 408.11162861453
  30
0.0
   0
VERTEX
   5
325
 100
AcDbEntity
   8
0
   6
CONTINUOUS
  62
7
 100
AcDbVertex
 100
AcDb2dVertex
  10
 137.03926180817
  20
 435.41162861453
  30
0.0
   0
VERTEX
   5
326
 100
AcDbEntity
   8
0
   6
CONTINUOUS
  62
7
 100
AcDbVertex
 100
AcDb2dVertex
  10
 135.03926180817
  20
 439.11162861453
  30
0.0
   0
SEQEND
   5
327
 100
AcDbEntity
   8
0
   6
CONTINUOUS
  62
7
   0
LINE
   5
328
 100
AcDbEntity
   8
0
 100
AcDbLine
   6
CONTINUOUS
  62
2
  10
 136.33926180817
  20
 408.11162861453
  30
0.0
  11
 136.33926180817
  21
 436.62406417982
  31
0.0
   0
DIMENSION
   5
329
 100
AcDbEntity
   8
0
   6
CONTINUOUS
  62
2
 100
AcDbDimension
   2
*D1
  10
 460.79463116097
  20
 216.29862313710
  30
0.0
  11
 460.79463116097
  21
 201.87329757263
  31
0.0
  70
128
   3
GMM001
 100
AcDbAlignedDimension
  13
 459.52176645953
  23
 206.29862313710
  33
0.0
  14
 460.37034292716
  24
 216.29862313710
  34
0.0
  50
 90.000000000000
 100
AcDbRotatedDimension
   0
DIMENSION
   5
32A
 100
AcDbEntity
   8
0
   6
CONTINUOUS
  62
2
 100
AcDbDimension
   2
*D2
  10
 565.46893091208
  20
 246.79862313710
  30
0.0
  11
 565.46893091208
  21
 223.29862313710
  31
0.0
  70
0
   3
GMM002
 100
AcDbAlignedDimension
  13
 590.65008325472
  23
 199.79862313710
  33
0.0
  14
 640.64628215070
  24
 246.79862313710
  34
0.0
  50
 90.000000000000
 100
AcDbRotatedDimension
   0
ARC
   5
32B
 100
AcDbEntity
   8
0
   6
CONTINUOUS
  62
7
 100
AcDbCircle
  10
 712.78037491410
  20
 81.884485898228
  30
0.0
  40
 180.00000000000
 100
AcDbArc
  50
 113.62475777460
  51
 133.88547459270
   0
ARC
   5
32C
 100
AcDbEntity
   8
0
   6
CONTINUOUS
  62
7
 100
AcDbCircle
  10
 596.19401164010
  20
 202.23278688503
  30
0.0
  40
 2.0000000000001
 100
AcDbArc
  50
 220.60129464500
  51
 293.92959145399
   0
LINE
   5
32D
 100
AcDbEntity
   8
0
 100
AcDbLine
   6
CONTINUOUS
  62
7
  10
 594.67549843550
  20
 200.93120413823
  30
0.0
  11
 587.86885574550
  21
 208.87228727643
  31
0.0
   0
ARC
   5
32E
 100
AcDbEntity
   8
0
   6
CONTINUOUS
  62
7
 100
AcDbCircle
  10
 589.38736895031
  20
 210.17387002342
  30
0.0
  40
 2.0000000000000
 100
AcDbArc
  50
 133.88547459269
  51
 220.60129464471
   0
ARC
   5
32F
 100
AcDbEntity
   8
0
   6
CONTINUOUS
  62
1
 100
AcDbCircle
  10
 712.78037491410
  20
 81.884485898228
  30
0.0
  40
 178.00000000000
 100
AcDbArc
  50
 113.90665098830
  51
 133.88547459270
   0
LINE
   5
330
 100
AcDbEntity
   8
0
 100
AcDbLine
   6
CONTINUOUS
  62
1
  10
 589.38736895030
  20
 210.17387002343
  30
0.0
  11
 588.00093068090
  21
 211.61532377763
  31
0.0
   0
LINE
   5
331
 100
AcDbEntity
   8
0
 100
AcDbLine
   6
CONTINUOUS
  62
1
  10
 589.38736895030
  20
 210.17387002343
  30
0.0
  11
 596.19401164010
  21
 202.23278688503
  31
0.0
   0
LINE
   5
332
 100
AcDbEntity
   8
0
 100
AcDbLine
   6
CONTINUOUS
  62
1
  10
 594.67549843550
  20
 200.93120413823
  30
0.0
  11
 596.19401164010
  21
 202.23278688503
  31
0.0
   0
LINE
   5
333
 100
AcDbEntity
   8
0
 100
AcDbLine
   6
CONTINUOUS
  62
1
  10
 587.86885574550
  20
 208.87228727643
  30
0.0
  11
 589.38736895030
  21
 210.17387002343
  31
0.0
   0
DIMENSION
   5
334
 100
AcDbEntity
   8
0
   6
CONTINUOUS
  62
2
 100
AcDbDimension
   2
*D3
  10
 640.64628215070
  20
 267.00364655329
  30
0.0
  11
 613.64628215070
  21
 267.00364655329
  31
0.0
  70
0
   3
GMM002
 100
AcDbAlignedDimension
  13
 586.64628215070
  23
 211.29862313703
  33
0.0
  14
 640.64628215070
  24
 246.79862313710
  34
0.0
 100
AcDbRotatedDimension
   0
LINE
   5
335
 100
AcDbEntity
   8
0
 100
AcDbLine
   6
CONTINUOUS
  62
7
  10
 632.77844857630
  20
 214.26645671163
  30
0.0
  11
 632.81294881750
  21
 214.23195647043
  31
0.0
   0
LINE
   5
336
 100
AcDbEntity
   8
0
 100
AcDbLine
   6
CONTINUOUS
  62
7
  10
 632.81294881750
  20
 214.23195647043
  30
0.0
  11
 633.08800686910
  21
 214.36948549623
  31
0.0
   0
ARC
   5
337
 100
AcDbEntity
   8
0
   6
CONTINUOUS
  62
7
 100
AcDbCircle
  10
 759.25072543770
  20
-165.21313850477
  30
0.0
  40
 400.00000000000
 100
AcDbArc
  50
 107.24817217640
  51
 113.92959145400
   0
ARC
   5
338
 100
AcDbEntity
   8
0
   6
CONTINUOUS
  62
7
 100
AcDbCircle
  10
 623.16545013691
  20
 208.79862313703
  30
0.0
  40
 2.0000000000000
 100
AcDbArc
  50
 90.000000000169
  51
 109.99406494568
   0
LINE
   5
339
 100
AcDbEntity
   8
0
 100
AcDbLine
   6
CONTINUOUS
  62
7
  10
 640.64628215070
  20
 210.79862313703
  30
0.0
  11
 623.16545013690
  21
 210.79862313703
  31
0.0
   0
LINE
   5
33A
 100
AcDbEntity
   8
0
 100
AcDbLine
   6
CONTINUOUS
  62
7
  10
 640.64628215070
  20
 212.79862313703
  30
0.0
  11
 640.64628215070
  21
 210.79862313703
  31
0.0
   0
SPLINE
   5
33B
 100
AcDbEntity
   8
0
   6
CONTINUOUS
  62
1
 100
AcDbSpline
  70
8
  71
3
  72
13
  73
9
  74
7
  42
 0.10000000000000E-6
  43
 0.10000000000000E-6
  44
 0.10000000000000E-4
  40
0.0
  40
0.0
  40
0.0
  40
0.0
  40
 0.28417987778866
  40
 0.56440716022248
  40
 0.81547438666510
  40
 0.92636426917687
  40
 0.97367513786445
  40
 1.0000000000000
  40
 1.0000000000000
  40
 1.0000000000000
  40
 1.0000000000000
  10
 625.65364722270
  20
 211.24572109646
  30
0.0
  10
 625.38313318512
  20
 211.19780520207
  30
0.0
  10
 624.84586763015
  20
 211.10263986494
  30
0.0
  10
 624.10186194870
  20
 210.96838167149
  30
0.0
  10
 623.53554632782
  20
 210.86590492348
  30
0.0
  10
 623.24462906407
  20
 210.81302614560
  30
0.0
  10
 623.17179666843
  20
 210.79977779855
  30
0.0
  10
 623.16712151127
  20
 210.79892721990
  30
0.0
  10
 623.16545013698
  20
 210.79862313701
  30
0.0
  11
 625.65364722270
  21
 211.24572109646
  31
0.0
  11
 624.84776440136
  21
 211.10254188940
  31
0.0
  11
 624.07976567248
  21
 210.96432912633
  31
0.0
  11
 623.44171546008
  21
 210.84882535605
  31
0.0
  11
 623.22400707213
  21
 210.80927359795
  31
0.0
  11
 623.17358133721
  21
 210.80010236748
  31
0.0
  11
 623.16545013698
  21
 210.79862313701
  31
0.0
   0
LINE
   5
33C
 100
AcDbEntity
   8
0
 100
AcDbLine
   6
CONTINUOUS
  62
1
  10
 597.00523907210
  20
 200.40469770403
  30
0.0
  11
 596.19401164010
  21
 202.23278688503
  31
0.0
   0
ARC
   5
33D
 100
AcDbEntity
   8
0
   6
CONTINUOUS
  62
1
 100
AcDbCircle
  10
 759.25072543770
  20
-165.21313850477
  30
0.0
  40
 402.00000000000
 100
AcDbArc
  50
 107.15969181810
  51
 113.92959145400
   0
LINE
   5
33E
 100
AcDbEntity
   8
0
 100
AcDbLine
   6
CONTINUOUS
  62
1
  10
 634.70712640290
  20
 212.79862313703
  30
0.0
  11
 634.08127917150
  21
 214.69817972823
  31
0.0
   0
ARC
   5
33F
 100
AcDbEntity
   8
0
   6
CONTINUOUS
  62
1
 100
AcDbCircle
  10
 759.25072543770
  20
-165.21313850477
  30
0.0
  40
 398.00000000000
 100
AcDbArc
  50
 107.33758487020
  51
 108.23550978290
   0
LINE
   5
340
 100
AcDbEntity
   8
0
 100
AcDbLine
   6
CONTINUOUS
  62
1
  10
 634.70712640290
  20
 212.79862313703
  30
0.0
  11
 640.64628215070
  21
 212.79862313703
  31
0.0
   0
LINE
   5
341
 100
AcDbEntity
   8
0
 100
AcDbLine
   6
CONTINUOUS
  62
7
  10
 640.64628215070
  20
 216.79862313688
  30
0.0
  11
 640.64628215070
  21
 246.79862313710
  31
0.0
   0
LINE
   5
342
 100
AcDbEntity
   8
0
 100
AcDbLine
   6
CONTINUOUS
  62
7
  10
 640.64628215070
  20
 212.79862313703
  30
0.0
  11
 640.64628215070
  21
 216.79862313688
  31
0.0
   0
LINE
   5
343
 100
AcDbEntity
   8
0
 100
AcDbLine
   6
DASHDOT
  62
2
  10
 675.21921957917
  20
 231.79862313710
  30
0.0
  11
 637.75269572401
  21
 231.79862313710
  31
0.0
   0
POLYLINE
   5
344
 100
AcDbEntity
   8
0
   6
CONTINUOUS
  62
7
 100
AcDb2dPolyline
  66
1
  10
0.0
  20
0.0
  30
0.0
  70
0
   0
VERTEX
   5
345
 100
AcDbEntity
   8
0
   6
CONTINUOUS
  62
7
 100
AcDbVertex
 100
AcDb2dVertex
  10
 640.64628215070
  20
 233.79862313710
  30
0.0
   0
VERTEX
   5
346
 100
AcDbEntity
   8
0
   6
CONTINUOUS
  62
7
 100
AcDbVertex
 100
AcDb2dVertex
  10
 667.94628215070
  20
 233.79862313710
  30
0.0
   0
VERTEX
   5
347
 100
AcDbEntity
   8
0
   6
CONTINUOUS
  62
7
 100
AcDbVertex
 100
AcDb2dVertex
  10
 671.64628215070
  20
 231.79862313710
  30
0.0
   0
SEQEND
   5
348
 100
AcDbEntity
   8
0
   6
CONTINUOUS
  62
7
   0
LINE
   5
349
 100
AcDbEntity
   8
0
 100
AcDbLine
   6
CONTINUOUS
  62
2
  10
 640.64628215070
  20
 233.09862313710
  30
0.0
  11
 669.15871771600
  21
 233.09862313710
  31
0.0
   0
POLYLINE
   5
34A
 100
AcDbEntity
   8
0
   6
CONTINUOUS
  62
7
 100
AcDb2dPolyline
  66
1
  10
0.0
  20
0.0
  30
0.0
  70
0
   0
VERTEX
   5
34B
 100
AcDbEntity
   8
0
   6
CONTINUOUS
  62
7
 100
AcDbVertex
 100
AcDb2dVertex
  10
 640.64628215070
  20
 229.79862313710
  30
0.0
   0
VERTEX
   5
34C
 100
AcDbEntity
   8
0
   6
CONTINUOUS
  62
7
 100
AcDbVertex
 100
AcDb2dVertex
  10
 667.94628215070
  20
 229.79862313710
  30
0.0
   0
VERTEX
   5
34D
 100
AcDbEntity
   8
0
   6
CONTINUOUS
  62
7
 100
AcDbVertex
 100
AcDb2dVertex
  10
 671.64628215070
  20
 231.79862313710
  30
0.0
   0
SEQEND
   5
34E
 100
AcDbEntity
   8
0
   6
CONTINUOUS
  62
7
   0
LINE
   5
34F
 100
AcDbEntity
   8
0
 100
AcDbLine
   6
CONTINUOUS
  62
2
  10
 640.64628215070
  20
 230.49862313710
  30
0.0
  11
 669.15871771600
  21
 230.49862313710
  31
0.0
   0
DIMENSION
   5
350
 100
AcDbEntity
   8
0
   6
CONTINUOUS
  62
2
 100
AcDbDimension
   2
*D4
  10
 671.64628215070
  20
 187.17329119457
  30
0.0
  11
 656.14628215070
  21
 187.17329119457
  31
0.0
  70
0
   1
\A1;(31)
   3
GMM003
 100
AcDbAlignedDimension
  13
 640.64628215070
  23
 210.79862313703
  33
0.0
  14
 671.64628215070
  24
 231.79862313710
  34
0.0
 100
AcDbRotatedDimension
   0
DIMENSION
   5
351
 100
AcDbEntity
   8
0
   6
CONTINUOUS
  62
2
 100
AcDbDimension
   2
*D5
  10
 716.85630329110
  20
 246.79862313710
  30
0.0
  11
 716.85630329110
  21
 228.79862313706
  31
0.0
  70
0
   3
GMM002
 100
AcDbAlignedDimension
  13
 640.64628215070
  23
 210.79862313703
  33
0.0
  14
 640.64628215070
  24
 246.79862313710
  34
0.0
  50
 90.000000000000
 100
AcDbRotatedDimension
   0
DIMENSION
   5
352
 100
AcDbEntity
   8
0
   6
CONTINUOUS
  62
2
 100
AcDbDimension
   2
*D6
  10
 701.27720740323
  20
 246.79862313710
  30
0.0
  11
 701.27720740323
  21
 231.79862313699
  31
0.0
  70
0
   3
GMM002
 100
AcDbAlignedDimension
  13
 640.64628215070
  23
 216.79862313688
  33
0.0
  14
 640.64628215070
  24
 246.79862313710
  34
0.0
  50
 90.000000000000
 100
AcDbRotatedDimension
   0
DIMENSION
   5
353
 100
AcDbEntity
   8
0
   6
CONTINUOUS
  62
2
 100
AcDbDimension
   2
*D7
  10
 685.16700597373
  20
 246.79862313710
  30
0.0
  11
 685.16700597373
  21
 239.29862313710
  31
0.0
  70
0
   3
GMM002
 100
AcDbAlignedDimension
  13
 675.21921957917
  23
 231.79862313710
  33
0.0
  14
 640.64628215070
  24
 246.79862313710
  34
0.0
  50
 90.000000000000
 100
AcDbRotatedDimension
   0
DIMENSION
   5
354
 100
AcDbEntity
   8
0
   6
CONTINUOUS
  62
2
 100
AcDbDimension
   2
*D8
  10
 543.03926180817
  20
 327.27349053148
  30
0.0
  11
 525.03926180817
  21
 327.27349053148
  31
0.0
  70
0
   3
GMM002
 100
AcDbAlignedDimension
  13
 507.03926180817
  23
 355.12447828538
  33
0.0
  14
 543.03926180817
  24
 355.32181582603
  34
0.0
 100
AcDbRotatedDimension
   0
DIMENSION
   5
355
 100
AcDbEntity
   8
0
   6
CONTINUOUS
  62
2
 100
AcDbDimension
   2
*D9
  10
 525.03926180817
  20
 472.77452671831
  30
0.0
  11
 325.03926180817
  21
 472.77452671831
  31
0.0
  70
0
   3
GMM002
 100
AcDbAlignedDimension
  13
 125.03926180817
  23
 443.00906035316
  33
0.0
  14
 525.03926180817
  24
 443.00906035315
  34
0.0
 100
AcDbRotatedDimension
   0
DIMENSION
   5
356
 100
AcDbEntity
   8
0
   6
CONTINUOUS
  62
2
 100
AcDbDimension
   2
*D10
  10
 535.03926180817
  20
 451.83526320803
  30
0.0
  11
 525.03926180817
  21
 451.83526320803
  31
0.0
  70
0
   3
GMM002
 100
AcDbAlignedDimension
  13
 515.03926180817
  23
 439.11162861453
  33
0.0
  14
 535.03926180817
  24
 439.11162861453
  34
0.0
 100
AcDbRotatedDimension
   0
LINE
   5
357
 100
AcDbEntity
   8
FORMAT
 100
AcDbLine
   6
DASHDOT
  62
2
  10
 515.01617468493
  20
 368.11162861452
  30
0.0
  11
 136.38576133632
  21
 368.11162861452
  31
0.0
   0
LINE
   5
358
 100
AcDbEntity
   8
FORMAT
 100
AcDbLine
   6
DASHDOT
  62
2
  10
 515.01617468493
  20
 211.29862313710
  30
0.0
  11
 136.38576133632
  21
 211.29862313710
  31
0.0
   0
ENDSEC
  0
SECTION
  2
OBJECTS
  0
DICTIONARY
  5
C
100
AcDbDictionary
  3
ACAD_GROUP
350
D
  3
ACAD_MLINESTYLE
350
1B
  0
DICTIONARY
  5
D
102
{ACAD_REACTORS
330
C
102
}
100
AcDbDictionary
  0
DICTIONARY
  5
1B
102
{ACAD_REACTORS
330
C
102
}
100
AcDbDictionary
  3
STANDARD
350
1C
  0
MLINESTYLE
  5
1C
102
{ACAD_REACTORS
330
1B
102
}
100
AcDbMlineStyle
  2
STANDARD
 70
     0
  3

 62
   256
 51
90.0
 52
90.0
 71
     2
 49
0.5
 62
   256
  6
BYLAYER
 49
-0.5
 62
   256
  6
BYLAYER
  0
ENDSEC
   0
EOF
