   0
SECTION
   2
HEADER
   9
$ACADVER
   1
AC1015
   9
$LIMMIN
  10
0.0
  20
0.0
   9
$LIMMAX
  10
 420.00000000000
  20
 297.00000000000
   9
$EXTMIN
  10
0.0
  20
0.0
  30
0.0
   9
$EXTMAX
  10
 420.00000000000
  20
 297.00000000000
  30
0.0
   9
$LTSCALE
  40
 8.4000000000000
   9
$HANDSEED
   5
4C8
   0
ENDSEC
   0
SECTION
   2
TABLES
  0
TABLE
  2
VPORT
  5
8
100
AcDbSymbolTable
 70
     1
  0
VPORT
  5
4C7
100
AcDbSymbolTableRecord
100
AcDbViewportTableRecord
  2
*ACTIVE
 70
     0
 10
0.0
 20
0.0
 11
1.0
 21
1.0
  12
 210.00000000000
  22
 148.50000000000
 13
0.0
 23
0.0
 14
1.0
 24
1.0
 15
0.0
 25
0.0
 16
0.0
 26
0.0
 36
1.0
 17
0.0
 27
0.0
 37
0.0
  40
 420.00000000000
  41
 1.4787878787879
 42
50.0
 43
0.0
 44
0.0
 50
0.0
 51
0.0
 71
     0
 72
   100
 73
     1
 74
     1
 75
     0
 76
     0
 77
     0
 78
     0
  0
ENDTAB
  0
TABLE
  2
LTYPE
  5
5
100
AcDbSymbolTable
 70
    25
  0
LTYPE
  5
12
100
AcDbSymbolTableRecord
100
AcDbLinetypeTableRecord
  2
BYBLOCK
 70
     0
  3

 72
    65
 73
     0
 40
0.0
  0
LTYPE
  5
13
100
AcDbSymbolTableRecord
100
AcDbLinetypeTableRecord
  2
BYLAYER
 70
     0
  3

 72
    65
 73
     0
 40
0.0
  0
LTYPE
  5
14
100
AcDbSymbolTableRecord
100
AcDbLinetypeTableRecord
  2
CONTINUOUS
 70
     0
  3
Solid line
 72
    65
 73
     0
 40
0.0
  0
LTYPE
  5
20
100
AcDbSymbolTableRecord
100
AcDbLinetypeTableRecord
  2
BORDER
 70
     0
  3
__ __ . __ __ . __ __ . __ __ . __ __ . __ __ .
 72
    65
 73
     6
 40
1.75
 49
0.5
 74
     0
 49
-0.25
 74
     0
 49
0.5
 74
     0
 49
-0.25
 74
     0
 49
0.0
 74
     0
 49
-0.25
 74
     0
  0
LTYPE
  5
21
100
AcDbSymbolTableRecord
100
AcDbLinetypeTableRecord
  2
BORDER2
 70
     0
  3
__.__.__.__.__.__.__.__.__.__.__.__.__.__.__.__
 72
    65
 73
     6
 40
0.875
 49
0.25
 74
     0
 49
-0.125
 74
     0
 49
0.25
 74
     0
 49
-0.125
 74
     0
 49
0.0
 74
     0
 49
-0.125
 74
     0
  0
LTYPE
  5
22
100
AcDbSymbolTableRecord
100
AcDbLinetypeTableRecord
  2
BORDERX2
 70
     0
  3
____  ____  .  ____  ____  .  ____  ____  .  __
 72
    65
 73
     6
 40
3.5
 49
1.0
 74
     0
 49
-0.5
 74
     0
 49
1.0
 74
     0
 49
-0.5
 74
     0
 49
0.0
 74
     0
 49
-0.5
 74
     0
  0
LTYPE
  5
23
100
AcDbSymbolTableRecord
100
AcDbLinetypeTableRecord
  2
CENTER
 70
     0
  3
____ _ ____ _ ____ _ ____ _ ____ _ ____ _ ____ 
 72
    65
 73
     4
 40
2.0
 49
1.25
 74
     0
 49
-0.25
 74
     0
 49
0.25
 74
     0
 49
-0.25
 74
     0
  0
LTYPE
  5
24
100
AcDbSymbolTableRecord
100
AcDbLinetypeTableRecord
  2
CENTER2
 70
     0
  3
___ _ ___ _ ___ _ ___ _ ___ _ ___ _ ___ _ ___ _
 72
    65
 73
     4
 40
1.125
 49
0.75
 74
     0
 49
-0.125
 74
     0
 49
0.125
 74
     0
 49
-0.125
 74
     0
  0
LTYPE
  5
25
100
AcDbSymbolTableRecord
100
AcDbLinetypeTableRecord
  2
CENTERX2
 70
     0
  3
________  __  ________  __  ________  __  _____
 72
    65
 73
     4
 40
4.0
 49
2.5
 74
     0
 49
-0.5
 74
     0
 49
0.5
 74
     0
 49
-0.5
 74
     0
  0
LTYPE
  5
26
100
AcDbSymbolTableRecord
100
AcDbLinetypeTableRecord
  2
DASHDOT
 70
     0
  3
__ . __ . __ . __ . __ . __ . __ . __ . __ . __
 72
    65
 73
     4
 40
1.0
 49
0.5
 74
     0
 49
-0.25
 74
     0
 49
0.0
 74
     0
 49
-0.25
 74
     0
  0
LTYPE
  5
27
100
AcDbSymbolTableRecord
100
AcDbLinetypeTableRecord
  2
DASHDOT2
 70
     0
  3
_._._._._._._._._._._._._._._._._._._._._._._._
 72
    65
 73
     4
 40
0.5
 49
0.25
 74
     0
 49
-0.125
 74
     0
 49
0.0
 74
     0
 49
-0.125
 74
     0
  0
LTYPE
  5
28
100
AcDbSymbolTableRecord
100
AcDbLinetypeTableRecord
  2
DASHDOTX2
 70
     0
  3
____  .  ____  .  ____  .  ____  .  ____  .  __
 72
    65
 73
     4
 40
2.0
 49
1.0
 74
     0
 49
-0.5
 74
     0
 49
0.0
 74
     0
 49
-0.5
 74
     0
  0
LTYPE
  5
29
100
AcDbSymbolTableRecord
100
AcDbLinetypeTableRecord
  2
DASHED
 70
     0
  3
__ __ __ __ __ __ __ __ __ __ __ __ __ __ __ __
 72
    65
 73
     2
 40
0.75
 49
0.5
 74
     0
 49
-0.25
 74
     0
  0
LTYPE
  5
2A
100
AcDbSymbolTableRecord
100
AcDbLinetypeTableRecord
  2
DASHED2
 70
     0
  3
_ _ _ _ _ _ _ _ _ _ _ _ _ _ _ _ _ _ _ _ _ _ _ _
 72
    65
 73
     2
 40
0.375
 49
0.25
 74
     0
 49
-0.125
 74
     0
  0
LTYPE
  5
2B
100
AcDbSymbolTableRecord
100
AcDbLinetypeTableRecord
  2
DASHEDX2
 70
     0
  3
____  ____  ____  ____  ____  ____  ____  ____ 
 72
    65
 73
     2
 40
1.5
 49
1.0
 74
     0
 49
-0.5
 74
     0
  0
LTYPE
  5
2C
100
AcDbSymbolTableRecord
100
AcDbLinetypeTableRecord
  2
DIVIDE
 70
     0
  3
____ . . ____ . . ____ . . ____ . . ____ . . __
 72
    65
 73
     6
 40
1.25
 49
0.5
 74
     0
 49
-0.25
 74
     0
 49
0.0
 74
     0
 49
-0.25
 74
     0
 49
0.0
 74
     0
 49
-0.25
 74
     0
  0
LTYPE
  5
2D
100
AcDbSymbolTableRecord
100
AcDbLinetypeTableRecord
  2
DIVIDE2
 70
     0
  3
__..__..__..__..__..__..__..__..__..__..__..__.
 72
    65
 73
     6
 40
0.625
 49
0.25
 74
     0
 49
-0.125
 74
     0
 49
0.0
 74
     0
 49
-0.125
 74
     0
 49
0.0
 74
     0
 49
-0.125
 74
     0
  0
LTYPE
  5
2E
100
AcDbSymbolTableRecord
100
AcDbLinetypeTableRecord
  2
DIVIDEX2
 70
     0
  3
________  .  .  ________  .  .  ________  .  . 
 72
    65
 73
     6
 40
2.5
 49
1.0
 74
     0
 49
-0.5
 74
     0
 49
0.0
 74
     0
 49
-0.5
 74
     0
 49
0.0
 74
     0
 49
-0.5
 74
     0
  0
LTYPE
  5
2F
100
AcDbSymbolTableRecord
100
AcDbLinetypeTableRecord
  2
DOT
 70
     0
  3
. . . . . . . . . . . . . . . . . . . . . . . .
 72
    65
 73
     2
 40
0.25
 49
0.0
 74
     0
 49
-0.25
 74
     0
  0
LTYPE
  5
30
100
AcDbSymbolTableRecord
100
AcDbLinetypeTableRecord
  2
DOT2
 70
     0
  3
...............................................
 72
    65
 73
     2
 40
0.125
 49
0.0
 74
     0
 49
-0.125
 74
     0
  0
LTYPE
  5
31
100
AcDbSymbolTableRecord
100
AcDbLinetypeTableRecord
  2
DOTX2
 70
     0
  3
.  .  .  .  .  .  .  .  .  .  .  .  .  .  .  . 
 72
    65
 73
     2
 40
0.5
 49
0.0
 74
     0
 49
-0.5
 74
     0
  0
LTYPE
  5
32
100
AcDbSymbolTableRecord
100
AcDbLinetypeTableRecord
  2
HIDDEN
 70
     0
  3
__ __ __ __ __ __ __ __ __ __ __ __ __ __ __ __
 72
    65
 73
     2
 40
0.375
 49
0.25
 74
     0
 49
-0.125
 74
     0
  0
LTYPE
  5
33
100
AcDbSymbolTableRecord
100
AcDbLinetypeTableRecord
  2
HIDDEN2
 70
     0
  3
_ _ _ _ _ _ _ _ _ _ _ _ _ _ _ _ _ _ _ _ _ _ _ _
 72
    65
 73
     2
 40
0.1875
 49
0.125
 74
     0
 49
-0.0625
 74
     0
  0
LTYPE
  5
34
100
AcDbSymbolTableRecord
100
AcDbLinetypeTableRecord
  2
HIDDENX2
 70
     0
  3
____ ____ ____ ____ ____ ____ ____ ____ ____ __
 72
    65
 73
     2
 40
0.75
 49
0.5
 74
     0
 49
-0.25
 74
     0
  0
LTYPE
  5
35
100
AcDbSymbolTableRecord
100
AcDbLinetypeTableRecord
  2
PHANTOM
 70
     0
  3
______  __  __  ______  __  __  ______  __  __ 
 72
    65
 73
     6
 40
2.5
 49
1.25
 74
     0
 49
-0.25
 74
     0
 49
0.25
 74
     0
 49
-0.25
 74
     0
 49
0.25
 74
     0
 49
-0.25
 74
     0
  0
LTYPE
  5
36
100
AcDbSymbolTableRecord
100
AcDbLinetypeTableRecord
  2
PHANTOM2
 70
     0
  3
___ _ _ ___ _ _ ___ _ _ ___ _ _ ___ _ _ ___ _ _
 72
    65
 73
     6
 40
1.25
 49
0.625
 74
     0
 49
-0.125
 74
     0
 49
0.125
 74
     0
 49
-0.125
 74
     0
 49
0.125
 74
     0
 49
-0.125
 74
     0
  0
LTYPE
  5
37
100
AcDbSymbolTableRecord
100
AcDbLinetypeTableRecord
  2
PHANTOMX2
 70
     0
  3
____________    ____    ____    ____________   
 72
    65
 73
     6
 40
5.0
 49
2.5
 74
     0
 49
-0.5
 74
     0
 49
0.5
 74
     0
 49
-0.5
 74
     0
 49
0.5
 74
     0
 49
-0.5
 74
     0
  0
ENDTAB
   0
TABLE
   2
LAYER
   5
2
 100
AcDbSymbolTable
  70
2
   0
LAYER
   5
E
 100
AcDbSymbolTableRecord
 100
AcDbLayerTableRecord
   2
0
  70
0
  62
7
   6
CONTINUOUS
 390
30
   0
LAYER
   5
39
 100
AcDbSymbolTableRecord
 100
AcDbLayerTableRecord
   2
LEVEL001
  70
0
  62
7
   6
CONTINUOUS
 390
30
   0
ENDTAB
  0
TABLE
  2
STYLE
  5
3
100
AcDbSymbolTable
  70
3
  0
STYLE
  5
F
100
AcDbSymbolTableRecord
100
AcDbTextStyleTableRecord
  2
STANDARD
 70
     0
 40
0.0
 41
1.0
 50
0.0
 71
     0
 42
0.2
  3
TXT
  4
BIGFONT
  0
STYLE
  5
38
100
AcDbSymbolTableRecord
100
AcDbTextStyleTableRecord
  2
STANDARD1
 70
     4
 40
0.0
 41
1.0
 50
0.0
 71
     0
 42
0.2
  3
TXT
  4
BIGFONT
   0
STYLE
   5
3A
 100
AcDbSymbolTableRecord
 100
AcDbTextStyleTableRecord
   2
GMM001
  70
0
  40
0.0
  41
 0.71428571428571
  50
0.0
  71
     0
  42
1.0
   3
txt.shx
   4
bigfont.shx
   0
ENDTAB
  0
TABLE
  2
VIEW
  5
6
100
AcDbSymbolTable
 70
     0
  0
ENDTAB
  0
TABLE
  2
UCS
  5
7
100
AcDbSymbolTable
 70
     0
  0
ENDTAB
  0
TABLE
  2
APPID
  5
9
100
AcDbSymbolTable
 70
     1
  0
APPID
  5
10
100
AcDbSymbolTableRecord
100
AcDbRegAppTableRecord
  2
ACAD
 70
     0
  0
ENDTAB
   0
TABLE
   2
DIMSTYLE
   5
A
 100
AcDbSymbolTable
  70
8
 100
AcDbDimStyleTable
  0
DIMSTYLE
105
1D
100
AcDbSymbolTableRecord
100
AcDbDimStyleTableRecord
  2
STANDARD
 70
     0
  3

  4

  5

  6

  7

 40
1.0
 41
0.18
 42
0.0625
 43
0.38
 44
0.18
 45
0.0
 46
0.0
 47
0.0
 48
0.0
140
0.18
141
0.09
142
0.0
143
25.4
144
1.0
145
0.0
146
1.0
147
0.09
 71
     0
 72
     0
 73
     1
 74
     1
 75
     0
 76
     0
 77
     0
 78
     0
170
     0
171
     2
172
     0
173
     0
174
     0
175
     0
176
     0
177
     0
178
     0
270
     2
271
     4
272
     4
273
     2
274
     2
340
F
275
     0
280
     0
281
     0
282
     0
283
     1
284
     0
285
     0
286
     0
287
     3
288
     0
   0
DIMSTYLE
 105
3B
 100
AcDbSymbolTableRecord
 100
AcDbDimStyleTableRecord
   2
GMM001
  70
0
   3

   4

   5

   6
_OPEN30
   7
_OPEN30
  40
 1.0000000000000
  41
 3.0000000000000
  42
 0.50000000000000
  43
 8.0000000000000
  44
 1.0000000000000
  45
0.0
  46
0.0
  47
0.0
  48
0.0
 140
 3.5000000000000
 141
 1.0000000000000
 142
0.0
 143
 0.39400000000000E-1
 144
 1.0000000000000
 145
0.0
 146
 0.71428571428571
 147
 1.5000000000000
  71
0
  72
0
  73
0
  74
0
  75
0
  76
0
  77
3
  78
8
 170
0
 171
2
 172
1
 173
1
 174
0
 175
0
 176
3
 177
3
 178
3
 270
2
 271
6
 272
0
 273
2
 274
2
 340
3A
 275
1
 280
0
 281
0
 282
0
 283
1
 284
0
 285
0
 286
0
 287
3
 288
0
   0
DIMSTYLE
 105
3C
 100
AcDbSymbolTableRecord
 100
AcDbDimStyleTableRecord
   2
GMM002
  70
0
   3

   4

   5

   6
_OPEN30
   7
_OPEN30
  40
 1.0000000000000
  41
 3.0000000000000
  42
 0.50000000000000
  43
 8.0000000000000
  44
 1.0000000000000
  45
0.0
  46
0.0
  47
0.0
  48
0.0
 140
 3.5000000000000
 141
 1.0000000000000
 142
0.0
 143
 0.39400000000000E-1
 144
 1.0000000000000
 145
0.0
 146
 0.71428571428571
 147
 1.5000000000000
  71
0
  72
0
  73
0
  74
0
  75
0
  76
0
  77
3
  78
8
 170
0
 171
2
 172
1
 173
1
 174
0
 175
0
 176
3
 177
3
 178
3
 270
2
 271
6
 272
0
 273
2
 274
2
 340
3A
 275
1
 280
0
 281
0
 282
0
 283
1
 284
0
 285
0
 286
0
 287
3
 288
1
   0
DIMSTYLE
 105
3D
 100
AcDbSymbolTableRecord
 100
AcDbDimStyleTableRecord
   2
GMM003
  70
0
   3
%%c<>
   4

   5

   6
_OPEN30
   7
_OPEN30
  40
 1.0000000000000
  41
 3.0000000000000
  42
 0.50000000000000
  43
 8.0000000000000
  44
 1.0000000000000
  45
0.0
  46
0.0
  47
0.0
  48
0.0
 140
 3.5000000000000
 141
 1.0000000000000
 142
0.0
 143
 0.39400000000000E-1
 144
 1.0000000000000
 145
0.0
 146
 0.71428571428571
 147
 1.5000000000000
  71
0
  72
0
  73
0
  74
0
  75
0
  76
0
  77
3
  78
8
 170
0
 171
2
 172
1
 173
1
 174
0
 175
0
 176
3
 177
3
 178
3
 270
2
 271
6
 272
0
 273
2
 274
2
 340
3A
 275
1
 280
0
 281
0
 282
0
 283
1
 284
0
 285
0
 286
0
 287
3
 288
0
   0
DIMSTYLE
 105
3E
 100
AcDbSymbolTableRecord
 100
AcDbDimStyleTableRecord
   2
GMM004
  70
0
   3

   4

   5

   6
_OPEN30
   7
_OPEN30
  40
 1.0000000000000
  41
 3.0000000000000
  42
 0.50000000000000
  43
 8.0000000000000
  44
 1.0000000000000
  45
0.0
  46
0.0
  47
0.0
  48
0.0
 140
 3.5000000000000
 141
 1.0000000000000
 142
0.0
 143
 0.39400000000000E-1
 144
 1.0000000000000
 145
0.0
 146
 0.71428571428571
 147
 1.5000000000000
  71
0
  72
0
  73
0
  74
0
  75
0
  76
0
  77
3
  78
8
 170
0
 171
2
 172
1
 173
1
 174
0
 175
0
 176
3
 177
3
 178
3
 270
2
 271
6
 272
0
 273
2
 274
2
 340
3A
 275
1
 280
0
 281
0
 282
0
 283
1
 284
0
 285
0
 286
0
 287
3
 288
0
   0
DIMSTYLE
 105
3F
 100
AcDbSymbolTableRecord
 100
AcDbDimStyleTableRecord
   2
GMM005
  70
0
   3
280(枠端より)<>
   4

   5

   6
_OPEN30
   7
_OPEN30
  40
 1.0000000000000
  41
 3.0000000000000
  42
 0.50000000000000
  43
 8.0000000000000
  44
 1.0000000000000
  45
0.0
  46
0.0
  47
0.0
  48
0.0
 140
 3.5000000000000
 141
 1.0000000000000
 142
0.0
 143
 0.39400000000000E-1
 144
 1.0000000000000
 145
0.0
 146
 0.71428571428571
 147
 1.5000000000000
  71
0
  72
0
  73
0
  74
0
  75
0
  76
0
  77
3
  78
8
 170
0
 171
2
 172
1
 173
1
 174
0
 175
0
 176
3
 177
3
 178
3
 270
2
 271
6
 272
0
 273
2
 274
2
 340
3A
 275
1
 280
0
 281
0
 282
0
 283
1
 284
0
 285
0
 286
0
 287
3
 288
0
   0
DIMSTYLE
 105
40
 100
AcDbSymbolTableRecord
 100
AcDbDimStyleTableRecord
   2
GMM006
  70
0
   3
4-R<>
   4

   5

   6
_NONE
   7
_OPEN30
  40
 1.0000000000000
  41
 3.0000000000000
  42
 0.50000000000000
  43
 8.0000000000000
  44
 1.0000000000000
  45
0.0
  46
0.0
  47
0.0
  48
0.0
 140
 3.5000000000000
 141
 1.0000000000000
 142
0.0
 143
 0.39400000000000E-1
 144
 1.0000000000000
 145
0.0
 146
 0.71428571428571
 147
 1.5000000000000
  71
0
  72
0
  73
0
  74
0
  75
0
  76
0
  77
3
  78
8
 170
0
 171
2
 172
1
 173
1
 174
0
 175
0
 176
3
 177
3
 178
3
 270
2
 271
6
 272
0
 273
2
 274
2
 340
3A
 275
1
 280
0
 281
0
 282
0
 283
1
 284
0
 285
0
 286
0
 287
3
 288
1
   0
ENDTAB
  0
TABLE
  2
BLOCK_RECORD
  5
1
100
AcDbSymbolTable
 70
     0
  0
BLOCK_RECORD
  5
18
100
AcDbSymbolTableRecord
100
AcDbBlockTableRecord
  2
*MODEL_SPACE
  0
BLOCK_RECORD
  5
15
100
AcDbSymbolTableRecord
100
AcDbBlockTableRecord
  2
*PAPER_SPACE
   0
BLOCK_RECORD
   5
41
 100
AcDbSymbolTableRecord
 100
AcDbBlockTableRecord
   2
*D1
   0
BLOCK_RECORD
   5
42
 100
AcDbSymbolTableRecord
 100
AcDbBlockTableRecord
   2
*D2
   0
BLOCK_RECORD
   5
43
 100
AcDbSymbolTableRecord
 100
AcDbBlockTableRecord
   2
*D3
   0
BLOCK_RECORD
   5
44
 100
AcDbSymbolTableRecord
 100
AcDbBlockTableRecord
   2
*D4
   0
BLOCK_RECORD
   5
45
 100
AcDbSymbolTableRecord
 100
AcDbBlockTableRecord
   2
*D5
   0
BLOCK_RECORD
   5
46
 100
AcDbSymbolTableRecord
 100
AcDbBlockTableRecord
   2
*D6
   0
BLOCK_RECORD
   5
47
 100
AcDbSymbolTableRecord
 100
AcDbBlockTableRecord
   2
*D7
   0
BLOCK_RECORD
   5
48
 100
AcDbSymbolTableRecord
 100
AcDbBlockTableRecord
   2
*D8
   0
BLOCK_RECORD
   5
49
 100
AcDbSymbolTableRecord
 100
AcDbBlockTableRecord
   2
*D9
   0
BLOCK_RECORD
   5
4A
 100
AcDbSymbolTableRecord
 100
AcDbBlockTableRecord
   2
*D10
   0
BLOCK_RECORD
   5
4B
 100
AcDbSymbolTableRecord
 100
AcDbBlockTableRecord
   2
*D11
   0
BLOCK_RECORD
   5
4C
 100
AcDbSymbolTableRecord
 100
AcDbBlockTableRecord
   2
*D12
   0
BLOCK_RECORD
   5
4D
 100
AcDbSymbolTableRecord
 100
AcDbBlockTableRecord
   2
*D13
   0
BLOCK_RECORD
   5
4E
 100
AcDbSymbolTableRecord
 100
AcDbBlockTableRecord
   2
*D14
   0
BLOCK_RECORD
   5
4F
 100
AcDbSymbolTableRecord
 100
AcDbBlockTableRecord
   2
*D15
   0
BLOCK_RECORD
   5
50
 100
AcDbSymbolTableRecord
 100
AcDbBlockTableRecord
   2
*D16
   0
BLOCK_RECORD
   5
51
 100
AcDbSymbolTableRecord
 100
AcDbBlockTableRecord
   2
*D17
   0
BLOCK_RECORD
   5
52
 100
AcDbSymbolTableRecord
 100
AcDbBlockTableRecord
   2
*D18
   0
BLOCK_RECORD
   5
53
 100
AcDbSymbolTableRecord
 100
AcDbBlockTableRecord
   2
*D19
   0
BLOCK_RECORD
   5
54
 100
AcDbSymbolTableRecord
 100
AcDbBlockTableRecord
   2
*D20
   0
BLOCK_RECORD
   5
55
 100
AcDbSymbolTableRecord
 100
AcDbBlockTableRecord
   2
*D21
   0
BLOCK_RECORD
   5
56
 100
AcDbSymbolTableRecord
 100
AcDbBlockTableRecord
   2
HATCH001
   0
BLOCK_RECORD
   5
57
 100
AcDbSymbolTableRecord
 100
AcDbBlockTableRecord
   2
HATCH002
   0
BLOCK_RECORD
   5
58
 100
AcDbSymbolTableRecord
 100
AcDbBlockTableRecord
   2
*D22
   0
BLOCK_RECORD
   5
59
 100
AcDbSymbolTableRecord
 100
AcDbBlockTableRecord
   2
*D23
   0
BLOCK_RECORD
   5
5A
 100
AcDbSymbolTableRecord
 100
AcDbBlockTableRecord
   2
*D24
   0
BLOCK_RECORD
   5
5B
 100
AcDbSymbolTableRecord
 100
AcDbBlockTableRecord
   2
*D25
   0
BLOCK_RECORD
   5
5C
 100
AcDbSymbolTableRecord
 100
AcDbBlockTableRecord
   2
*D26
   0
BLOCK_RECORD
   5
5D
 100
AcDbSymbolTableRecord
 100
AcDbBlockTableRecord
   2
HATCH003
   0
BLOCK_RECORD
   5
5E
 100
AcDbSymbolTableRecord
 100
AcDbBlockTableRecord
   2
HATCH004
   0
BLOCK_RECORD
   5
5F
 100
AcDbSymbolTableRecord
 100
AcDbBlockTableRecord
   2
*D27
   0
BLOCK_RECORD
   5
60
 100
AcDbSymbolTableRecord
 100
AcDbBlockTableRecord
   2
*D28
   0
BLOCK_RECORD
   5
61
 100
AcDbSymbolTableRecord
 100
AcDbBlockTableRecord
   2
HATCH005
   0
BLOCK_RECORD
   5
62
 100
AcDbSymbolTableRecord
 100
AcDbBlockTableRecord
   2
*D29
   0
BLOCK_RECORD
   5
63
 100
AcDbSymbolTableRecord
 100
AcDbBlockTableRecord
   2
*D30
   0
BLOCK_RECORD
   5
64
 100
AcDbSymbolTableRecord
 100
AcDbBlockTableRecord
   2
*D31
   0
BLOCK_RECORD
   5
65
 100
AcDbSymbolTableRecord
 100
AcDbBlockTableRecord
   2
*D32
   0
BLOCK_RECORD
   5
66
 100
AcDbSymbolTableRecord
 100
AcDbBlockTableRecord
   2
*D33
   0
BLOCK_RECORD
   5
67
 100
AcDbSymbolTableRecord
 100
AcDbBlockTableRecord
   2
*D34
   0
BLOCK_RECORD
   5
68
 100
AcDbSymbolTableRecord
 100
AcDbBlockTableRecord
   2
_ARCHTICK
   0
BLOCK_RECORD
   5
69
 100
AcDbSymbolTableRecord
 100
AcDbBlockTableRecord
   2
_BOXBLANK
   0
BLOCK_RECORD
   5
6A
 100
AcDbSymbolTableRecord
 100
AcDbBlockTableRecord
   2
_BOXFILLED
   0
BLOCK_RECORD
   5
6B
 100
AcDbSymbolTableRecord
 100
AcDbBlockTableRecord
   2
_CLOSED
   0
BLOCK_RECORD
   5
6C
 100
AcDbSymbolTableRecord
 100
AcDbBlockTableRecord
   2
_CLOSEDBLANK
   0
BLOCK_RECORD
   5
6D
 100
AcDbSymbolTableRecord
 100
AcDbBlockTableRecord
   2
_DATUMBLANK
   0
BLOCK_RECORD
   5
6E
 100
AcDbSymbolTableRecord
 100
AcDbBlockTableRecord
   2
_DATUMFILLED
   0
BLOCK_RECORD
   5
6F
 100
AcDbSymbolTableRecord
 100
AcDbBlockTableRecord
   2
_DOT
   0
BLOCK_RECORD
   5
70
 100
AcDbSymbolTableRecord
 100
AcDbBlockTableRecord
   2
_DOTBLANK
   0
BLOCK_RECORD
   5
71
 100
AcDbSymbolTableRecord
 100
AcDbBlockTableRecord
   2
_DOTSMALL
   0
BLOCK_RECORD
   5
72
 100
AcDbSymbolTableRecord
 100
AcDbBlockTableRecord
   2
_INTEGRAL
   0
BLOCK_RECORD
   5
73
 100
AcDbSymbolTableRecord
 100
AcDbBlockTableRecord
   2
_NONE
   0
BLOCK_RECORD
   5
74
 100
AcDbSymbolTableRecord
 100
AcDbBlockTableRecord
   2
_OBLIQUE
   0
BLOCK_RECORD
   5
75
 100
AcDbSymbolTableRecord
 100
AcDbBlockTableRecord
   2
_OPEN
   0
BLOCK_RECORD
   5
76
 100
AcDbSymbolTableRecord
 100
AcDbBlockTableRecord
   2
_OPEN30
   0
BLOCK_RECORD
   5
77
 100
AcDbSymbolTableRecord
 100
AcDbBlockTableRecord
   2
_OPEN90
   0
BLOCK_RECORD
   5
78
 100
AcDbSymbolTableRecord
 100
AcDbBlockTableRecord
   2
_ORIGIN
   0
ENDTAB
   0
ENDSEC
  0
SECTION
  2
BLOCKS
  0
BLOCK
  5
19
100
AcDbEntity
  8
0
100
AcDbBlockBegin
  2
*MODEL_SPACE
 70
     0
 10
0.0
 20
0.0
 30
0.0
  3
*MODEL_SPACE
  1

  0
ENDBLK
  5
1A
100
AcDbEntity
  8
0
100
AcDbBlockEnd
  0
BLOCK
  5
16
100
AcDbEntity
 67
     1
  8
0
100
AcDbBlockBegin
  2
*PAPER_SPACE
 70
     0
 10
0.0
 20
0.0
 30
0.0
  3
*PAPER_SPACE
  1

  0
ENDBLK
  5
17
100
AcDbEntity
 67
     1
  8
0
100
AcDbBlockEnd
   0
BLOCK
   5
79
 100
AcDbEntity
   8
0
 100
AcDbBlockBegin
   2
_ARCHTICK
  70
0
  10
0.0
  20
0.0
  30
0.0
   3
_ARCHTICK
   0
POLYLINE
   5
7A
 100
AcDbEntity
   8
0
   6
BYBLOCK
  62
0
 100
AcDb2dPolyline
  66
1
  10
0.0
  20
0.0
  30
0.0
  70
1
  40
 0.15000000000000
  41
 0.15000000000000
   0
VERTEX
   5
7B
 100
AcDbEntity
   8
0
   6
BYBLOCK
  62
0
 100
AcDbVertex
 100
AcDb2dVertex
  10
-0.50000000000000
  20
-0.50000000000000
  30
0.0
  40
 0.15000000000000
  41
 0.15000000000000
   0
VERTEX
   5
7C
 100
AcDbEntity
   8
0
   6
BYBLOCK
  62
0
 100
AcDbVertex
 100
AcDb2dVertex
  10
 0.50000000000000
  20
 0.50000000000000
  30
0.0
  40
 0.15000000000000
  41
 0.15000000000000
   0
SEQEND
   5
7D
 100
AcDbEntity
   8
0
   6
BYBLOCK
  62
0
   0
ENDBLK
   5
7E
 100
AcDbEntity
   8
0
 100
AcDbBlockEnd
   0
BLOCK
   5
7F
 100
AcDbEntity
   8
0
 100
AcDbBlockBegin
   2
_OBLIQUE
  70
0
  10
0.0
  20
0.0
  30
0.0
   3
_OBLIQUE
   0
LINE
   5
80
 100
AcDbEntity
   8
0
 100
AcDbLine
   6
BYBLOCK
  62
0
  10
-0.50000000000000
  20
-0.50000000000000
  30
0.0
  11
 0.50000000000000
  21
 0.50000000000000
  31
0.0
   0
ENDBLK
   5
81
 100
AcDbEntity
   8
0
 100
AcDbBlockEnd
   0
BLOCK
   5
82
 100
AcDbEntity
   8
0
 100
AcDbBlockBegin
   2
_BOXBLANK
  70
0
  10
0.0
  20
0.0
  30
0.0
   3
_BOXBLANK
   0
LINE
   5
83
 100
AcDbEntity
   8
0
 100
AcDbLine
   6
BYBLOCK
  62
0
  10
-0.50000000000000
  20
-0.50000000000000
  30
0.0
  11
 0.50000000000000
  21
-0.50000000000000
  31
0.0
   0
LINE
   5
84
 100
AcDbEntity
   8
0
 100
AcDbLine
   6
BYBLOCK
  62
0
  10
 0.50000000000000
  20
-0.50000000000000
  30
0.0
  11
 0.50000000000000
  21
 0.50000000000000
  31
0.0
   0
LINE
   5
85
 100
AcDbEntity
   8
0
 100
AcDbLine
   6
BYBLOCK
  62
0
  10
 0.50000000000000
  20
 0.50000000000000
  30
0.0
  11
-0.50000000000000
  21
 0.50000000000000
  31
0.0
   0
LINE
   5
86
 100
AcDbEntity
   8
0
 100
AcDbLine
   6
BYBLOCK
  62
0
  10
-0.50000000000000
  20
 0.50000000000000
  30
0.0
  11
-0.50000000000000
  21
-0.50000000000000
  31
0.0
   0
LINE
   5
87
 100
AcDbEntity
   8
0
 100
AcDbLine
   6
BYBLOCK
  62
0
  10
-0.50000000000000
  20
0.0
  30
0.0
  11
-1.0000000000000
  21
0.0
  31
0.0
   0
ENDBLK
   5
88
 100
AcDbEntity
   8
0
 100
AcDbBlockEnd
   0
BLOCK
   5
89
 100
AcDbEntity
   8
0
 100
AcDbBlockBegin
   2
_BOXFILLED
  70
0
  10
0.0
  20
0.0
  30
0.0
   3
_BOXFILLED
   0
SOLID
   5
8A
 100
AcDbEntity
   8
0
 100
AcDbTrace
   6
BYBLOCK
  62
0
  10
-0.50000000000000
  20
 0.50000000000000
  30
0.0
  11
 0.50000000000000
  21
 0.50000000000000
  31
0.0
  12
-0.50000000000000
  22
-0.50000000000000
  32
0.0
  13
 0.50000000000000
  23
-0.50000000000000
  33
0.0
   0
LINE
   5
8B
 100
AcDbEntity
   8
0
 100
AcDbLine
   6
BYBLOCK
  62
0
  10
-0.50000000000000
  20
0.0
  30
0.0
  11
-1.0000000000000
  21
0.0
  31
0.0
   0
ENDBLK
   5
8C
 100
AcDbEntity
   8
0
 100
AcDbBlockEnd
   0
BLOCK
   5
8D
 100
AcDbEntity
   8
0
 100
AcDbBlockBegin
   2
_CLOSED
  70
0
  10
0.0
  20
0.0
  30
0.0
   3
_CLOSED
   0
LINE
   5
8E
 100
AcDbEntity
   8
0
 100
AcDbLine
   6
BYBLOCK
  62
0
  10
-1.0000000000000
  20
 0.16666666666667
  30
0.0
  11
0.0
  21
0.0
  31
0.0
   0
LINE
   5
8F
 100
AcDbEntity
   8
0
 100
AcDbLine
   6
BYBLOCK
  62
0
  10
0.0
  20
0.0
  30
0.0
  11
-1.0000000000000
  21
-0.16666666666667
  31
0.0
   0
LINE
   5
90
 100
AcDbEntity
   8
0
 100
AcDbLine
   6
BYBLOCK
  62
0
  10
-1.0000000000000
  20
 0.16666666666667
  30
0.0
  11
-1.0000000000000
  21
-0.16666666666667
  31
0.0
   0
LINE
   5
91
 100
AcDbEntity
   8
0
 100
AcDbLine
   6
BYBLOCK
  62
0
  10
0.0
  20
0.0
  30
0.0
  11
-1.0000000000000
  21
0.0
  31
0.0
   0
ENDBLK
   5
92
 100
AcDbEntity
   8
0
 100
AcDbBlockEnd
   0
BLOCK
   5
93
 100
AcDbEntity
   8
0
 100
AcDbBlockBegin
   2
_OPEN
  70
0
  10
0.0
  20
0.0
  30
0.0
   3
_OPEN
   0
LINE
   5
94
 100
AcDbEntity
   8
0
 100
AcDbLine
   6
BYBLOCK
  62
0
  10
-1.0000000000000
  20
 0.16666666666667
  30
0.0
  11
0.0
  21
0.0
  31
0.0
   0
LINE
   5
95
 100
AcDbEntity
   8
0
 100
AcDbLine
   6
BYBLOCK
  62
0
  10
0.0
  20
0.0
  30
0.0
  11
-1.0000000000000
  21
-0.16666666666667
  31
0.0
   0
LINE
   5
96
 100
AcDbEntity
   8
0
 100
AcDbLine
   6
BYBLOCK
  62
0
  10
0.0
  20
0.0
  30
0.0
  11
-1.0000000000000
  21
0.0
  31
0.0
   0
ENDBLK
   5
97
 100
AcDbEntity
   8
0
 100
AcDbBlockEnd
   0
BLOCK
   5
98
 100
AcDbEntity
   8
0
 100
AcDbBlockBegin
   2
_OPEN30
  70
0
  10
0.0
  20
0.0
  30
0.0
   3
_OPEN30
   0
LINE
   5
99
 100
AcDbEntity
   8
0
 100
AcDbLine
   6
BYBLOCK
  62
0
  10
-1.0000000000000
  20
 0.26794919243110
  30
0.0
  11
0.0
  21
0.0
  31
0.0
   0
LINE
   5
9A
 100
AcDbEntity
   8
0
 100
AcDbLine
   6
BYBLOCK
  62
0
  10
0.0
  20
0.0
  30
0.0
  11
-1.0000000000000
  21
-0.26794919243110
  31
0.0
   0
LINE
   5
9B
 100
AcDbEntity
   8
0
 100
AcDbLine
   6
BYBLOCK
  62
0
  10
0.0
  20
0.0
  30
0.0
  11
-1.0000000000000
  21
0.0
  31
0.0
   0
ENDBLK
   5
9C
 100
AcDbEntity
   8
0
 100
AcDbBlockEnd
   0
BLOCK
   5
9D
 100
AcDbEntity
   8
0
 100
AcDbBlockBegin
   2
_OPEN90
  70
0
  10
0.0
  20
0.0
  30
0.0
   3
_OPEN90
   0
LINE
   5
9E
 100
AcDbEntity
   8
0
 100
AcDbLine
   6
BYBLOCK
  62
0
  10
-0.50000000000000
  20
 0.50000000000000
  30
0.0
  11
0.0
  21
0.0
  31
0.0
   0
LINE
   5
9F
 100
AcDbEntity
   8
0
 100
AcDbLine
   6
BYBLOCK
  62
0
  10
0.0
  20
0.0
  30
0.0
  11
-0.50000000000000
  21
-0.50000000000000
  31
0.0
   0
LINE
   5
A0
 100
AcDbEntity
   8
0
 100
AcDbLine
   6
BYBLOCK
  62
0
  10
0.0
  20
0.0
  30
0.0
  11
-1.0000000000000
  21
0.0
  31
0.0
   0
ENDBLK
   5
A1
 100
AcDbEntity
   8
0
 100
AcDbBlockEnd
   0
BLOCK
   5
A2
 100
AcDbEntity
   8
0
 100
AcDbBlockBegin
   2
_CLOSEDBLANK
  70
0
  10
0.0
  20
0.0
  30
0.0
   3
_CLOSEDBLANK
   0
LINE
   5
A3
 100
AcDbEntity
   8
0
 100
AcDbLine
   6
BYBLOCK
  62
0
  10
-1.0000000000000
  20
 0.16666666666667
  30
0.0
  11
0.0
  21
0.0
  31
0.0
   0
LINE
   5
A4
 100
AcDbEntity
   8
0
 100
AcDbLine
   6
BYBLOCK
  62
0
  10
0.0
  20
0.0
  30
0.0
  11
-1.0000000000000
  21
-0.16666666666667
  31
0.0
   0
LINE
   5
A5
 100
AcDbEntity
   8
0
 100
AcDbLine
   6
BYBLOCK
  62
0
  10
-1.0000000000000
  20
 0.16666666666667
  30
0.0
  11
-1.0000000000000
  21
-0.16666666666667
  31
0.0
   0
ENDBLK
   5
A6
 100
AcDbEntity
   8
0
 100
AcDbBlockEnd
   0
BLOCK
   5
A7
 100
AcDbEntity
   8
0
 100
AcDbBlockBegin
   2
_DOT
  70
0
  10
0.0
  20
0.0
  30
0.0
   3
_DOT
   0
POLYLINE
   5
A8
 100
AcDbEntity
   8
0
   6
BYBLOCK
  62
0
 100
AcDb2dPolyline
  66
1
  10
0.0
  20
0.0
  30
0.0
  70
1
  40
 0.50000000000000
  41
 0.50000000000000
   0
VERTEX
   5
A9
 100
AcDbEntity
   8
0
   6
BYBLOCK
  62
0
 100
AcDbVertex
 100
AcDb2dVertex
  10
-0.25000000000000
  20
0.0
  30
0.0
  42
 1.0000000000000
  40
 0.50000000000000
  41
 0.50000000000000
   0
VERTEX
   5
AA
 100
AcDbEntity
   8
0
   6
BYBLOCK
  62
0
 100
AcDbVertex
 100
AcDb2dVertex
  10
 0.25000000000000
  20
0.0
  30
0.0
  42
 1.0000000000000
  40
 0.50000000000000
  41
 0.50000000000000
   0
SEQEND
   5
AB
 100
AcDbEntity
   8
0
   6
BYBLOCK
  62
0
   0
LINE
   5
AC
 100
AcDbEntity
   8
0
 100
AcDbLine
   6
BYBLOCK
  62
0
  10
-0.50000000000000
  20
0.0
  30
0.0
  11
-1.0000000000000
  21
0.0
  31
0.0
   0
ENDBLK
   5
AD
 100
AcDbEntity
   8
0
 100
AcDbBlockEnd
   0
BLOCK
   5
AE
 100
AcDbEntity
   8
0
 100
AcDbBlockBegin
   2
_DOTSMALL
  70
0
  10
0.0
  20
0.0
  30
0.0
   3
_DOTSMALL
   0
POLYLINE
   5
AF
 100
AcDbEntity
   8
0
   6
BYBLOCK
  62
0
 100
AcDb2dPolyline
  66
1
  10
0.0
  20
0.0
  30
0.0
  70
1
  40
 0.50000000000000
  41
 0.50000000000000
   0
VERTEX
   5
B0
 100
AcDbEntity
   8
0
   6
BYBLOCK
  62
0
 100
AcDbVertex
 100
AcDb2dVertex
  10
-0.62500000000000E-1
  20
0.0
  30
0.0
  42
 1.0000000000000
  40
 0.50000000000000
  41
 0.50000000000000
   0
VERTEX
   5
B1
 100
AcDbEntity
   8
0
   6
BYBLOCK
  62
0
 100
AcDbVertex
 100
AcDb2dVertex
  10
 0.62500000000000E-1
  20
0.0
  30
0.0
  42
 1.0000000000000
  40
 0.50000000000000
  41
 0.50000000000000
   0
SEQEND
   5
B2
 100
AcDbEntity
   8
0
   6
BYBLOCK
  62
0
   0
ENDBLK
   5
B3
 100
AcDbEntity
   8
0
 100
AcDbBlockEnd
   0
BLOCK
   5
B4
 100
AcDbEntity
   8
0
 100
AcDbBlockBegin
   2
_DATUMBLANK
  70
0
  10
0.0
  20
0.0
  30
0.0
   3
_DATUMBLANK
   0
LINE
   5
B5
 100
AcDbEntity
   8
0
 100
AcDbLine
   6
BYBLOCK
  62
0
  10
0.0
  20
 0.57735027000000
  30
0.0
  11
-1.0000000000000
  21
0.0
  31
0.0
   0
LINE
   5
B6
 100
AcDbEntity
   8
0
 100
AcDbLine
   6
BYBLOCK
  62
0
  10
-1.0000000000000
  20
0.0
  30
0.0
  11
0.0
  21
-0.57735027000000
  31
0.0
   0
LINE
   5
B7
 100
AcDbEntity
   8
0
 100
AcDbLine
   6
BYBLOCK
  62
0
  10
0.0
  20
-0.57735027000000
  30
0.0
  11
0.0
  21
 0.57735027000000
  31
0.0
   0
ENDBLK
   5
B8
 100
AcDbEntity
   8
0
 100
AcDbBlockEnd
   0
BLOCK
   5
B9
 100
AcDbEntity
   8
0
 100
AcDbBlockBegin
   2
_DATUMFILLED
  70
0
  10
0.0
  20
0.0
  30
0.0
   3
_DATUMFILLED
   0
SOLID
   5
BA
 100
AcDbEntity
   8
0
 100
AcDbTrace
   6
BYBLOCK
  62
0
  10
0.0
  20
 0.57735027000000
  30
0.0
  11
-1.0000000000000
  21
0.0
  31
0.0
  12
0.0
  22
-0.57735027000000
  32
0.0
  13
0.0
  23
-0.57735027000000
  33
0.0
   0
ENDBLK
   5
BB
 100
AcDbEntity
   8
0
 100
AcDbBlockEnd
   0
BLOCK
   5
BC
 100
AcDbEntity
   8
0
 100
AcDbBlockBegin
   2
_ORIGIN
  70
0
  10
0.0
  20
0.0
  30
0.0
   3
_ORIGIN
   0
CIRCLE
   5
BD
 100
AcDbEntity
   8
0
 100
AcDbCircle
   6
BYBLOCK
  62
0
  10
0.0
  20
0.0
  30
0.0
  40
 0.50000000000000
   0
LINE
   5
BE
 100
AcDbEntity
   8
0
 100
AcDbLine
   6
BYBLOCK
  62
0
  10
0.0
  20
0.0
  30
0.0
  11
-1.0000000000000
  21
0.0
  31
0.0
   0
ENDBLK
   5
BF
 100
AcDbEntity
   8
0
 100
AcDbBlockEnd
   0
BLOCK
   5
C0
 100
AcDbEntity
   8
0
 100
AcDbBlockBegin
   2
_NONE
  70
0
  10
0.0
  20
0.0
  30
0.0
   3
_NONE
   0
CIRCLE
   5
C1
 100
AcDbEntity
   8
0
 100
AcDbCircle
   6
BYBLOCK
  62
0
  10
0.0
  20
0.0
  30
0.0
  40
 0.25000000000000
   0
ENDBLK
   5
C2
 100
AcDbEntity
   8
0
 100
AcDbBlockEnd
   0
BLOCK
   5
C3
 100
AcDbEntity
   8
0
 100
AcDbBlockBegin
   2
_DOTBLANK
  70
0
  10
0.0
  20
0.0
  30
0.0
   3
_DOTBLANK
   0
CIRCLE
   5
C4
 100
AcDbEntity
   8
0
 100
AcDbCircle
   6
BYBLOCK
  62
0
  10
0.0
  20
0.0
  30
0.0
  40
 0.50000000000000
   0
LINE
   5
C5
 100
AcDbEntity
   8
0
 100
AcDbLine
   6
BYBLOCK
  62
0
  10
-0.50000000000000
  20
0.0
  30
0.0
  11
-1.0000000000000
  21
0.0
  31
0.0
   0
ENDBLK
   5
C6
 100
AcDbEntity
   8
0
 100
AcDbBlockEnd
   0
BLOCK
   5
C7
 100
AcDbEntity
   8
0
 100
AcDbBlockBegin
   2
_INTEGRAL
  70
0
  10
0.0
  20
0.0
  30
0.0
   3
_INTEGRAL
   0
ARC
   5
C8
 100
AcDbEntity
   8
0
   6
BYBLOCK
  62
0
 100
AcDbCircle
  10
 0.44488800000000
  20
-0.91335000000000E-1
  30
0.0
  40
 0.45416700000000
 100
AcDbArc
  50
 102.00000000000
  51
 168.00000000000
   0
ARC
   5
C9
 100
AcDbEntity
   8
0
   6
BYBLOCK
  62
0
 100
AcDbCircle
  10
-0.44488800000000
  20
 0.91335000000000E-1
  30
0.0
  40
 0.45416700000000
 100
AcDbArc
  50
 282.00000000000
  51
 348.00000000000
   0
ENDBLK
   5
CA
 100
AcDbEntity
   8
0
 100
AcDbBlockEnd
   0
BLOCK
   5
CB
 100
AcDbEntity
   8
0
 100
AcDbBlockBegin
   2
*D1
  70
65
  10
0.0
  20
0.0
  30
0.0
   3
*D1
   0
LINE
   5
CC
 100
AcDbEntity
   8
LEVEL001
 100
AcDbLine
   6
CONTINUOUS
  62
3
  10
 43.747666553884
  20
 149.33019130642
  30
0.0
  11
 34.899716585555
  21
 149.33019130642
  31
0.0
   0
LINE
   5
CD
 100
AcDbEntity
   8
LEVEL001
 100
AcDbLine
   6
CONTINUOUS
  62
3
  10
 43.747666553884
  20
 137.33019130642
  30
0.0
  11
 34.899716585555
  21
 137.33019130642
  31
0.0
   0
LINE
   5
CE
 100
AcDbEntity
   8
LEVEL001
 100
AcDbLine
   6
CONTINUOUS
  62
3
  10
 35.899716585555
  20
 149.33019130642
  30
0.0
  11
 35.899716585555
  21
 143.33019130642
  31
0.0
   0
LINE
   5
CF
 100
AcDbEntity
   8
LEVEL001
 100
AcDbLine
   6
CONTINUOUS
  62
3
  10
 35.899716585555
  20
 137.33019130642
  30
0.0
  11
 35.899716585555
  21
 143.33019130642
  31
0.0
   0
INSERT
   5
D0
 100
AcDbEntity
   8
LEVEL001
   6
CONTINUOUS
  62
3
 100
AcDbBlockReference
   2
_OPEN30
  10
 35.899716585555
  20
 149.33019130642
  30
0.0
  41
 3.0000000000000
  42
 3.0000000000000
  43
 3.0000000000000
  50
 90.000000000000
   0
INSERT
   5
D1
 100
AcDbEntity
   8
LEVEL001
   6
CONTINUOUS
  62
3
 100
AcDbBlockReference
   2
_OPEN30
  10
 35.899716585555
  20
 137.33019130642
  30
0.0
  41
 3.0000000000000
  42
 3.0000000000000
  43
 3.0000000000000
  50
 270.00000000000
   0
MTEXT
   5
D2
 100
AcDbEntity
   8
LEVEL001
  62
3
 100
AcDbMText
  10
 34.399716585555
  20
 143.33019130642
  30
0.0
  40
 3.5000000000000
  41
0.0
  71
8
  72
1
   1
\A1;12
   7
GMM001
  11
0.0
  21
 1.0000000000000
  31
0.0
   0
ENDBLK
   5
D3
 100
AcDbEntity
   8
0
 100
AcDbBlockEnd
   0
BLOCK
   5
D4
 100
AcDbEntity
   8
0
 100
AcDbBlockBegin
   2
*D2
  70
65
  10
0.0
  20
0.0
  30
0.0
   3
*D2
   0
LINE
   5
D5
 100
AcDbEntity
   8
LEVEL001
 100
AcDbLine
   6
CONTINUOUS
  62
3
  10
 43.747666553884
  20
 128.33019130642
  30
0.0
  11
 34.899716585555
  21
 128.33019130642
  31
0.0
   0
LINE
   5
D6
 100
AcDbEntity
   8
LEVEL001
 100
AcDbLine
   6
CONTINUOUS
  62
3
  10
 43.747666553884
  20
 116.33019130642
  30
0.0
  11
 34.899716585555
  21
 116.33019130642
  31
0.0
   0
LINE
   5
D7
 100
AcDbEntity
   8
LEVEL001
 100
AcDbLine
   6
CONTINUOUS
  62
3
  10
 35.899716585555
  20
 128.33019130642
  30
0.0
  11
 35.899716585555
  21
 122.33019130642
  31
0.0
   0
LINE
   5
D8
 100
AcDbEntity
   8
LEVEL001
 100
AcDbLine
   6
CONTINUOUS
  62
3
  10
 35.899716585555
  20
 116.33019130642
  30
0.0
  11
 35.899716585555
  21
 122.33019130642
  31
0.0
   0
INSERT
   5
D9
 100
AcDbEntity
   8
LEVEL001
   6
CONTINUOUS
  62
3
 100
AcDbBlockReference
   2
_OPEN30
  10
 35.899716585555
  20
 128.33019130642
  30
0.0
  41
 3.0000000000000
  42
 3.0000000000000
  43
 3.0000000000000
  50
 90.000000000000
   0
INSERT
   5
DA
 100
AcDbEntity
   8
LEVEL001
   6
CONTINUOUS
  62
3
 100
AcDbBlockReference
   2
_OPEN30
  10
 35.899716585555
  20
 116.33019130642
  30
0.0
  41
 3.0000000000000
  42
 3.0000000000000
  43
 3.0000000000000
  50
 270.00000000000
   0
MTEXT
   5
DB
 100
AcDbEntity
   8
LEVEL001
  62
3
 100
AcDbMText
  10
 34.399716585555
  20
 122.33019130642
  30
0.0
  40
 3.5000000000000
  41
0.0
  71
8
  72
1
   1
\A1;12
   7
GMM001
  11
0.0
  21
 1.0000000000000
  31
0.0
   0
ENDBLK
   5
DC
 100
AcDbEntity
   8
0
 100
AcDbBlockEnd
   0
BLOCK
   5
DD
 100
AcDbEntity
   8
0
 100
AcDbBlockBegin
   2
*D3
  70
65
  10
0.0
  20
0.0
  30
0.0
   3
*D3
   0
LINE
   5
DE
 100
AcDbEntity
   8
LEVEL001
 100
AcDbLine
   6
CONTINUOUS
  62
3
  10
 84.193626994604
  20
 143.33019130642
  30
0.0
  11
 90.960994218047
  21
 143.33019130642
  31
0.0
   0
LINE
   5
DF
 100
AcDbEntity
   8
LEVEL001
 100
AcDbLine
   6
CONTINUOUS
  62
3
  10
 84.193626994604
  20
 122.33019130642
  30
0.0
  11
 90.960994218047
  21
 122.33019130642
  31
0.0
   0
LINE
   5
E0
 100
AcDbEntity
   8
LEVEL001
 100
AcDbLine
   6
CONTINUOUS
  62
3
  10
 89.960994218047
  20
 143.33019130642
  30
0.0
  11
 89.960994218047
  21
 132.83019130642
  31
0.0
   0
LINE
   5
E1
 100
AcDbEntity
   8
LEVEL001
 100
AcDbLine
   6
CONTINUOUS
  62
3
  10
 89.960994218047
  20
 122.33019130642
  30
0.0
  11
 89.960994218047
  21
 132.83019130642
  31
0.0
   0
INSERT
   5
E2
 100
AcDbEntity
   8
LEVEL001
   6
CONTINUOUS
  62
3
 100
AcDbBlockReference
   2
_OPEN30
  10
 89.960994218047
  20
 143.33019130642
  30
0.0
  41
 3.0000000000000
  42
 3.0000000000000
  43
 3.0000000000000
  50
 90.000000000000
   0
INSERT
   5
E3
 100
AcDbEntity
   8
LEVEL001
   6
CONTINUOUS
  62
3
 100
AcDbBlockReference
   2
_OPEN30
  10
 89.960994218047
  20
 122.33019130642
  30
0.0
  41
 3.0000000000000
  42
 3.0000000000000
  43
 3.0000000000000
  50
 270.00000000000
   0
MTEXT
   5
E4
 100
AcDbEntity
   8
LEVEL001
  62
3
 100
AcDbMText
  10
 88.460994218047
  20
 132.83019130642
  30
0.0
  40
 3.5000000000000
  41
0.0
  71
8
  72
1
   1
\A1;21
   7
GMM001
  11
0.0
  21
 1.0000000000000
  31
0.0
   0
ENDBLK
   5
E5
 100
AcDbEntity
   8
0
 100
AcDbBlockEnd
   0
BLOCK
   5
E6
 100
AcDbEntity
   8
0
 100
AcDbBlockBegin
   2
*D4
  70
65
  10
0.0
  20
0.0
  30
0.0
   3
*D4
   0
LINE
   5
E7
 100
AcDbEntity
   8
LEVEL001
 100
AcDbLine
   6
CONTINUOUS
  62
3
  10
 80.747666553884
  20
 149.33019130642
  30
0.0
  11
 97.502587138403
  21
 149.33019130642
  31
0.0
   0
LINE
   5
E8
 100
AcDbEntity
   8
LEVEL001
 100
AcDbLine
   6
CONTINUOUS
  62
3
  10
 80.747666553884
  20
 116.33019130642
  30
0.0
  11
 97.502587138403
  21
 116.33019130642
  31
0.0
   0
LINE
   5
E9
 100
AcDbEntity
   8
LEVEL001
 100
AcDbLine
   6
CONTINUOUS
  62
3
  10
 96.502587138403
  20
 149.33019130642
  30
0.0
  11
 96.502587138403
  21
 132.83019130642
  31
0.0
   0
LINE
   5
EA
 100
AcDbEntity
   8
LEVEL001
 100
AcDbLine
   6
CONTINUOUS
  62
3
  10
 96.502587138403
  20
 116.33019130642
  30
0.0
  11
 96.502587138403
  21
 132.83019130642
  31
0.0
   0
INSERT
   5
EB
 100
AcDbEntity
   8
LEVEL001
   6
CONTINUOUS
  62
3
 100
AcDbBlockReference
   2
_OPEN30
  10
 96.502587138403
  20
 149.33019130642
  30
0.0
  41
 3.0000000000000
  42
 3.0000000000000
  43
 3.0000000000000
  50
 90.000000000000
   0
INSERT
   5
EC
 100
AcDbEntity
   8
LEVEL001
   6
CONTINUOUS
  62
3
 100
AcDbBlockReference
   2
_OPEN30
  10
 96.502587138403
  20
 116.33019130642
  30
0.0
  41
 3.0000000000000
  42
 3.0000000000000
  43
 3.0000000000000
  50
 270.00000000000
   0
MTEXT
   5
ED
 100
AcDbEntity
   8
LEVEL001
  62
3
 100
AcDbMText
  10
 95.002587138403
  20
 132.83019130642
  30
0.0
  40
 3.5000000000000
  41
0.0
  71
8
  72
1
   1
\A1;33
   7
GMM001
  11
0.0
  21
 1.0000000000000
  31
0.0
   0
ENDBLK
   5
EE
 100
AcDbEntity
   8
0
 100
AcDbBlockEnd
   0
BLOCK
   5
EF
 100
AcDbEntity
   8
0
 100
AcDbBlockBegin
   2
*D5
  70
65
  10
0.0
  20
0.0
  30
0.0
   3
*D5
   0
LINE
   5
F0
 100
AcDbEntity
   8
LEVEL001
 100
AcDbLine
   6
CONTINUOUS
  62
3
  10
 50.247666553884
  20
 117.92245334652
  30
0.0
  11
 50.247666553884
  21
 105.12395957380
  31
0.0
   0
LINE
   5
F1
 100
AcDbEntity
   8
LEVEL001
 100
AcDbLine
   6
CONTINUOUS
  62
3
  10
 74.247666553884
  20
 117.92245334652
  30
0.0
  11
 74.247666553884
  21
 105.12395957380
  31
0.0
   0
LINE
   5
F2
 100
AcDbEntity
   8
LEVEL001
 100
AcDbLine
   6
CONTINUOUS
  62
3
  10
 50.247666553884
  20
 106.12395957380
  30
0.0
  11
 62.247666553884
  21
 106.12395957380
  31
0.0
   0
LINE
   5
F3
 100
AcDbEntity
   8
LEVEL001
 100
AcDbLine
   6
CONTINUOUS
  62
3
  10
 74.247666553884
  20
 106.12395957380
  30
0.0
  11
 62.247666553884
  21
 106.12395957380
  31
0.0
   0
INSERT
   5
F4
 100
AcDbEntity
   8
LEVEL001
   6
CONTINUOUS
  62
3
 100
AcDbBlockReference
   2
_OPEN30
  10
 50.247666553884
  20
 106.12395957380
  30
0.0
  41
 3.0000000000000
  42
 3.0000000000000
  43
 3.0000000000000
  50
 180.00000000000
   0
INSERT
   5
F5
 100
AcDbEntity
   8
LEVEL001
   6
CONTINUOUS
  62
3
 100
AcDbBlockReference
   2
_OPEN30
  10
 74.247666553884
  20
 106.12395957380
  30
0.0
  41
 3.0000000000000
  42
 3.0000000000000
  43
 3.0000000000000
  50
0.0
   0
MTEXT
   5
F6
 100
AcDbEntity
   8
LEVEL001
  62
3
 100
AcDbMText
  10
 62.247666553884
  20
 107.62395957380
  30
0.0
  40
 3.5000000000000
  41
0.0
  71
8
  72
1
   1
\A1;24
   7
GMM001
   0
ENDBLK
   5
F7
 100
AcDbEntity
   8
0
 100
AcDbBlockEnd
   0
BLOCK
   5
F8
 100
AcDbEntity
   8
0
 100
AcDbBlockBegin
   2
*D6
  70
65
  10
0.0
  20
0.0
  30
0.0
   3
*D6
   0
LINE
   5
F9
 100
AcDbEntity
   8
LEVEL001
 100
AcDbLine
   6
CONTINUOUS
  62
3
  10
 44.247666553884
  20
 115.83019130642
  30
0.0
  11
 44.247666553884
  21
 105.12395957380
  31
0.0
   0
LINE
   5
FA
 100
AcDbEntity
   8
LEVEL001
 100
AcDbLine
   6
CONTINUOUS
  62
3
  10
 44.247666553884
  20
 106.12395957380
  30
0.0
  11
 47.247666553884
  21
 106.12395957380
  31
0.0
   0
LINE
   5
FB
 100
AcDbEntity
   8
LEVEL001
 100
AcDbLine
   6
CONTINUOUS
  62
3
  10
 50.247666553884
  20
 106.12395957380
  30
0.0
  11
 47.247666553884
  21
 106.12395957380
  31
0.0
   0
INSERT
   5
FC
 100
AcDbEntity
   8
LEVEL001
   6
CONTINUOUS
  62
3
 100
AcDbBlockReference
   2
_OPEN30
  10
 44.247666553884
  20
 106.12395957380
  30
0.0
  41
 3.0000000000000
  42
 3.0000000000000
  43
 3.0000000000000
  50
 180.00000000000
   0
INSERT
   5
FD
 100
AcDbEntity
   8
LEVEL001
   6
CONTINUOUS
  62
3
 100
AcDbBlockReference
   2
_OPEN30
  10
 50.247666553884
  20
 106.12395957380
  30
0.0
  41
 3.0000000000000
  42
 3.0000000000000
  43
 3.0000000000000
  50
0.0
   0
MTEXT
   5
FE
 100
AcDbEntity
   8
LEVEL001
  62
3
 100
AcDbMText
  10
 47.247666553884
  20
 107.62395957380
  30
0.0
  40
 3.5000000000000
  41
0.0
  71
8
  72
1
   1
\A1;6
   7
GMM001
   0
ENDBLK
   5
FF
 100
AcDbEntity
   8
0
 100
AcDbBlockEnd
   0
BLOCK
   5
100
 100
AcDbEntity
   8
0
 100
AcDbBlockBegin
   2
*D7
  70
65
  10
0.0
  20
0.0
  30
0.0
   3
*D7
   0
LINE
   5
101
 100
AcDbEntity
   8
LEVEL001
 100
AcDbLine
   6
CONTINUOUS
  62
3
  10
 80.247666553884
  20
 115.83019130642
  30
0.0
  11
 80.247666553884
  21
 105.12395957380
  31
0.0
   0
LINE
   5
102
 100
AcDbEntity
   8
LEVEL001
 100
AcDbLine
   6
CONTINUOUS
  62
3
  10
 80.247666553884
  20
 106.12395957380
  30
0.0
  11
 77.247666553884
  21
 106.12395957380
  31
0.0
   0
LINE
   5
103
 100
AcDbEntity
   8
LEVEL001
 100
AcDbLine
   6
CONTINUOUS
  62
3
  10
 74.247666553884
  20
 106.12395957380
  30
0.0
  11
 77.247666553884
  21
 106.12395957380
  31
0.0
   0
INSERT
   5
104
 100
AcDbEntity
   8
LEVEL001
   6
CONTINUOUS
  62
3
 100
AcDbBlockReference
   2
_OPEN30
  10
 80.247666553884
  20
 106.12395957380
  30
0.0
  41
 3.0000000000000
  42
 3.0000000000000
  43
 3.0000000000000
  50
0.0
   0
INSERT
   5
105
 100
AcDbEntity
   8
LEVEL001
   6
CONTINUOUS
  62
3
 100
AcDbBlockReference
   2
_OPEN30
  10
 74.247666553884
  20
 106.12395957380
  30
0.0
  41
 3.0000000000000
  42
 3.0000000000000
  43
 3.0000000000000
  50
 180.00000000000
   0
MTEXT
   5
106
 100
AcDbEntity
   8
LEVEL001
  62
3
 100
AcDbMText
  10
 77.247666553884
  20
 107.62395957380
  30
0.0
  40
 3.5000000000000
  41
0.0
  71
8
  72
1
   1
\A1;6
   7
GMM001
   0
ENDBLK
   5
107
 100
AcDbEntity
   8
0
 100
AcDbBlockEnd
   0
BLOCK
   5
108
 100
AcDbEntity
   8
0
 100
AcDbBlockBegin
   2
*D8
  70
65
  10
0.0
  20
0.0
  30
0.0
   3
*D8
   0
LINE
   5
109
 100
AcDbEntity
   8
LEVEL001
 100
AcDbLine
   6
CONTINUOUS
  62
3
  10
 44.247666553884
  20
 88.983534519628
  30
0.0
  11
 44.247666553884
  21
 99.732853604951
  31
0.0
   0
LINE
   5
10A
 100
AcDbEntity
   8
LEVEL001
 100
AcDbLine
   6
CONTINUOUS
  62
3
  10
 80.247666553884
  20
 88.983534519628
  30
0.0
  11
 80.247666553884
  21
 99.732853604951
  31
0.0
   0
LINE
   5
10B
 100
AcDbEntity
   8
LEVEL001
 100
AcDbLine
   6
CONTINUOUS
  62
3
  10
 44.247666553884
  20
 98.732853604951
  30
0.0
  11
 62.247666553884
  21
 98.732853604951
  31
0.0
   0
LINE
   5
10C
 100
AcDbEntity
   8
LEVEL001
 100
AcDbLine
   6
CONTINUOUS
  62
3
  10
 80.247666553884
  20
 98.732853604951
  30
0.0
  11
 62.247666553884
  21
 98.732853604951
  31
0.0
   0
INSERT
   5
10D
 100
AcDbEntity
   8
LEVEL001
   6
CONTINUOUS
  62
3
 100
AcDbBlockReference
   2
_OPEN30
  10
 44.247666553884
  20
 98.732853604951
  30
0.0
  41
 3.0000000000000
  42
 3.0000000000000
  43
 3.0000000000000
  50
 180.00000000000
   0
INSERT
   5
10E
 100
AcDbEntity
   8
LEVEL001
   6
CONTINUOUS
  62
3
 100
AcDbBlockReference
   2
_OPEN30
  10
 80.247666553884
  20
 98.732853604951
  30
0.0
  41
 3.0000000000000
  42
 3.0000000000000
  43
 3.0000000000000
  50
0.0
   0
MTEXT
   5
10F
 100
AcDbEntity
   8
LEVEL001
  62
3
 100
AcDbMText
  10
 62.247666553884
  20
 100.23285360495
  30
0.0
  40
 3.5000000000000
  41
0.0
  71
8
  72
1
   1
\A1;36
   7
GMM001
   0
ENDBLK
   5
110
 100
AcDbEntity
   8
0
 100
AcDbBlockEnd
   0
BLOCK
   5
111
 100
AcDbEntity
   8
0
 100
AcDbBlockBegin
   2
*D9
  70
65
  10
0.0
  20
0.0
  30
0.0
   3
*D9
   0
LINE
   5
112
 100
AcDbEntity
   8
LEVEL001
 100
AcDbLine
   6
CONTINUOUS
  62
3
  10
 68.747666553884
  20
 75.483534519628
  30
0.0
  11
 90.960994218047
  21
 75.483534519628
  31
0.0
   0
LINE
   5
113
 100
AcDbEntity
   8
LEVEL001
 100
AcDbLine
   6
CONTINUOUS
  62
3
  10
 89.960994218047
  20
 75.483534519628
  30
0.0
  11
 89.960994218047
  21
 81.483534519628
  31
0.0
   0
LINE
   5
114
 100
AcDbEntity
   8
LEVEL001
 100
AcDbLine
   6
CONTINUOUS
  62
3
  10
 89.960994218047
  20
 87.483534519628
  30
0.0
  11
 89.960994218047
  21
 81.483534519628
  31
0.0
   0
INSERT
   5
115
 100
AcDbEntity
   8
LEVEL001
   6
CONTINUOUS
  62
3
 100
AcDbBlockReference
   2
_OPEN30
  10
 89.960994218047
  20
 75.483534519628
  30
0.0
  41
 3.0000000000000
  42
 3.0000000000000
  43
 3.0000000000000
  50
 270.00000000000
   0
INSERT
   5
116
 100
AcDbEntity
   8
LEVEL001
   6
CONTINUOUS
  62
3
 100
AcDbBlockReference
   2
_OPEN30
  10
 89.960994218047
  20
 87.483534519628
  30
0.0
  41
 3.0000000000000
  42
 3.0000000000000
  43
 3.0000000000000
  50
 90.000000000000
   0
MTEXT
   5
117
 100
AcDbEntity
   8
LEVEL001
  62
3
 100
AcDbMText
  10
 88.460994218047
  20
 81.483534519628
  30
0.0
  40
 3.5000000000000
  41
0.0
  71
8
  72
1
   1
\A1;12
   7
GMM001
  11
0.0
  21
 1.0000000000000
  31
0.0
   0
ENDBLK
   5
118
 100
AcDbEntity
   8
0
 100
AcDbBlockEnd
   0
BLOCK
   5
119
 100
AcDbEntity
   8
0
 100
AcDbBlockBegin
   2
*D10
  70
65
  10
0.0
  20
0.0
  30
0.0
   3
*D10
   0
LINE
   5
11A
 100
AcDbEntity
   8
LEVEL001
 100
AcDbLine
   6
CONTINUOUS
  62
3
  10
 91.460994218047
  20
 88.483534519628
  30
0.0
  11
 97.502587138403
  21
 88.483534519628
  31
0.0
   0
LINE
   5
11B
 100
AcDbEntity
   8
LEVEL001
 100
AcDbLine
   6
CONTINUOUS
  62
3
  10
 91.460994218047
  20
 75.483534519628
  30
0.0
  11
 97.502587138403
  21
 75.483534519628
  31
0.0
   0
LINE
   5
11C
 100
AcDbEntity
   8
LEVEL001
 100
AcDbLine
   6
CONTINUOUS
  62
3
  10
 96.502587138403
  20
 88.483534519628
  30
0.0
  11
 96.502587138403
  21
 81.983534519628
  31
0.0
   0
LINE
   5
11D
 100
AcDbEntity
   8
LEVEL001
 100
AcDbLine
   6
CONTINUOUS
  62
3
  10
 96.502587138403
  20
 75.483534519628
  30
0.0
  11
 96.502587138403
  21
 81.983534519628
  31
0.0
   0
INSERT
   5
11E
 100
AcDbEntity
   8
LEVEL001
   6
CONTINUOUS
  62
3
 100
AcDbBlockReference
   2
_OPEN30
  10
 96.502587138403
  20
 88.483534519628
  30
0.0
  41
 3.0000000000000
  42
 3.0000000000000
  43
 3.0000000000000
  50
 90.000000000000
   0
INSERT
   5
11F
 100
AcDbEntity
   8
LEVEL001
   6
CONTINUOUS
  62
3
 100
AcDbBlockReference
   2
_OPEN30
  10
 96.502587138403
  20
 75.483534519628
  30
0.0
  41
 3.0000000000000
  42
 3.0000000000000
  43
 3.0000000000000
  50
 270.00000000000
   0
MTEXT
   5
120
 100
AcDbEntity
   8
LEVEL001
  62
3
 100
AcDbMText
  10
 95.002587138403
  20
 81.983534519628
  30
0.0
  40
 3.5000000000000
  41
0.0
  71
8
  72
1
   1
\A1;13
   7
GMM001
  11
0.0
  21
 1.0000000000000
  31
0.0
   0
ENDBLK
   5
121
 100
AcDbEntity
   8
0
 100
AcDbBlockEnd
   0
BLOCK
   5
122
 100
AcDbEntity
   8
0
 100
AcDbBlockBegin
   2
*D11
  70
65
  10
0.0
  20
0.0
  30
0.0
   3
*D11
   0
LINE
   5
123
 100
AcDbEntity
   8
LEVEL001
 100
AcDbLine
   6
CONTINUOUS
  62
3
  10
 80.747666553884
  20
 88.483534519628
  30
0.0
  11
 90.960994218047
  21
 88.483534519628
  31
0.0
   0
LINE
   5
124
 100
AcDbEntity
   8
LEVEL001
 100
AcDbLine
   6
CONTINUOUS
  62
3
  10
 80.747666553884
  20
 87.483534519628
  30
0.0
  11
 90.960994218047
  21
 87.483534519628
  31
0.0
   0
LINE
   5
125
 100
AcDbEntity
   8
LEVEL001
 100
AcDbLine
   6
CONTINUOUS
  62
3
  10
 89.960994218047
  20
 93.871489288558
  30
0.0
  11
 89.960994218047
  21
 87.983534519628
  31
0.0
   0
LINE
   5
126
 100
AcDbEntity
   8
LEVEL001
 100
AcDbLine
   6
CONTINUOUS
  62
3
  10
 89.960994218047
  20
 83.733534519628
  30
0.0
  11
 89.960994218047
  21
 87.983534519628
  31
0.0
   0
INSERT
   5
127
 100
AcDbEntity
   8
LEVEL001
   6
CONTINUOUS
  62
3
 100
AcDbBlockReference
   2
_OPEN30
  10
 89.960994218047
  20
 88.483534519628
  30
0.0
  41
 3.0000000000000
  42
 3.0000000000000
  43
 3.0000000000000
  50
 270.00000000000
   0
INSERT
   5
128
 100
AcDbEntity
   8
LEVEL001
   6
CONTINUOUS
  62
3
 100
AcDbBlockReference
   2
_OPEN30
  10
 89.960994218047
  20
 87.483534519628
  30
0.0
  41
 3.0000000000000
  42
 3.0000000000000
  43
 3.0000000000000
  50
 90.000000000000
   0
MTEXT
   5
129
 100
AcDbEntity
   8
LEVEL001
  62
3
 100
AcDbMText
  10
 88.460994218047
  20
 92.621489288558
  30
0.0
  40
 3.5000000000000
  41
0.0
  71
8
  72
1
   1
\A1;1
   7
GMM001
  11
0.0
  21
 1.0000000000000
  31
0.0
   0
ENDBLK
   5
12A
 100
AcDbEntity
   8
0
 100
AcDbBlockEnd
   0
BLOCK
   5
12B
 100
AcDbEntity
   8
0
 100
AcDbBlockBegin
   2
*D12
  70
65
  10
0.0
  20
0.0
  30
0.0
   3
*D12
   0
LINE
   5
12C
 100
AcDbEntity
   8
LEVEL001
 100
AcDbLine
   6
CONTINUOUS
  62
3
  10
 56.247666553884
  20
 74.983534519628
  30
0.0
  11
 56.247666553884
  21
 61.743513378193
  31
0.0
   0
LINE
   5
12D
 100
AcDbEntity
   8
LEVEL001
 100
AcDbLine
   6
CONTINUOUS
  62
3
  10
 68.247666553884
  20
 74.983534519628
  30
0.0
  11
 68.247666553884
  21
 61.743513378193
  31
0.0
   0
LINE
   5
12E
 100
AcDbEntity
   8
LEVEL001
 100
AcDbLine
   6
CONTINUOUS
  62
3
  10
 56.247666553884
  20
 62.743513378193
  30
0.0
  11
 62.247666553884
  21
 62.743513378193
  31
0.0
   0
LINE
   5
12F
 100
AcDbEntity
   8
LEVEL001
 100
AcDbLine
   6
CONTINUOUS
  62
3
  10
 68.247666553884
  20
 62.743513378193
  30
0.0
  11
 62.247666553884
  21
 62.743513378193
  31
0.0
   0
INSERT
   5
130
 100
AcDbEntity
   8
LEVEL001
   6
CONTINUOUS
  62
3
 100
AcDbBlockReference
   2
_OPEN30
  10
 56.247666553884
  20
 62.743513378193
  30
0.0
  41
 3.0000000000000
  42
 3.0000000000000
  43
 3.0000000000000
  50
 180.00000000000
   0
INSERT
   5
131
 100
AcDbEntity
   8
LEVEL001
   6
CONTINUOUS
  62
3
 100
AcDbBlockReference
   2
_OPEN30
  10
 68.247666553884
  20
 62.743513378193
  30
0.0
  41
 3.0000000000000
  42
 3.0000000000000
  43
 3.0000000000000
  50
0.0
   0
MTEXT
   5
132
 100
AcDbEntity
   8
LEVEL001
  62
3
 100
AcDbMText
  10
 62.247666553884
  20
 64.243513378193
  30
0.0
  40
 3.5000000000000
  41
0.0
  71
8
  72
1
   1
\A1;%%c12
   7
GMM001
   0
ENDBLK
   5
133
 100
AcDbEntity
   8
0
 100
AcDbBlockEnd
   0
BLOCK
   5
134
 100
AcDbEntity
   8
0
 100
AcDbBlockBegin
   2
*D13
  70
65
  10
0.0
  20
0.0
  30
0.0
   3
*D13
   0
POLYLINE
   5
135
 100
AcDbEntity
   8
LEVEL001
   6
CONTINUOUS
  62
3
 100
AcDb2dPolyline
  66
1
  10
0.0
  20
0.0
  30
0.0
  70
0
   0
VERTEX
   5
136
 100
AcDbEntity
   8
LEVEL001
   6
CONTINUOUS
  62
3
 100
AcDbVertex
 100
AcDb2dVertex
  10
 50.247666553884
  20
 143.33019130642
  30
0.0
   0
VERTEX
   5
137
 100
AcDbEntity
   8
LEVEL001
   6
CONTINUOUS
  62
3
 100
AcDbVertex
 100
AcDb2dVertex
  10
 53.961667064723
  20
 155.85100648055
  30
0.0
   0
VERTEX
   5
138
 100
AcDbEntity
   8
LEVEL001
   6
CONTINUOUS
  62
3
 100
AcDbVertex
 100
AcDb2dVertex
  10
 78.961667064723
  20
 155.85100648055
  30
0.0
   0
SEQEND
   5
139
 100
AcDbEntity
   8
LEVEL001
   6
CONTINUOUS
  62
3
   0
INSERT
   5
13A
 100
AcDbEntity
   8
LEVEL001
   6
CONTINUOUS
  62
3
 100
AcDbBlockReference
   2
_OPEN30
  10
 50.247666553884
  20
 143.33019130642
  30
0.0
  41
 3.0000000000000
  42
 3.0000000000000
  43
 3.0000000000000
  50
 253.47826913724
   0
MTEXT
   5
13B
 100
AcDbEntity
   8
LEVEL001
  62
3
 100
AcDbMText
  10
 53.961667064723
  20
 157.35100648055
  30
0.0
  40
 3.5000000000000
  41
0.0
  71
7
  72
1
   1
\A1;２－%%c４.２穴 %%c６皿
   7
GMM001
   0
ENDBLK
   5
13C
 100
AcDbEntity
   8
0
 100
AcDbBlockEnd
   0
BLOCK
   5
13D
 100
AcDbEntity
   8
0
 100
AcDbBlockBegin
   2
*D14
  70
65
  10
0.0
  20
0.0
  30
0.0
   3
*D14
   0
LINE
   5
13E
 100
AcDbEntity
   8
LEVEL001
 100
AcDbLine
   6
CONTINUOUS
  62
3
  10
 23.672288649791
  20
 234.52634466266
  30
0.0
  11
 23.672288649791
  21
 226.35715215220
  31
0.0
   0
LINE
   5
13F
 100
AcDbEntity
   8
LEVEL001
 100
AcDbLine
   6
CONTINUOUS
  62
3
  10
 400.67228864979
  20
 234.52634466266
  30
0.0
  11
 400.67228864979
  21
 226.35715215220
  31
0.0
   0
LINE
   5
140
 100
AcDbEntity
   8
LEVEL001
 100
AcDbLine
   6
CONTINUOUS
  62
3
  10
 23.672288649791
  20
 227.35715215220
  30
0.0
  11
 212.17228864979
  21
 227.35715215220
  31
0.0
   0
LINE
   5
141
 100
AcDbEntity
   8
LEVEL001
 100
AcDbLine
   6
CONTINUOUS
  62
3
  10
 400.67228864979
  20
 227.35715215220
  30
0.0
  11
 212.17228864979
  21
 227.35715215220
  31
0.0
   0
INSERT
   5
142
 100
AcDbEntity
   8
LEVEL001
   6
CONTINUOUS
  62
3
 100
AcDbBlockReference
   2
_OPEN30
  10
 23.672288649791
  20
 227.35715215220
  30
0.0
  41
 3.0000000000000
  42
 3.0000000000000
  43
 3.0000000000000
  50
 180.00000000000
   0
INSERT
   5
143
 100
AcDbEntity
   8
LEVEL001
   6
CONTINUOUS
  62
3
 100
AcDbBlockReference
   2
_OPEN30
  10
 400.67228864979
  20
 227.35715215220
  30
0.0
  41
 3.0000000000000
  42
 3.0000000000000
  43
 3.0000000000000
  50
0.0
   0
MTEXT
   5
144
 100
AcDbEntity
   8
LEVEL001
  62
3
 100
AcDbMText
  10
 212.17228864979
  20
 228.85715215220
  30
0.0
  40
 3.5000000000000
  41
0.0
  71
8
  72
1
   1
\A1;377
   7
GMM001
   0
ENDBLK
   5
145
 100
AcDbEntity
   8
0
 100
AcDbBlockEnd
   0
BLOCK
   5
146
 100
AcDbEntity
   8
0
 100
AcDbBlockBegin
   2
*D15
  70
65
  10
0.0
  20
0.0
  30
0.0
   3
*D15
   0
LINE
   5
147
 100
AcDbEntity
   8
LEVEL001
 100
AcDbLine
   6
CONTINUOUS
  62
3
  10
 400.67228864979
  20
 250.61759118926
  30
0.0
  11
 400.67228864979
  21
 235.02634466266
  31
0.0
   0
LINE
   5
148
 100
AcDbEntity
   8
LEVEL001
 100
AcDbLine
   6
CONTINUOUS
  62
3
  10
 392.67228864979
  20
 236.02634466266
  30
0.0
  11
 396.67228864979
  21
 236.02634466266
  31
0.0
   0
LINE
   5
149
 100
AcDbEntity
   8
LEVEL001
 100
AcDbLine
   6
CONTINUOUS
  62
3
  10
 400.67228864979
  20
 236.02634466266
  30
0.0
  11
 396.67228864979
  21
 236.02634466266
  31
0.0
   0
INSERT
   5
14A
 100
AcDbEntity
   8
LEVEL001
   6
CONTINUOUS
  62
3
 100
AcDbBlockReference
   2
_OPEN30
  10
 392.67228864979
  20
 236.02634466266
  30
0.0
  41
 3.0000000000000
  42
 3.0000000000000
  43
 3.0000000000000
  50
 180.00000000000
   0
INSERT
   5
14B
 100
AcDbEntity
   8
LEVEL001
   6
CONTINUOUS
  62
3
 100
AcDbBlockReference
   2
_OPEN30
  10
 400.67228864979
  20
 236.02634466266
  30
0.0
  41
 3.0000000000000
  42
 3.0000000000000
  43
 3.0000000000000
  50
0.0
   0
MTEXT
   5
14C
 100
AcDbEntity
   8
LEVEL001
  62
3
 100
AcDbMText
  10
 396.67228864979
  20
 237.52634466266
  30
0.0
  40
 3.5000000000000
  41
0.0
  71
8
  72
1
   1
\A1;8
   7
GMM001
   0
ENDBLK
   5
14D
 100
AcDbEntity
   8
0
 100
AcDbBlockEnd
   0
BLOCK
   5
14E
 100
AcDbEntity
   8
0
 100
AcDbBlockBegin
   2
*D16
  70
65
  10
0.0
  20
0.0
  30
0.0
   3
*D16
   0
LINE
   5
14F
 100
AcDbEntity
   8
LEVEL001
 100
AcDbLine
   6
CONTINUOUS
  62
3
  10
 23.672288649791
  20
 250.61759118926
  30
0.0
  11
 23.672288649791
  21
 235.02634466266
  31
0.0
   0
LINE
   5
150
 100
AcDbEntity
   8
LEVEL001
 100
AcDbLine
   6
CONTINUOUS
  62
3
  10
 31.672288649791
  20
 236.02634466266
  30
0.0
  11
 27.672288649791
  21
 236.02634466266
  31
0.0
   0
LINE
   5
151
 100
AcDbEntity
   8
LEVEL001
 100
AcDbLine
   6
CONTINUOUS
  62
3
  10
 23.672288649791
  20
 236.02634466266
  30
0.0
  11
 27.672288649791
  21
 236.02634466266
  31
0.0
   0
INSERT
   5
152
 100
AcDbEntity
   8
LEVEL001
   6
CONTINUOUS
  62
3
 100
AcDbBlockReference
   2
_OPEN30
  10
 31.672288649791
  20
 236.02634466266
  30
0.0
  41
 3.0000000000000
  42
 3.0000000000000
  43
 3.0000000000000
  50
0.0
   0
INSERT
   5
153
 100
AcDbEntity
   8
LEVEL001
   6
CONTINUOUS
  62
3
 100
AcDbBlockReference
   2
_OPEN30
  10
 23.672288649791
  20
 236.02634466266
  30
0.0
  41
 3.0000000000000
  42
 3.0000000000000
  43
 3.0000000000000
  50
 180.00000000000
   0
MTEXT
   5
154
 100
AcDbEntity
   8
LEVEL001
  62
3
 100
AcDbMText
  10
 27.672288649791
  20
 237.52634466266
  30
0.0
  40
 3.5000000000000
  41
0.0
  71
8
  72
1
   1
\A1;8
   7
GMM001
   0
ENDBLK
   5
155
 100
AcDbEntity
   8
0
 100
AcDbBlockEnd
   0
BLOCK
   5
156
 100
AcDbEntity
   8
0
 100
AcDbBlockBegin
   2
*D17
  70
65
  10
0.0
  20
0.0
  30
0.0
   3
*D17
   0
LINE
   5
157
 100
AcDbEntity
   8
LEVEL001
 100
AcDbLine
   6
CONTINUOUS
  62
3
  10
 392.67228864979
  20
 254.78135537915
  30
0.0
  11
 392.67228864979
  21
 235.02634466266
  31
0.0
   0
LINE
   5
158
 100
AcDbEntity
   8
LEVEL001
 100
AcDbLine
   6
CONTINUOUS
  62
3
  10
 31.672288649791
  20
 254.78135537915
  30
0.0
  11
 31.672288649791
  21
 235.02634466266
  31
0.0
   0
LINE
   5
159
 100
AcDbEntity
   8
LEVEL001
 100
AcDbLine
   6
CONTINUOUS
  62
3
  10
 392.67228864979
  20
 236.02634466266
  30
0.0
  11
 212.17228864979
  21
 236.02634466266
  31
0.0
   0
LINE
   5
15A
 100
AcDbEntity
   8
LEVEL001
 100
AcDbLine
   6
CONTINUOUS
  62
3
  10
 31.672288649791
  20
 236.02634466266
  30
0.0
  11
 212.17228864979
  21
 236.02634466266
  31
0.0
   0
INSERT
   5
15B
 100
AcDbEntity
   8
LEVEL001
   6
CONTINUOUS
  62
3
 100
AcDbBlockReference
   2
_OPEN30
  10
 392.67228864979
  20
 236.02634466266
  30
0.0
  41
 3.0000000000000
  42
 3.0000000000000
  43
 3.0000000000000
  50
0.0
   0
INSERT
   5
15C
 100
AcDbEntity
   8
LEVEL001
   6
CONTINUOUS
  62
3
 100
AcDbBlockReference
   2
_OPEN30
  10
 31.672288649791
  20
 236.02634466266
  30
0.0
  41
 3.0000000000000
  42
 3.0000000000000
  43
 3.0000000000000
  50
 180.00000000000
   0
MTEXT
   5
15D
 100
AcDbEntity
   8
LEVEL001
  62
3
 100
AcDbMText
  10
 212.17228864979
  20
 237.52634466266
  30
0.0
  40
 3.5000000000000
  41
0.0
  71
8
  72
1
   1
\A1;361
   7
GMM001
   0
ENDBLK
   5
15E
 100
AcDbEntity
   8
0
 100
AcDbBlockEnd
   0
BLOCK
   5
15F
 100
AcDbEntity
   8
0
 100
AcDbBlockBegin
   2
*D18
  70
65
  10
0.0
  20
0.0
  30
0.0
   3
*D18
   0
LINE
   5
160
 100
AcDbEntity
   8
LEVEL001
 100
AcDbLine
   6
CONTINUOUS
  62
3
  10
 384.67228864979
  20
 200.31832551617
  30
0.0
  11
 384.67228864979
  21
 217.93633169985
  31
0.0
   0
LINE
   5
161
 100
AcDbEntity
   8
LEVEL001
 100
AcDbLine
   6
CONTINUOUS
  62
3
  10
 39.672288649791
  20
 200.31832551617
  30
0.0
  11
 39.672288649791
  21
 217.93633169985
  31
0.0
   0
LINE
   5
162
 100
AcDbEntity
   8
LEVEL001
 100
AcDbLine
   6
CONTINUOUS
  62
3
  10
 384.67228864979
  20
 216.93633169985
  30
0.0
  11
 212.17228864979
  21
 216.93633169985
  31
0.0
   0
LINE
   5
163
 100
AcDbEntity
   8
LEVEL001
 100
AcDbLine
   6
CONTINUOUS
  62
3
  10
 39.672288649791
  20
 216.93633169985
  30
0.0
  11
 212.17228864979
  21
 216.93633169985
  31
0.0
   0
INSERT
   5
164
 100
AcDbEntity
   8
LEVEL001
   6
CONTINUOUS
  62
3
 100
AcDbBlockReference
   2
_OPEN30
  10
 384.67228864979
  20
 216.93633169985
  30
0.0
  41
 3.0000000000000
  42
 3.0000000000000
  43
 3.0000000000000
  50
0.0
   0
INSERT
   5
165
 100
AcDbEntity
   8
LEVEL001
   6
CONTINUOUS
  62
3
 100
AcDbBlockReference
   2
_OPEN30
  10
 39.672288649791
  20
 216.93633169985
  30
0.0
  41
 3.0000000000000
  42
 3.0000000000000
  43
 3.0000000000000
  50
 180.00000000000
   0
MTEXT
   5
166
 100
AcDbEntity
   8
LEVEL001
  62
3
 100
AcDbMText
  10
 212.17228864979
  20
 218.43633169985
  30
0.0
  40
 3.5000000000000
  41
0.0
  71
8
  72
1
   1
\A1;345
   7
GMM001
   0
ENDBLK
   5
167
 100
AcDbEntity
   8
0
 100
AcDbBlockEnd
   0
BLOCK
   5
168
 100
AcDbEntity
   8
0
 100
AcDbBlockBegin
   2
*D19
  70
65
  10
0.0
  20
0.0
  30
0.0
   3
*D19
   0
LINE
   5
169
 100
AcDbEntity
   8
LEVEL001
 100
AcDbLine
   6
CONTINUOUS
  62
3
  10
 23.672288649791
  20
 178.81832551617
  30
0.0
  11
 23.672288649791
  21
 217.93633169985
  31
0.0
   0
LINE
   5
16A
 100
AcDbEntity
   8
LEVEL001
 100
AcDbLine
   6
CONTINUOUS
  62
3
  10
 39.672288649791
  20
 216.93633169985
  30
0.0
  11
 31.672288649791
  21
 216.93633169985
  31
0.0
   0
LINE
   5
16B
 100
AcDbEntity
   8
LEVEL001
 100
AcDbLine
   6
CONTINUOUS
  62
3
  10
 23.672288649791
  20
 216.93633169985
  30
0.0
  11
 31.672288649791
  21
 216.93633169985
  31
0.0
   0
INSERT
   5
16C
 100
AcDbEntity
   8
LEVEL001
   6
CONTINUOUS
  62
3
 100
AcDbBlockReference
   2
_OPEN30
  10
 39.672288649791
  20
 216.93633169985
  30
0.0
  41
 3.0000000000000
  42
 3.0000000000000
  43
 3.0000000000000
  50
0.0
   0
INSERT
   5
16D
 100
AcDbEntity
   8
LEVEL001
   6
CONTINUOUS
  62
3
 100
AcDbBlockReference
   2
_OPEN30
  10
 23.672288649791
  20
 216.93633169985
  30
0.0
  41
 3.0000000000000
  42
 3.0000000000000
  43
 3.0000000000000
  50
 180.00000000000
   0
MTEXT
   5
16E
 100
AcDbEntity
   8
LEVEL001
  62
3
 100
AcDbMText
  10
 31.672288649791
  20
 218.43633169985
  30
0.0
  40
 3.5000000000000
  41
0.0
  71
8
  72
1
   1
\A1;16
   7
GMM001
   0
ENDBLK
   5
16F
 100
AcDbEntity
   8
0
 100
AcDbBlockEnd
   0
BLOCK
   5
170
 100
AcDbEntity
   8
0
 100
AcDbBlockBegin
   2
*D20
  70
65
  10
0.0
  20
0.0
  30
0.0
   3
*D20
   0
LINE
   5
171
 100
AcDbEntity
   8
LEVEL001
 100
AcDbLine
   6
CONTINUOUS
  62
3
  10
 400.67228864979
  20
 178.81832551617
  30
0.0
  11
 400.67228864979
  21
 217.93633169985
  31
0.0
   0
LINE
   5
172
 100
AcDbEntity
   8
LEVEL001
 100
AcDbLine
   6
CONTINUOUS
  62
3
  10
 384.67228864979
  20
 216.93633169985
  30
0.0
  11
 392.67228864979
  21
 216.93633169985
  31
0.0
   0
LINE
   5
173
 100
AcDbEntity
   8
LEVEL001
 100
AcDbLine
   6
CONTINUOUS
  62
3
  10
 400.67228864979
  20
 216.93633169985
  30
0.0
  11
 392.67228864979
  21
 216.93633169985
  31
0.0
   0
INSERT
   5
174
 100
AcDbEntity
   8
LEVEL001
   6
CONTINUOUS
  62
3
 100
AcDbBlockReference
   2
_OPEN30
  10
 384.67228864979
  20
 216.93633169985
  30
0.0
  41
 3.0000000000000
  42
 3.0000000000000
  43
 3.0000000000000
  50
 180.00000000000
   0
INSERT
   5
175
 100
AcDbEntity
   8
LEVEL001
   6
CONTINUOUS
  62
3
 100
AcDbBlockReference
   2
_OPEN30
  10
 400.67228864979
  20
 216.93633169985
  30
0.0
  41
 3.0000000000000
  42
 3.0000000000000
  43
 3.0000000000000
  50
0.0
   0
MTEXT
   5
176
 100
AcDbEntity
   8
LEVEL001
  62
3
 100
AcDbMText
  10
 392.67228864979
  20
 218.43633169985
  30
0.0
  40
 3.5000000000000
  41
0.0
  71
8
  72
1
   1
\A1;16
   7
GMM001
   0
ENDBLK
   5
177
 100
AcDbEntity
   8
0
 100
AcDbBlockEnd
   0
BLOCK
   5
178
 100
AcDbEntity
   8
0
 100
AcDbBlockBegin
   2
*D21
  70
65
  10
0.0
  20
0.0
  30
0.0
   3
*D21
   0
POLYLINE
   5
179
 100
AcDbEntity
   8
LEVEL001
   6
CONTINUOUS
  62
3
 100
AcDb2dPolyline
  66
1
  10
0.0
  20
0.0
  30
0.0
  70
0
   0
VERTEX
   5
17A
 100
AcDbEntity
   8
LEVEL001
   6
CONTINUOUS
  62
3
 100
AcDbVertex
 100
AcDb2dVertex
  10
 31.672288649791
  20
 259.11759118926
  30
0.0
   0
VERTEX
   5
17B
 100
AcDbEntity
   8
LEVEL001
   6
CONTINUOUS
  62
3
 100
AcDbVertex
 100
AcDb2dVertex
  10
 38.965176772355
  20
 273.09765719827
  30
0.0
   0
VERTEX
   5
17C
 100
AcDbEntity
   8
LEVEL001
   6
CONTINUOUS
  62
3
 100
AcDbVertex
 100
AcDb2dVertex
  10
 55.215176772355
  20
 273.09765719827
  30
0.0
   0
SEQEND
   5
17D
 100
AcDbEntity
   8
LEVEL001
   6
CONTINUOUS
  62
3
   0
INSERT
   5
17E
 100
AcDbEntity
   8
LEVEL001
   6
CONTINUOUS
  62
3
 100
AcDbBlockReference
   2
_OPEN30
  10
 31.672288649791
  20
 259.11759118926
  30
0.0
  41
 3.0000000000000
  42
 3.0000000000000
  43
 3.0000000000000
  50
 242.45060122650
   0
MTEXT
   5
17F
 100
AcDbEntity
   8
LEVEL001
  62
3
 100
AcDbMText
  10
 38.965176772355
  20
 274.59765719827
  30
0.0
  40
 3.5000000000000
  41
0.0
  71
7
  72
1
   1
\A1;２－%%c４.２穴
   7
GMM001
   0
ENDBLK
   5
180
 100
AcDbEntity
   8
0
 100
AcDbBlockEnd
   0
BLOCK
   5
181
 100
AcDbEntity
   8
0
 100
AcDbBlockBegin
   2
HATCH001
  70
64
  10
0.0
  20
0.0
  30
0.0
   3
HATCH001
   0
LINE
   5
182
 100
AcDbEntity
   8
LEVEL001
 100
AcDbLine
   6
CONTINUOUS
  62
2
  10
 213.34367086442
  20
 153.70417829289
  30
0.0
  11
 215.77885181862
  21
 156.13935924708
  31
0.0
   0
LINE
   5
183
 100
AcDbEntity
   8
LEVEL001
 100
AcDbLine
   6
CONTINUOUS
  62
2
  10
 213.61133804073
  20
 151.85052512920
  30
0.0
  11
 217.63250498231
  21
 155.87169207077
  31
0.0
   0
LINE
   5
184
 100
AcDbEntity
   8
LEVEL001
 100
AcDbLine
   6
CONTINUOUS
  62
2
  10
 214.59634937815
  20
 150.71421612661
  30
0.0
  11
 218.76881398489
  21
 154.88668073336
  31
0.0
   0
LINE
   5
185
 100
AcDbEntity
   8
LEVEL001
 100
AcDbLine
   6
CONTINUOUS
  62
2
  10
 216.19008874837
  20
 150.18663515684
  30
0.0
  11
 219.29639495467
  21
 153.29294136313
  31
0.0
   0
ENDBLK
   5
186
 100
AcDbEntity
   8
0
 100
AcDbBlockEnd
   0
BLOCK
   5
187
 100
AcDbEntity
   8
0
 100
AcDbBlockBegin
   2
HATCH002
  70
64
  10
0.0
  20
0.0
  30
0.0
   3
HATCH002
   0
LINE
   5
188
 100
AcDbEntity
   8
LEVEL001
 100
AcDbLine
   6
CONTINUOUS
  62
2
  10
 213.32426684409
  20
 143.07817257256
  30
0.0
  11
 215.90485753894
  21
 145.65876326741
  31
0.0
   0
LINE
   5
189
 100
AcDbEntity
   8
LEVEL001
 100
AcDbLine
   6
CONTINUOUS
  62
2
  10
 213.64748637539
  20
 141.28007176386
  30
0.0
  11
 217.70295834764
  21
 145.33554373611
  31
0.0
   0
LINE
   5
18A
 100
AcDbEntity
   8
LEVEL001
 100
AcDbLine
   6
CONTINUOUS
  62
2
  10
 214.66017436735
  20
 140.17143941581
  30
0.0
  11
 218.81159069569
  21
 144.32285574416
  31
0.0
   0
LINE
   5
18B
 100
AcDbEntity
   8
LEVEL001
 100
AcDbLine
   6
CONTINUOUS
  62
2
  10
 216.29473860519
  20
 139.68468331366
  30
0.0
  11
 219.29834679785
  21
 142.68829150632
  31
0.0
   0
ENDBLK
   5
18C
 100
AcDbEntity
   8
0
 100
AcDbBlockEnd
   0
BLOCK
   5
18D
 100
AcDbEntity
   8
0
 100
AcDbBlockBegin
   2
*D22
  70
65
  10
0.0
  20
0.0
  30
0.0
   3
*D22
   0
LINE
   5
18E
 100
AcDbEntity
   8
LEVEL001
 100
AcDbLine
   6
CONTINUOUS
  62
3
  10
 210.29834897031
  20
 155.63855012115
  30
0.0
  11
 210.29834897031
  21
 164.34854891529
  31
0.0
   0
LINE
   5
18F
 100
AcDbEntity
   8
LEVEL001
 100
AcDbLine
   6
CONTINUOUS
  62
3
  10
 222.29834897031
  20
 155.63855012115
  30
0.0
  11
 222.29834897031
  21
 164.34854891529
  31
0.0
   0
LINE
   5
190
 100
AcDbEntity
   8
LEVEL001
 100
AcDbLine
   6
CONTINUOUS
  62
3
  10
 210.29834897031
  20
 163.34854891529
  30
0.0
  11
 216.29834897031
  21
 163.34854891529
  31
0.0
   0
LINE
   5
191
 100
AcDbEntity
   8
LEVEL001
 100
AcDbLine
   6
CONTINUOUS
  62
3
  10
 222.29834897031
  20
 163.34854891529
  30
0.0
  11
 216.29834897031
  21
 163.34854891529
  31
0.0
   0
INSERT
   5
192
 100
AcDbEntity
   8
LEVEL001
   6
CONTINUOUS
  62
3
 100
AcDbBlockReference
   2
_OPEN30
  10
 210.29834897031
  20
 163.34854891529
  30
0.0
  41
 3.0000000000000
  42
 3.0000000000000
  43
 3.0000000000000
  50
 180.00000000000
   0
INSERT
   5
193
 100
AcDbEntity
   8
LEVEL001
   6
CONTINUOUS
  62
3
 100
AcDbBlockReference
   2
_OPEN30
  10
 222.29834897031
  20
 163.34854891529
  30
0.0
  41
 3.0000000000000
  42
 3.0000000000000
  43
 3.0000000000000
  50
0.0
   0
MTEXT
   5
194
 100
AcDbEntity
   8
LEVEL001
  62
3
 100
AcDbMText
  10
 216.29834897031
  20
 164.84854891529
  30
0.0
  40
 3.5000000000000
  41
0.0
  71
8
  72
1
   1
\A1;24
   7
GMM001
   0
ENDBLK
   5
195
 100
AcDbEntity
   8
0
 100
AcDbBlockEnd
   0
BLOCK
   5
196
 100
AcDbEntity
   8
0
 100
AcDbBlockBegin
   2
*D23
  70
65
  10
0.0
  20
0.0
  30
0.0
   3
*D23
   0
LINE
   5
197
 100
AcDbEntity
   8
LEVEL001
 100
AcDbLine
   6
CONTINUOUS
  62
3
  10
 226.60377260582
  20
 142.68468114120
  30
0.0
  11
 236.95625597177
  21
 142.68468114120
  31
0.0
   0
LINE
   5
198
 100
AcDbEntity
   8
LEVEL001
 100
AcDbLine
   6
CONTINUOUS
  62
3
  10
 226.60377260582
  20
 153.18468114120
  30
0.0
  11
 236.95625597177
  21
 153.18468114120
  31
0.0
   0
LINE
   5
199
 100
AcDbEntity
   8
LEVEL001
 100
AcDbLine
   6
CONTINUOUS
  62
3
  10
 235.95625597177
  20
 142.68468114120
  30
0.0
  11
 235.95625597177
  21
 147.93468114120
  31
0.0
   0
LINE
   5
19A
 100
AcDbEntity
   8
LEVEL001
 100
AcDbLine
   6
CONTINUOUS
  62
3
  10
 235.95625597177
  20
 153.18468114120
  30
0.0
  11
 235.95625597177
  21
 147.93468114120
  31
0.0
   0
INSERT
   5
19B
 100
AcDbEntity
   8
LEVEL001
   6
CONTINUOUS
  62
3
 100
AcDbBlockReference
   2
_OPEN30
  10
 235.95625597177
  20
 142.68468114120
  30
0.0
  41
 3.0000000000000
  42
 3.0000000000000
  43
 3.0000000000000
  50
 270.00000000000
   0
INSERT
   5
19C
 100
AcDbEntity
   8
LEVEL001
   6
CONTINUOUS
  62
3
 100
AcDbBlockReference
   2
_OPEN30
  10
 235.95625597177
  20
 153.18468114120
  30
0.0
  41
 3.0000000000000
  42
 3.0000000000000
  43
 3.0000000000000
  50
 90.000000000000
   0
MTEXT
   5
19D
 100
AcDbEntity
   8
LEVEL001
  62
3
 100
AcDbMText
  10
 234.45625597177
  20
 147.93468114120
  30
0.0
  40
 3.5000000000000
  41
0.0
  71
8
  72
1
   1
\A1;21
   7
GMM001
  11
0.0
  21
 1.0000000000000
  31
0.0
   0
ENDBLK
   5
19E
 100
AcDbEntity
   8
0
 100
AcDbBlockEnd
   0
BLOCK
   5
19F
 100
AcDbEntity
   8
0
 100
AcDbBlockBegin
   2
*D24
  70
65
  10
0.0
  20
0.0
  30
0.0
   3
*D24
   0
LINE
   5
1A0
 100
AcDbEntity
   8
LEVEL001
 100
AcDbLine
   6
CONTINUOUS
  62
3
  10
 216.29834897031
  20
 137.31831053042
  30
0.0
  11
 216.29834897031
  21
 129.38605229738
  31
0.0
   0
LINE
   5
1A1
 100
AcDbEntity
   8
LEVEL001
 100
AcDbLine
   6
CONTINUOUS
  62
3
  10
 132.59798007376
  20
 138.43468114120
  30
0.0
  11
 132.59798007376
  21
 129.38605229738
  31
0.0
   0
LINE
   5
1A2
 100
AcDbEntity
   8
LEVEL001
 100
AcDbLine
   6
CONTINUOUS
  62
3
  10
 216.29834897031
  20
 130.38605229738
  30
0.0
  11
 174.44816452203
  21
 130.38605229738
  31
0.0
   0
LINE
   5
1A3
 100
AcDbEntity
   8
LEVEL001
 100
AcDbLine
   6
CONTINUOUS
  62
3
  10
 132.59798007376
  20
 130.38605229738
  30
0.0
  11
 174.44816452203
  21
 130.38605229738
  31
0.0
   0
INSERT
   5
1A4
 100
AcDbEntity
   8
LEVEL001
   6
CONTINUOUS
  62
3
 100
AcDbBlockReference
   2
_OPEN30
  10
 216.29834897031
  20
 130.38605229738
  30
0.0
  41
 3.0000000000000
  42
 3.0000000000000
  43
 3.0000000000000
  50
0.0
   0
INSERT
   5
1A5
 100
AcDbEntity
   8
LEVEL001
   6
CONTINUOUS
  62
3
 100
AcDbBlockReference
   2
_OPEN30
  10
 132.59798007376
  20
 130.38605229738
  30
0.0
  41
 3.0000000000000
  42
 3.0000000000000
  43
 3.0000000000000
  50
 180.00000000000
   0
MTEXT
   5
1A6
 100
AcDbEntity
   8
LEVEL001
  62
3
 100
AcDbMText
  10
 174.44816452203
  20
 131.88605229738
  30
0.0
  40
 3.5000000000000
  41
0.0
  71
8
  72
1
   1
\A1;280(枠端より)
   7
GMM001
   0
ENDBLK
   5
1A7
 100
AcDbEntity
   8
0
 100
AcDbBlockEnd
   0
BLOCK
   5
1A8
 100
AcDbEntity
   8
0
 100
AcDbBlockBegin
   2
*D25
  70
65
  10
0.0
  20
0.0
  30
0.0
   3
*D25
   0
POLYLINE
   5
1A9
 100
AcDbEntity
   8
LEVEL001
   6
CONTINUOUS
  62
3
 100
AcDb2dPolyline
  66
1
  10
0.0
  20
0.0
  30
0.0
  70
0
   0
VERTEX
   5
1AA
 100
AcDbEntity
   8
LEVEL001
   6
CONTINUOUS
  62
3
 100
AcDbVertex
 100
AcDb2dVertex
  10
 216.29834897031
  20
 153.18468114120
  30
0.0
   0
VERTEX
   5
1AB
 100
AcDbEntity
   8
LEVEL001
   6
CONTINUOUS
  62
3
 100
AcDbVertex
 100
AcDb2dVertex
  10
 226.25276854801
  20
 166.33856787480
  30
0.0
   0
VERTEX
   5
1AC
 100
AcDbEntity
   8
LEVEL001
   6
CONTINUOUS
  62
3
 100
AcDbVertex
 100
AcDb2dVertex
  10
 256.25276854801
  20
 166.33856787480
  30
0.0
   0
SEQEND
   5
1AD
 100
AcDbEntity
   8
LEVEL001
   6
CONTINUOUS
  62
3
   0
INSERT
   5
1AE
 100
AcDbEntity
   8
LEVEL001
   6
CONTINUOUS
  62
3
 100
AcDbBlockReference
   2
_OPEN30
  10
 216.29834897031
  20
 153.18468114120
  30
0.0
  41
 3.0000000000000
  42
 3.0000000000000
  43
 3.0000000000000
  50
 232.88278780730
   0
MTEXT
   5
1AF
 100
AcDbEntity
   8
LEVEL001
  62
3
 100
AcDbMText
  10
 226.25276854801
  20
 167.83856787480
  30
0.0
  40
 3.5000000000000
  41
0.0
  71
7
  72
1
   1
\A1;２－%%c１２穴フック取付用
   7
GMM001
   0
ENDBLK
   5
1B0
 100
AcDbEntity
   8
0
 100
AcDbBlockEnd
   0
BLOCK
   5
1B1
 100
AcDbEntity
   8
0
 100
AcDbBlockBegin
   2
*D26
  70
65
  10
0.0
  20
0.0
  30
0.0
   3
*D26
   0
POLYLINE
   5
1B2
 100
AcDbEntity
   8
LEVEL001
   6
CONTINUOUS
  62
3
 100
AcDb2dPolyline
  66
1
  10
0.0
  20
0.0
  30
0.0
  70
0
   0
VERTEX
   5
1B3
 100
AcDbEntity
   8
LEVEL001
   6
CONTINUOUS
  62
3
 100
AcDbVertex
 100
AcDb2dVertex
  10
 210.29834897031
  20
 153.18468114120
  30
0.0
   0
VERTEX
   5
1B4
 100
AcDbEntity
   8
LEVEL001
   6
CONTINUOUS
  62
3
 100
AcDbVertex
 100
AcDb2dVertex
  10
 205.60250759863
  20
 163.55646670455
  30
0.0
   0
VERTEX
   5
1B5
 100
AcDbEntity
   8
LEVEL001
   6
CONTINUOUS
  62
3
 100
AcDbVertex
 100
AcDb2dVertex
  10
 168.10250759863
  20
 163.55646670455
  30
0.0
   0
SEQEND
   5
1B6
 100
AcDbEntity
   8
LEVEL001
   6
CONTINUOUS
  62
3
   0
INSERT
   5
1B7
 100
AcDbEntity
   8
LEVEL001
   6
CONTINUOUS
  62
3
 100
AcDbBlockReference
   2
_OPEN30
  10
 210.29834897031
  20
 153.18468114120
  30
0.0
  41
 3.0000000000000
  42
 3.0000000000000
  43
 3.0000000000000
  50
 294.35871110042
   0
MTEXT
   5
1B8
 100
AcDbEntity
   8
LEVEL001
  62
3
 100
AcDbMText
  10
 168.10250759863
  20
 165.05646670455
  30
0.0
  40
 3.5000000000000
  41
0.0
  71
7
  72
1
   1
\A1;２×２－下穴（%%c３タッピン用）
   7
GMM001
   0
ENDBLK
   5
1B9
 100
AcDbEntity
   8
0
 100
AcDbBlockEnd
   0
BLOCK
   5
1BA
 100
AcDbEntity
   8
0
 100
AcDbBlockBegin
   2
HATCH003
  70
64
  10
0.0
  20
0.0
  30
0.0
   3
HATCH003
   0
LINE
   5
1BB
 100
AcDbEntity
   8
LEVEL001
 100
AcDbLine
   6
CONTINUOUS
  62
2
  10
 204.79834897030
  20
 56.983918897724
  30
0.0
  11
 207.43201311454
  21
 54.350254753485
  31
0.0
   0
LINE
   5
1BC
 100
AcDbEntity
   8
LEVEL001
 100
AcDbLine
   6
CONTINUOUS
  62
2
  10
 204.79834897030
  20
 59.812346017724
  30
0.0
  11
 210.26044023454
  21
 54.350254753485
  31
0.0
   0
LINE
   5
1BD
 100
AcDbEntity
   8
LEVEL001
 100
AcDbLine
   6
CONTINUOUS
  62
2
  10
 204.79834897030
  20
 62.640773137724
  30
0.0
  11
 213.08886735454
  21
 54.350254753485
  31
0.0
   0
LINE
   5
1BE
 100
AcDbEntity
   8
LEVEL001
 100
AcDbLine
   6
CONTINUOUS
  62
2
  10
 204.91729447454
  20
 65.350254753485
  30
0.0
  11
 215.91729447454
  21
 54.350254753485
  31
0.0
   0
LINE
   5
1BF
 100
AcDbEntity
   8
LEVEL001
 100
AcDbLine
   6
CONTINUOUS
  62
2
  10
 207.74572159454
  20
 65.350254753485
  30
0.0
  11
 218.74572159454
  21
 54.350254753485
  31
0.0
   0
LINE
   5
1C0
 100
AcDbEntity
   8
LEVEL001
 100
AcDbLine
   6
CONTINUOUS
  62
2
  10
 210.57414871454
  20
 65.350254753485
  30
0.0
  11
 221.57414871454
  21
 54.350254753485
  31
0.0
   0
LINE
   5
1C1
 100
AcDbEntity
   8
LEVEL001
 100
AcDbLine
   6
CONTINUOUS
  62
2
  10
 213.40257583454
  20
 65.350254753485
  30
0.0
  11
 224.40257583454
  21
 54.350254753485
  31
0.0
   0
LINE
   5
1C2
 100
AcDbEntity
   8
LEVEL001
 100
AcDbLine
   6
CONTINUOUS
  62
2
  10
 216.23100295454
  20
 65.350254753485
  30
0.0
  11
 227.23100295454
  21
 54.350254753485
  31
0.0
   0
LINE
   5
1C3
 100
AcDbEntity
   8
LEVEL001
 100
AcDbLine
   6
CONTINUOUS
  62
2
  10
 219.05943007454
  20
 65.350254753485
  30
0.0
  11
 230.05943007454
  21
 54.350254753485
  31
0.0
   0
LINE
   5
1C4
 100
AcDbEntity
   8
LEVEL001
 100
AcDbLine
   6
CONTINUOUS
  62
2
  10
 221.88785719454
  20
 65.350254753485
  30
0.0
  11
 232.88785719454
  21
 54.350254753485
  31
0.0
   0
LINE
   5
1C5
 100
AcDbEntity
   8
LEVEL001
 100
AcDbLine
   6
CONTINUOUS
  62
2
  10
 224.71628431454
  20
 65.350254753485
  30
0.0
  11
 235.71628431454
  21
 54.350254753485
  31
0.0
   0
LINE
   5
1C6
 100
AcDbEntity
   8
LEVEL001
 100
AcDbLine
   6
CONTINUOUS
  62
2
  10
 227.54471143454
  20
 65.350254753485
  30
0.0
  11
 238.54471143454
  21
 54.350254753485
  31
0.0
   0
LINE
   5
1C7
 100
AcDbEntity
   8
LEVEL001
 100
AcDbLine
   6
CONTINUOUS
  62
2
  10
 230.37313855454
  20
 65.350254753485
  30
0.0
  11
 241.37313855454
  21
 54.350254753485
  31
0.0
   0
LINE
   5
1C8
 100
AcDbEntity
   8
LEVEL001
 100
AcDbLine
   6
CONTINUOUS
  62
2
  10
 233.20156567454
  20
 65.350254753485
  30
0.0
  11
 244.20156567454
  21
 54.350254753485
  31
0.0
   0
LINE
   5
1C9
 100
AcDbEntity
   8
LEVEL001
 100
AcDbLine
   6
CONTINUOUS
  62
2
  10
 236.02999279454
  20
 65.350254753485
  30
0.0
  11
 247.02999279454
  21
 54.350254753485
  31
0.0
   0
LINE
   5
1CA
 100
AcDbEntity
   8
LEVEL001
 100
AcDbLine
   6
CONTINUOUS
  62
2
  10
 238.85841991454
  20
 65.350254753485
  30
0.0
  11
 249.85841991454
  21
 54.350254753485
  31
0.0
   0
LINE
   5
1CB
 100
AcDbEntity
   8
LEVEL001
 100
AcDbLine
   6
CONTINUOUS
  62
2
  10
 241.68684703454
  20
 65.350254753485
  30
0.0
  11
 252.68684703454
  21
 54.350254753485
  31
0.0
   0
LINE
   5
1CC
 100
AcDbEntity
   8
LEVEL001
 100
AcDbLine
   6
CONTINUOUS
  62
2
  10
 244.51527415454
  20
 65.350254753485
  30
0.0
  11
 255.51527415454
  21
 54.350254753485
  31
0.0
   0
LINE
   5
1CD
 100
AcDbEntity
   8
LEVEL001
 100
AcDbLine
   6
CONTINUOUS
  62
2
  10
 247.34370127454
  20
 65.350254753485
  30
0.0
  11
 258.34370127454
  21
 54.350254753485
  31
0.0
   0
LINE
   5
1CE
 100
AcDbEntity
   8
LEVEL001
 100
AcDbLine
   6
CONTINUOUS
  62
2
  10
 250.17212839454
  20
 65.350254753485
  30
0.0
  11
 261.17212839454
  21
 54.350254753485
  31
0.0
   0
LINE
   5
1CF
 100
AcDbEntity
   8
LEVEL001
 100
AcDbLine
   6
CONTINUOUS
  62
2
  10
 253.00055551454
  20
 65.350254753485
  30
0.0
  11
 264.00055551454
  21
 54.350254753485
  31
0.0
   0
LINE
   5
1D0
 100
AcDbEntity
   8
LEVEL001
 100
AcDbLine
   6
CONTINUOUS
  62
2
  10
 255.82898263454
  20
 65.350254753485
  30
0.0
  11
 266.82898263454
  21
 54.350254753485
  31
0.0
   0
LINE
   5
1D1
 100
AcDbEntity
   8
LEVEL001
 100
AcDbLine
   6
CONTINUOUS
  62
2
  10
 258.65740975454
  20
 65.350254753485
  30
0.0
  11
 269.65740975454
  21
 54.350254753485
  31
0.0
   0
LINE
   5
1D2
 100
AcDbEntity
   8
LEVEL001
 100
AcDbLine
   6
CONTINUOUS
  62
2
  10
 261.48583687454
  20
 65.350254753485
  30
0.0
  11
 272.48583687454
  21
 54.350254753485
  31
0.0
   0
LINE
   5
1D3
 100
AcDbEntity
   8
LEVEL001
 100
AcDbLine
   6
CONTINUOUS
  62
2
  10
 264.31426399454
  20
 65.350254753485
  30
0.0
  11
 275.31426399454
  21
 54.350254753485
  31
0.0
   0
LINE
   5
1D4
 100
AcDbEntity
   8
LEVEL001
 100
AcDbLine
   6
CONTINUOUS
  62
2
  10
 267.14269111454
  20
 65.350254753485
  30
0.0
  11
 278.14269111454
  21
 54.350254753485
  31
0.0
   0
LINE
   5
1D5
 100
AcDbEntity
   8
LEVEL001
 100
AcDbLine
   6
CONTINUOUS
  62
2
  10
 269.97111823454
  20
 65.350254753485
  30
0.0
  11
 280.97111823454
  21
 54.350254753485
  31
0.0
   0
LINE
   5
1D6
 100
AcDbEntity
   8
LEVEL001
 100
AcDbLine
   6
CONTINUOUS
  62
2
  10
 272.79954535454
  20
 65.350254753485
  30
0.0
  11
 283.79954535454
  21
 54.350254753485
  31
0.0
   0
LINE
   5
1D7
 100
AcDbEntity
   8
LEVEL001
 100
AcDbLine
   6
CONTINUOUS
  62
2
  10
 275.62797247454
  20
 65.350254753485
  30
0.0
  11
 286.62797247454
  21
 54.350254753485
  31
0.0
   0
LINE
   5
1D8
 100
AcDbEntity
   8
LEVEL001
 100
AcDbLine
   6
CONTINUOUS
  62
2
  10
 278.45639959454
  20
 65.350254753485
  30
0.0
  11
 289.45639959454
  21
 54.350254753485
  31
0.0
   0
LINE
   5
1D9
 100
AcDbEntity
   8
LEVEL001
 100
AcDbLine
   6
CONTINUOUS
  62
2
  10
 281.28482671454
  20
 65.350254753485
  30
0.0
  11
 292.28482671454
  21
 54.350254753485
  31
0.0
   0
LINE
   5
1DA
 100
AcDbEntity
   8
LEVEL001
 100
AcDbLine
   6
CONTINUOUS
  62
2
  10
 284.11325383454
  20
 65.350254753485
  30
0.0
  11
 295.11325383454
  21
 54.350254753485
  31
0.0
   0
LINE
   5
1DB
 100
AcDbEntity
   8
LEVEL001
 100
AcDbLine
   6
CONTINUOUS
  62
2
  10
 286.94168095454
  20
 65.350254753485
  30
0.0
  11
 297.94168095454
  21
 54.350254753485
  31
0.0
   0
LINE
   5
1DC
 100
AcDbEntity
   8
LEVEL001
 100
AcDbLine
   6
CONTINUOUS
  62
2
  10
 289.77010807454
  20
 65.350254753485
  30
0.0
  11
 300.77010807454
  21
 54.350254753485
  31
0.0
   0
LINE
   5
1DD
 100
AcDbEntity
   8
LEVEL001
 100
AcDbLine
   6
CONTINUOUS
  62
2
  10
 292.59853519454
  20
 65.350254753485
  30
0.0
  11
 303.59853519454
  21
 54.350254753485
  31
0.0
   0
LINE
   5
1DE
 100
AcDbEntity
   8
LEVEL001
 100
AcDbLine
   6
CONTINUOUS
  62
2
  10
 295.42696231454
  20
 65.350254753485
  30
0.0
  11
 306.42696231454
  21
 54.350254753485
  31
0.0
   0
LINE
   5
1DF
 100
AcDbEntity
   8
LEVEL001
 100
AcDbLine
   6
CONTINUOUS
  62
2
  10
 298.25538943454
  20
 65.350254753485
  30
0.0
  11
 309.25538943454
  21
 54.350254753485
  31
0.0
   0
LINE
   5
1E0
 100
AcDbEntity
   8
LEVEL001
 100
AcDbLine
   6
CONTINUOUS
  62
2
  10
 301.08381655454
  20
 65.350254753485
  30
0.0
  11
 312.08381655454
  21
 54.350254753485
  31
0.0
   0
LINE
   5
1E1
 100
AcDbEntity
   8
LEVEL001
 100
AcDbLine
   6
CONTINUOUS
  62
2
  10
 303.91224367454
  20
 65.350254753485
  30
0.0
  11
 314.91224367454
  21
 54.350254753485
  31
0.0
   0
LINE
   5
1E2
 100
AcDbEntity
   8
LEVEL001
 100
AcDbLine
   6
CONTINUOUS
  62
2
  10
 306.74067079454
  20
 65.350254753485
  30
0.0
  11
 317.74067079454
  21
 54.350254753485
  31
0.0
   0
LINE
   5
1E3
 100
AcDbEntity
   8
LEVEL001
 100
AcDbLine
   6
CONTINUOUS
  62
2
  10
 309.56909791454
  20
 65.350254753485
  30
0.0
  11
 320.56909791454
  21
 54.350254753485
  31
0.0
   0
LINE
   5
1E4
 100
AcDbEntity
   8
LEVEL001
 100
AcDbLine
   6
CONTINUOUS
  62
2
  10
 312.39752503454
  20
 65.350254753485
  30
0.0
  11
 323.39752503454
  21
 54.350254753485
  31
0.0
   0
LINE
   5
1E5
 100
AcDbEntity
   8
LEVEL001
 100
AcDbLine
   6
CONTINUOUS
  62
2
  10
 315.22595215454
  20
 65.350254753485
  30
0.0
  11
 326.22595215454
  21
 54.350254753485
  31
0.0
   0
LINE
   5
1E6
 100
AcDbEntity
   8
LEVEL001
 100
AcDbLine
   6
CONTINUOUS
  62
2
  10
 318.05437927454
  20
 65.350254753485
  30
0.0
  11
 329.05437927454
  21
 54.350254753485
  31
0.0
   0
LINE
   5
1E7
 100
AcDbEntity
   8
LEVEL001
 100
AcDbLine
   6
CONTINUOUS
  62
2
  10
 320.88280639454
  20
 65.350254753485
  30
0.0
  11
 331.88280639454
  21
 54.350254753485
  31
0.0
   0
LINE
   5
1E8
 100
AcDbEntity
   8
LEVEL001
 100
AcDbLine
   6
CONTINUOUS
  62
2
  10
 323.71123351454
  20
 65.350254753485
  30
0.0
  11
 334.71123351454
  21
 54.350254753485
  31
0.0
   0
LINE
   5
1E9
 100
AcDbEntity
   8
LEVEL001
 100
AcDbLine
   6
CONTINUOUS
  62
2
  10
 326.53966063454
  20
 65.350254753485
  30
0.0
  11
 337.53966063454
  21
 54.350254753485
  31
0.0
   0
LINE
   5
1EA
 100
AcDbEntity
   8
LEVEL001
 100
AcDbLine
   6
CONTINUOUS
  62
2
  10
 329.36808775454
  20
 65.350254753485
  30
0.0
  11
 340.36808775454
  21
 54.350254753485
  31
0.0
   0
LINE
   5
1EB
 100
AcDbEntity
   8
LEVEL001
 100
AcDbLine
   6
CONTINUOUS
  62
2
  10
 332.19651487454
  20
 65.350254753485
  30
0.0
  11
 343.19651487454
  21
 54.350254753485
  31
0.0
   0
LINE
   5
1EC
 100
AcDbEntity
   8
LEVEL001
 100
AcDbLine
   6
CONTINUOUS
  62
2
  10
 335.02494199454
  20
 65.350254753485
  30
0.0
  11
 346.02494199454
  21
 54.350254753485
  31
0.0
   0
LINE
   5
1ED
 100
AcDbEntity
   8
LEVEL001
 100
AcDbLine
   6
CONTINUOUS
  62
2
  10
 337.85336911454
  20
 65.350254753485
  30
0.0
  11
 348.85336911454
  21
 54.350254753485
  31
0.0
   0
LINE
   5
1EE
 100
AcDbEntity
   8
LEVEL001
 100
AcDbLine
   6
CONTINUOUS
  62
2
  10
 340.68179623454
  20
 65.350254753485
  30
0.0
  11
 351.68179623454
  21
 54.350254753485
  31
0.0
   0
LINE
   5
1EF
 100
AcDbEntity
   8
LEVEL001
 100
AcDbLine
   6
CONTINUOUS
  62
2
  10
 343.51022335454
  20
 65.350254753485
  30
0.0
  11
 354.51022335454
  21
 54.350254753485
  31
0.0
   0
LINE
   5
1F0
 100
AcDbEntity
   8
LEVEL001
 100
AcDbLine
   6
CONTINUOUS
  62
2
  10
 346.33865047454
  20
 65.350254753485
  30
0.0
  11
 357.33865047454
  21
 54.350254753485
  31
0.0
   0
LINE
   5
1F1
 100
AcDbEntity
   8
LEVEL001
 100
AcDbLine
   6
CONTINUOUS
  62
2
  10
 349.16707759454
  20
 65.350254753485
  30
0.0
  11
 360.16707759454
  21
 54.350254753485
  31
0.0
   0
LINE
   5
1F2
 100
AcDbEntity
   8
LEVEL001
 100
AcDbLine
   6
CONTINUOUS
  62
2
  10
 351.99550471454
  20
 65.350254753485
  30
0.0
  11
 362.99550471454
  21
 54.350254753485
  31
0.0
   0
LINE
   5
1F3
 100
AcDbEntity
   8
LEVEL001
 100
AcDbLine
   6
CONTINUOUS
  62
2
  10
 354.82393183454
  20
 65.350254753485
  30
0.0
  11
 365.82393183454
  21
 54.350254753485
  31
0.0
   0
LINE
   5
1F4
 100
AcDbEntity
   8
LEVEL001
 100
AcDbLine
   6
CONTINUOUS
  62
2
  10
 357.65235895454
  20
 65.350254753485
  30
0.0
  11
 368.65235895454
  21
 54.350254753485
  31
0.0
   0
LINE
   5
1F5
 100
AcDbEntity
   8
LEVEL001
 100
AcDbLine
   6
CONTINUOUS
  62
2
  10
 360.48078607454
  20
 65.350254753485
  30
0.0
  11
 371.48078607454
  21
 54.350254753485
  31
0.0
   0
LINE
   5
1F6
 100
AcDbEntity
   8
LEVEL001
 100
AcDbLine
   6
CONTINUOUS
  62
2
  10
 363.30921319454
  20
 65.350254753485
  30
0.0
  11
 374.30921319454
  21
 54.350254753485
  31
0.0
   0
LINE
   5
1F7
 100
AcDbEntity
   8
LEVEL001
 100
AcDbLine
   6
CONTINUOUS
  62
2
  10
 366.13764031454
  20
 65.350254753485
  30
0.0
  11
 377.13764031454
  21
 54.350254753485
  31
0.0
   0
LINE
   5
1F8
 100
AcDbEntity
   8
LEVEL001
 100
AcDbLine
   6
CONTINUOUS
  62
2
  10
 368.96606743454
  20
 65.350254753485
  30
0.0
  11
 379.96606743454
  21
 54.350254753485
  31
0.0
   0
LINE
   5
1F9
 100
AcDbEntity
   8
LEVEL001
 100
AcDbLine
   6
CONTINUOUS
  62
2
  10
 371.79449455454
  20
 65.350254753485
  30
0.0
  11
 382.79449455454
  21
 54.350254753485
  31
0.0
   0
LINE
   5
1FA
 100
AcDbEntity
   8
LEVEL001
 100
AcDbLine
   6
CONTINUOUS
  62
2
  10
 374.62292167454
  20
 65.350254753485
  30
0.0
  11
 385.62292167454
  21
 54.350254753485
  31
0.0
   0
LINE
   5
1FB
 100
AcDbEntity
   8
LEVEL001
 100
AcDbLine
   6
CONTINUOUS
  62
2
  10
 377.45134879454
  20
 65.350254753485
  30
0.0
  11
 388.45134879454
  21
 54.350254753485
  31
0.0
   0
LINE
   5
1FC
 100
AcDbEntity
   8
LEVEL001
 100
AcDbLine
   6
CONTINUOUS
  62
2
  10
 380.27977591454
  20
 65.350254753485
  30
0.0
  11
 391.27977591454
  21
 54.350254753485
  31
0.0
   0
LINE
   5
1FD
 100
AcDbEntity
   8
LEVEL001
 100
AcDbLine
   6
CONTINUOUS
  62
2
  10
 383.10820303454
  20
 65.350254753485
  30
0.0
  11
 393.29834897030
  21
 55.160108817724
  31
0.0
   0
LINE
   5
1FE
 100
AcDbEntity
   8
LEVEL001
 100
AcDbLine
   6
CONTINUOUS
  62
2
  10
 385.93663015454
  20
 65.350254753485
  30
0.0
  11
 393.29834897030
  21
 57.988535937724
  31
0.0
   0
LINE
   5
1FF
 100
AcDbEntity
   8
LEVEL001
 100
AcDbLine
   6
CONTINUOUS
  62
2
  10
 388.76505727454
  20
 65.350254753485
  30
0.0
  11
 393.29834897030
  21
 60.816963057724
  31
0.0
   0
LINE
   5
200
 100
AcDbEntity
   8
LEVEL001
 100
AcDbLine
   6
CONTINUOUS
  62
2
  10
 391.59348439454
  20
 65.350254753485
  30
0.0
  11
 393.29834897030
  21
 63.645390177724
  31
0.0
   0
ENDBLK
   5
201
 100
AcDbEntity
   8
0
 100
AcDbBlockEnd
   0
BLOCK
   5
202
 100
AcDbEntity
   8
0
 100
AcDbBlockBegin
   2
HATCH004
  70
64
  10
0.0
  20
0.0
  30
0.0
   3
HATCH004
   0
LINE
   5
203
 100
AcDbEntity
   8
LEVEL001
 100
AcDbLine
   6
CONTINUOUS
  62
2
  10
 213.29834897031
  20
 73.443965798334
  30
0.0
  11
 214.95463792546
  21
 75.100254753486
  31
0.0
   0
LINE
   5
204
 100
AcDbEntity
   8
LEVEL001
 100
AcDbLine
   6
CONTINUOUS
  62
2
  10
 213.29834897031
  20
 71.322645458334
  30
0.0
  11
 217.07595826546
  21
 75.100254753486
  31
0.0
   0
LINE
   5
205
 100
AcDbEntity
   8
LEVEL001
 100
AcDbLine
   6
CONTINUOUS
  62
2
  10
 213.29834897031
  20
 69.201325118334
  30
0.0
  11
 219.19727860546
  21
 75.100254753486
  31
0.0
   0
LINE
   5
206
 100
AcDbEntity
   8
LEVEL001
 100
AcDbLine
   6
CONTINUOUS
  62
2
  10
 214.81859894546
  20
 68.600254753486
  30
0.0
  11
 219.29834897031
  21
 73.080004778334
  31
0.0
   0
LINE
   5
207
 100
AcDbEntity
   8
LEVEL001
 100
AcDbLine
   6
CONTINUOUS
  62
2
  10
 216.93991928546
  20
 68.600254753486
  30
0.0
  11
 219.29834897031
  21
 70.958684438334
  31
0.0
   0
LINE
   5
208
 100
AcDbEntity
   8
LEVEL001
 100
AcDbLine
   6
CONTINUOUS
  62
2
  10
 219.06123962546
  20
 68.600254753486
  30
0.0
  11
 219.29834897031
  21
 68.837364098334
  31
0.0
   0
ENDBLK
   5
209
 100
AcDbEntity
   8
0
 100
AcDbBlockEnd
   0
BLOCK
   5
20A
 100
AcDbEntity
   8
0
 100
AcDbBlockBegin
   2
*D27
  70
65
  10
0.0
  20
0.0
  30
0.0
   3
*D27
   0
LINE
   5
20B
 100
AcDbEntity
   8
LEVEL001
 100
AcDbLine
   6
CONTINUOUS
  62
3
  10
 209.07523154251
  20
 68.600254753486
  30
0.0
  11
 205.92077588183
  21
 68.600254753486
  31
0.0
   0
LINE
   5
20C
 100
AcDbEntity
   8
LEVEL001
 100
AcDbLine
   6
CONTINUOUS
  62
3
  10
 212.79834897031
  20
 75.100254753486
  30
0.0
  11
 205.92077588183
  21
 75.100254753486
  31
0.0
   0
LINE
   5
20D
 100
AcDbEntity
   8
LEVEL001
 100
AcDbLine
   6
CONTINUOUS
  62
3
  10
 206.92077588183
  20
 68.600254753486
  30
0.0
  11
 206.92077588183
  21
 71.850254753486
  31
0.0
   0
LINE
   5
20E
 100
AcDbEntity
   8
LEVEL001
 100
AcDbLine
   6
CONTINUOUS
  62
3
  10
 206.92077588183
  20
 75.100254753486
  30
0.0
  11
 206.92077588183
  21
 71.850254753486
  31
0.0
   0
INSERT
   5
20F
 100
AcDbEntity
   8
LEVEL001
   6
CONTINUOUS
  62
3
 100
AcDbBlockReference
   2
_OPEN30
  10
 206.92077588183
  20
 68.600254753486
  30
0.0
  41
 3.0000000000000
  42
 3.0000000000000
  43
 3.0000000000000
  50
 270.00000000000
   0
INSERT
   5
210
 100
AcDbEntity
   8
LEVEL001
   6
CONTINUOUS
  62
3
 100
AcDbBlockReference
   2
_OPEN30
  10
 206.92077588183
  20
 75.100254753486
  30
0.0
  41
 3.0000000000000
  42
 3.0000000000000
  43
 3.0000000000000
  50
 90.000000000000
   0
MTEXT
   5
211
 100
AcDbEntity
   8
LEVEL001
  62
3
 100
AcDbMText
  10
 205.42077588183
  20
 71.850254753486
  30
0.0
  40
 3.5000000000000
  41
0.0
  71
8
  72
1
   1
\A1;13
   7
GMM001
  11
0.0
  21
 1.0000000000000
  31
0.0
   0
ENDBLK
   5
212
 100
AcDbEntity
   8
0
 100
AcDbBlockEnd
   0
BLOCK
   5
213
 100
AcDbEntity
   8
0
 100
AcDbBlockBegin
   2
*D28
  70
65
  10
0.0
  20
0.0
  30
0.0
   3
*D28
   0
LINE
   5
214
 100
AcDbEntity
   8
LEVEL001
 100
AcDbLine
   6
CONTINUOUS
  62
3
  10
 197.98138483549
  20
 65.350254753485
  30
0.0
  11
 199.00073485605
  21
 65.350254753485
  31
0.0
   0
LINE
   5
215
 100
AcDbEntity
   8
LEVEL001
 100
AcDbLine
   6
CONTINUOUS
  62
3
  10
 204.29834897030
  20
 54.350254753485
  30
0.0
  11
 197.00073485605
  21
 54.350254753485
  31
0.0
   0
LINE
   5
216
 100
AcDbEntity
   8
LEVEL001
 100
AcDbLine
   6
CONTINUOUS
  62
3
  10
 198.00073485605
  20
 65.350254753485
  30
0.0
  11
 198.00073485605
  21
 59.850254753485
  31
0.0
   0
LINE
   5
217
 100
AcDbEntity
   8
LEVEL001
 100
AcDbLine
   6
CONTINUOUS
  62
3
  10
 198.00073485605
  20
 54.350254753485
  30
0.0
  11
 198.00073485605
  21
 59.850254753485
  31
0.0
   0
INSERT
   5
218
 100
AcDbEntity
   8
LEVEL001
   6
CONTINUOUS
  62
3
 100
AcDbBlockReference
   2
_OPEN30
  10
 198.00073485605
  20
 65.350254753485
  30
0.0
  41
 3.0000000000000
  42
 3.0000000000000
  43
 3.0000000000000
  50
 90.000000000000
   0
INSERT
   5
219
 100
AcDbEntity
   8
LEVEL001
   6
CONTINUOUS
  62
3
 100
AcDbBlockReference
   2
_OPEN30
  10
 198.00073485605
  20
 54.350254753485
  30
0.0
  41
 3.0000000000000
  42
 3.0000000000000
  43
 3.0000000000000
  50
 270.00000000000
   0
MTEXT
   5
21A
 100
AcDbEntity
   8
LEVEL001
  62
3
 100
AcDbMText
  10
 196.50073485605
  20
 59.850254753485
  30
0.0
  40
 3.5000000000000
  41
0.0
  71
8
  72
1
   1
\A1;22
   7
GMM001
  11
0.0
  21
 1.0000000000000
  31
0.0
   0
ENDBLK
   5
21B
 100
AcDbEntity
   8
0
 100
AcDbBlockEnd
   0
BLOCK
   5
21C
 100
AcDbEntity
   8
0
 100
AcDbBlockBegin
   2
HATCH005
  70
64
  10
0.0
  20
0.0
  30
0.0
   3
HATCH005
   0
LINE
   5
21D
 100
AcDbEntity
   8
LEVEL001
 100
AcDbLine
   6
CONTINUOUS
  62
2
  10
 204.86829840824
  20
 100.73166805690
  30
0.0
  11
 207.15429640743
  21
 98.445670057709
  31
0.0
   0
LINE
   5
21E
 100
AcDbEntity
   8
LEVEL001
 100
AcDbLine
   6
CONTINUOUS
  62
2
  10
 204.80831715787
  20
 103.62007642727
  30
0.0
  11
 210.05267296537
  21
 98.375720619774
  31
0.0
   0
LINE
   5
21F
 100
AcDbEntity
   8
LEVEL001
 100
AcDbLine
   6
CONTINUOUS
  62
2
  10
 205.71880773002
  20
 105.53801297512
  30
0.0
  11
 212.88110008537
  21
 98.375720619774
  31
0.0
   0
LINE
   5
220
 100
AcDbEntity
   8
LEVEL001
 100
AcDbLine
   6
CONTINUOUS
  62
2
  10
 207.71080480749
  20
 106.37444301766
  30
0.0
  11
 215.70952720537
  21
 98.375720619774
  31
0.0
   0
LINE
   5
221
 100
AcDbEntity
   8
LEVEL001
 100
AcDbLine
   6
CONTINUOUS
  62
2
  10
 210.53795432537
  20
 106.37572061977
  30
0.0
  11
 218.53795432537
  21
 98.375720619774
  31
0.0
   0
LINE
   5
222
 100
AcDbEntity
   8
LEVEL001
 100
AcDbLine
   6
CONTINUOUS
  62
2
  10
 213.36638144537
  20
 106.37572061977
  30
0.0
  11
 221.36638144537
  21
 98.375720619774
  31
0.0
   0
LINE
   5
223
 100
AcDbEntity
   8
LEVEL001
 100
AcDbLine
   6
CONTINUOUS
  62
2
  10
 216.19480856537
  20
 106.37572061977
  30
0.0
  11
 224.19480856537
  21
 98.375720619774
  31
0.0
   0
LINE
   5
224
 100
AcDbEntity
   8
LEVEL001
 100
AcDbLine
   6
CONTINUOUS
  62
2
  10
 219.02323568537
  20
 106.37572061977
  30
0.0
  11
 227.02323568537
  21
 98.375720619774
  31
0.0
   0
LINE
   5
225
 100
AcDbEntity
   8
LEVEL001
 100
AcDbLine
   6
CONTINUOUS
  62
2
  10
 221.85166280537
  20
 106.37572061977
  30
0.0
  11
 229.85166280537
  21
 98.375720619774
  31
0.0
   0
LINE
   5
226
 100
AcDbEntity
   8
LEVEL001
 100
AcDbLine
   6
CONTINUOUS
  62
2
  10
 224.68008992537
  20
 106.37572061977
  30
0.0
  11
 232.68008992537
  21
 98.375720619774
  31
0.0
   0
LINE
   5
227
 100
AcDbEntity
   8
LEVEL001
 100
AcDbLine
   6
CONTINUOUS
  62
2
  10
 227.50851704537
  20
 106.37572061977
  30
0.0
  11
 235.50851704537
  21
 98.375720619774
  31
0.0
   0
LINE
   5
228
 100
AcDbEntity
   8
LEVEL001
 100
AcDbLine
   6
CONTINUOUS
  62
2
  10
 230.33694416537
  20
 106.37572061977
  30
0.0
  11
 238.33694416537
  21
 98.375720619774
  31
0.0
   0
LINE
   5
229
 100
AcDbEntity
   8
LEVEL001
 100
AcDbLine
   6
CONTINUOUS
  62
2
  10
 233.16537128537
  20
 106.37572061977
  30
0.0
  11
 241.16537128537
  21
 98.375720619774
  31
0.0
   0
LINE
   5
22A
 100
AcDbEntity
   8
LEVEL001
 100
AcDbLine
   6
CONTINUOUS
  62
2
  10
 235.99379840537
  20
 106.37572061977
  30
0.0
  11
 243.99379840537
  21
 98.375720619774
  31
0.0
   0
LINE
   5
22B
 100
AcDbEntity
   8
LEVEL001
 100
AcDbLine
   6
CONTINUOUS
  62
2
  10
 238.82222552537
  20
 106.37572061977
  30
0.0
  11
 246.82222552537
  21
 98.375720619774
  31
0.0
   0
LINE
   5
22C
 100
AcDbEntity
   8
LEVEL001
 100
AcDbLine
   6
CONTINUOUS
  62
2
  10
 241.65065264537
  20
 106.37572061977
  30
0.0
  11
 249.65065264537
  21
 98.375720619774
  31
0.0
   0
LINE
   5
22D
 100
AcDbEntity
   8
LEVEL001
 100
AcDbLine
   6
CONTINUOUS
  62
2
  10
 244.47907976537
  20
 106.37572061977
  30
0.0
  11
 252.47907976537
  21
 98.375720619774
  31
0.0
   0
LINE
   5
22E
 100
AcDbEntity
   8
LEVEL001
 100
AcDbLine
   6
CONTINUOUS
  62
2
  10
 247.30750688537
  20
 106.37572061977
  30
0.0
  11
 255.30750688537
  21
 98.375720619774
  31
0.0
   0
LINE
   5
22F
 100
AcDbEntity
   8
LEVEL001
 100
AcDbLine
   6
CONTINUOUS
  62
2
  10
 250.13593400537
  20
 106.37572061977
  30
0.0
  11
 258.13593400537
  21
 98.375720619774
  31
0.0
   0
LINE
   5
230
 100
AcDbEntity
   8
LEVEL001
 100
AcDbLine
   6
CONTINUOUS
  62
2
  10
 252.96436112537
  20
 106.37572061977
  30
0.0
  11
 260.96436112537
  21
 98.375720619774
  31
0.0
   0
LINE
   5
231
 100
AcDbEntity
   8
LEVEL001
 100
AcDbLine
   6
CONTINUOUS
  62
2
  10
 255.79278824537
  20
 106.37572061977
  30
0.0
  11
 263.79278824537
  21
 98.375720619774
  31
0.0
   0
LINE
   5
232
 100
AcDbEntity
   8
LEVEL001
 100
AcDbLine
   6
CONTINUOUS
  62
2
  10
 258.62121536537
  20
 106.37572061977
  30
0.0
  11
 266.62121536537
  21
 98.375720619774
  31
0.0
   0
LINE
   5
233
 100
AcDbEntity
   8
LEVEL001
 100
AcDbLine
   6
CONTINUOUS
  62
2
  10
 261.44964248537
  20
 106.37572061977
  30
0.0
  11
 269.44964248537
  21
 98.375720619774
  31
0.0
   0
LINE
   5
234
 100
AcDbEntity
   8
LEVEL001
 100
AcDbLine
   6
CONTINUOUS
  62
2
  10
 264.27806960537
  20
 106.37572061977
  30
0.0
  11
 272.27806960537
  21
 98.375720619774
  31
0.0
   0
LINE
   5
235
 100
AcDbEntity
   8
LEVEL001
 100
AcDbLine
   6
CONTINUOUS
  62
2
  10
 267.10649672537
  20
 106.37572061977
  30
0.0
  11
 275.10649672537
  21
 98.375720619774
  31
0.0
   0
LINE
   5
236
 100
AcDbEntity
   8
LEVEL001
 100
AcDbLine
   6
CONTINUOUS
  62
2
  10
 269.93492384537
  20
 106.37572061977
  30
0.0
  11
 277.93492384537
  21
 98.375720619774
  31
0.0
   0
LINE
   5
237
 100
AcDbEntity
   8
LEVEL001
 100
AcDbLine
   6
CONTINUOUS
  62
2
  10
 272.76335096537
  20
 106.37572061977
  30
0.0
  11
 280.76335096537
  21
 98.375720619774
  31
0.0
   0
LINE
   5
238
 100
AcDbEntity
   8
LEVEL001
 100
AcDbLine
   6
CONTINUOUS
  62
2
  10
 275.59177808537
  20
 106.37572061977
  30
0.0
  11
 283.59177808537
  21
 98.375720619774
  31
0.0
   0
LINE
   5
239
 100
AcDbEntity
   8
LEVEL001
 100
AcDbLine
   6
CONTINUOUS
  62
2
  10
 278.42020520537
  20
 106.37572061977
  30
0.0
  11
 286.42020520537
  21
 98.375720619774
  31
0.0
   0
LINE
   5
23A
 100
AcDbEntity
   8
LEVEL001
 100
AcDbLine
   6
CONTINUOUS
  62
2
  10
 281.24863232537
  20
 106.37572061977
  30
0.0
  11
 289.24863232537
  21
 98.375720619774
  31
0.0
   0
LINE
   5
23B
 100
AcDbEntity
   8
LEVEL001
 100
AcDbLine
   6
CONTINUOUS
  62
2
  10
 284.07705944537
  20
 106.37572061977
  30
0.0
  11
 292.07705944537
  21
 98.375720619774
  31
0.0
   0
LINE
   5
23C
 100
AcDbEntity
   8
LEVEL001
 100
AcDbLine
   6
CONTINUOUS
  62
2
  10
 286.90548656537
  20
 106.37572061977
  30
0.0
  11
 294.90548656537
  21
 98.375720619774
  31
0.0
   0
LINE
   5
23D
 100
AcDbEntity
   8
LEVEL001
 100
AcDbLine
   6
CONTINUOUS
  62
2
  10
 289.73391368537
  20
 106.37572061977
  30
0.0
  11
 297.73391368537
  21
 98.375720619774
  31
0.0
   0
LINE
   5
23E
 100
AcDbEntity
   8
LEVEL001
 100
AcDbLine
   6
CONTINUOUS
  62
2
  10
 292.56234080537
  20
 106.37572061977
  30
0.0
  11
 300.56234080537
  21
 98.375720619774
  31
0.0
   0
LINE
   5
23F
 100
AcDbEntity
   8
LEVEL001
 100
AcDbLine
   6
CONTINUOUS
  62
2
  10
 295.39076792537
  20
 106.37572061977
  30
0.0
  11
 303.39076792537
  21
 98.375720619774
  31
0.0
   0
LINE
   5
240
 100
AcDbEntity
   8
LEVEL001
 100
AcDbLine
   6
CONTINUOUS
  62
2
  10
 298.21919504537
  20
 106.37572061977
  30
0.0
  11
 306.21919504537
  21
 98.375720619774
  31
0.0
   0
LINE
   5
241
 100
AcDbEntity
   8
LEVEL001
 100
AcDbLine
   6
CONTINUOUS
  62
2
  10
 301.04762216537
  20
 106.37572061977
  30
0.0
  11
 309.04762216537
  21
 98.375720619774
  31
0.0
   0
LINE
   5
242
 100
AcDbEntity
   8
LEVEL001
 100
AcDbLine
   6
CONTINUOUS
  62
2
  10
 303.87604928537
  20
 106.37572061977
  30
0.0
  11
 311.87604928537
  21
 98.375720619774
  31
0.0
   0
LINE
   5
243
 100
AcDbEntity
   8
LEVEL001
 100
AcDbLine
   6
CONTINUOUS
  62
2
  10
 306.70447640537
  20
 106.37572061977
  30
0.0
  11
 314.70447640537
  21
 98.375720619774
  31
0.0
   0
LINE
   5
244
 100
AcDbEntity
   8
LEVEL001
 100
AcDbLine
   6
CONTINUOUS
  62
2
  10
 309.53290352537
  20
 106.37572061977
  30
0.0
  11
 317.53290352537
  21
 98.375720619774
  31
0.0
   0
LINE
   5
245
 100
AcDbEntity
   8
LEVEL001
 100
AcDbLine
   6
CONTINUOUS
  62
2
  10
 312.36133064537
  20
 106.37572061977
  30
0.0
  11
 320.36133064537
  21
 98.375720619774
  31
0.0
   0
LINE
   5
246
 100
AcDbEntity
   8
LEVEL001
 100
AcDbLine
   6
CONTINUOUS
  62
2
  10
 315.18975776537
  20
 106.37572061977
  30
0.0
  11
 323.18975776537
  21
 98.375720619774
  31
0.0
   0
LINE
   5
247
 100
AcDbEntity
   8
LEVEL001
 100
AcDbLine
   6
CONTINUOUS
  62
2
  10
 318.01818488537
  20
 106.37572061977
  30
0.0
  11
 326.01818488537
  21
 98.375720619774
  31
0.0
   0
LINE
   5
248
 100
AcDbEntity
   8
LEVEL001
 100
AcDbLine
   6
CONTINUOUS
  62
2
  10
 320.84661200537
  20
 106.37572061977
  30
0.0
  11
 328.84661200537
  21
 98.375720619774
  31
0.0
   0
LINE
   5
249
 100
AcDbEntity
   8
LEVEL001
 100
AcDbLine
   6
CONTINUOUS
  62
2
  10
 323.67503912537
  20
 106.37572061977
  30
0.0
  11
 331.67503912537
  21
 98.375720619774
  31
0.0
   0
LINE
   5
24A
 100
AcDbEntity
   8
LEVEL001
 100
AcDbLine
   6
CONTINUOUS
  62
2
  10
 326.50346624537
  20
 106.37572061977
  30
0.0
  11
 334.50346624537
  21
 98.375720619774
  31
0.0
   0
LINE
   5
24B
 100
AcDbEntity
   8
LEVEL001
 100
AcDbLine
   6
CONTINUOUS
  62
2
  10
 329.33189336537
  20
 106.37572061977
  30
0.0
  11
 337.33189336537
  21
 98.375720619774
  31
0.0
   0
LINE
   5
24C
 100
AcDbEntity
   8
LEVEL001
 100
AcDbLine
   6
CONTINUOUS
  62
2
  10
 332.16032048537
  20
 106.37572061977
  30
0.0
  11
 340.16032048537
  21
 98.375720619774
  31
0.0
   0
LINE
   5
24D
 100
AcDbEntity
   8
LEVEL001
 100
AcDbLine
   6
CONTINUOUS
  62
2
  10
 334.98874760537
  20
 106.37572061977
  30
0.0
  11
 342.98874760537
  21
 98.375720619774
  31
0.0
   0
LINE
   5
24E
 100
AcDbEntity
   8
LEVEL001
 100
AcDbLine
   6
CONTINUOUS
  62
2
  10
 337.81717472537
  20
 106.37572061977
  30
0.0
  11
 345.81717472537
  21
 98.375720619774
  31
0.0
   0
LINE
   5
24F
 100
AcDbEntity
   8
LEVEL001
 100
AcDbLine
   6
CONTINUOUS
  62
2
  10
 340.64560184537
  20
 106.37572061977
  30
0.0
  11
 348.64560184537
  21
 98.375720619774
  31
0.0
   0
LINE
   5
250
 100
AcDbEntity
   8
LEVEL001
 100
AcDbLine
   6
CONTINUOUS
  62
2
  10
 343.47402896537
  20
 106.37572061977
  30
0.0
  11
 351.47402896537
  21
 98.375720619774
  31
0.0
   0
LINE
   5
251
 100
AcDbEntity
   8
LEVEL001
 100
AcDbLine
   6
CONTINUOUS
  62
2
  10
 346.30245608537
  20
 106.37572061977
  30
0.0
  11
 354.30245608537
  21
 98.375720619774
  31
0.0
   0
LINE
   5
252
 100
AcDbEntity
   8
LEVEL001
 100
AcDbLine
   6
CONTINUOUS
  62
2
  10
 349.13088320537
  20
 106.37572061977
  30
0.0
  11
 357.13088320537
  21
 98.375720619774
  31
0.0
   0
LINE
   5
253
 100
AcDbEntity
   8
LEVEL001
 100
AcDbLine
   6
CONTINUOUS
  62
2
  10
 351.95931032537
  20
 106.37572061977
  30
0.0
  11
 359.95931032537
  21
 98.375720619774
  31
0.0
   0
LINE
   5
254
 100
AcDbEntity
   8
LEVEL001
 100
AcDbLine
   6
CONTINUOUS
  62
2
  10
 354.78773744537
  20
 106.37572061977
  30
0.0
  11
 362.78773744537
  21
 98.375720619774
  31
0.0
   0
LINE
   5
255
 100
AcDbEntity
   8
LEVEL001
 100
AcDbLine
   6
CONTINUOUS
  62
2
  10
 357.61616456537
  20
 106.37572061977
  30
0.0
  11
 365.61616456537
  21
 98.375720619774
  31
0.0
   0
LINE
   5
256
 100
AcDbEntity
   8
LEVEL001
 100
AcDbLine
   6
CONTINUOUS
  62
2
  10
 360.44459168537
  20
 106.37572061977
  30
0.0
  11
 368.44459168537
  21
 98.375720619774
  31
0.0
   0
LINE
   5
257
 100
AcDbEntity
   8
LEVEL001
 100
AcDbLine
   6
CONTINUOUS
  62
2
  10
 363.27301880537
  20
 106.37572061977
  30
0.0
  11
 371.27301880537
  21
 98.375720619774
  31
0.0
   0
LINE
   5
258
 100
AcDbEntity
   8
LEVEL001
 100
AcDbLine
   6
CONTINUOUS
  62
2
  10
 366.10144592537
  20
 106.37572061977
  30
0.0
  11
 374.10144592537
  21
 98.375720619774
  31
0.0
   0
LINE
   5
259
 100
AcDbEntity
   8
LEVEL001
 100
AcDbLine
   6
CONTINUOUS
  62
2
  10
 368.92987304537
  20
 106.37572061977
  30
0.0
  11
 376.92987304537
  21
 98.375720619774
  31
0.0
   0
LINE
   5
25A
 100
AcDbEntity
   8
LEVEL001
 100
AcDbLine
   6
CONTINUOUS
  62
2
  10
 371.75830016537
  20
 106.37572061977
  30
0.0
  11
 379.75830016537
  21
 98.375720619774
  31
0.0
   0
LINE
   5
25B
 100
AcDbEntity
   8
LEVEL001
 100
AcDbLine
   6
CONTINUOUS
  62
2
  10
 374.58672728537
  20
 106.37572061977
  30
0.0
  11
 382.58672728537
  21
 98.375720619774
  31
0.0
   0
LINE
   5
25C
 100
AcDbEntity
   8
LEVEL001
 100
AcDbLine
   6
CONTINUOUS
  62
2
  10
 377.41515440537
  20
 106.37572061977
  30
0.0
  11
 385.41515440537
  21
 98.375720619774
  31
0.0
   0
LINE
   5
25D
 100
AcDbEntity
   8
LEVEL001
 100
AcDbLine
   6
CONTINUOUS
  62
2
  10
 380.24358152537
  20
 106.37572061977
  30
0.0
  11
 388.24358152537
  21
 98.375720619774
  31
0.0
   0
LINE
   5
25E
 100
AcDbEntity
   8
LEVEL001
 100
AcDbLine
   6
CONTINUOUS
  62
2
  10
 383.07200864537
  20
 106.37572061977
  30
0.0
  11
 390.99096179297
  21
 98.456767472174
  31
0.0
   0
LINE
   5
25F
 100
AcDbEntity
   8
LEVEL001
 100
AcDbLine
   6
CONTINUOUS
  62
2
  10
 385.90043576537
  20
 106.37572061977
  30
0.0
  11
 392.69924304653
  21
 99.576913338614
  31
0.0
   0
LINE
   5
260
 100
AcDbEntity
   8
LEVEL001
 100
AcDbLine
   6
CONTINUOUS
  62
2
  10
 388.72886288537
  20
 106.37572061977
  30
0.0
  11
 393.29834897030
  21
 101.80623453484
  31
0.0
   0
ENDBLK
   5
261
 100
AcDbEntity
   8
0
 100
AcDbBlockEnd
   0
BLOCK
   5
262
 100
AcDbEntity
   8
0
 100
AcDbBlockBegin
   2
*D29
  70
65
  10
0.0
  20
0.0
  30
0.0
   3
*D29
   0
LINE
   5
263
 100
AcDbEntity
   8
LEVEL001
 100
AcDbLine
   6
CONTINUOUS
  62
3
  10
 136.29834897030
  20
 94.375720619774
  30
0.0
  11
 136.29834897030
  21
 85.144209163877
  31
0.0
   0
LINE
   5
264
 100
AcDbEntity
   8
LEVEL001
 100
AcDbLine
   6
CONTINUOUS
  62
3
  10
 204.79834897030
  20
 97.875720619774
  30
0.0
  11
 204.79834897030
  21
 85.144209163877
  31
0.0
   0
LINE
   5
265
 100
AcDbEntity
   8
LEVEL001
 100
AcDbLine
   6
CONTINUOUS
  62
3
  10
 136.29834897030
  20
 86.144209163877
  30
0.0
  11
 170.54834897030
  21
 86.144209163877
  31
0.0
   0
LINE
   5
266
 100
AcDbEntity
   8
LEVEL001
 100
AcDbLine
   6
CONTINUOUS
  62
3
  10
 204.79834897030
  20
 86.144209163877
  30
0.0
  11
 170.54834897030
  21
 86.144209163877
  31
0.0
   0
INSERT
   5
267
 100
AcDbEntity
   8
LEVEL001
   6
CONTINUOUS
  62
3
 100
AcDbBlockReference
   2
_OPEN30
  10
 136.29834897030
  20
 86.144209163877
  30
0.0
  41
 3.0000000000000
  42
 3.0000000000000
  43
 3.0000000000000
  50
 180.00000000000
   0
INSERT
   5
268
 100
AcDbEntity
   8
LEVEL001
   6
CONTINUOUS
  62
3
 100
AcDbBlockReference
   2
_OPEN30
  10
 204.79834897030
  20
 86.144209163877
  30
0.0
  41
 3.0000000000000
  42
 3.0000000000000
  43
 3.0000000000000
  50
0.0
   0
MTEXT
   5
269
 100
AcDbEntity
   8
LEVEL001
  62
3
 100
AcDbMText
  10
 170.54834897030
  20
 87.644209163877
  30
0.0
  40
 3.5000000000000
  41
0.0
  71
8
  72
1
   1
\A1;137
   7
GMM001
   0
ENDBLK
   5
26A
 100
AcDbEntity
   8
0
 100
AcDbBlockEnd
   0
BLOCK
   5
26B
 100
AcDbEntity
   8
0
 100
AcDbBlockBegin
   2
*D30
  70
65
  10
0.0
  20
0.0
  30
0.0
   3
*D30
   0
LINE
   5
26C
 100
AcDbEntity
   8
LEVEL001
 100
AcDbLine
   6
CONTINUOUS
  62
3
  10
 393.29834897030
  20
 97.875720619774
  30
0.0
  11
 393.29834897030
  21
 85.144209163877
  31
0.0
   0
LINE
   5
26D
 100
AcDbEntity
   8
LEVEL001
 100
AcDbLine
   6
CONTINUOUS
  62
3
  10
 204.79834897030
  20
 86.144209163877
  30
0.0
  11
 299.04834897030
  21
 86.144209163877
  31
0.0
   0
LINE
   5
26E
 100
AcDbEntity
   8
LEVEL001
 100
AcDbLine
   6
CONTINUOUS
  62
3
  10
 393.29834897030
  20
 86.144209163877
  30
0.0
  11
 299.04834897030
  21
 86.144209163877
  31
0.0
   0
INSERT
   5
26F
 100
AcDbEntity
   8
LEVEL001
   6
CONTINUOUS
  62
3
 100
AcDbBlockReference
   2
_OPEN30
  10
 204.79834897030
  20
 86.144209163877
  30
0.0
  41
 3.0000000000000
  42
 3.0000000000000
  43
 3.0000000000000
  50
 180.00000000000
   0
INSERT
   5
270
 100
AcDbEntity
   8
LEVEL001
   6
CONTINUOUS
  62
3
 100
AcDbBlockReference
   2
_OPEN30
  10
 393.29834897030
  20
 86.144209163877
  30
0.0
  41
 3.0000000000000
  42
 3.0000000000000
  43
 3.0000000000000
  50
0.0
   0
MTEXT
   5
271
 100
AcDbEntity
   8
LEVEL001
  62
3
 100
AcDbMText
  10
 299.04834897030
  20
 87.644209163877
  30
0.0
  40
 3.5000000000000
  41
0.0
  71
8
  72
1
   1
\A1;377
   7
GMM001
   0
ENDBLK
   5
272
 100
AcDbEntity
   8
0
 100
AcDbBlockEnd
   0
BLOCK
   5
273
 100
AcDbEntity
   8
0
 100
AcDbBlockBegin
   2
*D31
  70
65
  10
0.0
  20
0.0
  30
0.0
   3
*D31
   0
LINE
   5
274
 100
AcDbEntity
   8
LEVEL001
 100
AcDbLine
   6
CONTINUOUS
  62
3
  10
 208.79834897030
  20
 105.49076831454
  30
0.0
  11
 208.79834897030
  21
 118.12937921827
  31
0.0
   0
LINE
   5
275
 100
AcDbEntity
   8
LEVEL001
 100
AcDbLine
   6
CONTINUOUS
  62
3
  10
 389.29834897030
  20
 105.27826368959
  30
0.0
  11
 389.29834897030
  21
 118.12937921827
  31
0.0
   0
LINE
   5
276
 100
AcDbEntity
   8
LEVEL001
 100
AcDbLine
   6
CONTINUOUS
  62
3
  10
 208.79834897030
  20
 117.12937921827
  30
0.0
  11
 299.04834897030
  21
 117.12937921827
  31
0.0
   0
LINE
   5
277
 100
AcDbEntity
   8
LEVEL001
 100
AcDbLine
   6
CONTINUOUS
  62
3
  10
 389.29834897030
  20
 117.12937921827
  30
0.0
  11
 299.04834897030
  21
 117.12937921827
  31
0.0
   0
INSERT
   5
278
 100
AcDbEntity
   8
LEVEL001
   6
CONTINUOUS
  62
3
 100
AcDbBlockReference
   2
_OPEN30
  10
 208.79834897030
  20
 117.12937921827
  30
0.0
  41
 3.0000000000000
  42
 3.0000000000000
  43
 3.0000000000000
  50
 180.00000000000
   0
INSERT
   5
279
 100
AcDbEntity
   8
LEVEL001
   6
CONTINUOUS
  62
3
 100
AcDbBlockReference
   2
_OPEN30
  10
 389.29834897030
  20
 117.12937921827
  30
0.0
  41
 3.0000000000000
  42
 3.0000000000000
  43
 3.0000000000000
  50
0.0
   0
MTEXT
   5
27A
 100
AcDbEntity
   8
LEVEL001
  62
3
 100
AcDbMText
  10
 299.04834897030
  20
 118.62937921827
  30
0.0
  40
 3.5000000000000
  41
0.0
  71
8
  72
1
   1
\A1;361
   7
GMM001
   0
ENDBLK
   5
27B
 100
AcDbEntity
   8
0
 100
AcDbBlockEnd
   0
BLOCK
   5
27C
 100
AcDbEntity
   8
0
 100
AcDbBlockBegin
   2
*D32
  70
65
  10
0.0
  20
0.0
  30
0.0
   3
*D32
   0
LINE
   5
27D
 100
AcDbEntity
   8
LEVEL001
 100
AcDbLine
   6
CONTINUOUS
  62
3
  10
 136.29834897030
  20
 110.37572061977
  30
0.0
  11
 136.29834897030
  21
 118.12937921827
  31
0.0
   0
LINE
   5
27E
 100
AcDbEntity
   8
LEVEL001
 100
AcDbLine
   6
CONTINUOUS
  62
3
  10
 136.29834897030
  20
 117.12937921827
  30
0.0
  11
 172.54834897030
  21
 117.12937921827
  31
0.0
   0
LINE
   5
27F
 100
AcDbEntity
   8
LEVEL001
 100
AcDbLine
   6
CONTINUOUS
  62
3
  10
 208.79834897030
  20
 117.12937921827
  30
0.0
  11
 172.54834897030
  21
 117.12937921827
  31
0.0
   0
INSERT
   5
280
 100
AcDbEntity
   8
LEVEL001
   6
CONTINUOUS
  62
3
 100
AcDbBlockReference
   2
_OPEN30
  10
 136.29834897030
  20
 117.12937921827
  30
0.0
  41
 3.0000000000000
  42
 3.0000000000000
  43
 3.0000000000000
  50
 180.00000000000
   0
INSERT
   5
281
 100
AcDbEntity
   8
LEVEL001
   6
CONTINUOUS
  62
3
 100
AcDbBlockReference
   2
_OPEN30
  10
 208.79834897030
  20
 117.12937921827
  30
0.0
  41
 3.0000000000000
  42
 3.0000000000000
  43
 3.0000000000000
  50
0.0
   0
MTEXT
   5
282
 100
AcDbEntity
   8
LEVEL001
  62
3
 100
AcDbMText
  10
 172.54834897030
  20
 118.62937921827
  30
0.0
  40
 3.5000000000000
  41
0.0
  71
8
  72
1
   1
\A1;145
   7
GMM001
   0
ENDBLK
   5
283
 100
AcDbEntity
   8
0
 100
AcDbBlockEnd
   0
BLOCK
   5
284
 100
AcDbEntity
   8
0
 100
AcDbBlockBegin
   2
*D33
  70
65
  10
0.0
  20
0.0
  30
0.0
   3
*D33
   0
POLYLINE
   5
285
 100
AcDbEntity
   8
LEVEL001
   6
CONTINUOUS
  62
3
 100
AcDb2dPolyline
  66
1
  10
0.0
  20
0.0
  30
0.0
  70
0
   0
VERTEX
   5
286
 100
AcDbEntity
   8
LEVEL001
   6
CONTINUOUS
  62
3
 100
AcDbVertex
 100
AcDb2dVertex
  10
 208.79834897030
  20
 102.37572061977
  30
0.0
   0
VERTEX
   5
287
 100
AcDbEntity
   8
LEVEL001
   6
CONTINUOUS
  62
3
 100
AcDbVertex
 100
AcDb2dVertex
  10
 222.74804952764
  20
 122.20540056826
  30
0.0
   0
VERTEX
   5
288
 100
AcDbEntity
   8
LEVEL001
   6
CONTINUOUS
  62
3
 100
AcDbVertex
 100
AcDb2dVertex
  10
 258.99804952764
  20
 122.20540056826
  30
0.0
   0
SEQEND
   5
289
 100
AcDbEntity
   8
LEVEL001
   6
CONTINUOUS
  62
3
   0
INSERT
   5
28A
 100
AcDbEntity
   8
LEVEL001
   6
CONTINUOUS
  62
3
 100
AcDbBlockReference
   2
_OPEN30
  10
 208.79834897030
  20
 102.37572061977
  30
0.0
  41
 3.0000000000000
  42
 3.0000000000000
  43
 3.0000000000000
  50
 234.87453996890
   0
MTEXT
   5
28B
 100
AcDbEntity
   8
LEVEL001
  62
3
 100
AcDbMText
  10
 222.74804952764
  20
 123.70540056826
  30
0.0
  40
 3.5000000000000
  41
0.0
  71
7
  72
1
   1
\A1;２－下穴（%%c３.５タッピン用）
   7
GMM001
   0
ENDBLK
   5
28C
 100
AcDbEntity
   8
0
 100
AcDbBlockEnd
   0
BLOCK
   5
28D
 100
AcDbEntity
   8
0
 100
AcDbBlockBegin
   2
*D34
  70
65
  10
0.0
  20
0.0
  30
0.0
   3
*D34
   0
LINE
   5
28E
 100
AcDbEntity
   8
LEVEL001
 100
AcDbLine
   6
CONTINUOUS
  62
3
  10
 207.79834897031
  20
 101.37572061977
  30
0.0
  11
 206.57942941642
  21
 100.50151519703
  31
0.0
   0
LINE
   5
28F
 100
AcDbEntity
   8
LEVEL001
 100
AcDbLine
   6
CONTINUOUS
  62
3
  10
 206.57942941642
  20
 100.50151519703
  30
0.0
  11
 195.08078127182
  21
 92.254719475165
  31
0.0
   0
INSERT
   5
290
 100
AcDbEntity
   8
LEVEL001
   6
CONTINUOUS
  62
3
 100
AcDbBlockReference
   2
_OPEN30
  10
 205.36050986254
  20
 99.627309774281
  30
0.0
  41
 3.0000000000000
  42
 3.0000000000000
  43
 3.0000000000000
  50
 35.647976567636
   0
MTEXT
   5
291
 100
AcDbEntity
   8
LEVEL001
  62
3
 100
AcDbMText
  10
 202.33270620830
  20
 99.301675180692
  30
0.0
  40
 3.5000000000000
  41
0.0
  71
9
  72
1
   1
\A1;4-R6
   7
GMM001
  11
 0.81261303592266
  21
 0.58280361516428
  31
0.0
   0
ENDBLK
   5
292
 100
AcDbEntity
   8
0
 100
AcDbBlockEnd
   0
ENDSEC
   0
SECTION
   2
ENTITIES
   0
CIRCLE
   5
293
 100
AcDbEntity
   8
LEVEL001
 100
AcDbCircle
   6
CONTINUOUS
  62
7
  10
 50.247666553884
  20
 122.33019130642
  30
0.0
  40
 2.1000000000000
   0
CIRCLE
   5
294
 100
AcDbEntity
   8
LEVEL001
 100
AcDbCircle
   6
CONTINUOUS
  62
7
  10
 74.247666553884
  20
 122.33019130642
  30
0.0
  40
 2.1000000000000
   0
LINE
   5
295
 100
AcDbEntity
   8
LEVEL001
 100
AcDbLine
   6
DASHDOT
  62
3
  10
 74.247666553884
  20
 126.23792926631
  30
0.0
  11
 74.247666553884
  21
 118.42245334652
  31
0.0
   0
LINE
   5
296
 100
AcDbEntity
   8
LEVEL001
 100
AcDbLine
   6
DASHDOT
  62
3
  10
 50.247666553884
  20
 126.23792926631
  30
0.0
  11
 50.247666553884
  21
 118.42245334652
  31
0.0
   0
LINE
   5
297
 100
AcDbEntity
   8
LEVEL001
 100
AcDbLine
   6
DASHDOT
  62
3
  10
 62.247666553884
  20
 130.74821360434
  30
0.0
  11
 62.247666553884
  21
 113.91216900849
  31
0.0
   0
LINE
   5
298
 100
AcDbEntity
   8
LEVEL001
 100
AcDbLine
   6
DASHDOT
  62
3
  10
 83.693626994604
  20
 122.33019130642
  30
0.0
  11
 42.686819282854
  21
 122.33019130642
  31
0.0
   0
LINE
   5
299
 100
AcDbEntity
   8
LEVEL001
 100
AcDbLine
   6
DASHDOT
  62
3
  10
 59.497666553884
  20
 126.23792926631
  30
0.0
  11
 59.497666553884
  21
 118.42245334652
  31
0.0
   0
ARC
   5
29A
 100
AcDbEntity
   8
LEVEL001
   6
CONTINUOUS
  62
7
 100
AcDbCircle
  10
 44.747666553884
  20
 127.83019130642
  30
0.0
  40
 0.50000000000000
 100
AcDbArc
  50
 90.000000000000
  51
 180.00000000002
   0
POINT
   5
29B
 100
AcDbEntity
   8
LEVEL001
 100
AcDbPoint
  62
7
  10
 44.247666553884
  20
 128.33019130642
  30
0.0
   0
ARC
   5
29C
 100
AcDbEntity
   8
LEVEL001
   6
CONTINUOUS
  62
7
 100
AcDbCircle
  10
 79.747666553884
  20
 127.83019130642
  30
0.0
  40
 0.50000000000000
 100
AcDbArc
  50
0.0
  51
 90.000000000000
   0
POINT
   5
29D
 100
AcDbEntity
   8
LEVEL001
 100
AcDbPoint
  62
7
  10
 80.247666553884
  20
 128.33019130642
  30
0.0
   0
ARC
   5
29E
 100
AcDbEntity
   8
LEVEL001
   6
CONTINUOUS
  62
7
 100
AcDbCircle
  10
 79.747666553882
  20
 116.83019130642
  30
0.0
  40
 0.50000000000000
 100
AcDbArc
  50
 270.00000000014
  51
0.0
   0
POINT
   5
29F
 100
AcDbEntity
   8
LEVEL001
 100
AcDbPoint
  62
7
  10
 80.247666553884
  20
 116.33019130642
  30
0.0
   0
LINE
   5
2A0
 100
AcDbEntity
   8
LEVEL001
 100
AcDbLine
   6
CONTINUOUS
  62
7
  10
 80.247666553884
  20
 127.83019130642
  30
0.0
  11
 80.247666553884
  21
 116.83019130642
  31
0.0
   0
ARC
   5
2A1
 100
AcDbEntity
   8
LEVEL001
   6
CONTINUOUS
  62
7
 100
AcDbCircle
  10
 44.747666553884
  20
 116.83019130642
  30
0.0
  40
 0.50000000000000
 100
AcDbArc
  50
 180.00000000000
  51
 270.00000000000
   0
POINT
   5
2A2
 100
AcDbEntity
   8
LEVEL001
 100
AcDbPoint
  62
7
  10
 44.247666553884
  20
 116.33019130642
  30
0.0
   0
LINE
   5
2A3
 100
AcDbEntity
   8
LEVEL001
 100
AcDbLine
   6
CONTINUOUS
  62
7
  10
 44.247666553884
  20
 116.83019130642
  30
0.0
  11
 44.247666553884
  21
 127.83019130642
  31
0.0
   0
POINT
   5
2A4
 100
AcDbEntity
   8
LEVEL001
 100
AcDbPoint
  62
7
  10
 63.847666553884
  20
 128.33019130642
  30
0.0
   0
ARC
   5
2A5
 100
AcDbEntity
   8
LEVEL001
   6
CONTINUOUS
  62
7
 100
AcDbCircle
  10
 64.347666553884
  20
 127.83019130642
  30
0.0
  40
 0.50000000000000
 100
AcDbArc
  50
 90.000000000000
  51
 180.00000000001
   0
LINE
   5
2A6
 100
AcDbEntity
   8
LEVEL001
 100
AcDbLine
   6
CONTINUOUS
  62
7
  10
 64.347666553884
  20
 128.33019130642
  30
0.0
  11
 79.747666553884
  21
 128.33019130642
  31
0.0
   0
LINE
   5
2A7
 100
AcDbEntity
   8
LEVEL001
 100
AcDbLine
   6
CONTINUOUS
  62
15
  10
 63.747666553884
  20
 128.13966632573
  30
0.0
  11
 63.747666553884
  21
 127.62169392855
  31
0.0
   0
LINE
   5
2A8
 100
AcDbEntity
   8
LEVEL001
 100
AcDbLine
   6
CONTINUOUS
  62
15
  10
 60.747666553884
  20
 128.13966632573
  30
0.0
  11
 60.747666553884
  21
 127.62169392855
  31
0.0
   0
ARC
   5
2A9
 100
AcDbEntity
   8
LEVEL001
   6
CONTINUOUS
  62
7
 100
AcDbCircle
  10
 60.147666553884
  20
 127.83019130642
  30
0.0
  40
 0.50000000000000
 100
AcDbArc
  50
 0.65137759876373E-11
  51
 90.000000000000
   0
POINT
   5
2AA
 100
AcDbEntity
   8
LEVEL001
 100
AcDbPoint
  62
7
  10
 60.647666553884
  20
 128.33019130642
  30
0.0
   0
LINE
   5
2AB
 100
AcDbEntity
   8
LEVEL001
 100
AcDbLine
   6
CONTINUOUS
  62
7
  10
 44.747666553884
  20
 128.33019130642
  30
0.0
  11
 60.147666553884
  21
 128.33019130642
  31
0.0
   0
LINE
   5
2AC
 100
AcDbEntity
   8
LEVEL001
 100
AcDbLine
   6
CONTINUOUS
  62
7
  10
 60.647666553884
  20
 127.83019130642
  30
0.0
  11
 60.647666553884
  21
 127.48771008971
  31
0.0
   0
ARC
   5
2AD
 100
AcDbEntity
   8
LEVEL001
   6
CONTINUOUS
  62
15
 100
AcDbCircle
  10
 62.247666553884
  20
 122.33019130642
  30
0.0
  40
 6.0000000000000
 100
AcDbArc
  50
 73.799595236158
  51
 106.20040476384
   0
ARC
   5
2AE
 100
AcDbEntity
   8
LEVEL001
   6
CONTINUOUS
  62
15
 100
AcDbCircle
  10
 62.247666553883
  20
 122.33019130642
  30
0.0
  40
 5.5000000000000
 100
AcDbArc
  50
 73.087610196572
  51
 106.91238980342
   0
ARC
   5
2AF
 100
AcDbEntity
   8
LEVEL001
   6
CONTINUOUS
  62
7
 100
AcDbCircle
  10
 64.347666553884
  20
 116.83019130642
  30
0.0
  40
 0.50000000000000
 100
AcDbArc
  50
 180.00000000000
  51
 270.00000000001
   0
POINT
   5
2B0
 100
AcDbEntity
   8
LEVEL001
 100
AcDbPoint
  62
7
  10
 63.847666553884
  20
 116.33019130642
  30
0.0
   0
LINE
   5
2B1
 100
AcDbEntity
   8
LEVEL001
 100
AcDbLine
   6
CONTINUOUS
  62
7
  10
 79.747666553884
  20
 116.33019130642
  30
0.0
  11
 64.347666553883
  21
 116.33019130642
  31
0.0
   0
LINE
   5
2B2
 100
AcDbEntity
   8
LEVEL001
 100
AcDbLine
   6
CONTINUOUS
  62
15
  10
 63.747666553884
  20
 117.03896667858
  30
0.0
  11
 63.747666553884
  21
 116.52071628710
  31
0.0
   0
ARC
   5
2B3
 100
AcDbEntity
   8
LEVEL001
   6
CONTINUOUS
  62
7
 100
AcDbCircle
  10
 60.147666553884
  20
 116.83019130642
  30
0.0
  40
 0.50000000000000
 100
AcDbArc
  50
 269.99999999997
  51
0.0
   0
POINT
   5
2B4
 100
AcDbEntity
   8
LEVEL001
 100
AcDbPoint
  62
7
  10
 60.647666553884
  20
 116.33019130642
  30
0.0
   0
LINE
   5
2B5
 100
AcDbEntity
   8
LEVEL001
 100
AcDbLine
   6
CONTINUOUS
  62
7
  10
 60.147666553884
  20
 116.33019130642
  30
0.0
  11
 44.747666553884
  21
 116.33019130642
  31
0.0
   0
LINE
   5
2B6
 100
AcDbEntity
   8
LEVEL001
 100
AcDbLine
   6
CONTINUOUS
  62
7
  10
 60.647666553884
  20
 117.17267252313
  30
0.0
  11
 60.647666553884
  21
 116.83019130642
  31
0.0
   0
LINE
   5
2B7
 100
AcDbEntity
   8
LEVEL001
 100
AcDbLine
   6
CONTINUOUS
  62
15
  10
 60.747666553884
  20
 117.03868868429
  30
0.0
  11
 60.747666553884
  21
 116.52071628710
  31
0.0
   0
ARC
   5
2B8
 100
AcDbEntity
   8
LEVEL001
   6
CONTINUOUS
  62
15
 100
AcDbCircle
  10
 62.247666553883
  20
 122.33019130642
  30
0.0
  40
 5.5000000000000
 100
AcDbArc
  50
 253.08761019658
  51
 286.91238980343
   0
ARC
   5
2B9
 100
AcDbEntity
   8
LEVEL001
   6
CONTINUOUS
  62
15
 100
AcDbCircle
  10
 62.247666553885
  20
 122.33019130642
  30
0.0
  40
 6.0000000000000
 100
AcDbArc
  50
 253.79959523615
  51
 286.20040476383
   0
ARC
   5
2BA
 100
AcDbEntity
   8
LEVEL001
   6
CONTINUOUS
  62
7
 100
AcDbCircle
  10
 62.247666553884
  20
 122.33019130642
  30
0.0
  40
 5.4000000000000
 100
AcDbArc
  50
 72.764714742913
  51
 107.23528525709
   0
LINE
   5
2BB
 100
AcDbEntity
   8
LEVEL001
 100
AcDbLine
   6
CONTINUOUS
  62
7
  10
 63.847666553884
  20
 127.83019130642
  30
0.0
  11
 63.847666553884
  21
 127.48771008971
  31
0.0
   0
ARC
   5
2BC
 100
AcDbEntity
   8
LEVEL001
   6
CONTINUOUS
  62
7
 100
AcDbCircle
  10
 62.247666553884
  20
 122.33019130642
  30
0.0
  40
 5.4000000000000
 100
AcDbArc
  50
 252.76471474291
  51
 287.23528525709
   0
LINE
   5
2BD
 100
AcDbEntity
   8
LEVEL001
 100
AcDbLine
   6
CONTINUOUS
  62
7
  10
 63.847666553884
  20
 117.17267252313
  30
0.0
  11
 63.847666553884
  21
 116.83019130642
  31
0.0
   0
LINE
   5
2BE
 100
AcDbEntity
   8
LEVEL001
 100
AcDbLine
   6
CONTINUOUS
  62
7
  10
 66.997666553884
  20
 127.13019130642
  30
0.0
  11
 62.997666553884
  21
 127.13019130642
  31
0.0
   0
LINE
   5
2BF
 100
AcDbEntity
   8
LEVEL001
 100
AcDbLine
   6
CONTINUOUS
  62
7
  10
 62.997666553884
  20
 117.53019130642
  30
0.0
  11
 66.997666553884
  21
 117.53019130642
  31
0.0
   0
LINE
   5
2C0
 100
AcDbEntity
   8
LEVEL001
 100
AcDbLine
   6
CONTINUOUS
  62
7
  10
 66.997666553884
  20
 127.13019130642
  30
0.0
  11
 66.997666553884
  21
 117.53019130642
  31
0.0
   0
LINE
   5
2C1
 100
AcDbEntity
   8
LEVEL001
 100
AcDbLine
   6
CONTINUOUS
  62
7
  10
 62.997666553884
  20
 127.13019130642
  30
0.0
  11
 62.997666553884
  21
 117.53019130642
  31
0.0
   0
CIRCLE
   5
2C2
 100
AcDbEntity
   8
LEVEL001
 100
AcDbCircle
   6
CONTINUOUS
  62
7
  10
 59.497666553884
  20
 122.33019130642
  30
0.0
  40
 3.0000000000000
   0
ARC
   5
2C3
 100
AcDbEntity
   8
LEVEL001
   6
CONTINUOUS
  62
7
 100
AcDbCircle
  10
 59.497666553884
  20
 122.33019130642
  30
0.0
  40
 2.0090681839876
 100
AcDbArc
  50
 75.589251056638
  51
 104.41074894336
   0
LINE
   5
2C4
 100
AcDbEntity
   8
LEVEL001
 100
AcDbLine
   6
CONTINUOUS
  62
7
  10
 59.997666553884
  20
 124.27604715100
  30
0.0
  11
 59.997666553884
  21
 123.33019130642
  31
0.0
   0
ARC
   5
2C5
 100
AcDbEntity
   8
LEVEL001
   6
CONTINUOUS
  62
7
 100
AcDbCircle
  10
 60.497666553884
  20
 123.33019130642
  30
0.0
  40
 0.50000000000000
 100
AcDbArc
  50
 180.00000000000
  51
 270.00000000000
   0
POINT
   5
2C6
 100
AcDbEntity
   8
LEVEL001
 100
AcDbPoint
  62
7
  10
 59.997666553884
  20
 122.83019130642
  30
0.0
   0
ARC
   5
2C7
 100
AcDbEntity
   8
LEVEL001
   6
CONTINUOUS
  62
7
 100
AcDbCircle
  10
 59.497666553884
  20
 122.33019130642
  30
0.0
  40
 2.0090681839876
 100
AcDbArc
  50
 345.58925105664
  51
 14.410748943362
   0
LINE
   5
2C8
 100
AcDbEntity
   8
LEVEL001
 100
AcDbLine
   6
CONTINUOUS
  62
7
  10
 60.497666553884
  20
 122.83019130642
  30
0.0
  11
 61.443522398470
  21
 122.83019130642
  31
0.0
   0
LINE
   5
2C9
 100
AcDbEntity
   8
LEVEL001
 100
AcDbLine
   6
CONTINUOUS
  62
7
  10
 60.497666553884
  20
 121.83019130642
  30
0.0
  11
 61.443522398470
  21
 121.83019130642
  31
0.0
   0
ARC
   5
2CA
 100
AcDbEntity
   8
LEVEL001
   6
CONTINUOUS
  62
7
 100
AcDbCircle
  10
 60.497666553884
  20
 121.33019130642
  30
0.0
  40
 0.50000000000000
 100
AcDbArc
  50
 90.000000000000
  51
 180.00000000000
   0
POINT
   5
2CB
 100
AcDbEntity
   8
LEVEL001
 100
AcDbPoint
  62
7
  10
 59.997666553884
  20
 121.83019130642
  30
0.0
   0
ARC
   5
2CC
 100
AcDbEntity
   8
LEVEL001
   6
CONTINUOUS
  62
7
 100
AcDbCircle
  10
 59.497666553884
  20
 122.33019130642
  30
0.0
  40
 2.0090681839876
 100
AcDbArc
  50
 255.58925105664
  51
 284.41074894336
   0
LINE
   5
2CD
 100
AcDbEntity
   8
LEVEL001
 100
AcDbLine
   6
CONTINUOUS
  62
7
  10
 59.997666553884
  20
 121.33019130642
  30
0.0
  11
 59.997666553884
  21
 120.38433546183
  31
0.0
   0
ARC
   5
2CE
 100
AcDbEntity
   8
LEVEL001
   6
CONTINUOUS
  62
7
 100
AcDbCircle
  10
 58.497666553884
  20
 121.33019130642
  30
0.0
  40
 0.50000000000000
 100
AcDbArc
  50
0.0
  51
 90.000000000000
   0
POINT
   5
2CF
 100
AcDbEntity
   8
LEVEL001
 100
AcDbPoint
  62
7
  10
 58.997666553884
  20
 121.83019130642
  30
0.0
   0
LINE
   5
2D0
 100
AcDbEntity
   8
LEVEL001
 100
AcDbLine
   6
CONTINUOUS
  62
7
  10
 58.997666553884
  20
 121.33019130642
  30
0.0
  11
 58.997666553884
  21
 120.38433546183
  31
0.0
   0
LINE
   5
2D1
 100
AcDbEntity
   8
LEVEL001
 100
AcDbLine
   6
CONTINUOUS
  62
7
  10
 57.551810709297
  20
 122.83019130642
  30
0.0
  11
 58.497666553884
  21
 122.83019130642
  31
0.0
   0
ARC
   5
2D2
 100
AcDbEntity
   8
LEVEL001
   6
CONTINUOUS
  62
7
 100
AcDbCircle
  10
 58.497666553884
  20
 123.33019130642
  30
0.0
  40
 0.50000000000000
 100
AcDbArc
  50
 270.00000000000
  51
0.0
   0
POINT
   5
2D3
 100
AcDbEntity
   8
LEVEL001
 100
AcDbPoint
  62
7
  10
 58.997666553884
  20
 122.83019130642
  30
0.0
   0
LINE
   5
2D4
 100
AcDbEntity
   8
LEVEL001
 100
AcDbLine
   6
CONTINUOUS
  62
7
  10
 58.997666553884
  20
 124.27604715100
  30
0.0
  11
 58.997666553884
  21
 123.33019130642
  31
0.0
   0
ARC
   5
2D5
 100
AcDbEntity
   8
LEVEL001
   6
CONTINUOUS
  62
7
 100
AcDbCircle
  10
 59.497666553884
  20
 122.33019130642
  30
0.0
  40
 2.0090681839876
 100
AcDbArc
  50
 165.58925105664
  51
 194.41074894336
   0
LINE
   5
2D6
 100
AcDbEntity
   8
LEVEL001
 100
AcDbLine
   6
CONTINUOUS
  62
7
  10
 57.551810709297
  20
 121.83019130642
  30
0.0
  11
 58.497666553884
  21
 121.83019130642
  31
0.0
   0
CIRCLE
   5
2D7
 100
AcDbEntity
   8
LEVEL001
 100
AcDbCircle
   6
CONTINUOUS
  62
7
  10
 50.247666553884
  20
 143.33019130642
  30
0.0
  40
 2.1000000000000
   0
CIRCLE
   5
2D8
 100
AcDbEntity
   8
LEVEL001
 100
AcDbCircle
   6
CONTINUOUS
  62
7
  10
 74.247666553884
  20
 143.33019130642
  30
0.0
  40
 2.1000000000000
   0
LINE
   5
2D9
 100
AcDbEntity
   8
LEVEL001
 100
AcDbLine
   6
DASHDOT
  62
3
  10
 74.247666553884
  20
 147.23792926631
  30
0.0
  11
 74.247666553884
  21
 139.42245334652
  31
0.0
   0
LINE
   5
2DA
 100
AcDbEntity
   8
LEVEL001
 100
AcDbLine
   6
DASHDOT
  62
3
  10
 50.247666553884
  20
 147.23792926631
  30
0.0
  11
 50.247666553884
  21
 139.42245334652
  31
0.0
   0
LINE
   5
2DB
 100
AcDbEntity
   8
LEVEL001
 100
AcDbLine
   6
DASHDOT
  62
3
  10
 62.247666553884
  20
 151.74821360434
  30
0.0
  11
 62.247666553884
  21
 134.91216900849
  31
0.0
   0
LINE
   5
2DC
 100
AcDbEntity
   8
LEVEL001
 100
AcDbLine
   6
DASHDOT
  62
3
  10
 83.693626994604
  20
 143.33019130642
  30
0.0
  11
 42.686819282854
  21
 143.33019130642
  31
0.0
   0
LINE
   5
2DD
 100
AcDbEntity
   8
LEVEL001
 100
AcDbLine
   6
DASHDOT
  62
3
  10
 59.497666553884
  20
 147.23792926631
  30
0.0
  11
 59.497666553884
  21
 139.42245334652
  31
0.0
   0
ARC
   5
2DE
 100
AcDbEntity
   8
LEVEL001
   6
CONTINUOUS
  62
7
 100
AcDbCircle
  10
 44.747666553884
  20
 148.83019130642
  30
0.0
  40
 0.50000000000000
 100
AcDbArc
  50
 90.000000000000
  51
 180.00000000002
   0
POINT
   5
2DF
 100
AcDbEntity
   8
LEVEL001
 100
AcDbPoint
  62
7
  10
 44.247666553884
  20
 149.33019130642
  30
0.0
   0
ARC
   5
2E0
 100
AcDbEntity
   8
LEVEL001
   6
CONTINUOUS
  62
7
 100
AcDbCircle
  10
 79.747666553884
  20
 148.83019130642
  30
0.0
  40
 0.50000000000000
 100
AcDbArc
  50
0.0
  51
 90.000000000000
   0
POINT
   5
2E1
 100
AcDbEntity
   8
LEVEL001
 100
AcDbPoint
  62
7
  10
 80.247666553884
  20
 149.33019130642
  30
0.0
   0
ARC
   5
2E2
 100
AcDbEntity
   8
LEVEL001
   6
CONTINUOUS
  62
7
 100
AcDbCircle
  10
 79.747666553882
  20
 137.83019130642
  30
0.0
  40
 0.50000000000000
 100
AcDbArc
  50
 270.00000000014
  51
0.0
   0
POINT
   5
2E3
 100
AcDbEntity
   8
LEVEL001
 100
AcDbPoint
  62
7
  10
 80.247666553884
  20
 137.33019130642
  30
0.0
   0
LINE
   5
2E4
 100
AcDbEntity
   8
LEVEL001
 100
AcDbLine
   6
CONTINUOUS
  62
7
  10
 80.247666553884
  20
 148.83019130642
  30
0.0
  11
 80.247666553884
  21
 137.83019130642
  31
0.0
   0
ARC
   5
2E5
 100
AcDbEntity
   8
LEVEL001
   6
CONTINUOUS
  62
7
 100
AcDbCircle
  10
 44.747666553884
  20
 137.83019130642
  30
0.0
  40
 0.50000000000000
 100
AcDbArc
  50
 180.00000000000
  51
 270.00000000000
   0
POINT
   5
2E6
 100
AcDbEntity
   8
LEVEL001
 100
AcDbPoint
  62
7
  10
 44.247666553884
  20
 137.33019130642
  30
0.0
   0
LINE
   5
2E7
 100
AcDbEntity
   8
LEVEL001
 100
AcDbLine
   6
CONTINUOUS
  62
7
  10
 44.247666553884
  20
 137.83019130642
  30
0.0
  11
 44.247666553884
  21
 148.83019130642
  31
0.0
   0
POINT
   5
2E8
 100
AcDbEntity
   8
LEVEL001
 100
AcDbPoint
  62
7
  10
 63.847666553884
  20
 149.33019130642
  30
0.0
   0
ARC
   5
2E9
 100
AcDbEntity
   8
LEVEL001
   6
CONTINUOUS
  62
7
 100
AcDbCircle
  10
 64.347666553884
  20
 148.83019130642
  30
0.0
  40
 0.50000000000000
 100
AcDbArc
  50
 90.000000000000
  51
 180.00000000001
   0
LINE
   5
2EA
 100
AcDbEntity
   8
LEVEL001
 100
AcDbLine
   6
CONTINUOUS
  62
7
  10
 64.347666553884
  20
 149.33019130642
  30
0.0
  11
 79.747666553884
  21
 149.33019130642
  31
0.0
   0
LINE
   5
2EB
 100
AcDbEntity
   8
LEVEL001
 100
AcDbLine
   6
CONTINUOUS
  62
15
  10
 63.747666553884
  20
 149.13966632573
  30
0.0
  11
 63.747666553884
  21
 148.62169392855
  31
0.0
   0
LINE
   5
2EC
 100
AcDbEntity
   8
LEVEL001
 100
AcDbLine
   6
CONTINUOUS
  62
15
  10
 60.747666553884
  20
 149.13966632573
  30
0.0
  11
 60.747666553884
  21
 148.62169392855
  31
0.0
   0
ARC
   5
2ED
 100
AcDbEntity
   8
LEVEL001
   6
CONTINUOUS
  62
7
 100
AcDbCircle
  10
 60.147666553884
  20
 148.83019130642
  30
0.0
  40
 0.50000000000000
 100
AcDbArc
  50
 0.65137759876373E-11
  51
 90.000000000000
   0
POINT
   5
2EE
 100
AcDbEntity
   8
LEVEL001
 100
AcDbPoint
  62
7
  10
 60.647666553884
  20
 149.33019130642
  30
0.0
   0
LINE
   5
2EF
 100
AcDbEntity
   8
LEVEL001
 100
AcDbLine
   6
CONTINUOUS
  62
7
  10
 44.747666553884
  20
 149.33019130642
  30
0.0
  11
 60.147666553884
  21
 149.33019130642
  31
0.0
   0
LINE
   5
2F0
 100
AcDbEntity
   8
LEVEL001
 100
AcDbLine
   6
CONTINUOUS
  62
7
  10
 60.647666553884
  20
 148.83019130642
  30
0.0
  11
 60.647666553884
  21
 148.48771008971
  31
0.0
   0
ARC
   5
2F1
 100
AcDbEntity
   8
LEVEL001
   6
CONTINUOUS
  62
15
 100
AcDbCircle
  10
 62.247666553884
  20
 143.33019130642
  30
0.0
  40
 6.0000000000000
 100
AcDbArc
  50
 73.799595236158
  51
 106.20040476384
   0
ARC
   5
2F2
 100
AcDbEntity
   8
LEVEL001
   6
CONTINUOUS
  62
15
 100
AcDbCircle
  10
 62.247666553883
  20
 143.33019130642
  30
0.0
  40
 5.5000000000000
 100
AcDbArc
  50
 73.087610196572
  51
 106.91238980342
   0
ARC
   5
2F3
 100
AcDbEntity
   8
LEVEL001
   6
CONTINUOUS
  62
7
 100
AcDbCircle
  10
 64.347666553884
  20
 137.83019130642
  30
0.0
  40
 0.50000000000000
 100
AcDbArc
  50
 180.00000000000
  51
 270.00000000001
   0
POINT
   5
2F4
 100
AcDbEntity
   8
LEVEL001
 100
AcDbPoint
  62
7
  10
 63.847666553884
  20
 137.33019130642
  30
0.0
   0
LINE
   5
2F5
 100
AcDbEntity
   8
LEVEL001
 100
AcDbLine
   6
CONTINUOUS
  62
7
  10
 79.747666553884
  20
 137.33019130642
  30
0.0
  11
 64.347666553883
  21
 137.33019130642
  31
0.0
   0
LINE
   5
2F6
 100
AcDbEntity
   8
LEVEL001
 100
AcDbLine
   6
CONTINUOUS
  62
15
  10
 63.747666553884
  20
 138.03896667858
  30
0.0
  11
 63.747666553884
  21
 137.52071628710
  31
0.0
   0
ARC
   5
2F7
 100
AcDbEntity
   8
LEVEL001
   6
CONTINUOUS
  62
7
 100
AcDbCircle
  10
 60.147666553884
  20
 137.83019130642
  30
0.0
  40
 0.50000000000000
 100
AcDbArc
  50
 269.99999999997
  51
0.0
   0
POINT
   5
2F8
 100
AcDbEntity
   8
LEVEL001
 100
AcDbPoint
  62
7
  10
 60.647666553884
  20
 137.33019130642
  30
0.0
   0
LINE
   5
2F9
 100
AcDbEntity
   8
LEVEL001
 100
AcDbLine
   6
CONTINUOUS
  62
7
  10
 60.147666553884
  20
 137.33019130642
  30
0.0
  11
 44.747666553884
  21
 137.33019130642
  31
0.0
   0
LINE
   5
2FA
 100
AcDbEntity
   8
LEVEL001
 100
AcDbLine
   6
CONTINUOUS
  62
7
  10
 60.647666553884
  20
 138.17267252313
  30
0.0
  11
 60.647666553884
  21
 137.83019130642
  31
0.0
   0
LINE
   5
2FB
 100
AcDbEntity
   8
LEVEL001
 100
AcDbLine
   6
CONTINUOUS
  62
15
  10
 60.747666553884
  20
 138.03868868429
  30
0.0
  11
 60.747666553884
  21
 137.52071628710
  31
0.0
   0
ARC
   5
2FC
 100
AcDbEntity
   8
LEVEL001
   6
CONTINUOUS
  62
15
 100
AcDbCircle
  10
 62.247666553883
  20
 143.33019130642
  30
0.0
  40
 5.5000000000000
 100
AcDbArc
  50
 253.08761019658
  51
 286.91238980343
   0
ARC
   5
2FD
 100
AcDbEntity
   8
LEVEL001
   6
CONTINUOUS
  62
15
 100
AcDbCircle
  10
 62.247666553885
  20
 143.33019130642
  30
0.0
  40
 6.0000000000000
 100
AcDbArc
  50
 253.79959523615
  51
 286.20040476383
   0
ARC
   5
2FE
 100
AcDbEntity
   8
LEVEL001
   6
CONTINUOUS
  62
7
 100
AcDbCircle
  10
 62.247666553884
  20
 143.33019130642
  30
0.0
  40
 5.4000000000000
 100
AcDbArc
  50
 72.764714742913
  51
 107.23528525709
   0
LINE
   5
2FF
 100
AcDbEntity
   8
LEVEL001
 100
AcDbLine
   6
CONTINUOUS
  62
7
  10
 63.847666553884
  20
 148.83019130642
  30
0.0
  11
 63.847666553884
  21
 148.48771008971
  31
0.0
   0
ARC
   5
300
 100
AcDbEntity
   8
LEVEL001
   6
CONTINUOUS
  62
7
 100
AcDbCircle
  10
 62.247666553884
  20
 143.33019130642
  30
0.0
  40
 5.4000000000000
 100
AcDbArc
  50
 252.76471474291
  51
 287.23528525709
   0
LINE
   5
301
 100
AcDbEntity
   8
LEVEL001
 100
AcDbLine
   6
CONTINUOUS
  62
7
  10
 63.847666553884
  20
 138.17267252313
  30
0.0
  11
 63.847666553884
  21
 137.83019130642
  31
0.0
   0
LINE
   5
302
 100
AcDbEntity
   8
LEVEL001
 100
AcDbLine
   6
CONTINUOUS
  62
7
  10
 66.997666553884
  20
 148.13019130642
  30
0.0
  11
 62.997666553884
  21
 148.13019130642
  31
0.0
   0
LINE
   5
303
 100
AcDbEntity
   8
LEVEL001
 100
AcDbLine
   6
CONTINUOUS
  62
7
  10
 62.997666553884
  20
 138.53019130642
  30
0.0
  11
 66.997666553884
  21
 138.53019130642
  31
0.0
   0
LINE
   5
304
 100
AcDbEntity
   8
LEVEL001
 100
AcDbLine
   6
CONTINUOUS
  62
7
  10
 66.997666553884
  20
 148.13019130642
  30
0.0
  11
 66.997666553884
  21
 138.53019130642
  31
0.0
   0
LINE
   5
305
 100
AcDbEntity
   8
LEVEL001
 100
AcDbLine
   6
CONTINUOUS
  62
7
  10
 62.997666553884
  20
 148.13019130642
  30
0.0
  11
 62.997666553884
  21
 138.53019130642
  31
0.0
   0
CIRCLE
   5
306
 100
AcDbEntity
   8
LEVEL001
 100
AcDbCircle
   6
CONTINUOUS
  62
7
  10
 59.497666553884
  20
 143.33019130642
  30
0.0
  40
 3.0000000000000
   0
ARC
   5
307
 100
AcDbEntity
   8
LEVEL001
   6
CONTINUOUS
  62
7
 100
AcDbCircle
  10
 59.497666553884
  20
 143.33019130642
  30
0.0
  40
 2.0090681839876
 100
AcDbArc
  50
 75.589251056638
  51
 104.41074894336
   0
LINE
   5
308
 100
AcDbEntity
   8
LEVEL001
 100
AcDbLine
   6
CONTINUOUS
  62
7
  10
 59.997666553884
  20
 145.27604715100
  30
0.0
  11
 59.997666553884
  21
 144.33019130642
  31
0.0
   0
ARC
   5
309
 100
AcDbEntity
   8
LEVEL001
   6
CONTINUOUS
  62
7
 100
AcDbCircle
  10
 60.497666553884
  20
 144.33019130642
  30
0.0
  40
 0.50000000000000
 100
AcDbArc
  50
 180.00000000000
  51
 270.00000000000
   0
POINT
   5
30A
 100
AcDbEntity
   8
LEVEL001
 100
AcDbPoint
  62
7
  10
 59.997666553884
  20
 143.83019130642
  30
0.0
   0
ARC
   5
30B
 100
AcDbEntity
   8
LEVEL001
   6
CONTINUOUS
  62
7
 100
AcDbCircle
  10
 59.497666553884
  20
 143.33019130642
  30
0.0
  40
 2.0090681839876
 100
AcDbArc
  50
 345.58925105664
  51
 14.410748943362
   0
LINE
   5
30C
 100
AcDbEntity
   8
LEVEL001
 100
AcDbLine
   6
CONTINUOUS
  62
7
  10
 60.497666553884
  20
 143.83019130642
  30
0.0
  11
 61.443522398470
  21
 143.83019130642
  31
0.0
   0
LINE
   5
30D
 100
AcDbEntity
   8
LEVEL001
 100
AcDbLine
   6
CONTINUOUS
  62
7
  10
 60.497666553884
  20
 142.83019130642
  30
0.0
  11
 61.443522398470
  21
 142.83019130642
  31
0.0
   0
ARC
   5
30E
 100
AcDbEntity
   8
LEVEL001
   6
CONTINUOUS
  62
7
 100
AcDbCircle
  10
 60.497666553884
  20
 142.33019130642
  30
0.0
  40
 0.50000000000000
 100
AcDbArc
  50
 90.000000000000
  51
 180.00000000000
   0
POINT
   5
30F
 100
AcDbEntity
   8
LEVEL001
 100
AcDbPoint
  62
7
  10
 59.997666553884
  20
 142.83019130642
  30
0.0
   0
ARC
   5
310
 100
AcDbEntity
   8
LEVEL001
   6
CONTINUOUS
  62
7
 100
AcDbCircle
  10
 59.497666553884
  20
 143.33019130642
  30
0.0
  40
 2.0090681839876
 100
AcDbArc
  50
 255.58925105664
  51
 284.41074894336
   0
LINE
   5
311
 100
AcDbEntity
   8
LEVEL001
 100
AcDbLine
   6
CONTINUOUS
  62
7
  10
 59.997666553884
  20
 142.33019130642
  30
0.0
  11
 59.997666553884
  21
 141.38433546183
  31
0.0
   0
ARC
   5
312
 100
AcDbEntity
   8
LEVEL001
   6
CONTINUOUS
  62
7
 100
AcDbCircle
  10
 58.497666553884
  20
 142.33019130642
  30
0.0
  40
 0.50000000000000
 100
AcDbArc
  50
0.0
  51
 90.000000000000
   0
POINT
   5
313
 100
AcDbEntity
   8
LEVEL001
 100
AcDbPoint
  62
7
  10
 58.997666553884
  20
 142.83019130642
  30
0.0
   0
LINE
   5
314
 100
AcDbEntity
   8
LEVEL001
 100
AcDbLine
   6
CONTINUOUS
  62
7
  10
 58.997666553884
  20
 142.33019130642
  30
0.0
  11
 58.997666553884
  21
 141.38433546183
  31
0.0
   0
LINE
   5
315
 100
AcDbEntity
   8
LEVEL001
 100
AcDbLine
   6
CONTINUOUS
  62
7
  10
 57.551810709297
  20
 143.83019130642
  30
0.0
  11
 58.497666553884
  21
 143.83019130642
  31
0.0
   0
ARC
   5
316
 100
AcDbEntity
   8
LEVEL001
   6
CONTINUOUS
  62
7
 100
AcDbCircle
  10
 58.497666553884
  20
 144.33019130642
  30
0.0
  40
 0.50000000000000
 100
AcDbArc
  50
 270.00000000000
  51
0.0
   0
POINT
   5
317
 100
AcDbEntity
   8
LEVEL001
 100
AcDbPoint
  62
7
  10
 58.997666553884
  20
 143.83019130642
  30
0.0
   0
LINE
   5
318
 100
AcDbEntity
   8
LEVEL001
 100
AcDbLine
   6
CONTINUOUS
  62
7
  10
 58.997666553884
  20
 145.27604715100
  30
0.0
  11
 58.997666553884
  21
 144.33019130642
  31
0.0
   0
ARC
   5
319
 100
AcDbEntity
   8
LEVEL001
   6
CONTINUOUS
  62
7
 100
AcDbCircle
  10
 59.497666553884
  20
 143.33019130642
  30
0.0
  40
 2.0090681839876
 100
AcDbArc
  50
 165.58925105664
  51
 194.41074894336
   0
LINE
   5
31A
 100
AcDbEntity
   8
LEVEL001
 100
AcDbLine
   6
CONTINUOUS
  62
7
  10
 57.551810709297
  20
 142.83019130642
  30
0.0
  11
 58.497666553884
  21
 142.83019130642
  31
0.0
   0
DIMENSION
   5
31B
 100
AcDbEntity
   8
LEVEL001
   6
CONTINUOUS
  62
3
 100
AcDbDimension
   2
*D1
  10
 35.899716585555
  20
 137.33019130642
  30
0.0
  11
 35.899716585555
  21
 143.33019130642
  31
0.0
  70
0
   3
GMM001
 100
AcDbAlignedDimension
  13
 44.247666553884
  23
 149.33019130642
  33
0.0
  14
 44.247666553884
  24
 137.33019130642
  34
0.0
  50
 270.00000000000
 100
AcDbRotatedDimension
   0
DIMENSION
   5
31C
 100
AcDbEntity
   8
LEVEL001
   6
CONTINUOUS
  62
3
 100
AcDbDimension
   2
*D2
  10
 35.899716585555
  20
 116.33019130642
  30
0.0
  11
 35.899716585555
  21
 122.33019130642
  31
0.0
  70
0
   3
GMM001
 100
AcDbAlignedDimension
  13
 44.247666553884
  23
 128.33019130642
  33
0.0
  14
 44.247666553884
  24
 116.33019130642
  34
0.0
  50
 270.00000000000
 100
AcDbRotatedDimension
   0
DIMENSION
   5
31D
 100
AcDbEntity
   8
LEVEL001
   6
CONTINUOUS
  62
3
 100
AcDbDimension
   2
*D3
  10
 89.960994218047
  20
 122.33019130642
  30
0.0
  11
 89.960994218047
  21
 132.83019130642
  31
0.0
  70
0
   3
GMM001
 100
AcDbAlignedDimension
  13
 83.693626994604
  23
 143.33019130642
  33
0.0
  14
 83.693626994604
  24
 122.33019130642
  34
0.0
  50
 270.00000000000
 100
AcDbRotatedDimension
   0
DIMENSION
   5
31E
 100
AcDbEntity
   8
LEVEL001
   6
CONTINUOUS
  62
3
 100
AcDbDimension
   2
*D4
  10
 96.502587138403
  20
 116.33019130642
  30
0.0
  11
 96.502587138403
  21
 132.83019130642
  31
0.0
  70
0
   3
GMM001
 100
AcDbAlignedDimension
  13
 80.247666553884
  23
 149.33019130642
  33
0.0
  14
 80.247666553884
  24
 116.33019130642
  34
0.0
  50
 270.00000000000
 100
AcDbRotatedDimension
   0
DIMENSION
   5
31F
 100
AcDbEntity
   8
LEVEL001
   6
CONTINUOUS
  62
3
 100
AcDbDimension
   2
*D5
  10
 74.247666553884
  20
 106.12395957380
  30
0.0
  11
 62.247666553884
  21
 106.12395957380
  31
0.0
  70
0
   3
GMM001
 100
AcDbAlignedDimension
  13
 50.247666553884
  23
 118.42245334652
  33
0.0
  14
 74.247666553884
  24
 118.42245334652
  34
0.0
 100
AcDbRotatedDimension
   0
LINE
   5
320
 100
AcDbEntity
   8
LEVEL001
 100
AcDbLine
   6
CONTINUOUS
  62
7
  10
 80.247666553884
  20
 88.483534519628
  30
0.0
  11
 80.247666553884
  21
 87.483534519628
  31
0.0
   0
LINE
   5
321
 100
AcDbEntity
   8
LEVEL001
 100
AcDbLine
   6
CONTINUOUS
  62
7
  10
 44.247666553884
  20
 88.483534519628
  30
0.0
  11
 44.247666553884
  21
 87.483534519628
  31
0.0
   0
LINE
   5
322
 100
AcDbEntity
   8
LEVEL001
 100
AcDbLine
   6
CONTINUOUS
  62
7
  10
 68.247666553884
  20
 87.483534519628
  30
0.0
  11
 68.247666553884
  21
 76.483534519628
  31
0.0
   0
LINE
   5
323
 100
AcDbEntity
   8
LEVEL001
 100
AcDbLine
   6
CONTINUOUS
  62
7
  10
 68.247666553884
  20
 76.483534519628
  30
0.0
  11
 68.247666553884
  21
 75.483534519628
  31
0.0
   0
LINE
   5
324
 100
AcDbEntity
   8
LEVEL001
 100
AcDbLine
   6
CONTINUOUS
  62
7
  10
 56.247666553884
  20
 76.483534519628
  30
0.0
  11
 56.247666553884
  21
 75.483534519628
  31
0.0
   0
LINE
   5
325
 100
AcDbEntity
   8
LEVEL001
 100
AcDbLine
   6
CONTINUOUS
  62
7
  10
 56.247666553884
  20
 87.483534519628
  30
0.0
  11
 56.247666553884
  21
 76.483534519628
  31
0.0
   0
LINE
   5
326
 100
AcDbEntity
   8
LEVEL001
 100
AcDbLine
   6
DASHDOT
  62
3
  10
 62.247666553884
  20
 95.784145309707
  30
0.0
  11
 62.247666553884
  21
 71.189098189598
  31
0.0
   0
LINE
   5
327
 100
AcDbEntity
   8
LEVEL001
 100
AcDbLine
   6
CONTINUOUS
  62
7
  10
 62.997666553884
  20
 91.483534519628
  30
0.0
  11
 66.997666553884
  21
 91.483534519628
  31
0.0
   0
LINE
   5
328
 100
AcDbEntity
   8
LEVEL001
 100
AcDbLine
   6
CONTINUOUS
  62
7
  10
 66.997666553884
  20
 91.483534519628
  30
0.0
  11
 66.997666553884
  21
 88.483534519628
  31
0.0
   0
LINE
   5
329
 100
AcDbEntity
   8
LEVEL001
 100
AcDbLine
   6
CONTINUOUS
  62
7
  10
 62.997666553884
  20
 91.483534519628
  30
0.0
  11
 62.997666553884
  21
 88.483534519628
  31
0.0
   0
LINE
   5
32A
 100
AcDbEntity
   8
LEVEL001
 100
AcDbLine
   6
CONTINUOUS
  62
7
  10
 80.247666553884
  20
 88.483534519628
  30
0.0
  11
 44.247666553884
  21
 88.483534519628
  31
0.0
   0
LINE
   5
32B
 100
AcDbEntity
   8
LEVEL001
 100
AcDbLine
   6
CONTINUOUS
  62
7
  10
 44.247666553884
  20
 87.483534519628
  30
0.0
  11
 80.247666553884
  21
 87.483534519628
  31
0.0
   0
LINE
   5
32C
 100
AcDbEntity
   8
LEVEL001
 100
AcDbLine
   6
CONTINUOUS
  62
7
  10
 68.247666553884
  20
 75.483534519628
  30
0.0
  11
 56.247666553884
  21
 75.483534519628
  31
0.0
   0
LINE
   5
32D
 100
AcDbEntity
   8
LEVEL001
 100
AcDbLine
   6
DASHDOT
  62
3
  10
 59.497666553884
  20
 89.890752387727
  30
0.0
  11
 59.497666553884
  21
 74.027640315752
  31
0.0
   0
LINE
   5
32E
 100
AcDbEntity
   8
LEVEL001
 100
AcDbLine
   6
CONTINUOUS
  62
7
  10
 57.497666553884
  20
 75.483534519628
  30
0.0
  11
 57.497666553884
  21
 74.983534519628
  31
0.0
   0
LINE
   5
32F
 100
AcDbEntity
   8
LEVEL001
 100
AcDbLine
   6
CONTINUOUS
  62
7
  10
 61.497666553884
  20
 75.483534519628
  30
0.0
  11
 61.497666553884
  21
 74.983534519628
  31
0.0
   0
LINE
   5
330
 100
AcDbEntity
   8
LEVEL001
 100
AcDbLine
   6
CONTINUOUS
  62
7
  10
 61.497666553884
  20
 74.983534519628
  30
0.0
  11
 57.497666553884
  21
 74.983534519628
  31
0.0
   0
LINE
   5
331
 100
AcDbEntity
   8
LEVEL001
 100
AcDbLine
   6
DASHDOT
  62
3
  10
 50.247666553884
  20
 91.150955762267
  30
0.0
  11
 50.247666553884
  21
 84.782420855677
  31
0.0
   0
LINE
   5
332
 100
AcDbEntity
   8
LEVEL001
 100
AcDbLine
   6
DASHDOT
  62
3
  10
 74.247666553884
  20
 91.150955762267
  30
0.0
  11
 74.247666553884
  21
 84.782420855677
  31
0.0
   0
DIMENSION
   5
333
 100
AcDbEntity
   8
LEVEL001
   6
CONTINUOUS
  62
3
 100
AcDbDimension
   2
*D6
  10
 50.247666553884
  20
 106.12395957380
  30
0.0
  11
 47.247666553884
  21
 106.12395957380
  31
0.0
  70
0
   3
GMM001
 100
AcDbAlignedDimension
  13
 44.247666553884
  23
 116.33019130642
  33
0.0
  14
 50.247666553884
  24
 106.12395957380
  34
0.0
 100
AcDbRotatedDimension
   0
DIMENSION
   5
334
 100
AcDbEntity
   8
LEVEL001
   6
CONTINUOUS
  62
3
 100
AcDbDimension
   2
*D7
  10
 74.247666553884
  20
 106.12395957380
  30
0.0
  11
 77.247666553884
  21
 106.12395957380
  31
0.0
  70
0
   3
GMM001
 100
AcDbAlignedDimension
  13
 80.247666553884
  23
 116.33019130642
  33
0.0
  14
 74.247666553884
  24
 106.12395957380
  34
0.0
  50
 180.00000000000
 100
AcDbRotatedDimension
   0
DIMENSION
   5
335
 100
AcDbEntity
   8
LEVEL001
   6
CONTINUOUS
  62
3
 100
AcDbDimension
   2
*D8
  10
 80.247666553884
  20
 98.732853604951
  30
0.0
  11
 62.247666553884
  21
 98.732853604951
  31
0.0
  70
0
   3
GMM001
 100
AcDbAlignedDimension
  13
 44.247666553884
  23
 88.483534519628
  33
0.0
  14
 80.247666553884
  24
 88.483534519628
  34
0.0
 100
AcDbRotatedDimension
   0
DIMENSION
   5
336
 100
AcDbEntity
   8
LEVEL001
   6
CONTINUOUS
  62
3
 100
AcDbDimension
   2
*D9
  10
 89.960994218047
  20
 87.483534519628
  30
0.0
  11
 89.960994218047
  21
 81.483534519628
  31
0.0
  70
0
   3
GMM001
 100
AcDbAlignedDimension
  13
 68.247666553884
  23
 75.483534519628
  33
0.0
  14
 89.960994218047
  24
 87.483534519628
  34
0.0
  50
 90.000000000000
 100
AcDbRotatedDimension
   0
DIMENSION
   5
337
 100
AcDbEntity
   8
LEVEL001
   6
CONTINUOUS
  62
3
 100
AcDbDimension
   2
*D10
  10
 96.502587138403
  20
 75.483534519628
  30
0.0
  11
 96.502587138403
  21
 81.983534519628
  31
0.0
  70
0
   3
GMM001
 100
AcDbAlignedDimension
  13
 90.960994218047
  23
 88.483534519628
  33
0.0
  14
 90.960994218047
  24
 75.483534519628
  34
0.0
  50
 270.00000000000
 100
AcDbRotatedDimension
   0
DIMENSION
   5
338
 100
AcDbEntity
   8
LEVEL001
   6
CONTINUOUS
  62
3
 100
AcDbDimension
   2
*D11
  10
 89.960994218047
  20
 87.483534519628
  30
0.0
  11
 89.960994218047
  21
 92.621489288558
  31
0.0
  70
128
   3
GMM002
 100
AcDbAlignedDimension
  13
 80.247666553884
  23
 88.483534519628
  33
0.0
  14
 80.247666553884
  24
 87.483534519628
  34
0.0
  50
 270.00000000000
 100
AcDbRotatedDimension
   0
DIMENSION
   5
339
 100
AcDbEntity
   8
LEVEL001
   6
CONTINUOUS
  62
3
 100
AcDbDimension
   2
*D12
  10
 68.247666553884
  20
 62.743513378193
  30
0.0
  11
 62.247666553884
  21
 62.743513378193
  31
0.0
  70
0
   3
GMM003
 100
AcDbAlignedDimension
  13
 56.247666553884
  23
 75.483534519628
  33
0.0
  14
 68.247666553884
  24
 75.483534519628
  34
0.0
 100
AcDbRotatedDimension
   0
CIRCLE
   5
33A
 100
AcDbEntity
   8
LEVEL001
 100
AcDbCircle
   6
CONTINUOUS
  62
7
  10
 50.247666553884
  20
 143.33019130642
  30
0.0
  40
 3.0000000000000
   0
CIRCLE
   5
33B
 100
AcDbEntity
   8
LEVEL001
 100
AcDbCircle
   6
CONTINUOUS
  62
7
  10
 50.247666553884
  20
 122.33019130642
  30
0.0
  40
 3.0000000000000
   0
CIRCLE
   5
33C
 100
AcDbEntity
   8
LEVEL001
 100
AcDbCircle
   6
CONTINUOUS
  62
7
  10
 74.247666553884
  20
 122.33019130642
  30
0.0
  40
 3.0000000000000
   0
CIRCLE
   5
33D
 100
AcDbEntity
   8
LEVEL001
 100
AcDbCircle
   6
CONTINUOUS
  62
7
  10
 74.247666553884
  20
 143.33019130642
  30
0.0
  40
 3.0000000000000
   0
INSERT
   5
33E
 100
AcDbEntity
   8
LEVEL001
 100
AcDbBlockReference
   2
*D13
  10
0.0
  20
0.0
  30
0.0
   0
DIMENSION
   5
33F
 100
AcDbEntity
   8
LEVEL001
   6
CONTINUOUS
  62
3
 100
AcDbDimension
   2
*D14
  10
 400.67228864979
  20
 227.35715215220
  30
0.0
  11
 212.17228864979
  21
 227.35715215220
  31
0.0
  70
0
   3
GMM001
 100
AcDbAlignedDimension
  13
 23.672288649791
  23
 235.02634466266
  33
0.0
  14
 400.67228864979
  24
 235.02634466266
  34
0.0
 100
AcDbRotatedDimension
   0
LINE
   5
340
 100
AcDbEntity
   8
LEVEL001
 100
AcDbLine
   6
CONTINUOUS
  62
15
  10
 49.672288649791
  20
 251.71759118926
  30
0.0
  11
 49.672288649791
  21
 252.21759118926
  31
0.0
   0
LINE
   5
341
 100
AcDbEntity
   8
LEVEL001
 100
AcDbLine
   6
CONTINUOUS
  62
15
  10
 49.672288649791
  20
 266.51759118926
  30
0.0
  11
 49.672288649791
  21
 266.01759118926
  31
0.0
   0
LINE
   5
342
 100
AcDbEntity
   8
LEVEL001
 100
AcDbLine
   6
CONTINUOUS
  62
15
  10
 43.672288649791
  20
 251.71759118926
  30
0.0
  11
 43.672288649791
  21
 252.21759118926
  31
0.0
   0
LINE
   5
343
 100
AcDbEntity
   8
LEVEL001
 100
AcDbLine
   6
CONTINUOUS
  62
15
  10
 49.672288649791
  20
 251.71759118926
  30
0.0
  11
 43.672288649791
  21
 251.71759118926
  31
0.0
   0
LINE
   5
344
 100
AcDbEntity
   8
LEVEL001
 100
AcDbLine
   6
CONTINUOUS
  62
15
  10
 43.672288649791
  20
 266.51759118926
  30
0.0
  11
 43.672288649791
  21
 266.01759118926
  31
0.0
   0
LINE
   5
345
 100
AcDbEntity
   8
LEVEL001
 100
AcDbLine
   6
CONTINUOUS
  62
15
  10
 49.672288649791
  20
 266.51759118926
  30
0.0
  11
 43.672288649791
  21
 266.51759118926
  31
0.0
   0
ARC
   5
346
 100
AcDbEntity
   8
LEVEL001
   6
CONTINUOUS
  62
7
 100
AcDbCircle
  10
 29.672288649791
  20
 261.11759118926
  30
0.0
  40
 6.0000000000000
 100
AcDbArc
  50
 89.999999999993
  51
 180.00000000000
   0
LINE
   5
347
 100
AcDbEntity
   8
LEVEL001
 100
AcDbLine
   6
CONTINUOUS
  62
7
  10
 23.672288649791
  20
 261.11759118926
  30
0.0
  11
 23.672288649791
  21
 257.11759118926
  31
0.0
   0
POINT
   5
348
 100
AcDbEntity
   8
LEVEL001
 100
AcDbPoint
  62
7
  10
 23.672288649791
  20
 251.11759118926
  30
0.0
   0
ARC
   5
349
 100
AcDbEntity
   8
LEVEL001
   6
CONTINUOUS
  62
7
 100
AcDbCircle
  10
 29.672288649791
  20
 257.11759118926
  30
0.0
  40
 6.0000000000000
 100
AcDbArc
  50
 180.00000000000
  51
 270.00000000000
   0
POINT
   5
34A
 100
AcDbEntity
   8
LEVEL001
 100
AcDbPoint
  62
7
  10
 23.672288649791
  20
 267.11759118926
  30
0.0
   0
LINE
   5
34B
 100
AcDbEntity
   8
LEVEL001
 100
AcDbLine
   6
DASHDOT
  62
3
  10
 372.17228864979
  20
 264.60070997645
  30
0.0
  11
 372.17228864979
  21
 253.63447240208
  31
0.0
   0
LINE
   5
34C
 100
AcDbEntity
   8
LEVEL001
 100
AcDbLine
   6
DASHDOT
  62
3
  10
 322.17228864979
  20
 264.60070997645
  30
0.0
  11
 322.17228864979
  21
 253.63447240208
  31
0.0
   0
LINE
   5
34D
 100
AcDbEntity
   8
LEVEL001
 100
AcDbLine
   6
DASHDOT
  62
3
  10
 180.17228864979
  20
 253.64765171426
  30
0.0
  11
 180.17228864979
  21
 248.38146156505
  31
0.0
   0
LINE
   5
34E
 100
AcDbEntity
   8
LEVEL001
 100
AcDbLine
   6
DASHDOT
  62
3
  10
 180.17228864979
  20
 264.58753066427
  30
0.0
  11
 180.17228864979
  21
 269.85372081347
  31
0.0
   0
LINE
   5
34F
 100
AcDbEntity
   8
LEVEL001
 100
AcDbLine
   6
CONTINUOUS
  62
7
  10
 384.67228864979
  20
 267.11759118926
  30
0.0
  11
 384.67228864979
  21
 251.11759118926
  31
0.0
   0
LINE
   5
350
 100
AcDbEntity
   8
LEVEL001
 100
AcDbLine
   6
DASHDOT
  62
3
  10
 392.67228864979
  20
 263.23027699251
  30
0.0
  11
 392.67228864979
  21
 255.28135537915
  31
0.0
   0
CIRCLE
   5
351
 100
AcDbEntity
   8
LEVEL001
 100
AcDbCircle
   6
CONTINUOUS
  62
7
  10
 392.67228864979
  20
 259.11759118926
  30
0.0
  40
 2.1000000000000
   0
LINE
   5
352
 100
AcDbEntity
   8
LEVEL001
 100
AcDbLine
   6
CONTINUOUS
  62
15
  10
 384.67228864979
  20
 266.61759118926
  30
0.0
  11
 392.67228864979
  21
 266.61759118926
  31
0.0
   0
LINE
   5
353
 100
AcDbEntity
   8
LEVEL001
 100
AcDbLine
   6
CONTINUOUS
  62
15
  10
 392.67228864979
  20
 266.61759118926
  30
0.0
  11
 392.67228864979
  21
 267.11759118926
  31
0.0
   0
LINE
   5
354
 100
AcDbEntity
   8
LEVEL001
 100
AcDbLine
   6
CONTINUOUS
  62
15
  10
 392.67228864979
  20
 251.11759118926
  30
0.0
  11
 392.67228864979
  21
 251.61759118926
  31
0.0
   0
LINE
   5
355
 100
AcDbEntity
   8
LEVEL001
 100
AcDbLine
   6
CONTINUOUS
  62
15
  10
 384.67228864979
  20
 251.61759118926
  30
0.0
  11
 392.67228864979
  21
 251.61759118926
  31
0.0
   0
LINE
   5
356
 100
AcDbEntity
   8
LEVEL001
 100
AcDbLine
   6
CONTINUOUS
  62
7
  10
 39.672288649791
  20
 251.11759118926
  30
0.0
  11
 39.672288649791
  21
 267.11759118926
  31
0.0
   0
LINE
   5
357
 100
AcDbEntity
   8
LEVEL001
 100
AcDbLine
   6
DASHDOT
  62
3
  10
 31.672288649791
  20
 263.23027699251
  30
0.0
  11
 31.672288649791
  21
 255.28135537915
  31
0.0
   0
CIRCLE
   5
358
 100
AcDbEntity
   8
LEVEL001
 100
AcDbCircle
   6
CONTINUOUS
  62
7
  10
 31.672288649791
  20
 259.11759118926
  30
0.0
  40
 2.1000000000000
   0
LINE
   5
359
 100
AcDbEntity
   8
LEVEL001
 100
AcDbLine
   6
CONTINUOUS
  62
15
  10
 39.672288649791
  20
 266.61759118926
  30
0.0
  11
 31.672288649791
  21
 266.61759118926
  31
0.0
   0
LINE
   5
35A
 100
AcDbEntity
   8
LEVEL001
 100
AcDbLine
   6
CONTINUOUS
  62
15
  10
 31.672288649791
  20
 266.61759118926
  30
0.0
  11
 31.672288649791
  21
 267.11759118926
  31
0.0
   0
LINE
   5
35B
 100
AcDbEntity
   8
LEVEL001
 100
AcDbLine
   6
CONTINUOUS
  62
15
  10
 31.672288649791
  20
 251.11759118926
  30
0.0
  11
 31.672288649791
  21
 251.61759118926
  31
0.0
   0
LINE
   5
35C
 100
AcDbEntity
   8
LEVEL001
 100
AcDbLine
   6
CONTINUOUS
  62
15
  10
 39.672288649791
  20
 251.61759118926
  30
0.0
  11
 31.672288649791
  21
 251.61759118926
  31
0.0
   0
LINE
   5
35D
 100
AcDbEntity
   8
LEVEL001
 100
AcDbLine
   6
CONTINUOUS
  62
3
  10
 31.672288649791
  20
 261.11759118926
  30
0.0
  11
 31.574818654832
  21
 261.21532796972
  31
0.0
   0
LINE
   5
35E
 100
AcDbEntity
   8
LEVEL001
 100
AcDbLine
   6
DASHDOT
  62
3
  10
 402.07256849293
  20
 259.11759118926
  30
0.0
  11
 21.493440427251
  21
 259.11759118926
  31
0.0
   0
LINE
   5
35F
 100
AcDbEntity
   8
LEVEL001
 100
AcDbLine
   6
CONTINUOUS
  62
7
  10
 400.67228864979
  20
 261.11759118926
  30
0.0
  11
 400.67228864979
  21
 257.11759118926
  31
0.0
   0
ARC
   5
360
 100
AcDbEntity
   8
LEVEL001
   6
CONTINUOUS
  62
7
 100
AcDbCircle
  10
 394.67228864979
  20
 261.11759118926
  30
0.0
  40
 6.0000000000000
 100
AcDbArc
  50
0.0
  51
 90.000000000001
   0
POINT
   5
361
 100
AcDbEntity
   8
LEVEL001
 100
AcDbPoint
  62
7
  10
 400.67228864979
  20
 267.11759118926
  30
0.0
   0
ARC
   5
362
 100
AcDbEntity
   8
LEVEL001
   6
CONTINUOUS
  62
7
 100
AcDbCircle
  10
 394.67228864979
  20
 257.11759118926
  30
0.0
  40
 6.0000000000000
 100
AcDbArc
  50
 270.00000000000
  51
0.0
   0
POINT
   5
363
 100
AcDbEntity
   8
LEVEL001
 100
AcDbPoint
  62
7
  10
 400.67228864979
  20
 251.11759118926
  30
0.0
   0
LINE
   5
364
 100
AcDbEntity
   8
LEVEL001
 100
AcDbLine
   6
CONTINUOUS
  62
7
  10
 43.672288649791
  20
 267.11759118926
  30
0.0
  11
 29.672288649791
  21
 267.11759118926
  31
0.0
   0
LINE
   5
365
 100
AcDbEntity
   8
LEVEL001
 100
AcDbLine
   6
CONTINUOUS
  62
7
  10
 43.672288649791
  20
 251.11759118926
  30
0.0
  11
 29.672288649791
  21
 251.11759118926
  31
0.0
   0
LINE
   5
366
 100
AcDbEntity
   8
LEVEL001
 100
AcDbLine
   6
CONTINUOUS
  62
15
  10
 49.672288649791
  20
 251.61759118926
  30
0.0
  11
 49.672288649791
  21
 251.11759118926
  31
0.0
   0
LINE
   5
367
 100
AcDbEntity
   8
LEVEL001
 100
AcDbLine
   6
CONTINUOUS
  62
15
  10
 49.672288649791
  20
 266.61759118926
  30
0.0
  11
 49.672288649791
  21
 267.11759118926
  31
0.0
   0
LINE
   5
368
 100
AcDbEntity
   8
LEVEL001
 100
AcDbLine
   6
CONTINUOUS
  62
7
  10
 394.67228864979
  20
 251.11759118926
  30
0.0
  11
 49.672288649791
  21
 251.11759118926
  31
0.0
   0
LINE
   5
369
 100
AcDbEntity
   8
LEVEL001
 100
AcDbLine
   6
CONTINUOUS
  62
7
  10
 394.67228864979
  20
 267.11759118926
  30
0.0
  11
 49.672288649791
  21
 267.11759118926
  31
0.0
   0
LINE
   5
36A
 100
AcDbEntity
   8
LEVEL001
 100
AcDbLine
   6
CONTINUOUS
  62
15
  10
 43.672288649791
  20
 267.11759118926
  30
0.0
  11
 49.672288649791
  21
 267.11759118926
  31
0.0
   0
LINE
   5
36B
 100
AcDbEntity
   8
LEVEL001
 100
AcDbLine
   6
CONTINUOUS
  62
15
  10
 49.672288649791
  20
 266.61759118926
  30
0.0
  11
 43.672288649791
  21
 266.61759118926
  31
0.0
   0
LINE
   5
36C
 100
AcDbEntity
   8
LEVEL001
 100
AcDbLine
   6
DASHDOT
  62
3
  10
 46.672288649791
  20
 263.35801579791
  30
0.0
  11
 46.672288649791
  21
 271.95506570914
  31
0.0
   0
LINE
   5
36D
 100
AcDbEntity
   8
LEVEL001
 100
AcDbLine
   6
DASHDOT
  62
3
  10
 46.672288649791
  20
 254.87716658062
  30
0.0
  11
 46.672288649791
  21
 246.28011666938
  31
0.0
   0
LINE
   5
36E
 100
AcDbEntity
   8
LEVEL001
 100
AcDbLine
   6
CONTINUOUS
  62
15
  10
 43.672288649791
  20
 251.11759118926
  30
0.0
  11
 49.672288649791
  21
 251.11759118926
  31
0.0
   0
LINE
   5
36F
 100
AcDbEntity
   8
LEVEL001
 100
AcDbLine
   6
CONTINUOUS
  62
15
  10
 49.672288649791
  20
 251.61759118926
  30
0.0
  11
 43.672288649791
  21
 251.61759118926
  31
0.0
   0
LINE
   5
370
 100
AcDbEntity
   8
LEVEL001
 100
AcDbLine
   6
CONTINUOUS
  62
15
  10
 43.672288649791
  20
 266.61759118926
  30
0.0
  11
 43.672288649791
  21
 267.11759118926
  31
0.0
   0
LINE
   5
371
 100
AcDbEntity
   8
LEVEL001
 100
AcDbLine
   6
CONTINUOUS
  62
15
  10
 43.672288649791
  20
 251.11759118926
  30
0.0
  11
 43.672288649791
  21
 251.61759118926
  31
0.0
   0
LINE
   5
372
 100
AcDbEntity
   8
LEVEL001
 100
AcDbLine
   6
CONTINUOUS
  62
15
  10
 50.672288649791
  20
 266.61759118926
  30
0.0
  11
 49.672288649791
  21
 266.61759118926
  31
0.0
   0
LINE
   5
373
 100
AcDbEntity
   8
LEVEL001
 100
AcDbLine
   6
CONTINUOUS
  62
15
  10
 43.672288649791
  20
 266.61759118926
  30
0.0
  11
 42.672288649791
  21
 266.61759118926
  31
0.0
   0
LINE
   5
374
 100
AcDbEntity
   8
LEVEL001
 100
AcDbLine
   6
CONTINUOUS
  62
15
  10
 43.672288649791
  20
 251.61759118926
  30
0.0
  11
 42.672288649791
  21
 251.61759118926
  31
0.0
   0
LINE
   5
375
 100
AcDbEntity
   8
LEVEL001
 100
AcDbLine
   6
CONTINUOUS
  62
15
  10
 50.672288649791
  20
 251.61759118926
  30
0.0
  11
 49.672288649791
  21
 251.61759118926
  31
0.0
   0
DIMENSION
   5
376
 100
AcDbEntity
   8
LEVEL001
   6
CONTINUOUS
  62
3
 100
AcDbDimension
   2
*D15
  10
 400.67228864979
  20
 236.02634466266
  30
0.0
  11
 396.67228864979
  21
 236.02634466266
  31
0.0
  70
0
   3
GMM001
 100
AcDbAlignedDimension
  13
 392.67228864979
  23
 236.02634466266
  33
0.0
  14
 400.67228864979
  24
 251.11759118926
  34
0.0
 100
AcDbRotatedDimension
   0
DIMENSION
   5
377
 100
AcDbEntity
   8
LEVEL001
   6
CONTINUOUS
  62
3
 100
AcDbDimension
   2
*D16
  10
 23.672288649791
  20
 236.02634466266
  30
0.0
  11
 27.672288649791
  21
 236.02634466266
  31
0.0
  70
0
   3
GMM001
 100
AcDbAlignedDimension
  13
 31.672288649791
  23
 236.02634466266
  33
0.0
  14
 23.672288649791
  24
 251.11759118926
  34
0.0
  50
 180.00000000000
 100
AcDbRotatedDimension
   0
DIMENSION
   5
378
 100
AcDbEntity
   8
LEVEL001
   6
CONTINUOUS
  62
3
 100
AcDbDimension
   2
*D17
  10
 31.672288649791
  20
 236.02634466266
  30
0.0
  11
 212.17228864979
  21
 236.02634466266
  31
0.0
  70
0
   3
GMM001
 100
AcDbAlignedDimension
  13
 392.67228864979
  23
 255.28135537915
  33
0.0
  14
 31.672288649791
  24
 255.28135537915
  34
0.0
  50
 180.00000000000
 100
AcDbRotatedDimension
   0
LINE
   5
379
 100
AcDbEntity
   8
LEVEL001
 100
AcDbLine
   6
CONTINUOUS
  62
15
  10
 202.68362211947
  20
 260.61759118926
  30
0.0
  11
 202.68362211947
  21
 257.61759118926
  31
0.0
   0
LINE
   5
37A
 100
AcDbEntity
   8
LEVEL001
 100
AcDbLine
   6
DIVIDE
  62
3
  10
 184.68362211948
  20
 263.31470860683
  30
0.0
  11
 184.68362211948
  21
 255.21611236656
  31
0.0
   0
LINE
   5
37B
 100
AcDbEntity
   8
LEVEL001
 100
AcDbLine
   6
CONTINUOUS
  62
7
  10
 179.68362211948
  20
 251.11759118926
  30
0.0
  11
 179.68362211948
  21
 267.11759118926
  31
0.0
   0
LINE
   5
37C
 100
AcDbEntity
   8
LEVEL001
 100
AcDbLine
   6
CONTINUOUS
  62
7
  10
 184.68362211948
  20
 251.11759118926
  30
0.0
  11
 184.68362211948
  21
 267.11759118926
  31
0.0
   0
LINE
   5
37D
 100
AcDbEntity
   8
LEVEL001
 100
AcDbLine
   6
DASHDOT
  62
3
  10
 186.68362211948
  20
 269.71545976948
  30
0.0
  11
 186.68362211948
  21
 248.36259181130
  31
0.0
   0
LINE
   5
37E
 100
AcDbEntity
   8
LEVEL001
 100
AcDbLine
   6
DASHDOT
  62
3
  10
 177.68362211948
  20
 269.71545976948
  30
0.0
  11
 177.68362211948
  21
 248.36259181130
  31
0.0
   0
LINE
   5
37F
 100
AcDbEntity
   8
LEVEL001
 100
AcDbLine
   6
CONTINUOUS
  62
7
  10
 184.68362211948
  20
 267.11759118926
  30
0.0
  11
 192.18362211948
  21
 267.11759118926
  31
0.0
   0
LINE
   5
380
 100
AcDbEntity
   8
LEVEL001
 100
AcDbLine
   6
CONTINUOUS
  62
7
  10
 184.68362211948
  20
 251.11759118926
  30
0.0
  11
 192.18362211948
  21
 251.11759118926
  31
0.0
   0
LINE
   5
381
 100
AcDbEntity
   8
LEVEL001
 100
AcDbLine
   6
CONTINUOUS
  62
7
  10
 179.68362211948
  20
 267.11759118926
  30
0.0
  11
 175.68362211948
  21
 267.11759118926
  31
0.0
   0
LINE
   5
382
 100
AcDbEntity
   8
LEVEL001
 100
AcDbLine
   6
CONTINUOUS
  62
7
  10
 179.68362211948
  20
 251.11759118926
  30
0.0
  11
 175.68362211948
  21
 251.11759118926
  31
0.0
   0
LINE
   5
383
 100
AcDbEntity
   8
LEVEL001
 100
AcDbLine
   6
CONTINUOUS
  62
7
  10
 192.18362211948
  20
 251.11759118926
  30
0.0
  11
 192.18362211948
  21
 267.11759118926
  31
0.0
   0
LINE
   5
384
 100
AcDbEntity
   8
LEVEL001
 100
AcDbLine
   6
CONTINUOUS
  62
15
  10
 192.18362211948
  20
 263.01759118926
  30
0.0
  11
 196.68362211948
  21
 263.01759118926
  31
0.0
   0
LINE
   5
385
 100
AcDbEntity
   8
LEVEL001
 100
AcDbLine
   6
CONTINUOUS
  62
15
  10
 192.18362211948
  20
 255.21759118926
  30
0.0
  11
 196.68362211948
  21
 255.21759118926
  31
0.0
   0
LINE
   5
386
 100
AcDbEntity
   8
LEVEL001
 100
AcDbLine
   6
CONTINUOUS
  62
7
  10
 175.68362211948
  20
 265.61759118926
  30
0.0
  11
 175.68362211948
  21
 267.11759118926
  31
0.0
   0
LINE
   5
387
 100
AcDbEntity
   8
LEVEL001
 100
AcDbLine
   6
CONTINUOUS
  62
7
  10
 176.53955093757
  20
 265.61759118926
  30
0.0
  11
 173.18362211947
  21
 265.61759118926
  31
0.0
   0
LINE
   5
388
 100
AcDbEntity
   8
LEVEL001
 100
AcDbLine
   6
CONTINUOUS
  62
7
  10
 175.68362211948
  20
 251.11759118926
  30
0.0
  11
 175.68362211948
  21
 252.61759118926
  31
0.0
   0
LINE
   5
389
 100
AcDbEntity
   8
LEVEL001
 100
AcDbLine
   6
CONTINUOUS
  62
7
  10
 176.53955093757
  20
 252.61759118926
  30
0.0
  11
 173.18362211947
  21
 252.61759118926
  31
0.0
   0
LINE
   5
38A
 100
AcDbEntity
   8
LEVEL001
 100
AcDbLine
   6
CONTINUOUS
  62
7
  10
 173.18362211947
  20
 265.61759118926
  30
0.0
  11
 173.18362211947
  21
 252.61759118926
  31
0.0
   0
POINT
   5
38B
 100
AcDbEntity
   8
LEVEL001
 100
AcDbPoint
  62
3
  10
 204.17228864979
  20
 263.11759118926
  30
0.0
   0
POINT
   5
38C
 100
AcDbEntity
   8
LEVEL001
 100
AcDbPoint
  62
3
  10
 204.17228864979
  20
 255.11759118926
  30
0.0
   0
LINE
   5
38D
 100
AcDbEntity
   8
LEVEL001
 100
AcDbLine
   6
CONTINUOUS
  62
15
  10
 43.672288649791
  20
 266.51759118926
  30
0.0
  11
 42.672288649791
  21
 266.51759118926
  31
0.0
   0
LINE
   5
38E
 100
AcDbEntity
   8
LEVEL001
 100
AcDbLine
   6
CONTINUOUS
  62
15
  10
 43.672288649791
  20
 251.71759118926
  30
0.0
  11
 42.672288649791
  21
 251.71759118926
  31
0.0
   0
LINE
   5
38F
 100
AcDbEntity
   8
LEVEL001
 100
AcDbLine
   6
CONTINUOUS
  62
15
  10
 49.672288649791
  20
 252.21759118926
  30
0.0
  11
 42.672288649791
  21
 252.21759118926
  31
0.0
   0
LINE
   5
390
 100
AcDbEntity
   8
LEVEL001
 100
AcDbLine
   6
CONTINUOUS
  62
15
  10
 49.672288649791
  20
 266.01759118926
  30
0.0
  11
 42.672288649791
  21
 266.01759118926
  31
0.0
   0
LINE
   5
391
 100
AcDbEntity
   8
LEVEL001
 100
AcDbLine
   6
CONTINUOUS
  62
15
  10
 50.672288649791
  20
 266.51759118926
  30
0.0
  11
 49.672288649791
  21
 266.51759118926
  31
0.0
   0
LINE
   5
392
 100
AcDbEntity
   8
LEVEL001
 100
AcDbLine
   6
CONTINUOUS
  62
15
  10
 50.672288649791
  20
 251.71759118926
  30
0.0
  11
 49.672288649791
  21
 251.71759118926
  31
0.0
   0
LINE
   5
393
 100
AcDbEntity
   8
LEVEL001
 100
AcDbLine
   6
CONTINUOUS
  62
7
  10
 49.672288649791
  20
 263.11759118926
  30
0.0
  11
 49.672288649791
  21
 266.11759118926
  31
0.0
   0
LINE
   5
394
 100
AcDbEntity
   8
LEVEL001
 100
AcDbLine
   6
CONTINUOUS
  62
7
  10
 50.672288649791
  20
 266.11759118926
  30
0.0
  11
 50.672288649791
  21
 267.11759118926
  31
0.0
   0
LINE
   5
395
 100
AcDbEntity
   8
LEVEL001
 100
AcDbLine
   6
CONTINUOUS
  62
7
  10
 50.672288649791
  20
 266.11759118926
  30
0.0
  11
 49.672288649791
  21
 266.11759118926
  31
0.0
   0
LINE
   5
396
 100
AcDbEntity
   8
LEVEL001
 100
AcDbLine
   6
CONTINUOUS
  62
7
  10
 49.672288649791
  20
 255.11759118926
  30
0.0
  11
 49.672288649791
  21
 252.11759118926
  31
0.0
   0
LINE
   5
397
 100
AcDbEntity
   8
LEVEL001
 100
AcDbLine
   6
CONTINUOUS
  62
7
  10
 50.672288649791
  20
 252.11759118926
  30
0.0
  11
 49.672288649791
  21
 252.11759118926
  31
0.0
   0
LINE
   5
398
 100
AcDbEntity
   8
LEVEL001
 100
AcDbLine
   6
CONTINUOUS
  62
7
  10
 50.672288649791
  20
 252.11759118926
  30
0.0
  11
 50.672288649791
  21
 251.11759118926
  31
0.0
   0
LINE
   5
399
 100
AcDbEntity
   8
LEVEL001
 100
AcDbLine
   6
CONTINUOUS
  62
7
  10
 42.672288649791
  20
 251.11759118926
  30
0.0
  11
 42.672288649791
  21
 267.11759118926
  31
0.0
   0
LINE
   5
39A
 100
AcDbEntity
   8
LEVEL001
 100
AcDbLine
   6
CONTINUOUS
  62
7
  10
 173.18362211947
  20
 263.11759118926
  30
0.0
  11
 49.672288649791
  21
 263.11759118926
  31
0.0
   0
LINE
   5
39B
 100
AcDbEntity
   8
LEVEL001
 100
AcDbLine
   6
CONTINUOUS
  62
7
  10
 173.18362211947
  20
 255.11759118926
  30
0.0
  11
 49.672288649791
  21
 255.11759118926
  31
0.0
   0
LINE
   5
39C
 100
AcDbEntity
   8
LEVEL001
 100
AcDbLine
   6
CONTINUOUS
  62
15
  10
 176.53955093757
  20
 265.61759118926
  30
0.0
  11
 176.53955093757
  21
 252.61759118926
  31
0.0
   0
ARC
   5
39D
 100
AcDbEntity
   8
LEVEL001
   6
CONTINUOUS
  62
7
 100
AcDbCircle
  10
 203.17228864979
  20
 262.11759118926
  30
0.0
  40
 1.0000000000000
 100
AcDbArc
  50
0.0
  51
 89.999999999896
   0
LINE
   5
39E
 100
AcDbEntity
   8
LEVEL001
 100
AcDbLine
   6
CONTINUOUS
  62
7
  10
 204.17228864979
  20
 256.11759118926
  30
0.0
  11
 204.17228864979
  21
 262.11759118926
  31
0.0
   0
ARC
   5
39F
 100
AcDbEntity
   8
LEVEL001
   6
CONTINUOUS
  62
7
 100
AcDbCircle
  10
 203.17228864979
  20
 256.11759118926
  30
0.0
  40
 1.0000000000000
 100
AcDbArc
  50
 269.99999999990
  51
0.0
   0
LINE
   5
3A0
 100
AcDbEntity
   8
LEVEL001
 100
AcDbLine
   6
CONTINUOUS
  62
7
  10
 202.68362211947
  20
 263.11759118926
  30
0.0
  11
 202.68362211947
  21
 260.61759118926
  31
0.0
   0
LINE
   5
3A1
 100
AcDbEntity
   8
LEVEL001
 100
AcDbLine
   6
CONTINUOUS
  62
7
  10
 198.68362211948
  20
 255.11759118926
  30
0.0
  11
 198.68362211948
  21
 263.11759118926
  31
0.0
   0
LINE
   5
3A2
 100
AcDbEntity
   8
LEVEL001
 100
AcDbLine
   6
CONTINUOUS
  62
7
  10
 202.68362211947
  20
 257.61759118926
  30
0.0
  11
 202.68362211947
  21
 255.11759118926
  31
0.0
   0
LINE
   5
3A3
 100
AcDbEntity
   8
LEVEL001
 100
AcDbLine
   6
CONTINUOUS
  62
7
  10
 204.17228864979
  20
 260.61759118926
  30
0.0
  11
 202.68362211947
  21
 260.61759118926
  31
0.0
   0
LINE
   5
3A4
 100
AcDbEntity
   8
LEVEL001
 100
AcDbLine
   6
CONTINUOUS
  62
7
  10
 202.68362211947
  20
 257.61759118926
  30
0.0
  11
 204.17228864979
  21
 257.61759118926
  31
0.0
   0
LINE
   5
3A5
 100
AcDbEntity
   8
LEVEL001
 100
AcDbLine
   6
CONTINUOUS
  62
7
  10
 196.68362211948
  20
 255.11759118926
  30
0.0
  11
 196.68362211948
  21
 263.11759118926
  31
0.0
   0
LINE
   5
3A6
 100
AcDbEntity
   8
LEVEL001
 100
AcDbLine
   6
CONTINUOUS
  62
7
  10
 203.17228864979
  20
 263.11759118926
  30
0.0
  11
 192.18362211948
  21
 263.11759118926
  31
0.0
   0
LINE
   5
3A7
 100
AcDbEntity
   8
LEVEL001
 100
AcDbLine
   6
CONTINUOUS
  62
7
  10
 184.68362211948
  20
 263.11759118926
  30
0.0
  11
 179.68362211948
  21
 263.11759118926
  31
0.0
   0
LINE
   5
3A8
 100
AcDbEntity
   8
LEVEL001
 100
AcDbLine
   6
CONTINUOUS
  62
7
  10
 203.17228864979
  20
 255.11759118926
  30
0.0
  11
 192.18362211948
  21
 255.11759118926
  31
0.0
   0
LINE
   5
3A9
 100
AcDbEntity
   8
LEVEL001
 100
AcDbLine
   6
CONTINUOUS
  62
7
  10
 184.68362211948
  20
 255.11759118926
  30
0.0
  11
 179.68362211948
  21
 255.11759118926
  31
0.0
   0
LINE
   5
3AA
 100
AcDbEntity
   8
LEVEL001
 100
AcDbLine
   6
CONTINUOUS
  62
15
  10
 184.68362211948
  20
 263.01759118926
  30
0.0
  11
 179.68362211948
  21
 263.01759118926
  31
0.0
   0
LINE
   5
3AB
 100
AcDbEntity
   8
LEVEL001
 100
AcDbLine
   6
CONTINUOUS
  62
15
  10
 184.68362211948
  20
 255.21759118926
  30
0.0
  11
 179.68362211948
  21
 255.21759118926
  31
0.0
   0
ARC
   5
3AC
 100
AcDbEntity
   8
LEVEL001
   6
CONTINUOUS
  62
7
 100
AcDbCircle
  10
 372.17228864979
  20
 259.11759118926
  30
0.0
  40
 4.0000000000000
 100
AcDbArc
  50
 270.00000000000
  51
 90.000000000000
   0
LINE
   5
3AD
 100
AcDbEntity
   8
LEVEL001
 100
AcDbLine
   6
CONTINUOUS
  62
7
  10
 322.17228864979
  20
 255.11759118926
  30
0.0
  11
 372.17228864979
  21
 255.11759118926
  31
0.0
   0
LINE
   5
3AE
 100
AcDbEntity
   8
LEVEL001
 100
AcDbLine
   6
CONTINUOUS
  62
7
  10
 372.17228864979
  20
 263.11759118926
  30
0.0
  11
 322.17228864979
  21
 263.11759118926
  31
0.0
   0
ARC
   5
3AF
 100
AcDbEntity
   8
LEVEL001
   6
CONTINUOUS
  62
7
 100
AcDbCircle
  10
 322.17228864979
  20
 259.11759118926
  30
0.0
  40
 4.0000000000000
 100
AcDbArc
  50
 90.000000000000
  51
 270.00000000000
   0
ARC
   5
3B0
 100
AcDbEntity
   8
LEVEL001
   6
CONTINUOUS
  62
15
 100
AcDbCircle
  10
 372.17228864979
  20
 259.11759118926
  30
0.0
  40
 1.6000000000000
 100
AcDbArc
  50
 270.00000000000
  51
 90.000000000000
   0
ARC
   5
3B1
 100
AcDbEntity
   8
LEVEL001
   6
CONTINUOUS
  62
15
 100
AcDbCircle
  10
 322.17228864979
  20
 259.11759118926
  30
0.0
  40
 1.6000000000000
 100
AcDbArc
  50
 90.000000000000
  51
 270.00000000000
   0
LINE
   5
3B2
 100
AcDbEntity
   8
LEVEL001
 100
AcDbLine
   6
DASHDOT
  62
3
  10
 348.25682812871
  20
 254.86002790411
  30
0.0
  11
 348.25682812871
  21
 263.29773393071
  31
0.0
   0
LINE
   5
3B3
 100
AcDbEntity
   8
LEVEL001
 100
AcDbLine
   6
CONTINUOUS
  62
15
  10
 344.75682812871
  20
 260.71759118926
  30
0.0
  11
 344.75682812871
  21
 257.51759118926
  31
0.0
   0
LINE
   5
3B4
 100
AcDbEntity
   8
LEVEL001
 100
AcDbLine
   6
CONTINUOUS
  62
15
  10
 351.75682812871
  20
 260.71759118926
  30
0.0
  11
 351.75682812871
  21
 257.51759118926
  31
0.0
   0
CIRCLE
   5
3B5
 100
AcDbEntity
   8
LEVEL001
 100
AcDbCircle
   6
CONTINUOUS
  62
7
  10
 348.25682812871
  20
 259.11759118926
  30
0.0
  40
 2.7423603249118
   0
LINE
   5
3B6
 100
AcDbEntity
   8
LEVEL001
 100
AcDbLine
   6
CONTINUOUS
  62
15
  10
 346.02960111926
  20
 260.71759118926
  30
0.0
  11
 322.17228864979
  21
 260.71759118926
  31
0.0
   0
LINE
   5
3B7
 100
AcDbEntity
   8
LEVEL001
 100
AcDbLine
   6
CONTINUOUS
  62
15
  10
 372.17228864979
  20
 260.71759118926
  30
0.0
  11
 350.48405513817
  21
 260.71759118926
  31
0.0
   0
LINE
   5
3B8
 100
AcDbEntity
   8
LEVEL001
 100
AcDbLine
   6
CONTINUOUS
  62
15
  10
 346.02960111926
  20
 257.51759118926
  30
0.0
  11
 322.17228864979
  21
 257.51759118926
  31
0.0
   0
LINE
   5
3B9
 100
AcDbEntity
   8
LEVEL001
 100
AcDbLine
   6
CONTINUOUS
  62
15
  10
 372.17228864979
  20
 257.51759118926
  30
0.0
  11
 350.48405513817
  21
 257.51759118926
  31
0.0
   0
ARC
   5
3BA
 100
AcDbEntity
   8
LEVEL001
   6
CONTINUOUS
  62
7
 100
AcDbCircle
  10
 348.25682812871
  20
 259.11759118926
  30
0.0
  40
 2.0090681839876
 100
AcDbArc
  50
 75.589251056638
  51
 104.41074894336
   0
ARC
   5
3BB
 100
AcDbEntity
   8
LEVEL001
   6
CONTINUOUS
  62
7
 100
AcDbCircle
  10
 348.25682812871
  20
 259.11759118926
  30
0.0
  40
 2.0090681839876
 100
AcDbArc
  50
 345.58925105664
  51
 14.410748943362
   0
ARC
   5
3BC
 100
AcDbEntity
   8
LEVEL001
   6
CONTINUOUS
  62
7
 100
AcDbCircle
  10
 348.25682812871
  20
 259.11759118926
  30
0.0
  40
 2.0090681839876
 100
AcDbArc
  50
 165.58925105664
  51
 194.41074894336
   0
ARC
   5
3BD
 100
AcDbEntity
   8
LEVEL001
   6
CONTINUOUS
  62
7
 100
AcDbCircle
  10
 348.25682812871
  20
 259.11759118926
  30
0.0
  40
 2.0090681839876
 100
AcDbArc
  50
 255.58925105664
  51
 284.41074894336
   0
LINE
   5
3BE
 100
AcDbEntity
   8
LEVEL001
 100
AcDbLine
   6
CONTINUOUS
  62
7
  10
 346.31097228412
  20
 259.61759118926
  30
0.0
  11
 347.25682812871
  21
 259.61759118926
  31
0.0
   0
ARC
   5
3BF
 100
AcDbEntity
   8
LEVEL001
   6
CONTINUOUS
  62
7
 100
AcDbCircle
  10
 347.25682812871
  20
 260.11759118926
  30
0.0
  40
 0.50000000000000
 100
AcDbArc
  50
 270.00000000000
  51
0.0
   0
POINT
   5
3C0
 100
AcDbEntity
   8
LEVEL001
 100
AcDbPoint
  62
7
  10
 347.75682812871
  20
 259.61759118926
  30
0.0
   0
LINE
   5
3C1
 100
AcDbEntity
   8
LEVEL001
 100
AcDbLine
   6
CONTINUOUS
  62
7
  10
 347.75682812871
  20
 261.06344703385
  30
0.0
  11
 347.75682812871
  21
 260.11759118926
  31
0.0
   0
LINE
   5
3C2
 100
AcDbEntity
   8
LEVEL001
 100
AcDbLine
   6
CONTINUOUS
  62
7
  10
 348.75682812871
  20
 261.06344703385
  30
0.0
  11
 348.75682812871
  21
 260.11759118926
  31
0.0
   0
ARC
   5
3C3
 100
AcDbEntity
   8
LEVEL001
   6
CONTINUOUS
  62
7
 100
AcDbCircle
  10
 349.25682812871
  20
 260.11759118926
  30
0.0
  40
 0.50000000000000
 100
AcDbArc
  50
 180.00000000000
  51
 270.00000000000
   0
POINT
   5
3C4
 100
AcDbEntity
   8
LEVEL001
 100
AcDbPoint
  62
7
  10
 348.75682812871
  20
 259.61759118926
  30
0.0
   0
LINE
   5
3C5
 100
AcDbEntity
   8
LEVEL001
 100
AcDbLine
   6
CONTINUOUS
  62
7
  10
 349.25682812871
  20
 259.61759118926
  30
0.0
  11
 350.20268397330
  21
 259.61759118926
  31
0.0
   0
LINE
   5
3C6
 100
AcDbEntity
   8
LEVEL001
 100
AcDbLine
   6
CONTINUOUS
  62
7
  10
 349.25682812871
  20
 258.61759118926
  30
0.0
  11
 350.20268397330
  21
 258.61759118926
  31
0.0
   0
ARC
   5
3C7
 100
AcDbEntity
   8
LEVEL001
   6
CONTINUOUS
  62
7
 100
AcDbCircle
  10
 349.25682812871
  20
 258.11759118926
  30
0.0
  40
 0.50000000000000
 100
AcDbArc
  50
 90.000000000000
  51
 180.00000000000
   0
POINT
   5
3C8
 100
AcDbEntity
   8
LEVEL001
 100
AcDbPoint
  62
7
  10
 348.75682812871
  20
 258.61759118926
  30
0.0
   0
LINE
   5
3C9
 100
AcDbEntity
   8
LEVEL001
 100
AcDbLine
   6
CONTINUOUS
  62
7
  10
 348.75682812871
  20
 258.11759118926
  30
0.0
  11
 348.75682812871
  21
 257.17173534468
  31
0.0
   0
LINE
   5
3CA
 100
AcDbEntity
   8
LEVEL001
 100
AcDbLine
   6
CONTINUOUS
  62
7
  10
 346.31097228412
  20
 258.61759118926
  30
0.0
  11
 347.25682812871
  21
 258.61759118926
  31
0.0
   0
ARC
   5
3CB
 100
AcDbEntity
   8
LEVEL001
   6
CONTINUOUS
  62
7
 100
AcDbCircle
  10
 347.25682812871
  20
 258.11759118926
  30
0.0
  40
 0.50000000000000
 100
AcDbArc
  50
0.0
  51
 90.000000000000
   0
POINT
   5
3CC
 100
AcDbEntity
   8
LEVEL001
 100
AcDbPoint
  62
7
  10
 347.75682812871
  20
 258.61759118926
  30
0.0
   0
LINE
   5
3CD
 100
AcDbEntity
   8
LEVEL001
 100
AcDbLine
   6
CONTINUOUS
  62
7
  10
 347.75682812871
  20
 258.11759118926
  30
0.0
  11
 347.75682812871
  21
 257.17173534468
  31
0.0
   0
POINT
   5
3CE
 100
AcDbEntity
   8
LEVEL001
 100
AcDbPoint
  62
7
  10
 40.372288649791
  20
 199.31832551617
  30
0.0
   0
LINE
   5
3CF
 100
AcDbEntity
   8
LEVEL001
 100
AcDbLine
   6
DASHDOT
  62
3
  10
 51.429005585493
  20
 196.81832551617
  30
0.0
  11
 41.019563904678
  21
 196.81832551617
  31
0.0
   0
LINE
   5
3D0
 100
AcDbEntity
   8
LEVEL001
 100
AcDbLine
   6
DASHDOT
  62
3
  10
 46.672288649791
  20
 202.28163268652
  30
0.0
  11
 46.672288649791
  21
 190.54678204412
  31
0.0
   0
LINE
   5
3D1
 100
AcDbEntity
   8
LEVEL001
 100
AcDbLine
   6
CONTINUOUS
  62
7
  10
 384.17228864979
  20
 199.81832551617
  30
0.0
  11
 384.17228864979
  21
 190.19684196846
  31
0.0
   0
ARC
   5
3D2
 100
AcDbEntity
   8
LEVEL001
   6
CONTINUOUS
  62
7
 100
AcDbCircle
  10
 384.17228864979
  20
 199.31832551617
  30
0.0
  40
 0.50000000000000
 100
AcDbArc
  50
0.0
  51
 89.999999999733
   0
POINT
   5
3D3
 100
AcDbEntity
   8
LEVEL001
 100
AcDbPoint
  62
7
  10
 384.67228864979
  20
 199.81832551617
  30
0.0
   0
POINT
   5
3D4
 100
AcDbEntity
   8
LEVEL001
 100
AcDbPoint
  62
7
  10
 384.17228864979
  20
 189.31832551617
  30
0.0
   0
LINE
   5
3D5
 100
AcDbEntity
   8
LEVEL001
 100
AcDbLine
   6
DASHDOT
  62
3
  10
 392.67228864979
  20
 182.61093348889
  30
0.0
  11
 392.67228864979
  21
 173.88062296277
  31
0.0
   0
ARC
   5
3D6
 100
AcDbEntity
   8
LEVEL001
   6
CONTINUOUS
  62
7
 100
AcDbCircle
  10
 384.67228864979
  20
 178.31832551617
  30
0.0
  40
 0.50000000000000
 100
AcDbArc
  50
 180.00000000027
  51
 270.00000000000
   0
POINT
   5
3D7
 100
AcDbEntity
   8
LEVEL001
 100
AcDbPoint
  62
7
  10
 384.17228864979
  20
 177.81832551617
  30
0.0
   0
LINE
   5
3D8
 100
AcDbEntity
   8
LEVEL001
 100
AcDbLine
   6
CONTINUOUS
  62
7
  10
 384.67228864979
  20
 199.31832551617
  30
0.0
  11
 384.67228864979
  21
 178.31832551617
  31
0.0
   0
ARC
   5
3D9
 100
AcDbEntity
   8
LEVEL001
   6
CONTINUOUS
  62
7
 100
AcDbCircle
  10
 40.172288649791
  20
 199.31832551618
  30
0.0
  40
 0.50000000000000
 100
AcDbArc
  50
 90.000000000000
  51
 180.00000000110
   0
POINT
   5
3DA
 100
AcDbEntity
   8
LEVEL001
 100
AcDbPoint
  62
7
  10
 39.672288649791
  20
 199.81832551617
  30
0.0
   0
POINT
   5
3DB
 100
AcDbEntity
   8
LEVEL001
 100
AcDbPoint
  62
7
  10
 40.172288649791
  20
 177.81832551617
  30
0.0
   0
ARC
   5
3DC
 100
AcDbEntity
   8
LEVEL001
   6
CONTINUOUS
  62
7
 100
AcDbCircle
  10
 39.672288649801
  20
 178.31832551617
  30
0.0
  40
 0.50000000000000
 100
AcDbArc
  50
 269.99999999889
  51
0.0
   0
POINT
   5
3DD
 100
AcDbEntity
   8
LEVEL001
 100
AcDbPoint
  62
7
  10
 40.172288649791
  20
 177.81832551617
  30
0.0
   0
LINE
   5
3DE
 100
AcDbEntity
   8
LEVEL001
 100
AcDbLine
   6
CONTINUOUS
  62
7
  10
 39.672288649791
  20
 199.31832551616
  30
0.0
  11
 39.672288649791
  21
 178.31832551617
  31
0.0
   0
LINE
   5
3DF
 100
AcDbEntity
   8
LEVEL001
 100
AcDbLine
   6
DASHDOT
  62
3
  10
 31.672288649791
  20
 182.61093348889
  30
0.0
  11
 31.672288649791
  21
 173.88062296277
  31
0.0
   0
LINE
   5
3E0
 100
AcDbEntity
   8
LEVEL001
 100
AcDbLine
   6
CONTINUOUS
  62
7
  10
 23.672288649791
  20
 177.81832551617
  30
0.0
  11
 23.672288649791
  21
 178.31832551617
  31
0.0
   0
LINE
   5
3E1
 100
AcDbEntity
   8
LEVEL001
 100
AcDbLine
   6
CONTINUOUS
  62
7
  10
 39.672288649791
  20
 178.31832551617
  30
0.0
  11
 23.672288649791
  21
 178.31832551617
  31
0.0
   0
LINE
   5
3E2
 100
AcDbEntity
   8
LEVEL001
 100
AcDbLine
   6
CONTINUOUS
  62
7
  10
 39.672288649791
  20
 177.81832551617
  30
0.0
  11
 23.672288649791
  21
 177.81832551617
  31
0.0
   0
LINE
   5
3E3
 100
AcDbEntity
   8
LEVEL001
 100
AcDbLine
   6
CONTINUOUS
  62
7
  10
 384.67228864979
  20
 178.31832551617
  30
0.0
  11
 400.67228864979
  21
 178.31832551617
  31
0.0
   0
LINE
   5
3E4
 100
AcDbEntity
   8
LEVEL001
 100
AcDbLine
   6
CONTINUOUS
  62
7
  10
 384.67228864979
  20
 177.81832551617
  30
0.0
  11
 400.67228864979
  21
 177.81832551617
  31
0.0
   0
LINE
   5
3E5
 100
AcDbEntity
   8
LEVEL001
 100
AcDbLine
   6
CONTINUOUS
  62
7
  10
 400.67228864979
  20
 177.81832551617
  30
0.0
  11
 400.67228864979
  21
 178.31832551617
  31
0.0
   0
ARC
   5
3E6
 100
AcDbEntity
   8
LEVEL001
   6
CONTINUOUS
  62
15
 100
AcDbCircle
  10
 50.172288649791
  20
 199.31832551618
  30
0.0
  40
 0.50000000000000
 100
AcDbArc
  50
 90.000000000000
  51
 180.00000000110
   0
POINT
   5
3E7
 100
AcDbEntity
   8
LEVEL001
 100
AcDbPoint
  62
15
  10
 49.672288649791
  20
 199.81832551617
  30
0.0
   0
LINE
   5
3E8
 100
AcDbEntity
   8
LEVEL001
 100
AcDbLine
   6
CONTINUOUS
  62
15
  10
 50.672288649791
  20
 199.81832551617
  30
0.0
  11
 50.172288649791
  21
 199.81832551617
  31
0.0
   0
LINE
   5
3E9
 100
AcDbEntity
   8
LEVEL001
 100
AcDbLine
   6
CONTINUOUS
  62
15
  10
 50.672288649791
  20
 199.31832551617
  30
0.0
  11
 50.202288649791
  21
 199.31832551617
  31
0.0
   0
POINT
   5
3EA
 100
AcDbEntity
   8
LEVEL001
 100
AcDbPoint
  62
7
  10
 49.672288649791
  20
 198.81832551617
  30
0.0
   0
LINE
   5
3EB
 100
AcDbEntity
   8
LEVEL001
 100
AcDbLine
   6
CONTINUOUS
  62
15
  10
 49.672288649791
  20
 198.19528982425
  30
0.0
  11
 49.672288649791
  21
 199.31832551617
  31
0.0
   0
ARC
   5
3EC
 100
AcDbEntity
   8
LEVEL001
   6
CONTINUOUS
  62
7
 100
AcDbCircle
  10
 46.672288649791
  20
 196.81832551617
  30
0.0
  40
 3.0000000000000
 100
AcDbArc
  50
 180.00000000000
  51
0.0
   0
LINE
   5
3ED
 100
AcDbEntity
   8
LEVEL001
 100
AcDbLine
   6
CONTINUOUS
  62
7
  10
 40.172288649791
  20
 199.81832551617
  30
0.0
  11
 42.672288649791
  21
 199.81832551617
  31
0.0
   0
LINE
   5
3EE
 100
AcDbEntity
   8
LEVEL001
 100
AcDbLine
   6
DASHDOT
  62
3
  10
 177.68362211948
  20
 207.09149795888
  30
0.0
  11
 177.68362211948
  21
 197.54515307353
  31
0.0
   0
CIRCLE
   5
3EF
 100
AcDbEntity
   8
LEVEL001
 100
AcDbCircle
   6
CONTINUOUS
  62
7
  10
 184.68362211948
  20
 191.81832551617
  30
0.0
  40
 1.5000000000000
   0
LINE
   5
3F0
 100
AcDbEntity
   8
LEVEL001
 100
AcDbLine
   6
CONTINUOUS
  62
7
  10
 192.18362211948
  20
 201.31832551620
  30
0.0
  11
 187.05353231119
  21
 200.35283157064
  31
0.0
   0
ARC
   5
3F1
 100
AcDbEntity
   8
LEVEL001
   6
CONTINUOUS
  62
15
 100
AcDbCircle
  10
 186.68362211948
  20
 202.31832551620
  30
0.0
  40
 2.4999999999999
 100
AcDbArc
  50
 216.86989764585
  51
 280.65851440039
   0
LINE
   5
3F2
 100
AcDbEntity
   8
LEVEL001
 100
AcDbLine
   6
CONTINUOUS
  62
15
  10
 192.18362211948
  20
 200.80954755621
  30
0.0
  11
 187.14600985912
  21
 199.86145808424
  31
0.0
   0
LINE
   5
3F3
 100
AcDbEntity
   8
LEVEL001
 100
AcDbLine
   6
CONTINUOUS
  62
7
  10
 192.18362211948
  20
 201.61832551620
  30
0.0
  11
 187.63480958679
  21
 204.07765561656
  31
0.0
   0
ARC
   5
3F4
 100
AcDbEntity
   8
LEVEL001
   6
CONTINUOUS
  62
7
 100
AcDbCircle
  10
 186.68362211948
  20
 202.31832551620
  30
0.0
  40
 1.9999999999999
 100
AcDbArc
  50
 61.601984992793
  51
 280.65851440042
   0
LINE
   5
3F5
 100
AcDbEntity
   8
LEVEL001
 100
AcDbLine
   6
DASHDOT
  62
3
  10
 193.61661024410
  20
 202.31832551620
  30
0.0
  11
 171.45287169418
  21
 202.31832551620
  31
0.0
   0
LINE
   5
3F6
 100
AcDbEntity
   8
LEVEL001
 100
AcDbLine
   6
CONTINUOUS
  62
7
  10
 173.18362211947
  20
 201.61832551620
  30
0.0
  11
 176.53955093757
  21
 203.95878311417
  31
0.0
   0
LINE
   5
3F7
 100
AcDbEntity
   8
LEVEL001
 100
AcDbLine
   6
CONTINUOUS
  62
7
  10
 173.18362211947
  20
 201.31832551620
  30
0.0
  11
 177.22746324244
  21
 200.37104046288
  31
0.0
   0
LINE
   5
3F8
 100
AcDbEntity
   8
LEVEL001
 100
AcDbLine
   6
CONTINUOUS
  62
15
  10
 173.18362211947
  20
 200.80954755621
  30
0.0
  11
 177.11063014820
  21
 199.88487524943
  31
0.0
   0
ARC
   5
3F9
 100
AcDbEntity
   8
LEVEL001
   6
CONTINUOUS
  62
15
 100
AcDbCircle
  10
 177.68362211948
  20
 202.31832551620
  30
0.0
  40
 2.5000000000005
 100
AcDbArc
  50
 256.75021204768
  51
 323.13010235415
   0
CIRCLE
   5
3FA
 100
AcDbEntity
   8
LEVEL001
 100
AcDbCircle
   6
CONTINUOUS
  62
7
  10
 177.68362211948
  20
 202.31832551620
  30
0.0
  40
 2.0000000000000
   0
LINE
   5
3FB
 100
AcDbEntity
   8
LEVEL001
 100
AcDbLine
   6
DASHDOT
  62
3
  10
 180.45235299044
  20
 191.81832551617
  30
0.0
  11
 189.02732366614
  21
 191.81832551617
  31
0.0
   0
LINE
   5
3FC
 100
AcDbEntity
   8
LEVEL001
 100
AcDbLine
   6
DASHDOT
  62
3
  10
 184.68362211948
  20
 196.16674391739
  30
0.0
  11
 184.68362211948
  21
 187.44746461740
  31
0.0
   0
LINE
   5
3FD
 100
AcDbEntity
   8
LEVEL001
 100
AcDbLine
   6
CONTINUOUS
  62
15
  10
 39.672288649791
  20
 186.66494286380
  30
0.0
  11
 37.672288649791
  21
 186.66494286380
  31
0.0
   0
LINE
   5
3FE
 100
AcDbEntity
   8
LEVEL001
 100
AcDbLine
   6
CONTINUOUS
  62
15
  10
 37.672288649791
  20
 186.66494286380
  30
0.0
  11
 37.672288649791
  21
 180.31832551617
  31
0.0
   0
LINE
   5
3FF
 100
AcDbEntity
   8
LEVEL001
 100
AcDbLine
   6
CONTINUOUS
  62
15
  10
 37.672288649791
  20
 180.31832551617
  30
0.0
  11
 31.672288649791
  21
 180.31832551617
  31
0.0
   0
LINE
   5
400
 100
AcDbEntity
   8
LEVEL001
 100
AcDbLine
   6
CONTINUOUS
  62
15
  10
 384.67228864979
  20
 186.66494286380
  30
0.0
  11
 386.67228864979
  21
 186.66494286380
  31
0.0
   0
LINE
   5
401
 100
AcDbEntity
   8
LEVEL001
 100
AcDbLine
   6
CONTINUOUS
  62
15
  10
 386.67228864979
  20
 186.66494286380
  30
0.0
  11
 386.67228864979
  21
 180.31832551617
  31
0.0
   0
LINE
   5
402
 100
AcDbEntity
   8
LEVEL001
 100
AcDbLine
   6
CONTINUOUS
  62
15
  10
 386.67228864979
  20
 180.31832551617
  30
0.0
  11
 392.67228864979
  21
 180.31832551617
  31
0.0
   0
LINE
   5
403
 100
AcDbEntity
   8
LEVEL001
 100
AcDbLine
   6
CONTINUOUS
  62
15
  10
 392.67228864979
  20
 180.31832551617
  30
0.0
  11
 392.67228864979
  21
 178.31832551617
  31
0.0
   0
LINE
   5
404
 100
AcDbEntity
   8
LEVEL001
 100
AcDbLine
   6
DIVIDE
  62
3
  10
 60.733065796012
  20
 203.72432498065
  30
0.0
  11
 56.652174913076
  21
 200.46912458719
  31
0.0
   0
ARC
   5
405
 100
AcDbEntity
   8
LEVEL001
   6
DIVIDE
  62
3
 100
AcDbCircle
  10
 55.405008312865
  20
 202.03263840911
  30
0.0
  40
 1.9999999999999
 100
AcDbArc
  50
 89.521751420814
  51
 308.57828082864
   0
LINE
   5
406
 100
AcDbEntity
   8
LEVEL001
 100
AcDbLine
   6
DIVIDE
  62
3
  10
 60.592595393196
  20
 203.98940622468
  30
0.0
  11
 55.421702143712
  21
 204.03256873690
  31
0.0
   0
CIRCLE
   5
407
 100
AcDbEntity
   8
LEVEL001
 100
AcDbCircle
   6
DIVIDE
  62
3
  10
 47.452570992177
  20
 197.81852632464
  30
0.0
  40
 2.0000000000000
   0
ARC
   5
408
 100
AcDbEntity
   8
LEVEL001
   6
CONTINUOUS
  62
7
 100
AcDbCircle
  10
 50.172288649791
  20
 180.31832551617
  30
0.0
  40
 1.0000000000000
 100
AcDbArc
  50
0.0
  51
 180.00000000000
   0
LINE
   5
409
 100
AcDbEntity
   8
LEVEL001
 100
AcDbLine
   6
CONTINUOUS
  62
7
  10
 52.172288649791
  20
 182.31832551617
  30
0.0
  11
 52.172288649791
  21
 180.31832551617
  31
0.0
   0
LINE
   5
40A
 100
AcDbEntity
   8
LEVEL001
 100
AcDbLine
   6
CONTINUOUS
  62
7
  10
 52.172288649791
  20
 182.31832551617
  30
0.0
  11
 48.172288649791
  21
 182.31832551617
  31
0.0
   0
LINE
   5
40B
 100
AcDbEntity
   8
LEVEL001
 100
AcDbLine
   6
CONTINUOUS
  62
7
  10
 52.172288649791
  20
 180.31832551617
  30
0.0
  11
 48.172288649791
  21
 180.31832551617
  31
0.0
   0
LINE
   5
40C
 100
AcDbEntity
   8
LEVEL001
 100
AcDbLine
   6
CONTINUOUS
  62
7
  10
 48.172288649791
  20
 182.31832551617
  30
0.0
  11
 48.172288649791
  21
 180.31832551617
  31
0.0
   0
LINE
   5
40D
 100
AcDbEntity
   8
LEVEL001
 100
AcDbLine
   6
CONTINUOUS
  62
15
  10
 31.672288649791
  20
 180.31832551617
  30
0.0
  11
 31.672288649791
  21
 178.31832551617
  31
0.0
   0
LINE
   5
40E
 100
AcDbEntity
   8
LEVEL001
 100
AcDbLine
   6
CONTINUOUS
  62
7
  10
 42.672288649791
  20
 199.81832551617
  30
0.0
  11
 42.672288649791
  21
 199.31832551617
  31
0.0
   0
LINE
   5
40F
 100
AcDbEntity
   8
LEVEL001
 100
AcDbLine
   6
DIVIDE
  62
3
  10
 43.995052617027
  20
 195.46466114681
  30
0.0
  11
 45.673545819713
  21
 198.73234766152
  31
0.0
   0
LINE
   5
410
 100
AcDbEntity
   8
LEVEL001
 100
AcDbLine
   6
DIVIDE
  62
3
  10
 44.339700499375
  20
 194.93178568872
  30
0.0
  11
 47.961293502976
  21
 195.88430777262
  31
0.0
   0
LINE
   5
411
 100
AcDbEntity
   8
LEVEL001
 100
AcDbLine
   6
CONTINUOUS
  62
7
  10
 40.172288649791
  20
 199.81832551617
  30
0.0
  11
 40.172288649791
  21
 177.81832551617
  31
0.0
   0
ARC
   5
412
 100
AcDbEntity
   8
LEVEL001
   6
CONTINUOUS
  62
7
 100
AcDbCircle
  10
 42.672288649800
  20
 198.31832551617
  30
0.0
  40
 1.0000000000000
 100
AcDbArc
  50
0.0
  51
 90.000000000489
   0
POINT
   5
413
 100
AcDbEntity
   8
LEVEL001
 100
AcDbPoint
  62
7
  10
 43.672288649791
  20
 199.31832551617
  30
0.0
   0
LINE
   5
414
 100
AcDbEntity
   8
LEVEL001
 100
AcDbLine
   6
CONTINUOUS
  62
7
  10
 43.672288649791
  20
 196.81832551617
  30
0.0
  11
 43.672288649791
  21
 198.31832551617
  31
0.0
   0
LINE
   5
415
 100
AcDbEntity
   8
LEVEL001
 100
AcDbLine
   6
CONTINUOUS
  62
7
  10
 49.672288649791
  20
 197.81832551617
  30
0.0
  11
 49.672288649791
  21
 196.81832551617
  31
0.0
   0
ARC
   5
416
 100
AcDbEntity
   8
LEVEL001
   6
CONTINUOUS
  62
7
 100
AcDbCircle
  10
 50.672288649791
  20
 197.81832551618
  30
0.0
  40
 1.0000000000000
 100
AcDbArc
  50
 90.000000000000
  51
 180.00000000055
   0
LINE
   5
417
 100
AcDbEntity
   8
LEVEL001
 100
AcDbLine
   6
CONTINUOUS
  62
7
  10
 50.672288649791
  20
 198.81832551617
  30
0.0
  11
 50.672288649791
  21
 199.81832551617
  31
0.0
   0
LINE
   5
418
 100
AcDbEntity
   8
LEVEL001
 100
AcDbLine
   6
CONTINUOUS
  62
15
  10
 50.202288649791
  20
 198.82708374664
  30
0.0
  11
 50.202288649791
  21
 199.31832551617
  31
0.0
   0
LINE
   5
419
 100
AcDbEntity
   8
LEVEL001
 100
AcDbLine
   6
DIVIDE
  62
3
  10
 49.219779285664
  20
 198.75499567675
  30
0.0
  11
 49.675266904783
  21
 197.89544646002
  31
0.0
   0
LINE
   5
41A
 100
AcDbEntity
   8
LEVEL001
 100
AcDbLine
   6
DIVIDE
  62
3
  10
 53.637800019382
  20
 201.09616905701
  30
0.0
  11
 54.314947878631
  21
 199.81832551617
  31
0.0
   0
LINE
   5
41B
 100
AcDbEntity
   8
LEVEL001
 100
AcDbLine
   6
DIVIDE
  62
3
  10
 60.592595393196
  20
 203.98940622468
  30
0.0
  11
 62.802911666083
  21
 199.81832551617
  31
0.0
   0
ARC
   5
41C
 100
AcDbEntity
   8
LEVEL001
   6
CONTINUOUS
  62
7
 100
AcDbCircle
  10
 158.17228864979
  20
 180.31832551617
  30
0.0
  40
 1.0000000000000
 100
AcDbArc
  50
0.0
  51
 180.00000000000
   0
LINE
   5
41D
 100
AcDbEntity
   8
LEVEL001
 100
AcDbLine
   6
CONTINUOUS
  62
7
  10
 160.17228864979
  20
 182.31832551617
  30
0.0
  11
 160.17228864979
  21
 180.31832551617
  31
0.0
   0
LINE
   5
41E
 100
AcDbEntity
   8
LEVEL001
 100
AcDbLine
   6
CONTINUOUS
  62
7
  10
 160.17228864979
  20
 180.31832551617
  30
0.0
  11
 156.17228864979
  21
 180.31832551617
  31
0.0
   0
LINE
   5
41F
 100
AcDbEntity
   8
LEVEL001
 100
AcDbLine
   6
CONTINUOUS
  62
7
  10
 160.17228864979
  20
 182.31832551617
  30
0.0
  11
 156.17228864979
  21
 182.31832551617
  31
0.0
   0
LINE
   5
420
 100
AcDbEntity
   8
LEVEL001
 100
AcDbLine
   6
CONTINUOUS
  62
7
  10
 156.17228864979
  20
 182.31832551617
  30
0.0
  11
 156.17228864979
  21
 180.31832551617
  31
0.0
   0
LINE
   5
421
 100
AcDbEntity
   8
LEVEL001
 100
AcDbLine
   6
CONTINUOUS
  62
7
  10
 173.18362211947
  20
 199.81832551617
  30
0.0
  11
 173.18362211947
  21
 201.61832551620
  31
0.0
   0
LINE
   5
422
 100
AcDbEntity
   8
LEVEL001
 100
AcDbLine
   6
CONTINUOUS
  62
7
  10
 179.68362211948
  20
 202.31832551620
  30
0.0
  11
 179.68362211948
  21
 199.81832551617
  31
0.0
   0
LINE
   5
423
 100
AcDbEntity
   8
LEVEL001
 100
AcDbLine
   6
CONTINUOUS
  62
7
  10
 184.68362211948
  20
 202.31832551620
  30
0.0
  11
 184.68362211948
  21
 199.81832551617
  31
0.0
   0
LINE
   5
424
 100
AcDbEntity
   8
LEVEL001
 100
AcDbLine
   6
CONTINUOUS
  62
7
  10
 192.18362211948
  20
 201.61832551620
  30
0.0
  11
 192.18362211948
  21
 199.81832551617
  31
0.0
   0
LINE
   5
425
 100
AcDbEntity
   8
LEVEL001
 100
AcDbLine
   6
DASHDOT
  62
3
  10
 186.68362211948
  20
 207.09149795888
  30
0.0
  11
 186.68362211948
  21
 197.54515307353
  31
0.0
   0
ARC
   5
426
 100
AcDbEntity
   8
LEVEL001
   6
CONTINUOUS
  62
7
 100
AcDbCircle
  10
 211.17228864979
  20
 178.81832551617
  30
0.0
  40
 1.0000000000000
 100
AcDbArc
  50
 269.99999999997
  51
0.0
   0
POINT
   5
427
 100
AcDbEntity
   8
LEVEL001
 100
AcDbPoint
  62
7
  10
 212.17228864979
  20
 177.81832551617
  30
0.0
   0
ARC
   5
428
 100
AcDbEntity
   8
LEVEL001
   6
CONTINUOUS
  62
7
 100
AcDbCircle
  10
 213.17228864979
  20
 188.31832551616
  30
0.0
  40
 1.0000000000000
 100
AcDbArc
  50
 90.000000000000
  51
 179.99999999993
   0
POINT
   5
429
 100
AcDbEntity
   8
LEVEL001
 100
AcDbPoint
  62
7
  10
 212.17228864979
  20
 189.31832551617
  30
0.0
   0
LINE
   5
42A
 100
AcDbEntity
   8
LEVEL001
 100
AcDbLine
   6
CONTINUOUS
  62
7
  10
 212.17228864979
  20
 188.31832551617
  30
0.0
  11
 212.17228864979
  21
 178.81832551617
  31
0.0
   0
ARC
   5
42B
 100
AcDbEntity
   8
LEVEL001
   6
CONTINUOUS
  62
7
 100
AcDbCircle
  10
 213.67228864979
  20
 188.31832551616
  30
0.0
  40
 0.50000000000000
 100
AcDbArc
  50
 90.000000000000
  51
 179.99999999984
   0
POINT
   5
42C
 100
AcDbEntity
   8
LEVEL001
 100
AcDbPoint
  62
7
  10
 213.17228864979
  20
 188.81832551617
  30
0.0
   0
LINE
   5
42D
 100
AcDbEntity
   8
LEVEL001
 100
AcDbLine
   6
CONTINUOUS
  62
7
  10
 213.17228864979
  20
 188.31832551617
  30
0.0
  11
 213.17228864979
  21
 183.31832551617
  31
0.0
   0
ARC
   5
42E
 100
AcDbEntity
   8
LEVEL001
   6
CONTINUOUS
  62
7
 100
AcDbCircle
  10
 213.67228864979
  20
 183.31832551617
  30
0.0
  40
 0.50000000000000
 100
AcDbArc
  50
 180.00000000000
  51
 269.99999999986
   0
POINT
   5
42F
 100
AcDbEntity
   8
LEVEL001
 100
AcDbPoint
  62
7
  10
 213.17228864979
  20
 182.81832551617
  30
0.0
   0
ARC
   5
430
 100
AcDbEntity
   8
LEVEL001
   6
CONTINUOUS
  62
7
 100
AcDbCircle
  10
 266.17228864979
  20
 191.31832551617
  30
0.0
  40
 1.0000000000000
 100
AcDbArc
  50
0.0
  51
 180.00000000000
   0
LINE
   5
431
 100
AcDbEntity
   8
LEVEL001
 100
AcDbLine
   6
CONTINUOUS
  62
7
  10
 268.17228864979
  20
 193.31832551617
  30
0.0
  11
 268.17228864979
  21
 191.31832551617
  31
0.0
   0
LINE
   5
432
 100
AcDbEntity
   8
LEVEL001
 100
AcDbLine
   6
CONTINUOUS
  62
7
  10
 268.17228864979
  20
 191.31832551617
  30
0.0
  11
 264.17228864979
  21
 191.31832551617
  31
0.0
   0
LINE
   5
433
 100
AcDbEntity
   8
LEVEL001
 100
AcDbLine
   6
CONTINUOUS
  62
7
  10
 268.17228864979
  20
 193.31832551617
  30
0.0
  11
 264.17228864979
  21
 193.31832551617
  31
0.0
   0
LINE
   5
434
 100
AcDbEntity
   8
LEVEL001
 100
AcDbLine
   6
CONTINUOUS
  62
7
  10
 264.17228864979
  20
 193.31832551617
  30
0.0
  11
 264.17228864979
  21
 191.31832551617
  31
0.0
   0
LINE
   5
435
 100
AcDbEntity
   8
LEVEL001
 100
AcDbLine
   6
DASHDOT
  62
3
  10
 348.25682812871
  20
 197.55179624480
  30
0.0
  11
 348.25682812871
  21
 202.61198663849
  31
0.0
   0
LINE
   5
436
 100
AcDbEntity
   8
LEVEL001
 100
AcDbLine
   6
CONTINUOUS
  62
7
  10
 348.99918845362
  20
 201.31832551617
  30
0.0
  11
 347.51446780380
  21
 201.31832551617
  31
0.0
   0
LINE
   5
437
 100
AcDbEntity
   8
LEVEL001
 100
AcDbLine
   6
CONTINUOUS
  62
7
  10
 50.672288649791
  20
 199.81832551617
  30
0.0
  11
 384.17228864979
  21
 199.81832551617
  31
0.0
   0
ARC
   5
438
 100
AcDbEntity
   8
LEVEL001
   6
CONTINUOUS
  62
7
 100
AcDbCircle
  10
 348.99918845362
  20
 199.31832551617
  30
0.0
  40
 2.0000000000000
 100
AcDbArc
  50
 14.477512185930
  51
 90.000000000002
   0
ARC
   5
439
 100
AcDbEntity
   8
LEVEL001
   6
CONTINUOUS
  62
7
 100
AcDbCircle
  10
 347.51446780380
  20
 199.31832551617
  30
0.0
  40
 2.0000000000000
 100
AcDbArc
  50
 90.000000000044
  51
 165.52248781407
   0
LINE
   5
43A
 100
AcDbEntity
   8
LEVEL001
 100
AcDbLine
   6
CONTINUOUS
  62
7
  10
 333.67228864979
  20
 182.21832551617
  30
0.0
  11
 376.17228864979
  21
 182.21832551617
  31
0.0
   0
ARC
   5
43B
 100
AcDbEntity
   8
LEVEL001
   6
CONTINUOUS
  62
7
 100
AcDbCircle
  10
 333.67228864979
  20
 182.81832551617
  30
0.0
  40
 0.59999999999999
 100
AcDbArc
  50
 180.00000000012
  51
 270.00000000000
   0
LINE
   5
43C
 100
AcDbEntity
   8
LEVEL001
 100
AcDbLine
   6
CONTINUOUS
  62
7
  10
 383.17228864979
  20
 189.31832551617
  30
0.0
  11
 213.17228864979
  21
 189.31832551617
  31
0.0
   0
LINE
   5
43D
 100
AcDbEntity
   8
LEVEL001
 100
AcDbLine
   6
CONTINUOUS
  62
7
  10
 333.07228864979
  20
 188.81832551617
  30
0.0
  11
 213.67228864979
  21
 188.81832551617
  31
0.0
   0
LINE
   5
43E
 100
AcDbEntity
   8
LEVEL001
 100
AcDbLine
   6
CONTINUOUS
  62
7
  10
 213.67228864979
  20
 182.81832551617
  30
0.0
  11
 333.07228864979
  21
 182.81832551617
  31
0.0
   0
ARC
   5
43F
 100
AcDbEntity
   8
LEVEL001
   6
CONTINUOUS
  62
7
 100
AcDbCircle
  10
 333.67228864979
  20
 188.81832551617
  30
0.0
  40
 0.59999999999999
 100
AcDbArc
  50
 123.55730976192
  51
 180.00000000000
   0
LINE
   5
440
 100
AcDbEntity
   8
LEVEL001
 100
AcDbLine
   6
CONTINUOUS
  62
7
  10
 376.17228864979
  20
 189.31832551617
  30
0.0
  11
 376.17228864979
  21
 182.21832551617
  31
0.0
   0
LINE
   5
441
 100
AcDbEntity
   8
LEVEL001
 100
AcDbLine
   6
CONTINUOUS
  62
7
  10
 40.172288649791
  20
 177.81832551617
  30
0.0
  11
 384.17228864979
  21
 177.81832551617
  31
0.0
   0
LINE
   5
442
 100
AcDbEntity
   8
LEVEL001
 100
AcDbLine
   6
CONTINUOUS
  62
7
  10
 384.17228864979
  20
 190.19684196846
  30
0.0
  11
 384.17228864979
  21
 177.81832551617
  31
0.0
   0
ARC
   5
443
 100
AcDbEntity
   8
LEVEL001
   6
CONTINUOUS
  62
7
 100
AcDbCircle
  10
 374.17228864979
  20
 191.31832551617
  30
0.0
  40
 1.0000000000000
 100
AcDbArc
  50
0.0
  51
 180.00000000000
   0
LINE
   5
444
 100
AcDbEntity
   8
LEVEL001
 100
AcDbLine
   6
CONTINUOUS
  62
7
  10
 376.17228864979
  20
 193.31832551617
  30
0.0
  11
 376.17228864979
  21
 191.31832551617
  31
0.0
   0
LINE
   5
445
 100
AcDbEntity
   8
LEVEL001
 100
AcDbLine
   6
CONTINUOUS
  62
7
  10
 376.17228864979
  20
 191.31832551617
  30
0.0
  11
 372.17228864979
  21
 191.31832551617
  31
0.0
   0
LINE
   5
446
 100
AcDbEntity
   8
LEVEL001
 100
AcDbLine
   6
CONTINUOUS
  62
7
  10
 376.17228864979
  20
 193.31832551617
  30
0.0
  11
 372.17228864979
  21
 193.31832551617
  31
0.0
   0
LINE
   5
447
 100
AcDbEntity
   8
LEVEL001
 100
AcDbLine
   6
CONTINUOUS
  62
7
  10
 372.17228864979
  20
 193.31832551617
  30
0.0
  11
 372.17228864979
  21
 191.31832551617
  31
0.0
   0
ARC
   5
448
 100
AcDbEntity
   8
LEVEL001
   6
CONTINUOUS
  62
7
 100
AcDbCircle
  10
 377.67228864979
  20
 188.31832551616
  30
0.0
  40
 0.50000000000000
 100
AcDbArc
  50
 0.14981684771566E-9
  51
 90.000000000000
   0
POINT
   5
449
 100
AcDbEntity
   8
LEVEL001
 100
AcDbPoint
  62
7
  10
 378.17228864979
  20
 188.81832551617
  30
0.0
   0
LINE
   5
44A
 100
AcDbEntity
   8
LEVEL001
 100
AcDbLine
   6
CONTINUOUS
  62
7
  10
 378.17228864979
  20
 188.31832551617
  30
0.0
  11
 378.17228864979
  21
 183.31832551617
  31
0.0
   0
ARC
   5
44B
 100
AcDbEntity
   8
LEVEL001
   6
CONTINUOUS
  62
7
 100
AcDbCircle
  10
 377.67228864979
  20
 183.31832551617
  30
0.0
  40
 0.50000000000000
 100
AcDbArc
  50
 270.00000000015
  51
0.0
   0
POINT
   5
44C
 100
AcDbEntity
   8
LEVEL001
 100
AcDbPoint
  62
7
  10
 378.17228864979
  20
 182.81832551617
  30
0.0
   0
LINE
   5
44D
 100
AcDbEntity
   8
LEVEL001
 100
AcDbLine
   6
CONTINUOUS
  62
7
  10
 376.77228864979
  20
 188.81832551617
  30
0.0
  11
 377.67228864979
  21
 188.81832551617
  31
0.0
   0
ARC
   5
44E
 100
AcDbEntity
   8
LEVEL001
   6
CONTINUOUS
  62
7
 100
AcDbCircle
  10
 376.17228864979
  20
 182.81832551617
  30
0.0
  40
 0.59999999999999
 100
AcDbArc
  50
 269.99999999990
  51
0.0
   0
LINE
   5
44F
 100
AcDbEntity
   8
LEVEL001
 100
AcDbLine
   6
CONTINUOUS
  62
7
  10
 376.77228864979
  20
 182.81832551617
  30
0.0
  11
 377.67228864979
  21
 182.81832551617
  31
0.0
   0
ARC
   5
450
 100
AcDbEntity
   8
LEVEL001
   6
CONTINUOUS
  62
7
 100
AcDbCircle
  10
 376.17228864979
  20
 188.81832551616
  30
0.0
  40
 0.59999999999999
 100
AcDbArc
  50
 0.14384588639365E-9
  51
 56.442690238342
   0
ARC
   5
451
 100
AcDbEntity
   8
LEVEL001
   6
CONTINUOUS
  62
7
 100
AcDbCircle
  10
 383.17228864979
  20
 190.31832551617
  30
0.0
  40
 1.0000000000000
 100
AcDbArc
  50
 269.99999999997
  51
0.0
   0
LINE
   5
452
 100
AcDbEntity
   8
LEVEL001
 100
AcDbLine
   6
DASHDOT
  62
3
  10
 210.18693622095
  20
 185.81832551617
  30
0.0
  11
 380.23690743903
  21
 185.81832551617
  31
0.0
   0
DIMENSION
   5
453
 100
AcDbEntity
   8
LEVEL001
   6
CONTINUOUS
  62
3
 100
AcDbDimension
   2
*D18
  10
 39.672288649791
  20
 216.93633169985
  30
0.0
  11
 212.17228864979
  21
 216.93633169985
  31
0.0
  70
0
   3
GMM001
 100
AcDbAlignedDimension
  13
 384.67228864979
  23
 199.81832551617
  33
0.0
  14
 39.672288649791
  24
 199.81832551617
  34
0.0
  50
 180.00000000000
 100
AcDbRotatedDimension
   0
DIMENSION
   5
454
 100
AcDbEntity
   8
LEVEL001
   6
CONTINUOUS
  62
3
 100
AcDbDimension
   2
*D19
  10
 23.672288649791
  20
 216.93633169985
  30
0.0
  11
 31.672288649791
  21
 216.93633169985
  31
0.0
  70
0
   3
GMM001
 100
AcDbAlignedDimension
  13
 39.672288649791
  23
 216.93633169985
  33
0.0
  14
 23.672288649791
  24
 178.31832551617
  34
0.0
  50
 180.00000000000
 100
AcDbRotatedDimension
   0
DIMENSION
   5
455
 100
AcDbEntity
   8
LEVEL001
   6
CONTINUOUS
  62
3
 100
AcDbDimension
   2
*D20
  10
 400.67228864979
  20
 216.93633169985
  30
0.0
  11
 392.67228864979
  21
 216.93633169985
  31
0.0
  70
0
   3
GMM001
 100
AcDbAlignedDimension
  13
 384.67228864979
  23
 216.93633169985
  33
0.0
  14
 400.67228864979
  24
 178.31832551617
  34
0.0
 100
AcDbRotatedDimension
   0
INSERT
   5
456
 100
AcDbEntity
   8
LEVEL001
 100
AcDbBlockReference
   2
*D21
  10
0.0
  20
0.0
  30
0.0
   0
LINE
   5
457
 100
AcDbEntity
   8
LEVEL001
 100
AcDbLine
   6
DASHDOT
  62
3
  10
 205.60036874995
  20
 142.68468114120
  30
0.0
  11
 226.10377260582
  21
 142.68468114120
  31
0.0
   0
LINE
   5
458
 100
AcDbEntity
   8
LEVEL001
 100
AcDbLine
   6
DASHDOT
  62
3
  10
 222.29834897031
  20
 144.73616546925
  30
0.0
  11
 222.29834897031
  21
 140.73081216125
  31
0.0
   0
LINE
   5
459
 100
AcDbEntity
   8
LEVEL001
 100
AcDbLine
   6
DASHDOT
  62
3
  10
 210.29834897031
  20
 144.73616546925
  30
0.0
  11
 210.29834897031
  21
 140.73081216125
  31
0.0
   0
CIRCLE
   5
45A
 100
AcDbEntity
   8
LEVEL001
 100
AcDbCircle
   6
CONTINUOUS
  62
7
  10
 210.29834897031
  20
 142.68468114120
  30
0.0
  40
 0.75000000000000
   0
CIRCLE
   5
45B
 100
AcDbEntity
   8
LEVEL001
 100
AcDbCircle
   6
CONTINUOUS
  62
7
  10
 222.29834897031
  20
 142.68468114120
  30
0.0
  40
 0.75000000000000
   0
LINE
   5
45C
 100
AcDbEntity
   8
LEVEL001
 100
AcDbLine
   6
DASHDOT
  62
3
  10
 222.29834897031
  20
 151.13319681315
  30
0.0
  11
 222.29834897031
  21
 155.13855012115
  31
0.0
   0
LINE
   5
45D
 100
AcDbEntity
   8
LEVEL001
 100
AcDbLine
   6
DASHDOT
  62
3
  10
 205.60036874995
  20
 153.18468114120
  30
0.0
  11
 226.10377260582
  21
 153.18468114120
  31
0.0
   0
CIRCLE
   5
45E
 100
AcDbEntity
   8
LEVEL001
 100
AcDbCircle
   6
CONTINUOUS
  62
7
  10
 222.29834897031
  20
 153.18468114120
  30
0.0
  40
 0.75000000000000
   0
LINE
   5
45F
 100
AcDbEntity
   8
LEVEL001
 100
AcDbLine
   6
DASHDOT
  62
3
  10
 210.29834897031
  20
 151.13319681315
  30
0.0
  11
 210.29834897031
  21
 155.13855012115
  31
0.0
   0
CIRCLE
   5
460
 100
AcDbEntity
   8
LEVEL001
 100
AcDbCircle
   6
CONTINUOUS
  62
7
  10
 210.29834897031
  20
 153.18468114120
  30
0.0
  40
 0.75000000000000
   0
CIRCLE
   5
461
 100
AcDbEntity
   8
LEVEL001
 100
AcDbCircle
   6
CONTINUOUS
  62
7
  10
 216.29834897031
  20
 153.18468114120
  30
0.0
  40
 3.0000000000000
   0
CIRCLE
   5
462
 100
AcDbEntity
   8
LEVEL001
 100
AcDbCircle
   6
CONTINUOUS
  62
7
  10
 216.29834897031
  20
 142.68468114120
  30
0.0
  40
 3.0000000000000
   0
LINE
   5
463
 100
AcDbEntity
   8
LEVEL001
 100
AcDbLine
   6
DIVIDE
  62
3
  10
 207.29834897031
  20
 156.18468114120
  30
0.0
  11
 225.29834897031
  21
 156.18468114120
  31
0.0
   0
LINE
   5
464
 100
AcDbEntity
   8
LEVEL001
 100
AcDbLine
   6
DIVIDE
  62
3
  10
 225.29834897031
  20
 150.18468114120
  30
0.0
  11
 207.29834897031
  21
 150.18468114120
  31
0.0
   0
LINE
   5
465
 100
AcDbEntity
   8
LEVEL001
 100
AcDbLine
   6
DIVIDE
  62
3
  10
 225.29834897031
  20
 156.18468114120
  30
0.0
  11
 225.29834897031
  21
 150.18468114120
  31
0.0
   0
LINE
   5
466
 100
AcDbEntity
   8
LEVEL001
 100
AcDbLine
   6
DIVIDE
  62
3
  10
 207.29834897031
  20
 150.18468114120
  30
0.0
  11
 207.29834897031
  21
 156.18468114120
  31
0.0
   0
LINE
   5
467
 100
AcDbEntity
   8
LEVEL001
 100
AcDbLine
   6
DIVIDE
  62
3
  10
 207.29834897031
  20
 145.68468114120
  30
0.0
  11
 225.29834897031
  21
 145.68468114120
  31
0.0
   0
LINE
   5
468
 100
AcDbEntity
   8
LEVEL001
 100
AcDbLine
   6
DIVIDE
  62
3
  10
 207.29834897031
  20
 139.68468114120
  30
0.0
  11
 207.29834897031
  21
 145.68468114120
  31
0.0
   0
LINE
   5
469
 100
AcDbEntity
   8
LEVEL001
 100
AcDbLine
   6
DIVIDE
  62
3
  10
 225.29834897031
  20
 139.68468114120
  30
0.0
  11
 207.29834897031
  21
 139.68468114120
  31
0.0
   0
LINE
   5
46A
 100
AcDbEntity
   8
LEVEL001
 100
AcDbLine
   6
DIVIDE
  62
3
  10
 225.29834897031
  20
 145.68468114120
  30
0.0
  11
 225.29834897031
  21
 139.68468114120
  31
0.0
   0
LINE
   5
46B
 100
AcDbEntity
   8
LEVEL001
 100
AcDbLine
   6
DASHDOT
  62
3
  10
 216.29834897031
  20
 137.81831053042
  30
0.0
  11
 216.29834897031
  21
 158.45544467509
  31
0.0
   0
INSERT
   5
46C
 100
AcDbEntity
   8
LEVEL001
 100
AcDbBlockReference
   2
HATCH001
  10
0.0
  20
0.0
  30
0.0
   0
INSERT
   5
46D
 100
AcDbEntity
   8
LEVEL001
 100
AcDbBlockReference
   2
HATCH002
  10
0.0
  20
0.0
  30
0.0
   0
DIMENSION
   5
46E
 100
AcDbEntity
   8
LEVEL001
   6
CONTINUOUS
  62
3
 100
AcDbDimension
   2
*D22
  10
 222.29834897031
  20
 163.34854891529
  30
0.0
  11
 216.29834897031
  21
 163.34854891529
  31
0.0
  70
0
   1
\A1;24
   3
GMM004
 100
AcDbAlignedDimension
  13
 210.29834897031
  23
 155.13855012115
  33
0.0
  14
 222.29834897031
  24
 155.13855012115
  34
0.0
 100
AcDbRotatedDimension
   0
DIMENSION
   5
46F
 100
AcDbEntity
   8
LEVEL001
   6
CONTINUOUS
  62
3
 100
AcDbDimension
   2
*D23
  10
 235.95625597177
  20
 153.18468114120
  30
0.0
  11
 235.95625597177
  21
 147.93468114120
  31
0.0
  70
0
   1
\A1;21
   3
GMM004
 100
AcDbAlignedDimension
  13
 226.10377260582
  23
 142.68468114120
  33
0.0
  14
 226.10377260582
  24
 153.18468114120
  34
0.0
  50
 90.000000000000
 100
AcDbRotatedDimension
   0
LINE
   5
470
 100
AcDbEntity
   8
LEVEL001
 100
AcDbLine
   6
DIVIDE
  62
3
  10
 235.49883417990
  20
 149.43468114120
  30
0.0
  11
 398.07507332814
  21
 149.43468114120
  31
0.0
   0
LINE
   5
471
 100
AcDbEntity
   8
LEVEL001
 100
AcDbLine
   6
DIVIDE
  62
3
  10
 235.49883417990
  20
 146.43468114120
  30
0.0
  11
 398.07507332814
  21
 146.43468114120
  31
0.0
   0
LINE
   5
472
 100
AcDbEntity
   8
LEVEL001
 100
AcDbLine
   6
DASHDOT
  62
3
  10
 399.79438319631
  20
 147.93468114120
  30
0.0
  11
 235.16280455146
  21
 147.93468114120
  31
0.0
   0
LINE
   5
473
 100
AcDbEntity
   8
LEVEL001
 100
AcDbLine
   6
DIVIDE
  62
3
  10
 132.59798007376
  20
 156.93468114120
  30
0.0
  11
 398.07507332814
  21
 156.93468114120
  31
0.0
   0
LINE
   5
474
 100
AcDbEntity
   8
LEVEL001
 100
AcDbLine
   6
DIVIDE
  62
3
  10
 132.59798007376
  20
 138.93468114120
  30
0.0
  11
 398.07507332814
  21
 138.93468114120
  31
0.0
   0
LINE
   5
475
 100
AcDbEntity
   8
LEVEL001
 100
AcDbLine
   6
DIVIDE
  62
3
  10
 132.59798007376
  20
 149.43468114120
  30
0.0
  11
 229.57556915950
  21
 149.43468114120
  31
0.0
   0
LINE
   5
476
 100
AcDbEntity
   8
LEVEL001
 100
AcDbLine
   6
DIVIDE
  62
3
  10
 132.59798007376
  20
 146.43468114120
  30
0.0
  11
 229.57556915950
  21
 146.43468114120
  31
0.0
   0
LINE
   5
477
 100
AcDbEntity
   8
LEVEL001
 100
AcDbLine
   6
DASHDOT
  62
3
  10
 229.91159878794
  20
 147.93468114120
  30
0.0
  11
 129.54422889880
  21
 147.93468114120
  31
0.0
   0
DIMENSION
   5
478
 100
AcDbEntity
   8
LEVEL001
   6
CONTINUOUS
  62
3
 100
AcDbDimension
   2
*D24
  10
 132.59798007376
  20
 130.38605229738
  30
0.0
  11
 174.44816452203
  21
 130.38605229738
  31
0.0
  70
0
   1
\A1;280(枠端より)
   3
GMM005
 100
AcDbAlignedDimension
  13
 216.29834897031
  23
 137.81831053042
  33
0.0
  14
 132.59798007376
  24
 138.93468114120
  34
0.0
  50
 180.00000000000
 100
AcDbRotatedDimension
   0
INSERT
   5
479
 100
AcDbEntity
   8
LEVEL001
 100
AcDbBlockReference
   2
*D25
  10
0.0
  20
0.0
  30
0.0
   0
TEXT
   5
47A
 100
AcDbEntity
   8
LEVEL001
  62
3
 100
AcDbText
  10
 225.98040766004
  20
 161.60261128674
  30
0.0
  40
 3.5000000000000
   1
（付属治具にて位置出し）
  41
 0.71428571428571
   7
STANDARD
 100
AcDbText
   0
INSERT
   5
47B
 100
AcDbEntity
   8
LEVEL001
 100
AcDbBlockReference
   2
*D26
  10
0.0
  20
0.0
  30
0.0
   0
LINE
   5
47C
 100
AcDbEntity
   8
LEVEL001
 100
AcDbLine
   6
DASHDOT
  62
3
  10
 208.79834897030
  20
 56.746558739847
  30
0.0
  11
 208.79834897030
  21
 52.381403476786
  31
0.0
   0
LINE
   5
47D
 100
AcDbEntity
   8
LEVEL001
 100
AcDbLine
   6
DASHDOT
  62
3
  10
 389.29834897030
  20
 56.746558739847
  30
0.0
  11
 389.29834897030
  21
 52.381403476786
  31
0.0
   0
ARC
   5
47E
 100
AcDbEntity
   8
LEVEL001
   6
DIVIDE
  62
3
 100
AcDbCircle
  10
 151.85741394141
  20
 64.600254753501
  30
0.0
  40
 5.5000000000000
 100
AcDbArc
  50
 7.8374797629235
  51
 172.16252023708
   0
ARC
   5
47F
 100
AcDbEntity
   8
LEVEL001
   6
DIVIDE
  62
3
 100
AcDbCircle
  10
 151.85741394141
  20
 64.600254753483
  30
0.0
  40
 1.5000000000000
 100
AcDbArc
  50
 30.000000000120
  51
 149.99999999988
   0
LINE
   5
480
 100
AcDbEntity
   8
LEVEL001
 100
AcDbLine
   6
CONTINUOUS
  62
15
  10
 204.79834897030
  20
 65.350254753485
  30
0.0
  11
 393.29834897030
  21
 65.350254753485
  31
0.0
   0
LINE
   5
481
 100
AcDbEntity
   8
LEVEL001
 100
AcDbLine
   6
DIVIDE
  62
3
  10
 219.70302181272
  20
 70.100254753486
  30
0.0
  11
 398.07507332814
  21
 70.100254753486
  31
0.0
   0
LINE
   5
482
 100
AcDbEntity
   8
LEVEL001
 100
AcDbLine
   6
CONTINUOUS
  62
15
  10
 213.29834897031
  20
 68.600254753486
  30
0.0
  11
 219.29834897031
  21
 68.600254753486
  31
0.0
   0
POLYLINE
   5
483
 100
AcDbEntity
   8
LEVEL001
   6
DIVIDE
  62
3
 100
AcDb2dPolyline
  66
1
  10
0.0
  20
0.0
  30
0.0
  70
0
   0
VERTEX
   5
484
 100
AcDbEntity
   8
LEVEL001
   6
DIVIDE
  62
3
 100
AcDbVertex
 100
AcDb2dVertex
  10
 136.29834897030
  20
 46.194624884924
  30
0.0
   0
VERTEX
   5
485
 100
AcDbEntity
   8
LEVEL001
   6
DIVIDE
  62
3
 100
AcDbVertex
 100
AcDb2dVertex
  10
 136.29834897030
  20
 65.350254753485
  30
0.0
   0
VERTEX
   5
486
 100
AcDbEntity
   8
LEVEL001
   6
DIVIDE
  62
3
 100
AcDbVertex
 100
AcDb2dVertex
  10
 137.04834897030
  20
 65.350254753485
  30
0.0
   0
SEQEND
   5
487
 100
AcDbEntity
   8
LEVEL001
   6
DIVIDE
  62
3
   0
LINE
   5
488
 100
AcDbEntity
   8
LEVEL001
 100
AcDbLine
   6
DASHDOT
  62
3
  10
 210.29834897031
  20
 70.858625043500
  30
0.0
  11
 210.29834897031
  21
 66.853271735502
  31
0.0
   0
LINE
   5
489
 100
AcDbEntity
   8
LEVEL001
 100
AcDbLine
   6
DASHDOT
  62
3
  10
 222.29834897031
  20
 70.858625043500
  30
0.0
  11
 222.29834897031
  21
 66.853271735502
  31
0.0
   0
LINE
   5
48A
 100
AcDbEntity
   8
LEVEL001
 100
AcDbLine
   6
DIVIDE
  62
3
  10
 156.85259334883
  20
 68.600254753486
  30
0.0
  11
 213.29834897031
  21
 68.600254753486
  31
0.0
   0
LINE
   5
48B
 100
AcDbEntity
   8
LEVEL001
 100
AcDbLine
   6
DIVIDE
  62
3
  10
 219.29834897031
  20
 68.600254753486
  30
0.0
  11
 398.07507332814
  21
 68.600254753486
  31
0.0
   0
LINE
   5
48C
 100
AcDbEntity
   8
LEVEL001
 100
AcDbLine
   6
DIVIDE
  62
3
  10
 204.79834897030
  20
 65.350254753485
  30
0.0
  11
 137.04834897030
  21
 65.350254753485
  31
0.0
   0
LINE
   5
48D
 100
AcDbEntity
   8
LEVEL001
 100
AcDbLine
   6
DIVIDE
  62
3
  10
 393.29834897030
  20
 65.350254753485
  30
0.0
  11
 398.07507332814
  21
 65.350254753485
  31
0.0
   0
LINE
   5
48E
 100
AcDbEntity
   8
LEVEL001
 100
AcDbLine
   6
CONTINUOUS
  62
7
  10
 393.29834897030
  20
 54.350254753485
  30
0.0
  11
 393.29834897030
  21
 65.350254753485
  31
0.0
   0
LINE
   5
48F
 100
AcDbEntity
   8
LEVEL001
 100
AcDbLine
   6
CONTINUOUS
  62
7
  10
 204.79834897030
  20
 54.350254753485
  30
0.0
  11
 393.29834897030
  21
 54.350254753485
  31
0.0
   0
LINE
   5
490
 100
AcDbEntity
   8
LEVEL001
 100
AcDbLine
   6
CONTINUOUS
  62
7
  10
 204.79834897030
  20
 54.350254753485
  30
0.0
  11
 204.79834897030
  21
 65.350254753485
  31
0.0
   0
INSERT
   5
491
 100
AcDbEntity
   8
LEVEL001
 100
AcDbBlockReference
   2
HATCH003
  10
0.0
  20
0.0
  30
0.0
   0
LINE
   5
492
 100
AcDbEntity
   8
LEVEL001
 100
AcDbLine
   6
DIVIDE
  62
3
  10
 131.42944252748
  20
 76.100254753486
  30
0.0
  11
 398.07507332814
  21
 76.100254753486
  31
0.0
   0
LINE
   5
493
 100
AcDbEntity
   8
LEVEL001
 100
AcDbLine
   6
DIVIDE
  62
3
  10
 131.42944252748
  20
 68.600254753486
  30
0.0
  11
 146.40520648266
  21
 68.600254753486
  31
0.0
   0
LINE
   5
494
 100
AcDbEntity
   8
LEVEL001
 100
AcDbLine
   6
CONTINUOUS
  62
7
  10
 213.29834897031
  20
 68.600254753486
  30
0.0
  11
 213.29834897031
  21
 75.100254753486
  31
0.0
   0
LINE
   5
495
 100
AcDbEntity
   8
LEVEL001
 100
AcDbLine
   6
CONTINUOUS
  62
7
  10
 219.29834897031
  20
 68.600254753486
  30
0.0
  11
 219.29834897031
  21
 75.100254753486
  31
0.0
   0
LINE
   5
496
 100
AcDbEntity
   8
LEVEL001
 100
AcDbLine
   6
CONTINUOUS
  62
7
  10
 213.29834897031
  20
 75.100254753486
  30
0.0
  11
 219.29834897031
  21
 75.100254753486
  31
0.0
   0
INSERT
   5
497
 100
AcDbEntity
   8
LEVEL001
 100
AcDbBlockReference
   2
HATCH004
  10
0.0
  20
0.0
  30
0.0
   0
LINE
   5
498
 100
AcDbEntity
   8
LEVEL001
 100
AcDbLine
   6
DASHDOT
  62
3
  10
 216.29834897031
  20
 66.710789810949
  30
0.0
  11
 216.29834897031
  21
 77.206377881505
  31
0.0
   0
DIMENSION
   5
499
 100
AcDbEntity
   8
LEVEL001
   6
CONTINUOUS
  62
3
 100
AcDbDimension
   2
*D27
  10
 206.92077588183
  20
 75.100254753486
  30
0.0
  11
 206.92077588183
  21
 71.850254753486
  31
0.0
  70
0
   1
\A1;13
   3
GMM004
 100
AcDbAlignedDimension
  13
 209.57523154251
  23
 68.600254753486
  33
0.0
  14
 213.29834897031
  24
 75.100254753486
  34
0.0
  50
 90.000000000000
 100
AcDbRotatedDimension
   0
LINE
   5
49A
 100
AcDbEntity
   8
LEVEL001
 100
AcDbLine
   6
DIVIDE
  62
3
  10
 207.97176463690
  20
 70.100254753486
  30
0.0
  11
 212.94640978165
  21
 70.100254753486
  31
0.0
   0
LINE
   5
49B
 100
AcDbEntity
   8
LEVEL001
 100
AcDbLine
   6
DIVIDE
  62
3
  10
 131.42944252748
  20
 70.100254753486
  30
0.0
  11
 200.59748495889
  21
 70.100254753486
  31
0.0
   0
DIMENSION
   5
49C
 100
AcDbEntity
   8
LEVEL001
   6
CONTINUOUS
  62
3
 100
AcDbDimension
   2
*D28
  10
 198.00073485605
  20
 54.350254753485
  30
0.0
  11
 198.00073485605
  21
 59.850254753485
  31
0.0
  70
0
   1
\A1;22
   3
GMM004
 100
AcDbAlignedDimension
  13
 197.48138483549
  23
 65.350254753485
  33
0.0
  14
 204.79834897030
  24
 54.350254753485
  34
0.0
  50
 270.00000000000
 100
AcDbRotatedDimension
   0
ARC
   5
49D
 100
AcDbEntity
   8
LEVEL001
   6
CONTINUOUS
  62
7
 100
AcDbCircle
  10
 207.79834897030
  20
 103.37572061977
  30
0.0
  40
 3.0000000000000
 100
AcDbArc
  50
 89.999999999983
  51
 180.00000000000
   0
LINE
   5
49E
 100
AcDbEntity
   8
LEVEL001
 100
AcDbLine
   6
CONTINUOUS
  62
7
  10
 204.79834897030
  20
 103.37572061977
  30
0.0
  11
 204.79834897030
  21
 101.37572061977
  31
0.0
   0
POINT
   5
49F
 100
AcDbEntity
   8
LEVEL001
 100
AcDbPoint
  62
7
  10
 204.79834897030
  20
 98.375720619774
  30
0.0
   0
ARC
   5
4A0
 100
AcDbEntity
   8
LEVEL001
   6
CONTINUOUS
  62
7
 100
AcDbCircle
  10
 207.79834897031
  20
 101.37572061977
  30
0.0
  40
 3.0000000000000
 100
AcDbArc
  50
 180.00000000000
  51
 269.99999999998
   0
POINT
   5
4A1
 100
AcDbEntity
   8
LEVEL001
 100
AcDbPoint
  62
7
  10
 204.79834897030
  20
 106.37572061977
  30
0.0
   0
LINE
   5
4A2
 100
AcDbEntity
   8
LEVEL001
 100
AcDbLine
   6
CONTINUOUS
  62
3
  10
 208.79834897030
  20
 103.37572061977
  30
0.0
  11
 208.74961397283
  21
 103.42458901000
  31
0.0
   0
LINE
   5
4A3
 100
AcDbEntity
   8
LEVEL001
 100
AcDbLine
   6
CONTINUOUS
  62
7
  10
 393.29834897030
  20
 103.37572061977
  30
0.0
  11
 393.29834897030
  21
 101.37572061977
  31
0.0
   0
ARC
   5
4A4
 100
AcDbEntity
   8
LEVEL001
   6
CONTINUOUS
  62
7
 100
AcDbCircle
  10
 390.29834897031
  20
 103.37572061977
  30
0.0
  40
 3.0000000000000
 100
AcDbArc
  50
0.0
  51
 90.000000000017
   0
POINT
   5
4A5
 100
AcDbEntity
   8
LEVEL001
 100
AcDbPoint
  62
7
  10
 393.29834897030
  20
 106.37572061977
  30
0.0
   0
ARC
   5
4A6
 100
AcDbEntity
   8
LEVEL001
   6
CONTINUOUS
  62
7
 100
AcDbCircle
  10
 390.29834897030
  20
 101.37572061977
  30
0.0
  40
 3.0000000000000
 100
AcDbArc
  50
 270.00000000001
  51
0.0
   0
POINT
   5
4A7
 100
AcDbEntity
   8
LEVEL001
 100
AcDbPoint
  62
7
  10
 393.29834897030
  20
 98.375720619774
  30
0.0
   0
LINE
   5
4A8
 100
AcDbEntity
   8
LEVEL001
 100
AcDbLine
   6
DASHDOT
  62
3
  10
 133.24459779534
  20
 102.37572061977
  30
0.0
  11
 399.40135633273
  21
 102.37572061977
  31
0.0
   0
LINE
   5
4A9
 100
AcDbEntity
   8
LEVEL001
 100
AcDbLine
   6
DIVIDE
  62
3
  10
 158.04834897031
  20
 98.125720619774
  30
0.0
  11
 158.04834897031
  21
 106.62572061977
  31
0.0
   0
LINE
   5
4AA
 100
AcDbEntity
   8
LEVEL001
 100
AcDbLine
   6
DIVIDE
  62
3
  10
 157.54834897031
  20
 106.12572061977
  30
0.0
  11
 157.54834897031
  21
 98.625720619774
  31
0.0
   0
LINE
   5
4AB
 100
AcDbEntity
   8
LEVEL001
 100
AcDbLine
   6
DIVIDE
  62
3
  10
 136.29834897030
  20
 106.62572061977
  30
0.0
  11
 158.04834897031
  21
 106.62572061977
  31
0.0
   0
LINE
   5
4AC
 100
AcDbEntity
   8
LEVEL001
 100
AcDbLine
   6
DIVIDE
  62
3
  10
 137.54834897031
  20
 106.12572061977
  30
0.0
  11
 157.54834897031
  21
 106.12572061977
  31
0.0
   0
LINE
   5
4AD
 100
AcDbEntity
   8
LEVEL001
 100
AcDbLine
   6
DIVIDE
  62
3
  10
 136.29834897030
  20
 109.87572061977
  30
0.0
  11
 398.07507332814
  21
 109.87572061977
  31
0.0
   0
LINE
   5
4AE
 100
AcDbEntity
   8
LEVEL001
 100
AcDbLine
   6
DIVIDE
  62
3
  10
 136.29834897030
  20
 98.125720619774
  30
0.0
  11
 158.04834897031
  21
 98.125720619774
  31
0.0
   0
LINE
   5
4AF
 100
AcDbEntity
   8
LEVEL001
 100
AcDbLine
   6
DIVIDE
  62
3
  10
 157.54834897031
  20
 98.625720619774
  30
0.0
  11
 137.54834897031
  21
 98.625720619774
  31
0.0
   0
LINE
   5
4B0
 100
AcDbEntity
   8
LEVEL001
 100
AcDbLine
   6
DIVIDE
  62
3
  10
 145.60741394141
  20
 103.87572061977
  30
0.0
  11
 156.60741394141
  21
 103.87572061977
  31
0.0
   0
LINE
   5
4B1
 100
AcDbEntity
   8
LEVEL001
 100
AcDbLine
   6
DIVIDE
  62
3
  10
 156.60741394141
  20
 100.87572061977
  30
0.0
  11
 156.60741394141
  21
 103.87572061977
  31
0.0
   0
LINE
   5
4B2
 100
AcDbEntity
   8
LEVEL001
 100
AcDbLine
   6
DIVIDE
  62
3
  10
 145.60741394141
  20
 100.87572061977
  30
0.0
  11
 156.60741394141
  21
 100.87572061977
  31
0.0
   0
LINE
   5
4B3
 100
AcDbEntity
   8
LEVEL001
 100
AcDbLine
   6
DIVIDE
  62
3
  10
 136.29834897030
  20
 94.875720619774
  30
0.0
  11
 136.29834897030
  21
 109.87572061977
  31
0.0
   0
LINE
   5
4B4
 100
AcDbEntity
   8
LEVEL001
 100
AcDbLine
   6
DIVIDE
  62
3
  10
 137.54834897031
  20
 98.125720619774
  30
0.0
  11
 137.54834897031
  21
 106.62572061977
  31
0.0
   0
LINE
   5
4B5
 100
AcDbEntity
   8
LEVEL001
 100
AcDbLine
   6
DIVIDE
  62
3
  10
 145.60741394141
  20
 100.87572061977
  30
0.0
  11
 145.60741394141
  21
 103.87572061977
  31
0.0
   0
CIRCLE
   5
4B6
 100
AcDbEntity
   8
LEVEL001
 100
AcDbCircle
   6
CONTINUOUS
  62
7
  10
 208.79834897030
  20
 102.37572061977
  30
0.0
  40
 1.0500000000000
   0
CIRCLE
   5
4B7
 100
AcDbEntity
   8
LEVEL001
 100
AcDbCircle
   6
CONTINUOUS
  62
7
  10
 389.29834897030
  20
 102.37572061977
  30
0.0
  40
 1.0500000000000
   0
LINE
   5
4B8
 100
AcDbEntity
   8
LEVEL001
 100
AcDbLine
   6
DASHDOT
  62
3
  10
 208.79834897030
  20
 104.99076831454
  30
0.0
  11
 208.79834897030
  21
 99.912679224549
  31
0.0
   0
LINE
   5
4B9
 100
AcDbEntity
   8
LEVEL001
 100
AcDbLine
   6
DASHDOT
  62
3
  10
 389.29834897030
  20
 104.77826368959
  30
0.0
  11
 389.29834897030
  21
 99.854056087167
  31
0.0
   0
LINE
   5
4BA
 100
AcDbEntity
   8
LEVEL001
 100
AcDbLine
   6
CONTINUOUS
  62
7
  10
 390.29834897030
  20
 106.37572061977
  30
0.0
  11
 207.79834897030
  21
 106.37572061977
  31
0.0
   0
LINE
   5
4BB
 100
AcDbEntity
   8
LEVEL001
 100
AcDbLine
   6
CONTINUOUS
  62
7
  10
 390.29834897030
  20
 98.375720619774
  30
0.0
  11
 207.79834897030
  21
 98.375720619774
  31
0.0
   0
INSERT
   5
4BC
 100
AcDbEntity
   8
LEVEL001
 100
AcDbBlockReference
   2
HATCH005
  10
0.0
  20
0.0
  30
0.0
   0
DIMENSION
   5
4BD
 100
AcDbEntity
   8
LEVEL001
   6
CONTINUOUS
  62
3
 100
AcDbDimension
   2
*D29
  10
 204.79834897030
  20
 86.144209163877
  30
0.0
  11
 170.54834897030
  21
 86.144209163877
  31
0.0
  70
0
   1
\A1;137
   3
GMM004
 100
AcDbAlignedDimension
  13
 136.29834897030
  23
 94.875720619774
  33
0.0
  14
 204.79834897030
  24
 98.375720619774
  34
0.0
 100
AcDbRotatedDimension
   0
DIMENSION
   5
4BE
 100
AcDbEntity
   8
LEVEL001
   6
CONTINUOUS
  62
3
 100
AcDbDimension
   2
*D30
  10
 393.29834897030
  20
 86.144209163877
  30
0.0
  11
 299.04834897030
  21
 86.144209163877
  31
0.0
  70
0
   1
\A1;377
   3
GMM004
 100
AcDbAlignedDimension
  13
 204.79834897030
  23
 86.144209163877
  33
0.0
  14
 393.29834897030
  24
 98.375720619774
  34
0.0
 100
AcDbRotatedDimension
   0
DIMENSION
   5
4BF
 100
AcDbEntity
   8
LEVEL001
   6
CONTINUOUS
  62
3
 100
AcDbDimension
   2
*D31
  10
 389.29834897030
  20
 117.12937921827
  30
0.0
  11
 299.04834897030
  21
 117.12937921827
  31
0.0
  70
0
   1
\A1;361
   3
GMM004
 100
AcDbAlignedDimension
  13
 208.79834897030
  23
 104.99076831454
  33
0.0
  14
 389.29834897030
  24
 104.77826368959
  34
0.0
 100
AcDbRotatedDimension
   0
DIMENSION
   5
4C0
 100
AcDbEntity
   8
LEVEL001
   6
CONTINUOUS
  62
3
 100
AcDbDimension
   2
*D32
  10
 208.79834897030
  20
 117.12937921827
  30
0.0
  11
 172.54834897030
  21
 117.12937921827
  31
0.0
  70
0
   1
\A1;145
   3
GMM004
 100
AcDbAlignedDimension
  13
 136.29834897030
  23
 109.87572061977
  33
0.0
  14
 208.79834897030
  24
 117.12937921827
  34
0.0
 100
AcDbRotatedDimension
   0
INSERT
   5
4C1
 100
AcDbEntity
   8
LEVEL001
 100
AcDbBlockReference
   2
*D33
  10
0.0
  20
0.0
  30
0.0
   0
DIMENSION
   5
4C2
 100
AcDbEntity
   8
LEVEL001
   6
CONTINUOUS
  62
3
 100
AcDbDimension
   2
*D34
  10
 207.79834897031
  20
 101.37572061977
  30
0.0
  11
 203.20691163105
  21
 98.082755626808
  31
0.0
  70
132
   1
\A1;4-R6
   3
GMM006
 100
AcDbRadialDimension
  15
 205.36050986254
  25
 99.627309774281
  35
0.0
  40
 3.0452640045100
   0
LINE
   5
4C3
 100
AcDbEntity
   8
LEVEL001
 100
AcDbLine
   6
DIVIDE
  62
3
  10
 196.91434012005
  20
 94.875720619774
  30
0.0
  11
 398.07507332814
  21
 94.875720619774
  31
0.0
   0
LINE
   5
4C4
 100
AcDbEntity
   8
LEVEL001
 100
AcDbLine
   6
DIVIDE
  62
3
  10
 136.29834897030
  20
 94.875720619774
  30
0.0
  11
 192.15363159818
  21
 94.875720619774
  31
0.0
   0
TEXT
   5
4C5
 100
AcDbEntity
   8
LEVEL001
  62
7
 100
AcDbText
  10
 178.57122851205
  20
 41.177935859476
  30
0.0
  40
 4.0000000000000
   1
参考掘込図
   7
STANDARD
 100
AcDbText
   0
LINE
   5
4C6
 100
AcDbEntity
   8
LEVEL001
 100
AcDbLine
   6
CONTINUOUS
  62
7
  10
 177.17931968936
  20
 39.529878102378
  30
0.0
  11
 200.16055809948
  21
 39.529878102378
  31
0.0
   0
ENDSEC
  0
SECTION
  2
OBJECTS
  0
DICTIONARY
  5
C
100
AcDbDictionary
  3
ACAD_GROUP
350
D
  3
ACAD_MLINESTYLE
350
1B
  0
DICTIONARY
  5
D
102
{ACAD_REACTORS
330
C
102
}
100
AcDbDictionary
  0
DICTIONARY
  5
1B
102
{ACAD_REACTORS
330
C
102
}
100
AcDbDictionary
  3
STANDARD
350
1C
  0
MLINESTYLE
  5
1C
102
{ACAD_REACTORS
330
1B
102
}
100
AcDbMlineStyle
  2
STANDARD
 70
     0
  3

 62
   256
 51
90.0
 52
90.0
 71
     2
 49
0.5
 62
   256
  6
BYLAYER
 49
-0.5
 62
   256
  6
BYLAYER
  0
ENDSEC
   0
EOF
