   0
SECTION
   2
HEADER
   9
$ACADVER
   1
AC1015
   9
$LIMMIN
  10
0.0
  20
0.0
   9
$LIMMAX
  10
 420.00000000000
  20
 297.00000000000
   9
$EXTMIN
  10
0.0
  20
0.0
  30
0.0
   9
$EXTMAX
  10
 420.00000000000
  20
 297.00000000000
  30
0.0
   9
$LTSCALE
  40
 8.4000000000000
   9
$HANDSEED
   5
440
   0
ENDSEC
   0
SECTION
   2
TABLES
  0
TABLE
  2
VPORT
  5
8
100
AcDbSymbolTable
 70
     1
  0
VPORT
  5
43F
100
AcDbSymbolTableRecord
100
AcDbViewportTableRecord
  2
*ACTIVE
 70
     0
 10
0.0
 20
0.0
 11
1.0
 21
1.0
  12
 210.00000000000
  22
 148.50000000000
 13
0.0
 23
0.0
 14
1.0
 24
1.0
 15
0.0
 25
0.0
 16
0.0
 26
0.0
 36
1.0
 17
0.0
 27
0.0
 37
0.0
  40
 420.00000000000
  41
 1.4787878787879
 42
50.0
 43
0.0
 44
0.0
 50
0.0
 51
0.0
 71
     0
 72
   100
 73
     1
 74
     1
 75
     0
 76
     0
 77
     0
 78
     0
  0
ENDTAB
  0
TABLE
  2
LTYPE
  5
5
100
AcDbSymbolTable
 70
    25
  0
LTYPE
  5
12
100
AcDbSymbolTableRecord
100
AcDbLinetypeTableRecord
  2
BYBLOCK
 70
     0
  3

 72
    65
 73
     0
 40
0.0
  0
LTYPE
  5
13
100
AcDbSymbolTableRecord
100
AcDbLinetypeTableRecord
  2
BYLAYER
 70
     0
  3

 72
    65
 73
     0
 40
0.0
  0
LTYPE
  5
14
100
AcDbSymbolTableRecord
100
AcDbLinetypeTableRecord
  2
CONTINUOUS
 70
     0
  3
Solid line
 72
    65
 73
     0
 40
0.0
  0
LTYPE
  5
20
100
AcDbSymbolTableRecord
100
AcDbLinetypeTableRecord
  2
BORDER
 70
     0
  3
__ __ . __ __ . __ __ . __ __ . __ __ . __ __ .
 72
    65
 73
     6
 40
1.75
 49
0.5
 74
     0
 49
-0.25
 74
     0
 49
0.5
 74
     0
 49
-0.25
 74
     0
 49
0.0
 74
     0
 49
-0.25
 74
     0
  0
LTYPE
  5
21
100
AcDbSymbolTableRecord
100
AcDbLinetypeTableRecord
  2
BORDER2
 70
     0
  3
__.__.__.__.__.__.__.__.__.__.__.__.__.__.__.__
 72
    65
 73
     6
 40
0.875
 49
0.25
 74
     0
 49
-0.125
 74
     0
 49
0.25
 74
     0
 49
-0.125
 74
     0
 49
0.0
 74
     0
 49
-0.125
 74
     0
  0
LTYPE
  5
22
100
AcDbSymbolTableRecord
100
AcDbLinetypeTableRecord
  2
BORDERX2
 70
     0
  3
____  ____  .  ____  ____  .  ____  ____  .  __
 72
    65
 73
     6
 40
3.5
 49
1.0
 74
     0
 49
-0.5
 74
     0
 49
1.0
 74
     0
 49
-0.5
 74
     0
 49
0.0
 74
     0
 49
-0.5
 74
     0
  0
LTYPE
  5
23
100
AcDbSymbolTableRecord
100
AcDbLinetypeTableRecord
  2
CENTER
 70
     0
  3
____ _ ____ _ ____ _ ____ _ ____ _ ____ _ ____ 
 72
    65
 73
     4
 40
2.0
 49
1.25
 74
     0
 49
-0.25
 74
     0
 49
0.25
 74
     0
 49
-0.25
 74
     0
  0
LTYPE
  5
24
100
AcDbSymbolTableRecord
100
AcDbLinetypeTableRecord
  2
CENTER2
 70
     0
  3
___ _ ___ _ ___ _ ___ _ ___ _ ___ _ ___ _ ___ _
 72
    65
 73
     4
 40
1.125
 49
0.75
 74
     0
 49
-0.125
 74
     0
 49
0.125
 74
     0
 49
-0.125
 74
     0
  0
LTYPE
  5
25
100
AcDbSymbolTableRecord
100
AcDbLinetypeTableRecord
  2
CENTERX2
 70
     0
  3
________  __  ________  __  ________  __  _____
 72
    65
 73
     4
 40
4.0
 49
2.5
 74
     0
 49
-0.5
 74
     0
 49
0.5
 74
     0
 49
-0.5
 74
     0
  0
LTYPE
  5
26
100
AcDbSymbolTableRecord
100
AcDbLinetypeTableRecord
  2
DASHDOT
 70
     0
  3
__ . __ . __ . __ . __ . __ . __ . __ . __ . __
 72
    65
 73
     4
 40
1.0
 49
0.5
 74
     0
 49
-0.25
 74
     0
 49
0.0
 74
     0
 49
-0.25
 74
     0
  0
LTYPE
  5
27
100
AcDbSymbolTableRecord
100
AcDbLinetypeTableRecord
  2
DASHDOT2
 70
     0
  3
_._._._._._._._._._._._._._._._._._._._._._._._
 72
    65
 73
     4
 40
0.5
 49
0.25
 74
     0
 49
-0.125
 74
     0
 49
0.0
 74
     0
 49
-0.125
 74
     0
  0
LTYPE
  5
28
100
AcDbSymbolTableRecord
100
AcDbLinetypeTableRecord
  2
DASHDOTX2
 70
     0
  3
____  .  ____  .  ____  .  ____  .  ____  .  __
 72
    65
 73
     4
 40
2.0
 49
1.0
 74
     0
 49
-0.5
 74
     0
 49
0.0
 74
     0
 49
-0.5
 74
     0
  0
LTYPE
  5
29
100
AcDbSymbolTableRecord
100
AcDbLinetypeTableRecord
  2
DASHED
 70
     0
  3
__ __ __ __ __ __ __ __ __ __ __ __ __ __ __ __
 72
    65
 73
     2
 40
0.75
 49
0.5
 74
     0
 49
-0.25
 74
     0
  0
LTYPE
  5
2A
100
AcDbSymbolTableRecord
100
AcDbLinetypeTableRecord
  2
DASHED2
 70
     0
  3
_ _ _ _ _ _ _ _ _ _ _ _ _ _ _ _ _ _ _ _ _ _ _ _
 72
    65
 73
     2
 40
0.375
 49
0.25
 74
     0
 49
-0.125
 74
     0
  0
LTYPE
  5
2B
100
AcDbSymbolTableRecord
100
AcDbLinetypeTableRecord
  2
DASHEDX2
 70
     0
  3
____  ____  ____  ____  ____  ____  ____  ____ 
 72
    65
 73
     2
 40
1.5
 49
1.0
 74
     0
 49
-0.5
 74
     0
  0
LTYPE
  5
2C
100
AcDbSymbolTableRecord
100
AcDbLinetypeTableRecord
  2
DIVIDE
 70
     0
  3
____ . . ____ . . ____ . . ____ . . ____ . . __
 72
    65
 73
     6
 40
1.25
 49
0.5
 74
     0
 49
-0.25
 74
     0
 49
0.0
 74
     0
 49
-0.25
 74
     0
 49
0.0
 74
     0
 49
-0.25
 74
     0
  0
LTYPE
  5
2D
100
AcDbSymbolTableRecord
100
AcDbLinetypeTableRecord
  2
DIVIDE2
 70
     0
  3
__..__..__..__..__..__..__..__..__..__..__..__.
 72
    65
 73
     6
 40
0.625
 49
0.25
 74
     0
 49
-0.125
 74
     0
 49
0.0
 74
     0
 49
-0.125
 74
     0
 49
0.0
 74
     0
 49
-0.125
 74
     0
  0
LTYPE
  5
2E
100
AcDbSymbolTableRecord
100
AcDbLinetypeTableRecord
  2
DIVIDEX2
 70
     0
  3
________  .  .  ________  .  .  ________  .  . 
 72
    65
 73
     6
 40
2.5
 49
1.0
 74
     0
 49
-0.5
 74
     0
 49
0.0
 74
     0
 49
-0.5
 74
     0
 49
0.0
 74
     0
 49
-0.5
 74
     0
  0
LTYPE
  5
2F
100
AcDbSymbolTableRecord
100
AcDbLinetypeTableRecord
  2
DOT
 70
     0
  3
. . . . . . . . . . . . . . . . . . . . . . . .
 72
    65
 73
     2
 40
0.25
 49
0.0
 74
     0
 49
-0.25
 74
     0
  0
LTYPE
  5
30
100
AcDbSymbolTableRecord
100
AcDbLinetypeTableRecord
  2
DOT2
 70
     0
  3
...............................................
 72
    65
 73
     2
 40
0.125
 49
0.0
 74
     0
 49
-0.125
 74
     0
  0
LTYPE
  5
31
100
AcDbSymbolTableRecord
100
AcDbLinetypeTableRecord
  2
DOTX2
 70
     0
  3
.  .  .  .  .  .  .  .  .  .  .  .  .  .  .  . 
 72
    65
 73
     2
 40
0.5
 49
0.0
 74
     0
 49
-0.5
 74
     0
  0
LTYPE
  5
32
100
AcDbSymbolTableRecord
100
AcDbLinetypeTableRecord
  2
HIDDEN
 70
     0
  3
__ __ __ __ __ __ __ __ __ __ __ __ __ __ __ __
 72
    65
 73
     2
 40
0.375
 49
0.25
 74
     0
 49
-0.125
 74
     0
  0
LTYPE
  5
33
100
AcDbSymbolTableRecord
100
AcDbLinetypeTableRecord
  2
HIDDEN2
 70
     0
  3
_ _ _ _ _ _ _ _ _ _ _ _ _ _ _ _ _ _ _ _ _ _ _ _
 72
    65
 73
     2
 40
0.1875
 49
0.125
 74
     0
 49
-0.0625
 74
     0
  0
LTYPE
  5
34
100
AcDbSymbolTableRecord
100
AcDbLinetypeTableRecord
  2
HIDDENX2
 70
     0
  3
____ ____ ____ ____ ____ ____ ____ ____ ____ __
 72
    65
 73
     2
 40
0.75
 49
0.5
 74
     0
 49
-0.25
 74
     0
  0
LTYPE
  5
35
100
AcDbSymbolTableRecord
100
AcDbLinetypeTableRecord
  2
PHANTOM
 70
     0
  3
______  __  __  ______  __  __  ______  __  __ 
 72
    65
 73
     6
 40
2.5
 49
1.25
 74
     0
 49
-0.25
 74
     0
 49
0.25
 74
     0
 49
-0.25
 74
     0
 49
0.25
 74
     0
 49
-0.25
 74
     0
  0
LTYPE
  5
36
100
AcDbSymbolTableRecord
100
AcDbLinetypeTableRecord
  2
PHANTOM2
 70
     0
  3
___ _ _ ___ _ _ ___ _ _ ___ _ _ ___ _ _ ___ _ _
 72
    65
 73
     6
 40
1.25
 49
0.625
 74
     0
 49
-0.125
 74
     0
 49
0.125
 74
     0
 49
-0.125
 74
     0
 49
0.125
 74
     0
 49
-0.125
 74
     0
  0
LTYPE
  5
37
100
AcDbSymbolTableRecord
100
AcDbLinetypeTableRecord
  2
PHANTOMX2
 70
     0
  3
____________    ____    ____    ____________   
 72
    65
 73
     6
 40
5.0
 49
2.5
 74
     0
 49
-0.5
 74
     0
 49
0.5
 74
     0
 49
-0.5
 74
     0
 49
0.5
 74
     0
 49
-0.5
 74
     0
  0
ENDTAB
   0
TABLE
   2
LAYER
   5
2
 100
AcDbSymbolTable
  70
3
   0
LAYER
   5
E
 100
AcDbSymbolTableRecord
 100
AcDbLayerTableRecord
   2
0
  70
0
  62
7
   6
CONTINUOUS
 390
30
   0
LAYER
   5
39
 100
AcDbSymbolTableRecord
 100
AcDbLayerTableRecord
   2
LEVEL001
  70
0
  62
7
   6
CONTINUOUS
 390
30
   0
LAYER
   5
3A
 100
AcDbSymbolTableRecord
 100
AcDbLayerTableRecord
   2
LEVEL002
  70
0
  62
7
   6
CONTINUOUS
 390
30
   0
ENDTAB
  0
TABLE
  2
STYLE
  5
3
100
AcDbSymbolTable
  70
3
  0
STYLE
  5
F
100
AcDbSymbolTableRecord
100
AcDbTextStyleTableRecord
  2
STANDARD
 70
     0
 40
0.0
 41
1.0
 50
0.0
 71
     0
 42
0.2
  3
TXT
  4
BIGFONT
  0
STYLE
  5
38
100
AcDbSymbolTableRecord
100
AcDbTextStyleTableRecord
  2
STANDARD1
 70
     4
 40
0.0
 41
1.0
 50
0.0
 71
     0
 42
0.2
  3
TXT
  4
BIGFONT
   0
STYLE
   5
3B
 100
AcDbSymbolTableRecord
 100
AcDbTextStyleTableRecord
   2
GMM001
  70
0
  40
0.0
  41
 1.0000000000000
  50
0.0
  71
     0
  42
1.0
   3
txt.shx
   4
bigfont.shx
   0
ENDTAB
  0
TABLE
  2
VIEW
  5
6
100
AcDbSymbolTable
 70
     0
  0
ENDTAB
  0
TABLE
  2
UCS
  5
7
100
AcDbSymbolTable
 70
     0
  0
ENDTAB
  0
TABLE
  2
APPID
  5
9
100
AcDbSymbolTable
 70
     1
  0
APPID
  5
10
100
AcDbSymbolTableRecord
100
AcDbRegAppTableRecord
  2
ACAD
 70
     0
  0
ENDTAB
   0
TABLE
   2
DIMSTYLE
   5
A
 100
AcDbSymbolTable
  70
11
 100
AcDbDimStyleTable
  0
DIMSTYLE
105
1D
100
AcDbSymbolTableRecord
100
AcDbDimStyleTableRecord
  2
STANDARD
 70
     0
  3

  4

  5

  6

  7

 40
1.0
 41
0.18
 42
0.0625
 43
0.38
 44
0.18
 45
0.0
 46
0.0
 47
0.0
 48
0.0
140
0.18
141
0.09
142
0.0
143
25.4
144
1.0
145
0.0
146
1.0
147
0.09
 71
     0
 72
     0
 73
     1
 74
     1
 75
     0
 76
     0
 77
     0
 78
     0
170
     0
171
     2
172
     0
173
     0
174
     0
175
     0
176
     0
177
     0
178
     0
270
     2
271
     4
272
     4
273
     2
274
     2
340
F
275
     0
280
     0
281
     0
282
     0
283
     1
284
     0
285
     0
286
     0
287
     3
288
     0
   0
DIMSTYLE
 105
3C
 100
AcDbSymbolTableRecord
 100
AcDbDimStyleTableRecord
   2
GMM001
  70
0
   3
パイプ長<>
   4

   5

   6
_OPEN30
   7
_OPEN30
  40
 1.0000000000000
  41
 3.0000000000000
  42
 1.0000000000000
  43
 8.0000000000000
  44
 1.5000000000000
  45
0.0
  46
0.0
  47
0.0
  48
0.0
 140
 4.0000000000000
 141
 1.0000000000000
 142
0.0
 143
 0.39400000000000E-1
 144
 1.0000000000000
 145
0.0
 146
 0.62500000000000
 147
 1.7142857142857
  71
0
  72
0
  73
0
  74
0
  75
0
  76
0
  77
3
  78
8
 170
0
 171
2
 172
1
 173
1
 174
0
 175
0
 176
2
 177
2
 178
2
 270
2
 271
6
 272
0
 273
2
 274
2
 340
3B
 275
1
 280
0
 281
0
 282
0
 283
1
 284
0
 285
0
 286
0
 287
3
 288
0
   0
DIMSTYLE
 105
3D
 100
AcDbSymbolTableRecord
 100
AcDbDimStyleTableRecord
   2
GMM002
  70
0
   3

   4

   5

   6
_DOT
   7
_OPEN30
  40
 1.0000000000000
  41
 3.0000000000000
  42
 1.0000000000000
  43
 8.0000000000000
  44
 1.5000000000000
  45
0.0
  46
0.0
  47
0.0
  48
0.0
 140
 4.0000000000000
 141
 1.0000000000000
 142
0.0
 143
 0.39400000000000E-1
 144
 1.0000000000000
 145
0.0
 146
 0.62500000000000
 147
 1.7142857142857
  71
0
  72
0
  73
0
  74
0
  75
0
  76
0
  77
3
  78
8
 170
0
 171
2
 172
1
 173
1
 174
0
 175
0
 176
2
 177
2
 178
2
 270
2
 271
6
 272
0
 273
2
 274
2
 340
3B
 275
1
 280
0
 281
0
 282
0
 283
1
 284
0
 285
0
 286
0
 287
3
 288
0
   0
DIMSTYLE
 105
3E
 100
AcDbSymbolTableRecord
 100
AcDbDimStyleTableRecord
   2
GMM003
  70
0
   3

   4

   5

   6
_OPEN30
   7
_DOT
  40
 1.0000000000000
  41
 3.0000000000000
  42
 1.0000000000000
  43
 8.0000000000000
  44
 1.5000000000000
  45
0.0
  46
0.0
  47
0.0
  48
0.0
 140
 4.0000000000000
 141
 1.0000000000000
 142
0.0
 143
 0.39400000000000E-1
 144
 1.0000000000000
 145
0.0
 146
 0.62500000000000
 147
 1.7142857142857
  71
0
  72
0
  73
0
  74
0
  75
0
  76
0
  77
3
  78
8
 170
0
 171
2
 172
1
 173
1
 174
0
 175
0
 176
2
 177
2
 178
2
 270
2
 271
6
 272
0
 273
2
 274
2
 340
3B
 275
1
 280
0
 281
0
 282
0
 283
1
 284
0
 285
0
 286
0
 287
3
 288
1
   0
DIMSTYLE
 105
3F
 100
AcDbSymbolTableRecord
 100
AcDbDimStyleTableRecord
   2
GMM004
  70
0
   3

   4

   5

   6
_DOT
   7
_OPEN30
  40
 1.0000000000000
  41
 3.0000000000000
  42
 1.0000000000000
  43
 8.0000000000000
  44
 1.5000000000000
  45
0.0
  46
0.0
  47
0.0
  48
0.0
 140
 4.0000000000000
 141
 1.0000000000000
 142
0.0
 143
 0.39400000000000E-1
 144
 1.0000000000000
 145
0.0
 146
 0.62500000000000
 147
 1.7142857142857
  71
0
  72
0
  73
0
  74
0
  75
0
  76
0
  77
3
  78
8
 170
0
 171
2
 172
1
 173
1
 174
0
 175
0
 176
2
 177
2
 178
2
 270
2
 271
6
 272
0
 273
2
 274
2
 340
3B
 275
1
 280
0
 281
0
 282
0
 283
1
 284
0
 285
0
 286
0
 287
3
 288
1
   0
DIMSTYLE
 105
40
 100
AcDbSymbolTableRecord
 100
AcDbDimStyleTableRecord
   2
GMM005
  70
0
   3
クローゼット<>
   4

   5

   6
_OPEN30
   7
_OPEN30
  40
 1.0000000000000
  41
 3.0000000000000
  42
 1.0000000000000
  43
 8.0000000000000
  44
 1.5000000000000
  45
0.0
  46
0.0
  47
0.0
  48
0.0
 140
 4.0000000000000
 141
 1.0000000000000
 142
0.0
 143
 0.39400000000000E-1
 144
 1.0000000000000
 145
0.0
 146
 0.62500000000000
 147
 1.7142857142857
  71
0
  72
0
  73
0
  74
0
  75
0
  76
0
  77
3
  78
8
 170
0
 171
2
 172
1
 173
1
 174
0
 175
0
 176
2
 177
2
 178
2
 270
2
 271
6
 272
0
 273
2
 274
2
 340
3B
 275
1
 280
0
 281
0
 282
0
 283
1
 284
0
 285
0
 286
0
 287
3
 288
0
   0
DIMSTYLE
 105
41
 100
AcDbSymbolTableRecord
 100
AcDbDimStyleTableRecord
   2
GMM006
  70
0
   3

   4

   5

   6
_OPEN30
   7
_OPEN30
  40
 1.0000000000000
  41
 3.0000000000000
  42
 1.0000000000000
  43
 8.0000000000000
  44
 1.5000000000000
  45
0.0
  46
0.0
  47
0.0
  48
0.0
 140
 4.0000000000000
 141
 1.0000000000000
 142
0.0
 143
 0.39400000000000E-1
 144
 1.0000000000000
 145
0.0
 146
 0.62500000000000
 147
 1.7142857142857
  71
0
  72
0
  73
0
  74
0
  75
0
  76
0
  77
3
  78
8
 170
0
 171
2
 172
1
 173
1
 174
0
 175
0
 176
2
 177
2
 178
2
 270
2
 271
6
 272
0
 273
2
 274
2
 340
3B
 275
1
 280
0
 281
0
 282
0
 283
1
 284
0
 285
0
 286
0
 287
3
 288
0
   0
DIMSTYLE
 105
42
 100
AcDbSymbolTableRecord
 100
AcDbDimStyleTableRecord
   2
GMM007
  70
0
   3
R<>
   4

   5

   6
_NONE
   7
_OPEN30
  40
 1.0000000000000
  41
 3.0000000000000
  42
 1.0000000000000
  43
 8.0000000000000
  44
 1.5000000000000
  45
0.0
  46
0.0
  47
0.0
  48
0.0
 140
 4.0000000000000
 141
 1.0000000000000
 142
0.0
 143
 0.39400000000000E-1
 144
 1.0000000000000
 145
0.0
 146
 0.62500000000000
 147
 1.7142857142857
  71
0
  72
0
  73
0
  74
0
  75
0
  76
0
  77
3
  78
8
 170
0
 171
2
 172
1
 173
1
 174
0
 175
0
 176
2
 177
2
 178
2
 270
2
 271
6
 272
0
 273
2
 274
2
 340
3B
 275
1
 280
0
 281
0
 282
0
 283
1
 284
0
 285
0
 286
0
 287
3
 288
1
   0
DIMSTYLE
 105
43
 100
AcDbSymbolTableRecord
 100
AcDbDimStyleTableRecord
   2
GMM008
  70
0
   3

   4

   5

   6
_OPEN30
   7
_OPEN30
  40
 1.0000000000000
  41
 3.0000000000000
  42
 1.0000000000000
  43
 8.0000000000000
  44
 1.5000000000000
  45
0.0
  46
0.0
  47
0.0
  48
0.0
 140
 4.0000000000000
 141
 1.0000000000000
 142
0.0
 143
 0.39400000000000E-1
 144
 1.0000000000000
 145
0.0
 146
 0.62500000000000
 147
 1.7142857142857
  71
0
  72
0
  73
0
  74
0
  75
0
  76
0
  77
3
  78
8
 170
0
 171
2
 172
1
 173
1
 174
0
 175
0
 176
2
 177
2
 178
2
 270
2
 271
6
 272
0
 273
2
 274
2
 340
3B
 275
1
 280
0
 281
0
 282
0
 283
1
 284
0
 285
0
 286
0
 287
3
 288
1
   0
DIMSTYLE
 105
44
 100
AcDbSymbolTableRecord
 100
AcDbDimStyleTableRecord
   2
GMM009
  70
0
   3
%%c<>
   4

   5

   6
_OPEN30
   7
_OPEN30
  40
 1.0000000000000
  41
 3.0000000000000
  42
 1.0000000000000
  43
 8.0000000000000
  44
 1.5000000000000
  45
0.0
  46
0.0
  47
0.0
  48
0.0
 140
 4.0000000000000
 141
 1.0000000000000
 142
0.0
 143
 0.39400000000000E-1
 144
 1.0000000000000
 145
0.0
 146
 0.62500000000000
 147
 1.7142857142857
  71
0
  72
0
  73
0
  74
0
  75
0
  76
0
  77
3
  78
8
 170
0
 171
2
 172
1
 173
1
 174
0
 175
0
 176
2
 177
2
 178
2
 270
2
 271
6
 272
0
 273
2
 274
2
 340
3B
 275
1
 280
0
 281
0
 282
0
 283
1
 284
0
 285
0
 286
0
 287
3
 288
1
   0
ENDTAB
  0
TABLE
  2
BLOCK_RECORD
  5
1
100
AcDbSymbolTable
 70
     0
  0
BLOCK_RECORD
  5
18
100
AcDbSymbolTableRecord
100
AcDbBlockTableRecord
  2
*MODEL_SPACE
  0
BLOCK_RECORD
  5
15
100
AcDbSymbolTableRecord
100
AcDbBlockTableRecord
  2
*PAPER_SPACE
   0
BLOCK_RECORD
   5
45
 100
AcDbSymbolTableRecord
 100
AcDbBlockTableRecord
   2
*D1
   0
BLOCK_RECORD
   5
46
 100
AcDbSymbolTableRecord
 100
AcDbBlockTableRecord
   2
HATCH001
   0
BLOCK_RECORD
   5
47
 100
AcDbSymbolTableRecord
 100
AcDbBlockTableRecord
   2
HATCH002
   0
BLOCK_RECORD
   5
48
 100
AcDbSymbolTableRecord
 100
AcDbBlockTableRecord
   2
*D2
   0
BLOCK_RECORD
   5
49
 100
AcDbSymbolTableRecord
 100
AcDbBlockTableRecord
   2
*D3
   0
BLOCK_RECORD
   5
4A
 100
AcDbSymbolTableRecord
 100
AcDbBlockTableRecord
   2
*D4
   0
BLOCK_RECORD
   5
4B
 100
AcDbSymbolTableRecord
 100
AcDbBlockTableRecord
   2
*D5
   0
BLOCK_RECORD
   5
4C
 100
AcDbSymbolTableRecord
 100
AcDbBlockTableRecord
   2
*D6
   0
BLOCK_RECORD
   5
4D
 100
AcDbSymbolTableRecord
 100
AcDbBlockTableRecord
   2
*D7
   0
BLOCK_RECORD
   5
4E
 100
AcDbSymbolTableRecord
 100
AcDbBlockTableRecord
   2
*D8
   0
BLOCK_RECORD
   5
4F
 100
AcDbSymbolTableRecord
 100
AcDbBlockTableRecord
   2
*D9
   0
BLOCK_RECORD
   5
50
 100
AcDbSymbolTableRecord
 100
AcDbBlockTableRecord
   2
*D10
   0
BLOCK_RECORD
   5
51
 100
AcDbSymbolTableRecord
 100
AcDbBlockTableRecord
   2
*D11
   0
BLOCK_RECORD
   5
52
 100
AcDbSymbolTableRecord
 100
AcDbBlockTableRecord
   2
*D12
   0
BLOCK_RECORD
   5
53
 100
AcDbSymbolTableRecord
 100
AcDbBlockTableRecord
   2
*D13
   0
BLOCK_RECORD
   5
54
 100
AcDbSymbolTableRecord
 100
AcDbBlockTableRecord
   2
*D14
   0
BLOCK_RECORD
   5
55
 100
AcDbSymbolTableRecord
 100
AcDbBlockTableRecord
   2
*D15
   0
BLOCK_RECORD
   5
56
 100
AcDbSymbolTableRecord
 100
AcDbBlockTableRecord
   2
*D16
   0
BLOCK_RECORD
   5
57
 100
AcDbSymbolTableRecord
 100
AcDbBlockTableRecord
   2
*D17
   0
BLOCK_RECORD
   5
58
 100
AcDbSymbolTableRecord
 100
AcDbBlockTableRecord
   2
*D18
   0
BLOCK_RECORD
   5
59
 100
AcDbSymbolTableRecord
 100
AcDbBlockTableRecord
   2
*D19
   0
BLOCK_RECORD
   5
5A
 100
AcDbSymbolTableRecord
 100
AcDbBlockTableRecord
   2
_ARCHTICK
   0
BLOCK_RECORD
   5
5B
 100
AcDbSymbolTableRecord
 100
AcDbBlockTableRecord
   2
_BOXBLANK
   0
BLOCK_RECORD
   5
5C
 100
AcDbSymbolTableRecord
 100
AcDbBlockTableRecord
   2
_BOXFILLED
   0
BLOCK_RECORD
   5
5D
 100
AcDbSymbolTableRecord
 100
AcDbBlockTableRecord
   2
_CLOSED
   0
BLOCK_RECORD
   5
5E
 100
AcDbSymbolTableRecord
 100
AcDbBlockTableRecord
   2
_CLOSEDBLANK
   0
BLOCK_RECORD
   5
5F
 100
AcDbSymbolTableRecord
 100
AcDbBlockTableRecord
   2
_DATUMBLANK
   0
BLOCK_RECORD
   5
60
 100
AcDbSymbolTableRecord
 100
AcDbBlockTableRecord
   2
_DATUMFILLED
   0
BLOCK_RECORD
   5
61
 100
AcDbSymbolTableRecord
 100
AcDbBlockTableRecord
   2
_DOT
   0
BLOCK_RECORD
   5
62
 100
AcDbSymbolTableRecord
 100
AcDbBlockTableRecord
   2
_DOTBLANK
   0
BLOCK_RECORD
   5
63
 100
AcDbSymbolTableRecord
 100
AcDbBlockTableRecord
   2
_DOTSMALL
   0
BLOCK_RECORD
   5
64
 100
AcDbSymbolTableRecord
 100
AcDbBlockTableRecord
   2
_INTEGRAL
   0
BLOCK_RECORD
   5
65
 100
AcDbSymbolTableRecord
 100
AcDbBlockTableRecord
   2
_NONE
   0
BLOCK_RECORD
   5
66
 100
AcDbSymbolTableRecord
 100
AcDbBlockTableRecord
   2
_OBLIQUE
   0
BLOCK_RECORD
   5
67
 100
AcDbSymbolTableRecord
 100
AcDbBlockTableRecord
   2
_OPEN
   0
BLOCK_RECORD
   5
68
 100
AcDbSymbolTableRecord
 100
AcDbBlockTableRecord
   2
_OPEN30
   0
BLOCK_RECORD
   5
69
 100
AcDbSymbolTableRecord
 100
AcDbBlockTableRecord
   2
_OPEN90
   0
BLOCK_RECORD
   5
6A
 100
AcDbSymbolTableRecord
 100
AcDbBlockTableRecord
   2
_ORIGIN
   0
ENDTAB
   0
ENDSEC
  0
SECTION
  2
BLOCKS
  0
BLOCK
  5
19
100
AcDbEntity
  8
0
100
AcDbBlockBegin
  2
*MODEL_SPACE
 70
     0
 10
0.0
 20
0.0
 30
0.0
  3
*MODEL_SPACE
  1

  0
ENDBLK
  5
1A
100
AcDbEntity
  8
0
100
AcDbBlockEnd
  0
BLOCK
  5
16
100
AcDbEntity
 67
     1
  8
0
100
AcDbBlockBegin
  2
*PAPER_SPACE
 70
     0
 10
0.0
 20
0.0
 30
0.0
  3
*PAPER_SPACE
  1

  0
ENDBLK
  5
17
100
AcDbEntity
 67
     1
  8
0
100
AcDbBlockEnd
   0
BLOCK
   5
6B
 100
AcDbEntity
   8
0
 100
AcDbBlockBegin
   2
_ARCHTICK
  70
0
  10
0.0
  20
0.0
  30
0.0
   3
_ARCHTICK
   0
POLYLINE
   5
6C
 100
AcDbEntity
   8
0
   6
BYBLOCK
  62
0
 100
AcDb2dPolyline
  66
1
  10
0.0
  20
0.0
  30
0.0
  70
1
  40
 0.15000000000000
  41
 0.15000000000000
   0
VERTEX
   5
6D
 100
AcDbEntity
   8
0
   6
BYBLOCK
  62
0
 100
AcDbVertex
 100
AcDb2dVertex
  10
-0.50000000000000
  20
-0.50000000000000
  30
0.0
  40
 0.15000000000000
  41
 0.15000000000000
   0
VERTEX
   5
6E
 100
AcDbEntity
   8
0
   6
BYBLOCK
  62
0
 100
AcDbVertex
 100
AcDb2dVertex
  10
 0.50000000000000
  20
 0.50000000000000
  30
0.0
  40
 0.15000000000000
  41
 0.15000000000000
   0
SEQEND
   5
6F
 100
AcDbEntity
   8
0
   6
BYBLOCK
  62
0
   0
ENDBLK
   5
70
 100
AcDbEntity
   8
0
 100
AcDbBlockEnd
   0
BLOCK
   5
71
 100
AcDbEntity
   8
0
 100
AcDbBlockBegin
   2
_OBLIQUE
  70
0
  10
0.0
  20
0.0
  30
0.0
   3
_OBLIQUE
   0
LINE
   5
72
 100
AcDbEntity
   8
0
 100
AcDbLine
   6
BYBLOCK
  62
0
  10
-0.50000000000000
  20
-0.50000000000000
  30
0.0
  11
 0.50000000000000
  21
 0.50000000000000
  31
0.0
   0
ENDBLK
   5
73
 100
AcDbEntity
   8
0
 100
AcDbBlockEnd
   0
BLOCK
   5
74
 100
AcDbEntity
   8
0
 100
AcDbBlockBegin
   2
_BOXBLANK
  70
0
  10
0.0
  20
0.0
  30
0.0
   3
_BOXBLANK
   0
LINE
   5
75
 100
AcDbEntity
   8
0
 100
AcDbLine
   6
BYBLOCK
  62
0
  10
-0.50000000000000
  20
-0.50000000000000
  30
0.0
  11
 0.50000000000000
  21
-0.50000000000000
  31
0.0
   0
LINE
   5
76
 100
AcDbEntity
   8
0
 100
AcDbLine
   6
BYBLOCK
  62
0
  10
 0.50000000000000
  20
-0.50000000000000
  30
0.0
  11
 0.50000000000000
  21
 0.50000000000000
  31
0.0
   0
LINE
   5
77
 100
AcDbEntity
   8
0
 100
AcDbLine
   6
BYBLOCK
  62
0
  10
 0.50000000000000
  20
 0.50000000000000
  30
0.0
  11
-0.50000000000000
  21
 0.50000000000000
  31
0.0
   0
LINE
   5
78
 100
AcDbEntity
   8
0
 100
AcDbLine
   6
BYBLOCK
  62
0
  10
-0.50000000000000
  20
 0.50000000000000
  30
0.0
  11
-0.50000000000000
  21
-0.50000000000000
  31
0.0
   0
LINE
   5
79
 100
AcDbEntity
   8
0
 100
AcDbLine
   6
BYBLOCK
  62
0
  10
-0.50000000000000
  20
0.0
  30
0.0
  11
-1.0000000000000
  21
0.0
  31
0.0
   0
ENDBLK
   5
7A
 100
AcDbEntity
   8
0
 100
AcDbBlockEnd
   0
BLOCK
   5
7B
 100
AcDbEntity
   8
0
 100
AcDbBlockBegin
   2
_BOXFILLED
  70
0
  10
0.0
  20
0.0
  30
0.0
   3
_BOXFILLED
   0
SOLID
   5
7C
 100
AcDbEntity
   8
0
 100
AcDbTrace
   6
BYBLOCK
  62
0
  10
-0.50000000000000
  20
 0.50000000000000
  30
0.0
  11
 0.50000000000000
  21
 0.50000000000000
  31
0.0
  12
-0.50000000000000
  22
-0.50000000000000
  32
0.0
  13
 0.50000000000000
  23
-0.50000000000000
  33
0.0
   0
LINE
   5
7D
 100
AcDbEntity
   8
0
 100
AcDbLine
   6
BYBLOCK
  62
0
  10
-0.50000000000000
  20
0.0
  30
0.0
  11
-1.0000000000000
  21
0.0
  31
0.0
   0
ENDBLK
   5
7E
 100
AcDbEntity
   8
0
 100
AcDbBlockEnd
   0
BLOCK
   5
7F
 100
AcDbEntity
   8
0
 100
AcDbBlockBegin
   2
_CLOSED
  70
0
  10
0.0
  20
0.0
  30
0.0
   3
_CLOSED
   0
LINE
   5
80
 100
AcDbEntity
   8
0
 100
AcDbLine
   6
BYBLOCK
  62
0
  10
-1.0000000000000
  20
 0.16666666666667
  30
0.0
  11
0.0
  21
0.0
  31
0.0
   0
LINE
   5
81
 100
AcDbEntity
   8
0
 100
AcDbLine
   6
BYBLOCK
  62
0
  10
0.0
  20
0.0
  30
0.0
  11
-1.0000000000000
  21
-0.16666666666667
  31
0.0
   0
LINE
   5
82
 100
AcDbEntity
   8
0
 100
AcDbLine
   6
BYBLOCK
  62
0
  10
-1.0000000000000
  20
 0.16666666666667
  30
0.0
  11
-1.0000000000000
  21
-0.16666666666667
  31
0.0
   0
LINE
   5
83
 100
AcDbEntity
   8
0
 100
AcDbLine
   6
BYBLOCK
  62
0
  10
0.0
  20
0.0
  30
0.0
  11
-1.0000000000000
  21
0.0
  31
0.0
   0
ENDBLK
   5
84
 100
AcDbEntity
   8
0
 100
AcDbBlockEnd
   0
BLOCK
   5
85
 100
AcDbEntity
   8
0
 100
AcDbBlockBegin
   2
_OPEN
  70
0
  10
0.0
  20
0.0
  30
0.0
   3
_OPEN
   0
LINE
   5
86
 100
AcDbEntity
   8
0
 100
AcDbLine
   6
BYBLOCK
  62
0
  10
-1.0000000000000
  20
 0.16666666666667
  30
0.0
  11
0.0
  21
0.0
  31
0.0
   0
LINE
   5
87
 100
AcDbEntity
   8
0
 100
AcDbLine
   6
BYBLOCK
  62
0
  10
0.0
  20
0.0
  30
0.0
  11
-1.0000000000000
  21
-0.16666666666667
  31
0.0
   0
LINE
   5
88
 100
AcDbEntity
   8
0
 100
AcDbLine
   6
BYBLOCK
  62
0
  10
0.0
  20
0.0
  30
0.0
  11
-1.0000000000000
  21
0.0
  31
0.0
   0
ENDBLK
   5
89
 100
AcDbEntity
   8
0
 100
AcDbBlockEnd
   0
BLOCK
   5
8A
 100
AcDbEntity
   8
0
 100
AcDbBlockBegin
   2
_OPEN30
  70
0
  10
0.0
  20
0.0
  30
0.0
   3
_OPEN30
   0
LINE
   5
8B
 100
AcDbEntity
   8
0
 100
AcDbLine
   6
BYBLOCK
  62
0
  10
-1.0000000000000
  20
 0.26794919243110
  30
0.0
  11
0.0
  21
0.0
  31
0.0
   0
LINE
   5
8C
 100
AcDbEntity
   8
0
 100
AcDbLine
   6
BYBLOCK
  62
0
  10
0.0
  20
0.0
  30
0.0
  11
-1.0000000000000
  21
-0.26794919243110
  31
0.0
   0
LINE
   5
8D
 100
AcDbEntity
   8
0
 100
AcDbLine
   6
BYBLOCK
  62
0
  10
0.0
  20
0.0
  30
0.0
  11
-1.0000000000000
  21
0.0
  31
0.0
   0
ENDBLK
   5
8E
 100
AcDbEntity
   8
0
 100
AcDbBlockEnd
   0
BLOCK
   5
8F
 100
AcDbEntity
   8
0
 100
AcDbBlockBegin
   2
_OPEN90
  70
0
  10
0.0
  20
0.0
  30
0.0
   3
_OPEN90
   0
LINE
   5
90
 100
AcDbEntity
   8
0
 100
AcDbLine
   6
BYBLOCK
  62
0
  10
-0.50000000000000
  20
 0.50000000000000
  30
0.0
  11
0.0
  21
0.0
  31
0.0
   0
LINE
   5
91
 100
AcDbEntity
   8
0
 100
AcDbLine
   6
BYBLOCK
  62
0
  10
0.0
  20
0.0
  30
0.0
  11
-0.50000000000000
  21
-0.50000000000000
  31
0.0
   0
LINE
   5
92
 100
AcDbEntity
   8
0
 100
AcDbLine
   6
BYBLOCK
  62
0
  10
0.0
  20
0.0
  30
0.0
  11
-1.0000000000000
  21
0.0
  31
0.0
   0
ENDBLK
   5
93
 100
AcDbEntity
   8
0
 100
AcDbBlockEnd
   0
BLOCK
   5
94
 100
AcDbEntity
   8
0
 100
AcDbBlockBegin
   2
_CLOSEDBLANK
  70
0
  10
0.0
  20
0.0
  30
0.0
   3
_CLOSEDBLANK
   0
LINE
   5
95
 100
AcDbEntity
   8
0
 100
AcDbLine
   6
BYBLOCK
  62
0
  10
-1.0000000000000
  20
 0.16666666666667
  30
0.0
  11
0.0
  21
0.0
  31
0.0
   0
LINE
   5
96
 100
AcDbEntity
   8
0
 100
AcDbLine
   6
BYBLOCK
  62
0
  10
0.0
  20
0.0
  30
0.0
  11
-1.0000000000000
  21
-0.16666666666667
  31
0.0
   0
LINE
   5
97
 100
AcDbEntity
   8
0
 100
AcDbLine
   6
BYBLOCK
  62
0
  10
-1.0000000000000
  20
 0.16666666666667
  30
0.0
  11
-1.0000000000000
  21
-0.16666666666667
  31
0.0
   0
ENDBLK
   5
98
 100
AcDbEntity
   8
0
 100
AcDbBlockEnd
   0
BLOCK
   5
99
 100
AcDbEntity
   8
0
 100
AcDbBlockBegin
   2
_DOT
  70
0
  10
0.0
  20
0.0
  30
0.0
   3
_DOT
   0
POLYLINE
   5
9A
 100
AcDbEntity
   8
0
   6
BYBLOCK
  62
0
 100
AcDb2dPolyline
  66
1
  10
0.0
  20
0.0
  30
0.0
  70
1
  40
 0.50000000000000
  41
 0.50000000000000
   0
VERTEX
   5
9B
 100
AcDbEntity
   8
0
   6
BYBLOCK
  62
0
 100
AcDbVertex
 100
AcDb2dVertex
  10
-0.25000000000000
  20
0.0
  30
0.0
  42
 1.0000000000000
  40
 0.50000000000000
  41
 0.50000000000000
   0
VERTEX
   5
9C
 100
AcDbEntity
   8
0
   6
BYBLOCK
  62
0
 100
AcDbVertex
 100
AcDb2dVertex
  10
 0.25000000000000
  20
0.0
  30
0.0
  42
 1.0000000000000
  40
 0.50000000000000
  41
 0.50000000000000
   0
SEQEND
   5
9D
 100
AcDbEntity
   8
0
   6
BYBLOCK
  62
0
   0
LINE
   5
9E
 100
AcDbEntity
   8
0
 100
AcDbLine
   6
BYBLOCK
  62
0
  10
-0.50000000000000
  20
0.0
  30
0.0
  11
-1.0000000000000
  21
0.0
  31
0.0
   0
ENDBLK
   5
9F
 100
AcDbEntity
   8
0
 100
AcDbBlockEnd
   0
BLOCK
   5
A0
 100
AcDbEntity
   8
0
 100
AcDbBlockBegin
   2
_DOTSMALL
  70
0
  10
0.0
  20
0.0
  30
0.0
   3
_DOTSMALL
   0
POLYLINE
   5
A1
 100
AcDbEntity
   8
0
   6
BYBLOCK
  62
0
 100
AcDb2dPolyline
  66
1
  10
0.0
  20
0.0
  30
0.0
  70
1
  40
 0.50000000000000
  41
 0.50000000000000
   0
VERTEX
   5
A2
 100
AcDbEntity
   8
0
   6
BYBLOCK
  62
0
 100
AcDbVertex
 100
AcDb2dVertex
  10
-0.62500000000000E-1
  20
0.0
  30
0.0
  42
 1.0000000000000
  40
 0.50000000000000
  41
 0.50000000000000
   0
VERTEX
   5
A3
 100
AcDbEntity
   8
0
   6
BYBLOCK
  62
0
 100
AcDbVertex
 100
AcDb2dVertex
  10
 0.62500000000000E-1
  20
0.0
  30
0.0
  42
 1.0000000000000
  40
 0.50000000000000
  41
 0.50000000000000
   0
SEQEND
   5
A4
 100
AcDbEntity
   8
0
   6
BYBLOCK
  62
0
   0
ENDBLK
   5
A5
 100
AcDbEntity
   8
0
 100
AcDbBlockEnd
   0
BLOCK
   5
A6
 100
AcDbEntity
   8
0
 100
AcDbBlockBegin
   2
_DATUMBLANK
  70
0
  10
0.0
  20
0.0
  30
0.0
   3
_DATUMBLANK
   0
LINE
   5
A7
 100
AcDbEntity
   8
0
 100
AcDbLine
   6
BYBLOCK
  62
0
  10
0.0
  20
 0.57735027000000
  30
0.0
  11
-1.0000000000000
  21
0.0
  31
0.0
   0
LINE
   5
A8
 100
AcDbEntity
   8
0
 100
AcDbLine
   6
BYBLOCK
  62
0
  10
-1.0000000000000
  20
0.0
  30
0.0
  11
0.0
  21
-0.57735027000000
  31
0.0
   0
LINE
   5
A9
 100
AcDbEntity
   8
0
 100
AcDbLine
   6
BYBLOCK
  62
0
  10
0.0
  20
-0.57735027000000
  30
0.0
  11
0.0
  21
 0.57735027000000
  31
0.0
   0
ENDBLK
   5
AA
 100
AcDbEntity
   8
0
 100
AcDbBlockEnd
   0
BLOCK
   5
AB
 100
AcDbEntity
   8
0
 100
AcDbBlockBegin
   2
_DATUMFILLED
  70
0
  10
0.0
  20
0.0
  30
0.0
   3
_DATUMFILLED
   0
SOLID
   5
AC
 100
AcDbEntity
   8
0
 100
AcDbTrace
   6
BYBLOCK
  62
0
  10
0.0
  20
 0.57735027000000
  30
0.0
  11
-1.0000000000000
  21
0.0
  31
0.0
  12
0.0
  22
-0.57735027000000
  32
0.0
  13
0.0
  23
-0.57735027000000
  33
0.0
   0
ENDBLK
   5
AD
 100
AcDbEntity
   8
0
 100
AcDbBlockEnd
   0
BLOCK
   5
AE
 100
AcDbEntity
   8
0
 100
AcDbBlockBegin
   2
_ORIGIN
  70
0
  10
0.0
  20
0.0
  30
0.0
   3
_ORIGIN
   0
CIRCLE
   5
AF
 100
AcDbEntity
   8
0
 100
AcDbCircle
   6
BYBLOCK
  62
0
  10
0.0
  20
0.0
  30
0.0
  40
 0.50000000000000
   0
LINE
   5
B0
 100
AcDbEntity
   8
0
 100
AcDbLine
   6
BYBLOCK
  62
0
  10
0.0
  20
0.0
  30
0.0
  11
-1.0000000000000
  21
0.0
  31
0.0
   0
ENDBLK
   5
B1
 100
AcDbEntity
   8
0
 100
AcDbBlockEnd
   0
BLOCK
   5
B2
 100
AcDbEntity
   8
0
 100
AcDbBlockBegin
   2
_NONE
  70
0
  10
0.0
  20
0.0
  30
0.0
   3
_NONE
   0
CIRCLE
   5
B3
 100
AcDbEntity
   8
0
 100
AcDbCircle
   6
BYBLOCK
  62
0
  10
0.0
  20
0.0
  30
0.0
  40
 0.25000000000000
   0
ENDBLK
   5
B4
 100
AcDbEntity
   8
0
 100
AcDbBlockEnd
   0
BLOCK
   5
B5
 100
AcDbEntity
   8
0
 100
AcDbBlockBegin
   2
_DOTBLANK
  70
0
  10
0.0
  20
0.0
  30
0.0
   3
_DOTBLANK
   0
CIRCLE
   5
B6
 100
AcDbEntity
   8
0
 100
AcDbCircle
   6
BYBLOCK
  62
0
  10
0.0
  20
0.0
  30
0.0
  40
 0.50000000000000
   0
LINE
   5
B7
 100
AcDbEntity
   8
0
 100
AcDbLine
   6
BYBLOCK
  62
0
  10
-0.50000000000000
  20
0.0
  30
0.0
  11
-1.0000000000000
  21
0.0
  31
0.0
   0
ENDBLK
   5
B8
 100
AcDbEntity
   8
0
 100
AcDbBlockEnd
   0
BLOCK
   5
B9
 100
AcDbEntity
   8
0
 100
AcDbBlockBegin
   2
_INTEGRAL
  70
0
  10
0.0
  20
0.0
  30
0.0
   3
_INTEGRAL
   0
ARC
   5
BA
 100
AcDbEntity
   8
0
   6
BYBLOCK
  62
0
 100
AcDbCircle
  10
 0.44488800000000
  20
-0.91335000000000E-1
  30
0.0
  40
 0.45416700000000
 100
AcDbArc
  50
 102.00000000000
  51
 168.00000000000
   0
ARC
   5
BB
 100
AcDbEntity
   8
0
   6
BYBLOCK
  62
0
 100
AcDbCircle
  10
-0.44488800000000
  20
 0.91335000000000E-1
  30
0.0
  40
 0.45416700000000
 100
AcDbArc
  50
 282.00000000000
  51
 348.00000000000
   0
ENDBLK
   5
BC
 100
AcDbEntity
   8
0
 100
AcDbBlockEnd
   0
BLOCK
   5
BD
 100
AcDbEntity
   8
0
 100
AcDbBlockBegin
   2
*D1
  70
65
  10
0.0
  20
0.0
  30
0.0
   3
*D1
   0
LINE
   5
BE
 100
AcDbEntity
   8
LEVEL001
 100
AcDbLine
   6
CONTINUOUS
  62
2
  10
 73.254229136659
  20
 111.35808479496
  30
0.0
  11
 73.254229136659
  21
 124.73587858004
  31
0.0
   0
LINE
   5
BF
 100
AcDbEntity
   8
LEVEL001
 100
AcDbLine
   6
CONTINUOUS
  62
2
  10
 277.54637969211
  20
 111.24414294255
  30
0.0
  11
 277.54637969211
  21
 124.73587858004
  31
0.0
   0
LINE
   5
C0
 100
AcDbEntity
   8
LEVEL001
 100
AcDbLine
   6
CONTINUOUS
  62
2
  10
 73.254229136659
  20
 123.23587858004
  30
0.0
  11
 175.40030441438
  21
 123.23587858004
  31
0.0
   0
LINE
   5
C1
 100
AcDbEntity
   8
LEVEL001
 100
AcDbLine
   6
CONTINUOUS
  62
2
  10
 277.54637969211
  20
 123.23587858004
  30
0.0
  11
 175.40030441438
  21
 123.23587858004
  31
0.0
   0
INSERT
   5
C2
 100
AcDbEntity
   8
LEVEL001
   6
CONTINUOUS
  62
2
 100
AcDbBlockReference
   2
_OPEN30
  10
 73.254229136659
  20
 123.23587858004
  30
0.0
  41
 3.0000000000000
  42
 3.0000000000000
  43
 3.0000000000000
  50
 180.00000000000
   0
INSERT
   5
C3
 100
AcDbEntity
   8
LEVEL001
   6
CONTINUOUS
  62
2
 100
AcDbBlockReference
   2
_OPEN30
  10
 277.54637969211
  20
 123.23587858004
  30
0.0
  41
 3.0000000000000
  42
 3.0000000000000
  43
 3.0000000000000
  50
0.0
   0
MTEXT
   5
C4
 100
AcDbEntity
   8
LEVEL001
  62
2
 100
AcDbMText
  10
 175.40030441438
  20
 124.95016429433
  30
0.0
  40
 4.0000000000000
  41
0.0
  71
8
  72
1
   1
\A1;パイプ長
   7
GMM001
   0
ENDBLK
   5
C5
 100
AcDbEntity
   8
0
 100
AcDbBlockEnd
   0
BLOCK
   5
C6
 100
AcDbEntity
   8
0
 100
AcDbBlockBegin
   2
HATCH001
  70
64
  10
0.0
  20
0.0
  30
0.0
   3
HATCH001
   0
LINE
   5
C7
 100
AcDbEntity
   8
LEVEL001
 100
AcDbLine
   6
DIVIDE
  62
3
  10
 49.254229136659
  20
 117.13648001666
  30
0.0
  11
 51.792582349735
  21
 119.67483322973
  31
0.0
   0
LINE
   5
C8
 100
AcDbEntity
   8
LEVEL001
 100
AcDbLine
   6
DIVIDE
  62
3
  10
 49.254229136659
  20
 111.47962577666
  30
0.0
  11
 57.462519630855
  21
 119.68791627086
  31
0.0
   0
LINE
   5
C9
 100
AcDbEntity
   8
LEVEL001
 100
AcDbLine
   6
DIVIDE
  62
3
  10
 49.254229136659
  20
 105.82277153666
  30
0.0
  11
 63.132456911976
  21
 119.70099931198
  31
0.0
   0
LINE
   5
CA
 100
AcDbEntity
   8
LEVEL001
 100
AcDbLine
   6
DIVIDE
  62
3
  10
 49.254229136659
  20
 100.16591729666
  30
0.0
  11
 68.802394193097
  21
 119.71408235310
  31
0.0
   0
LINE
   5
CB
 100
AcDbEntity
   8
LEVEL001
 100
AcDbLine
   6
DIVIDE
  62
3
  10
 49.254229136659
  20
 94.509063056659
  30
0.0
  11
 61.754229136659
  21
 107.00906305666
  31
0.0
   0
LINE
   5
CC
 100
AcDbEntity
   8
LEVEL001
 100
AcDbLine
   6
DIVIDE
  62
3
  10
 63.603250874961
  20
 108.85808479496
  30
0.0
  11
 69.254229136659
  21
 114.50906305666
  31
0.0
   0
LINE
   5
CD
 100
AcDbEntity
   8
LEVEL001
 100
AcDbLine
   6
DIVIDE
  62
3
  10
 49.254229136659
  20
 88.852208816659
  30
0.0
  11
 64.260105114961
  21
 103.85808479496
  31
0.0
   0
LINE
   5
CE
 100
AcDbEntity
   8
LEVEL001
 100
AcDbLine
   6
DIVIDE
  62
3
  10
 49.254229136659
  20
 83.195354576659
  30
0.0
  11
 69.254229136659
  21
 103.19535457666
  31
0.0
   0
LINE
   5
CF
 100
AcDbEntity
   8
LEVEL001
 100
AcDbLine
   6
DIVIDE
  62
3
  10
 49.254229136659
  20
 77.538500336659
  30
0.0
  11
 62.687525800723
  21
 90.971797000723
  31
0.0
   0
LINE
   5
D0
 100
AcDbEntity
   8
LEVEL001
 100
AcDbLine
   6
DIVIDE
  62
3
  10
 64.823813594961
  20
 93.108084794961
  30
0.0
  11
 69.254229136659
  21
 97.538500336659
  31
0.0
   0
LINE
   5
D1
 100
AcDbEntity
   8
LEVEL001
 100
AcDbLine
   6
DIVIDE
  62
3
  10
 49.254229136659
  20
 71.881646096659
  30
0.0
  11
 66.980667834961
  21
 89.608084794961
  31
0.0
   0
LINE
   5
D2
 100
AcDbEntity
   8
LEVEL001
 100
AcDbLine
   6
DIVIDE
  62
3
  10
 49.254229136659
  20
 66.224791856659
  30
0.0
  11
 69.254229136659
  21
 86.224791856659
  31
0.0
   0
LINE
   5
D3
 100
AcDbEntity
   8
LEVEL001
 100
AcDbLine
   6
DIVIDE
  62
3
  10
 49.254229136659
  20
 60.567937616659
  30
0.0
  11
 62.544376314961
  21
 73.858084794961
  31
0.0
   0
LINE
   5
D4
 100
AcDbEntity
   8
LEVEL001
 100
AcDbLine
   6
DIVIDE
  62
3
  10
 67.544376314961
  20
 78.858084794961
  30
0.0
  11
 69.254229136659
  21
 80.567937616659
  31
0.0
   0
LINE
   5
D5
 100
AcDbEntity
   8
LEVEL001
 100
AcDbLine
   6
DIVIDE
  62
3
  10
 49.254229136659
  20
 54.911083376659
  30
0.0
  11
 68.201230554961
  21
 73.858084794961
  31
0.0
   0
LINE
   5
D6
 100
AcDbEntity
   8
LEVEL001
 100
AcDbLine
   6
DIVIDE
  62
3
  10
 50.065293970538
  20
 50.065293970538
  30
0.0
  11
 69.254229136659
  21
 69.254229136659
  31
0.0
   0
LINE
   5
D7
 100
AcDbEntity
   8
LEVEL001
 100
AcDbLine
   6
DIVIDE
  62
3
  10
 55.735231251659
  20
 50.078377011659
  30
0.0
  11
 69.254229136659
  21
 63.597374896659
  31
0.0
   0
LINE
   5
D8
 100
AcDbEntity
   8
LEVEL001
 100
AcDbLine
   6
DIVIDE
  62
3
  10
 61.405168532779
  20
 50.091460052779
  30
0.0
  11
 69.254229136659
  21
 57.940520656659
  31
0.0
   0
LINE
   5
D9
 100
AcDbEntity
   8
LEVEL001
 100
AcDbLine
   6
DIVIDE
  62
3
  10
 67.075105813900
  20
 50.104543093900
  30
0.0
  11
 69.254229136659
  21
 52.283666416659
  31
0.0
   0
ENDBLK
   5
DA
 100
AcDbEntity
   8
0
 100
AcDbBlockEnd
   0
BLOCK
   5
DB
 100
AcDbEntity
   8
0
 100
AcDbBlockBegin
   2
HATCH002
  70
64
  10
0.0
  20
0.0
  30
0.0
   3
HATCH002
   0
LINE
   5
DC
 100
AcDbEntity
   8
LEVEL001
 100
AcDbLine
   6
DIVIDE
  62
3
  10
 299.04642349510
  20
 50.069190986335
  30
0.0
  11
 301.54637969211
  21
 52.569147183341
  31
0.0
   0
LINE
   5
DD
 100
AcDbEntity
   8
LEVEL001
 100
AcDbLine
   6
DIVIDE
  62
3
  10
 293.40259205855
  20
 50.082213789781
  30
0.0
  11
 301.54637969211
  21
 58.226001423341
  31
0.0
   0
LINE
   5
DE
 100
AcDbEntity
   8
LEVEL001
 100
AcDbLine
   6
DIVIDE
  62
3
  10
 287.75876062199
  20
 50.095236593227
  30
0.0
  11
 301.54637969211
  21
 63.882855663341
  31
0.0
   0
LINE
   5
DF
 100
AcDbEntity
   8
LEVEL001
 100
AcDbLine
   6
DIVIDE
  62
3
  10
 282.11492918544
  20
 50.108259396673
  30
0.0
  11
 301.54637969211
  21
 69.539709903341
  31
0.0
   0
LINE
   5
E0
 100
AcDbEntity
   8
LEVEL001
 100
AcDbLine
   6
DIVIDE
  62
3
  10
 281.54637969211
  20
 55.196564143341
  30
0.0
  11
 301.54637969211
  21
 75.196564143341
  31
0.0
   0
LINE
   5
E1
 100
AcDbEntity
   8
LEVEL001
 100
AcDbLine
   6
DIVIDE
  62
3
  10
 281.54637969211
  20
 60.853418383341
  30
0.0
  11
 301.54637969211
  21
 80.853418383341
  31
0.0
   0
LINE
   5
E2
 100
AcDbEntity
   8
LEVEL001
 100
AcDbLine
   6
DIVIDE
  62
3
  10
 281.54637969211
  20
 66.510272623341
  30
0.0
  11
 301.54637969211
  21
 86.510272623341
  31
0.0
   0
LINE
   5
E3
 100
AcDbEntity
   8
LEVEL001
 100
AcDbLine
   6
DIVIDE
  62
3
  10
 281.54637969211
  20
 72.167126863341
  30
0.0
  11
 283.23733762373
  21
 73.858084794961
  31
0.0
   0
LINE
   5
E4
 100
AcDbEntity
   8
LEVEL001
 100
AcDbLine
   6
DIVIDE
  62
3
  10
 288.23733762373
  20
 78.858084794961
  30
0.0
  11
 301.54637969211
  21
 92.167126863341
  31
0.0
   0
LINE
   5
E5
 100
AcDbEntity
   8
LEVEL001
 100
AcDbLine
   6
DIVIDE
  62
3
  10
 282.58048338373
  20
 78.858084794961
  30
0.0
  11
 301.54637969211
  21
 97.823981103341
  31
0.0
   0
LINE
   5
E6
 100
AcDbEntity
   8
LEVEL001
 100
AcDbLine
   6
DIVIDE
  62
3
  10
 281.54637969211
  20
 83.480835343341
  30
0.0
  11
 301.54637969211
  21
 103.48083534334
  31
0.0
   0
LINE
   5
E7
 100
AcDbEntity
   8
LEVEL001
 100
AcDbLine
   6
DIVIDE
  62
3
  10
 281.54637969211
  20
 89.137689583341
  30
0.0
  11
 282.01677490373
  21
 89.608084794961
  31
0.0
   0
LINE
   5
E8
 100
AcDbEntity
   8
LEVEL001
 100
AcDbLine
   6
DIVIDE
  62
3
  10
 285.51677490373
  20
 93.108084794961
  30
0.0
  11
 301.54637969211
  21
 109.13768958334
  31
0.0
   0
LINE
   5
E9
 100
AcDbEntity
   8
LEVEL001
 100
AcDbLine
   6
DIVIDE
  62
3
  10
 281.54637969211
  20
 94.794543823341
  30
0.0
  11
 301.54637969211
  21
 114.79454382334
  31
0.0
   0
LINE
   5
EA
 100
AcDbEntity
   8
LEVEL001
 100
AcDbLine
   6
DIVIDE
  62
3
  10
 281.54637969211
  20
 100.45139806334
  30
0.0
  11
 284.95306642373
  21
 103.85808479496
  31
0.0
   0
LINE
   5
EB
 100
AcDbEntity
   8
LEVEL001
 100
AcDbLine
   6
DIVIDE
  62
3
  10
 289.04637969211
  20
 107.95139806334
  30
0.0
  11
 300.76575899586
  21
 119.67077736709
  31
0.0
   0
LINE
   5
EC
 100
AcDbEntity
   8
LEVEL001
 100
AcDbLine
   6
DIVIDE
  62
3
  10
 284.29621218373
  20
 108.85808479496
  30
0.0
  11
 295.12192755931
  21
 119.68380017054
  31
0.0
   0
LINE
   5
ED
 100
AcDbEntity
   8
LEVEL001
 100
AcDbLine
   6
DIVIDE
  62
3
  10
 281.54637969211
  20
 111.76510654334
  30
0.0
  11
 289.47809612275
  21
 119.69682297399
  31
0.0
   0
LINE
   5
EE
 100
AcDbEntity
   8
LEVEL001
 100
AcDbLine
   6
DIVIDE
  62
3
  10
 281.54637969211
  20
 117.42196078334
  30
0.0
  11
 283.83426468620
  21
 119.70984577743
  31
0.0
   0
ENDBLK
   5
EF
 100
AcDbEntity
   8
0
 100
AcDbBlockEnd
   0
BLOCK
   5
F0
 100
AcDbEntity
   8
0
 100
AcDbBlockBegin
   2
*D2
  70
65
  10
0.0
  20
0.0
  30
0.0
   3
*D2
   0
LINE
   5
F1
 100
AcDbEntity
   8
LEVEL001
 100
AcDbLine
   6
CONTINUOUS
  62
2
  10
 72.254229136659
  20
 111.35808479496
  30
0.0
  11
 72.254229136659
  21
 124.73587858004
  31
0.0
   0
LINE
   5
F2
 100
AcDbEntity
   8
LEVEL001
 100
AcDbLine
   6
CONTINUOUS
  62
2
  10
 72.254229136659
  20
 123.23587858004
  30
0.0
  11
 72.754229136659
  21
 123.23587858004
  31
0.0
   0
LINE
   5
F3
 100
AcDbEntity
   8
LEVEL001
 100
AcDbLine
   6
CONTINUOUS
  62
2
  10
 77.004229136659
  20
 123.23587858004
  30
0.0
  11
 72.754229136659
  21
 123.23587858004
  31
0.0
   0
INSERT
   5
F4
 100
AcDbEntity
   8
LEVEL001
   6
CONTINUOUS
  62
2
 100
AcDbBlockReference
   2
_DOT
  10
 72.254229136659
  20
 123.23587858004
  30
0.0
  41
 0.80000000000000
  42
 0.80000000000000
  43
 0.80000000000000
  50
 180.00000000000
   0
INSERT
   5
F5
 100
AcDbEntity
   8
LEVEL001
   6
CONTINUOUS
  62
2
 100
AcDbBlockReference
   2
_OPEN30
  10
 73.254229136659
  20
 123.23587858004
  30
0.0
  41
 3.0000000000000
  42
 3.0000000000000
  43
 3.0000000000000
  50
 180.00000000000
   0
MTEXT
   5
F6
 100
AcDbEntity
   8
LEVEL001
  62
2
 100
AcDbMText
  10
 72.754229136659
  20
 124.95016429433
  30
0.0
  40
 4.0000000000000
  41
0.0
  71
8
  72
1
   1
\A1;1
   7
GMM001
   0
ENDBLK
   5
F7
 100
AcDbEntity
   8
0
 100
AcDbBlockEnd
   0
BLOCK
   5
F8
 100
AcDbEntity
   8
0
 100
AcDbBlockBegin
   2
*D3
  70
65
  10
0.0
  20
0.0
  30
0.0
   3
*D3
   0
LINE
   5
F9
 100
AcDbEntity
   8
LEVEL001
 100
AcDbLine
   6
CONTINUOUS
  62
2
  10
 69.254229136659
  20
 120.71512493520
  30
0.0
  11
 69.254229136659
  21
 124.73587858004
  31
0.0
   0
LINE
   5
FA
 100
AcDbEntity
   8
LEVEL001
 100
AcDbLine
   6
CONTINUOUS
  62
2
  10
 72.254229136659
  20
 111.35808479496
  30
0.0
  11
 72.254229136659
  21
 124.73587858004
  31
0.0
   0
LINE
   5
FB
 100
AcDbEntity
   8
LEVEL001
 100
AcDbLine
   6
CONTINUOUS
  62
2
  10
 61.762685380514
  20
 123.23587858004
  30
0.0
  11
 70.754229136659
  21
 123.23587858004
  31
0.0
   0
LINE
   5
FC
 100
AcDbEntity
   8
LEVEL001
 100
AcDbLine
   6
CONTINUOUS
  62
2
  10
 72.254229136659
  20
 123.23587858004
  30
0.0
  11
 70.754229136659
  21
 123.23587858004
  31
0.0
   0
INSERT
   5
FD
 100
AcDbEntity
   8
LEVEL001
   6
CONTINUOUS
  62
2
 100
AcDbBlockReference
   2
_OPEN30
  10
 69.254229136659
  20
 123.23587858004
  30
0.0
  41
 3.0000000000000
  42
 3.0000000000000
  43
 3.0000000000000
  50
0.0
   0
INSERT
   5
FE
 100
AcDbEntity
   8
LEVEL001
   6
CONTINUOUS
  62
2
 100
AcDbBlockReference
   2
_DOT
  10
 72.254229136659
  20
 123.23587858004
  30
0.0
  41
 0.80000000000000
  42
 0.80000000000000
  43
 0.80000000000000
  50
0.0
   0
MTEXT
   5
FF
 100
AcDbEntity
   8
LEVEL001
  62
2
 100
AcDbMText
  10
 63.762685380514
  20
 124.95016429433
  30
0.0
  40
 4.0000000000000
  41
0.0
  71
8
  72
1
   1
\A1;3
   7
GMM001
   0
ENDBLK
   5
100
 100
AcDbEntity
   8
0
 100
AcDbBlockEnd
   0
BLOCK
   5
101
 100
AcDbEntity
   8
0
 100
AcDbBlockBegin
   2
*D4
  70
65
  10
0.0
  20
0.0
  30
0.0
   3
*D4
   0
LINE
   5
102
 100
AcDbEntity
   8
LEVEL001
 100
AcDbLine
   6
CONTINUOUS
  62
2
  10
 278.54637969211
  20
 111.35808479496
  30
0.0
  11
 278.54637969211
  21
 124.73587858004
  31
0.0
   0
LINE
   5
103
 100
AcDbEntity
   8
LEVEL001
 100
AcDbLine
   6
CONTINUOUS
  62
2
  10
 278.54637969211
  20
 123.23587858004
  30
0.0
  11
 278.04637969211
  21
 123.23587858004
  31
0.0
   0
LINE
   5
104
 100
AcDbEntity
   8
LEVEL001
 100
AcDbLine
   6
CONTINUOUS
  62
2
  10
 273.79637969211
  20
 123.23587858004
  30
0.0
  11
 278.04637969211
  21
 123.23587858004
  31
0.0
   0
INSERT
   5
105
 100
AcDbEntity
   8
LEVEL001
   6
CONTINUOUS
  62
2
 100
AcDbBlockReference
   2
_DOT
  10
 278.54637969211
  20
 123.23587858004
  30
0.0
  41
 0.80000000000000
  42
 0.80000000000000
  43
 0.80000000000000
  50
0.0
   0
INSERT
   5
106
 100
AcDbEntity
   8
LEVEL001
   6
CONTINUOUS
  62
2
 100
AcDbBlockReference
   2
_OPEN30
  10
 277.54637969211
  20
 123.23587858004
  30
0.0
  41
 3.0000000000000
  42
 3.0000000000000
  43
 3.0000000000000
  50
0.0
   0
MTEXT
   5
107
 100
AcDbEntity
   8
LEVEL001
  62
2
 100
AcDbMText
  10
 278.04637969211
  20
 124.95016429433
  30
0.0
  40
 4.0000000000000
  41
0.0
  71
8
  72
1
   1
\A1;1
   7
GMM001
   0
ENDBLK
   5
108
 100
AcDbEntity
   8
0
 100
AcDbBlockEnd
   0
BLOCK
   5
109
 100
AcDbEntity
   8
0
 100
AcDbBlockBegin
   2
*D5
  70
65
  10
0.0
  20
0.0
  30
0.0
   3
*D5
   0
LINE
   5
10A
 100
AcDbEntity
   8
LEVEL001
 100
AcDbLine
   6
CONTINUOUS
  62
2
  10
 281.54637969211
  20
 120.71512493520
  30
0.0
  11
 281.54637969211
  21
 124.73587858004
  31
0.0
   0
LINE
   5
10B
 100
AcDbEntity
   8
LEVEL001
 100
AcDbLine
   6
CONTINUOUS
  62
2
  10
 278.54637969211
  20
 123.23587858004
  30
0.0
  11
 280.04637969211
  21
 123.23587858004
  31
0.0
   0
LINE
   5
10C
 100
AcDbEntity
   8
LEVEL001
 100
AcDbLine
   6
CONTINUOUS
  62
2
  10
 288.27646818768
  20
 123.23587858004
  30
0.0
  11
 280.04637969211
  21
 123.23587858004
  31
0.0
   0
INSERT
   5
10D
 100
AcDbEntity
   8
LEVEL001
   6
CONTINUOUS
  62
2
 100
AcDbBlockReference
   2
_DOT
  10
 278.54637969211
  20
 123.23587858004
  30
0.0
  41
 0.80000000000000
  42
 0.80000000000000
  43
 0.80000000000000
  50
 180.00000000000
   0
INSERT
   5
10E
 100
AcDbEntity
   8
LEVEL001
   6
CONTINUOUS
  62
2
 100
AcDbBlockReference
   2
_OPEN30
  10
 281.54637969211
  20
 123.23587858004
  30
0.0
  41
 3.0000000000000
  42
 3.0000000000000
  43
 3.0000000000000
  50
 180.00000000000
   0
MTEXT
   5
10F
 100
AcDbEntity
   8
LEVEL001
  62
2
 100
AcDbMText
  10
 286.27646818768
  20
 124.95016429433
  30
0.0
  40
 4.0000000000000
  41
0.0
  71
8
  72
1
   1
\A1;3
   7
GMM001
   0
ENDBLK
   5
110
 100
AcDbEntity
   8
0
 100
AcDbBlockEnd
   0
BLOCK
   5
111
 100
AcDbEntity
   8
0
 100
AcDbBlockBegin
   2
*D6
  70
65
  10
0.0
  20
0.0
  30
0.0
   3
*D6
   0
LINE
   5
112
 100
AcDbEntity
   8
LEVEL001
 100
AcDbLine
   6
CONTINUOUS
  62
2
  10
 69.254229136659
  20
 59.131781099401
  30
0.0
  11
 69.254229136659
  21
 57.631781099401
  31
0.0
   0
LINE
   5
113
 100
AcDbEntity
   8
LEVEL001
 100
AcDbLine
   6
CONTINUOUS
  62
2
  10
 281.54637969211
  20
 59.131781099401
  30
0.0
  11
 281.54637969211
  21
 57.631781099401
  31
0.0
   0
LINE
   5
114
 100
AcDbEntity
   8
LEVEL001
 100
AcDbLine
   6
CONTINUOUS
  62
2
  10
 69.254229136659
  20
 59.131781099401
  30
0.0
  11
 175.40030441438
  21
 59.131781099401
  31
0.0
   0
LINE
   5
115
 100
AcDbEntity
   8
LEVEL001
 100
AcDbLine
   6
CONTINUOUS
  62
2
  10
 281.54637969211
  20
 59.131781099401
  30
0.0
  11
 175.40030441438
  21
 59.131781099401
  31
0.0
   0
INSERT
   5
116
 100
AcDbEntity
   8
LEVEL001
   6
CONTINUOUS
  62
2
 100
AcDbBlockReference
   2
_OPEN30
  10
 69.254229136659
  20
 59.131781099401
  30
0.0
  41
 3.0000000000000
  42
 3.0000000000000
  43
 3.0000000000000
  50
 180.00000000000
   0
INSERT
   5
117
 100
AcDbEntity
   8
LEVEL001
   6
CONTINUOUS
  62
2
 100
AcDbBlockReference
   2
_OPEN30
  10
 281.54637969211
  20
 59.131781099401
  30
0.0
  41
 3.0000000000000
  42
 3.0000000000000
  43
 3.0000000000000
  50
0.0
   0
MTEXT
   5
118
 100
AcDbEntity
   8
LEVEL001
  62
2
 100
AcDbMText
  10
 175.40030441438
  20
 60.846066813687
  30
0.0
  40
 4.0000000000000
  41
0.0
  71
8
  72
1
   1
\A1;クローゼット壁間距離=パイプ長+8
   7
GMM001
   0
ENDBLK
   5
119
 100
AcDbEntity
   8
0
 100
AcDbBlockEnd
   0
BLOCK
   5
11A
 100
AcDbEntity
   8
0
 100
AcDbBlockBegin
   2
*D7
  70
65
  10
0.0
  20
0.0
  30
0.0
   3
*D7
   0
LINE
   5
11B
 100
AcDbEntity
   8
LEVEL001
 100
AcDbLine
   6
CONTINUOUS
  62
2
  10
 55.601643201785
  20
 186.92602352044
  30
0.0
  11
 55.601643201785
  21
 168.06448155213
  31
0.0
   0
LINE
   5
11C
 100
AcDbEntity
   8
LEVEL001
 100
AcDbLine
   6
CONTINUOUS
  62
2
  10
 74.001643201785
  20
 186.92602352044
  30
0.0
  11
 74.001643201785
  21
 168.06448155213
  31
0.0
   0
LINE
   5
11D
 100
AcDbEntity
   8
LEVEL001
 100
AcDbLine
   6
CONTINUOUS
  62
2
  10
 55.601643201785
  20
 169.56448155213
  30
0.0
  11
 64.801643201785
  21
 169.56448155213
  31
0.0
   0
LINE
   5
11E
 100
AcDbEntity
   8
LEVEL001
 100
AcDbLine
   6
CONTINUOUS
  62
2
  10
 74.001643201785
  20
 169.56448155213
  30
0.0
  11
 64.801643201785
  21
 169.56448155213
  31
0.0
   0
INSERT
   5
11F
 100
AcDbEntity
   8
LEVEL001
   6
CONTINUOUS
  62
2
 100
AcDbBlockReference
   2
_OPEN30
  10
 55.601643201785
  20
 169.56448155213
  30
0.0
  41
 3.0000000000000
  42
 3.0000000000000
  43
 3.0000000000000
  50
 180.00000000000
   0
INSERT
   5
120
 100
AcDbEntity
   8
LEVEL001
   6
CONTINUOUS
  62
2
 100
AcDbBlockReference
   2
_OPEN30
  10
 74.001643201785
  20
 169.56448155213
  30
0.0
  41
 3.0000000000000
  42
 3.0000000000000
  43
 3.0000000000000
  50
0.0
   0
MTEXT
   5
121
 100
AcDbEntity
   8
LEVEL001
  62
2
 100
AcDbMText
  10
 64.801643201785
  20
 171.27876726641
  30
0.0
  40
 4.0000000000000
  41
0.0
  71
8
  72
1
   1
\A1;18.4
   7
GMM001
   0
ENDBLK
   5
122
 100
AcDbEntity
   8
0
 100
AcDbBlockEnd
   0
BLOCK
   5
123
 100
AcDbEntity
   8
0
 100
AcDbBlockBegin
   2
*D8
  70
65
  10
0.0
  20
0.0
  30
0.0
   3
*D8
   0
LINE
   5
124
 100
AcDbEntity
   8
LEVEL001
 100
AcDbLine
   6
CONTINUOUS
  62
2
  10
 67.203413113289
  20
 220.15257219301
  30
0.0
  11
 89.550251314695
  21
 220.15257219301
  31
0.0
   0
LINE
   5
125
 100
AcDbEntity
   8
LEVEL001
 100
AcDbLine
   6
CONTINUOUS
  62
2
  10
 67.203413113289
  20
 182.15257219301
  30
0.0
  11
 89.550251314695
  21
 182.15257219301
  31
0.0
   0
LINE
   5
126
 100
AcDbEntity
   8
LEVEL001
 100
AcDbLine
   6
CONTINUOUS
  62
2
  10
 88.050251314695
  20
 220.15257219301
  30
0.0
  11
 88.050251314695
  21
 201.15257219301
  31
0.0
   0
LINE
   5
127
 100
AcDbEntity
   8
LEVEL001
 100
AcDbLine
   6
CONTINUOUS
  62
2
  10
 88.050251314695
  20
 182.15257219301
  30
0.0
  11
 88.050251314695
  21
 201.15257219301
  31
0.0
   0
INSERT
   5
128
 100
AcDbEntity
   8
LEVEL001
   6
CONTINUOUS
  62
2
 100
AcDbBlockReference
   2
_OPEN30
  10
 88.050251314695
  20
 220.15257219301
  30
0.0
  41
 3.0000000000000
  42
 3.0000000000000
  43
 3.0000000000000
  50
 90.000000000000
   0
INSERT
   5
129
 100
AcDbEntity
   8
LEVEL001
   6
CONTINUOUS
  62
2
 100
AcDbBlockReference
   2
_OPEN30
  10
 88.050251314695
  20
 182.15257219301
  30
0.0
  41
 3.0000000000000
  42
 3.0000000000000
  43
 3.0000000000000
  50
 270.00000000000
   0
MTEXT
   5
12A
 100
AcDbEntity
   8
LEVEL001
  62
2
 100
AcDbMText
  10
 86.335965600409
  20
 201.15257219301
  30
0.0
  40
 4.0000000000000
  41
0.0
  71
8
  72
1
   1
\A1;38
   7
GMM001
  11
0.0
  21
 1.0000000000000
  31
0.0
   0
ENDBLK
   5
12B
 100
AcDbEntity
   8
0
 100
AcDbBlockEnd
   0
BLOCK
   5
12C
 100
AcDbEntity
   8
0
 100
AcDbBlockBegin
   2
*D9
  70
65
  10
0.0
  20
0.0
  30
0.0
   3
*D9
   0
LINE
   5
12D
 100
AcDbEntity
   8
LEVEL001
 100
AcDbLine
   6
CONTINUOUS
  62
2
  10
 64.801643201785
  20
 210.95257219301
  30
0.0
  11
 61.583217524062
  21
 214.23917167530
  31
0.0
   0
LINE
   5
12E
 100
AcDbEntity
   8
LEVEL001
 100
AcDbLine
   6
CONTINUOUS
  62
2
  10
 61.583217524062
  20
 214.23917167530
  30
0.0
  11
 46.533508807016
  21
 229.60766852156
  31
0.0
   0
INSERT
   5
12F
 100
AcDbEntity
   8
LEVEL001
   6
CONTINUOUS
  62
2
 100
AcDbBlockReference
   2
_OPEN30
  10
 58.364791846339
  20
 217.52577115759
  30
0.0
  41
 3.0000000000000
  42
 3.0000000000000
  43
 3.0000000000000
  50
 314.39955216442
   0
MTEXT
   5
130
 100
AcDbEntity
   8
LEVEL001
  62
2
 100
AcDbMText
  10
 57.553537074231
  20
 220.80438774108
  30
0.0
  40
 4.0000000000000
  41
0.0
  71
9
  72
1
   1
\A1;R9.2
   7
GMM001
  11
 0.69965775602674
  21
-0.71447814832339
  31
0.0
   0
ENDBLK
   5
131
 100
AcDbEntity
   8
0
 100
AcDbBlockEnd
   0
BLOCK
   5
132
 100
AcDbEntity
   8
0
 100
AcDbBlockBegin
   2
*D10
  70
65
  10
0.0
  20
0.0
  30
0.0
   3
*D10
   0
LINE
   5
133
 100
AcDbEntity
   8
LEVEL001
 100
AcDbLine
   6
CONTINUOUS
  62
2
  10
 57.101643201785
  20
 242.27936004271
  30
0.0
  11
 57.101643201785
  21
 231.03057353611
  31
0.0
   0
LINE
   5
134
 100
AcDbEntity
   8
LEVEL001
 100
AcDbLine
   6
CONTINUOUS
  62
2
  10
 72.501643201785
  20
 242.27936004271
  30
0.0
  11
 72.501643201785
  21
 231.03057353611
  31
0.0
   0
LINE
   5
135
 100
AcDbEntity
   8
LEVEL001
 100
AcDbLine
   6
CONTINUOUS
  62
2
  10
 57.101643201785
  20
 232.53057353611
  30
0.0
  11
 64.801643201785
  21
 232.53057353611
  31
0.0
   0
LINE
   5
136
 100
AcDbEntity
   8
LEVEL001
 100
AcDbLine
   6
CONTINUOUS
  62
2
  10
 72.501643201785
  20
 232.53057353611
  30
0.0
  11
 64.801643201785
  21
 232.53057353611
  31
0.0
   0
INSERT
   5
137
 100
AcDbEntity
   8
LEVEL001
   6
CONTINUOUS
  62
2
 100
AcDbBlockReference
   2
_OPEN30
  10
 57.101643201785
  20
 232.53057353611
  30
0.0
  41
 3.0000000000000
  42
 3.0000000000000
  43
 3.0000000000000
  50
 180.00000000000
   0
INSERT
   5
138
 100
AcDbEntity
   8
LEVEL001
   6
CONTINUOUS
  62
2
 100
AcDbBlockReference
   2
_OPEN30
  10
 72.501643201785
  20
 232.53057353611
  30
0.0
  41
 3.0000000000000
  42
 3.0000000000000
  43
 3.0000000000000
  50
0.0
   0
MTEXT
   5
139
 100
AcDbEntity
   8
LEVEL001
  62
2
 100
AcDbMText
  10
 64.801643201785
  20
 234.24485925039
  30
0.0
  40
 4.0000000000000
  41
0.0
  71
8
  72
1
   1
\A1;15.4
   7
GMM001
   0
ENDBLK
   5
13A
 100
AcDbEntity
   8
0
 100
AcDbBlockEnd
   0
BLOCK
   5
13B
 100
AcDbEntity
   8
0
 100
AcDbBlockBegin
   2
*D11
  70
65
  10
0.0
  20
0.0
  30
0.0
   3
*D11
   0
POLYLINE
   5
13C
 100
AcDbEntity
   8
LEVEL001
   6
CONTINUOUS
  62
2
 100
AcDb2dPolyline
  66
1
  10
0.0
  20
0.0
  30
0.0
  70
0
   0
VERTEX
   5
13D
 100
AcDbEntity
   8
LEVEL001
   6
CONTINUOUS
  62
2
 100
AcDbVertex
 100
AcDb2dVertex
  10
 64.801643201785
  20
 201.15257219301
  30
0.0
   0
VERTEX
   5
13E
 100
AcDbEntity
   8
LEVEL001
   6
CONTINUOUS
  62
2
 100
AcDbVertex
 100
AcDb2dVertex
  10
 78.694146553131
  20
 230.13641070008
  30
0.0
   0
VERTEX
   5
13F
 100
AcDbEntity
   8
LEVEL001
   6
CONTINUOUS
  62
2
 100
AcDbVertex
 100
AcDb2dVertex
  10
 116.69414655313
  20
 230.13641070008
  30
0.0
   0
SEQEND
   5
140
 100
AcDbEntity
   8
LEVEL001
   6
CONTINUOUS
  62
2
   0
INSERT
   5
141
 100
AcDbEntity
   8
LEVEL001
   6
CONTINUOUS
  62
2
 100
AcDbBlockReference
   2
_OPEN30
  10
 64.801643201785
  20
 201.15257219301
  30
0.0
  41
 3.0000000000000
  42
 3.0000000000000
  43
 3.0000000000000
  50
 244.39071641357
   0
MTEXT
   5
142
 100
AcDbEntity
   8
LEVEL001
  62
2
 100
AcDbMText
  10
 78.694146553131
  20
 231.85069641436
  30
0.0
  40
 4.0000000000000
  41
0.0
  71
7
  72
1
   1
\A1;%%c４.５穴 %%c７.８皿
   7
GMM001
   0
ENDBLK
   5
143
 100
AcDbEntity
   8
0
 100
AcDbBlockEnd
   0
BLOCK
   5
144
 100
AcDbEntity
   8
0
 100
AcDbBlockBegin
   2
*D12
  70
65
  10
0.0
  20
0.0
  30
0.0
   3
*D12
   0
LINE
   5
145
 100
AcDbEntity
   8
LEVEL001
 100
AcDbLine
   6
CONTINUOUS
  62
2
  10
 100.65581109893
  20
 188.35301558643
  30
0.0
  11
 100.65581109893
  21
 168.06448155213
  31
0.0
   0
LINE
   5
146
 100
AcDbEntity
   8
LEVEL001
 100
AcDbLine
   6
CONTINUOUS
  62
2
  10
 111.65581109893
  20
 181.15257219301
  30
0.0
  11
 111.65581109893
  21
 168.06448155213
  31
0.0
   0
LINE
   5
147
 100
AcDbEntity
   8
LEVEL001
 100
AcDbLine
   6
CONTINUOUS
  62
2
  10
 100.65581109893
  20
 169.56448155213
  30
0.0
  11
 106.15581109893
  21
 169.56448155213
  31
0.0
   0
LINE
   5
148
 100
AcDbEntity
   8
LEVEL001
 100
AcDbLine
   6
CONTINUOUS
  62
2
  10
 111.65581109893
  20
 169.56448155213
  30
0.0
  11
 106.15581109893
  21
 169.56448155213
  31
0.0
   0
INSERT
   5
149
 100
AcDbEntity
   8
LEVEL001
   6
CONTINUOUS
  62
2
 100
AcDbBlockReference
   2
_OPEN30
  10
 100.65581109893
  20
 169.56448155213
  30
0.0
  41
 3.0000000000000
  42
 3.0000000000000
  43
 3.0000000000000
  50
 180.00000000000
   0
INSERT
   5
14A
 100
AcDbEntity
   8
LEVEL001
   6
CONTINUOUS
  62
2
 100
AcDbBlockReference
   2
_OPEN30
  10
 111.65581109893
  20
 169.56448155213
  30
0.0
  41
 3.0000000000000
  42
 3.0000000000000
  43
 3.0000000000000
  50
0.0
   0
MTEXT
   5
14B
 100
AcDbEntity
   8
LEVEL001
  62
2
 100
AcDbMText
  10
 106.15581109893
  20
 171.27876726641
  30
0.0
  40
 4.0000000000000
  41
0.0
  71
8
  72
1
   1
\A1;11
   7
GMM001
   0
ENDBLK
   5
14C
 100
AcDbEntity
   8
0
 100
AcDbBlockEnd
   0
BLOCK
   5
14D
 100
AcDbEntity
   8
0
 100
AcDbBlockBegin
   2
*D13
  70
65
  10
0.0
  20
0.0
  30
0.0
   3
*D13
   0
LINE
   5
14E
 100
AcDbEntity
   8
LEVEL001
 100
AcDbLine
   6
CONTINUOUS
  62
2
  10
 114.65581109893
  20
 181.15257219301
  30
0.0
  11
 114.65581109893
  21
 168.06448155213
  31
0.0
   0
LINE
   5
14F
 100
AcDbEntity
   8
LEVEL001
 100
AcDbLine
   6
CONTINUOUS
  62
2
  10
 111.65581109893
  20
 181.15257219301
  30
0.0
  11
 111.65581109893
  21
 168.06448155213
  31
0.0
   0
LINE
   5
150
 100
AcDbEntity
   8
LEVEL001
 100
AcDbLine
   6
CONTINUOUS
  62
2
  10
 118.40581109893
  20
 169.56448155213
  30
0.0
  11
 113.15581109893
  21
 169.56448155213
  31
0.0
   0
LINE
   5
151
 100
AcDbEntity
   8
LEVEL001
 100
AcDbLine
   6
CONTINUOUS
  62
2
  10
 107.90581109893
  20
 169.56448155213
  30
0.0
  11
 113.15581109893
  21
 169.56448155213
  31
0.0
   0
INSERT
   5
152
 100
AcDbEntity
   8
LEVEL001
   6
CONTINUOUS
  62
2
 100
AcDbBlockReference
   2
_OPEN30
  10
 114.65581109893
  20
 169.56448155213
  30
0.0
  41
 3.0000000000000
  42
 3.0000000000000
  43
 3.0000000000000
  50
 180.00000000000
   0
INSERT
   5
153
 100
AcDbEntity
   8
LEVEL001
   6
CONTINUOUS
  62
2
 100
AcDbBlockReference
   2
_OPEN30
  10
 111.65581109893
  20
 169.56448155213
  30
0.0
  41
 3.0000000000000
  42
 3.0000000000000
  43
 3.0000000000000
  50
0.0
   0
MTEXT
   5
154
 100
AcDbEntity
   8
LEVEL001
  62
2
 100
AcDbMText
  10
 113.15581109893
  20
 171.27876726641
  30
0.0
  40
 4.0000000000000
  41
0.0
  71
8
  72
1
   1
\A1;3
   7
GMM001
   0
ENDBLK
   5
155
 100
AcDbEntity
   8
0
 100
AcDbBlockEnd
   0
BLOCK
   5
156
 100
AcDbEntity
   8
0
 100
AcDbBlockBegin
   2
*D14
  70
65
  10
0.0
  20
0.0
  30
0.0
   3
*D14
   0
LINE
   5
157
 100
AcDbEntity
   8
LEVEL001
 100
AcDbLine
   6
CONTINUOUS
  62
2
  10
 114.65581109893
  20
 167.06448155213
  30
0.0
  11
 114.65581109893
  21
 158.81894889354
  31
0.0
   0
LINE
   5
158
 100
AcDbEntity
   8
LEVEL001
 100
AcDbLine
   6
CONTINUOUS
  62
2
  10
 100.65581109893
  20
 167.06448155213
  30
0.0
  11
 100.65581109893
  21
 158.81894889354
  31
0.0
   0
LINE
   5
159
 100
AcDbEntity
   8
LEVEL001
 100
AcDbLine
   6
CONTINUOUS
  62
2
  10
 114.65581109893
  20
 160.31894889354
  30
0.0
  11
 107.65581109893
  21
 160.31894889354
  31
0.0
   0
LINE
   5
15A
 100
AcDbEntity
   8
LEVEL001
 100
AcDbLine
   6
CONTINUOUS
  62
2
  10
 100.65581109893
  20
 160.31894889354
  30
0.0
  11
 107.65581109893
  21
 160.31894889354
  31
0.0
   0
INSERT
   5
15B
 100
AcDbEntity
   8
LEVEL001
   6
CONTINUOUS
  62
2
 100
AcDbBlockReference
   2
_OPEN30
  10
 114.65581109893
  20
 160.31894889354
  30
0.0
  41
 3.0000000000000
  42
 3.0000000000000
  43
 3.0000000000000
  50
0.0
   0
INSERT
   5
15C
 100
AcDbEntity
   8
LEVEL001
   6
CONTINUOUS
  62
2
 100
AcDbBlockReference
   2
_OPEN30
  10
 100.65581109893
  20
 160.31894889354
  30
0.0
  41
 3.0000000000000
  42
 3.0000000000000
  43
 3.0000000000000
  50
 180.00000000000
   0
MTEXT
   5
15D
 100
AcDbEntity
   8
LEVEL001
  62
2
 100
AcDbMText
  10
 107.65581109893
  20
 162.03323460783
  30
0.0
  40
 4.0000000000000
  41
0.0
  71
8
  72
1
   1
\A1;14
   7
GMM001
   0
ENDBLK
   5
15E
 100
AcDbEntity
   8
0
 100
AcDbBlockEnd
   0
BLOCK
   5
15F
 100
AcDbEntity
   8
0
 100
AcDbBlockBegin
   2
*D15
  70
65
  10
0.0
  20
0.0
  30
0.0
   3
*D15
   0
LINE
   5
160
 100
AcDbEntity
   8
LEVEL001
 100
AcDbLine
   6
CONTINUOUS
  62
2
  10
 122.15581109893
  20
 182.65257219301
  30
0.0
  11
 122.15581109893
  21
 158.81894889354
  31
0.0
   0
LINE
   5
161
 100
AcDbEntity
   8
LEVEL001
 100
AcDbLine
   6
CONTINUOUS
  62
2
  10
 110.90581109893
  20
 160.31894889354
  30
0.0
  11
 118.40581109893
  21
 160.31894889354
  31
0.0
   0
LINE
   5
162
 100
AcDbEntity
   8
LEVEL001
 100
AcDbLine
   6
CONTINUOUS
  62
2
  10
 133.78929192489
  20
 160.31894889354
  30
0.0
  11
 118.40581109893
  21
 160.31894889354
  31
0.0
   0
INSERT
   5
163
 100
AcDbEntity
   8
LEVEL001
   6
CONTINUOUS
  62
2
 100
AcDbBlockReference
   2
_OPEN30
  10
 114.65581109893
  20
 160.31894889354
  30
0.0
  41
 3.0000000000000
  42
 3.0000000000000
  43
 3.0000000000000
  50
0.0
   0
INSERT
   5
164
 100
AcDbEntity
   8
LEVEL001
   6
CONTINUOUS
  62
2
 100
AcDbBlockReference
   2
_OPEN30
  10
 122.15581109893
  20
 160.31894889354
  30
0.0
  41
 3.0000000000000
  42
 3.0000000000000
  43
 3.0000000000000
  50
 180.00000000000
   0
MTEXT
   5
165
 100
AcDbEntity
   8
LEVEL001
  62
2
 100
AcDbMText
  10
 128.78929192489
  20
 162.03323460783
  30
0.0
  40
 4.0000000000000
  41
0.0
  71
8
  72
1
   1
\A1;7.5
   7
GMM001
   0
ENDBLK
   5
166
 100
AcDbEntity
   8
0
 100
AcDbBlockEnd
   0
BLOCK
   5
167
 100
AcDbEntity
   8
0
 100
AcDbBlockBegin
   2
*D16
  70
65
  10
0.0
  20
0.0
  30
0.0
   3
*D16
   0
LINE
   5
168
 100
AcDbEntity
   8
LEVEL001
 100
AcDbLine
   6
CONTINUOUS
  62
2
  10
 126.16840945500
  20
 216.15257219301
  30
0.0
  11
 141.91972221227
  21
 216.15257219301
  31
0.0
   0
LINE
   5
169
 100
AcDbEntity
   8
LEVEL001
 100
AcDbLine
   6
CONTINUOUS
  62
2
  10
 126.16840945500
  20
 186.15257219301
  30
0.0
  11
 141.91972221227
  21
 186.15257219301
  31
0.0
   0
LINE
   5
16A
 100
AcDbEntity
   8
LEVEL001
 100
AcDbLine
   6
CONTINUOUS
  62
2
  10
 140.41972221227
  20
 216.15257219301
  30
0.0
  11
 140.41972221227
  21
 201.15257219301
  31
0.0
   0
LINE
   5
16B
 100
AcDbEntity
   8
LEVEL001
 100
AcDbLine
   6
CONTINUOUS
  62
2
  10
 140.41972221227
  20
 186.15257219301
  30
0.0
  11
 140.41972221227
  21
 201.15257219301
  31
0.0
   0
INSERT
   5
16C
 100
AcDbEntity
   8
LEVEL001
   6
CONTINUOUS
  62
2
 100
AcDbBlockReference
   2
_OPEN30
  10
 140.41972221227
  20
 216.15257219301
  30
0.0
  41
 3.0000000000000
  42
 3.0000000000000
  43
 3.0000000000000
  50
 90.000000000000
   0
INSERT
   5
16D
 100
AcDbEntity
   8
LEVEL001
   6
CONTINUOUS
  62
2
 100
AcDbBlockReference
   2
_OPEN30
  10
 140.41972221227
  20
 186.15257219301
  30
0.0
  41
 3.0000000000000
  42
 3.0000000000000
  43
 3.0000000000000
  50
 270.00000000000
   0
MTEXT
   5
16E
 100
AcDbEntity
   8
LEVEL001
  62
2
 100
AcDbMText
  10
 138.70543649798
  20
 201.15257219301
  30
0.0
  40
 4.0000000000000
  41
0.0
  71
8
  72
1
   1
\A1;30
   7
GMM001
  11
0.0
  21
 1.0000000000000
  31
0.0
   0
ENDBLK
   5
16F
 100
AcDbEntity
   8
0
 100
AcDbBlockEnd
   0
BLOCK
   5
170
 100
AcDbEntity
   8
0
 100
AcDbBlockBegin
   2
*D17
  70
65
  10
0.0
  20
0.0
  30
0.0
   3
*D17
   0
LINE
   5
171
 100
AcDbEntity
   8
LEVEL001
 100
AcDbLine
   6
CONTINUOUS
  62
2
  10
 123.15581109893
  20
 218.65257219301
  30
0.0
  11
 134.13211159280
  21
 218.65257219301
  31
0.0
   0
LINE
   5
172
 100
AcDbEntity
   8
LEVEL001
 100
AcDbLine
   6
CONTINUOUS
  62
2
  10
 123.15581109893
  20
 213.65257219301
  30
0.0
  11
 134.13211159280
  21
 213.65257219301
  31
0.0
   0
LINE
   5
173
 100
AcDbEntity
   8
LEVEL001
 100
AcDbLine
   6
CONTINUOUS
  62
2
  10
 132.63211159280
  20
 229.29003531985
  30
0.0
  11
 132.63211159280
  21
 216.15257219301
  31
0.0
   0
LINE
   5
174
 100
AcDbEntity
   8
LEVEL001
 100
AcDbLine
   6
CONTINUOUS
  62
2
  10
 132.63211159280
  20
 209.90257219301
  30
0.0
  11
 132.63211159280
  21
 216.15257219301
  31
0.0
   0
INSERT
   5
175
 100
AcDbEntity
   8
LEVEL001
   6
CONTINUOUS
  62
2
 100
AcDbBlockReference
   2
_OPEN30
  10
 132.63211159280
  20
 218.65257219301
  30
0.0
  41
 3.0000000000000
  42
 3.0000000000000
  43
 3.0000000000000
  50
 270.00000000000
   0
INSERT
   5
176
 100
AcDbEntity
   8
LEVEL001
   6
CONTINUOUS
  62
2
 100
AcDbBlockReference
   2
_OPEN30
  10
 132.63211159280
  20
 213.65257219301
  30
0.0
  41
 3.0000000000000
  42
 3.0000000000000
  43
 3.0000000000000
  50
 90.000000000000
   0
MTEXT
   5
177
 100
AcDbEntity
   8
LEVEL001
  62
2
 100
AcDbMText
  10
 130.91782587852
  20
 225.29003531985
  30
0.0
  40
 4.0000000000000
  41
0.0
  71
8
  72
1
   1
\A1;%%c5
   7
GMM001
  11
0.0
  21
 1.0000000000000
  31
0.0
   0
ENDBLK
   5
178
 100
AcDbEntity
   8
0
 100
AcDbBlockEnd
   0
BLOCK
   5
179
 100
AcDbEntity
   8
0
 100
AcDbBlockBegin
   2
*D18
  70
65
  10
0.0
  20
0.0
  30
0.0
   3
*D18
   0
LINE
   5
17A
 100
AcDbEntity
   8
LEVEL001
 100
AcDbLine
   6
CONTINUOUS
  62
2
  10
 233.67467911056
  20
 191.11894387443
  30
0.0
  11
 233.67467911056
  21
 173.11611470336
  31
0.0
   0
LINE
   5
17B
 100
AcDbEntity
   8
LEVEL001
 100
AcDbLine
   6
CONTINUOUS
  62
2
  10
 248.67467911056
  20
 191.11894387443
  30
0.0
  11
 248.67467911056
  21
 173.11611470336
  31
0.0
   0
LINE
   5
17C
 100
AcDbEntity
   8
LEVEL001
 100
AcDbLine
   6
CONTINUOUS
  62
2
  10
 233.67467911056
  20
 174.61611470336
  30
0.0
  11
 241.17467911056
  21
 174.61611470336
  31
0.0
   0
LINE
   5
17D
 100
AcDbEntity
   8
LEVEL001
 100
AcDbLine
   6
CONTINUOUS
  62
2
  10
 248.67467911056
  20
 174.61611470336
  30
0.0
  11
 241.17467911056
  21
 174.61611470336
  31
0.0
   0
INSERT
   5
17E
 100
AcDbEntity
   8
LEVEL001
   6
CONTINUOUS
  62
2
 100
AcDbBlockReference
   2
_OPEN30
  10
 233.67467911056
  20
 174.61611470336
  30
0.0
  41
 3.0000000000000
  42
 3.0000000000000
  43
 3.0000000000000
  50
 180.00000000000
   0
INSERT
   5
17F
 100
AcDbEntity
   8
LEVEL001
   6
CONTINUOUS
  62
2
 100
AcDbBlockReference
   2
_OPEN30
  10
 248.67467911056
  20
 174.61611470336
  30
0.0
  41
 3.0000000000000
  42
 3.0000000000000
  43
 3.0000000000000
  50
0.0
   0
MTEXT
   5
180
 100
AcDbEntity
   8
LEVEL001
  62
2
 100
AcDbMText
  10
 241.17467911056
  20
 176.33040041765
  30
0.0
  40
 4.0000000000000
  41
0.0
  71
8
  72
1
   1
\A1;15
   7
GMM001
   0
ENDBLK
   5
181
 100
AcDbEntity
   8
0
 100
AcDbBlockEnd
   0
BLOCK
   5
182
 100
AcDbEntity
   8
0
 100
AcDbBlockBegin
   2
*D19
  70
65
  10
0.0
  20
0.0
  30
0.0
   3
*D19
   0
LINE
   5
183
 100
AcDbEntity
   8
LEVEL001
 100
AcDbLine
   6
CONTINUOUS
  62
2
  10
 242.65924154910
  20
 186.15257219301
  30
0.0
  11
 265.03324507219
  21
 186.15257219301
  31
0.0
   0
LINE
   5
184
 100
AcDbEntity
   8
LEVEL001
 100
AcDbLine
   6
CONTINUOUS
  62
2
  10
 242.65924154910
  20
 216.15257219301
  30
0.0
  11
 265.03324507219
  21
 216.15257219301
  31
0.0
   0
LINE
   5
185
 100
AcDbEntity
   8
LEVEL001
 100
AcDbLine
   6
CONTINUOUS
  62
2
  10
 263.53324507219
  20
 186.15257219301
  30
0.0
  11
 263.53324507219
  21
 201.15257219301
  31
0.0
   0
LINE
   5
186
 100
AcDbEntity
   8
LEVEL001
 100
AcDbLine
   6
CONTINUOUS
  62
2
  10
 263.53324507219
  20
 216.15257219301
  30
0.0
  11
 263.53324507219
  21
 201.15257219301
  31
0.0
   0
INSERT
   5
187
 100
AcDbEntity
   8
LEVEL001
   6
CONTINUOUS
  62
2
 100
AcDbBlockReference
   2
_OPEN30
  10
 263.53324507219
  20
 186.15257219301
  30
0.0
  41
 3.0000000000000
  42
 3.0000000000000
  43
 3.0000000000000
  50
 270.00000000000
   0
INSERT
   5
188
 100
AcDbEntity
   8
LEVEL001
   6
CONTINUOUS
  62
2
 100
AcDbBlockReference
   2
_OPEN30
  10
 263.53324507219
  20
 216.15257219301
  30
0.0
  41
 3.0000000000000
  42
 3.0000000000000
  43
 3.0000000000000
  50
 90.000000000000
   0
MTEXT
   5
189
 100
AcDbEntity
   8
LEVEL001
  62
2
 100
AcDbMText
  10
 261.81895935790
  20
 201.15257219301
  30
0.0
  40
 4.0000000000000
  41
0.0
  71
8
  72
1
   1
\A1;30
   7
GMM001
  11
0.0
  21
 1.0000000000000
  31
0.0
   0
ENDBLK
   5
18A
 100
AcDbEntity
   8
0
 100
AcDbBlockEnd
   0
ENDSEC
   0
SECTION
   2
ENTITIES
   0
LINE
   5
18B
 100
AcDbEntity
   8
LEVEL001
 100
AcDbLine
   6
CONTINUOUS
  62
7
  10
 267.54637969211
  20
 91.358084794961
  30
0.0
  11
 267.54637969211
  21
 101.15808479496
  31
0.0
   0
LINE
   5
18C
 100
AcDbEntity
   8
LEVEL001
 100
AcDbLine
   6
CONTINUOUS
  62
7
  10
 281.54637969211
  20
 110.35808479496
  30
0.0
  11
 278.94637969211
  21
 110.35808479496
  31
0.0
   0
ARC
   5
18D
 100
AcDbEntity
   8
LEVEL001
   6
CONTINUOUS
  62
7
 100
AcDbCircle
  10
 278.94637969211
  20
 109.95808479496
  30
0.0
  40
 0.40000000000000
 100
AcDbArc
  50
 90.000000000000
  51
 179.99999999969
   0
POINT
   5
18E
 100
AcDbEntity
   8
LEVEL001
 100
AcDbPoint
  62
7
  10
 278.54637969211
  20
 110.35808479496
  30
0.0
   0
LINE
   5
18F
 100
AcDbEntity
   8
LEVEL001
 100
AcDbLine
   6
CONTINUOUS
  62
7
  10
 278.54637969211
  20
 104.56490542056
  30
0.0
  11
 278.54637969211
  21
 109.95808479496
  31
0.0
   0
ARC
   5
190
 100
AcDbEntity
   8
LEVEL001
   6
CONTINUOUS
  62
7
 100
AcDbCircle
  10
 278.94637969211
  20
 72.758084794961
  30
0.0
  40
 0.40000000000000
 100
AcDbArc
  50
 180.00000000000
  51
 270.00000000016
   0
POINT
   5
191
 100
AcDbEntity
   8
LEVEL001
 100
AcDbPoint
  62
7
  10
 278.54637969211
  20
 72.358084794961
  30
0.0
   0
LINE
   5
192
 100
AcDbEntity
   8
LEVEL001
 100
AcDbLine
   6
CONTINUOUS
  62
7
  10
 281.54637969211
  20
 72.358084794961
  30
0.0
  11
 278.94637969211
  21
 72.358084794961
  31
0.0
   0
LINE
   5
193
 100
AcDbEntity
   8
LEVEL001
 100
AcDbLine
   6
CONTINUOUS
  62
7
  10
 278.54637969211
  20
 104.56490542056
  30
0.0
  11
 269.54637969211
  21
 104.56490542056
  31
0.0
   0
ARC
   5
194
 100
AcDbEntity
   8
LEVEL001
   6
CONTINUOUS
  62
7
 100
AcDbCircle
  10
 269.54637969211
  20
 102.56490542056
  30
0.0
  40
 2.0000000000000
 100
AcDbArc
  50
 90.000000000000
  51
 180.00000000000
   0
POINT
   5
195
 100
AcDbEntity
   8
LEVEL001
 100
AcDbPoint
  62
7
  10
 267.54637969211
  20
 104.56490542056
  30
0.0
   0
LINE
   5
196
 100
AcDbEntity
   8
LEVEL001
 100
AcDbLine
   6
CONTINUOUS
  62
7
  10
 267.54637969211
  20
 101.15808479496
  30
0.0
  11
 267.54637969211
  21
 102.56490542056
  31
0.0
   0
ARC
   5
197
 100
AcDbEntity
   8
LEVEL001
   6
CONTINUOUS
  62
7
 100
AcDbCircle
  10
 275.54637969211
  20
 75.858084794961
  30
0.0
  40
 3.0000000000000
 100
AcDbArc
  50
0.0
  51
 90.000000000000
   0
LINE
   5
198
 100
AcDbEntity
   8
LEVEL001
 100
AcDbLine
   6
CONTINUOUS
  62
7
  10
 289.04637969211
  20
 106.35808479496
  30
0.0
  11
 289.04637969211
  21
 108.35808479496
  31
0.0
   0
ARC
   5
199
 100
AcDbEntity
   8
LEVEL001
   6
CONTINUOUS
  62
7
 100
AcDbCircle
  10
 288.54637969211
  20
 108.35808479496
  30
0.0
  40
 0.50000000000000
 100
AcDbArc
  50
0.0
  51
 89.999999999987
   0
POINT
   5
19A
 100
AcDbEntity
   8
LEVEL001
 100
AcDbPoint
  62
7
  10
 289.04637969211
  20
 108.85808479496
  30
0.0
   0
LINE
   5
19B
 100
AcDbEntity
   8
LEVEL001
 100
AcDbLine
   6
CONTINUOUS
  62
7
  10
 288.54637969211
  20
 108.85808479496
  30
0.0
  11
 281.54637969211
  21
 108.85808479496
  31
0.0
   0
LINE
   5
19C
 100
AcDbEntity
   8
LEVEL001
 100
AcDbLine
   6
CONTINUOUS
  62
7
  10
 289.04637969211
  20
 104.35808479496
  30
0.0
  11
 289.04637969211
  21
 106.35808479496
  31
0.0
   0
ARC
   5
19D
 100
AcDbEntity
   8
LEVEL001
   6
CONTINUOUS
  62
7
 100
AcDbCircle
  10
 288.54637969211
  20
 104.35808479496
  30
0.0
  40
 0.50000000000000
 100
AcDbArc
  50
 269.99999999993
  51
0.0
   0
POINT
   5
19E
 100
AcDbEntity
   8
LEVEL001
 100
AcDbPoint
  62
7
  10
 289.04637969211
  20
 103.85808479496
  30
0.0
   0
LINE
   5
19F
 100
AcDbEntity
   8
LEVEL001
 100
AcDbLine
   6
CONTINUOUS
  62
7
  10
 288.54637969211
  20
 103.85808479496
  30
0.0
  11
 281.54637969211
  21
 103.85808479496
  31
0.0
   0
LINE
   5
1A0
 100
AcDbEntity
   8
LEVEL001
 100
AcDbLine
   6
CONTINUOUS
  62
7
  10
 289.04637969211
  20
 76.358084794961
  30
0.0
  11
 289.04637969211
  21
 74.358084794961
  31
0.0
   0
ARC
   5
1A1
 100
AcDbEntity
   8
LEVEL001
   6
CONTINUOUS
  62
7
 100
AcDbCircle
  10
 288.54637969211
  20
 74.358084794961
  30
0.0
  40
 0.50000000000000
 100
AcDbArc
  50
 269.99999999993
  51
0.0
   0
POINT
   5
1A2
 100
AcDbEntity
   8
LEVEL001
 100
AcDbPoint
  62
7
  10
 289.04637969211
  20
 73.858084794961
  30
0.0
   0
LINE
   5
1A3
 100
AcDbEntity
   8
LEVEL001
 100
AcDbLine
   6
CONTINUOUS
  62
7
  10
 288.54637969211
  20
 73.858084794961
  30
0.0
  11
 281.54637969211
  21
 73.858084794961
  31
0.0
   0
LINE
   5
1A4
 100
AcDbEntity
   8
LEVEL001
 100
AcDbLine
   6
CONTINUOUS
  62
7
  10
 289.04637969211
  20
 78.358084794961
  30
0.0
  11
 289.04637969211
  21
 76.358084794961
  31
0.0
   0
ARC
   5
1A5
 100
AcDbEntity
   8
LEVEL001
   6
CONTINUOUS
  62
7
 100
AcDbCircle
  10
 288.54637969211
  20
 78.358084794961
  30
0.0
  40
 0.50000000000000
 100
AcDbArc
  50
0.0
  51
 90.000000000091
   0
POINT
   5
1A6
 100
AcDbEntity
   8
LEVEL001
 100
AcDbPoint
  62
7
  10
 289.04637969211
  20
 78.858084794961
  30
0.0
   0
LINE
   5
1A7
 100
AcDbEntity
   8
LEVEL001
 100
AcDbLine
   6
CONTINUOUS
  62
7
  10
 288.54637969211
  20
 78.858084794961
  30
0.0
  11
 281.54637969211
  21
 78.858084794961
  31
0.0
   0
LINE
   5
1A8
 100
AcDbEntity
   8
LEVEL001
 100
AcDbLine
   6
CONTINUOUS
  62
7
  10
 275.54637969211
  20
 78.858084794961
  30
0.0
  11
 271.54637969211
  21
 78.858084794961
  31
0.0
   0
LINE
   5
1A9
 100
AcDbEntity
   8
LEVEL001
 100
AcDbLine
   6
CONTINUOUS
  62
7
  10
 271.54637969211
  20
 78.858084794961
  30
0.0
  11
 270.19967952439
  21
 78.858084794961
  31
0.0
   0
ARC
   5
1AA
 100
AcDbEntity
   8
LEVEL001
   6
CONTINUOUS
  62
7
 100
AcDbCircle
  10
 270.19967952439
  20
 87.858084794960
  30
0.0
  40
 9.0000000000000
 100
AcDbArc
  50
 254.81054258749
  51
 270.00000000000
   0
ARC
   5
1AB
 100
AcDbEntity
   8
LEVEL001
   6
CONTINUOUS
  62
7
 100
AcDbCircle
  10
 267.94637969211
  20
 79.558528188382
  30
0.0
  40
 0.40000000000000
 100
AcDbArc
  50
 180.00000000016
  51
 254.81054258754
   0
LINE
   5
1AC
 100
AcDbEntity
   8
LEVEL001
 100
AcDbLine
   6
DASHDOT
  62
3
  10
 292.05897804817
  20
 76.358084794961
  30
0.0
  11
 279.61023378859
  21
 76.358084794961
  31
0.0
   0
LINE
   5
1AD
 100
AcDbEntity
   8
LEVEL001
 100
AcDbLine
   6
DASHDOT
  62
3
  10
 292.05897804817
  20
 106.35808479496
  30
0.0
  11
 279.61023378859
  21
 106.35808479496
  31
0.0
   0
LINE
   5
1AE
 100
AcDbEntity
   8
LEVEL001
 100
AcDbLine
   6
CONTINUOUS
  62
15
  10
 278.54637969211
  20
 87.492644030552
  30
0.0
  11
 275.54637969211
  21
 78.858084794961
  31
0.0
   0
LINE
   5
1AF
 100
AcDbEntity
   8
LEVEL001
 100
AcDbLine
   6
CONTINUOUS
  62
7
  10
 267.54637969211
  20
 79.558528188381
  30
0.0
  11
 267.54637969211
  21
 91.358084794961
  31
0.0
   0
LINE
   5
1B0
 100
AcDbEntity
   8
LEVEL001
 100
AcDbLine
   6
CONTINUOUS
  62
15
  10
 278.54637969211
  20
 87.492644030552
  30
0.0
  11
 267.54637969211
  21
 87.492644030552
  31
0.0
   0
LINE
   5
1B1
 100
AcDbEntity
   8
LEVEL001
 100
AcDbLine
   6
CONTINUOUS
  62
7
  10
 278.54637969211
  20
 72.758084794961
  30
0.0
  11
 278.54637969211
  21
 76.012590138257
  31
0.0
   0
LINE
   5
1B2
 100
AcDbEntity
   8
LEVEL001
 100
AcDbLine
   6
CONTINUOUS
  62
15
  10
 278.54637969211
  20
 76.012590138257
  30
0.0
  11
 278.54637969211
  21
 87.492644030552
  31
0.0
   0
LINE
   5
1B3
 100
AcDbEntity
   8
LEVEL001
 100
AcDbLine
   6
CONTINUOUS
  62
7
  10
 83.254229136659
  20
 91.358084794961
  30
0.0
  11
 83.254229136659
  21
 101.15808479496
  31
0.0
   0
LINE
   5
1B4
 100
AcDbEntity
   8
LEVEL001
 100
AcDbLine
   6
CONTINUOUS
  62
7
  10
 69.254229136659
  20
 110.35808479496
  30
0.0
  11
 71.854229136659
  21
 110.35808479496
  31
0.0
   0
ARC
   5
1B5
 100
AcDbEntity
   8
LEVEL001
   6
CONTINUOUS
  62
7
 100
AcDbCircle
  10
 71.854229136659
  20
 109.95808479496
  30
0.0
  40
 0.40000000000000
 100
AcDbArc
  50
 0.30533324942049E-9
  51
 90.000000000000
   0
POINT
   5
1B6
 100
AcDbEntity
   8
LEVEL001
 100
AcDbPoint
  62
7
  10
 72.254229136659
  20
 110.35808479496
  30
0.0
   0
LINE
   5
1B7
 100
AcDbEntity
   8
LEVEL001
 100
AcDbLine
   6
CONTINUOUS
  62
7
  10
 72.254229136659
  20
 104.56490542056
  30
0.0
  11
 72.254229136659
  21
 109.95808479496
  31
0.0
   0
ARC
   5
1B8
 100
AcDbEntity
   8
LEVEL001
   6
CONTINUOUS
  62
7
 100
AcDbCircle
  10
 71.854229136660
  20
 72.758084794961
  30
0.0
  40
 0.40000000000000
 100
AcDbArc
  50
 269.99999999984
  51
0.0
   0
POINT
   5
1B9
 100
AcDbEntity
   8
LEVEL001
 100
AcDbPoint
  62
7
  10
 72.254229136659
  20
 72.358084794961
  30
0.0
   0
LINE
   5
1BA
 100
AcDbEntity
   8
LEVEL001
 100
AcDbLine
   6
CONTINUOUS
  62
7
  10
 69.254229136659
  20
 72.358084794961
  30
0.0
  11
 71.854229136659
  21
 72.358084794961
  31
0.0
   0
LINE
   5
1BB
 100
AcDbEntity
   8
LEVEL001
 100
AcDbLine
   6
CONTINUOUS
  62
7
  10
 72.254229136659
  20
 104.56490542056
  30
0.0
  11
 81.254229136659
  21
 104.56490542056
  31
0.0
   0
ARC
   5
1BC
 100
AcDbEntity
   8
LEVEL001
   6
CONTINUOUS
  62
7
 100
AcDbCircle
  10
 81.254229136659
  20
 102.56490542056
  30
0.0
  40
 2.0000000000000
 100
AcDbArc
  50
0.0
  51
 90.000000000000
   0
POINT
   5
1BD
 100
AcDbEntity
   8
LEVEL001
 100
AcDbPoint
  62
7
  10
 83.254229136659
  20
 104.56490542056
  30
0.0
   0
LINE
   5
1BE
 100
AcDbEntity
   8
LEVEL001
 100
AcDbLine
   6
CONTINUOUS
  62
7
  10
 83.254229136659
  20
 101.15808479496
  30
0.0
  11
 83.254229136659
  21
 102.56490542056
  31
0.0
   0
ARC
   5
1BF
 100
AcDbEntity
   8
LEVEL001
   6
CONTINUOUS
  62
7
 100
AcDbCircle
  10
 75.254229136659
  20
 75.858084794961
  30
0.0
  40
 3.0000000000000
 100
AcDbArc
  50
 90.000000000000
  51
 180.00000000000
   0
LINE
   5
1C0
 100
AcDbEntity
   8
LEVEL001
 100
AcDbLine
   6
CONTINUOUS
  62
7
  10
 61.754229136659
  20
 106.35808479496
  30
0.0
  11
 61.754229136659
  21
 108.35808479496
  31
0.0
   0
ARC
   5
1C1
 100
AcDbEntity
   8
LEVEL001
   6
CONTINUOUS
  62
7
 100
AcDbCircle
  10
 62.254229136659
  20
 108.35808479496
  30
0.0
  40
 0.50000000000000
 100
AcDbArc
  50
 90.000000000010
  51
 180.00000000000
   0
POINT
   5
1C2
 100
AcDbEntity
   8
LEVEL001
 100
AcDbPoint
  62
7
  10
 61.754229136659
  20
 108.85808479496
  30
0.0
   0
LINE
   5
1C3
 100
AcDbEntity
   8
LEVEL001
 100
AcDbLine
   6
CONTINUOUS
  62
7
  10
 62.254229136659
  20
 108.85808479496
  30
0.0
  11
 69.254229136659
  21
 108.85808479496
  31
0.0
   0
LINE
   5
1C4
 100
AcDbEntity
   8
LEVEL001
 100
AcDbLine
   6
CONTINUOUS
  62
7
  10
 61.754229136659
  20
 104.35808479496
  30
0.0
  11
 61.754229136659
  21
 106.35808479496
  31
0.0
   0
ARC
   5
1C5
 100
AcDbEntity
   8
LEVEL001
   6
CONTINUOUS
  62
7
 100
AcDbCircle
  10
 62.254229136659
  20
 104.35808479496
  30
0.0
  40
 0.50000000000000
 100
AcDbArc
  50
 180.00000000000
  51
 270.00000000007
   0
POINT
   5
1C6
 100
AcDbEntity
   8
LEVEL001
 100
AcDbPoint
  62
7
  10
 61.754229136659
  20
 103.85808479496
  30
0.0
   0
LINE
   5
1C7
 100
AcDbEntity
   8
LEVEL001
 100
AcDbLine
   6
CONTINUOUS
  62
7
  10
 62.254229136659
  20
 103.85808479496
  30
0.0
  11
 69.254229136659
  21
 103.85808479496
  31
0.0
   0
LINE
   5
1C8
 100
AcDbEntity
   8
LEVEL001
 100
AcDbLine
   6
CONTINUOUS
  62
7
  10
 61.754229136659
  20
 76.358084794961
  30
0.0
  11
 61.754229136659
  21
 74.358084794961
  31
0.0
   0
ARC
   5
1C9
 100
AcDbEntity
   8
LEVEL001
   6
CONTINUOUS
  62
7
 100
AcDbCircle
  10
 62.254229136659
  20
 74.358084794961
  30
0.0
  40
 0.50000000000000
 100
AcDbArc
  50
 180.00000000000
  51
 270.00000000007
   0
POINT
   5
1CA
 100
AcDbEntity
   8
LEVEL001
 100
AcDbPoint
  62
7
  10
 61.754229136659
  20
 73.858084794961
  30
0.0
   0
LINE
   5
1CB
 100
AcDbEntity
   8
LEVEL001
 100
AcDbLine
   6
CONTINUOUS
  62
7
  10
 62.254229136659
  20
 73.858084794961
  30
0.0
  11
 69.254229136659
  21
 73.858084794961
  31
0.0
   0
LINE
   5
1CC
 100
AcDbEntity
   8
LEVEL001
 100
AcDbLine
   6
CONTINUOUS
  62
7
  10
 61.754229136659
  20
 78.358084794961
  30
0.0
  11
 61.754229136659
  21
 76.358084794961
  31
0.0
   0
ARC
   5
1CD
 100
AcDbEntity
   8
LEVEL001
   6
CONTINUOUS
  62
7
 100
AcDbCircle
  10
 62.254229136658
  20
 78.358084794961
  30
0.0
  40
 0.50000000000000
 100
AcDbArc
  50
 89.999999999902
  51
 180.00000000000
   0
POINT
   5
1CE
 100
AcDbEntity
   8
LEVEL001
 100
AcDbPoint
  62
7
  10
 61.754229136659
  20
 78.858084794961
  30
0.0
   0
LINE
   5
1CF
 100
AcDbEntity
   8
LEVEL001
 100
AcDbLine
   6
CONTINUOUS
  62
7
  10
 62.254229136659
  20
 78.858084794961
  30
0.0
  11
 69.254229136659
  21
 78.858084794961
  31
0.0
   0
LINE
   5
1D0
 100
AcDbEntity
   8
LEVEL001
 100
AcDbLine
   6
CONTINUOUS
  62
7
  10
 75.254229136659
  20
 78.858084794961
  30
0.0
  11
 79.254229136659
  21
 78.858084794961
  31
0.0
   0
LINE
   5
1D1
 100
AcDbEntity
   8
LEVEL001
 100
AcDbLine
   6
CONTINUOUS
  62
7
  10
 79.254229136659
  20
 78.858084794961
  30
0.0
  11
 80.600929304375
  21
 78.858084794961
  31
0.0
   0
ARC
   5
1D2
 100
AcDbEntity
   8
LEVEL001
   6
CONTINUOUS
  62
7
 100
AcDbCircle
  10
 80.600929304375
  20
 87.858084794960
  30
0.0
  40
 9.0000000000000
 100
AcDbArc
  50
 270.00000000000
  51
 285.18945741251
   0
ARC
   5
1D3
 100
AcDbEntity
   8
LEVEL001
   6
CONTINUOUS
  62
7
 100
AcDbCircle
  10
 82.854229136659
  20
 79.558528188382
  30
0.0
  40
 0.40000000000000
 100
AcDbArc
  50
 285.18945741247
  51
0.0
   0
LINE
   5
1D4
 100
AcDbEntity
   8
LEVEL001
 100
AcDbLine
   6
DASHDOT
  62
3
  10
 58.741630780598
  20
 76.358084794961
  30
0.0
  11
 71.190375040173
  21
 76.358084794961
  31
0.0
   0
LINE
   5
1D5
 100
AcDbEntity
   8
LEVEL001
 100
AcDbLine
   6
DASHDOT
  62
3
  10
 58.741630780598
  20
 106.35808479496
  30
0.0
  11
 71.190375040173
  21
 106.35808479496
  31
0.0
   0
LINE
   5
1D6
 100
AcDbEntity
   8
LEVEL001
 100
AcDbLine
   6
CONTINUOUS
  62
15
  10
 72.254229136659
  20
 87.492644030552
  30
0.0
  11
 75.254229136659
  21
 78.858084794961
  31
0.0
   0
LINE
   5
1D7
 100
AcDbEntity
   8
LEVEL001
 100
AcDbLine
   6
CONTINUOUS
  62
7
  10
 83.254229136659
  20
 79.558528188381
  30
0.0
  11
 83.254229136659
  21
 91.358084794961
  31
0.0
   0
LINE
   5
1D8
 100
AcDbEntity
   8
LEVEL001
 100
AcDbLine
   6
CONTINUOUS
  62
15
  10
 72.254229136659
  20
 87.492644030552
  30
0.0
  11
 83.254229136659
  21
 87.492644030552
  31
0.0
   0
LINE
   5
1D9
 100
AcDbEntity
   8
LEVEL001
 100
AcDbLine
   6
CONTINUOUS
  62
7
  10
 72.254229136659
  20
 72.758084794961
  30
0.0
  11
 72.254229136659
  21
 76.012590138257
  31
0.0
   0
LINE
   5
1DA
 100
AcDbEntity
   8
LEVEL001
 100
AcDbLine
   6
CONTINUOUS
  62
15
  10
 72.254229136659
  20
 76.012590138257
  30
0.0
  11
 72.254229136659
  21
 87.492644030552
  31
0.0
   0
LINE
   5
1DB
 100
AcDbEntity
   8
LEVEL001
 100
AcDbLine
   6
DASHDOT
  62
3
  10
 56.908554454734
  20
 91.358084794961
  30
0.0
  11
 76.117877853891
  21
 91.358084794961
  31
0.0
   0
LINE
   5
1DC
 100
AcDbEntity
   8
LEVEL001
 100
AcDbLine
   6
DASHDOT
  62
3
  10
 293.89205437403
  20
 91.358084794961
  30
0.0
  11
 273.99169346331
  21
 91.358084794961
  31
0.0
   0
POLYLINE
   5
1DD
 100
AcDbEntity
   8
LEVEL001
   6
DIVIDE
  62
3
 100
AcDb2dPolyline
  66
1
  10
0.0
  20
0.0
  30
0.0
  70
0
   0
VERTEX
   5
1DE
 100
AcDbEntity
   8
LEVEL001
   6
DIVIDE
  62
3
 100
AcDbVertex
 100
AcDb2dVertex
  10
 174.74152198045
  20
 113.86649011845
  30
0.0
   0
VERTEX
   5
1DF
 100
AcDbEntity
   8
LEVEL001
   6
DIVIDE
  62
3
 100
AcDbVertex
 100
AcDb2dVertex
  10
 174.74152198045
  20
 113.86649011845
  30
0.0
   0
VERTEX
   5
1E0
 100
AcDbEntity
   8
LEVEL001
   6
DIVIDE
  62
3
 100
AcDbVertex
 100
AcDb2dVertex
  10
 174.52681961445
  20
 113.47369625538
  30
0.0
   0
VERTEX
   5
1E1
 100
AcDbEntity
   8
LEVEL001
   6
DIVIDE
  62
3
 100
AcDbVertex
 100
AcDb2dVertex
  10
 174.31225273061
  20
 113.08167291573
  30
0.0
   0
VERTEX
   5
1E2
 100
AcDbEntity
   8
LEVEL001
   6
DIVIDE
  62
3
 100
AcDbVertex
 100
AcDb2dVertex
  10
 174.09795681109
  20
 112.69119062289
  30
0.0
   0
VERTEX
   5
1E3
 100
AcDbEntity
   8
LEVEL001
   6
DIVIDE
  62
3
 100
AcDbVertex
 100
AcDb2dVertex
  10
 173.88406733805
  20
 112.30301990028
  30
0.0
   0
VERTEX
   5
1E4
 100
AcDbEntity
   8
LEVEL001
   6
DIVIDE
  62
3
 100
AcDbVertex
 100
AcDb2dVertex
  10
 173.67071979365
  20
 111.91793127131
  30
0.0
   0
VERTEX
   5
1E5
 100
AcDbEntity
   8
LEVEL001
   6
DIVIDE
  62
3
 100
AcDbVertex
 100
AcDb2dVertex
  10
 173.45804966004
  20
 111.53669525938
  30
0.0
   0
VERTEX
   5
1E6
 100
AcDbEntity
   8
LEVEL001
   6
DIVIDE
  62
3
 100
AcDbVertex
 100
AcDb2dVertex
  10
 173.24619241940
  20
 111.16008238789
  30
0.0
   0
VERTEX
   5
1E7
 100
AcDbEntity
   8
LEVEL001
   6
DIVIDE
  62
3
 100
AcDbVertex
 100
AcDb2dVertex
  10
 173.03528355387
  20
 110.78886318027
  30
0.0
   0
VERTEX
   5
1E8
 100
AcDbEntity
   8
LEVEL001
   6
DIVIDE
  62
3
 100
AcDbVertex
 100
AcDb2dVertex
  10
 172.82545854563
  20
 110.42380815991
  30
0.0
   0
VERTEX
   5
1E9
 100
AcDbEntity
   8
LEVEL001
   6
DIVIDE
  62
3
 100
AcDbVertex
 100
AcDb2dVertex
  10
 172.61685287682
  20
 110.06568785023
  30
0.0
   0
VERTEX
   5
1EA
 100
AcDbEntity
   8
LEVEL001
   6
DIVIDE
  62
3
 100
AcDbVertex
 100
AcDb2dVertex
  10
 172.40960202961
  20
 109.71527277463
  30
0.0
   0
VERTEX
   5
1EB
 100
AcDbEntity
   8
LEVEL001
   6
DIVIDE
  62
3
 100
AcDbVertex
 100
AcDb2dVertex
  10
 172.20384148616
  20
 109.37333345653
  30
0.0
   0
VERTEX
   5
1EC
 100
AcDbEntity
   8
LEVEL001
   6
DIVIDE
  62
3
 100
AcDbVertex
 100
AcDb2dVertex
  10
 171.99970672862
  20
 109.04064041932
  30
0.0
   0
VERTEX
   5
1ED
 100
AcDbEntity
   8
LEVEL001
   6
DIVIDE
  62
3
 100
AcDbVertex
 100
AcDb2dVertex
  10
 171.79733323917
  20
 108.71796418642
  30
0.0
   0
VERTEX
   5
1EE
 100
AcDbEntity
   8
LEVEL001
   6
DIVIDE
  62
3
 100
AcDbVertex
 100
AcDb2dVertex
  10
 171.39841199313
  20
 108.10574422719
  30
0.0
   0
VERTEX
   5
1EF
 100
AcDbEntity
   8
LEVEL001
   6
DIVIDE
  62
3
 100
AcDbVertex
 100
AcDb2dVertex
  10
 171.39841199313
  20
 108.10574422719
  30
0.0
   0
VERTEX
   5
1F0
 100
AcDbEntity
   8
LEVEL001
   6
DIVIDE
  62
3
 100
AcDbVertex
 100
AcDb2dVertex
  10
 171.20252935880
  20
 107.81685592939
  30
0.0
   0
VERTEX
   5
1F1
 100
AcDbEntity
   8
LEVEL001
   6
DIVIDE
  62
3
 100
AcDbVertex
 100
AcDb2dVertex
  10
 171.01131486877
  20
 107.53575281989
  30
0.0
   0
VERTEX
   5
1F2
 100
AcDbEntity
   8
LEVEL001
   6
DIVIDE
  62
3
 100
AcDbVertex
 100
AcDb2dVertex
  10
 170.82726895281
  20
 107.25789171244
  30
0.0
   0
VERTEX
   5
1F3
 100
AcDbEntity
   8
LEVEL001
   6
DIVIDE
  62
3
 100
AcDbVertex
 100
AcDb2dVertex
  10
 170.65289204065
  20
 106.97872942081
  30
0.0
   0
VERTEX
   5
1F4
 100
AcDbEntity
   8
LEVEL001
   6
DIVIDE
  62
3
 100
AcDbVertex
 100
AcDb2dVertex
  10
 170.49068456206
  20
 106.69372275877
  30
0.0
   0
VERTEX
   5
1F5
 100
AcDbEntity
   8
LEVEL001
   6
DIVIDE
  62
3
 100
AcDbVertex
 100
AcDb2dVertex
  10
 170.34314694677
  20
 106.39832854006
  30
0.0
   0
VERTEX
   5
1F6
 100
AcDbEntity
   8
LEVEL001
   6
DIVIDE
  62
3
 100
AcDbVertex
 100
AcDb2dVertex
  10
 170.21277962455
  20
 106.08800357846
  30
0.0
   0
VERTEX
   5
1F7
 100
AcDbEntity
   8
LEVEL001
   6
DIVIDE
  62
3
 100
AcDbVertex
 100
AcDb2dVertex
  10
 170.10208302514
  20
 105.75820468773
  30
0.0
   0
VERTEX
   5
1F8
 100
AcDbEntity
   8
LEVEL001
   6
DIVIDE
  62
3
 100
AcDbVertex
 100
AcDb2dVertex
  10
 170.01355757829
  20
 105.40438868162
  30
0.0
   0
VERTEX
   5
1F9
 100
AcDbEntity
   8
LEVEL001
   6
DIVIDE
  62
3
 100
AcDbVertex
 100
AcDb2dVertex
  10
 169.94970371375
  20
 105.02201237390
  30
0.0
   0
VERTEX
   5
1FA
 100
AcDbEntity
   8
LEVEL001
   6
DIVIDE
  62
3
 100
AcDbVertex
 100
AcDb2dVertex
  10
 169.91302186128
  20
 104.60653257834
  30
0.0
   0
VERTEX
   5
1FB
 100
AcDbEntity
   8
LEVEL001
   6
DIVIDE
  62
3
 100
AcDbVertex
 100
AcDb2dVertex
  10
 169.90601245063
  20
 104.15340610869
  30
0.0
   0
VERTEX
   5
1FC
 100
AcDbEntity
   8
LEVEL001
   6
DIVIDE
  62
3
 100
AcDbVertex
 100
AcDb2dVertex
  10
 169.93117591153
  20
 103.65808977871
  30
0.0
   0
VERTEX
   5
1FD
 100
AcDbEntity
   8
LEVEL001
   6
DIVIDE
  62
3
 100
AcDbVertex
 100
AcDb2dVertex
  10
 169.99101267376
  20
 103.11604040218
  30
0.0
   0
VERTEX
   5
1FE
 100
AcDbEntity
   8
LEVEL001
   6
DIVIDE
  62
3
 100
AcDbVertex
 100
AcDb2dVertex
  10
 170.22470782116
  20
 101.87356976446
  30
0.0
   0
VERTEX
   5
1FF
 100
AcDbEntity
   8
LEVEL001
   6
DIVIDE
  62
3
 100
AcDbVertex
 100
AcDb2dVertex
  10
 170.22470782116
  20
 101.87356976446
  30
0.0
   0
VERTEX
   5
200
 100
AcDbEntity
   8
LEVEL001
   6
DIVIDE
  62
3
 100
AcDbVertex
 100
AcDb2dVertex
  10
 170.40209228797
  20
 101.16574390357
  30
0.0
   0
VERTEX
   5
201
 100
AcDbEntity
   8
LEVEL001
   6
DIVIDE
  62
3
 100
AcDbVertex
 100
AcDb2dVertex
  10
 170.61530310792
  20
 100.40310288775
  30
0.0
   0
VERTEX
   5
202
 100
AcDbEntity
   8
LEVEL001
   6
DIVIDE
  62
3
 100
AcDbVertex
 100
AcDb2dVertex
  10
 170.85799204358
  20
 99.591194167320
  30
0.0
   0
VERTEX
   5
203
 100
AcDbEntity
   8
LEVEL001
   6
DIVIDE
  62
3
 100
AcDbVertex
 100
AcDb2dVertex
  10
 171.12381085752
  20
 98.735565192634
  30
0.0
   0
VERTEX
   5
204
 100
AcDbEntity
   8
LEVEL001
   6
DIVIDE
  62
3
 100
AcDbVertex
 100
AcDb2dVertex
  10
 171.40641131230
  20
 97.841763414028
  30
0.0
   0
VERTEX
   5
205
 100
AcDbEntity
   8
LEVEL001
   6
DIVIDE
  62
3
 100
AcDbVertex
 100
AcDb2dVertex
  10
 171.69944517051
  20
 96.915336281839
  30
0.0
   0
VERTEX
   5
206
 100
AcDbEntity
   8
LEVEL001
   6
DIVIDE
  62
3
 100
AcDbVertex
 100
AcDb2dVertex
  10
 171.99656419471
  20
 95.961831246406
  30
0.0
   0
VERTEX
   5
207
 100
AcDbEntity
   8
LEVEL001
   6
DIVIDE
  62
3
 100
AcDbVertex
 100
AcDb2dVertex
  10
 172.29142014746
  20
 94.986795758070
  30
0.0
   0
VERTEX
   5
208
 100
AcDbEntity
   8
LEVEL001
   6
DIVIDE
  62
3
 100
AcDbVertex
 100
AcDb2dVertex
  10
 172.57766479135
  20
 93.995777267167
  30
0.0
   0
VERTEX
   5
209
 100
AcDbEntity
   8
LEVEL001
   6
DIVIDE
  62
3
 100
AcDbVertex
 100
AcDb2dVertex
  10
 172.84894988894
  20
 92.994323224038
  30
0.0
   0
VERTEX
   5
20A
 100
AcDbEntity
   8
LEVEL001
   6
DIVIDE
  62
3
 100
AcDbVertex
 100
AcDb2dVertex
  10
 173.09892720280
  20
 91.987981079020
  30
0.0
   0
VERTEX
   5
20B
 100
AcDbEntity
   8
LEVEL001
   6
DIVIDE
  62
3
 100
AcDbVertex
 100
AcDb2dVertex
  10
 173.32124849550
  20
 90.982298282454
  30
0.0
   0
VERTEX
   5
20C
 100
AcDbEntity
   8
LEVEL001
   6
DIVIDE
  62
3
 100
AcDbVertex
 100
AcDb2dVertex
  10
 173.50956552961
  20
 89.982822284677
  30
0.0
   0
VERTEX
   5
20D
 100
AcDbEntity
   8
LEVEL001
   6
DIVIDE
  62
3
 100
AcDbVertex
 100
AcDb2dVertex
  10
 173.65753006770
  20
 88.995100536028
  30
0.0
   0
VERTEX
   5
20E
 100
AcDbEntity
   8
LEVEL001
   6
DIVIDE
  62
3
 100
AcDbVertex
 100
AcDb2dVertex
  10
 173.80700870611
  20
 87.077109587472
  30
0.0
   0
VERTEX
   5
20F
 100
AcDbEntity
   8
LEVEL001
   6
DIVIDE
  62
3
 100
AcDbVertex
 100
AcDb2dVertex
  10
 173.80700870611
  20
 87.077109587472
  30
0.0
   0
VERTEX
   5
210
 100
AcDbEntity
   8
LEVEL001
   6
DIVIDE
  62
3
 100
AcDbVertex
 100
AcDb2dVertex
  10
 173.79750309207
  20
 86.156714915267
  30
0.0
   0
VERTEX
   5
211
 100
AcDbEntity
   8
LEVEL001
   6
DIVIDE
  62
3
 100
AcDbVertex
 100
AcDb2dVertex
  10
 173.73231259523
  20
 85.262942055698
  30
0.0
   0
VERTEX
   5
212
 100
AcDbEntity
   8
LEVEL001
   6
DIVIDE
  62
3
 100
AcDbVertex
 100
AcDb2dVertex
  10
 173.61514954113
  20
 84.394016221255
  30
0.0
   0
VERTEX
   5
213
 100
AcDbEntity
   8
LEVEL001
   6
DIVIDE
  62
3
 100
AcDbVertex
 100
AcDb2dVertex
  10
 173.44972625527
  20
 83.548162624431
  30
0.0
   0
VERTEX
   5
214
 100
AcDbEntity
   8
LEVEL001
   6
DIVIDE
  62
3
 100
AcDbVertex
 100
AcDb2dVertex
  10
 173.23975506319
  20
 82.723606477714
  30
0.0
   0
VERTEX
   5
215
 100
AcDbEntity
   8
LEVEL001
   6
DIVIDE
  62
3
 100
AcDbVertex
 100
AcDb2dVertex
  10
 172.98894829039
  20
 81.918572993598
  30
0.0
   0
VERTEX
   5
216
 100
AcDbEntity
   8
LEVEL001
   6
DIVIDE
  62
3
 100
AcDbVertex
 100
AcDb2dVertex
  10
 172.70101826240
  20
 81.131287384572
  30
0.0
   0
VERTEX
   5
217
 100
AcDbEntity
   8
LEVEL001
   6
DIVIDE
  62
3
 100
AcDbVertex
 100
AcDb2dVertex
  10
 172.37967730474
  20
 80.359974863127
  30
0.0
   0
VERTEX
   5
218
 100
AcDbEntity
   8
LEVEL001
   6
DIVIDE
  62
3
 100
AcDbVertex
 100
AcDb2dVertex
  10
 172.02863774293
  20
 79.602860641755
  30
0.0
   0
VERTEX
   5
219
 100
AcDbEntity
   8
LEVEL001
   6
DIVIDE
  62
3
 100
AcDbVertex
 100
AcDb2dVertex
  10
 171.65161190248
  20
 78.858169932946
  30
0.0
   0
VERTEX
   5
21A
 100
AcDbEntity
   8
LEVEL001
   6
DIVIDE
  62
3
 100
AcDbVertex
 100
AcDb2dVertex
  10
 171.25231210892
  20
 78.124127949191
  30
0.0
   0
VERTEX
   5
21B
 100
AcDbEntity
   8
LEVEL001
   6
DIVIDE
  62
3
 100
AcDbVertex
 100
AcDb2dVertex
  10
 170.83445068776
  20
 77.398959902982
  30
0.0
   0
VERTEX
   5
21C
 100
AcDbEntity
   8
LEVEL001
   6
DIVIDE
  62
3
 100
AcDbVertex
 100
AcDb2dVertex
  10
 170.40173996453
  20
 76.680891006809
  30
0.0
   0
VERTEX
   5
21D
 100
AcDbEntity
   8
LEVEL001
   6
DIVIDE
  62
3
 100
AcDbVertex
 100
AcDb2dVertex
  10
 169.95789226473
  20
 75.968146473163
  30
0.0
   0
VERTEX
   5
21E
 100
AcDbEntity
   8
LEVEL001
   6
DIVIDE
  62
3
 100
AcDbVertex
 100
AcDb2dVertex
  10
 169.05163523755
  20
 74.551531343416
  30
0.0
   0
SEQEND
   5
21F
 100
AcDbEntity
   8
LEVEL001
   6
DIVIDE
  62
3
   0
POLYLINE
   5
220
 100
AcDbEntity
   8
LEVEL001
   6
DIVIDE
  62
3
 100
AcDb2dPolyline
  66
1
  10
0.0
  20
0.0
  30
0.0
  70
0
   0
VERTEX
   5
221
 100
AcDbEntity
   8
LEVEL001
   6
DIVIDE
  62
3
 100
AcDbVertex
 100
AcDb2dVertex
  10
 181.69845413385
  20
 113.86649011845
  30
0.0
   0
VERTEX
   5
222
 100
AcDbEntity
   8
LEVEL001
   6
DIVIDE
  62
3
 100
AcDbVertex
 100
AcDb2dVertex
  10
 181.69845413385
  20
 113.86649011845
  30
0.0
   0
VERTEX
   5
223
 100
AcDbEntity
   8
LEVEL001
   6
DIVIDE
  62
3
 100
AcDbVertex
 100
AcDb2dVertex
  10
 181.48375176785
  20
 113.47369625538
  30
0.0
   0
VERTEX
   5
224
 100
AcDbEntity
   8
LEVEL001
   6
DIVIDE
  62
3
 100
AcDbVertex
 100
AcDb2dVertex
  10
 181.26918488401
  20
 113.08167291573
  30
0.0
   0
VERTEX
   5
225
 100
AcDbEntity
   8
LEVEL001
   6
DIVIDE
  62
3
 100
AcDbVertex
 100
AcDb2dVertex
  10
 181.05488896449
  20
 112.69119062289
  30
0.0
   0
VERTEX
   5
226
 100
AcDbEntity
   8
LEVEL001
   6
DIVIDE
  62
3
 100
AcDbVertex
 100
AcDb2dVertex
  10
 180.84099949145
  20
 112.30301990028
  30
0.0
   0
VERTEX
   5
227
 100
AcDbEntity
   8
LEVEL001
   6
DIVIDE
  62
3
 100
AcDbVertex
 100
AcDb2dVertex
  10
 180.62765194704
  20
 111.91793127131
  30
0.0
   0
VERTEX
   5
228
 100
AcDbEntity
   8
LEVEL001
   6
DIVIDE
  62
3
 100
AcDbVertex
 100
AcDb2dVertex
  10
 180.41498181344
  20
 111.53669525938
  30
0.0
   0
VERTEX
   5
229
 100
AcDbEntity
   8
LEVEL001
   6
DIVIDE
  62
3
 100
AcDbVertex
 100
AcDb2dVertex
  10
 180.20312457280
  20
 111.16008238789
  30
0.0
   0
VERTEX
   5
22A
 100
AcDbEntity
   8
LEVEL001
   6
DIVIDE
  62
3
 100
AcDbVertex
 100
AcDb2dVertex
  10
 179.99221570727
  20
 110.78886318027
  30
0.0
   0
VERTEX
   5
22B
 100
AcDbEntity
   8
LEVEL001
   6
DIVIDE
  62
3
 100
AcDbVertex
 100
AcDb2dVertex
  10
 179.78239069903
  20
 110.42380815991
  30
0.0
   0
VERTEX
   5
22C
 100
AcDbEntity
   8
LEVEL001
   6
DIVIDE
  62
3
 100
AcDbVertex
 100
AcDb2dVertex
  10
 179.57378503022
  20
 110.06568785023
  30
0.0
   0
VERTEX
   5
22D
 100
AcDbEntity
   8
LEVEL001
   6
DIVIDE
  62
3
 100
AcDbVertex
 100
AcDb2dVertex
  10
 179.36653418301
  20
 109.71527277463
  30
0.0
   0
VERTEX
   5
22E
 100
AcDbEntity
   8
LEVEL001
   6
DIVIDE
  62
3
 100
AcDbVertex
 100
AcDb2dVertex
  10
 179.16077363956
  20
 109.37333345653
  30
0.0
   0
VERTEX
   5
22F
 100
AcDbEntity
   8
LEVEL001
   6
DIVIDE
  62
3
 100
AcDbVertex
 100
AcDb2dVertex
  10
 178.95663888202
  20
 109.04064041932
  30
0.0
   0
VERTEX
   5
230
 100
AcDbEntity
   8
LEVEL001
   6
DIVIDE
  62
3
 100
AcDbVertex
 100
AcDb2dVertex
  10
 178.75426539257
  20
 108.71796418642
  30
0.0
   0
VERTEX
   5
231
 100
AcDbEntity
   8
LEVEL001
   6
DIVIDE
  62
3
 100
AcDbVertex
 100
AcDb2dVertex
  10
 178.35534414653
  20
 108.10574422719
  30
0.0
   0
VERTEX
   5
232
 100
AcDbEntity
   8
LEVEL001
   6
DIVIDE
  62
3
 100
AcDbVertex
 100
AcDb2dVertex
  10
 178.35534414653
  20
 108.10574422719
  30
0.0
   0
VERTEX
   5
233
 100
AcDbEntity
   8
LEVEL001
   6
DIVIDE
  62
3
 100
AcDbVertex
 100
AcDb2dVertex
  10
 178.15946151219
  20
 107.81685592939
  30
0.0
   0
VERTEX
   5
234
 100
AcDbEntity
   8
LEVEL001
   6
DIVIDE
  62
3
 100
AcDbVertex
 100
AcDb2dVertex
  10
 177.96824702217
  20
 107.53575281989
  30
0.0
   0
VERTEX
   5
235
 100
AcDbEntity
   8
LEVEL001
   6
DIVIDE
  62
3
 100
AcDbVertex
 100
AcDb2dVertex
  10
 177.78420110621
  20
 107.25789171244
  30
0.0
   0
VERTEX
   5
236
 100
AcDbEntity
   8
LEVEL001
   6
DIVIDE
  62
3
 100
AcDbVertex
 100
AcDb2dVertex
  10
 177.60982419405
  20
 106.97872942081
  30
0.0
   0
VERTEX
   5
237
 100
AcDbEntity
   8
LEVEL001
   6
DIVIDE
  62
3
 100
AcDbVertex
 100
AcDb2dVertex
  10
 177.44761671545
  20
 106.69372275877
  30
0.0
   0
VERTEX
   5
238
 100
AcDbEntity
   8
LEVEL001
   6
DIVIDE
  62
3
 100
AcDbVertex
 100
AcDb2dVertex
  10
 177.30007910017
  20
 106.39832854006
  30
0.0
   0
VERTEX
   5
239
 100
AcDbEntity
   8
LEVEL001
   6
DIVIDE
  62
3
 100
AcDbVertex
 100
AcDb2dVertex
  10
 177.16971177795
  20
 106.08800357846
  30
0.0
   0
VERTEX
   5
23A
 100
AcDbEntity
   8
LEVEL001
   6
DIVIDE
  62
3
 100
AcDbVertex
 100
AcDb2dVertex
  10
 177.05901517854
  20
 105.75820468773
  30
0.0
   0
VERTEX
   5
23B
 100
AcDbEntity
   8
LEVEL001
   6
DIVIDE
  62
3
 100
AcDbVertex
 100
AcDb2dVertex
  10
 176.97048973169
  20
 105.40438868162
  30
0.0
   0
VERTEX
   5
23C
 100
AcDbEntity
   8
LEVEL001
   6
DIVIDE
  62
3
 100
AcDbVertex
 100
AcDb2dVertex
  10
 176.90663586715
  20
 105.02201237390
  30
0.0
   0
VERTEX
   5
23D
 100
AcDbEntity
   8
LEVEL001
   6
DIVIDE
  62
3
 100
AcDbVertex
 100
AcDb2dVertex
  10
 176.86995401468
  20
 104.60653257834
  30
0.0
   0
VERTEX
   5
23E
 100
AcDbEntity
   8
LEVEL001
   6
DIVIDE
  62
3
 100
AcDbVertex
 100
AcDb2dVertex
  10
 176.86294460402
  20
 104.15340610869
  30
0.0
   0
VERTEX
   5
23F
 100
AcDbEntity
   8
LEVEL001
   6
DIVIDE
  62
3
 100
AcDbVertex
 100
AcDb2dVertex
  10
 176.88810806493
  20
 103.65808977871
  30
0.0
   0
VERTEX
   5
240
 100
AcDbEntity
   8
LEVEL001
   6
DIVIDE
  62
3
 100
AcDbVertex
 100
AcDb2dVertex
  10
 176.94794482716
  20
 103.11604040218
  30
0.0
   0
VERTEX
   5
241
 100
AcDbEntity
   8
LEVEL001
   6
DIVIDE
  62
3
 100
AcDbVertex
 100
AcDb2dVertex
  10
 177.18163997456
  20
 101.87356976446
  30
0.0
   0
VERTEX
   5
242
 100
AcDbEntity
   8
LEVEL001
   6
DIVIDE
  62
3
 100
AcDbVertex
 100
AcDb2dVertex
  10
 177.18163997456
  20
 101.87356976446
  30
0.0
   0
VERTEX
   5
243
 100
AcDbEntity
   8
LEVEL001
   6
DIVIDE
  62
3
 100
AcDbVertex
 100
AcDb2dVertex
  10
 177.35902444137
  20
 101.16574390357
  30
0.0
   0
VERTEX
   5
244
 100
AcDbEntity
   8
LEVEL001
   6
DIVIDE
  62
3
 100
AcDbVertex
 100
AcDb2dVertex
  10
 177.57223526132
  20
 100.40310288775
  30
0.0
   0
VERTEX
   5
245
 100
AcDbEntity
   8
LEVEL001
   6
DIVIDE
  62
3
 100
AcDbVertex
 100
AcDb2dVertex
  10
 177.81492419698
  20
 99.591194167320
  30
0.0
   0
VERTEX
   5
246
 100
AcDbEntity
   8
LEVEL001
   6
DIVIDE
  62
3
 100
AcDbVertex
 100
AcDb2dVertex
  10
 178.08074301092
  20
 98.735565192634
  30
0.0
   0
VERTEX
   5
247
 100
AcDbEntity
   8
LEVEL001
   6
DIVIDE
  62
3
 100
AcDbVertex
 100
AcDb2dVertex
  10
 178.36334346570
  20
 97.841763414028
  30
0.0
   0
VERTEX
   5
248
 100
AcDbEntity
   8
LEVEL001
   6
DIVIDE
  62
3
 100
AcDbVertex
 100
AcDb2dVertex
  10
 178.65637732391
  20
 96.915336281839
  30
0.0
   0
VERTEX
   5
249
 100
AcDbEntity
   8
LEVEL001
   6
DIVIDE
  62
3
 100
AcDbVertex
 100
AcDb2dVertex
  10
 178.95349634811
  20
 95.961831246406
  30
0.0
   0
VERTEX
   5
24A
 100
AcDbEntity
   8
LEVEL001
   6
DIVIDE
  62
3
 100
AcDbVertex
 100
AcDb2dVertex
  10
 179.24835230086
  20
 94.986795758070
  30
0.0
   0
VERTEX
   5
24B
 100
AcDbEntity
   8
LEVEL001
   6
DIVIDE
  62
3
 100
AcDbVertex
 100
AcDb2dVertex
  10
 179.53459694475
  20
 93.995777267167
  30
0.0
   0
VERTEX
   5
24C
 100
AcDbEntity
   8
LEVEL001
   6
DIVIDE
  62
3
 100
AcDbVertex
 100
AcDb2dVertex
  10
 179.80588204234
  20
 92.994323224038
  30
0.0
   0
VERTEX
   5
24D
 100
AcDbEntity
   8
LEVEL001
   6
DIVIDE
  62
3
 100
AcDbVertex
 100
AcDb2dVertex
  10
 180.05585935619
  20
 91.987981079020
  30
0.0
   0
VERTEX
   5
24E
 100
AcDbEntity
   8
LEVEL001
   6
DIVIDE
  62
3
 100
AcDbVertex
 100
AcDb2dVertex
  10
 180.27818064889
  20
 90.982298282454
  30
0.0
   0
VERTEX
   5
24F
 100
AcDbEntity
   8
LEVEL001
   6
DIVIDE
  62
3
 100
AcDbVertex
 100
AcDb2dVertex
  10
 180.46649768301
  20
 89.982822284677
  30
0.0
   0
VERTEX
   5
250
 100
AcDbEntity
   8
LEVEL001
   6
DIVIDE
  62
3
 100
AcDbVertex
 100
AcDb2dVertex
  10
 180.61446222110
  20
 88.995100536028
  30
0.0
   0
VERTEX
   5
251
 100
AcDbEntity
   8
LEVEL001
   6
DIVIDE
  62
3
 100
AcDbVertex
 100
AcDb2dVertex
  10
 180.76394085951
  20
 87.077109587472
  30
0.0
   0
VERTEX
   5
252
 100
AcDbEntity
   8
LEVEL001
   6
DIVIDE
  62
3
 100
AcDbVertex
 100
AcDb2dVertex
  10
 180.76394085951
  20
 87.077109587472
  30
0.0
   0
VERTEX
   5
253
 100
AcDbEntity
   8
LEVEL001
   6
DIVIDE
  62
3
 100
AcDbVertex
 100
AcDb2dVertex
  10
 180.75443524546
  20
 86.156714915267
  30
0.0
   0
VERTEX
   5
254
 100
AcDbEntity
   8
LEVEL001
   6
DIVIDE
  62
3
 100
AcDbVertex
 100
AcDb2dVertex
  10
 180.68924474863
  20
 85.262942055698
  30
0.0
   0
VERTEX
   5
255
 100
AcDbEntity
   8
LEVEL001
   6
DIVIDE
  62
3
 100
AcDbVertex
 100
AcDb2dVertex
  10
 180.57208169452
  20
 84.394016221255
  30
0.0
   0
VERTEX
   5
256
 100
AcDbEntity
   8
LEVEL001
   6
DIVIDE
  62
3
 100
AcDbVertex
 100
AcDb2dVertex
  10
 180.40665840867
  20
 83.548162624431
  30
0.0
   0
VERTEX
   5
257
 100
AcDbEntity
   8
LEVEL001
   6
DIVIDE
  62
3
 100
AcDbVertex
 100
AcDb2dVertex
  10
 180.19668721659
  20
 82.723606477714
  30
0.0
   0
VERTEX
   5
258
 100
AcDbEntity
   8
LEVEL001
   6
DIVIDE
  62
3
 100
AcDbVertex
 100
AcDb2dVertex
  10
 179.94588044379
  20
 81.918572993598
  30
0.0
   0
VERTEX
   5
259
 100
AcDbEntity
   8
LEVEL001
   6
DIVIDE
  62
3
 100
AcDbVertex
 100
AcDb2dVertex
  10
 179.65795041580
  20
 81.131287384572
  30
0.0
   0
VERTEX
   5
25A
 100
AcDbEntity
   8
LEVEL001
   6
DIVIDE
  62
3
 100
AcDbVertex
 100
AcDb2dVertex
  10
 179.33660945814
  20
 80.359974863127
  30
0.0
   0
VERTEX
   5
25B
 100
AcDbEntity
   8
LEVEL001
   6
DIVIDE
  62
3
 100
AcDbVertex
 100
AcDb2dVertex
  10
 178.98556989633
  20
 79.602860641755
  30
0.0
   0
VERTEX
   5
25C
 100
AcDbEntity
   8
LEVEL001
   6
DIVIDE
  62
3
 100
AcDbVertex
 100
AcDb2dVertex
  10
 178.60854405588
  20
 78.858169932946
  30
0.0
   0
VERTEX
   5
25D
 100
AcDbEntity
   8
LEVEL001
   6
DIVIDE
  62
3
 100
AcDbVertex
 100
AcDb2dVertex
  10
 178.20924426232
  20
 78.124127949191
  30
0.0
   0
VERTEX
   5
25E
 100
AcDbEntity
   8
LEVEL001
   6
DIVIDE
  62
3
 100
AcDbVertex
 100
AcDb2dVertex
  10
 177.79138284116
  20
 77.398959902982
  30
0.0
   0
VERTEX
   5
25F
 100
AcDbEntity
   8
LEVEL001
   6
DIVIDE
  62
3
 100
AcDbVertex
 100
AcDb2dVertex
  10
 177.35867211792
  20
 76.680891006809
  30
0.0
   0
VERTEX
   5
260
 100
AcDbEntity
   8
LEVEL001
   6
DIVIDE
  62
3
 100
AcDbVertex
 100
AcDb2dVertex
  10
 176.91482441813
  20
 75.968146473163
  30
0.0
   0
VERTEX
   5
261
 100
AcDbEntity
   8
LEVEL001
   6
DIVIDE
  62
3
 100
AcDbVertex
 100
AcDb2dVertex
  10
 176.00856739095
  20
 74.551531343416
  30
0.0
   0
SEQEND
   5
262
 100
AcDbEntity
   8
LEVEL001
   6
DIVIDE
  62
3
   0
LINE
   5
263
 100
AcDbEntity
   8
LEVEL001
 100
AcDbLine
   6
CONTINUOUS
  62
7
  10
 73.254229136659
  20
 110.35808479496
  30
0.0
  11
 73.254229136659
  21
 104.56490542056
  31
0.0
   0
LINE
   5
264
 100
AcDbEntity
   8
LEVEL001
 100
AcDbLine
   6
CONTINUOUS
  62
7
  10
 277.54637969211
  20
 104.56490542056
  30
0.0
  11
 277.54637969211
  21
 110.35808479496
  31
0.0
   0
LINE
   5
265
 100
AcDbEntity
   8
LEVEL001
 100
AcDbLine
   6
DIVIDE
  62
3
  10
 69.254229136659
  20
 72.358084794961
  30
0.0
  11
 69.254229136659
  21
 50.109571290620
  31
0.0
   0
LINE
   5
266
 100
AcDbEntity
   8
LEVEL001
 100
AcDbLine
   6
CONTINUOUS
  62
15
  10
 62.254229136659
  20
 91.358084794961
  30
0.0
  11
 64.217193469011
  21
 89.608084794961
  31
0.0
   0
LINE
   5
267
 100
AcDbEntity
   8
LEVEL001
 100
AcDbLine
   6
CONTINUOUS
  62
15
  10
 64.217193469011
  20
 89.608084794961
  30
0.0
  11
 69.254229136659
  21
 89.608084794961
  31
0.0
   0
LINE
   5
268
 100
AcDbEntity
   8
LEVEL001
 100
AcDbLine
   6
CONTINUOUS
  62
15
  10
 62.254229136659
  20
 91.358084794961
  30
0.0
  11
 64.217193469011
  21
 93.108084794961
  31
0.0
   0
LINE
   5
269
 100
AcDbEntity
   8
LEVEL001
 100
AcDbLine
   6
CONTINUOUS
  62
15
  10
 64.217193469011
  20
 93.108084794961
  30
0.0
  11
 69.254229136659
  21
 93.108084794961
  31
0.0
   0
LINE
   5
26A
 100
AcDbEntity
   8
LEVEL001
 100
AcDbLine
   6
CONTINUOUS
  62
7
  10
 69.254229136659
  20
 72.358084794961
  30
0.0
  11
 69.254229136659
  21
 110.35808479496
  31
0.0
   0
LINE
   5
26B
 100
AcDbEntity
   8
LEVEL001
 100
AcDbLine
   6
DIVIDE
  62
3
  10
 281.54637969211
  20
 72.358084794961
  30
0.0
  11
 281.54637969211
  21
 50.109571290620
  31
0.0
   0
LINE
   5
26C
 100
AcDbEntity
   8
LEVEL001
 100
AcDbLine
   6
CONTINUOUS
  62
15
  10
 288.54637969211
  20
 91.358084794961
  30
0.0
  11
 286.58341535976
  21
 89.608084794961
  31
0.0
   0
LINE
   5
26D
 100
AcDbEntity
   8
LEVEL001
 100
AcDbLine
   6
CONTINUOUS
  62
15
  10
 286.58341535976
  20
 89.608084794961
  30
0.0
  11
 281.54637969211
  21
 89.608084794961
  31
0.0
   0
LINE
   5
26E
 100
AcDbEntity
   8
LEVEL001
 100
AcDbLine
   6
CONTINUOUS
  62
15
  10
 288.54637969211
  20
 91.358084794961
  30
0.0
  11
 286.58341535976
  21
 93.108084794961
  31
0.0
   0
LINE
   5
26F
 100
AcDbEntity
   8
LEVEL001
 100
AcDbLine
   6
CONTINUOUS
  62
15
  10
 286.58341535976
  20
 93.108084794961
  30
0.0
  11
 281.54637969211
  21
 93.108084794961
  31
0.0
   0
DIMENSION
   5
270
 100
AcDbEntity
   8
LEVEL001
   6
CONTINUOUS
  62
2
 100
AcDbDimension
   2
*D1
  10
 277.54637969211
  20
 123.23587858004
  30
0.0
  11
 175.40030441438
  21
 123.23587858004
  31
0.0
  70
0
   1
\A1;パイプ長
   3
GMM001
 100
AcDbAlignedDimension
  13
 73.254229136659
  23
 110.35808479496
  33
0.0
  14
 277.54637969211
  24
 110.24414294255
  34
0.0
 100
AcDbRotatedDimension
   0
LINE
   5
271
 100
AcDbEntity
   8
LEVEL001
 100
AcDbLine
   6
DIVIDE
  62
3
  10
 69.254229136659
  20
 110.35808479496
  30
0.0
  11
 69.254229136659
  21
 119.71512493520
  31
0.0
   0
LINE
   5
272
 100
AcDbEntity
   8
LEVEL001
 100
AcDbLine
   6
DIVIDE
  62
3
  10
 49.254229136659
  20
 50.063422486949
  30
0.0
  11
 49.254229136659
  21
 119.66897613153
  31
0.0
   0
INSERT
   5
273
 100
AcDbEntity
   8
LEVEL001
 100
AcDbBlockReference
   2
HATCH001
  10
0.0
  20
0.0
  30
0.0
   0
LINE
   5
274
 100
AcDbEntity
   8
LEVEL001
 100
AcDbLine
   6
DIVIDE
  62
3
  10
 301.54637969211
  20
 50.063422486949
  30
0.0
  11
 301.54637969211
  21
 119.66897613153
  31
0.0
   0
LINE
   5
275
 100
AcDbEntity
   8
LEVEL001
 100
AcDbLine
   6
DIVIDE
  62
3
  10
 281.54637969211
  20
 110.35808479496
  30
0.0
  11
 281.54637969211
  21
 119.71512493520
  31
0.0
   0
INSERT
   5
276
 100
AcDbEntity
   8
LEVEL001
 100
AcDbBlockReference
   2
HATCH002
  10
0.0
  20
0.0
  30
0.0
   0
DIMENSION
   5
277
 100
AcDbEntity
   8
LEVEL001
   6
CONTINUOUS
  62
2
 100
AcDbDimension
   2
*D2
  10
 73.254229136659
  20
 123.23587858004
  30
0.0
  11
 72.754229136659
  21
 123.23587858004
  31
0.0
  70
0
   3
GMM002
 100
AcDbAlignedDimension
  13
 72.254229136659
  23
 110.35808479496
  33
0.0
  14
 73.254229136659
  24
 123.23587858004
  34
0.0
 100
AcDbRotatedDimension
   0
DIMENSION
   5
278
 100
AcDbEntity
   8
LEVEL001
   6
CONTINUOUS
  62
2
 100
AcDbDimension
   2
*D3
  10
 72.254229136659
  20
 123.23587858004
  30
0.0
  11
 63.762685380514
  21
 123.23587858004
  31
0.0
  70
128
   3
GMM003
 100
AcDbAlignedDimension
  13
 69.254229136659
  23
 119.71512493520
  33
0.0
  14
 72.254229136659
  24
 110.35808479496
  34
0.0
 100
AcDbRotatedDimension
   0
DIMENSION
   5
279
 100
AcDbEntity
   8
LEVEL001
   6
CONTINUOUS
  62
2
 100
AcDbDimension
   2
*D4
  10
 277.54637969211
  20
 123.23587858004
  30
0.0
  11
 278.04637969211
  21
 123.23587858004
  31
0.0
  70
0
   3
GMM002
 100
AcDbAlignedDimension
  13
 278.54637969211
  23
 110.35808479496
  33
0.0
  14
 277.54637969211
  24
 123.23587858004
  34
0.0
  50
 180.00000000000
 100
AcDbRotatedDimension
   0
DIMENSION
   5
27A
 100
AcDbEntity
   8
LEVEL001
   6
CONTINUOUS
  62
2
 100
AcDbDimension
   2
*D5
  10
 281.54637969211
  20
 123.23587858004
  30
0.0
  11
 286.27646818768
  21
 123.23587858004
  31
0.0
  70
128
   3
GMM004
 100
AcDbAlignedDimension
  13
 278.54637969211
  23
 123.23587858004
  33
0.0
  14
 281.54637969211
  24
 119.71512493520
  34
0.0
 100
AcDbRotatedDimension
   0
TEXT
   5
27B
 100
AcDbEntity
   8
LEVEL001
  62
7
 100
AcDbText
  10
 164.45323707484
  20
 45.784137060326
  30
0.0
  40
 4.0000000000000
   1
参考施工例
   7
STANDARD
 100
AcDbText
   0
LINE
   5
27C
 100
AcDbEntity
   8
LEVEL001
 100
AcDbLine
   6
CONTINUOUS
  62
7
  10
 163.42446478120
  20
 44.246005098987
  30
0.0
  11
 185.48226863960
  21
 44.246005098987
  31
0.0
   0
DIMENSION
   5
27D
 100
AcDbEntity
   8
LEVEL001
   6
CONTINUOUS
  62
2
 100
AcDbDimension
   2
*D6
  10
 281.54637969211
  20
 59.131781099401
  30
0.0
  11
 175.40030441438
  21
 59.131781099401
  31
0.0
  70
0
   1
\A1;クローゼット壁間距離=パイプ長+8
   3
GMM005
 100
AcDbAlignedDimension
  13
 69.254229136659
  23
 60.066294373737
  33
0.0
  14
 281.54637969211
  24
 59.832666055153
  34
0.0
 100
AcDbRotatedDimension
   0
LINE
   5
27E
 100
AcDbEntity
   8
LEVEL001
 100
AcDbLine
   6
CONTINUOUS
  62
7
  10
 74.001643201785
  20
 201.15257219301
  30
0.0
  11
 74.001643201785
  21
 210.95257219301
  31
0.0
   0
LINE
   5
27F
 100
AcDbEntity
   8
LEVEL001
 100
AcDbLine
   6
CONTINUOUS
  62
7
  10
 72.501643201785
  20
 205.91769384294
  30
0.0
  11
 72.501643201785
  21
 210.95257219301
  31
0.0
   0
ARC
   5
280
 100
AcDbEntity
   8
LEVEL001
   6
CONTINUOUS
  62
7
 100
AcDbCircle
  10
 64.801643201785
  20
 191.35257219301
  30
0.0
  40
 9.2000000000000
 100
AcDbArc
  50
 270.00000000000
  51
 326.82011763814
   0
ARC
   5
281
 100
AcDbEntity
   8
LEVEL001
   6
CONTINUOUS
  62
7
 100
AcDbCircle
  10
 64.801643201785
  20
 191.35257219301
  30
0.0
  40
 9.2000000000000
 100
AcDbArc
  50
 326.82011763814
  51
 342.93369035415
   0
ARC
   5
282
 100
AcDbEntity
   8
LEVEL001
   6
CONTINUOUS
  62
7
 100
AcDbCircle
  10
 64.801643201785
  20
 191.35257219301
  30
0.0
  40
 9.2000000000000
 100
AcDbArc
  50
 342.93369035415
  51
 0.35400956454550E-12
   0
LINE
   5
283
 100
AcDbEntity
   8
LEVEL001
 100
AcDbLine
   6
CONTINUOUS
  62
7
  10
 74.001643201785
  20
 197.85257219301
  30
0.0
  11
 74.001643201785
  21
 201.15257219301
  31
0.0
   0
LINE
   5
284
 100
AcDbEntity
   8
LEVEL001
 100
AcDbLine
   6
CONTINUOUS
  62
7
  10
 72.501643201785
  20
 202.88745054308
  30
0.0
  11
 72.501643201785
  21
 205.91769384294
  31
0.0
   0
LINE
   5
285
 100
AcDbEntity
   8
LEVEL001
 100
AcDbLine
   6
CONTINUOUS
  62
7
  10
 72.501643201785
  20
 199.35257219301
  30
0.0
  11
 72.501643201785
  21
 201.15257219301
  31
0.0
   0
LINE
   5
286
 100
AcDbEntity
   8
LEVEL001
 100
AcDbLine
   6
CONTINUOUS
  62
7
  10
 72.501643201785
  20
 201.15257219301
  30
0.0
  11
 72.501643201785
  21
 202.88745054308
  31
0.0
   0
LINE
   5
287
 100
AcDbEntity
   8
LEVEL001
 100
AcDbLine
   6
CONTINUOUS
  62
7
  10
 72.501643201785
  20
 197.85257219301
  30
0.0
  11
 72.501643201785
  21
 199.35257219301
  31
0.0
   0
LINE
   5
288
 100
AcDbEntity
   8
LEVEL001
 100
AcDbLine
   6
CONTINUOUS
  62
7
  10
 72.501643201785
  20
 210.95257219301
  30
0.0
  11
 72.501643201785
  21
 213.85946056376
  31
0.0
   0
ARC
   5
289
 100
AcDbEntity
   8
LEVEL001
   6
CONTINUOUS
  62
7
 100
AcDbCircle
  10
 73.001643201785
  20
 213.85946056376
  30
0.0
  40
 0.50000000000000
 100
AcDbArc
  50
 19.519344521538
  51
 179.99999999945
   0
ARC
   5
28A
 100
AcDbEntity
   8
LEVEL001
   6
CONTINUOUS
  62
7
 100
AcDbCircle
  10
 64.801643201785
  20
 191.35257219301
  30
0.0
  40
 9.2000000000000
 100
AcDbArc
  50
 213.17988236186
  51
 270.00000000000
   0
ARC
   5
28B
 100
AcDbEntity
   8
LEVEL001
   6
CONTINUOUS
  62
7
 100
AcDbCircle
  10
 64.801643201785
  20
 191.35257219301
  30
0.0
  40
 9.2000000000000
 100
AcDbArc
  50
 197.06630964585
  51
 213.17988236186
   0
ARC
   5
28C
 100
AcDbEntity
   8
LEVEL001
   6
CONTINUOUS
  62
7
 100
AcDbCircle
  10
 64.801643201785
  20
 191.35257219301
  30
0.0
  40
 9.2000000000000
 100
AcDbArc
  50
 180.00000000000
  51
 197.06630964585
   0
LINE
   5
28D
 100
AcDbEntity
   8
LEVEL001
 100
AcDbLine
   6
CONTINUOUS
  62
7
  10
 55.601643201785
  20
 201.15257219301
  30
0.0
  11
 55.601643201785
  21
 210.95257219301
  31
0.0
   0
LINE
   5
28E
 100
AcDbEntity
   8
LEVEL001
 100
AcDbLine
   6
CONTINUOUS
  62
7
  10
 57.101643201785
  20
 205.91769384294
  30
0.0
  11
 57.101643201785
  21
 210.95257219301
  31
0.0
   0
LINE
   5
28F
 100
AcDbEntity
   8
LEVEL001
 100
AcDbLine
   6
CONTINUOUS
  62
7
  10
 57.101643201785
  20
 202.88745054308
  30
0.0
  11
 57.101643201785
  21
 205.91769384294
  31
0.0
   0
LINE
   5
290
 100
AcDbEntity
   8
LEVEL001
 100
AcDbLine
   6
CONTINUOUS
  62
7
  10
 55.601643201785
  20
 197.85257219301
  30
0.0
  11
 55.601643201785
  21
 201.15257219301
  31
0.0
   0
LINE
   5
291
 100
AcDbEntity
   8
LEVEL001
 100
AcDbLine
   6
CONTINUOUS
  62
7
  10
 57.101643201785
  20
 199.35257219301
  30
0.0
  11
 57.101643201785
  21
 201.15257219301
  31
0.0
   0
LINE
   5
292
 100
AcDbEntity
   8
LEVEL001
 100
AcDbLine
   6
CONTINUOUS
  62
7
  10
 57.101643201785
  20
 197.85257219301
  30
0.0
  11
 57.101643201785
  21
 199.35257219301
  31
0.0
   0
LINE
   5
293
 100
AcDbEntity
   8
LEVEL001
 100
AcDbLine
   6
CONTINUOUS
  62
7
  10
 57.101643201785
  20
 201.15257219301
  30
0.0
  11
 57.101643201785
  21
 202.88745054308
  31
0.0
   0
LINE
   5
294
 100
AcDbEntity
   8
LEVEL001
 100
AcDbLine
   6
DASHDOT
  62
3
  10
 51.329234162458
  20
 201.15257219301
  30
0.0
  11
 78.781076588333
  21
 201.15257219301
  31
0.0
   0
ARC
   5
295
 100
AcDbEntity
   8
LEVEL001
   6
CONTINUOUS
  62
7
 100
AcDbCircle
  10
 64.801643201785
  20
 210.95257219301
  30
0.0
  40
 9.2000000000000
 100
AcDbArc
  50
 0.17700478227275E-12
  51
 19.519344521027
   0
ARC
   5
296
 100
AcDbEntity
   8
LEVEL001
   6
CONTINUOUS
  62
15
 100
AcDbCircle
  10
 64.801643201785
  20
 194.85257219301
  30
0.0
  40
 9.2000000000000
 100
AcDbArc
  50
 184.97015584241
  51
 357.05603689610
   0
ARC
   5
297
 100
AcDbEntity
   8
LEVEL001
   6
CONTINUOUS
  62
7
 100
AcDbCircle
  10
 64.801643201785
  20
 210.95257219301
  30
0.0
  40
 9.2000000000000
 100
AcDbArc
  50
 23.612795569934
  51
 156.02221971913
   0
LINE
   5
298
 100
AcDbEntity
   8
LEVEL001
 100
AcDbLine
   6
CONTINUOUS
  62
7
  10
 55.601643201785
  20
 191.35257219301
  30
0.0
  11
 55.601643201785
  21
 196.42805741113
  31
0.0
   0
LINE
   5
299
 100
AcDbEntity
   8
LEVEL001
 100
AcDbLine
   6
CONTINUOUS
  62
7
  10
 74.001643201785
  20
 191.35257219301
  30
0.0
  11
 74.001643201785
  21
 196.42805741113
  31
0.0
   0
ARC
   5
29A
 100
AcDbEntity
   8
LEVEL001
   6
CONTINUOUS
  62
7
 100
AcDbCircle
  10
 64.801643201785
  20
 197.85257219301
  30
0.0
  40
 7.7000000000000
 100
AcDbArc
  50
 180.00000000000
  51
0.0
   0
ARC
   5
29B
 100
AcDbEntity
   8
LEVEL001
   6
CONTINUOUS
  62
7
 100
AcDbCircle
  10
 64.801643201785
  20
 197.85257219301
  30
0.0
  40
 9.2000000000000
 100
AcDbArc
  50
 180.00000000000
  51
0.0
   0
LINE
   5
29C
 100
AcDbEntity
   8
LEVEL001
 100
AcDbLine
   6
CONTINUOUS
  62
7
  10
 57.101643201785
  20
 210.95257219301
  30
0.0
  11
 57.101643201785
  21
 213.85946056376
  31
0.0
   0
ARC
   5
29D
 100
AcDbEntity
   8
LEVEL001
   6
CONTINUOUS
  62
7
 100
AcDbCircle
  10
 56.601643201785
  20
 213.85946056376
  30
0.0
  40
 0.50000000000000
 100
AcDbArc
  50
0.0
  51
 160.48065547904
   0
ARC
   5
29E
 100
AcDbEntity
   8
LEVEL001
   6
CONTINUOUS
  62
7
 100
AcDbCircle
  10
 64.801643201785
  20
 210.95257219301
  30
0.0
  40
 9.2000000000000
 100
AcDbArc
  50
 160.48065547898
  51
 180.00000000000
   0
LINE
   5
29F
 100
AcDbEntity
   8
LEVEL001
 100
AcDbLine
   6
DASHDOT
  62
3
  10
 64.801643201785
  20
 223.52059968840
  30
0.0
  11
 64.801643201785
  21
 178.79522625189
  31
0.0
   0
DIMENSION
   5
2A0
 100
AcDbEntity
   8
LEVEL001
   6
CONTINUOUS
  62
2
 100
AcDbDimension
   2
*D7
  10
 74.001643201785
  20
 169.56448155213
  30
0.0
  11
 64.801643201785
  21
 169.56448155213
  31
0.0
  70
0
   3
GMM006
 100
AcDbAlignedDimension
  13
 55.601643201785
  23
 187.92602352044
  33
0.0
  14
 74.001643201785
  24
 187.92602352044
  34
0.0
 100
AcDbRotatedDimension
   0
DIMENSION
   5
2A1
 100
AcDbEntity
   8
LEVEL001
   6
CONTINUOUS
  62
2
 100
AcDbDimension
   2
*D8
  10
 88.050251314695
  20
 182.15257219301
  30
0.0
  11
 88.050251314695
  21
 201.15257219301
  31
0.0
  70
0
   3
GMM006
 100
AcDbAlignedDimension
  13
 66.203413113289
  23
 220.15257219301
  33
0.0
  14
 66.203413113289
  24
 182.15257219301
  34
0.0
  50
 270.00000000000
 100
AcDbRotatedDimension
   0
DIMENSION
   5
2A2
 100
AcDbEntity
   8
LEVEL001
   6
CONTINUOUS
  62
2
 100
AcDbDimension
   2
*D9
  10
 64.801643201785
  20
 210.95257219301
  30
0.0
  11
 56.328717391391
  21
 219.60497444503
  31
0.0
  70
132
   3
GMM007
 100
AcDbRadialDimension
  15
 58.364791846339
  25
 217.52577115759
  35
0.0
  40
 3.3774933022633
   0
LINE
   5
2A3
 100
AcDbEntity
   8
LEVEL001
 100
AcDbLine
   6
CONTINUOUS
  62
7
  10
 62.301643201785
  20
 264.27936004271
  30
0.0
  11
 62.301643201785
  21
 257.27936004271
  31
0.0
   0
ARC
   5
2A4
 100
AcDbEntity
   8
LEVEL001
   6
CONTINUOUS
  62
7
 100
AcDbCircle
  10
 62.801643201784
  20
 264.27936004271
  30
0.0
  40
 0.50000000000000
 100
AcDbArc
  50
 89.999999999941
  51
 180.00000000000
   0
POINT
   5
2A5
 100
AcDbEntity
   8
LEVEL001
 100
AcDbPoint
  62
7
  10
 62.301643201785
  20
 264.77936004271
  30
0.0
   0
LINE
   5
2A6
 100
AcDbEntity
   8
LEVEL001
 100
AcDbLine
   6
CONTINUOUS
  62
7
  10
 62.801643201785
  20
 264.77936004271
  30
0.0
  11
 64.801643201785
  21
 264.77936004271
  31
0.0
   0
LINE
   5
2A7
 100
AcDbEntity
   8
LEVEL001
 100
AcDbLine
   6
CONTINUOUS
  62
7
  10
 66.801643201785
  20
 264.77936004271
  30
0.0
  11
 64.801643201785
  21
 264.77936004271
  31
0.0
   0
ARC
   5
2A8
 100
AcDbEntity
   8
LEVEL001
   6
CONTINUOUS
  62
7
 100
AcDbCircle
  10
 66.801643201785
  20
 264.27936004271
  30
0.0
  40
 0.50000000000000
 100
AcDbArc
  50
 0.13027551975275E-10
  51
 90.000000000000
   0
POINT
   5
2A9
 100
AcDbEntity
   8
LEVEL001
 100
AcDbPoint
  62
7
  10
 67.301643201785
  20
 264.77936004271
  30
0.0
   0
LINE
   5
2AA
 100
AcDbEntity
   8
LEVEL001
 100
AcDbLine
   6
CONTINUOUS
  62
7
  10
 67.301643201785
  20
 264.27936004271
  30
0.0
  11
 67.301643201785
  21
 257.27936004271
  31
0.0
   0
LINE
   5
2AB
 100
AcDbEntity
   8
LEVEL001
 100
AcDbLine
   6
DASHDOT
  62
3
  10
 64.801643201785
  20
 240.18588385571
  30
0.0
  11
 64.801643201785
  21
 267.75883450858
  31
0.0
   0
LINE
   5
2AC
 100
AcDbEntity
   8
LEVEL001
 100
AcDbLine
   6
CONTINUOUS
  62
7
  10
 55.601643201785
  20
 257.27936004271
  30
0.0
  11
 64.801643201785
  21
 257.27936004271
  31
0.0
   0
ARC
   5
2AD
 100
AcDbEntity
   8
LEVEL001
   6
CONTINUOUS
  62
7
 100
AcDbCircle
  10
 56.302086595205
  20
 243.67936004271
  30
0.0
  40
 0.40000000000000
 100
AcDbArc
  50
 195.18945741215
  51
 269.99999999991
   0
ARC
   5
2AE
 100
AcDbEntity
   8
LEVEL001
   6
CONTINUOUS
  62
7
 100
AcDbCircle
  10
 64.601643201785
  20
 245.93265987499
  30
0.0
  40
 9.0000000000000
 100
AcDbArc
  50
 180.00000000000
  51
 195.18945741251
   0
LINE
   5
2AF
 100
AcDbEntity
   8
LEVEL001
 100
AcDbLine
   6
CONTINUOUS
  62
7
  10
 55.601643201785
  20
 257.27936004271
  30
0.0
  11
 55.601643201785
  21
 245.93265987499
  31
0.0
   0
LINE
   5
2B0
 100
AcDbEntity
   8
LEVEL001
 100
AcDbLine
   6
CONTINUOUS
  62
7
  10
 57.101643201785
  20
 254.27936004271
  30
0.0
  11
 64.801643201785
  21
 254.27936004271
  31
0.0
   0
LINE
   5
2B1
 100
AcDbEntity
   8
LEVEL001
 100
AcDbLine
   6
CONTINUOUS
  62
7
  10
 56.302086595205
  20
 243.27936004271
  30
0.0
  11
 56.701643201785
  21
 243.27936004271
  31
0.0
   0
ARC
   5
2B2
 100
AcDbEntity
   8
LEVEL001
   6
CONTINUOUS
  62
7
 100
AcDbCircle
  10
 56.701643201785
  20
 243.67936004271
  30
0.0
  40
 0.40000000000000
 100
AcDbArc
  50
 270.00000000000
  51
 0.48853319907279E-10
   0
POINT
   5
2B3
 100
AcDbEntity
   8
LEVEL001
 100
AcDbPoint
  62
7
  10
 57.101643201785
  20
 243.27936004271
  30
0.0
   0
LINE
   5
2B4
 100
AcDbEntity
   8
LEVEL001
 100
AcDbLine
   6
CONTINUOUS
  62
7
  10
 57.101643201785
  20
 254.27936004271
  30
0.0
  11
 57.101643201785
  21
 243.67936004271
  31
0.0
   0
LINE
   5
2B5
 100
AcDbEntity
   8
LEVEL001
 100
AcDbLine
   6
CONTINUOUS
  62
7
  10
 74.001643201785
  20
 257.27936004271
  30
0.0
  11
 64.801643201785
  21
 257.27936004271
  31
0.0
   0
ARC
   5
2B6
 100
AcDbEntity
   8
LEVEL001
   6
CONTINUOUS
  62
7
 100
AcDbCircle
  10
 73.301199808364
  20
 243.67936004271
  30
0.0
  40
 0.40000000000000
 100
AcDbArc
  50
 270.00000000010
  51
 344.81054258787
   0
ARC
   5
2B7
 100
AcDbEntity
   8
LEVEL001
   6
CONTINUOUS
  62
7
 100
AcDbCircle
  10
 65.001643201785
  20
 245.93265987499
  30
0.0
  40
 9.0000000000000
 100
AcDbArc
  50
 344.81054258749
  51
0.0
   0
LINE
   5
2B8
 100
AcDbEntity
   8
LEVEL001
 100
AcDbLine
   6
CONTINUOUS
  62
7
  10
 74.001643201785
  20
 257.27936004271
  30
0.0
  11
 74.001643201785
  21
 245.93265987499
  31
0.0
   0
LINE
   5
2B9
 100
AcDbEntity
   8
LEVEL001
 100
AcDbLine
   6
CONTINUOUS
  62
7
  10
 72.501643201785
  20
 254.27936004271
  30
0.0
  11
 64.801643201785
  21
 254.27936004271
  31
0.0
   0
LINE
   5
2BA
 100
AcDbEntity
   8
LEVEL001
 100
AcDbLine
   6
CONTINUOUS
  62
7
  10
 73.301199808365
  20
 243.27936004271
  30
0.0
  11
 72.901643201785
  21
 243.27936004271
  31
0.0
   0
ARC
   5
2BB
 100
AcDbEntity
   8
LEVEL001
   6
CONTINUOUS
  62
7
 100
AcDbCircle
  10
 72.901643201785
  20
 243.67936004271
  30
0.0
  40
 0.40000000000000
 100
AcDbArc
  50
 179.99999999967
  51
 270.00000000000
   0
POINT
   5
2BC
 100
AcDbEntity
   8
LEVEL001
 100
AcDbPoint
  62
7
  10
 72.501643201785
  20
 243.27936004271
  30
0.0
   0
LINE
   5
2BD
 100
AcDbEntity
   8
LEVEL001
 100
AcDbLine
   6
CONTINUOUS
  62
7
  10
 72.501643201785
  20
 254.27936004271
  30
0.0
  11
 72.501643201785
  21
 243.67936004271
  31
0.0
   0
LINE
   5
2BE
 100
AcDbEntity
   8
LEVEL001
 100
AcDbLine
   6
CONTINUOUS
  62
15
  10
 72.501643201785
  20
 243.27936004271
  30
0.0
  11
 57.101643201785
  21
 243.27936004271
  31
0.0
   0
DIMENSION
   5
2BF
 100
AcDbEntity
   8
LEVEL001
   6
CONTINUOUS
  62
2
 100
AcDbDimension
   2
*D10
  10
 72.501643201785
  20
 232.53057353611
  30
0.0
  11
 64.801643201785
  21
 232.53057353611
  31
0.0
  70
0
   3
GMM006
 100
AcDbAlignedDimension
  13
 57.101643201785
  23
 243.27936004271
  33
0.0
  14
 72.501643201785
  24
 243.27936004271
  34
0.0
 100
AcDbRotatedDimension
   0
CIRCLE
   5
2C0
 100
AcDbEntity
   8
LEVEL001
 100
AcDbCircle
   6
CONTINUOUS
  62
7
  10
 64.801643201785
  20
 201.15257219301
  30
0.0
  40
 3.9000000000000
   0
CIRCLE
   5
2C1
 100
AcDbEntity
   8
LEVEL001
 100
AcDbCircle
   6
CONTINUOUS
  62
7
  10
 64.801643201785
  20
 201.15257219301
  30
0.0
  40
 2.2500000000000
   0
INSERT
   5
2C2
 100
AcDbEntity
   8
LEVEL001
 100
AcDbBlockReference
   2
*D11
  10
0.0
  20
0.0
  30
0.0
   0
LINE
   5
2C3
 100
AcDbEntity
   8
LEVEL001
 100
AcDbLine
   6
CONTINUOUS
  62
7
  10
 100.65581109893
  20
 201.15257219301
  30
0.0
  11
 100.65581109893
  21
 210.95257219301
  31
0.0
   0
LINE
   5
2C4
 100
AcDbEntity
   8
LEVEL001
 100
AcDbLine
   6
CONTINUOUS
  62
7
  10
 114.65581109893
  20
 220.15257219301
  30
0.0
  11
 112.05581109893
  21
 220.15257219301
  31
0.0
   0
ARC
   5
2C5
 100
AcDbEntity
   8
LEVEL001
   6
CONTINUOUS
  62
7
 100
AcDbCircle
  10
 112.05581109893
  20
 219.75257219301
  30
0.0
  40
 0.40000000000000
 100
AcDbArc
  50
 90.000000000000
  51
 179.99999999969
   0
POINT
   5
2C6
 100
AcDbEntity
   8
LEVEL001
 100
AcDbPoint
  62
7
  10
 111.65581109893
  20
 220.15257219301
  30
0.0
   0
LINE
   5
2C7
 100
AcDbEntity
   8
LEVEL001
 100
AcDbLine
   6
CONTINUOUS
  62
7
  10
 111.65581109893
  20
 214.35939281861
  30
0.0
  11
 111.65581109893
  21
 219.75257219301
  31
0.0
   0
ARC
   5
2C8
 100
AcDbEntity
   8
LEVEL001
   6
CONTINUOUS
  62
7
 100
AcDbCircle
  10
 112.05581109893
  20
 182.55257219301
  30
0.0
  40
 0.40000000000000
 100
AcDbArc
  50
 180.00000000000
  51
 270.00000000016
   0
POINT
   5
2C9
 100
AcDbEntity
   8
LEVEL001
 100
AcDbPoint
  62
7
  10
 111.65581109893
  20
 182.15257219301
  30
0.0
   0
LINE
   5
2CA
 100
AcDbEntity
   8
LEVEL001
 100
AcDbLine
   6
CONTINUOUS
  62
7
  10
 114.65581109893
  20
 182.15257219301
  30
0.0
  11
 112.05581109893
  21
 182.15257219301
  31
0.0
   0
LINE
   5
2CB
 100
AcDbEntity
   8
LEVEL001
 100
AcDbLine
   6
CONTINUOUS
  62
7
  10
 111.65581109893
  20
 214.35939281861
  30
0.0
  11
 102.65581109893
  21
 214.35939281861
  31
0.0
   0
ARC
   5
2CC
 100
AcDbEntity
   8
LEVEL001
   6
CONTINUOUS
  62
7
 100
AcDbCircle
  10
 102.65581109893
  20
 212.35939281861
  30
0.0
  40
 2.0000000000000
 100
AcDbArc
  50
 90.000000000000
  51
 180.00000000000
   0
POINT
   5
2CD
 100
AcDbEntity
   8
LEVEL001
 100
AcDbPoint
  62
7
  10
 100.65581109893
  20
 214.35939281861
  30
0.0
   0
LINE
   5
2CE
 100
AcDbEntity
   8
LEVEL001
 100
AcDbLine
   6
CONTINUOUS
  62
7
  10
 100.65581109893
  20
 210.95257219301
  30
0.0
  11
 100.65581109893
  21
 212.35939281861
  31
0.0
   0
ARC
   5
2CF
 100
AcDbEntity
   8
LEVEL001
   6
CONTINUOUS
  62
7
 100
AcDbCircle
  10
 108.65581109893
  20
 185.65257219301
  30
0.0
  40
 3.0000000000000
 100
AcDbArc
  50
0.0
  51
 90.000000000000
   0
LINE
   5
2D0
 100
AcDbEntity
   8
LEVEL001
 100
AcDbLine
   6
CONTINUOUS
  62
7
  10
 122.15581109893
  20
 216.15257219301
  30
0.0
  11
 122.15581109893
  21
 218.15257219301
  31
0.0
   0
ARC
   5
2D1
 100
AcDbEntity
   8
LEVEL001
   6
CONTINUOUS
  62
7
 100
AcDbCircle
  10
 121.65581109893
  20
 218.15257219301
  30
0.0
  40
 0.50000000000000
 100
AcDbArc
  50
0.0
  51
 89.999999999990
   0
POINT
   5
2D2
 100
AcDbEntity
   8
LEVEL001
 100
AcDbPoint
  62
7
  10
 122.15581109893
  20
 218.65257219301
  30
0.0
   0
LINE
   5
2D3
 100
AcDbEntity
   8
LEVEL001
 100
AcDbLine
   6
CONTINUOUS
  62
7
  10
 121.65581109893
  20
 218.65257219301
  30
0.0
  11
 114.65581109893
  21
 218.65257219301
  31
0.0
   0
LINE
   5
2D4
 100
AcDbEntity
   8
LEVEL001
 100
AcDbLine
   6
CONTINUOUS
  62
7
  10
 122.15581109893
  20
 214.15257219301
  30
0.0
  11
 122.15581109893
  21
 216.15257219301
  31
0.0
   0
ARC
   5
2D5
 100
AcDbEntity
   8
LEVEL001
   6
CONTINUOUS
  62
7
 100
AcDbCircle
  10
 121.65581109894
  20
 214.15257219301
  30
0.0
  40
 0.50000000000000
 100
AcDbArc
  50
 269.99999999993
  51
0.0
   0
POINT
   5
2D6
 100
AcDbEntity
   8
LEVEL001
 100
AcDbPoint
  62
7
  10
 122.15581109893
  20
 213.65257219301
  30
0.0
   0
LINE
   5
2D7
 100
AcDbEntity
   8
LEVEL001
 100
AcDbLine
   6
CONTINUOUS
  62
7
  10
 121.65581109893
  20
 213.65257219301
  30
0.0
  11
 114.65581109893
  21
 213.65257219301
  31
0.0
   0
LINE
   5
2D8
 100
AcDbEntity
   8
LEVEL001
 100
AcDbLine
   6
CONTINUOUS
  62
7
  10
 122.15581109893
  20
 186.15257219301
  30
0.0
  11
 122.15581109893
  21
 184.15257219301
  31
0.0
   0
ARC
   5
2D9
 100
AcDbEntity
   8
LEVEL001
   6
CONTINUOUS
  62
7
 100
AcDbCircle
  10
 121.65581109894
  20
 184.15257219301
  30
0.0
  40
 0.50000000000000
 100
AcDbArc
  50
 269.99999999993
  51
0.0
   0
POINT
   5
2DA
 100
AcDbEntity
   8
LEVEL001
 100
AcDbPoint
  62
7
  10
 122.15581109893
  20
 183.65257219301
  30
0.0
   0
LINE
   5
2DB
 100
AcDbEntity
   8
LEVEL001
 100
AcDbLine
   6
CONTINUOUS
  62
7
  10
 121.65581109893
  20
 183.65257219301
  30
0.0
  11
 114.65581109893
  21
 183.65257219301
  31
0.0
   0
LINE
   5
2DC
 100
AcDbEntity
   8
LEVEL001
 100
AcDbLine
   6
CONTINUOUS
  62
7
  10
 122.15581109893
  20
 188.15257219301
  30
0.0
  11
 122.15581109893
  21
 186.15257219301
  31
0.0
   0
ARC
   5
2DD
 100
AcDbEntity
   8
LEVEL001
   6
CONTINUOUS
  62
7
 100
AcDbCircle
  10
 121.65581109894
  20
 188.15257219301
  30
0.0
  40
 0.50000000000000
 100
AcDbArc
  50
0.0
  51
 90.000000000098
   0
POINT
   5
2DE
 100
AcDbEntity
   8
LEVEL001
 100
AcDbPoint
  62
7
  10
 122.15581109893
  20
 188.65257219301
  30
0.0
   0
LINE
   5
2DF
 100
AcDbEntity
   8
LEVEL001
 100
AcDbLine
   6
CONTINUOUS
  62
7
  10
 121.65581109893
  20
 188.65257219301
  30
0.0
  11
 114.65581109893
  21
 188.65257219301
  31
0.0
   0
LINE
   5
2E0
 100
AcDbEntity
   8
LEVEL001
 100
AcDbLine
   6
CONTINUOUS
  62
7
  10
 108.65581109893
  20
 188.65257219301
  30
0.0
  11
 104.65581109893
  21
 188.65257219301
  31
0.0
   0
LINE
   5
2E1
 100
AcDbEntity
   8
LEVEL001
 100
AcDbLine
   6
CONTINUOUS
  62
7
  10
 104.65581109893
  20
 188.65257219301
  30
0.0
  11
 103.30911093122
  21
 188.65257219301
  31
0.0
   0
ARC
   5
2E2
 100
AcDbEntity
   8
LEVEL001
   6
CONTINUOUS
  62
7
 100
AcDbCircle
  10
 103.30911093122
  20
 197.65257219301
  30
0.0
  40
 9.0000000000000
 100
AcDbArc
  50
 254.81054258749
  51
 270.00000000000
   0
ARC
   5
2E3
 100
AcDbEntity
   8
LEVEL001
   6
CONTINUOUS
  62
7
 100
AcDbCircle
  10
 101.05581109893
  20
 189.35301558643
  30
0.0
  40
 0.40000000000000
 100
AcDbArc
  50
 180.00000000016
  51
 254.81054258753
   0
LINE
   5
2E4
 100
AcDbEntity
   8
LEVEL001
 100
AcDbLine
   6
DASHDOT
  62
3
  10
 125.16840945500
  20
 186.15257219301
  30
0.0
  11
 112.71966519542
  21
 186.15257219301
  31
0.0
   0
LINE
   5
2E5
 100
AcDbEntity
   8
LEVEL001
 100
AcDbLine
   6
DASHDOT
  62
3
  10
 125.16840945500
  20
 216.15257219301
  30
0.0
  11
 112.71966519542
  21
 216.15257219301
  31
0.0
   0
LINE
   5
2E6
 100
AcDbEntity
   8
LEVEL001
 100
AcDbLine
   6
CONTINUOUS
  62
15
  10
 111.65581109893
  20
 197.28713142860
  30
0.0
  11
 108.65581109893
  21
 188.65257219301
  31
0.0
   0
LINE
   5
2E7
 100
AcDbEntity
   8
LEVEL001
 100
AcDbLine
   6
CONTINUOUS
  62
7
  10
 100.65581109893
  20
 189.35301558643
  30
0.0
  11
 100.65581109893
  21
 201.15257219301
  31
0.0
   0
LINE
   5
2E8
 100
AcDbEntity
   8
LEVEL001
 100
AcDbLine
   6
CONTINUOUS
  62
15
  10
 111.65581109893
  20
 197.28713142860
  30
0.0
  11
 100.65581109893
  21
 197.28713142860
  31
0.0
   0
LINE
   5
2E9
 100
AcDbEntity
   8
LEVEL001
 100
AcDbLine
   6
CONTINUOUS
  62
7
  10
 111.65581109893
  20
 182.55257219301
  30
0.0
  11
 111.65581109893
  21
 185.80707753631
  31
0.0
   0
LINE
   5
2EA
 100
AcDbEntity
   8
LEVEL001
 100
AcDbLine
   6
CONTINUOUS
  62
15
  10
 111.65581109893
  20
 185.80707753631
  30
0.0
  11
 111.65581109893
  21
 197.28713142860
  31
0.0
   0
LINE
   5
2EB
 100
AcDbEntity
   8
LEVEL001
 100
AcDbLine
   6
DASHDOT
  62
3
  10
 127.00148578086
  20
 201.15257219301
  30
0.0
  11
 96.266382536022
  21
 201.15257219301
  31
0.0
   0
DIMENSION
   5
2EC
 100
AcDbEntity
   8
LEVEL001
   6
CONTINUOUS
  62
2
 100
AcDbDimension
   2
*D12
  10
 111.65581109893
  20
 169.56448155213
  30
0.0
  11
 106.15581109893
  21
 169.56448155213
  31
0.0
  70
0
   3
GMM006
 100
AcDbAlignedDimension
  13
 100.65581109893
  23
 189.35301558643
  33
0.0
  14
 111.65581109893
  24
 182.15257219301
  34
0.0
 100
AcDbRotatedDimension
   0
DIMENSION
   5
2ED
 100
AcDbEntity
   8
LEVEL001
   6
CONTINUOUS
  62
2
 100
AcDbDimension
   2
*D13
  10
 111.65581109893
  20
 169.56448155213
  30
0.0
  11
 113.15581109893
  21
 169.56448155213
  31
0.0
  70
0
   3
GMM006
 100
AcDbAlignedDimension
  13
 114.65581109893
  23
 182.15257219301
  33
0.0
  14
 111.65581109893
  24
 182.15257219301
  34
0.0
  50
 180.00000000000
 100
AcDbRotatedDimension
   0
DIMENSION
   5
2EE
 100
AcDbEntity
   8
LEVEL001
   6
CONTINUOUS
  62
2
 100
AcDbDimension
   2
*D14
  10
 100.65581109893
  20
 160.31894889354
  30
0.0
  11
 107.65581109893
  21
 160.31894889354
  31
0.0
  70
0
   3
GMM006
 100
AcDbAlignedDimension
  13
 114.65581109893
  23
 168.06448155213
  33
0.0
  14
 100.65581109893
  24
 168.06448155213
  34
0.0
  50
 180.00000000000
 100
AcDbRotatedDimension
   0
DIMENSION
   5
2EF
 100
AcDbEntity
   8
LEVEL001
   6
CONTINUOUS
  62
2
 100
AcDbDimension
   2
*D15
  10
 122.15581109893
  20
 160.31894889354
  30
0.0
  11
 128.78929192489
  21
 160.31894889354
  31
0.0
  70
128
   3
GMM008
 100
AcDbAlignedDimension
  13
 114.65581109893
  23
 160.31894889354
  33
0.0
  14
 122.15581109893
  24
 183.65257219301
  34
0.0
 100
AcDbRotatedDimension
   0
DIMENSION
   5
2F0
 100
AcDbEntity
   8
LEVEL001
   6
CONTINUOUS
  62
2
 100
AcDbDimension
   2
*D16
  10
 140.41972221227
  20
 186.15257219301
  30
0.0
  11
 140.41972221227
  21
 201.15257219301
  31
0.0
  70
0
   3
GMM006
 100
AcDbAlignedDimension
  13
 125.16840945500
  23
 216.15257219301
  33
0.0
  14
 125.16840945500
  24
 186.15257219301
  34
0.0
  50
 270.00000000000
 100
AcDbRotatedDimension
   0
DIMENSION
   5
2F1
 100
AcDbEntity
   8
LEVEL001
   6
CONTINUOUS
  62
2
 100
AcDbDimension
   2
*D17
  10
 132.63211159280
  20
 213.65257219301
  30
0.0
  11
 132.63211159280
  21
 225.29003531985
  31
0.0
  70
128
   3
GMM009
 100
AcDbAlignedDimension
  13
 122.15581109893
  23
 218.65257219301
  33
0.0
  14
 122.15581109893
  24
 213.65257219301
  34
0.0
  50
 270.00000000000
 100
AcDbRotatedDimension
   0
LINE
   5
2F2
 100
AcDbEntity
   8
LEVEL001
 100
AcDbLine
   6
CONTINUOUS
  62
7
  10
 173.15037481393
  20
 191.35257219301
  30
0.0
  11
 173.15037481393
  21
 197.85257219301
  31
0.0
   0
LINE
   5
2F3
 100
AcDbEntity
   8
LEVEL001
 100
AcDbLine
   6
CONTINUOUS
  62
7
  10
 154.75037481393
  20
 191.35257219301
  30
0.0
  11
 154.75037481393
  21
 197.85257219301
  31
0.0
   0
LINE
   5
2F4
 100
AcDbEntity
   8
LEVEL001
 100
AcDbLine
   6
CONTINUOUS
  62
7
  10
 154.75037481393
  20
 197.85257219301
  30
0.0
  11
 154.75037481393
  21
 201.15257219301
  31
0.0
   0
LINE
   5
2F5
 100
AcDbEntity
   8
LEVEL001
 100
AcDbLine
   6
CONTINUOUS
  62
7
  10
 173.15037481393
  20
 197.85257219301
  30
0.0
  11
 173.15037481393
  21
 201.15257219301
  31
0.0
   0
LINE
   5
2F6
 100
AcDbEntity
   8
LEVEL001
 100
AcDbLine
   6
CONTINUOUS
  62
7
  10
 173.15037481393
  20
 201.15257219301
  30
0.0
  11
 173.15037481393
  21
 210.95257219301
  31
0.0
   0
LINE
   5
2F7
 100
AcDbEntity
   8
LEVEL001
 100
AcDbLine
   6
CONTINUOUS
  62
7
  10
 154.75037481393
  20
 201.15257219301
  30
0.0
  11
 154.75037481393
  21
 210.95257219301
  31
0.0
   0
CIRCLE
   5
2F8
 100
AcDbEntity
   8
LEVEL001
 100
AcDbCircle
   6
CONTINUOUS
  62
7
  10
 163.95037481393
  20
 201.15257219301
  30
0.0
  40
 2.2500000000000
   0
CIRCLE
   5
2F9
 100
AcDbEntity
   8
LEVEL001
 100
AcDbCircle
   6
CONTINUOUS
  62
7
  10
 163.95037481393
  20
 216.15257219301
  30
0.0
  40
 1.2500000000000
   0
CIRCLE
   5
2FA
 100
AcDbEntity
   8
LEVEL001
 100
AcDbCircle
   6
CONTINUOUS
  62
7
  10
 163.95037481393
  20
 186.15257219301
  30
0.0
  40
 1.2500000000000
   0
LINE
   5
2FB
 100
AcDbEntity
   8
LEVEL001
 100
AcDbLine
   6
CONTINUOUS
  62
7
  10
 156.25037481393
  20
 210.95257219301
  30
0.0
  11
 156.25037481393
  21
 191.35257219301
  31
0.0
   0
LINE
   5
2FC
 100
AcDbEntity
   8
LEVEL001
 100
AcDbLine
   6
CONTINUOUS
  62
7
  10
 171.65037481393
  20
 191.35257219301
  30
0.0
  11
 171.65037481393
  21
 210.95257219301
  31
0.0
   0
LINE
   5
2FD
 100
AcDbEntity
   8
LEVEL001
 100
AcDbLine
   6
CONTINUOUS
  62
7
  10
 162.95037481393
  20
 212.15257219301
  30
0.0
  11
 162.95037481393
  21
 212.27958884680
  31
0.0
   0
LINE
   5
2FE
 100
AcDbEntity
   8
LEVEL001
 100
AcDbLine
   6
CONTINUOUS
  62
7
  10
 162.95037481393
  20
 205.23178780388
  30
0.0
  11
 162.95037481393
  21
 212.15257219301
  31
0.0
   0
LINE
   5
2FF
 100
AcDbEntity
   8
LEVEL001
 100
AcDbLine
   6
CONTINUOUS
  62
7
  10
 164.95037481393
  20
 205.23178780388
  30
0.0
  11
 164.95037481393
  21
 212.15257219301
  31
0.0
   0
LINE
   5
300
 100
AcDbEntity
   8
LEVEL001
 100
AcDbLine
   6
CONTINUOUS
  62
7
  10
 164.95037481393
  20
 212.15257219301
  30
0.0
  11
 164.95037481393
  21
 212.27958884680
  31
0.0
   0
ARC
   5
301
 100
AcDbEntity
   8
LEVEL001
   6
CONTINUOUS
  62
7
 100
AcDbCircle
  10
 163.95037481393
  20
 186.15257219301
  30
0.0
  40
 2.5000000000000
 100
AcDbArc
  50
 329.57498685119
  51
 66.421821521799
   0
ARC
   5
302
 100
AcDbEntity
   8
LEVEL001
   6
CONTINUOUS
  62
7
 100
AcDbCircle
  10
 163.95037481393
  20
 201.15257219301
  30
0.0
  40
 4.2000000000000
 100
AcDbArc
  50
 103.77414699803
  51
 256.22585300197
   0
ARC
   5
303
 100
AcDbEntity
   8
LEVEL001
   6
CONTINUOUS
  62
7
 100
AcDbCircle
  10
 163.95037481393
  20
 201.15257219301
  30
0.0
  40
 4.2000000000000
 100
AcDbArc
  50
 283.77414699803
  51
 76.225853001972
   0
ARC
   5
304
 100
AcDbEntity
   8
LEVEL001
   6
CONTINUOUS
  62
7
 100
AcDbCircle
  10
 163.95037481393
  20
 216.15257219301
  30
0.0
  40
 2.5000000000000
 100
AcDbArc
  50
 30.425013148810
  51
 246.42182152180
   0
ARC
   5
305
 100
AcDbEntity
   8
LEVEL001
   6
CONTINUOUS
  62
7
 100
AcDbCircle
  10
 163.95037481393
  20
 216.15257219301
  30
0.0
  40
 2.5000000000000
 100
AcDbArc
  50
 246.42182152180
  51
 30.425013148804
   0
ARC
   5
306
 100
AcDbEntity
   8
LEVEL001
   6
CONTINUOUS
  62
7
 100
AcDbCircle
  10
 163.95037481393
  20
 186.15257219301
  30
0.0
  40
 2.5000000000000
 100
AcDbArc
  50
 66.421821521801
  51
 329.57498685119
   0
ARC
   5
307
 100
AcDbEntity
   8
LEVEL001
   6
CONTINUOUS
  62
7
 100
AcDbCircle
  10
 163.95037481393
  20
 210.95257219301
  30
0.0
  40
 7.7000000000000
 100
AcDbArc
  50
 128.46520008568
  51
 180.00000000000
   0
ARC
   5
308
 100
AcDbEntity
   8
LEVEL001
   6
CONTINUOUS
  62
7
 100
AcDbCircle
  10
 159.47169266959
  20
 216.59007219301
  30
0.0
  40
 0.50000000000000
 100
AcDbArc
  50
 354.42076403246
  51
 128.46520008561
   0
ARC
   5
309
 100
AcDbEntity
   8
LEVEL001
   6
CONTINUOUS
  62
7
 100
AcDbCircle
  10
 168.42905695826
  20
 216.59007219301
  30
0.0
  40
 0.50000000000000
 100
AcDbArc
  50
 51.534799914026
  51
 185.57923596785
   0
ARC
   5
30A
 100
AcDbEntity
   8
LEVEL001
   6
CONTINUOUS
  62
7
 100
AcDbCircle
  10
 163.95037481393
  20
 210.95257219301
  30
0.0
  40
 7.7000000000000
 100
AcDbArc
  50
 0.10574311668243E-11
  51
 51.534799914317
   0
ARC
   5
30B
 100
AcDbEntity
   8
LEVEL001
   6
CONTINUOUS
  62
7
 100
AcDbCircle
  10
 159.47169266959
  20
 185.71507219301
  30
0.0
  40
 0.50000000000000
 100
AcDbArc
  50
 231.53479991433
  51
 5.5792359676169
   0
ARC
   5
30C
 100
AcDbEntity
   8
LEVEL001
   6
CONTINUOUS
  62
7
 100
AcDbCircle
  10
 168.42905695826
  20
 185.71507219301
  30
0.0
  40
 0.50000000000000
 100
AcDbArc
  50
 174.42076403221
  51
 308.46520008589
   0
LINE
   5
30D
 100
AcDbEntity
   8
LEVEL001
 100
AcDbLine
   6
CONTINUOUS
  62
7
  10
 162.95037481393
  20
 190.02555553922
  30
0.0
  11
 162.95037481393
  21
 197.07335658214
  31
0.0
   0
LINE
   5
30E
 100
AcDbEntity
   8
LEVEL001
 100
AcDbLine
   6
CONTINUOUS
  62
7
  10
 164.95037481393
  20
 190.02555553922
  30
0.0
  11
 164.95037481393
  21
 197.07335658214
  31
0.0
   0
ARC
   5
30F
 100
AcDbEntity
   8
LEVEL001
   6
CONTINUOUS
  62
7
 100
AcDbCircle
  10
 163.95037481393
  20
 191.35257219301
  30
0.0
  40
 7.7000000000000
 100
AcDbArc
  50
 308.46520008568
  51
0.0
   0
ARC
   5
310
 100
AcDbEntity
   8
LEVEL001
   6
CONTINUOUS
  62
7
 100
AcDbCircle
  10
 163.95037481393
  20
 191.35257219301
  30
0.0
  40
 7.7000000000000
 100
AcDbArc
  50
 180.00000000000
  51
 231.53479991432
   0
LINE
   5
311
 100
AcDbEntity
   8
LEVEL001
 100
AcDbLine
   6
DASHDOT
  62
3
  10
 163.95037481393
  20
 222.96652842290
  30
0.0
  11
 163.95037481393
  21
 179.09778782731
  31
0.0
   0
LINE
   5
312
 100
AcDbEntity
   8
LEVEL001
 100
AcDbLine
   6
DASHDOT
  62
3
  10
 151.25778376138
  20
 201.15257219301
  30
0.0
  11
 176.88685609228
  21
 201.15257219301
  31
0.0
   0
ARC
   5
313
 100
AcDbEntity
   8
LEVEL001
   6
CONTINUOUS
  62
7
 100
AcDbCircle
  10
 163.95037481393
  20
 216.15257219301
  30
0.0
  40
 4.0000000000000
 100
AcDbArc
  50
 174.42076403235
  51
 255.52248781407
   0
ARC
   5
314
 100
AcDbEntity
   8
LEVEL001
   6
CONTINUOUS
  62
7
 100
AcDbCircle
  10
 163.95037481393
  20
 216.15257219301
  30
0.0
  40
 4.0000000000000
 100
AcDbArc
  50
 284.47751218593
  51
 5.5792359676478
   0
ARC
   5
315
 100
AcDbEntity
   8
LEVEL001
   6
CONTINUOUS
  62
7
 100
AcDbCircle
  10
 163.95037481393
  20
 186.15257219301
  30
0.0
  40
 4.0000000000000
 100
AcDbArc
  50
 104.47751218593
  51
 185.57923596765
   0
ARC
   5
316
 100
AcDbEntity
   8
LEVEL001
   6
CONTINUOUS
  62
7
 100
AcDbCircle
  10
 163.95037481393
  20
 186.15257219301
  30
0.0
  40
 4.0000000000000
 100
AcDbArc
  50
 354.42076403235
  51
 75.522487814066
   0
ARC
   5
317
 100
AcDbEntity
   8
LEVEL001
   6
CONTINUOUS
  62
7
 100
AcDbCircle
  10
 163.95037481393
  20
 210.95257219301
  30
0.0
  40
 9.2000000000000
 100
AcDbArc
  50
 90.000000000001
  51
 180.00000000000
   0
ARC
   5
318
 100
AcDbEntity
   8
LEVEL001
   6
CONTINUOUS
  62
7
 100
AcDbCircle
  10
 163.95037481393
  20
 210.95257219301
  30
0.0
  40
 9.2000000000000
 100
AcDbArc
  50
0.0
  51
 90.000000000001
   0
ARC
   5
319
 100
AcDbEntity
   8
LEVEL001
   6
CONTINUOUS
  62
7
 100
AcDbCircle
  10
 163.95037481393
  20
 191.35257219301
  30
0.0
  40
 9.2000000000000
 100
AcDbArc
  50
 180.00000000000
  51
 270.00000000000
   0
ARC
   5
31A
 100
AcDbEntity
   8
LEVEL001
   6
CONTINUOUS
  62
7
 100
AcDbCircle
  10
 163.95037481393
  20
 191.35257219301
  30
0.0
  40
 9.2000000000000
 100
AcDbArc
  50
 270.00000000000
  51
 0.14160382581820E-11
   0
LINE
   5
31B
 100
AcDbEntity
   8
LEVEL001
 100
AcDbLine
   6
DASHDOT
  62
3
  10
 159.15205377369
  20
 186.15257219301
  30
0.0
  11
 168.61147259045
  21
 186.15257219301
  31
0.0
   0
LINE
   5
31C
 100
AcDbEntity
   8
LEVEL001
 100
AcDbLine
   6
DASHDOT
  62
3
  10
 159.08969593347
  20
 216.15257219301
  30
0.0
  11
 168.94812263422
  21
 216.15257219301
  31
0.0
   0
TEXT
   5
31D
 100
AcDbEntity
   8
LEVEL001
  62
7
 100
AcDbText
  10
 100.96474149962
  20
 149.09652644086
  30
0.0
  40
 4.0000000000000
   1
ブラケット
   7
STANDARD
 100
AcDbText
   0
LINE
   5
31E
 100
AcDbEntity
   8
LEVEL001
 100
AcDbLine
   6
CONTINUOUS
  62
7
  10
 99.935969205976
  20
 147.55839447952
  30
0.0
  11
 120.49526124139
  21
 147.55839447952
  31
0.0
   0
ARC
   5
31F
 100
AcDbEntity
   8
LEVEL002
   6
CONTINUOUS
  62
7
 100
AcDbCircle
  10
 233.72674219545
  20
 208.10257219301
  30
0.0
  40
 0.30000000000000
 100
AcDbArc
  50
 331.57373514162
  51
 28.426264860111
   0
ARC
   5
320
 100
AcDbEntity
   8
LEVEL002
   6
CONTINUOUS
  62
7
 100
AcDbCircle
  10
 233.72674219544
  20
 202.54257219302
  30
0.0
  40
 0.30000000000000
 100
AcDbArc
  50
 331.57373514049
  51
 28.426264857896
   0
ARC
   5
321
 100
AcDbEntity
   8
LEVEL002
   6
CONTINUOUS
  62
7
 100
AcDbCircle
  10
 233.72674219544
  20
 194.20257219302
  30
0.0
  40
 0.30000000000000
 100
AcDbArc
  50
 331.57373514034
  51
 28.426264857717
   0
ARC
   5
322
 100
AcDbEntity
   8
LEVEL002
   6
CONTINUOUS
  62
7
 100
AcDbCircle
  10
 248.62261602568
  20
 194.20257219301
  30
0.0
  40
 0.30000000000000
 100
AcDbArc
  50
 151.57373514055
  51
 208.42626485793
   0
ARC
   5
323
 100
AcDbEntity
   8
LEVEL002
   6
CONTINUOUS
  62
7
 100
AcDbCircle
  10
 248.62261602567
  20
 202.54257219301
  30
0.0
  40
 0.30000000000000
 100
AcDbArc
  50
 151.57373514132
  51
 208.42626485951
   0
ARC
   5
324
 100
AcDbEntity
   8
LEVEL002
   6
CONTINUOUS
  62
7
 100
AcDbCircle
  10
 248.62261602568
  20
 208.10257219301
  30
0.0
  40
 0.30000000000000
 100
AcDbArc
  50
 151.57373514064
  51
 208.42626485823
   0
LINE
   5
325
 100
AcDbEntity
   8
LEVEL002
 100
AcDbLine
   6
CONTINUOUS
  62
7
  10
 246.97467911056
  20
 193.65257219301
  30
0.0
  11
 246.97467911056
  21
 193.62257219301
  31
0.0
   0
LINE
   5
326
 100
AcDbEntity
   8
LEVEL002
 100
AcDbLine
   6
DASHDOT
  62
3
  10
 230.19173701054
  20
 201.15257219301
  30
0.0
  11
 252.81353979543
  21
 201.15257219301
  31
0.0
   0
LINE
   5
327
 100
AcDbEntity
   8
LEVEL002
 100
AcDbLine
   6
DASHDOT
  62
3
  10
 232.31180764292
  20
 208.65257219301
  30
0.0
  11
 250.18785774776
  21
 208.65257219301
  31
0.0
   0
LINE
   5
328
 100
AcDbEntity
   8
LEVEL002
 100
AcDbLine
   6
CONTINUOUS
  62
7
  10
 241.17467911056
  20
 216.15257219301
  30
0.0
  11
 240.86498146027
  21
 215.74581456624
  31
0.0
   0
LINE
   5
329
 100
AcDbEntity
   8
LEVEL002
 100
AcDbLine
   6
CONTINUOUS
  62
7
  10
 241.17467911056
  20
 216.15257219301
  30
0.0
  11
 241.48437676085
  21
 215.74581456624
  31
0.0
   0
LINE
   5
32A
 100
AcDbEntity
   8
LEVEL002
 100
AcDbLine
   6
CONTINUOUS
  62
7
  10
 240.52101103995
  20
 216.12403242870
  30
0.0
  11
 240.24794314580
  21
 215.69183070876
  31
0.0
   0
LINE
   5
32B
 100
AcDbEntity
   8
LEVEL002
 100
AcDbLine
   6
CONTINUOUS
  62
7
  10
 240.52101103995
  20
 216.12403242870
  30
0.0
  11
 240.86498146027
  21
 215.74581456624
  31
0.0
   0
LINE
   5
32C
 100
AcDbEntity
   8
LEVEL002
 100
AcDbLine
   6
CONTINUOUS
  62
7
  10
 239.87231777806
  20
 216.03863034060
  30
0.0
  11
 239.63795785160
  21
 215.58427384356
  31
0.0
   0
LINE
   5
32D
 100
AcDbEntity
   8
LEVEL002
 100
AcDbLine
   6
CONTINUOUS
  62
7
  10
 239.87231777806
  20
 216.03863034060
  30
0.0
  11
 240.24794314580
  21
 215.69183070876
  31
0.0
   0
LINE
   5
32E
 100
AcDbEntity
   8
LEVEL002
 100
AcDbLine
   6
CONTINUOUS
  62
7
  10
 239.23353627229
  20
 215.89701589018
  30
0.0
  11
 239.03966793408
  21
 215.42396254332
  31
0.0
   0
LINE
   5
32F
 100
AcDbEntity
   8
LEVEL002
 100
AcDbLine
   6
CONTINUOUS
  62
7
  10
 239.23353627229
  20
 215.89701589018
  30
0.0
  11
 239.63795785160
  21
 215.58427384356
  31
0.0
   0
LINE
   5
330
 100
AcDbEntity
   8
LEVEL002
 100
AcDbLine
   6
CONTINUOUS
  62
7
  10
 238.60952803562
  20
 215.70026684890
  30
0.0
  11
 238.45762674077
  21
 215.21211687384
  31
0.0
   0
LINE
   5
331
 100
AcDbEntity
   8
LEVEL002
 100
AcDbLine
   6
CONTINUOUS
  62
7
  10
 238.60952803562
  20
 215.70026684890
  30
0.0
  11
 239.03966793408
  21
 215.42396254332
  31
0.0
   0
LINE
   5
332
 100
AcDbEntity
   8
LEVEL002
 100
AcDbLine
   6
CONTINUOUS
  62
7
  10
 238.00504214750
  20
 215.44988059578
  30
0.0
  11
 237.89626395659
  21
 214.95034910858
  31
0.0
   0
LINE
   5
333
 100
AcDbEntity
   8
LEVEL002
 100
AcDbLine
   6
CONTINUOUS
  62
7
  10
 238.00504214750
  20
 215.44988059578
  30
0.0
  11
 238.45762674077
  21
 215.21211687384
  31
0.0
   0
LINE
   5
334
 100
AcDbEntity
   8
LEVEL002
 100
AcDbLine
   6
CONTINUOUS
  62
7
  10
 237.42467911056
  20
 215.14776272139
  30
0.0
  11
 237.35985189130
  21
 214.64065145828
  31
0.0
   0
LINE
   5
335
 100
AcDbEntity
   8
LEVEL002
 100
AcDbLine
   6
CONTINUOUS
  62
7
  10
 237.42467911056
  20
 215.14776272139
  30
0.0
  11
 237.89626395659
  21
 214.95034910858
  31
0.0
   0
LINE
   5
336
 100
AcDbEntity
   8
LEVEL002
 100
AcDbLine
   6
CONTINUOUS
  62
7
  10
 236.87285583793
  20
 214.79621252518
  30
0.0
  11
 236.85247296460
  21
 214.28538090908
  31
0.0
   0
LINE
   5
337
 100
AcDbEntity
   8
LEVEL002
 100
AcDbLine
   6
CONTINUOUS
  62
7
  10
 236.87285583793
  20
 214.79621252518
  30
0.0
  11
 237.35985189130
  21
 214.64065145828
  31
0.0
   0
LINE
   5
338
 100
AcDbEntity
   8
LEVEL002
 100
AcDbLine
   6
CONTINUOUS
  62
7
  10
 236.35377203791
  20
 214.39790551640
  30
0.0
  11
 236.37798863649
  21
 213.88724128436
  31
0.0
   0
LINE
   5
339
 100
AcDbEntity
   8
LEVEL002
 100
AcDbLine
   6
CONTINUOUS
  62
7
  10
 236.35377203791
  20
 214.39790551640
  30
0.0
  11
 236.85247296460
  21
 214.28538090908
  31
0.0
   0
LINE
   5
33A
 100
AcDbEntity
   8
LEVEL002
 100
AcDbLine
   6
CONTINUOUS
  62
7
  10
 235.87137825166
  20
 213.95587305191
  30
0.0
  11
 235.94001001921
  21
 213.44926266708
  31
0.0
   0
LINE
   5
33B
 100
AcDbEntity
   8
LEVEL002
 100
AcDbLine
   6
CONTINUOUS
  62
7
  10
 235.87137825166
  20
 213.95587305191
  30
0.0
  11
 236.37798863649
  21
 213.88724128436
  31
0.0
   0
LINE
   5
33C
 100
AcDbEntity
   8
LEVEL002
 100
AcDbLine
   6
CONTINUOUS
  62
7
  10
 235.42934578717
  20
 213.47347926566
  30
0.0
  11
 235.54187039449
  21
 212.97477833897
  31
0.0
   0
LINE
   5
33D
 100
AcDbEntity
   8
LEVEL002
 100
AcDbLine
   6
CONTINUOUS
  62
7
  10
 235.42934578717
  20
 213.47347926566
  30
0.0
  11
 235.94001001921
  21
 213.44926266708
  31
0.0
   0
LINE
   5
33E
 100
AcDbEntity
   8
LEVEL002
 100
AcDbLine
   6
CONTINUOUS
  62
7
  10
 235.03103877839
  20
 212.95439546564
  30
0.0
  11
 235.18659984529
  21
 212.46739941227
  31
0.0
   0
LINE
   5
33F
 100
AcDbEntity
   8
LEVEL002
 100
AcDbLine
   6
CONTINUOUS
  62
7
  10
 235.03103877839
  20
 212.95439546564
  30
0.0
  11
 235.54187039449
  21
 212.97477833897
  31
0.0
   0
LINE
   5
340
 100
AcDbEntity
   8
LEVEL002
 100
AcDbLine
   6
CONTINUOUS
  62
7
  10
 234.67948858218
  20
 212.40257219301
  30
0.0
  11
 234.87690219499
  21
 211.93098734698
  31
0.0
   0
LINE
   5
341
 100
AcDbEntity
   8
LEVEL002
 100
AcDbLine
   6
CONTINUOUS
  62
7
  10
 234.67948858218
  20
 212.40257219301
  30
0.0
  11
 235.18659984529
  21
 212.46739941227
  31
0.0
   0
LINE
   5
342
 100
AcDbEntity
   8
LEVEL002
 100
AcDbLine
   6
CONTINUOUS
  62
7
  10
 234.37737070779
  20
 211.82220915607
  30
0.0
  11
 234.61513442973
  21
 211.36962456280
  31
0.0
   0
LINE
   5
343
 100
AcDbEntity
   8
LEVEL002
 100
AcDbLine
   6
CONTINUOUS
  62
7
  10
 234.37737070779
  20
 211.82220915607
  30
0.0
  11
 234.87690219499
  21
 211.93098734698
  31
0.0
   0
LINE
   5
344
 100
AcDbEntity
   8
LEVEL002
 100
AcDbLine
   6
CONTINUOUS
  62
7
  10
 241.82834718117
  20
 216.12403242870
  30
0.0
  11
 242.10141507532
  21
 215.69183070876
  31
0.0
   0
LINE
   5
345
 100
AcDbEntity
   8
LEVEL002
 100
AcDbLine
   6
CONTINUOUS
  62
7
  10
 241.82834718117
  20
 216.12403242870
  30
0.0
  11
 241.48437676085
  21
 215.74581456624
  31
0.0
   0
LINE
   5
346
 100
AcDbEntity
   8
LEVEL002
 100
AcDbLine
   6
CONTINUOUS
  62
7
  10
 242.47704044306
  20
 216.03863034060
  30
0.0
  11
 242.71140036952
  21
 215.58427384356
  31
0.0
   0
LINE
   5
347
 100
AcDbEntity
   8
LEVEL002
 100
AcDbLine
   6
CONTINUOUS
  62
7
  10
 242.47704044306
  20
 216.03863034060
  30
0.0
  11
 242.10141507532
  21
 215.69183070876
  31
0.0
   0
LINE
   5
348
 100
AcDbEntity
   8
LEVEL002
 100
AcDbLine
   6
CONTINUOUS
  62
7
  10
 243.11582194883
  20
 215.89701589018
  30
0.0
  11
 243.30969028704
  21
 215.42396254332
  31
0.0
   0
LINE
   5
349
 100
AcDbEntity
   8
LEVEL002
 100
AcDbLine
   6
CONTINUOUS
  62
7
  10
 243.11582194883
  20
 215.89701589018
  30
0.0
  11
 242.71140036952
  21
 215.58427384356
  31
0.0
   0
LINE
   5
34A
 100
AcDbEntity
   8
LEVEL002
 100
AcDbLine
   6
CONTINUOUS
  62
7
  10
 243.73983018550
  20
 215.70026684890
  30
0.0
  11
 243.89173148035
  21
 215.21211687384
  31
0.0
   0
LINE
   5
34B
 100
AcDbEntity
   8
LEVEL002
 100
AcDbLine
   6
CONTINUOUS
  62
7
  10
 243.73983018550
  20
 215.70026684890
  30
0.0
  11
 243.30969028704
  21
 215.42396254332
  31
0.0
   0
LINE
   5
34C
 100
AcDbEntity
   8
LEVEL002
 100
AcDbLine
   6
CONTINUOUS
  62
7
  10
 244.34431607362
  20
 215.44988059578
  30
0.0
  11
 244.45309426453
  21
 214.95034910858
  31
0.0
   0
LINE
   5
34D
 100
AcDbEntity
   8
LEVEL002
 100
AcDbLine
   6
CONTINUOUS
  62
7
  10
 244.34431607362
  20
 215.44988059578
  30
0.0
  11
 243.89173148035
  21
 215.21211687384
  31
0.0
   0
LINE
   5
34E
 100
AcDbEntity
   8
LEVEL002
 100
AcDbLine
   6
CONTINUOUS
  62
7
  10
 244.92467911056
  20
 215.14776272139
  30
0.0
  11
 244.98950632982
  21
 214.64065145828
  31
0.0
   0
LINE
   5
34F
 100
AcDbEntity
   8
LEVEL002
 100
AcDbLine
   6
CONTINUOUS
  62
7
  10
 244.92467911056
  20
 215.14776272139
  30
0.0
  11
 244.45309426453
  21
 214.95034910858
  31
0.0
   0
LINE
   5
350
 100
AcDbEntity
   8
LEVEL002
 100
AcDbLine
   6
CONTINUOUS
  62
7
  10
 245.47650238319
  20
 214.79621252518
  30
0.0
  11
 245.49688525652
  21
 214.28538090908
  31
0.0
   0
LINE
   5
351
 100
AcDbEntity
   8
LEVEL002
 100
AcDbLine
   6
CONTINUOUS
  62
7
  10
 245.47650238319
  20
 214.79621252518
  30
0.0
  11
 244.98950632982
  21
 214.64065145828
  31
0.0
   0
LINE
   5
352
 100
AcDbEntity
   8
LEVEL002
 100
AcDbLine
   6
CONTINUOUS
  62
7
  10
 245.99558618321
  20
 214.39790551640
  30
0.0
  11
 245.97136958463
  21
 213.88724128436
  31
0.0
   0
LINE
   5
353
 100
AcDbEntity
   8
LEVEL002
 100
AcDbLine
   6
CONTINUOUS
  62
7
  10
 245.99558618321
  20
 214.39790551640
  30
0.0
  11
 245.49688525652
  21
 214.28538090908
  31
0.0
   0
LINE
   5
354
 100
AcDbEntity
   8
LEVEL002
 100
AcDbLine
   6
CONTINUOUS
  62
7
  10
 246.47797996946
  20
 213.95587305191
  30
0.0
  11
 246.40934820191
  21
 213.44926266708
  31
0.0
   0
LINE
   5
355
 100
AcDbEntity
   8
LEVEL002
 100
AcDbLine
   6
CONTINUOUS
  62
7
  10
 246.47797996946
  20
 213.95587305191
  30
0.0
  11
 245.97136958463
  21
 213.88724128436
  31
0.0
   0
LINE
   5
356
 100
AcDbEntity
   8
LEVEL002
 100
AcDbLine
   6
CONTINUOUS
  62
7
  10
 246.92001243395
  20
 213.47347926566
  30
0.0
  11
 246.80748782663
  21
 212.97477833897
  31
0.0
   0
LINE
   5
357
 100
AcDbEntity
   8
LEVEL002
 100
AcDbLine
   6
CONTINUOUS
  62
7
  10
 246.92001243395
  20
 213.47347926566
  30
0.0
  11
 246.40934820191
  21
 213.44926266708
  31
0.0
   0
LINE
   5
358
 100
AcDbEntity
   8
LEVEL002
 100
AcDbLine
   6
CONTINUOUS
  62
7
  10
 247.31831944273
  20
 212.95439546564
  30
0.0
  11
 247.16275837583
  21
 212.46739941227
  31
0.0
   0
LINE
   5
359
 100
AcDbEntity
   8
LEVEL002
 100
AcDbLine
   6
CONTINUOUS
  62
7
  10
 247.31831944273
  20
 212.95439546564
  30
0.0
  11
 246.80748782663
  21
 212.97477833897
  31
0.0
   0
LINE
   5
35A
 100
AcDbEntity
   8
LEVEL002
 100
AcDbLine
   6
CONTINUOUS
  62
7
  10
 247.66986963894
  20
 212.40257219301
  30
0.0
  11
 247.47245602613
  21
 211.93098734698
  31
0.0
   0
LINE
   5
35B
 100
AcDbEntity
   8
LEVEL002
 100
AcDbLine
   6
CONTINUOUS
  62
7
  10
 247.66986963894
  20
 212.40257219301
  30
0.0
  11
 247.16275837583
  21
 212.46739941227
  31
0.0
   0
LINE
   5
35C
 100
AcDbEntity
   8
LEVEL002
 100
AcDbLine
   6
CONTINUOUS
  62
7
  10
 247.97198751333
  20
 211.82220915607
  30
0.0
  11
 247.73422379139
  21
 211.36962456280
  31
0.0
   0
LINE
   5
35D
 100
AcDbEntity
   8
LEVEL002
 100
AcDbLine
   6
CONTINUOUS
  62
7
  10
 247.97198751333
  20
 211.82220915607
  30
0.0
  11
 247.47245602613
  21
 211.93098734698
  31
0.0
   0
LINE
   5
35E
 100
AcDbEntity
   8
LEVEL002
 100
AcDbLine
   6
CONTINUOUS
  62
7
  10
 236.35377203791
  20
 187.90723886962
  30
0.0
  11
 236.37798863649
  21
 188.41790310166
  31
0.0
   0
LINE
   5
35F
 100
AcDbEntity
   8
LEVEL002
 100
AcDbLine
   6
CONTINUOUS
  62
7
  10
 235.87137825166
  20
 188.34927133411
  30
0.0
  11
 235.94001001921
  21
 188.85588171894
  31
0.0
   0
LINE
   5
360
 100
AcDbEntity
   8
LEVEL002
 100
AcDbLine
   6
CONTINUOUS
  62
7
  10
 235.87137825166
  20
 188.34927133411
  30
0.0
  11
 236.37798863649
  21
 188.41790310166
  31
0.0
   0
LINE
   5
361
 100
AcDbEntity
   8
LEVEL002
 100
AcDbLine
   6
CONTINUOUS
  62
7
  10
 235.42934578717
  20
 188.83166512036
  30
0.0
  11
 235.54187039449
  21
 189.33036604705
  31
0.0
   0
LINE
   5
362
 100
AcDbEntity
   8
LEVEL002
 100
AcDbLine
   6
CONTINUOUS
  62
7
  10
 235.42934578717
  20
 188.83166512036
  30
0.0
  11
 235.94001001921
  21
 188.85588171894
  31
0.0
   0
LINE
   5
363
 100
AcDbEntity
   8
LEVEL002
 100
AcDbLine
   6
CONTINUOUS
  62
7
  10
 235.03103877839
  20
 189.35074892038
  30
0.0
  11
 235.18659984529
  21
 189.83774497375
  31
0.0
   0
LINE
   5
364
 100
AcDbEntity
   8
LEVEL002
 100
AcDbLine
   6
CONTINUOUS
  62
7
  10
 235.03103877839
  20
 189.35074892038
  30
0.0
  11
 235.54187039449
  21
 189.33036604705
  31
0.0
   0
LINE
   5
365
 100
AcDbEntity
   8
LEVEL002
 100
AcDbLine
   6
CONTINUOUS
  62
7
  10
 234.67948858218
  20
 189.90257219301
  30
0.0
  11
 234.87690219499
  21
 190.37415703904
  31
0.0
   0
LINE
   5
366
 100
AcDbEntity
   8
LEVEL002
 100
AcDbLine
   6
CONTINUOUS
  62
7
  10
 234.67948858218
  20
 189.90257219301
  30
0.0
  11
 235.18659984529
  21
 189.83774497375
  31
0.0
   0
LINE
   5
367
 100
AcDbEntity
   8
LEVEL002
 100
AcDbLine
   6
CONTINUOUS
  62
7
  10
 234.37737070779
  20
 190.48293522995
  30
0.0
  11
 234.61513442973
  21
 190.93551982322
  31
0.0
   0
LINE
   5
368
 100
AcDbEntity
   8
LEVEL002
 100
AcDbLine
   6
CONTINUOUS
  62
7
  10
 234.37737070779
  20
 190.48293522995
  30
0.0
  11
 234.87690219499
  21
 190.37415703904
  31
0.0
   0
LINE
   5
369
 100
AcDbEntity
   8
LEVEL002
 100
AcDbLine
   6
CONTINUOUS
  62
7
  10
 238.00504214750
  20
 186.85526379024
  30
0.0
  11
 237.89626395659
  21
 187.35479527744
  31
0.0
   0
LINE
   5
36A
 100
AcDbEntity
   8
LEVEL002
 100
AcDbLine
   6
CONTINUOUS
  62
7
  10
 238.00504214750
  20
 186.85526379024
  30
0.0
  11
 238.45762674077
  21
 187.09302751218
  31
0.0
   0
LINE
   5
36B
 100
AcDbEntity
   8
LEVEL002
 100
AcDbLine
   6
CONTINUOUS
  62
7
  10
 237.42467911056
  20
 187.15738166463
  30
0.0
  11
 237.35985189130
  21
 187.66449292774
  31
0.0
   0
LINE
   5
36C
 100
AcDbEntity
   8
LEVEL002
 100
AcDbLine
   6
CONTINUOUS
  62
7
  10
 237.42467911056
  20
 187.15738166463
  30
0.0
  11
 237.89626395659
  21
 187.35479527744
  31
0.0
   0
LINE
   5
36D
 100
AcDbEntity
   8
LEVEL002
 100
AcDbLine
   6
CONTINUOUS
  62
7
  10
 236.87285583793
  20
 187.50893186084
  30
0.0
  11
 236.85247296460
  21
 188.01976347694
  31
0.0
   0
LINE
   5
36E
 100
AcDbEntity
   8
LEVEL002
 100
AcDbLine
   6
CONTINUOUS
  62
7
  10
 236.87285583793
  20
 187.50893186084
  30
0.0
  11
 237.35985189130
  21
 187.66449292774
  31
0.0
   0
LINE
   5
36F
 100
AcDbEntity
   8
LEVEL002
 100
AcDbLine
   6
CONTINUOUS
  62
7
  10
 236.35377203791
  20
 187.90723886962
  30
0.0
  11
 236.85247296460
  21
 188.01976347694
  31
0.0
   0
LINE
   5
370
 100
AcDbEntity
   8
LEVEL002
 100
AcDbLine
   6
CONTINUOUS
  62
7
  10
 244.92467911056
  20
 187.15738166463
  30
0.0
  11
 244.98950632982
  21
 187.66449292774
  31
0.0
   0
LINE
   5
371
 100
AcDbEntity
   8
LEVEL002
 100
AcDbLine
   6
CONTINUOUS
  62
7
  10
 244.92467911056
  20
 187.15738166463
  30
0.0
  11
 244.45309426453
  21
 187.35479527744
  31
0.0
   0
LINE
   5
372
 100
AcDbEntity
   8
LEVEL002
 100
AcDbLine
   6
CONTINUOUS
  62
7
  10
 245.47650238319
  20
 187.50893186084
  30
0.0
  11
 245.49688525652
  21
 188.01976347694
  31
0.0
   0
LINE
   5
373
 100
AcDbEntity
   8
LEVEL002
 100
AcDbLine
   6
CONTINUOUS
  62
7
  10
 245.47650238319
  20
 187.50893186084
  30
0.0
  11
 244.98950632982
  21
 187.66449292774
  31
0.0
   0
LINE
   5
374
 100
AcDbEntity
   8
LEVEL002
 100
AcDbLine
   6
CONTINUOUS
  62
7
  10
 245.99558618321
  20
 187.90723886962
  30
0.0
  11
 245.97136958463
  21
 188.41790310166
  31
0.0
   0
LINE
   5
375
 100
AcDbEntity
   8
LEVEL002
 100
AcDbLine
   6
CONTINUOUS
  62
7
  10
 245.99558618321
  20
 187.90723886962
  30
0.0
  11
 245.49688525652
  21
 188.01976347694
  31
0.0
   0
LINE
   5
376
 100
AcDbEntity
   8
LEVEL002
 100
AcDbLine
   6
CONTINUOUS
  62
7
  10
 246.47797996946
  20
 188.34927133411
  30
0.0
  11
 246.40934820191
  21
 188.85588171894
  31
0.0
   0
LINE
   5
377
 100
AcDbEntity
   8
LEVEL002
 100
AcDbLine
   6
CONTINUOUS
  62
7
  10
 246.47797996946
  20
 188.34927133411
  30
0.0
  11
 245.97136958463
  21
 188.41790310166
  31
0.0
   0
LINE
   5
378
 100
AcDbEntity
   8
LEVEL002
 100
AcDbLine
   6
CONTINUOUS
  62
7
  10
 246.92001243395
  20
 188.83166512036
  30
0.0
  11
 246.80748782663
  21
 189.33036604705
  31
0.0
   0
LINE
   5
379
 100
AcDbEntity
   8
LEVEL002
 100
AcDbLine
   6
CONTINUOUS
  62
7
  10
 246.92001243395
  20
 188.83166512036
  30
0.0
  11
 246.40934820191
  21
 188.85588171894
  31
0.0
   0
LINE
   5
37A
 100
AcDbEntity
   8
LEVEL002
 100
AcDbLine
   6
CONTINUOUS
  62
7
  10
 247.31831944273
  20
 189.35074892038
  30
0.0
  11
 247.16275837583
  21
 189.83774497375
  31
0.0
   0
LINE
   5
37B
 100
AcDbEntity
   8
LEVEL002
 100
AcDbLine
   6
CONTINUOUS
  62
7
  10
 247.31831944273
  20
 189.35074892038
  30
0.0
  11
 246.80748782663
  21
 189.33036604705
  31
0.0
   0
LINE
   5
37C
 100
AcDbEntity
   8
LEVEL002
 100
AcDbLine
   6
CONTINUOUS
  62
7
  10
 247.66986963894
  20
 189.90257219301
  30
0.0
  11
 247.47245602613
  21
 190.37415703904
  31
0.0
   0
LINE
   5
37D
 100
AcDbEntity
   8
LEVEL002
 100
AcDbLine
   6
CONTINUOUS
  62
7
  10
 247.66986963894
  20
 189.90257219301
  30
0.0
  11
 247.16275837583
  21
 189.83774497375
  31
0.0
   0
LINE
   5
37E
 100
AcDbEntity
   8
LEVEL002
 100
AcDbLine
   6
CONTINUOUS
  62
7
  10
 247.97198751333
  20
 190.48293522995
  30
0.0
  11
 247.73422379139
  21
 190.93551982322
  31
0.0
   0
LINE
   5
37F
 100
AcDbEntity
   8
LEVEL002
 100
AcDbLine
   6
CONTINUOUS
  62
7
  10
 247.97198751333
  20
 190.48293522995
  30
0.0
  11
 247.47245602613
  21
 190.37415703904
  31
0.0
   0
LINE
   5
380
 100
AcDbEntity
   8
LEVEL002
 100
AcDbLine
   6
CONTINUOUS
  62
7
  10
 241.17467911056
  20
 186.15257219301
  30
0.0
  11
 241.48437676085
  21
 186.55932981978
  31
0.0
   0
LINE
   5
381
 100
AcDbEntity
   8
LEVEL002
 100
AcDbLine
   6
CONTINUOUS
  62
7
  10
 241.82834718117
  20
 186.18111195732
  30
0.0
  11
 242.10141507532
  21
 186.61331367726
  31
0.0
   0
LINE
   5
382
 100
AcDbEntity
   8
LEVEL002
 100
AcDbLine
   6
CONTINUOUS
  62
7
  10
 241.82834718117
  20
 186.18111195732
  30
0.0
  11
 241.48437676085
  21
 186.55932981978
  31
0.0
   0
LINE
   5
383
 100
AcDbEntity
   8
LEVEL002
 100
AcDbLine
   6
CONTINUOUS
  62
7
  10
 242.47704044306
  20
 186.26651404542
  30
0.0
  11
 242.71140036952
  21
 186.72087054246
  31
0.0
   0
LINE
   5
384
 100
AcDbEntity
   8
LEVEL002
 100
AcDbLine
   6
CONTINUOUS
  62
7
  10
 242.47704044306
  20
 186.26651404542
  30
0.0
  11
 242.10141507532
  21
 186.61331367726
  31
0.0
   0
LINE
   5
385
 100
AcDbEntity
   8
LEVEL002
 100
AcDbLine
   6
CONTINUOUS
  62
7
  10
 243.11582194883
  20
 186.40812849584
  30
0.0
  11
 243.30969028704
  21
 186.88118184270
  31
0.0
   0
LINE
   5
386
 100
AcDbEntity
   8
LEVEL002
 100
AcDbLine
   6
CONTINUOUS
  62
7
  10
 243.11582194883
  20
 186.40812849584
  30
0.0
  11
 242.71140036952
  21
 186.72087054246
  31
0.0
   0
LINE
   5
387
 100
AcDbEntity
   8
LEVEL002
 100
AcDbLine
   6
CONTINUOUS
  62
7
  10
 243.73983018550
  20
 186.60487753712
  30
0.0
  11
 243.89173148035
  21
 187.09302751218
  31
0.0
   0
LINE
   5
388
 100
AcDbEntity
   8
LEVEL002
 100
AcDbLine
   6
CONTINUOUS
  62
7
  10
 243.73983018550
  20
 186.60487753712
  30
0.0
  11
 243.30969028704
  21
 186.88118184270
  31
0.0
   0
LINE
   5
389
 100
AcDbEntity
   8
LEVEL002
 100
AcDbLine
   6
CONTINUOUS
  62
7
  10
 244.34431607362
  20
 186.85526379024
  30
0.0
  11
 244.45309426453
  21
 187.35479527744
  31
0.0
   0
LINE
   5
38A
 100
AcDbEntity
   8
LEVEL002
 100
AcDbLine
   6
CONTINUOUS
  62
7
  10
 244.34431607362
  20
 186.85526379024
  30
0.0
  11
 243.89173148035
  21
 187.09302751218
  31
0.0
   0
LINE
   5
38B
 100
AcDbEntity
   8
LEVEL002
 100
AcDbLine
   6
CONTINUOUS
  62
7
  10
 240.52101103995
  20
 186.18111195732
  30
0.0
  11
 240.24794314580
  21
 186.61331367726
  31
0.0
   0
LINE
   5
38C
 100
AcDbEntity
   8
LEVEL002
 100
AcDbLine
   6
CONTINUOUS
  62
7
  10
 240.52101103995
  20
 186.18111195732
  30
0.0
  11
 240.86498146027
  21
 186.55932981978
  31
0.0
   0
LINE
   5
38D
 100
AcDbEntity
   8
LEVEL002
 100
AcDbLine
   6
CONTINUOUS
  62
7
  10
 239.87231777806
  20
 186.26651404542
  30
0.0
  11
 239.63795785160
  21
 186.72087054246
  31
0.0
   0
LINE
   5
38E
 100
AcDbEntity
   8
LEVEL002
 100
AcDbLine
   6
CONTINUOUS
  62
7
  10
 239.87231777806
  20
 186.26651404542
  30
0.0
  11
 240.24794314580
  21
 186.61331367726
  31
0.0
   0
LINE
   5
38F
 100
AcDbEntity
   8
LEVEL002
 100
AcDbLine
   6
CONTINUOUS
  62
7
  10
 239.23353627229
  20
 186.40812849584
  30
0.0
  11
 239.03966793408
  21
 186.88118184270
  31
0.0
   0
LINE
   5
390
 100
AcDbEntity
   8
LEVEL002
 100
AcDbLine
   6
CONTINUOUS
  62
7
  10
 239.23353627229
  20
 186.40812849584
  30
0.0
  11
 239.63795785160
  21
 186.72087054246
  31
0.0
   0
LINE
   5
391
 100
AcDbEntity
   8
LEVEL002
 100
AcDbLine
   6
CONTINUOUS
  62
7
  10
 238.60952803562
  20
 186.60487753712
  30
0.0
  11
 238.45762674077
  21
 187.09302751218
  31
0.0
   0
LINE
   5
392
 100
AcDbEntity
   8
LEVEL002
 100
AcDbLine
   6
CONTINUOUS
  62
7
  10
 238.60952803562
  20
 186.60487753712
  30
0.0
  11
 239.03966793408
  21
 186.88118184270
  31
0.0
   0
LINE
   5
393
 100
AcDbEntity
   8
LEVEL002
 100
AcDbLine
   6
CONTINUOUS
  62
7
  10
 241.17467911056
  20
 186.15257219301
  30
0.0
  11
 240.86498146027
  21
 186.55932981978
  31
0.0
   0
LINE
   5
394
 100
AcDbEntity
   8
LEVEL002
 100
AcDbLine
   6
DASHDOT
  62
3
  10
 232.31180764292
  20
 193.65257219301
  30
0.0
  11
 250.18785774776
  21
 193.65257219301
  31
0.0
   0
LINE
   5
395
 100
AcDbEntity
   8
LEVEL002
 100
AcDbLine
   6
CONTINUOUS
  62
7
  10
 234.40071284780
  20
 211.30290138836
  30
0.0
  11
 234.61513442973
  21
 211.36962456280
  31
0.0
   0
ARC
   5
396
 100
AcDbEntity
   8
LEVEL002
   6
CONTINUOUS
  62
7
 100
AcDbCircle
  10
 236.29467911056
  20
 209.49257219301
  30
0.0
  40
 2.6200000000000
 100
AcDbArc
  50
 136.29342731224
  51
 208.42626485895
   0
LINE
   5
397
 100
AcDbEntity
   8
LEVEL002
 100
AcDbLine
   6
CONTINUOUS
  62
7
  10
 247.94864537332
  20
 211.30290138836
  30
0.0
  11
 247.73422379139
  21
 211.36962456280
  31
0.0
   0
LINE
   5
398
 100
AcDbEntity
   8
LEVEL002
 100
AcDbLine
   6
CONTINUOUS
  62
7
  10
 234.40071284780
  20
 191.00224299766
  30
0.0
  11
 234.61513442973
  21
 190.93551982322
  31
0.0
   0
ARC
   5
399
 100
AcDbEntity
   8
LEVEL002
   6
CONTINUOUS
  62
7
 100
AcDbCircle
  10
 236.29467911056
  20
 192.81257219301
  30
0.0
  40
 2.6200000000000
 100
AcDbArc
  50
 151.57373514102
  51
 223.70657268772
   0
ARC
   5
39A
 100
AcDbEntity
   8
LEVEL002
   6
CONTINUOUS
  62
7
 100
AcDbCircle
  10
 246.05467911056
  20
 192.81257219301
  30
0.0
  40
 2.6200000000000
 100
AcDbArc
  50
 316.29342731223
  51
 28.426264858962
   0
LINE
   5
39B
 100
AcDbEntity
   8
LEVEL002
 100
AcDbLine
   6
CONTINUOUS
  62
7
  10
 247.94864537331
  20
 191.00224299766
  30
0.0
  11
 247.73422379139
  21
 190.93551982322
  31
0.0
   0
ARC
   5
39C
 100
AcDbEntity
   8
LEVEL002
   6
CONTINUOUS
  62
7
 100
AcDbCircle
  10
 248.62261602567
  20
 199.76257219301
  30
0.0
  40
 0.30000000000000
 100
AcDbArc
  50
 151.57373514147
  51
 208.42626485921
   0
ARC
   5
39D
 100
AcDbEntity
   8
LEVEL002
   6
CONTINUOUS
  62
7
 100
AcDbCircle
  10
 246.05467911056
  20
 195.59257219301
  30
0.0
  40
 2.6200000000000
 100
AcDbArc
  50
 331.57373514102
  51
 28.426264858958
   0
ARC
   5
39E
 100
AcDbEntity
   8
LEVEL002
   6
CONTINUOUS
  62
7
 100
AcDbCircle
  10
 248.62261602567
  20
 196.98257219301
  30
0.0
  40
 0.30000000000000
 100
AcDbArc
  50
 151.57373514054
  51
 208.42626485872
   0
ARC
   5
39F
 100
AcDbEntity
   8
LEVEL002
   6
CONTINUOUS
  62
7
 100
AcDbCircle
  10
 246.05467911056
  20
 198.37257219301
  30
0.0
  40
 2.6200000000000
 100
AcDbArc
  50
 331.57373514104
  51
 28.426264858985
   0
ARC
   5
3A0
 100
AcDbEntity
   8
LEVEL002
   6
CONTINUOUS
  62
7
 100
AcDbCircle
  10
 248.62261602567
  20
 205.32257219300
  30
0.0
  40
 0.30000000000000
 100
AcDbArc
  50
 151.57373513892
  51
 208.42626485783
   0
ARC
   5
3A1
 100
AcDbEntity
   8
LEVEL002
   6
CONTINUOUS
  62
7
 100
AcDbCircle
  10
 236.29467911056
  20
 203.93257219301
  30
0.0
  40
 2.6200000000000
 100
AcDbArc
  50
 151.57373514103
  51
 208.42626485898
   0
ARC
   5
3A2
 100
AcDbEntity
   8
LEVEL002
   6
CONTINUOUS
  62
7
 100
AcDbCircle
  10
 233.72674219545
  20
 205.32257219301
  30
0.0
  40
 0.30000000000000
 100
AcDbArc
  50
 331.57373514139
  51
 28.426264859616
   0
ARC
   5
3A3
 100
AcDbEntity
   8
LEVEL002
   6
CONTINUOUS
  62
7
 100
AcDbCircle
  10
 236.29467911056
  20
 206.71257219301
  30
0.0
  40
 2.6200000000000
 100
AcDbArc
  50
 151.57373514102
  51
 208.42626485895
   0
ARC
   5
3A4
 100
AcDbEntity
   8
LEVEL002
   6
CONTINUOUS
  62
7
 100
AcDbCircle
  10
 236.29467911056
  20
 201.15257219301
  30
0.0
  40
 2.6200000000000
 100
AcDbArc
  50
 151.57373514105
  51
 208.42626485899
   0
ARC
   5
3A5
 100
AcDbEntity
   8
LEVEL002
   6
CONTINUOUS
  62
7
 100
AcDbCircle
  10
 233.72674219545
  20
 199.76257219301
  30
0.0
  40
 0.30000000000000
 100
AcDbArc
  50
 331.57373514141
  51
 28.426264859168
   0
ARC
   5
3A6
 100
AcDbEntity
   8
LEVEL002
   6
CONTINUOUS
  62
7
 100
AcDbCircle
  10
 236.29467911056
  20
 195.59257219301
  30
0.0
  40
 2.6200000000000
 100
AcDbArc
  50
 151.57373514104
  51
 208.42626485900
   0
ARC
   5
3A7
 100
AcDbEntity
   8
LEVEL002
   6
CONTINUOUS
  62
7
 100
AcDbCircle
  10
 233.72674219545
  20
 196.98257219301
  30
0.0
  40
 0.30000000000000
 100
AcDbArc
  50
 331.57373514092
  51
 28.426264858775
   0
ARC
   5
3A8
 100
AcDbEntity
   8
LEVEL002
   6
CONTINUOUS
  62
7
 100
AcDbCircle
  10
 236.29467911056
  20
 198.37257219301
  30
0.0
  40
 2.6200000000000
 100
AcDbArc
  50
 151.57373514102
  51
 208.42626485895
   0
ARC
   5
3A9
 100
AcDbEntity
   8
LEVEL002
   6
CONTINUOUS
  62
7
 100
AcDbCircle
  10
 241.17467911056
  20
 193.65257219301
  30
0.0
  40
 5.8000000000000
 100
AcDbArc
  50
 180.00000000000
  51
0.0
   0
LINE
   5
3AA
 100
AcDbEntity
   8
LEVEL002
 100
AcDbLine
   6
CONTINUOUS
  62
7
  10
 246.97467911056
  20
 193.65257219301
  30
0.0
  11
 246.97467911056
  21
 208.65257219301
  31
0.0
   0
ARC
   5
3AB
 100
AcDbEntity
   8
LEVEL002
   6
CONTINUOUS
  62
7
 100
AcDbCircle
  10
 241.17467911056
  20
 208.65257219301
  30
0.0
  40
 5.8000000000000
 100
AcDbArc
  50
0.0
  51
 180.00000000000
   0
LINE
   5
3AC
 100
AcDbEntity
   8
LEVEL002
 100
AcDbLine
   6
CONTINUOUS
  62
7
  10
 235.37467911056
  20
 193.65257219301
  30
0.0
  11
 235.37467911056
  21
 208.65257219301
  31
0.0
   0
LINE
   5
3AD
 100
AcDbEntity
   8
LEVEL002
 100
AcDbLine
   6
DASHDOT
  62
3
  10
 241.17467911056
  20
 217.92260569813
  30
0.0
  11
 241.17467911056
  21
 182.03007468613
  31
0.0
   0
LINE
   5
3AE
 100
AcDbEntity
   8
LEVEL001
 100
AcDbLine
   6
CONTINUOUS
  62
7
  10
 283.71331366213
  20
 186.15257219301
  30
0.0
  11
 283.71331366213
  21
 216.15257219301
  31
0.0
   0
DIMENSION
   5
3AF
 100
AcDbEntity
   8
LEVEL001
   6
CONTINUOUS
  62
2
 100
AcDbDimension
   2
*D18
  10
 248.67467911056
  20
 174.61611470336
  30
0.0
  11
 241.17467911056
  21
 174.61611470336
  31
0.0
  70
0
   3
GMM006
 100
AcDbAlignedDimension
  13
 233.67467911056
  23
 192.11894387443
  33
0.0
  14
 248.67467911056
  24
 192.11894387443
  34
0.0
 100
AcDbRotatedDimension
   0
POLYLINE
   5
3B0
 100
AcDbEntity
   8
LEVEL001
   6
DIVIDE
  62
3
 100
AcDb2dPolyline
  66
1
  10
0.0
  20
0.0
  30
0.0
  70
0
   0
VERTEX
   5
3B1
 100
AcDbEntity
   8
LEVEL001
   6
DIVIDE
  62
3
 100
AcDbVertex
 100
AcDb2dVertex
  10
 341.38458170614
  20
 219.66097751650
  30
0.0
   0
VERTEX
   5
3B2
 100
AcDbEntity
   8
LEVEL001
   6
DIVIDE
  62
3
 100
AcDbVertex
 100
AcDb2dVertex
  10
 341.38458170614
  20
 219.66097751650
  30
0.0
   0
VERTEX
   5
3B3
 100
AcDbEntity
   8
LEVEL001
   6
DIVIDE
  62
3
 100
AcDbVertex
 100
AcDb2dVertex
  10
 341.15312762804
  20
 219.30582243010
  30
0.0
   0
VERTEX
   5
3B4
 100
AcDbEntity
   8
LEVEL001
   6
DIVIDE
  62
3
 100
AcDbVertex
 100
AcDb2dVertex
  10
 340.92220319003
  20
 218.95055224884
  30
0.0
   0
VERTEX
   5
3B5
 100
AcDbEntity
   8
LEVEL001
   6
DIVIDE
  62
3
 100
AcDbVertex
 100
AcDb2dVertex
  10
 340.69233803220
  20
 218.59505187785
  30
0.0
   0
VERTEX
   5
3B6
 100
AcDbEntity
   8
LEVEL001
   6
DIVIDE
  62
3
 100
AcDbVertex
 100
AcDb2dVertex
  10
 340.46406179465
  20
 218.23920622226
  30
0.0
   0
VERTEX
   5
3B7
 100
AcDbEntity
   8
LEVEL001
   6
DIVIDE
  62
3
 100
AcDbVertex
 100
AcDb2dVertex
  10
 340.23790411747
  20
 217.88290018720
  30
0.0
   0
VERTEX
   5
3B8
 100
AcDbEntity
   8
LEVEL001
   6
DIVIDE
  62
3
 100
AcDbVertex
 100
AcDb2dVertex
  10
 340.01439464074
  20
 217.52601867782
  30
0.0
   0
VERTEX
   5
3B9
 100
AcDbEntity
   8
LEVEL001
   6
DIVIDE
  62
3
 100
AcDbVertex
 100
AcDb2dVertex
  10
 339.79406300456
  20
 217.16844659923
  30
0.0
   0
VERTEX
   5
3BA
 100
AcDbEntity
   8
LEVEL001
   6
DIVIDE
  62
3
 100
AcDbVertex
 100
AcDb2dVertex
  10
 339.57743884903
  20
 216.81006885659
  30
0.0
   0
VERTEX
   5
3BB
 100
AcDbEntity
   8
LEVEL001
   6
DIVIDE
  62
3
 100
AcDbVertex
 100
AcDb2dVertex
  10
 339.36505181422
  20
 216.45077035501
  30
0.0
   0
VERTEX
   5
3BC
 100
AcDbEntity
   8
LEVEL001
   6
DIVIDE
  62
3
 100
AcDbVertex
 100
AcDb2dVertex
  10
 339.15743154024
  20
 216.09043599964
  30
0.0
   0
VERTEX
   5
3BD
 100
AcDbEntity
   8
LEVEL001
   6
DIVIDE
  62
3
 100
AcDbVertex
 100
AcDb2dVertex
  10
 338.95510766718
  20
 215.72895069561
  30
0.0
   0
VERTEX
   5
3BE
 100
AcDbEntity
   8
LEVEL001
   6
DIVIDE
  62
3
 100
AcDbVertex
 100
AcDb2dVertex
  10
 338.75860983512
  20
 215.36619934806
  30
0.0
   0
VERTEX
   5
3BF
 100
AcDbEntity
   8
LEVEL001
   6
DIVIDE
  62
3
 100
AcDbVertex
 100
AcDb2dVertex
  10
 338.56846768417
  20
 215.00206686211
  30
0.0
   0
VERTEX
   5
3C0
 100
AcDbEntity
   8
LEVEL001
   6
DIVIDE
  62
3
 100
AcDbVertex
 100
AcDb2dVertex
  10
 338.38521085440
  20
 214.63643814290
  30
0.0
   0
VERTEX
   5
3C1
 100
AcDbEntity
   8
LEVEL001
   6
DIVIDE
  62
3
 100
AcDbVertex
 100
AcDb2dVertex
  10
 338.04147171882
  20
 213.90023162524
  30
0.0
   0
VERTEX
   5
3C2
 100
AcDbEntity
   8
LEVEL001
   6
DIVIDE
  62
3
 100
AcDbVertex
 100
AcDb2dVertex
  10
 338.04147171882
  20
 213.90023162524
  30
0.0
   0
VERTEX
   5
3C3
 100
AcDbEntity
   8
LEVEL001
   6
DIVIDE
  62
3
 100
AcDbVertex
 100
AcDb2dVertex
  10
 337.88204869317
  20
 213.52942363705
  30
0.0
   0
VERTEX
   5
3C4
 100
AcDbEntity
   8
LEVEL001
   6
DIVIDE
  62
3
 100
AcDbVertex
 100
AcDb2dVertex
  10
 337.73162954909
  20
 213.15665903615
  30
0.0
   0
VERTEX
   5
3C5
 100
AcDbEntity
   8
LEVEL001
   6
DIVIDE
  62
3
 100
AcDbVertex
 100
AcDb2dVertex
  10
 337.59074392666
  20
 212.78182272765
  30
0.0
   0
VERTEX
   5
3C6
 100
AcDbEntity
   8
LEVEL001
   6
DIVIDE
  62
3
 100
AcDbVertex
 100
AcDb2dVertex
  10
 337.45992146597
  20
 212.40479961670
  30
0.0
   0
VERTEX
   5
3C7
 100
AcDbEntity
   8
LEVEL001
   6
DIVIDE
  62
3
 100
AcDbVertex
 100
AcDb2dVertex
  10
 337.33969180711
  20
 212.02547460843
  30
0.0
   0
VERTEX
   5
3C8
 100
AcDbEntity
   8
LEVEL001
   6
DIVIDE
  62
3
 100
AcDbVertex
 100
AcDb2dVertex
  10
 337.23058459017
  20
 211.64373260797
  30
0.0
   0
VERTEX
   5
3C9
 100
AcDbEntity
   8
LEVEL001
   6
DIVIDE
  62
3
 100
AcDbVertex
 100
AcDb2dVertex
  10
 337.13312945525
  20
 211.25945852045
  30
0.0
   0
VERTEX
   5
3CA
 100
AcDbEntity
   8
LEVEL001
   6
DIVIDE
  62
3
 100
AcDbVertex
 100
AcDb2dVertex
  10
 337.04785604244
  20
 210.87253725102
  30
0.0
   0
VERTEX
   5
3CB
 100
AcDbEntity
   8
LEVEL001
   6
DIVIDE
  62
3
 100
AcDbVertex
 100
AcDb2dVertex
  10
 336.97529399183
  20
 210.48285370480
  30
0.0
   0
VERTEX
   5
3CC
 100
AcDbEntity
   8
LEVEL001
   6
DIVIDE
  62
3
 100
AcDbVertex
 100
AcDb2dVertex
  10
 336.91597294351
  20
 210.09029278693
  30
0.0
   0
VERTEX
   5
3CD
 100
AcDbEntity
   8
LEVEL001
   6
DIVIDE
  62
3
 100
AcDbVertex
 100
AcDb2dVertex
  10
 336.87042253758
  20
 209.69473940254
  30
0.0
   0
VERTEX
   5
3CE
 100
AcDbEntity
   8
LEVEL001
   6
DIVIDE
  62
3
 100
AcDbVertex
 100
AcDb2dVertex
  10
 336.83917241411
  20
 209.29607845677
  30
0.0
   0
VERTEX
   5
3CF
 100
AcDbEntity
   8
LEVEL001
   6
DIVIDE
  62
3
 100
AcDbVertex
 100
AcDb2dVertex
  10
 336.82275221322
  20
 208.89419485474
  30
0.0
   0
VERTEX
   5
3D0
 100
AcDbEntity
   8
LEVEL001
   6
DIVIDE
  62
3
 100
AcDbVertex
 100
AcDb2dVertex
  10
 336.82169157498
  20
 208.48897350160
  30
0.0
   0
VERTEX
   5
3D1
 100
AcDbEntity
   8
LEVEL001
   6
DIVIDE
  62
3
 100
AcDbVertex
 100
AcDb2dVertex
  10
 336.86776754685
  20
 207.66805716251
  30
0.0
   0
VERTEX
   5
3D2
 100
AcDbEntity
   8
LEVEL001
   6
DIVIDE
  62
3
 100
AcDbVertex
 100
AcDb2dVertex
  10
 336.86776754685
  20
 207.66805716251
  30
0.0
   0
VERTEX
   5
3D3
 100
AcDbEntity
   8
LEVEL001
   6
DIVIDE
  62
3
 100
AcDbVertex
 100
AcDb2dVertex
  10
 336.97937765272
  20
 206.83264498153
  30
0.0
   0
VERTEX
   5
3D4
 100
AcDbEntity
   8
LEVEL001
   6
DIVIDE
  62
3
 100
AcDbVertex
 100
AcDb2dVertex
  10
 337.14946002471
  20
 205.98299770454
  30
0.0
   0
VERTEX
   5
3D5
 100
AcDbEntity
   8
LEVEL001
   6
DIVIDE
  62
3
 100
AcDbVertex
 100
AcDb2dVertex
  10
 337.36869299721
  20
 205.11961237841
  30
0.0
   0
VERTEX
   5
3D6
 100
AcDbEntity
   8
LEVEL001
   6
DIVIDE
  62
3
 100
AcDbVertex
 100
AcDb2dVertex
  10
 337.62775490460
  20
 204.24298604999
  30
0.0
   0
VERTEX
   5
3D7
 100
AcDbEntity
   8
LEVEL001
   6
DIVIDE
  62
3
 100
AcDbVertex
 100
AcDb2dVertex
  10
 337.91732408128
  20
 203.35361576613
  30
0.0
   0
VERTEX
   5
3D8
 100
AcDbEntity
   8
LEVEL001
   6
DIVIDE
  62
3
 100
AcDbVertex
 100
AcDb2dVertex
  10
 338.22807886162
  20
 202.45199857369
  30
0.0
   0
VERTEX
   5
3D9
 100
AcDbEntity
   8
LEVEL001
   6
DIVIDE
  62
3
 100
AcDbVertex
 100
AcDb2dVertex
  10
 338.55069758001
  20
 201.53863151953
  30
0.0
   0
VERTEX
   5
3DA
 100
AcDbEntity
   8
LEVEL001
   6
DIVIDE
  62
3
 100
AcDbVertex
 100
AcDb2dVertex
  10
 338.87585857085
  20
 200.61401165049
  30
0.0
   0
VERTEX
   5
3DB
 100
AcDbEntity
   8
LEVEL001
   6
DIVIDE
  62
3
 100
AcDbVertex
 100
AcDb2dVertex
  10
 339.19424016851
  20
 199.67863601344
  30
0.0
   0
VERTEX
   5
3DC
 100
AcDbEntity
   8
LEVEL001
   6
DIVIDE
  62
3
 100
AcDbVertex
 100
AcDb2dVertex
  10
 339.49652070739
  20
 198.73300165524
  30
0.0
   0
VERTEX
   5
3DD
 100
AcDbEntity
   8
LEVEL001
   6
DIVIDE
  62
3
 100
AcDbVertex
 100
AcDb2dVertex
  10
 339.77337852186
  20
 197.77760562272
  30
0.0
   0
VERTEX
   5
3DE
 100
AcDbEntity
   8
LEVEL001
   6
DIVIDE
  62
3
 100
AcDbVertex
 100
AcDb2dVertex
  10
 340.01549194633
  20
 196.81294496276
  30
0.0
   0
VERTEX
   5
3DF
 100
AcDbEntity
   8
LEVEL001
   6
DIVIDE
  62
3
 100
AcDbVertex
 100
AcDb2dVertex
  10
 340.21353931517
  20
 195.83951672220
  30
0.0
   0
VERTEX
   5
3E0
 100
AcDbEntity
   8
LEVEL001
   6
DIVIDE
  62
3
 100
AcDbVertex
 100
AcDb2dVertex
  10
 340.35819896277
  20
 194.85781794791
  30
0.0
   0
VERTEX
   5
3E1
 100
AcDbEntity
   8
LEVEL001
   6
DIVIDE
  62
3
 100
AcDbVertex
 100
AcDb2dVertex
  10
 340.45006843180
  20
 192.87159698552
  30
0.0
   0
VERTEX
   5
3E2
 100
AcDbEntity
   8
LEVEL001
   6
DIVIDE
  62
3
 100
AcDbVertex
 100
AcDb2dVertex
  10
 340.45006843180
  20
 192.87159698552
  30
0.0
   0
VERTEX
   5
3E3
 100
AcDbEntity
   8
LEVEL001
   6
DIVIDE
  62
3
 100
AcDbVertex
 100
AcDb2dVertex
  10
 340.39233033926
  20
 191.97436335501
  30
0.0
   0
VERTEX
   5
3E4
 100
AcDbEntity
   8
LEVEL001
   6
DIVIDE
  62
3
 100
AcDbVertex
 100
AcDb2dVertex
  10
 340.27529553951
  20
 191.07534101582
  30
0.0
   0
VERTEX
   5
3E5
 100
AcDbEntity
   8
LEVEL001
   6
DIVIDE
  62
3
 100
AcDbVertex
 100
AcDb2dVertex
  10
 340.10482839128
  20
 190.17818140525
  30
0.0
   0
VERTEX
   5
3E6
 100
AcDbEntity
   8
LEVEL001
   6
DIVIDE
  62
3
 100
AcDbVertex
 100
AcDb2dVertex
  10
 339.88679325326
  20
 189.28653596059
  30
0.0
   0
VERTEX
   5
3E7
 100
AcDbEntity
   8
LEVEL001
   6
DIVIDE
  62
3
 100
AcDbVertex
 100
AcDb2dVertex
  10
 339.62705448416
  20
 188.40405611914
  30
0.0
   0
VERTEX
   5
3E8
 100
AcDbEntity
   8
LEVEL001
   6
DIVIDE
  62
3
 100
AcDbVertex
 100
AcDb2dVertex
  10
 339.33147644269
  20
 187.53439331819
  30
0.0
   0
VERTEX
   5
3E9
 100
AcDbEntity
   8
LEVEL001
   6
DIVIDE
  62
3
 100
AcDbVertex
 100
AcDb2dVertex
  10
 339.00592348756
  20
 186.68119899505
  30
0.0
   0
VERTEX
   5
3EA
 100
AcDbEntity
   8
LEVEL001
   6
DIVIDE
  62
3
 100
AcDbVertex
 100
AcDb2dVertex
  10
 338.65625997748
  20
 185.84812458699
  30
0.0
   0
VERTEX
   5
3EB
 100
AcDbEntity
   8
LEVEL001
   6
DIVIDE
  62
3
 100
AcDbVertex
 100
AcDb2dVertex
  10
 338.28835027114
  20
 185.03882153133
  30
0.0
   0
VERTEX
   5
3EC
 100
AcDbEntity
   8
LEVEL001
   6
DIVIDE
  62
3
 100
AcDbVertex
 100
AcDb2dVertex
  10
 337.90805872727
  20
 184.25694126536
  30
0.0
   0
VERTEX
   5
3ED
 100
AcDbEntity
   8
LEVEL001
   6
DIVIDE
  62
3
 100
AcDbVertex
 100
AcDb2dVertex
  10
 337.52124970456
  20
 183.50613522636
  30
0.0
   0
VERTEX
   5
3EE
 100
AcDbEntity
   8
LEVEL001
   6
DIVIDE
  62
3
 100
AcDbVertex
 100
AcDb2dVertex
  10
 337.13378756172
  20
 182.79005485164
  30
0.0
   0
VERTEX
   5
3EF
 100
AcDbEntity
   8
LEVEL001
   6
DIVIDE
  62
3
 100
AcDbVertex
 100
AcDb2dVertex
  10
 336.75153665746
  20
 182.11235157850
  30
0.0
   0
VERTEX
   5
3F0
 100
AcDbEntity
   8
LEVEL001
   6
DIVIDE
  62
3
 100
AcDbVertex
 100
AcDb2dVertex
  10
 336.38036135049
  20
 181.47667684423
  30
0.0
   0
VERTEX
   5
3F1
 100
AcDbEntity
   8
LEVEL001
   6
DIVIDE
  62
3
 100
AcDbVertex
 100
AcDb2dVertex
  10
 335.69469496324
  20
 180.34601874147
  30
0.0
   0
SEQEND
   5
3F2
 100
AcDbEntity
   8
LEVEL001
   6
DIVIDE
  62
3
   0
LINE
   5
3F3
 100
AcDbEntity
   8
LEVEL001
 100
AcDbLine
   6
DASHDOT
  62
3
  10
 278.22606629966
  20
 201.15257219301
  30
0.0
  11
 351.46617838099
  21
 201.15257219301
  31
0.0
   0
LINE
   5
3F4
 100
AcDbEntity
   8
LEVEL001
 100
AcDbLine
   6
CONTINUOUS
  62
15
  10
 283.71331366213
  20
 208.10257219301
  30
0.0
  11
 336.83529862860
  21
 208.10257219301
  31
0.0
   0
LINE
   5
3F5
 100
AcDbEntity
   8
LEVEL001
 100
AcDbLine
   6
CONTINUOUS
  62
15
  10
 283.71331366213
  20
 205.32257219301
  30
0.0
  11
 337.31355323712
  21
 205.32257219301
  31
0.0
   0
LINE
   5
3F6
 100
AcDbEntity
   8
LEVEL001
 100
AcDbLine
   6
CONTINUOUS
  62
15
  10
 283.71331366213
  20
 202.54257219301
  30
0.0
  11
 338.19635943274
  21
 202.54257219301
  31
0.0
   0
LINE
   5
3F7
 100
AcDbEntity
   8
LEVEL001
 100
AcDbLine
   6
CONTINUOUS
  62
15
  10
 283.71331366213
  20
 199.76257219301
  30
0.0
  11
 339.16633155910
  21
 199.76257219301
  31
0.0
   0
LINE
   5
3F8
 100
AcDbEntity
   8
LEVEL001
 100
AcDbLine
   6
CONTINUOUS
  62
15
  10
 283.71331366213
  20
 196.98257219301
  30
0.0
  11
 339.97600055634
  21
 196.98257219301
  31
0.0
   0
LINE
   5
3F9
 100
AcDbEntity
   8
LEVEL001
 100
AcDbLine
   6
CONTINUOUS
  62
15
  10
 283.71331366213
  20
 194.20257219301
  30
0.0
  11
 340.42011941481
  21
 194.20257219301
  31
0.0
   0
ARC
   5
3FA
 100
AcDbEntity
   8
LEVEL002
   6
CONTINUOUS
  62
7
 100
AcDbCircle
  10
 246.05467911056
  20
 209.49257219301
  30
0.0
  40
 2.6200000000000
 100
AcDbArc
  50
 331.57373514098
  51
 43.706572687742
   0
ARC
   5
3FB
 100
AcDbEntity
   8
LEVEL002
   6
CONTINUOUS
  62
7
 100
AcDbCircle
  10
 246.05467911056
  20
 206.71257219301
  30
0.0
  40
 2.6200000000000
 100
AcDbArc
  50
 331.57373514082
  51
 28.426264858878
   0
ARC
   5
3FC
 100
AcDbEntity
   8
LEVEL002
   6
CONTINUOUS
  62
7
 100
AcDbCircle
  10
 246.05467911056
  20
 203.93257219301
  30
0.0
  40
 2.6200000000000
 100
AcDbArc
  50
 331.57373514109
  51
 28.426264858909
   0
ARC
   5
3FD
 100
AcDbEntity
   8
LEVEL002
   6
CONTINUOUS
  62
7
 100
AcDbCircle
  10
 246.05467911056
  20
 201.15257219301
  30
0.0
  40
 2.6200000000000
 100
AcDbArc
  50
 331.57373514104
  51
 28.426264859057
   0
LINE
   5
3FE
 100
AcDbEntity
   8
LEVEL001
 100
AcDbLine
   6
CONTINUOUS
  62
7
  10
 283.71331366213
  20
 216.15257219301
  30
0.0
  11
 339.19282545639
  21
 216.15257219300
  31
0.0
   0
LINE
   5
3FF
 100
AcDbEntity
   8
LEVEL001
 100
AcDbLine
   6
CONTINUOUS
  62
15
  10
 283.71331366213
  20
 216.03863034060
  30
0.0
  11
 339.12805681036
  21
 216.03863034059
  31
0.0
   0
LINE
   5
400
 100
AcDbEntity
   8
LEVEL001
 100
AcDbLine
   6
CONTINUOUS
  62
15
  10
 283.71331366213
  20
 215.70026684890
  30
0.0
  11
 338.93932476548
  21
 215.70026684889
  31
0.0
   0
LINE
   5
401
 100
AcDbEntity
   8
LEVEL001
 100
AcDbLine
   6
CONTINUOUS
  62
15
  10
 283.71331366213
  20
 215.14776272139
  30
0.0
  11
 338.64366021478
  21
 215.14776272137
  31
0.0
   0
LINE
   5
402
 100
AcDbEntity
   8
LEVEL001
 100
AcDbLine
   6
CONTINUOUS
  62
15
  10
 283.71331366213
  20
 214.39790551640
  30
0.0
  11
 338.27002893013
  21
 214.39790551637
  31
0.0
   0
LINE
   5
403
 100
AcDbEntity
   8
LEVEL001
 100
AcDbLine
   6
CONTINUOUS
  62
15
  10
 283.71331366213
  20
 212.40257219301
  30
0.0
  11
 337.45918176420
  21
 212.40257219301
  31
0.0
   0
LINE
   5
404
 100
AcDbEntity
   8
LEVEL001
 100
AcDbLine
   6
CONTINUOUS
  62
15
  10
 283.71331366213
  20
 213.47347926566
  30
0.0
  11
 337.85883395047
  21
 213.47347926566
  31
0.0
   0
LINE
   5
405
 100
AcDbEntity
   8
LEVEL001
 100
AcDbLine
   6
CONTINUOUS
  62
15
  10
 283.71331366213
  20
 211.30290138836
  30
0.0
  11
 337.15978063418
  21
 211.30290138836
  31
0.0
   0
DIMENSION
   5
406
 100
AcDbEntity
   8
LEVEL001
   6
CONTINUOUS
  62
2
 100
AcDbDimension
   2
*D19
  10
 263.53324507219
  20
 216.15257219301
  30
0.0
  11
 263.53324507219
  21
 201.15257219301
  31
0.0
  70
0
   3
GMM006
 100
AcDbAlignedDimension
  13
 241.65924154910
  23
 186.15257219301
  33
0.0
  14
 241.65924154910
  24
 216.15257219301
  34
0.0
  50
 90.000000000000
 100
AcDbRotatedDimension
   0
LINE
   5
407
 100
AcDbEntity
   8
LEVEL001
 100
AcDbLine
   6
CONTINUOUS
  62
15
  10
 283.71331366213
  20
 188.83166512036
  30
0.0
  11
 339.75815589669
  21
 188.83166512036
  31
0.0
   0
LINE
   5
408
 100
AcDbEntity
   8
LEVEL001
 100
AcDbLine
   6
CONTINUOUS
  62
15
  10
 283.71331366213
  20
 189.90257219301
  30
0.0
  11
 340.04241748171
  21
 189.90257219301
  31
0.0
   0
LINE
   5
409
 100
AcDbEntity
   8
LEVEL001
 100
AcDbLine
   6
CONTINUOUS
  62
15
  10
 283.71331366213
  20
 187.15738166463
  30
0.0
  11
 339.19182156192
  21
 187.15738166463
  31
0.0
   0
LINE
   5
40A
 100
AcDbEntity
   8
LEVEL001
 100
AcDbLine
   6
CONTINUOUS
  62
7
  10
 283.71331366213
  20
 186.15257219301
  30
0.0
  11
 338.78755875045
  21
 186.15257219301
  31
0.0
   0
LINE
   5
40B
 100
AcDbEntity
   8
LEVEL001
 100
AcDbLine
   6
CONTINUOUS
  62
15
  10
 283.71331366213
  20
 186.26651404542
  30
0.0
  11
 338.83566839894
  21
 186.26651404542
  31
0.0
   0
LINE
   5
40C
 100
AcDbEntity
   8
LEVEL001
 100
AcDbLine
   6
CONTINUOUS
  62
15
  10
 283.71331366213
  20
 186.60487753712
  30
0.0
  11
 338.97516503500
  21
 186.60487753712
  31
0.0
   0
LINE
   5
40D
 100
AcDbEntity
   8
LEVEL001
 100
AcDbLine
   6
CONTINUOUS
  62
15
  10
 283.71331366213
  20
 187.90723886962
  30
0.0
  11
 339.46282962160
  21
 187.90723886962
  31
0.0
   0
LINE
   5
40E
 100
AcDbEntity
   8
LEVEL001
 100
AcDbLine
   6
CONTINUOUS
  62
15
  10
 283.71331366213
  20
 191.00224299766
  30
0.0
  11
 340.25213122498
  21
 191.00224299766
  31
0.0
   0
LINE
   5
40F
 100
AcDbEntity
   8
LEVEL001
 100
AcDbLine
   6
CONTINUOUS
  62
7
  10
 273.93815544094
  20
 160.75536749307
  30
0.0
  11
 286.74426629330
  21
 160.75536749307
  31
0.0
   0
TEXT
   5
410
 100
AcDbEntity
   8
LEVEL001
  62
7
 100
AcDbText
  10
 274.34615742897
  20
 161.95041041334
  30
0.0
  40
 4.0000000000000
   1
レール
   7
STANDARD
 100
AcDbText
   0
LINE
   5
411
 100
AcDbEntity
   8
LEVEL001
 100
AcDbLine
   6
CONTINUOUS
  62
7
  10
 114.65581109893
  20
 182.15257219301
  30
0.0
  11
 114.65581109893
  21
 220.15257219301
  31
0.0
   0
LINE
   5
412
 100
AcDbEntity
   8
LEVEL001
 100
AcDbLine
   6
CONTINUOUS
  62
7
  10
 281.54637969211
  20
 72.358084794961
  30
0.0
  11
 281.54637969211
  21
 110.35808479496
  31
0.0
   0
LINE
   5
413
 100
AcDbEntity
   8
LEVEL001
 100
AcDbLine
   6
CONTINUOUS
  62
7
  10
 83.254229136659
  20
 80.358084794961
  30
0.0
  11
 172.37884386927
  21
 80.358084794961
  31
0.0
   0
LINE
   5
414
 100
AcDbEntity
   8
LEVEL001
 100
AcDbLine
   6
CONTINUOUS
  62
15
  10
 83.254229136659
  20
 80.810390139067
  30
0.0
  11
 172.57193187290
  21
 80.810390139067
  31
0.0
   0
LINE
   5
415
 100
AcDbEntity
   8
LEVEL001
 100
AcDbLine
   6
CONTINUOUS
  62
15
  10
 83.254229136659
  20
 84.108084794961
  30
0.0
  11
 173.56490787163
  21
 84.108084794961
  31
0.0
   0
LINE
   5
416
 100
AcDbEntity
   8
LEVEL001
 100
AcDbLine
   6
CONTINUOUS
  62
15
  10
 83.254229136659
  20
 85.207755599609
  30
0.0
  11
 173.72645574905
  21
 85.207755599609
  31
0.0
   0
LINE
   5
417
 100
AcDbEntity
   8
LEVEL001
 100
AcDbLine
   6
CONTINUOUS
  62
15
  10
 83.254229136659
  20
 83.037177722311
  30
0.0
  11
 173.32524556632
  21
 83.037177722311
  31
0.0
   0
LINE
   5
418
 100
AcDbEntity
   8
LEVEL001
 100
AcDbLine
   6
CONTINUOUS
  62
15
  10
 83.254229136659
  20
 81.362894266577
  30
0.0
  11
 172.79001224072
  21
 81.362894266577
  31
0.0
   0
LINE
   5
419
 100
AcDbEntity
   8
LEVEL001
 100
AcDbLine
   6
CONTINUOUS
  62
15
  10
 83.254229136659
  20
 80.472026647371
  30
0.0
  11
 172.42869247786
  21
 80.472026647371
  31
0.0
   0
LINE
   5
41A
 100
AcDbEntity
   8
LEVEL001
 100
AcDbLine
   6
CONTINUOUS
  62
15
  10
 83.254229136659
  20
 82.112751471567
  30
0.0
  11
 173.05353347200
  21
 82.112751471567
  31
0.0
   0
LINE
   5
41B
 100
AcDbEntity
   8
LEVEL001
 100
AcDbLine
   6
CONTINUOUS
  62
15
  10
 267.54637969211
  20
 80.472026647371
  30
0.0
  11
 179.38562463126
  21
 80.472026647383
  31
0.0
   0
LINE
   5
41C
 100
AcDbEntity
   8
LEVEL001
 100
AcDbLine
   6
CONTINUOUS
  62
7
  10
 267.54637969211
  20
 80.358084794961
  30
0.0
  11
 179.33577602267
  21
 80.358084794973
  31
0.0
   0
LINE
   5
41D
 100
AcDbEntity
   8
LEVEL001
 100
AcDbLine
   6
CONTINUOUS
  62
15
  10
 267.54637969211
  20
 80.810390139067
  30
0.0
  11
 179.52886402630
  21
 80.810390139083
  31
0.0
   0
LINE
   5
41E
 100
AcDbEntity
   8
LEVEL001
 100
AcDbLine
   6
CONTINUOUS
  62
15
  10
 267.54637969211
  20
 81.362894266577
  30
0.0
  11
 179.74694439413
  21
 81.362894266597
  31
0.0
   0
LINE
   5
41F
 100
AcDbEntity
   8
LEVEL001
 100
AcDbLine
   6
CONTINUOUS
  62
15
  10
 267.54637969211
  20
 82.112751471567
  30
0.0
  11
 180.01046562541
  21
 82.112751471594
  31
0.0
   0
LINE
   5
420
 100
AcDbEntity
   8
LEVEL001
 100
AcDbLine
   6
CONTINUOUS
  62
15
  10
 267.54637969211
  20
 83.037177722311
  30
0.0
  11
 180.28217771972
  21
 83.037177722311
  31
0.0
   0
LINE
   5
421
 100
AcDbEntity
   8
LEVEL001
 100
AcDbLine
   6
CONTINUOUS
  62
15
  10
 267.54637969211
  20
 84.108084794961
  30
0.0
  11
 180.52184002503
  21
 84.108084794961
  31
0.0
   0
LINE
   5
422
 100
AcDbEntity
   8
LEVEL001
 100
AcDbLine
   6
CONTINUOUS
  62
15
  10
 267.54637969211
  20
 85.207755599609
  30
0.0
  11
 180.68338790245
  21
 85.207755599609
  31
0.0
   0
LINE
   5
423
 100
AcDbEntity
   8
LEVEL001
 100
AcDbLine
   6
CONTINUOUS
  62
15
  10
 267.54637969211
  20
 88.408084794960
  30
0.0
  11
 180.68146313683
  21
 88.408084794960
  31
0.0
   0
LINE
   5
424
 100
AcDbEntity
   8
LEVEL001
 100
AcDbLine
   6
CONTINUOUS
  62
15
  10
 267.54637969211
  20
 91.188084794960
  30
0.0
  11
 180.23517943759
  21
 91.188084794960
  31
0.0
   0
LINE
   5
425
 100
AcDbEntity
   8
LEVEL001
 100
AcDbLine
   6
CONTINUOUS
  62
7
  10
 277.54637969211
  20
 110.35808479496
  30
0.0
  11
 179.74432586415
  21
 110.35808479499
  31
0.0
   0
LINE
   5
426
 100
AcDbEntity
   8
LEVEL001
 100
AcDbLine
   6
CONTINUOUS
  62
15
  10
 277.54637969211
  20
 109.90577945085
  30
0.0
  11
 179.47962424890
  21
 109.90577945089
  31
0.0
   0
LINE
   5
427
 100
AcDbEntity
   8
LEVEL001
 100
AcDbLine
   6
CONTINUOUS
  62
15
  10
 277.54637969211
  20
 110.24414294255
  30
0.0
  11
 179.67810750424
  21
 110.24414294258
  31
0.0
   0
LINE
   5
428
 100
AcDbEntity
   8
LEVEL001
 100
AcDbLine
   6
CONTINUOUS
  62
15
  10
 277.54637969211
  20
 109.35327532334
  30
0.0
  11
 179.14858287706
  21
 109.35327532339
  31
0.0
   0
LINE
   5
429
 100
AcDbEntity
   8
LEVEL001
 100
AcDbLine
   6
CONTINUOUS
  62
15
  10
 277.54637969211
  20
 108.60341811835
  30
0.0
  11
 178.68123855295
  21
 108.60341811843
  31
0.0
   0
LINE
   5
42A
 100
AcDbEntity
   8
LEVEL001
 100
AcDbLine
   6
CONTINUOUS
  62
7
  10
 73.254229136659
  20
 110.35808479496
  30
0.0
  11
 172.78739371075
  21
 110.35808479499
  31
0.0
   0
LINE
   5
42B
 100
AcDbEntity
   8
LEVEL001
 100
AcDbLine
   6
CONTINUOUS
  62
15
  10
 73.254229136659
  20
 110.24414294255
  30
0.0
  11
 172.72117535084
  21
 110.24414294258
  31
0.0
   0
LINE
   5
42C
 100
AcDbEntity
   8
LEVEL001
 100
AcDbLine
   6
CONTINUOUS
  62
15
  10
 73.254229136659
  20
 109.90577945085
  30
0.0
  11
 172.52269209550
  21
 109.90577945089
  31
0.0
   0
LINE
   5
42D
 100
AcDbEntity
   8
LEVEL001
 100
AcDbLine
   6
CONTINUOUS
  62
15
  10
 73.254229136659
  20
 108.60341811835
  30
0.0
  11
 171.72430639955
  21
 108.60341811843
  31
0.0
   0
LINE
   5
42E
 100
AcDbEntity
   8
LEVEL001
 100
AcDbLine
   6
CONTINUOUS
  62
15
  10
 73.254229136659
  20
 107.67899186761
  30
0.0
  11
 171.10848219779
  21
 107.67899186761
  31
0.0
   0
LINE
   5
42F
 100
AcDbEntity
   8
LEVEL001
 100
AcDbLine
   6
CONTINUOUS
  62
15
  10
 73.254229136659
  20
 109.35327532334
  30
0.0
  11
 172.19165072367
  21
 109.35327532339
  31
0.0
   0
LINE
   5
430
 100
AcDbEntity
   8
LEVEL001
 100
AcDbLine
   6
CONTINUOUS
  62
15
  10
 277.54637969211
  20
 107.67899186761
  30
0.0
  11
 178.06541435119
  21
 107.67899186761
  31
0.0
   0
LINE
   5
431
 100
AcDbEntity
   8
LEVEL001
 100
AcDbLine
   6
CONTINUOUS
  62
15
  10
 277.54637969211
  20
 106.60808479496
  30
0.0
  11
 177.40256838406
  21
 106.60808479496
  31
0.0
   0
LINE
   5
432
 100
AcDbEntity
   8
LEVEL001
 100
AcDbLine
   6
CONTINUOUS
  62
15
  10
 277.54637969211
  20
 105.50841399031
  30
0.0
  11
 176.99342557002
  21
 105.50841399031
  31
0.0
   0
LINE
   5
433
 100
AcDbEntity
   8
LEVEL001
 100
AcDbLine
   6
CONTINUOUS
  62
15
  10
 73.254229136659
  20
 106.60808479496
  30
0.0
  11
 170.44563623066
  21
 106.60808479496
  31
0.0
   0
LINE
   5
434
 100
AcDbEntity
   8
LEVEL001
 100
AcDbLine
   6
CONTINUOUS
  62
15
  10
 73.254229136659
  20
 105.50841399031
  30
0.0
  11
 170.03649341662
  21
 105.50841399031
  31
0.0
   0
LINE
   5
435
 100
AcDbEntity
   8
LEVEL001
 100
AcDbLine
   6
CONTINUOUS
  62
15
  10
 83.254229136659
  20
 102.30808479496
  30
0.0
  11
 170.13000282923
  21
 102.30808479496
  31
0.0
   0
LINE
   5
436
 100
AcDbEntity
   8
LEVEL001
 100
AcDbLine
   6
CONTINUOUS
  62
15
  10
 83.254229136659
  20
 99.528084794961
  30
0.0
  11
 170.87732307303
  21
 99.528084794961
  31
0.0
   0
LINE
   5
437
 100
AcDbEntity
   8
LEVEL001
 100
AcDbLine
   6
CONTINUOUS
  62
15
  10
 83.254229136659
  20
 96.748084794959
  30
0.0
  11
 171.75201161763
  21
 96.748084794959
  31
0.0
   0
LINE
   5
438
 100
AcDbEntity
   8
LEVEL001
 100
AcDbLine
   6
CONTINUOUS
  62
15
  10
 83.254229136659
  20
 93.968084794962
  30
0.0
  11
 172.58542892964
  21
 93.968084794962
  31
0.0
   0
LINE
   5
439
 100
AcDbEntity
   8
LEVEL001
 100
AcDbLine
   6
CONTINUOUS
  62
15
  10
 267.54637969211
  20
 102.30808479496
  30
0.0
  11
 177.08693498263
  21
 102.30808479496
  31
0.0
   0
LINE
   5
43A
 100
AcDbEntity
   8
LEVEL001
 100
AcDbLine
   6
CONTINUOUS
  62
15
  10
 267.54637969211
  20
 99.528084794961
  30
0.0
  11
 177.83425522643
  21
 99.528084794961
  31
0.0
   0
LINE
   5
43B
 100
AcDbEntity
   8
LEVEL001
 100
AcDbLine
   6
CONTINUOUS
  62
15
  10
 267.54637969211
  20
 96.748084794959
  30
0.0
  11
 178.70894377103
  21
 96.748084794959
  31
0.0
   0
LINE
   5
43C
 100
AcDbEntity
   8
LEVEL001
 100
AcDbLine
   6
CONTINUOUS
  62
15
  10
 267.54637969211
  20
 93.968084794962
  30
0.0
  11
 179.54236108304
  21
 93.968084794962
  31
0.0
   0
LINE
   5
43D
 100
AcDbEntity
   8
LEVEL001
 100
AcDbLine
   6
CONTINUOUS
  62
15
  10
 83.254229136659
  20
 91.188084794960
  30
0.0
  11
 173.27824728420
  21
 91.188084794960
  31
0.0
   0
LINE
   5
43E
 100
AcDbEntity
   8
LEVEL001
 100
AcDbLine
   6
CONTINUOUS
  62
15
  10
 83.254229136659
  20
 88.408084794960
  30
0.0
  11
 173.72453098343
  21
 88.408084794960
  31
0.0
   0
ENDSEC
  0
SECTION
  2
OBJECTS
  0
DICTIONARY
  5
C
100
AcDbDictionary
  3
ACAD_GROUP
350
D
  3
ACAD_MLINESTYLE
350
1B
  0
DICTIONARY
  5
D
102
{ACAD_REACTORS
330
C
102
}
100
AcDbDictionary
  0
DICTIONARY
  5
1B
102
{ACAD_REACTORS
330
C
102
}
100
AcDbDictionary
  3
STANDARD
350
1C
  0
MLINESTYLE
  5
1C
102
{ACAD_REACTORS
330
1B
102
}
100
AcDbMlineStyle
  2
STANDARD
 70
     0
  3

 62
   256
 51
90.0
 52
90.0
 71
     2
 49
0.5
 62
   256
  6
BYLAYER
 49
-0.5
 62
   256
  6
BYLAYER
  0
ENDSEC
   0
EOF
