   0
SECTION
   2
HEADER
   9
$ACADVER
   1
AC1015
   9
$LIMMIN
  10
0.0
  20
0.0
   9
$LIMMAX
  10
 840.00000000000
  20
 594.00000000000
   9
$EXTMIN
  10
0.0
  20
0.0
  30
0.0
   9
$EXTMAX
  10
 840.00000000000
  20
 594.00000000000
  30
0.0
   9
$LTSCALE
  40
 16.800000000000
   9
$HANDSEED
   5
3C6
   0
ENDSEC
   0
SECTION
   2
TABLES
  0
TABLE
  2
VPORT
  5
8
100
AcDbSymbolTable
 70
     1
  0
VPORT
  5
3C5
100
AcDbSymbolTableRecord
100
AcDbViewportTableRecord
  2
*ACTIVE
 70
     0
 10
0.0
 20
0.0
 11
1.0
 21
1.0
  12
 420.00000000000
  22
 297.00000000000
 13
0.0
 23
0.0
 14
1.0
 24
1.0
 15
0.0
 25
0.0
 16
0.0
 26
0.0
 36
1.0
 17
0.0
 27
0.0
 37
0.0
  40
 840.00000000000
  41
 1.4787878787879
 42
50.0
 43
0.0
 44
0.0
 50
0.0
 51
0.0
 71
     0
 72
   100
 73
     1
 74
     1
 75
     0
 76
     0
 77
     0
 78
     0
  0
ENDTAB
  0
TABLE
  2
LTYPE
  5
5
100
AcDbSymbolTable
 70
    25
  0
LTYPE
  5
12
100
AcDbSymbolTableRecord
100
AcDbLinetypeTableRecord
  2
BYBLOCK
 70
     0
  3

 72
    65
 73
     0
 40
0.0
  0
LTYPE
  5
13
100
AcDbSymbolTableRecord
100
AcDbLinetypeTableRecord
  2
BYLAYER
 70
     0
  3

 72
    65
 73
     0
 40
0.0
  0
LTYPE
  5
14
100
AcDbSymbolTableRecord
100
AcDbLinetypeTableRecord
  2
CONTINUOUS
 70
     0
  3
Solid line
 72
    65
 73
     0
 40
0.0
  0
LTYPE
  5
20
100
AcDbSymbolTableRecord
100
AcDbLinetypeTableRecord
  2
BORDER
 70
     0
  3
__ __ . __ __ . __ __ . __ __ . __ __ . __ __ .
 72
    65
 73
     6
 40
1.75
 49
0.5
 74
     0
 49
-0.25
 74
     0
 49
0.5
 74
     0
 49
-0.25
 74
     0
 49
0.0
 74
     0
 49
-0.25
 74
     0
  0
LTYPE
  5
21
100
AcDbSymbolTableRecord
100
AcDbLinetypeTableRecord
  2
BORDER2
 70
     0
  3
__.__.__.__.__.__.__.__.__.__.__.__.__.__.__.__
 72
    65
 73
     6
 40
0.875
 49
0.25
 74
     0
 49
-0.125
 74
     0
 49
0.25
 74
     0
 49
-0.125
 74
     0
 49
0.0
 74
     0
 49
-0.125
 74
     0
  0
LTYPE
  5
22
100
AcDbSymbolTableRecord
100
AcDbLinetypeTableRecord
  2
BORDERX2
 70
     0
  3
____  ____  .  ____  ____  .  ____  ____  .  __
 72
    65
 73
     6
 40
3.5
 49
1.0
 74
     0
 49
-0.5
 74
     0
 49
1.0
 74
     0
 49
-0.5
 74
     0
 49
0.0
 74
     0
 49
-0.5
 74
     0
  0
LTYPE
  5
23
100
AcDbSymbolTableRecord
100
AcDbLinetypeTableRecord
  2
CENTER
 70
     0
  3
____ _ ____ _ ____ _ ____ _ ____ _ ____ _ ____ 
 72
    65
 73
     4
 40
2.0
 49
1.25
 74
     0
 49
-0.25
 74
     0
 49
0.25
 74
     0
 49
-0.25
 74
     0
  0
LTYPE
  5
24
100
AcDbSymbolTableRecord
100
AcDbLinetypeTableRecord
  2
CENTER2
 70
     0
  3
___ _ ___ _ ___ _ ___ _ ___ _ ___ _ ___ _ ___ _
 72
    65
 73
     4
 40
1.125
 49
0.75
 74
     0
 49
-0.125
 74
     0
 49
0.125
 74
     0
 49
-0.125
 74
     0
  0
LTYPE
  5
25
100
AcDbSymbolTableRecord
100
AcDbLinetypeTableRecord
  2
CENTERX2
 70
     0
  3
________  __  ________  __  ________  __  _____
 72
    65
 73
     4
 40
4.0
 49
2.5
 74
     0
 49
-0.5
 74
     0
 49
0.5
 74
     0
 49
-0.5
 74
     0
  0
LTYPE
  5
26
100
AcDbSymbolTableRecord
100
AcDbLinetypeTableRecord
  2
DASHDOT
 70
     0
  3
__ . __ . __ . __ . __ . __ . __ . __ . __ . __
 72
    65
 73
     4
 40
1.0
 49
0.5
 74
     0
 49
-0.25
 74
     0
 49
0.0
 74
     0
 49
-0.25
 74
     0
  0
LTYPE
  5
27
100
AcDbSymbolTableRecord
100
AcDbLinetypeTableRecord
  2
DASHDOT2
 70
     0
  3
_._._._._._._._._._._._._._._._._._._._._._._._
 72
    65
 73
     4
 40
0.5
 49
0.25
 74
     0
 49
-0.125
 74
     0
 49
0.0
 74
     0
 49
-0.125
 74
     0
  0
LTYPE
  5
28
100
AcDbSymbolTableRecord
100
AcDbLinetypeTableRecord
  2
DASHDOTX2
 70
     0
  3
____  .  ____  .  ____  .  ____  .  ____  .  __
 72
    65
 73
     4
 40
2.0
 49
1.0
 74
     0
 49
-0.5
 74
     0
 49
0.0
 74
     0
 49
-0.5
 74
     0
  0
LTYPE
  5
29
100
AcDbSymbolTableRecord
100
AcDbLinetypeTableRecord
  2
DASHED
 70
     0
  3
__ __ __ __ __ __ __ __ __ __ __ __ __ __ __ __
 72
    65
 73
     2
 40
0.75
 49
0.5
 74
     0
 49
-0.25
 74
     0
  0
LTYPE
  5
2A
100
AcDbSymbolTableRecord
100
AcDbLinetypeTableRecord
  2
DASHED2
 70
     0
  3
_ _ _ _ _ _ _ _ _ _ _ _ _ _ _ _ _ _ _ _ _ _ _ _
 72
    65
 73
     2
 40
0.375
 49
0.25
 74
     0
 49
-0.125
 74
     0
  0
LTYPE
  5
2B
100
AcDbSymbolTableRecord
100
AcDbLinetypeTableRecord
  2
DASHEDX2
 70
     0
  3
____  ____  ____  ____  ____  ____  ____  ____ 
 72
    65
 73
     2
 40
1.5
 49
1.0
 74
     0
 49
-0.5
 74
     0
  0
LTYPE
  5
2C
100
AcDbSymbolTableRecord
100
AcDbLinetypeTableRecord
  2
DIVIDE
 70
     0
  3
____ . . ____ . . ____ . . ____ . . ____ . . __
 72
    65
 73
     6
 40
1.25
 49
0.5
 74
     0
 49
-0.25
 74
     0
 49
0.0
 74
     0
 49
-0.25
 74
     0
 49
0.0
 74
     0
 49
-0.25
 74
     0
  0
LTYPE
  5
2D
100
AcDbSymbolTableRecord
100
AcDbLinetypeTableRecord
  2
DIVIDE2
 70
     0
  3
__..__..__..__..__..__..__..__..__..__..__..__.
 72
    65
 73
     6
 40
0.625
 49
0.25
 74
     0
 49
-0.125
 74
     0
 49
0.0
 74
     0
 49
-0.125
 74
     0
 49
0.0
 74
     0
 49
-0.125
 74
     0
  0
LTYPE
  5
2E
100
AcDbSymbolTableRecord
100
AcDbLinetypeTableRecord
  2
DIVIDEX2
 70
     0
  3
________  .  .  ________  .  .  ________  .  . 
 72
    65
 73
     6
 40
2.5
 49
1.0
 74
     0
 49
-0.5
 74
     0
 49
0.0
 74
     0
 49
-0.5
 74
     0
 49
0.0
 74
     0
 49
-0.5
 74
     0
  0
LTYPE
  5
2F
100
AcDbSymbolTableRecord
100
AcDbLinetypeTableRecord
  2
DOT
 70
     0
  3
. . . . . . . . . . . . . . . . . . . . . . . .
 72
    65
 73
     2
 40
0.25
 49
0.0
 74
     0
 49
-0.25
 74
     0
  0
LTYPE
  5
30
100
AcDbSymbolTableRecord
100
AcDbLinetypeTableRecord
  2
DOT2
 70
     0
  3
...............................................
 72
    65
 73
     2
 40
0.125
 49
0.0
 74
     0
 49
-0.125
 74
     0
  0
LTYPE
  5
31
100
AcDbSymbolTableRecord
100
AcDbLinetypeTableRecord
  2
DOTX2
 70
     0
  3
.  .  .  .  .  .  .  .  .  .  .  .  .  .  .  . 
 72
    65
 73
     2
 40
0.5
 49
0.0
 74
     0
 49
-0.5
 74
     0
  0
LTYPE
  5
32
100
AcDbSymbolTableRecord
100
AcDbLinetypeTableRecord
  2
HIDDEN
 70
     0
  3
__ __ __ __ __ __ __ __ __ __ __ __ __ __ __ __
 72
    65
 73
     2
 40
0.375
 49
0.25
 74
     0
 49
-0.125
 74
     0
  0
LTYPE
  5
33
100
AcDbSymbolTableRecord
100
AcDbLinetypeTableRecord
  2
HIDDEN2
 70
     0
  3
_ _ _ _ _ _ _ _ _ _ _ _ _ _ _ _ _ _ _ _ _ _ _ _
 72
    65
 73
     2
 40
0.1875
 49
0.125
 74
     0
 49
-0.0625
 74
     0
  0
LTYPE
  5
34
100
AcDbSymbolTableRecord
100
AcDbLinetypeTableRecord
  2
HIDDENX2
 70
     0
  3
____ ____ ____ ____ ____ ____ ____ ____ ____ __
 72
    65
 73
     2
 40
0.75
 49
0.5
 74
     0
 49
-0.25
 74
     0
  0
LTYPE
  5
35
100
AcDbSymbolTableRecord
100
AcDbLinetypeTableRecord
  2
PHANTOM
 70
     0
  3
______  __  __  ______  __  __  ______  __  __ 
 72
    65
 73
     6
 40
2.5
 49
1.25
 74
     0
 49
-0.25
 74
     0
 49
0.25
 74
     0
 49
-0.25
 74
     0
 49
0.25
 74
     0
 49
-0.25
 74
     0
  0
LTYPE
  5
36
100
AcDbSymbolTableRecord
100
AcDbLinetypeTableRecord
  2
PHANTOM2
 70
     0
  3
___ _ _ ___ _ _ ___ _ _ ___ _ _ ___ _ _ ___ _ _
 72
    65
 73
     6
 40
1.25
 49
0.625
 74
     0
 49
-0.125
 74
     0
 49
0.125
 74
     0
 49
-0.125
 74
     0
 49
0.125
 74
     0
 49
-0.125
 74
     0
  0
LTYPE
  5
37
100
AcDbSymbolTableRecord
100
AcDbLinetypeTableRecord
  2
PHANTOMX2
 70
     0
  3
____________    ____    ____    ____________   
 72
    65
 73
     6
 40
5.0
 49
2.5
 74
     0
 49
-0.5
 74
     0
 49
0.5
 74
     0
 49
-0.5
 74
     0
 49
0.5
 74
     0
 49
-0.5
 74
     0
  0
ENDTAB
   0
TABLE
   2
LAYER
   5
2
 100
AcDbSymbolTable
  70
2
   0
LAYER
   5
E
 100
AcDbSymbolTableRecord
 100
AcDbLayerTableRecord
   2
0
  70
0
  62
7
   6
CONTINUOUS
 390
30
   0
LAYER
   5
39
 100
AcDbSymbolTableRecord
 100
AcDbLayerTableRecord
   2
LEVEL001
  70
0
  62
7
   6
CONTINUOUS
 390
30
   0
ENDTAB
  0
TABLE
  2
STYLE
  5
3
100
AcDbSymbolTable
  70
3
  0
STYLE
  5
F
100
AcDbSymbolTableRecord
100
AcDbTextStyleTableRecord
  2
STANDARD
 70
     0
 40
0.0
 41
1.0
 50
0.0
 71
     0
 42
0.2
  3
TXT
  4
BIGFONT
  0
STYLE
  5
38
100
AcDbSymbolTableRecord
100
AcDbTextStyleTableRecord
  2
STANDARD1
 70
     4
 40
0.0
 41
1.0
 50
0.0
 71
     0
 42
0.2
  3
TXT
  4
BIGFONT
   0
STYLE
   5
3A
 100
AcDbSymbolTableRecord
 100
AcDbTextStyleTableRecord
   2
GMM001
  70
0
  40
0.0
  41
 0.95000000000000
  50
0.0
  71
     0
  42
1.0
   3
txt.shx
   4
bigfont.shx
   0
ENDTAB
  0
TABLE
  2
VIEW
  5
6
100
AcDbSymbolTable
 70
     0
  0
ENDTAB
  0
TABLE
  2
UCS
  5
7
100
AcDbSymbolTable
 70
     0
  0
ENDTAB
  0
TABLE
  2
APPID
  5
9
100
AcDbSymbolTable
 70
     1
  0
APPID
  5
10
100
AcDbSymbolTableRecord
100
AcDbRegAppTableRecord
  2
ACAD
 70
     0
  0
ENDTAB
   0
TABLE
   2
DIMSTYLE
   5
A
 100
AcDbSymbolTable
  70
9
 100
AcDbDimStyleTable
  0
DIMSTYLE
105
1D
100
AcDbSymbolTableRecord
100
AcDbDimStyleTableRecord
  2
STANDARD
 70
     0
  3

  4

  5

  6

  7

 40
1.0
 41
0.18
 42
0.0625
 43
0.38
 44
0.18
 45
0.0
 46
0.0
 47
0.0
 48
0.0
140
0.18
141
0.09
142
0.0
143
25.4
144
1.0
145
0.0
146
1.0
147
0.09
 71
     0
 72
     0
 73
     1
 74
     1
 75
     0
 76
     0
 77
     0
 78
     0
170
     0
171
     2
172
     0
173
     0
174
     0
175
     0
176
     0
177
     0
178
     0
270
     2
271
     4
272
     4
273
     2
274
     2
340
F
275
     0
280
     0
281
     0
282
     0
283
     1
284
     0
285
     0
286
     0
287
     3
288
     0
   0
DIMSTYLE
 105
3B
 100
AcDbSymbolTableRecord
 100
AcDbDimStyleTableRecord
   2
GMM001
  70
0
   3

   4

   5

   6
_OPEN30
   7
_OPEN30
  40
 1.0000000000000
  41
 6.0000000000000
  42
 2.0000000000000
  43
 16.000000000000
  44
 2.0000000000000
  45
0.0
  46
0.0
  47
0.0
  48
0.0
 140
 8.0000000000000
 141
 2.0000000000000
 142
0.0
 143
 0.39400000000000E-1
 144
 1.0000000000000
 145
0.0
 146
 0.62500000000000
 147
 3.4285714285714
  71
0
  72
0
  73
0
  74
0
  75
0
  76
0
  77
3
  78
8
 170
0
 171
2
 172
1
 173
1
 174
0
 175
0
 176
3
 177
3
 178
3
 270
2
 271
6
 272
0
 273
2
 274
2
 340
3A
 275
0
 280
0
 281
0
 282
0
 283
1
 284
0
 285
0
 286
0
 287
3
 288
0
   0
DIMSTYLE
 105
3C
 100
AcDbSymbolTableRecord
 100
AcDbDimStyleTableRecord
   2
GMM002
  70
0
   3
%%c<>
   4

   5

   6
_OPEN30
   7
_OPEN30
  40
 1.0000000000000
  41
 6.0000000000000
  42
 2.0000000000000
  43
 16.000000000000
  44
 2.0000000000000
  45
0.0
  46
0.0
  47
0.0
  48
0.0
 140
 8.0000000000000
 141
 2.0000000000000
 142
0.0
 143
 0.39400000000000E-1
 144
 1.0000000000000
 145
0.0
 146
 0.62500000000000
 147
 3.4285714285714
  71
0
  72
0
  73
0
  74
0
  75
0
  76
0
  77
3
  78
8
 170
0
 171
2
 172
1
 173
1
 174
0
 175
0
 176
3
 177
3
 178
3
 270
2
 271
6
 272
0
 273
2
 274
2
 340
3A
 275
0
 280
0
 281
0
 282
0
 283
1
 284
0
 285
0
 286
0
 287
3
 288
0
   0
DIMSTYLE
 105
3D
 100
AcDbSymbolTableRecord
 100
AcDbDimStyleTableRecord
   2
GMM003
  70
0
   3
(67.8)<>
   4

   5

   6
_OPEN30
   7
_OPEN30
  40
 1.0000000000000
  41
 6.0000000000000
  42
 2.0000000000000
  43
 16.000000000000
  44
 2.0000000000000
  45
0.0
  46
0.0
  47
0.0
  48
0.0
 140
 8.0000000000000
 141
 2.0000000000000
 142
0.0
 143
 0.39400000000000E-1
 144
 1.0000000000000
 145
0.0
 146
 0.62500000000000
 147
 3.4285714285714
  71
0
  72
0
  73
0
  74
0
  75
0
  76
0
  77
3
  78
8
 170
0
 171
2
 172
1
 173
1
 174
0
 175
0
 176
3
 177
3
 178
3
 270
2
 271
6
 272
0
 273
2
 274
2
 340
3A
 275
0
 280
0
 281
0
 282
0
 283
1
 284
0
 285
0
 286
0
 287
3
 288
0
   0
DIMSTYLE
 105
3E
 100
AcDbSymbolTableRecord
 100
AcDbDimStyleTableRecord
   2
GMM004
  70
0
   3
ÄÞÉáû_ÆÀé│<>
   4

   5

   6
_OPEN30
   7
_OPEN30
  40
 1.0000000000000
  41
 6.0000000000000
  42
 2.0000000000000
  43
 16.000000000000
  44
 2.0000000000000
  45
0.0
  46
0.0
  47
0.0
  48
0.0
 140
 8.0000000000000
 141
 2.0000000000000
 142
0.0
 143
 0.39400000000000E-1
 144
 1.0000000000000
 145
0.0
 146
 0.62500000000000
 147
 3.4285714285714
  71
0
  72
0
  73
0
  74
0
  75
0
  76
0
  77
3
  78
8
 170
0
 171
2
 172
1
 173
1
 174
0
 175
0
 176
3
 177
3
 178
3
 270
2
 271
6
 272
0
 273
2
 274
2
 340
3A
 275
0
 280
0
 281
0
 282
0
 283
1
 284
0
 285
0
 286
0
 287
3
 288
0
   0
DIMSTYLE
 105
3F
 100
AcDbSymbolTableRecord
 100
AcDbDimStyleTableRecord
   2
GMM005
  70
0
   3
435üE535üE735<>
   4

   5

   6
_OPEN30
   7
_OPEN30
  40
 1.0000000000000
  41
 6.0000000000000
  42
 2.0000000000000
  43
 16.000000000000
  44
 2.0000000000000
  45
0.0
  46
0.0
  47
0.0
  48
0.0
 140
 8.0000000000000
 141
 2.0000000000000
 142
0.0
 143
 0.39400000000000E-1
 144
 1.0000000000000
 145
0.0
 146
 0.62500000000000
 147
 3.4285714285714
  71
0
  72
0
  73
0
  74
0
  75
0
  76
0
  77
3
  78
8
 170
0
 171
2
 172
1
 173
1
 174
0
 175
0
 176
3
 177
3
 178
3
 270
2
 271
6
 272
0
 273
2
 274
2
 340
3A
 275
0
 280
0
 281
0
 282
0
 283
1
 284
0
 285
0
 286
0
 287
3
 288
0
   0
DIMSTYLE
 105
40
 100
AcDbSymbolTableRecord
 100
AcDbDimStyleTableRecord
   2
GMM006
  70
0
   3
299.4üE399.4<>
   4

   5

   6
_OPEN30
   7
_OPEN30
  40
 1.0000000000000
  41
 6.0000000000000
  42
 2.0000000000000
  43
 16.000000000000
  44
 2.0000000000000
  45
0.0
  46
0.0
  47
0.0
  48
0.0
 140
 8.0000000000000
 141
 2.0000000000000
 142
0.0
 143
 0.39400000000000E-1
 144
 1.0000000000000
 145
0.0
 146
 0.62500000000000
 147
 3.4285714285714
  71
0
  72
0
  73
0
  74
0
  75
0
  76
0
  77
3
  78
8
 170
0
 171
2
 172
1
 173
1
 174
0
 175
0
 176
3
 177
3
 178
3
 270
2
 271
6
 272
0
 273
2
 274
2
 340
3A
 275
0
 280
0
 281
0
 282
0
 283
1
 284
0
 285
0
 286
0
 287
3
 288
0
   0
DIMSTYLE
 105
41
 100
AcDbSymbolTableRecord
 100
AcDbDimStyleTableRecord
   2
GMM007
  70
0
   3
384.6üE484.6<>
   4

   5

   6
_OPEN30
   7
_OPEN30
  40
 1.0000000000000
  41
 6.0000000000000
  42
 2.0000000000000
  43
 16.000000000000
  44
 2.0000000000000
  45
0.0
  46
0.0
  47
0.0
  48
0.0
 140
 8.0000000000000
 141
 2.0000000000000
 142
0.0
 143
 0.39400000000000E-1
 144
 1.0000000000000
 145
0.0
 146
 0.62500000000000
 147
 3.4285714285714
  71
0
  72
0
  73
0
  74
0
  75
0
  76
0
  77
3
  78
8
 170
0
 171
2
 172
1
 173
1
 174
0
 175
0
 176
3
 177
3
 178
3
 270
2
 271
6
 272
0
 273
2
 274
2
 340
3A
 275
0
 280
0
 281
0
 282
0
 283
1
 284
0
 285
0
 286
0
 287
3
 288
0
   0
ENDTAB
  0
TABLE
  2
BLOCK_RECORD
  5
1
100
AcDbSymbolTable
 70
     0
  0
BLOCK_RECORD
  5
18
100
AcDbSymbolTableRecord
100
AcDbBlockTableRecord
  2
*MODEL_SPACE
  0
BLOCK_RECORD
  5
15
100
AcDbSymbolTableRecord
100
AcDbBlockTableRecord
  2
*PAPER_SPACE
   0
BLOCK_RECORD
   5
42
 100
AcDbSymbolTableRecord
 100
AcDbBlockTableRecord
   2
*D1
   0
BLOCK_RECORD
   5
43
 100
AcDbSymbolTableRecord
 100
AcDbBlockTableRecord
   2
*D2
   0
BLOCK_RECORD
   5
44
 100
AcDbSymbolTableRecord
 100
AcDbBlockTableRecord
   2
*D3
   0
BLOCK_RECORD
   5
45
 100
AcDbSymbolTableRecord
 100
AcDbBlockTableRecord
   2
*D4
   0
BLOCK_RECORD
   5
46
 100
AcDbSymbolTableRecord
 100
AcDbBlockTableRecord
   2
*D5
   0
BLOCK_RECORD
   5
47
 100
AcDbSymbolTableRecord
 100
AcDbBlockTableRecord
   2
*D6
   0
BLOCK_RECORD
   5
48
 100
AcDbSymbolTableRecord
 100
AcDbBlockTableRecord
   2
*D7
   0
BLOCK_RECORD
   5
49
 100
AcDbSymbolTableRecord
 100
AcDbBlockTableRecord
   2
*D8
   0
BLOCK_RECORD
   5
4A
 100
AcDbSymbolTableRecord
 100
AcDbBlockTableRecord
   2
*D9
   0
BLOCK_RECORD
   5
4B
 100
AcDbSymbolTableRecord
 100
AcDbBlockTableRecord
   2
*D10
   0
BLOCK_RECORD
   5
4C
 100
AcDbSymbolTableRecord
 100
AcDbBlockTableRecord
   2
*D11
   0
BLOCK_RECORD
   5
4D
 100
AcDbSymbolTableRecord
 100
AcDbBlockTableRecord
   2
*D12
   0
BLOCK_RECORD
   5
4E
 100
AcDbSymbolTableRecord
 100
AcDbBlockTableRecord
   2
*D13
   0
BLOCK_RECORD
   5
4F
 100
AcDbSymbolTableRecord
 100
AcDbBlockTableRecord
   2
*D14
   0
BLOCK_RECORD
   5
50
 100
AcDbSymbolTableRecord
 100
AcDbBlockTableRecord
   2
_ARCHTICK
   0
BLOCK_RECORD
   5
51
 100
AcDbSymbolTableRecord
 100
AcDbBlockTableRecord
   2
_BOXBLANK
   0
BLOCK_RECORD
   5
52
 100
AcDbSymbolTableRecord
 100
AcDbBlockTableRecord
   2
_BOXFILLED
   0
BLOCK_RECORD
   5
53
 100
AcDbSymbolTableRecord
 100
AcDbBlockTableRecord
   2
_CLOSED
   0
BLOCK_RECORD
   5
54
 100
AcDbSymbolTableRecord
 100
AcDbBlockTableRecord
   2
_CLOSEDBLANK
   0
BLOCK_RECORD
   5
55
 100
AcDbSymbolTableRecord
 100
AcDbBlockTableRecord
   2
_DATUMBLANK
   0
BLOCK_RECORD
   5
56
 100
AcDbSymbolTableRecord
 100
AcDbBlockTableRecord
   2
_DATUMFILLED
   0
BLOCK_RECORD
   5
57
 100
AcDbSymbolTableRecord
 100
AcDbBlockTableRecord
   2
_DOT
   0
BLOCK_RECORD
   5
58
 100
AcDbSymbolTableRecord
 100
AcDbBlockTableRecord
   2
_DOTBLANK
   0
BLOCK_RECORD
   5
59
 100
AcDbSymbolTableRecord
 100
AcDbBlockTableRecord
   2
_DOTSMALL
   0
BLOCK_RECORD
   5
5A
 100
AcDbSymbolTableRecord
 100
AcDbBlockTableRecord
   2
_INTEGRAL
   0
BLOCK_RECORD
   5
5B
 100
AcDbSymbolTableRecord
 100
AcDbBlockTableRecord
   2
_NONE
   0
BLOCK_RECORD
   5
5C
 100
AcDbSymbolTableRecord
 100
AcDbBlockTableRecord
   2
_OBLIQUE
   0
BLOCK_RECORD
   5
5D
 100
AcDbSymbolTableRecord
 100
AcDbBlockTableRecord
   2
_OPEN
   0
BLOCK_RECORD
   5
5E
 100
AcDbSymbolTableRecord
 100
AcDbBlockTableRecord
   2
_OPEN30
   0
BLOCK_RECORD
   5
5F
 100
AcDbSymbolTableRecord
 100
AcDbBlockTableRecord
   2
_OPEN90
   0
BLOCK_RECORD
   5
60
 100
AcDbSymbolTableRecord
 100
AcDbBlockTableRecord
   2
_ORIGIN
   0
ENDTAB
   0
ENDSEC
  0
SECTION
  2
BLOCKS
  0
BLOCK
  5
19
100
AcDbEntity
  8
0
100
AcDbBlockBegin
  2
*MODEL_SPACE
 70
     0
 10
0.0
 20
0.0
 30
0.0
  3
*MODEL_SPACE
  1

  0
ENDBLK
  5
1A
100
AcDbEntity
  8
0
100
AcDbBlockEnd
  0
BLOCK
  5
16
100
AcDbEntity
 67
     1
  8
0
100
AcDbBlockBegin
  2
*PAPER_SPACE
 70
     0
 10
0.0
 20
0.0
 30
0.0
  3
*PAPER_SPACE
  1

  0
ENDBLK
  5
17
100
AcDbEntity
 67
     1
  8
0
100
AcDbBlockEnd
   0
BLOCK
   5
61
 100
AcDbEntity
   8
0
 100
AcDbBlockBegin
   2
_ARCHTICK
  70
0
  10
0.0
  20
0.0
  30
0.0
   3
_ARCHTICK
   0
POLYLINE
   5
62
 100
AcDbEntity
   8
0
   6
BYBLOCK
  62
0
 100
AcDb2dPolyline
  66
1
  10
0.0
  20
0.0
  30
0.0
  70
1
  40
 0.15000000000000
  41
 0.15000000000000
   0
VERTEX
   5
63
 100
AcDbEntity
   8
0
   6
BYBLOCK
  62
0
 100
AcDbVertex
 100
AcDb2dVertex
  10
-0.50000000000000
  20
-0.50000000000000
  30
0.0
  40
 0.15000000000000
  41
 0.15000000000000
   0
VERTEX
   5
64
 100
AcDbEntity
   8
0
   6
BYBLOCK
  62
0
 100
AcDbVertex
 100
AcDb2dVertex
  10
 0.50000000000000
  20
 0.50000000000000
  30
0.0
  40
 0.15000000000000
  41
 0.15000000000000
   0
SEQEND
   5
65
 100
AcDbEntity
   8
0
   6
BYBLOCK
  62
0
   0
ENDBLK
   5
66
 100
AcDbEntity
   8
0
 100
AcDbBlockEnd
   0
BLOCK
   5
67
 100
AcDbEntity
   8
0
 100
AcDbBlockBegin
   2
_OBLIQUE
  70
0
  10
0.0
  20
0.0
  30
0.0
   3
_OBLIQUE
   0
LINE
   5
68
 100
AcDbEntity
   8
0
 100
AcDbLine
   6
BYBLOCK
  62
0
  10
-0.50000000000000
  20
-0.50000000000000
  30
0.0
  11
 0.50000000000000
  21
 0.50000000000000
  31
0.0
   0
ENDBLK
   5
69
 100
AcDbEntity
   8
0
 100
AcDbBlockEnd
   0
BLOCK
   5
6A
 100
AcDbEntity
   8
0
 100
AcDbBlockBegin
   2
_BOXBLANK
  70
0
  10
0.0
  20
0.0
  30
0.0
   3
_BOXBLANK
   0
LINE
   5
6B
 100
AcDbEntity
   8
0
 100
AcDbLine
   6
BYBLOCK
  62
0
  10
-0.50000000000000
  20
-0.50000000000000
  30
0.0
  11
 0.50000000000000
  21
-0.50000000000000
  31
0.0
   0
LINE
   5
6C
 100
AcDbEntity
   8
0
 100
AcDbLine
   6
BYBLOCK
  62
0
  10
 0.50000000000000
  20
-0.50000000000000
  30
0.0
  11
 0.50000000000000
  21
 0.50000000000000
  31
0.0
   0
LINE
   5
6D
 100
AcDbEntity
   8
0
 100
AcDbLine
   6
BYBLOCK
  62
0
  10
 0.50000000000000
  20
 0.50000000000000
  30
0.0
  11
-0.50000000000000
  21
 0.50000000000000
  31
0.0
   0
LINE
   5
6E
 100
AcDbEntity
   8
0
 100
AcDbLine
   6
BYBLOCK
  62
0
  10
-0.50000000000000
  20
 0.50000000000000
  30
0.0
  11
-0.50000000000000
  21
-0.50000000000000
  31
0.0
   0
LINE
   5
6F
 100
AcDbEntity
   8
0
 100
AcDbLine
   6
BYBLOCK
  62
0
  10
-0.50000000000000
  20
0.0
  30
0.0
  11
-1.0000000000000
  21
0.0
  31
0.0
   0
ENDBLK
   5
70
 100
AcDbEntity
   8
0
 100
AcDbBlockEnd
   0
BLOCK
   5
71
 100
AcDbEntity
   8
0
 100
AcDbBlockBegin
   2
_BOXFILLED
  70
0
  10
0.0
  20
0.0
  30
0.0
   3
_BOXFILLED
   0
SOLID
   5
72
 100
AcDbEntity
   8
0
 100
AcDbTrace
   6
BYBLOCK
  62
0
  10
-0.50000000000000
  20
 0.50000000000000
  30
0.0
  11
 0.50000000000000
  21
 0.50000000000000
  31
0.0
  12
-0.50000000000000
  22
-0.50000000000000
  32
0.0
  13
 0.50000000000000
  23
-0.50000000000000
  33
0.0
   0
LINE
   5
73
 100
AcDbEntity
   8
0
 100
AcDbLine
   6
BYBLOCK
  62
0
  10
-0.50000000000000
  20
0.0
  30
0.0
  11
-1.0000000000000
  21
0.0
  31
0.0
   0
ENDBLK
   5
74
 100
AcDbEntity
   8
0
 100
AcDbBlockEnd
   0
BLOCK
   5
75
 100
AcDbEntity
   8
0
 100
AcDbBlockBegin
   2
_CLOSED
  70
0
  10
0.0
  20
0.0
  30
0.0
   3
_CLOSED
   0
LINE
   5
76
 100
AcDbEntity
   8
0
 100
AcDbLine
   6
BYBLOCK
  62
0
  10
-1.0000000000000
  20
 0.16666666666667
  30
0.0
  11
0.0
  21
0.0
  31
0.0
   0
LINE
   5
77
 100
AcDbEntity
   8
0
 100
AcDbLine
   6
BYBLOCK
  62
0
  10
0.0
  20
0.0
  30
0.0
  11
-1.0000000000000
  21
-0.16666666666667
  31
0.0
   0
LINE
   5
78
 100
AcDbEntity
   8
0
 100
AcDbLine
   6
BYBLOCK
  62
0
  10
-1.0000000000000
  20
 0.16666666666667
  30
0.0
  11
-1.0000000000000
  21
-0.16666666666667
  31
0.0
   0
LINE
   5
79
 100
AcDbEntity
   8
0
 100
AcDbLine
   6
BYBLOCK
  62
0
  10
0.0
  20
0.0
  30
0.0
  11
-1.0000000000000
  21
0.0
  31
0.0
   0
ENDBLK
   5
7A
 100
AcDbEntity
   8
0
 100
AcDbBlockEnd
   0
BLOCK
   5
7B
 100
AcDbEntity
   8
0
 100
AcDbBlockBegin
   2
_OPEN
  70
0
  10
0.0
  20
0.0
  30
0.0
   3
_OPEN
   0
LINE
   5
7C
 100
AcDbEntity
   8
0
 100
AcDbLine
   6
BYBLOCK
  62
0
  10
-1.0000000000000
  20
 0.16666666666667
  30
0.0
  11
0.0
  21
0.0
  31
0.0
   0
LINE
   5
7D
 100
AcDbEntity
   8
0
 100
AcDbLine
   6
BYBLOCK
  62
0
  10
0.0
  20
0.0
  30
0.0
  11
-1.0000000000000
  21
-0.16666666666667
  31
0.0
   0
LINE
   5
7E
 100
AcDbEntity
   8
0
 100
AcDbLine
   6
BYBLOCK
  62
0
  10
0.0
  20
0.0
  30
0.0
  11
-1.0000000000000
  21
0.0
  31
0.0
   0
ENDBLK
   5
7F
 100
AcDbEntity
   8
0
 100
AcDbBlockEnd
   0
BLOCK
   5
80
 100
AcDbEntity
   8
0
 100
AcDbBlockBegin
   2
_OPEN30
  70
0
  10
0.0
  20
0.0
  30
0.0
   3
_OPEN30
   0
LINE
   5
81
 100
AcDbEntity
   8
0
 100
AcDbLine
   6
BYBLOCK
  62
0
  10
-1.0000000000000
  20
 0.26794919243110
  30
0.0
  11
0.0
  21
0.0
  31
0.0
   0
LINE
   5
82
 100
AcDbEntity
   8
0
 100
AcDbLine
   6
BYBLOCK
  62
0
  10
0.0
  20
0.0
  30
0.0
  11
-1.0000000000000
  21
-0.26794919243110
  31
0.0
   0
LINE
   5
83
 100
AcDbEntity
   8
0
 100
AcDbLine
   6
BYBLOCK
  62
0
  10
0.0
  20
0.0
  30
0.0
  11
-1.0000000000000
  21
0.0
  31
0.0
   0
ENDBLK
   5
84
 100
AcDbEntity
   8
0
 100
AcDbBlockEnd
   0
BLOCK
   5
85
 100
AcDbEntity
   8
0
 100
AcDbBlockBegin
   2
_OPEN90
  70
0
  10
0.0
  20
0.0
  30
0.0
   3
_OPEN90
   0
LINE
   5
86
 100
AcDbEntity
   8
0
 100
AcDbLine
   6
BYBLOCK
  62
0
  10
-0.50000000000000
  20
 0.50000000000000
  30
0.0
  11
0.0
  21
0.0
  31
0.0
   0
LINE
   5
87
 100
AcDbEntity
   8
0
 100
AcDbLine
   6
BYBLOCK
  62
0
  10
0.0
  20
0.0
  30
0.0
  11
-0.50000000000000
  21
-0.50000000000000
  31
0.0
   0
LINE
   5
88
 100
AcDbEntity
   8
0
 100
AcDbLine
   6
BYBLOCK
  62
0
  10
0.0
  20
0.0
  30
0.0
  11
-1.0000000000000
  21
0.0
  31
0.0
   0
ENDBLK
   5
89
 100
AcDbEntity
   8
0
 100
AcDbBlockEnd
   0
BLOCK
   5
8A
 100
AcDbEntity
   8
0
 100
AcDbBlockBegin
   2
_CLOSEDBLANK
  70
0
  10
0.0
  20
0.0
  30
0.0
   3
_CLOSEDBLANK
   0
LINE
   5
8B
 100
AcDbEntity
   8
0
 100
AcDbLine
   6
BYBLOCK
  62
0
  10
-1.0000000000000
  20
 0.16666666666667
  30
0.0
  11
0.0
  21
0.0
  31
0.0
   0
LINE
   5
8C
 100
AcDbEntity
   8
0
 100
AcDbLine
   6
BYBLOCK
  62
0
  10
0.0
  20
0.0
  30
0.0
  11
-1.0000000000000
  21
-0.16666666666667
  31
0.0
   0
LINE
   5
8D
 100
AcDbEntity
   8
0
 100
AcDbLine
   6
BYBLOCK
  62
0
  10
-1.0000000000000
  20
 0.16666666666667
  30
0.0
  11
-1.0000000000000
  21
-0.16666666666667
  31
0.0
   0
ENDBLK
   5
8E
 100
AcDbEntity
   8
0
 100
AcDbBlockEnd
   0
BLOCK
   5
8F
 100
AcDbEntity
   8
0
 100
AcDbBlockBegin
   2
_DOT
  70
0
  10
0.0
  20
0.0
  30
0.0
   3
_DOT
   0
POLYLINE
   5
90
 100
AcDbEntity
   8
0
   6
BYBLOCK
  62
0
 100
AcDb2dPolyline
  66
1
  10
0.0
  20
0.0
  30
0.0
  70
1
  40
 0.50000000000000
  41
 0.50000000000000
   0
VERTEX
   5
91
 100
AcDbEntity
   8
0
   6
BYBLOCK
  62
0
 100
AcDbVertex
 100
AcDb2dVertex
  10
-0.25000000000000
  20
0.0
  30
0.0
  42
 1.0000000000000
  40
 0.50000000000000
  41
 0.50000000000000
   0
VERTEX
   5
92
 100
AcDbEntity
   8
0
   6
BYBLOCK
  62
0
 100
AcDbVertex
 100
AcDb2dVertex
  10
 0.25000000000000
  20
0.0
  30
0.0
  42
 1.0000000000000
  40
 0.50000000000000
  41
 0.50000000000000
   0
SEQEND
   5
93
 100
AcDbEntity
   8
0
   6
BYBLOCK
  62
0
   0
LINE
   5
94
 100
AcDbEntity
   8
0
 100
AcDbLine
   6
BYBLOCK
  62
0
  10
-0.50000000000000
  20
0.0
  30
0.0
  11
-1.0000000000000
  21
0.0
  31
0.0
   0
ENDBLK
   5
95
 100
AcDbEntity
   8
0
 100
AcDbBlockEnd
   0
BLOCK
   5
96
 100
AcDbEntity
   8
0
 100
AcDbBlockBegin
   2
_DOTSMALL
  70
0
  10
0.0
  20
0.0
  30
0.0
   3
_DOTSMALL
   0
POLYLINE
   5
97
 100
AcDbEntity
   8
0
   6
BYBLOCK
  62
0
 100
AcDb2dPolyline
  66
1
  10
0.0
  20
0.0
  30
0.0
  70
1
  40
 0.50000000000000
  41
 0.50000000000000
   0
VERTEX
   5
98
 100
AcDbEntity
   8
0
   6
BYBLOCK
  62
0
 100
AcDbVertex
 100
AcDb2dVertex
  10
-0.62500000000000E-1
  20
0.0
  30
0.0
  42
 1.0000000000000
  40
 0.50000000000000
  41
 0.50000000000000
   0
VERTEX
   5
99
 100
AcDbEntity
   8
0
   6
BYBLOCK
  62
0
 100
AcDbVertex
 100
AcDb2dVertex
  10
 0.62500000000000E-1
  20
0.0
  30
0.0
  42
 1.0000000000000
  40
 0.50000000000000
  41
 0.50000000000000
   0
SEQEND
   5
9A
 100
AcDbEntity
   8
0
   6
BYBLOCK
  62
0
   0
ENDBLK
   5
9B
 100
AcDbEntity
   8
0
 100
AcDbBlockEnd
   0
BLOCK
   5
9C
 100
AcDbEntity
   8
0
 100
AcDbBlockBegin
   2
_DATUMBLANK
  70
0
  10
0.0
  20
0.0
  30
0.0
   3
_DATUMBLANK
   0
LINE
   5
9D
 100
AcDbEntity
   8
0
 100
AcDbLine
   6
BYBLOCK
  62
0
  10
0.0
  20
 0.57735027000000
  30
0.0
  11
-1.0000000000000
  21
0.0
  31
0.0
   0
LINE
   5
9E
 100
AcDbEntity
   8
0
 100
AcDbLine
   6
BYBLOCK
  62
0
  10
-1.0000000000000
  20
0.0
  30
0.0
  11
0.0
  21
-0.57735027000000
  31
0.0
   0
LINE
   5
9F
 100
AcDbEntity
   8
0
 100
AcDbLine
   6
BYBLOCK
  62
0
  10
0.0
  20
-0.57735027000000
  30
0.0
  11
0.0
  21
 0.57735027000000
  31
0.0
   0
ENDBLK
   5
A0
 100
AcDbEntity
   8
0
 100
AcDbBlockEnd
   0
BLOCK
   5
A1
 100
AcDbEntity
   8
0
 100
AcDbBlockBegin
   2
_DATUMFILLED
  70
0
  10
0.0
  20
0.0
  30
0.0
   3
_DATUMFILLED
   0
SOLID
   5
A2
 100
AcDbEntity
   8
0
 100
AcDbTrace
   6
BYBLOCK
  62
0
  10
0.0
  20
 0.57735027000000
  30
0.0
  11
-1.0000000000000
  21
0.0
  31
0.0
  12
0.0
  22
-0.57735027000000
  32
0.0
  13
0.0
  23
-0.57735027000000
  33
0.0
   0
ENDBLK
   5
A3
 100
AcDbEntity
   8
0
 100
AcDbBlockEnd
   0
BLOCK
   5
A4
 100
AcDbEntity
   8
0
 100
AcDbBlockBegin
   2
_ORIGIN
  70
0
  10
0.0
  20
0.0
  30
0.0
   3
_ORIGIN
   0
CIRCLE
   5
A5
 100
AcDbEntity
   8
0
 100
AcDbCircle
   6
BYBLOCK
  62
0
  10
0.0
  20
0.0
  30
0.0
  40
 0.50000000000000
   0
LINE
   5
A6
 100
AcDbEntity
   8
0
 100
AcDbLine
   6
BYBLOCK
  62
0
  10
0.0
  20
0.0
  30
0.0
  11
-1.0000000000000
  21
0.0
  31
0.0
   0
ENDBLK
   5
A7
 100
AcDbEntity
   8
0
 100
AcDbBlockEnd
   0
BLOCK
   5
A8
 100
AcDbEntity
   8
0
 100
AcDbBlockBegin
   2
_NONE
  70
0
  10
0.0
  20
0.0
  30
0.0
   3
_NONE
   0
CIRCLE
   5
A9
 100
AcDbEntity
   8
0
 100
AcDbCircle
   6
BYBLOCK
  62
0
  10
0.0
  20
0.0
  30
0.0
  40
 0.25000000000000
   0
ENDBLK
   5
AA
 100
AcDbEntity
   8
0
 100
AcDbBlockEnd
   0
BLOCK
   5
AB
 100
AcDbEntity
   8
0
 100
AcDbBlockBegin
   2
_DOTBLANK
  70
0
  10
0.0
  20
0.0
  30
0.0
   3
_DOTBLANK
   0
CIRCLE
   5
AC
 100
AcDbEntity
   8
0
 100
AcDbCircle
   6
BYBLOCK
  62
0
  10
0.0
  20
0.0
  30
0.0
  40
 0.50000000000000
   0
LINE
   5
AD
 100
AcDbEntity
   8
0
 100
AcDbLine
   6
BYBLOCK
  62
0
  10
-0.50000000000000
  20
0.0
  30
0.0
  11
-1.0000000000000
  21
0.0
  31
0.0
   0
ENDBLK
   5
AE
 100
AcDbEntity
   8
0
 100
AcDbBlockEnd
   0
BLOCK
   5
AF
 100
AcDbEntity
   8
0
 100
AcDbBlockBegin
   2
_INTEGRAL
  70
0
  10
0.0
  20
0.0
  30
0.0
   3
_INTEGRAL
   0
ARC
   5
B0
 100
AcDbEntity
   8
0
   6
BYBLOCK
  62
0
 100
AcDbCircle
  10
 0.44488800000000
  20
-0.91335000000000E-1
  30
0.0
  40
 0.45416700000000
 100
AcDbArc
  50
 102.00000000000
  51
 168.00000000000
   0
ARC
   5
B1
 100
AcDbEntity
   8
0
   6
BYBLOCK
  62
0
 100
AcDbCircle
  10
-0.44488800000000
  20
 0.91335000000000E-1
  30
0.0
  40
 0.45416700000000
 100
AcDbArc
  50
 282.00000000000
  51
 348.00000000000
   0
ENDBLK
   5
B2
 100
AcDbEntity
   8
0
 100
AcDbBlockEnd
   0
BLOCK
   5
B3
 100
AcDbEntity
   8
0
 100
AcDbBlockBegin
   2
*D1
  70
65
  10
0.0
  20
0.0
  30
0.0
   3
*D1
   0
LINE
   5
B4
 100
AcDbEntity
   8
LEVEL001
 100
AcDbLine
   6
CONTINUOUS
  62
3
  10
 81.316244601235
  20
 324.04399226615
  30
0.0
  11
 81.316244601235
  21
 349.32618333146
  31
0.0
   0
LINE
   5
B5
 100
AcDbEntity
   8
LEVEL001
 100
AcDbLine
   6
CONTINUOUS
  62
3
  10
 96.316244601235
  20
 314.37674358796
  30
0.0
  11
 96.316244601235
  21
 349.32618333146
  31
0.0
   0
LINE
   5
B6
 100
AcDbEntity
   8
LEVEL001
 100
AcDbLine
   6
CONTINUOUS
  62
3
  10
 81.316244601235
  20
 347.32618333146
  30
0.0
  11
 88.816244601235
  21
 347.32618333146
  31
0.0
   0
LINE
   5
B7
 100
AcDbEntity
   8
LEVEL001
 100
AcDbLine
   6
CONTINUOUS
  62
3
  10
 96.316244601235
  20
 347.32618333146
  30
0.0
  11
 88.816244601235
  21
 347.32618333146
  31
0.0
   0
INSERT
   5
B8
 100
AcDbEntity
   8
LEVEL001
   6
CONTINUOUS
  62
3
 100
AcDbBlockReference
   2
_OPEN30
  10
 81.316244601235
  20
 347.32618333146
  30
0.0
  41
 6.0000000000000
  42
 6.0000000000000
  43
 6.0000000000000
  50
 180.00000000000
   0
INSERT
   5
B9
 100
AcDbEntity
   8
LEVEL001
   6
CONTINUOUS
  62
3
 100
AcDbBlockReference
   2
_OPEN30
  10
 96.316244601235
  20
 347.32618333146
  30
0.0
  41
 6.0000000000000
  42
 6.0000000000000
  43
 6.0000000000000
  50
0.0
   0
MTEXT
   5
BA
 100
AcDbEntity
   8
LEVEL001
  62
3
 100
AcDbMText
  10
 88.816244601235
  20
 350.75475476003
  30
0.0
  40
 8.0000000000000
  41
0.0
  71
8
  72
1
   1
\A1;15
   7
GMM001
   0
ENDBLK
   5
BB
 100
AcDbEntity
   8
0
 100
AcDbBlockEnd
   0
BLOCK
   5
BC
 100
AcDbEntity
   8
0
 100
AcDbBlockBegin
   2
*D2
  70
65
  10
0.0
  20
0.0
  30
0.0
   3
*D2
   0
LINE
   5
BD
 100
AcDbEntity
   8
LEVEL001
 100
AcDbLine
   6
CONTINUOUS
  62
3
  10
 680.87489343385
  20
 324.15784009817
  30
0.0
  11
 680.87489343385
  21
 349.32618333146
  31
0.0
   0
LINE
   5
BE
 100
AcDbEntity
   8
LEVEL001
 100
AcDbLine
   6
CONTINUOUS
  62
3
  10
 665.87489343385
  20
 347.32618333146
  30
0.0
  11
 673.37489343385
  21
 347.32618333146
  31
0.0
   0
LINE
   5
BF
 100
AcDbEntity
   8
LEVEL001
 100
AcDbLine
   6
CONTINUOUS
  62
3
  10
 680.87489343385
  20
 347.32618333146
  30
0.0
  11
 673.37489343385
  21
 347.32618333146
  31
0.0
   0
INSERT
   5
C0
 100
AcDbEntity
   8
LEVEL001
   6
CONTINUOUS
  62
3
 100
AcDbBlockReference
   2
_OPEN30
  10
 665.87489343385
  20
 347.32618333146
  30
0.0
  41
 6.0000000000000
  42
 6.0000000000000
  43
 6.0000000000000
  50
 180.00000000000
   0
INSERT
   5
C1
 100
AcDbEntity
   8
LEVEL001
   6
CONTINUOUS
  62
3
 100
AcDbBlockReference
   2
_OPEN30
  10
 680.87489343385
  20
 347.32618333146
  30
0.0
  41
 6.0000000000000
  42
 6.0000000000000
  43
 6.0000000000000
  50
0.0
   0
MTEXT
   5
C2
 100
AcDbEntity
   8
LEVEL001
  62
3
 100
AcDbMText
  10
 673.37489343385
  20
 350.75475476003
  30
0.0
  40
 8.0000000000000
  41
0.0
  71
8
  72
1
   1
\A1;15
   7
GMM001
   0
ENDBLK
   5
C3
 100
AcDbEntity
   8
0
 100
AcDbBlockEnd
   0
BLOCK
   5
C4
 100
AcDbEntity
   8
0
 100
AcDbBlockBegin
   2
*D3
  70
65
  10
0.0
  20
0.0
  30
0.0
   3
*D3
   0
LINE
   5
C5
 100
AcDbEntity
   8
LEVEL001
 100
AcDbLine
   6
CONTINUOUS
  62
3
  10
 689.65564448947
  20
 316.50802806744
  30
0.0
  11
 714.37684952762
  21
 316.50802806744
  31
0.0
   0
LINE
   5
C6
 100
AcDbEntity
   8
LEVEL001
 100
AcDbLine
   6
CONTINUOUS
  62
3
  10
 689.80715325392
  20
 296.50802806744
  30
0.0
  11
 714.37684952762
  21
 296.50802806744
  31
0.0
   0
LINE
   5
C7
 100
AcDbEntity
   8
LEVEL001
 100
AcDbLine
   6
CONTINUOUS
  62
3
  10
 712.37684952762
  20
 316.50802806744
  30
0.0
  11
 712.37684952762
  21
 306.50802806744
  31
0.0
   0
LINE
   5
C8
 100
AcDbEntity
   8
LEVEL001
 100
AcDbLine
   6
CONTINUOUS
  62
3
  10
 712.37684952762
  20
 296.50802806744
  30
0.0
  11
 712.37684952762
  21
 306.50802806744
  31
0.0
   0
INSERT
   5
C9
 100
AcDbEntity
   8
LEVEL001
   6
CONTINUOUS
  62
3
 100
AcDbBlockReference
   2
_OPEN30
  10
 712.37684952762
  20
 316.50802806744
  30
0.0
  41
 6.0000000000000
  42
 6.0000000000000
  43
 6.0000000000000
  50
 90.000000000000
   0
INSERT
   5
CA
 100
AcDbEntity
   8
LEVEL001
   6
CONTINUOUS
  62
3
 100
AcDbBlockReference
   2
_OPEN30
  10
 712.37684952762
  20
 296.50802806744
  30
0.0
  41
 6.0000000000000
  42
 6.0000000000000
  43
 6.0000000000000
  50
 270.00000000000
   0
MTEXT
   5
CB
 100
AcDbEntity
   8
LEVEL001
  62
3
 100
AcDbMText
  10
 708.94827809905
  20
 306.50802806744
  30
0.0
  40
 8.0000000000000
  41
0.0
  71
8
  72
1
   1
\A1;20
   7
GMM001
  11
0.0
  21
 1.0000000000000
  31
0.0
   0
ENDBLK
   5
CC
 100
AcDbEntity
   8
0
 100
AcDbBlockEnd
   0
BLOCK
   5
CD
 100
AcDbEntity
   8
0
 100
AcDbBlockBegin
   2
*D4
  70
65
  10
0.0
  20
0.0
  30
0.0
   3
*D4
   0
LINE
   5
CE
 100
AcDbEntity
   8
LEVEL001
 100
AcDbLine
   6
CONTINUOUS
  62
3
  10
 585.98098959171
  20
 443.87269826546
  30
0.0
  11
 587.98098959171
  21
 443.87269826546
  31
0.0
   0
LINE
   5
CF
 100
AcDbEntity
   8
LEVEL001
 100
AcDbLine
   6
CONTINUOUS
  62
3
  10
 585.98098959171
  20
 478.87269826546
  30
0.0
  11
 585.98098959171
  21
 461.37269826546
  31
0.0
   0
LINE
   5
D0
 100
AcDbEntity
   8
LEVEL001
 100
AcDbLine
   6
CONTINUOUS
  62
3
  10
 585.98098959171
  20
 443.87269826546
  30
0.0
  11
 585.98098959171
  21
 461.37269826546
  31
0.0
   0
INSERT
   5
D1
 100
AcDbEntity
   8
LEVEL001
   6
CONTINUOUS
  62
3
 100
AcDbBlockReference
   2
_OPEN30
  10
 585.98098959171
  20
 478.87269826546
  30
0.0
  41
 6.0000000000000
  42
 6.0000000000000
  43
 6.0000000000000
  50
 90.000000000000
   0
INSERT
   5
D2
 100
AcDbEntity
   8
LEVEL001
   6
CONTINUOUS
  62
3
 100
AcDbBlockReference
   2
_OPEN30
  10
 585.98098959171
  20
 443.87269826546
  30
0.0
  41
 6.0000000000000
  42
 6.0000000000000
  43
 6.0000000000000
  50
 270.00000000000
   0
MTEXT
   5
D3
 100
AcDbEntity
   8
LEVEL001
  62
3
 100
AcDbMText
  10
 582.55241816314
  20
 461.37269826546
  30
0.0
  40
 8.0000000000000
  41
0.0
  71
8
  72
1
   1
\A1;%%c35
   7
GMM001
  11
0.0
  21
 1.0000000000000
  31
0.0
   0
ENDBLK
   5
D4
 100
AcDbEntity
   8
0
 100
AcDbBlockEnd
   0
BLOCK
   5
D5
 100
AcDbEntity
   8
0
 100
AcDbBlockBegin
   2
*D5
  70
65
  10
0.0
  20
0.0
  30
0.0
   3
*D5
   0
LINE
   5
D6
 100
AcDbEntity
   8
LEVEL001
 100
AcDbLine
   6
CONTINUOUS
  62
3
  10
 623.29489343385
  20
 441.37269826539
  30
0.0
  11
 623.29489343385
  21
 367.35749026401
  31
0.0
   0
LINE
   5
D7
 100
AcDbEntity
   8
LEVEL001
 100
AcDbLine
   6
CONTINUOUS
  62
3
  10
 691.09556901754
  20
 399.37269826546
  30
0.0
  11
 691.09556901754
  21
 367.35749026401
  31
0.0
   0
LINE
   5
D8
 100
AcDbEntity
   8
LEVEL001
 100
AcDbLine
   6
CONTINUOUS
  62
3
  10
 623.29489343385
  20
 369.35749026401
  30
0.0
  11
 657.19523122570
  21
 369.35749026401
  31
0.0
   0
LINE
   5
D9
 100
AcDbEntity
   8
LEVEL001
 100
AcDbLine
   6
CONTINUOUS
  62
3
  10
 691.09556901754
  20
 369.35749026401
  30
0.0
  11
 657.19523122570
  21
 369.35749026401
  31
0.0
   0
INSERT
   5
DA
 100
AcDbEntity
   8
LEVEL001
   6
CONTINUOUS
  62
3
 100
AcDbBlockReference
   2
_OPEN30
  10
 623.29489343385
  20
 369.35749026401
  30
0.0
  41
 6.0000000000000
  42
 6.0000000000000
  43
 6.0000000000000
  50
 180.00000000000
   0
INSERT
   5
DB
 100
AcDbEntity
   8
LEVEL001
   6
CONTINUOUS
  62
3
 100
AcDbBlockReference
   2
_OPEN30
  10
 691.09556901754
  20
 369.35749026401
  30
0.0
  41
 6.0000000000000
  42
 6.0000000000000
  43
 6.0000000000000
  50
0.0
   0
MTEXT
   5
DC
 100
AcDbEntity
   8
LEVEL001
  62
3
 100
AcDbMText
  10
 657.19523122570
  20
 372.78606169258
  30
0.0
  40
 8.0000000000000
  41
0.0
  71
8
  72
1
   1
\A1;(67.8)
   7
GMM001
   0
ENDBLK
   5
DD
 100
AcDbEntity
   8
0
 100
AcDbBlockEnd
   0
BLOCK
   5
DE
 100
AcDbEntity
   8
0
 100
AcDbBlockBegin
   2
*D6
  70
65
  10
0.0
  20
0.0
  30
0.0
   3
*D6
   0
LINE
   5
DF
 100
AcDbEntity
   8
LEVEL001
 100
AcDbLine
   6
CONTINUOUS
  62
3
  10
 138.89624460123
  20
 441.37269826539
  30
0.0
  11
 138.89624460123
  21
 367.35749026401
  31
0.0
   0
LINE
   5
E0
 100
AcDbEntity
   8
LEVEL001
 100
AcDbLine
   6
CONTINUOUS
  62
3
  10
 71.095569017542
  20
 399.37269826546
  30
0.0
  11
 71.095569017542
  21
 367.35749026401
  31
0.0
   0
LINE
   5
E1
 100
AcDbEntity
   8
LEVEL001
 100
AcDbLine
   6
CONTINUOUS
  62
3
  10
 138.89624460123
  20
 369.35749026401
  30
0.0
  11
 104.99590680939
  21
 369.35749026401
  31
0.0
   0
LINE
   5
E2
 100
AcDbEntity
   8
LEVEL001
 100
AcDbLine
   6
CONTINUOUS
  62
3
  10
 71.095569017542
  20
 369.35749026401
  30
0.0
  11
 104.99590680939
  21
 369.35749026401
  31
0.0
   0
INSERT
   5
E3
 100
AcDbEntity
   8
LEVEL001
   6
CONTINUOUS
  62
3
 100
AcDbBlockReference
   2
_OPEN30
  10
 138.89624460123
  20
 369.35749026401
  30
0.0
  41
 6.0000000000000
  42
 6.0000000000000
  43
 6.0000000000000
  50
0.0
   0
INSERT
   5
E4
 100
AcDbEntity
   8
LEVEL001
   6
CONTINUOUS
  62
3
 100
AcDbBlockReference
   2
_OPEN30
  10
 71.095569017542
  20
 369.35749026401
  30
0.0
  41
 6.0000000000000
  42
 6.0000000000000
  43
 6.0000000000000
  50
 180.00000000000
   0
MTEXT
   5
E5
 100
AcDbEntity
   8
LEVEL001
  62
3
 100
AcDbMText
  10
 104.99590680939
  20
 372.78606169258
  30
0.0
  40
 8.0000000000000
  41
0.0
  71
8
  72
1
   1
\A1;(67.8)
   7
GMM001
   0
ENDBLK
   5
E6
 100
AcDbEntity
   8
0
 100
AcDbBlockEnd
   0
BLOCK
   5
E7
 100
AcDbEntity
   8
0
 100
AcDbBlockBegin
   2
*D7
  70
65
  10
0.0
  20
0.0
  30
0.0
   3
*D7
   0
LINE
   5
E8
 100
AcDbEntity
   8
LEVEL001
 100
AcDbLine
   6
CONTINUOUS
  62
3
  10
 658.87489343387
  20
 401.37269826546
  30
0.0
  11
 583.98098959171
  21
 401.37269826546
  31
0.0
   0
LINE
   5
E9
 100
AcDbEntity
   8
LEVEL001
 100
AcDbLine
   6
CONTINUOUS
  62
3
  10
 585.98098959171
  20
 443.87269826546
  30
0.0
  11
 585.98098959171
  21
 422.62269826546
  31
0.0
   0
LINE
   5
EA
 100
AcDbEntity
   8
LEVEL001
 100
AcDbLine
   6
CONTINUOUS
  62
3
  10
 585.98098959171
  20
 401.37269826546
  30
0.0
  11
 585.98098959171
  21
 422.62269826546
  31
0.0
   0
INSERT
   5
EB
 100
AcDbEntity
   8
LEVEL001
   6
CONTINUOUS
  62
3
 100
AcDbBlockReference
   2
_OPEN30
  10
 585.98098959171
  20
 443.87269826546
  30
0.0
  41
 6.0000000000000
  42
 6.0000000000000
  43
 6.0000000000000
  50
 90.000000000000
   0
INSERT
   5
EC
 100
AcDbEntity
   8
LEVEL001
   6
CONTINUOUS
  62
3
 100
AcDbBlockReference
   2
_OPEN30
  10
 585.98098959171
  20
 401.37269826546
  30
0.0
  41
 6.0000000000000
  42
 6.0000000000000
  43
 6.0000000000000
  50
 270.00000000000
   0
MTEXT
   5
ED
 100
AcDbEntity
   8
LEVEL001
  62
3
 100
AcDbMText
  10
 582.55241816314
  20
 422.62269826546
  30
0.0
  40
 8.0000000000000
  41
0.0
  71
8
  72
1
   1
\A1;42.5
   7
GMM001
  11
0.0
  21
 1.0000000000000
  31
0.0
   0
ENDBLK
   5
EE
 100
AcDbEntity
   8
0
 100
AcDbBlockEnd
   0
BLOCK
   5
EF
 100
AcDbEntity
   8
0
 100
AcDbBlockBegin
   2
*D8
  70
65
  10
0.0
  20
0.0
  30
0.0
   3
*D8
   0
LINE
   5
F0
 100
AcDbEntity
   8
LEVEL001
 100
AcDbLine
   6
CONTINUOUS
  62
3
  10
 124.89624460123
  20
 480.87269826546
  30
0.0
  11
 124.89624460123
  21
 511.71808203200
  31
0.0
   0
LINE
   5
F1
 100
AcDbEntity
   8
LEVEL001
 100
AcDbLine
   6
CONTINUOUS
  62
3
  10
 637.29489343385
  20
 480.87269826546
  30
0.0
  11
 637.29489343385
  21
 511.71808203200
  31
0.0
   0
LINE
   5
F2
 100
AcDbEntity
   8
LEVEL001
 100
AcDbLine
   6
CONTINUOUS
  62
3
  10
 124.89624460123
  20
 509.71808203200
  30
0.0
  11
 381.09556901754
  21
 509.71808203200
  31
0.0
   0
LINE
   5
F3
 100
AcDbEntity
   8
LEVEL001
 100
AcDbLine
   6
CONTINUOUS
  62
3
  10
 637.29489343385
  20
 509.71808203200
  30
0.0
  11
 381.09556901754
  21
 509.71808203200
  31
0.0
   0
INSERT
   5
F4
 100
AcDbEntity
   8
LEVEL001
   6
CONTINUOUS
  62
3
 100
AcDbBlockReference
   2
_OPEN30
  10
 124.89624460123
  20
 509.71808203200
  30
0.0
  41
 6.0000000000000
  42
 6.0000000000000
  43
 6.0000000000000
  50
 180.00000000000
   0
INSERT
   5
F5
 100
AcDbEntity
   8
LEVEL001
   6
CONTINUOUS
  62
3
 100
AcDbBlockReference
   2
_OPEN30
  10
 637.29489343385
  20
 509.71808203200
  30
0.0
  41
 6.0000000000000
  42
 6.0000000000000
  43
 6.0000000000000
  50
0.0
   0
MTEXT
   5
F6
 100
AcDbEntity
   8
LEVEL001
  62
3
 100
AcDbMText
  10
 381.09556901754
  20
 513.14665346057
  30
0.0
  40
 8.0000000000000
  41
0.0
  71
8
  72
1
   1
\A1;ÄÞÉáû_ÆÀé│
   7
GMM001
   0
ENDBLK
   5
F7
 100
AcDbEntity
   8
0
 100
AcDbBlockEnd
   0
BLOCK
   5
F8
 100
AcDbEntity
   8
0
 100
AcDbBlockBegin
   2
*D9
  70
65
  10
0.0
  20
0.0
  30
0.0
   3
*D9
   0
LINE
   5
F9
 100
AcDbEntity
   8
LEVEL001
 100
AcDbLine
   6
CONTINUOUS
  62
3
  10
 71.095569017542
  20
 403.37269826546
  30
0.0
  11
 71.095569017542
  21
 530.99895154557
  31
0.0
   0
LINE
   5
FA
 100
AcDbEntity
   8
LEVEL001
 100
AcDbLine
   6
CONTINUOUS
  62
3
  10
 691.09556901754
  20
 403.37269826546
  30
0.0
  11
 691.09556901754
  21
 530.99895154557
  31
0.0
   0
LINE
   5
FB
 100
AcDbEntity
   8
LEVEL001
 100
AcDbLine
   6
CONTINUOUS
  62
3
  10
 71.095569017542
  20
 528.99895154557
  30
0.0
  11
 381.09556901754
  21
 528.99895154557
  31
0.0
   0
LINE
   5
FC
 100
AcDbEntity
   8
LEVEL001
 100
AcDbLine
   6
CONTINUOUS
  62
3
  10
 691.09556901754
  20
 528.99895154557
  30
0.0
  11
 381.09556901754
  21
 528.99895154557
  31
0.0
   0
INSERT
   5
FD
 100
AcDbEntity
   8
LEVEL001
   6
CONTINUOUS
  62
3
 100
AcDbBlockReference
   2
_OPEN30
  10
 71.095569017542
  20
 528.99895154557
  30
0.0
  41
 6.0000000000000
  42
 6.0000000000000
  43
 6.0000000000000
  50
 180.00000000000
   0
INSERT
   5
FE
 100
AcDbEntity
   8
LEVEL001
   6
CONTINUOUS
  62
3
 100
AcDbBlockReference
   2
_OPEN30
  10
 691.09556901754
  20
 528.99895154557
  30
0.0
  41
 6.0000000000000
  42
 6.0000000000000
  43
 6.0000000000000
  50
0.0
   0
MTEXT
   5
FF
 100
AcDbEntity
   8
LEVEL001
  62
3
 100
AcDbMText
  10
 381.09556901754
  20
 532.42752297414
  30
0.0
  40
 8.0000000000000
  41
0.0
  71
8
  72
1
   1
\A1;435üE535üE735üE935
   7
GMM001
   0
ENDBLK
   5
100
 100
AcDbEntity
   8
0
 100
AcDbBlockEnd
   0
BLOCK
   5
101
 100
AcDbEntity
   8
0
 100
AcDbBlockBegin
   2
*D10
  70
65
  10
0.0
  20
0.0
  30
0.0
   3
*D10
   0
LINE
   5
102
 100
AcDbEntity
   8
LEVEL001
 100
AcDbLine
   6
CONTINUOUS
  62
3
  10
 138.89624460123
  20
 367.00494622117
  30
0.0
  11
 138.89624460123
  21
 371.35749026401
  31
0.0
   0
LINE
   5
103
 100
AcDbEntity
   8
LEVEL001
 100
AcDbLine
   6
CONTINUOUS
  62
3
  10
 138.89624460123
  20
 369.35749026401
  30
0.0
  11
 381.09556901754
  21
 369.35749026401
  31
0.0
   0
LINE
   5
104
 100
AcDbEntity
   8
LEVEL001
 100
AcDbLine
   6
CONTINUOUS
  62
3
  10
 623.29489343385
  20
 369.35749026401
  30
0.0
  11
 381.09556901754
  21
 369.35749026401
  31
0.0
   0
INSERT
   5
105
 100
AcDbEntity
   8
LEVEL001
   6
CONTINUOUS
  62
3
 100
AcDbBlockReference
   2
_OPEN30
  10
 138.89624460123
  20
 369.35749026401
  30
0.0
  41
 6.0000000000000
  42
 6.0000000000000
  43
 6.0000000000000
  50
 180.00000000000
   0
INSERT
   5
106
 100
AcDbEntity
   8
LEVEL001
   6
CONTINUOUS
  62
3
 100
AcDbBlockReference
   2
_OPEN30
  10
 623.29489343385
  20
 369.35749026401
  30
0.0
  41
 6.0000000000000
  42
 6.0000000000000
  43
 6.0000000000000
  50
0.0
   0
MTEXT
   5
107
 100
AcDbEntity
   8
LEVEL001
  62
3
 100
AcDbMText
  10
 381.09556901754
  20
 372.78606169258
  30
0.0
  40
 8.0000000000000
  41
0.0
  71
8
  72
1
   1
\A1;299.4üE399.4üE599.4üE799.4
   7
GMM001
   0
ENDBLK
   5
108
 100
AcDbEntity
   8
0
 100
AcDbBlockEnd
   0
BLOCK
   5
109
 100
AcDbEntity
   8
0
 100
AcDbBlockBegin
   2
*D11
  70
65
  10
0.0
  20
0.0
  30
0.0
   3
*D11
   0
LINE
   5
10A
 100
AcDbEntity
   8
LEVEL001
 100
AcDbLine
   6
CONTINUOUS
  62
3
  10
 665.87489343385
  20
 314.37674358796
  30
0.0
  11
 665.87489343385
  21
 349.32618333146
  31
0.0
   0
LINE
   5
10B
 100
AcDbEntity
   8
LEVEL001
 100
AcDbLine
   6
CONTINUOUS
  62
3
  10
 96.316244601235
  20
 347.32618333146
  30
0.0
  11
 381.09556901754
  21
 347.32618333146
  31
0.0
   0
LINE
   5
10C
 100
AcDbEntity
   8
LEVEL001
 100
AcDbLine
   6
CONTINUOUS
  62
3
  10
 665.87489343385
  20
 347.32618333146
  30
0.0
  11
 381.09556901754
  21
 347.32618333146
  31
0.0
   0
INSERT
   5
10D
 100
AcDbEntity
   8
LEVEL001
   6
CONTINUOUS
  62
3
 100
AcDbBlockReference
   2
_OPEN30
  10
 96.316244601235
  20
 347.32618333146
  30
0.0
  41
 6.0000000000000
  42
 6.0000000000000
  43
 6.0000000000000
  50
 180.00000000000
   0
INSERT
   5
10E
 100
AcDbEntity
   8
LEVEL001
   6
CONTINUOUS
  62
3
 100
AcDbBlockReference
   2
_OPEN30
  10
 665.87489343385
  20
 347.32618333146
  30
0.0
  41
 6.0000000000000
  42
 6.0000000000000
  43
 6.0000000000000
  50
0.0
   0
MTEXT
   5
10F
 100
AcDbEntity
   8
LEVEL001
  62
3
 100
AcDbMText
  10
 381.09556901754
  20
 350.75475476003
  30
0.0
  40
 8.0000000000000
  41
0.0
  71
8
  72
1
   1
\A1;384.6üE484.6üE684.6üE884.6
   7
GMM001
   0
ENDBLK
   5
110
 100
AcDbEntity
   8
0
 100
AcDbBlockEnd
   0
BLOCK
   5
111
 100
AcDbEntity
   8
0
 100
AcDbBlockBegin
   2
*D12
  70
65
  10
0.0
  20
0.0
  30
0.0
   3
*D12
   0
LINE
   5
112
 100
AcDbEntity
   8
LEVEL001
 100
AcDbLine
   6
CONTINUOUS
  62
3
  10
 733.78386662668
  20
 399.37269826546
  30
0.0
  11
 733.78386662668
  21
 367.35749026401
  31
0.0
   0
LINE
   5
113
 100
AcDbEntity
   8
LEVEL001
 100
AcDbLine
   6
CONTINUOUS
  62
3
  10
 771.78386662668
  20
 399.37269826546
  30
0.0
  11
 771.78386662668
  21
 367.35749026401
  31
0.0
   0
LINE
   5
114
 100
AcDbEntity
   8
LEVEL001
 100
AcDbLine
   6
CONTINUOUS
  62
3
  10
 733.78386662668
  20
 369.35749026401
  30
0.0
  11
 752.78386662668
  21
 369.35749026401
  31
0.0
   0
LINE
   5
115
 100
AcDbEntity
   8
LEVEL001
 100
AcDbLine
   6
CONTINUOUS
  62
3
  10
 771.78386662668
  20
 369.35749026401
  30
0.0
  11
 752.78386662668
  21
 369.35749026401
  31
0.0
   0
INSERT
   5
116
 100
AcDbEntity
   8
LEVEL001
   6
CONTINUOUS
  62
3
 100
AcDbBlockReference
   2
_OPEN30
  10
 733.78386662668
  20
 369.35749026401
  30
0.0
  41
 6.0000000000000
  42
 6.0000000000000
  43
 6.0000000000000
  50
 180.00000000000
   0
INSERT
   5
117
 100
AcDbEntity
   8
LEVEL001
   6
CONTINUOUS
  62
3
 100
AcDbBlockReference
   2
_OPEN30
  10
 771.78386662668
  20
 369.35749026401
  30
0.0
  41
 6.0000000000000
  42
 6.0000000000000
  43
 6.0000000000000
  50
0.0
   0
MTEXT
   5
118
 100
AcDbEntity
   8
LEVEL001
  62
3
 100
AcDbMText
  10
 752.78386662668
  20
 372.78606169258
  30
0.0
  40
 8.0000000000000
  41
0.0
  71
8
  72
1
   1
\A1;38
   7
GMM001
   0
ENDBLK
   5
119
 100
AcDbEntity
   8
0
 100
AcDbBlockEnd
   0
BLOCK
   5
11A
 100
AcDbEntity
   8
0
 100
AcDbBlockBegin
   2
*D13
  70
65
  10
0.0
  20
0.0
  30
0.0
   3
*D13
   0
LINE
   5
11B
 100
AcDbEntity
   8
LEVEL001
 100
AcDbLine
   6
CONTINUOUS
  62
3
  10
 731.78386662668
  20
 401.37269826546
  30
0.0
  11
 714.14214897352
  21
 401.37269826546
  31
0.0
   0
LINE
   5
11C
 100
AcDbEntity
   8
LEVEL001
 100
AcDbLine
   6
CONTINUOUS
  62
3
  10
 737.27591674726
  20
 461.37269826546
  30
0.0
  11
 714.14214897352
  21
 461.37269826546
  31
0.0
   0
LINE
   5
11D
 100
AcDbEntity
   8
LEVEL001
 100
AcDbLine
   6
CONTINUOUS
  62
3
  10
 716.14214897352
  20
 401.37269826546
  30
0.0
  11
 716.14214897352
  21
 431.37269826546
  31
0.0
   0
LINE
   5
11E
 100
AcDbEntity
   8
LEVEL001
 100
AcDbLine
   6
CONTINUOUS
  62
3
  10
 716.14214897352
  20
 461.37269826546
  30
0.0
  11
 716.14214897352
  21
 431.37269826546
  31
0.0
   0
INSERT
   5
11F
 100
AcDbEntity
   8
LEVEL001
   6
CONTINUOUS
  62
3
 100
AcDbBlockReference
   2
_OPEN30
  10
 716.14214897352
  20
 401.37269826546
  30
0.0
  41
 6.0000000000000
  42
 6.0000000000000
  43
 6.0000000000000
  50
 270.00000000000
   0
INSERT
   5
120
 100
AcDbEntity
   8
LEVEL001
   6
CONTINUOUS
  62
3
 100
AcDbBlockReference
   2
_OPEN30
  10
 716.14214897352
  20
 461.37269826546
  30
0.0
  41
 6.0000000000000
  42
 6.0000000000000
  43
 6.0000000000000
  50
 90.000000000000
   0
MTEXT
   5
121
 100
AcDbEntity
   8
LEVEL001
  62
3
 100
AcDbMText
  10
 712.71357754495
  20
 431.37269826546
  30
0.0
  40
 8.0000000000000
  41
0.0
  71
8
  72
1
   1
\A1;60
   7
GMM001
  11
0.0
  21
 1.0000000000000
  31
0.0
   0
ENDBLK
   5
122
 100
AcDbEntity
   8
0
 100
AcDbBlockEnd
   0
BLOCK
   5
123
 100
AcDbEntity
   8
0
 100
AcDbBlockBegin
   2
*D14
  70
65
  10
0.0
  20
0.0
  30
0.0
   3
*D14
   0
LINE
   5
124
 100
AcDbEntity
   8
LEVEL001
 100
AcDbLine
   6
CONTINUOUS
  62
3
  10
 754.78386662668
  20
 480.37269826546
  30
0.0
  11
 796.74120378812
  21
 480.37269826546
  31
0.0
   0
LINE
   5
125
 100
AcDbEntity
   8
LEVEL001
 100
AcDbLine
   6
CONTINUOUS
  62
3
  10
 773.78386662668
  20
 401.37269826546
  30
0.0
  11
 796.74120378812
  21
 401.37269826546
  31
0.0
   0
LINE
   5
126
 100
AcDbEntity
   8
LEVEL001
 100
AcDbLine
   6
CONTINUOUS
  62
3
  10
 794.74120378812
  20
 480.37269826546
  30
0.0
  11
 794.74120378812
  21
 440.87269826546
  31
0.0
   0
LINE
   5
127
 100
AcDbEntity
   8
LEVEL001
 100
AcDbLine
   6
CONTINUOUS
  62
3
  10
 794.74120378812
  20
 401.37269826546
  30
0.0
  11
 794.74120378812
  21
 440.87269826546
  31
0.0
   0
INSERT
   5
128
 100
AcDbEntity
   8
LEVEL001
   6
CONTINUOUS
  62
3
 100
AcDbBlockReference
   2
_OPEN30
  10
 794.74120378812
  20
 480.37269826546
  30
0.0
  41
 6.0000000000000
  42
 6.0000000000000
  43
 6.0000000000000
  50
 90.000000000000
   0
INSERT
   5
129
 100
AcDbEntity
   8
LEVEL001
   6
CONTINUOUS
  62
3
 100
AcDbBlockReference
   2
_OPEN30
  10
 794.74120378812
  20
 401.37269826546
  30
0.0
  41
 6.0000000000000
  42
 6.0000000000000
  43
 6.0000000000000
  50
 270.00000000000
   0
MTEXT
   5
12A
 100
AcDbEntity
   8
LEVEL001
  62
3
 100
AcDbMText
  10
 791.31263235955
  20
 440.87269826546
  30
0.0
  40
 8.0000000000000
  41
0.0
  71
8
  72
1
   1
\A1;79
   7
GMM001
  11
0.0
  21
 1.0000000000000
  31
0.0
   0
ENDBLK
   5
12B
 100
AcDbEntity
   8
0
 100
AcDbBlockEnd
   0
ENDSEC
   0
SECTION
   2
ENTITIES
   0
LINE
   5
12C
 100
AcDbEntity
   8
LEVEL001
 100
AcDbLine
   6
DASHDOT
  62
3
  10
 381.09556901754
  20
 333.79590801449
  30
0.0
  11
 381.09556901754
  21
 275.53074981809
  31
0.0
   0
ELLIPSE
   5
12D
 100
AcDbEntity
   8
LEVEL001
   6
CONTINUOUS
  62
15
 100
AcDbEllipse
  10
 389.42717699511
  20
 315.25802806744
  30
0.0
  11
0.0
  21
-8.7500000000000
  31
0.0
  40
 0.62667612265204
  41
0.0
  42
 6.2831853071796
   0
ELLIPSE
   5
12E
 100
AcDbEntity
   8
LEVEL001
   6
CONTINUOUS
  62
15
 100
AcDbEllipse
  10
 389.42717699511
  20
 297.75802806744
  30
0.0
  11
0.0
  21
-8.7500000000000
  31
0.0
  40
 0.62667612265204
  41
 3.1415926535898
  42
0.0
   0
ELLIPSE
   5
12F
 100
AcDbEntity
   8
LEVEL001
   6
CONTINUOUS
  62
15
 100
AcDbEllipse
  10
 372.76396103997
  20
 297.75802806744
  30
0.0
  11
0.0
  21
 8.7500000000000
  31
0.0
  40
 0.62667612265204
  41
0.0
  42
 6.2831853071796
   0
ELLIPSE
   5
130
 100
AcDbEntity
   8
LEVEL001
   6
CONTINUOUS
  62
15
 100
AcDbEllipse
  10
 372.76396103997
  20
 315.25802806744
  30
0.0
  11
0.0
  21
 8.7500000000000
  31
0.0
  40
 0.62667612265204
  41
 3.1415926535898
  42
 0.22204460492503E-15
   0
LINE
   5
131
 100
AcDbEntity
   8
LEVEL001
 100
AcDbLine
   6
CONTINUOUS
  62
7
  10
 623.29489343385
  20
 289.00802806744
  30
0.0
  11
 623.29489343385
  21
 306.50802806744
  31
0.0
   0
LINE
   5
132
 100
AcDbEntity
   8
LEVEL001
 100
AcDbLine
   6
CONTINUOUS
  62
7
  10
 660.87489343385
  20
 287.70802806744
  30
0.0
  11
 641.66301791788
  21
 287.70802806744
  31
0.0
   0
LINE
   5
133
 100
AcDbEntity
   8
LEVEL001
 100
AcDbLine
   6
CONTINUOUS
  62
7
  10
 660.87489343385
  20
 287.70802806744
  30
0.0
  11
 660.87489343385
  21
 289.00802806744
  31
0.0
   0
LINE
   5
134
 100
AcDbEntity
   8
LEVEL001
 100
AcDbLine
   6
CONTINUOUS
  62
7
  10
 624.29489343377
  20
 309.00802806744
  30
0.0
  11
 624.29489343377
  21
 324.00802806744
  31
0.0
   0
LINE
   5
135
 100
AcDbEntity
   8
LEVEL001
 100
AcDbLine
   6
CONTINUOUS
  62
7
  10
 624.29489343377
  20
 306.50802806744
  30
0.0
  11
 624.29489343377
  21
 309.00802806744
  31
0.0
   0
LINE
   5
136
 100
AcDbEntity
   8
LEVEL001
 100
AcDbLine
   6
CONTINUOUS
  62
7
  10
 624.29489343377
  20
 289.00802806744
  30
0.0
  11
 624.29489343377
  21
 306.50802806744
  31
0.0
   0
LINE
   5
137
 100
AcDbEntity
   8
LEVEL001
 100
AcDbLine
   6
CONTINUOUS
  62
7
  10
 624.29489343377
  20
 287.70802806744
  30
0.0
  11
 624.29489343377
  21
 288.70802806744
  31
0.0
   0
LINE
   5
138
 100
AcDbEntity
   8
LEVEL001
 100
AcDbLine
   6
CONTINUOUS
  62
7
  10
 624.29489343377
  20
 288.70802806744
  30
0.0
  11
 624.29489343377
  21
 289.00802806744
  31
0.0
   0
LINE
   5
139
 100
AcDbEntity
   8
LEVEL001
 100
AcDbLine
   6
CONTINUOUS
  62
7
  10
 624.29489343377
  20
 324.00802806744
  30
0.0
  11
 624.29489343377
  21
 324.30802806744
  31
0.0
   0
LINE
   5
13A
 100
AcDbEntity
   8
LEVEL001
 100
AcDbLine
   6
CONTINUOUS
  62
7
  10
 624.29489343377
  20
 324.30802806744
  30
0.0
  11
 624.29489343377
  21
 325.30802806729
  31
0.0
   0
LINE
   5
13B
 100
AcDbEntity
   8
LEVEL001
 100
AcDbLine
   6
CONTINUOUS
  62
7
  10
 624.29489343408
  20
 325.30802806744
  30
0.0
  11
 623.29489343408
  21
 324.30802806744
  31
0.0
   0
LINE
   5
13C
 100
AcDbEntity
   8
LEVEL001
 100
AcDbLine
   6
CONTINUOUS
  62
7
  10
 624.29489343377
  20
 287.70802806744
  30
0.0
  11
 623.29489343385
  21
 288.70802806736
  31
0.0
   0
LINE
   5
13D
 100
AcDbEntity
   8
LEVEL001
 100
AcDbLine
   6
CONTINUOUS
  62
7
  10
 623.29489343385
  20
 306.50802806744
  30
0.0
  11
 623.29489343385
  21
 324.30802806721
  31
0.0
   0
LINE
   5
13E
 100
AcDbEntity
   8
LEVEL001
 100
AcDbLine
   6
CONTINUOUS
  62
7
  10
 623.29489343385
  20
 288.70802806736
  30
0.0
  11
 623.29489343385
  21
 289.00802806744
  31
0.0
   0
CIRCLE
   5
13F
 100
AcDbEntity
   8
LEVEL001
 100
AcDbCircle
   6
CONTINUOUS
  62
7
  10
 665.87489343385
  20
 306.50802806744
  30
0.0
  40
 2.2500000000000
   0
CIRCLE
   5
140
 100
AcDbEntity
   8
LEVEL001
 100
AcDbCircle
   6
CONTINUOUS
  62
7
  10
 680.87489343385
  20
 316.50802806744
  30
0.0
  40
 2.2500000000000
   0
CIRCLE
   5
141
 100
AcDbEntity
   8
LEVEL001
 100
AcDbCircle
   6
CONTINUOUS
  62
7
  10
 680.87489343385
  20
 296.50802806744
  30
0.0
  40
 2.2500000000000
   0
LINE
   5
142
 100
AcDbEntity
   8
LEVEL001
 100
AcDbLine
   6
CONTINUOUS
  62
7
  10
 691.09556901754
  20
 306.50802806744
  30
0.0
  11
 691.09556901754
  21
 324.45802806744
  31
0.0
   0
LINE
   5
143
 100
AcDbEntity
   8
LEVEL001
 100
AcDbLine
   6
CONTINUOUS
  62
7
  10
 689.18881343385
  20
 325.30802806744
  30
0.0
  11
 688.87489343385
  21
 325.30802806744
  31
0.0
   0
LINE
   5
144
 100
AcDbEntity
   8
LEVEL001
 100
AcDbLine
   6
CONTINUOUS
  62
7
  10
 691.09556901754
  20
 324.45802806744
  30
0.0
  11
 689.18881343385
  21
 325.30802806744
  31
0.0
   0
LINE
   5
145
 100
AcDbEntity
   8
LEVEL001
 100
AcDbLine
   6
CONTINUOUS
  62
7
  10
 691.09556901754
  20
 288.55802806744
  30
0.0
  11
 689.18881343385
  21
 287.70802806744
  31
0.0
   0
LINE
   5
146
 100
AcDbEntity
   8
LEVEL001
 100
AcDbLine
   6
CONTINUOUS
  62
7
  10
 691.09556901754
  20
 288.55802806744
  30
0.0
  11
 691.09556901754
  21
 306.50802806744
  31
0.0
   0
LINE
   5
147
 100
AcDbEntity
   8
LEVEL001
 100
AcDbLine
   6
CONTINUOUS
  62
7
  10
 689.18881343385
  20
 287.70802806744
  30
0.0
  11
 688.87489343385
  21
 287.70802806744
  31
0.0
   0
LINE
   5
148
 100
AcDbEntity
   8
LEVEL001
 100
AcDbLine
   6
DASHDOT
  62
3
  10
 675.28833675930
  20
 316.50802806744
  30
0.0
  11
 687.65564448947
  21
 316.50802806744
  31
0.0
   0
LINE
   5
149
 100
AcDbEntity
   8
LEVEL001
 100
AcDbLine
   6
DASHDOT
  62
3
  10
 674.87840535406
  20
 296.50802806744
  30
0.0
  11
 687.80715325392
  21
 296.50802806744
  31
0.0
   0
LINE
   5
14A
 100
AcDbEntity
   8
LEVEL001
 100
AcDbLine
   6
CONTINUOUS
  62
7
  10
 660.87489343385
  20
 306.50802806744
  30
0.0
  11
 660.87489343385
  21
 324.80802806744
  31
0.0
   0
ARC
   5
14B
 100
AcDbEntity
   8
LEVEL001
   6
CONTINUOUS
  62
7
 100
AcDbCircle
  10
 661.37489343385
  20
 324.80802806744
  30
0.0
  40
 0.50000000000000
 100
AcDbArc
  50
 90.000000000182
  51
 180.00000000000
   0
POINT
   5
14C
 100
AcDbEntity
   8
LEVEL001
 100
AcDbPoint
  62
7
  10
 660.87489343385
  20
 325.30802806744
  30
0.0
   0
LINE
   5
14D
 100
AcDbEntity
   8
LEVEL001
 100
AcDbLine
   6
CONTINUOUS
  62
7
  10
 688.87489343385
  20
 325.30802806744
  30
0.0
  11
 661.37489343385
  21
 325.30802806744
  31
0.0
   0
LINE
   5
14E
 100
AcDbEntity
   8
LEVEL001
 100
AcDbLine
   6
CONTINUOUS
  62
7
  10
 660.87489343385
  20
 288.20802806744
  30
0.0
  11
 660.87489343385
  21
 306.50802806744
  31
0.0
   0
ARC
   5
14F
 100
AcDbEntity
   8
LEVEL001
   6
CONTINUOUS
  62
7
 100
AcDbCircle
  10
 661.37489343385
  20
 288.20802806744
  30
0.0
  40
 0.50000000000000
 100
AcDbArc
  50
 180.00000000000
  51
 269.99999999992
   0
POINT
   5
150
 100
AcDbEntity
   8
LEVEL001
 100
AcDbPoint
  62
7
  10
 660.87489343385
  20
 287.70802806744
  30
0.0
   0
LINE
   5
151
 100
AcDbEntity
   8
LEVEL001
 100
AcDbLine
   6
CONTINUOUS
  62
7
  10
 688.87489343385
  20
 287.70802806744
  30
0.0
  11
 661.37489343385
  21
 287.70802806744
  31
0.0
   0
ARC
   5
152
 100
AcDbEntity
   8
LEVEL001
   6
CONTINUOUS
  62
7
 100
AcDbCircle
  10
 634.21506110049
  20
 324.80802806744
  30
0.0
  40
 0.50000000000000
 100
AcDbArc
  50
 90.000000000182
  51
 226.95201808534
   0
ARC
   5
153
 100
AcDbEntity
   8
LEVEL001
   6
CONTINUOUS
  62
7
 100
AcDbCircle
  10
 634.21506110049
  20
 288.20802806744
  30
0.0
  40
 0.50000000000000
 100
AcDbArc
  50
 133.04798191462
  51
 269.99999999984
   0
ARC
   5
154
 100
AcDbEntity
   8
LEVEL001
   6
CONTINUOUS
  62
7
 100
AcDbCircle
  10
 617.12136087844
  20
 306.50802806744
  30
0.0
  40
 24.541657039447
 100
AcDbArc
  50
 313.04798191442
  51
 46.952018085581
   0
LINE
   5
155
 100
AcDbEntity
   8
LEVEL001
 100
AcDbLine
   6
CONTINUOUS
  62
7
  10
 660.87489343385
  20
 325.30802806744
  30
0.0
  11
 624.29489343408
  21
 325.30802806744
  31
0.0
   0
LINE
   5
156
 100
AcDbEntity
   8
LEVEL001
 100
AcDbLine
   6
CONTINUOUS
  62
7
  10
 641.66301791788
  20
 287.70802806744
  30
0.0
  11
 624.29489343377
  21
 287.70802806744
  31
0.0
   0
LINE
   5
157
 100
AcDbEntity
   8
LEVEL001
 100
AcDbLine
   6
CONTINUOUS
  62
15
  10
 389.42717699511
  20
 324.00802806744
  30
0.0
  11
 623.29489343385
  21
 324.00802806744
  31
0.0
   0
LINE
   5
158
 100
AcDbEntity
   8
LEVEL001
 100
AcDbLine
   6
CONTINUOUS
  62
15
  10
 389.42717699511
  20
 289.00802806744
  30
0.0
  11
 623.29489343385
  21
 289.00802806744
  31
0.0
   0
LINE
   5
159
 100
AcDbEntity
   8
LEVEL001
 100
AcDbLine
   6
DASHDOT
  62
3
  10
 665.87489343385
  20
 312.37674358796
  30
0.0
  11
 665.87489343385
  21
 300.37805463352
  31
0.0
   0
LINE
   5
15A
 100
AcDbEntity
   8
LEVEL001
 100
AcDbLine
   6
DASHDOT
  62
3
  10
 67.340634793172
  20
 306.50802806744
  30
0.0
  11
 696.11128581336
  21
 306.50802806744
  31
0.0
   0
ARC
   5
15B
 100
AcDbEntity
   8
LEVEL001
   6
CONTINUOUS
  62
15
 100
AcDbCircle
  10
 662.62489343385
  20
 323.30802806744
  30
0.0
  40
 0.50000000000000
 100
AcDbArc
  50
 90.000000000000
  51
 179.99999999996
   0
POINT
   5
15C
 100
AcDbEntity
   8
LEVEL001
 100
AcDbPoint
  62
15
  10
 662.12489343385
  20
 323.80802806744
  30
0.0
   0
POINT
   5
15D
 100
AcDbEntity
   8
LEVEL001
 100
AcDbPoint
  62
15
  10
 664.62489343385
  20
 323.80802806744
  30
0.0
   0
POINT
   5
15E
 100
AcDbEntity
   8
LEVEL001
 100
AcDbPoint
  62
15
  10
 682.12489343385
  20
 323.80802806744
  30
0.0
   0
ARC
   5
15F
 100
AcDbEntity
   8
LEVEL001
   6
CONTINUOUS
  62
15
 100
AcDbCircle
  10
 687.13881343385
  20
 323.30802806744
  30
0.0
  40
 0.50000000000000
 100
AcDbArc
  50
 0.14330307172802E-9
  51
 90.000000000000
   0
POINT
   5
160
 100
AcDbEntity
   8
LEVEL001
 100
AcDbPoint
  62
15
  10
 687.63881343385
  20
 323.80802806744
  30
0.0
   0
LINE
   5
161
 100
AcDbEntity
   8
LEVEL001
 100
AcDbLine
   6
CONTINUOUS
  62
15
  10
 687.63881343385
  20
 322.55802806744
  30
0.0
  11
 687.63881343385
  21
 323.30802806744
  31
0.0
   0
ARC
   5
162
 100
AcDbEntity
   8
LEVEL001
   6
CONTINUOUS
  62
15
 100
AcDbCircle
  10
 667.62489343385
  20
 323.30802806744
  30
0.0
  40
 0.50000000000000
 100
AcDbArc
  50
 89.999999999974
  51
 180.00000000000
   0
POINT
   5
163
 100
AcDbEntity
   8
LEVEL001
 100
AcDbPoint
  62
15
  10
 667.12489343385
  20
 323.80802806744
  30
0.0
   0
LINE
   5
164
 100
AcDbEntity
   8
LEVEL001
 100
AcDbLine
   6
CONTINUOUS
  62
15
  10
 667.62489343385
  20
 323.80802806744
  30
0.0
  11
 679.12489343385
  21
 323.80802806744
  31
0.0
   0
LINE
   5
165
 100
AcDbEntity
   8
LEVEL001
 100
AcDbLine
   6
CONTINUOUS
  62
15
  10
 667.12489343385
  20
 311.19177656624
  30
0.0
  11
 667.12489343385
  21
 323.30802806744
  31
0.0
   0
ARC
   5
166
 100
AcDbEntity
   8
LEVEL001
   6
CONTINUOUS
  62
15
 100
AcDbCircle
  10
 679.12489343385
  20
 323.30802806744
  30
0.0
  40
 0.50000000000000
 100
AcDbArc
  50
 0.65137759876373E-11
  51
 90.000000000000
   0
POINT
   5
167
 100
AcDbEntity
   8
LEVEL001
 100
AcDbPoint
  62
15
  10
 679.62489343385
  20
 323.80802806744
  30
0.0
   0
LINE
   5
168
 100
AcDbEntity
   8
LEVEL001
 100
AcDbLine
   6
CONTINUOUS
  62
15
  10
 679.62489343385
  20
 321.19177656624
  30
0.0
  11
 679.62489343385
  21
 323.30802806744
  31
0.0
   0
LINE
   5
169
 100
AcDbEntity
   8
LEVEL001
 100
AcDbLine
   6
CONTINUOUS
  62
15
  10
 664.62489343385
  20
 311.19177656624
  30
0.0
  11
 664.62489343385
  21
 323.30802806744
  31
0.0
   0
ARC
   5
16A
 100
AcDbEntity
   8
LEVEL001
   6
CONTINUOUS
  62
15
 100
AcDbCircle
  10
 664.12489343385
  20
 323.30802806744
  30
0.0
  40
 0.50000000000000
 100
AcDbArc
  50
 0.13027551975275E-10
  51
 90.000000000000
   0
LINE
   5
16B
 100
AcDbEntity
   8
LEVEL001
 100
AcDbLine
   6
CONTINUOUS
  62
15
  10
 682.12489343385
  20
 321.19177656624
  30
0.0
  11
 682.12489343385
  21
 323.30802806744
  31
0.0
   0
ARC
   5
16C
 100
AcDbEntity
   8
LEVEL001
   6
CONTINUOUS
  62
15
 100
AcDbCircle
  10
 682.62489343385
  20
 323.30802806744
  30
0.0
  40
 0.50000000000000
 100
AcDbArc
  50
 90.000000000000
  51
 179.99999999996
   0
LINE
   5
16D
 100
AcDbEntity
   8
LEVEL001
 100
AcDbLine
   6
CONTINUOUS
  62
15
  10
 664.12489343385
  20
 323.80802806744
  30
0.0
  11
 662.62489343385
  21
 323.80802806744
  31
0.0
   0
LINE
   5
16E
 100
AcDbEntity
   8
LEVEL001
 100
AcDbLine
   6
CONTINUOUS
  62
15
  10
 682.62489343385
  20
 323.80802806744
  30
0.0
  11
 687.13881343385
  21
 323.80802806744
  31
0.0
   0
LINE
   5
16F
 100
AcDbEntity
   8
LEVEL001
 100
AcDbLine
   6
CONTINUOUS
  62
15
  10
 662.12489343385
  20
 310.30769910583
  30
0.0
  11
 662.12489343385
  21
 323.30802806744
  31
0.0
   0
LINE
   5
170
 100
AcDbEntity
   8
LEVEL001
 100
AcDbLine
   6
CONTINUOUS
  62
15
  10
 687.63881343385
  20
 318.25802806744
  30
0.0
  11
 687.63881343385
  21
 322.55802806744
  31
0.0
   0
ARC
   5
171
 100
AcDbEntity
   8
LEVEL001
   6
CONTINUOUS
  62
15
 100
AcDbCircle
  10
 687.13881343385
  20
 318.25802806744
  30
0.0
  40
 0.50000000000000
 100
AcDbArc
  50
 269.99999999984
  51
0.0
   0
POINT
   5
172
 100
AcDbEntity
   8
LEVEL001
 100
AcDbPoint
  62
15
  10
 687.63881343385
  20
 317.75802806744
  30
0.0
   0
LINE
   5
173
 100
AcDbEntity
   8
LEVEL001
 100
AcDbLine
   6
CONTINUOUS
  62
15
  10
 687.13881343385
  20
 317.75802806744
  30
0.0
  11
 685.55864193265
  21
 317.75802806744
  31
0.0
   0
ARC
   5
174
 100
AcDbEntity
   8
LEVEL001
   6
CONTINUOUS
  62
15
 100
AcDbCircle
  10
 685.55864193265
  20
 318.25802806744
  30
0.0
  40
 0.50000000000000
 100
AcDbArc
  50
 200.48731511472
  51
 269.99999999997
   0
ARC
   5
175
 100
AcDbEntity
   8
LEVEL001
   6
CONTINUOUS
  62
15
 100
AcDbCircle
  10
 680.87489343385
  20
 316.50802806744
  30
0.0
  40
 4.5000000000000
 100
AcDbArc
  50
 20.487315114719
  51
 69.512684885271
   0
ARC
   5
176
 100
AcDbEntity
   8
LEVEL001
   6
CONTINUOUS
  62
15
 100
AcDbCircle
  10
 682.62489343385
  20
 321.19177656624
  30
0.0
  40
 0.50000000000000
 100
AcDbArc
  50
 179.99999999994
  51
 249.51268488514
   0
ARC
   5
177
 100
AcDbEntity
   8
LEVEL001
   6
CONTINUOUS
  62
15
 100
AcDbCircle
  10
 679.12489343385
  20
 321.19177656624
  30
0.0
  40
 0.50000000000000
 100
AcDbArc
  50
 290.48731511472
  51
0.0
   0
ARC
   5
178
 100
AcDbEntity
   8
LEVEL001
   6
CONTINUOUS
  62
15
 100
AcDbCircle
  10
 680.87489343385
  20
 316.50802806744
  30
0.0
  40
 4.5000000000000
 100
AcDbArc
  50
 110.48731511472
  51
 180.00000000000
   0
LINE
   5
179
 100
AcDbEntity
   8
LEVEL001
 100
AcDbLine
   6
CONTINUOUS
  62
15
  10
 670.46538299616
  20
 308.06604141087
  30
0.0
  11
 677.67115436210
  21
 312.86988898816
  31
0.0
   0
LINE
   5
17A
 100
AcDbEntity
   8
LEVEL001
 100
AcDbLine
   6
CONTINUOUS
  62
15
  10
 669.07863250560
  20
 310.14616714672
  30
0.0
  11
 676.28440387154
  21
 314.95001472401
  31
0.0
   0
ARC
   5
17B
 100
AcDbEntity
   8
LEVEL001
   6
CONTINUOUS
  62
15
 100
AcDbCircle
  10
 676.00705377343
  20
 315.36603987118
  30
0.0
  40
 0.50000000000000
 100
AcDbArc
  50
 303.69006752606
  51
 13.202752411455
   0
ARC
   5
17C
 100
AcDbEntity
   8
LEVEL001
   6
CONTINUOUS
  62
15
 100
AcDbCircle
  10
 680.87489343385
  20
 316.50802806744
  30
0.0
  40
 4.5000000000000
 100
AcDbArc
  50
 180.00000000002
  51
 193.20275241126
   0
ARC
   5
17D
 100
AcDbEntity
   8
LEVEL001
   6
CONTINUOUS
  62
15
 100
AcDbCircle
  10
 679.12489343385
  20
 311.82427956864
  30
0.0
  40
 0.50000000000000
 100
AcDbArc
  50
0.0
  51
 69.512684885199
   0
ARC
   5
17E
 100
AcDbEntity
   8
LEVEL001
   6
CONTINUOUS
  62
15
 100
AcDbCircle
  10
 680.87489343385
  20
 316.50802806744
  30
0.0
  40
 4.5000000000000
 100
AcDbArc
  50
 234.17738264070
  51
 249.51268488529
   0
ARC
   5
17F
 100
AcDbEntity
   8
LEVEL001
   6
CONTINUOUS
  62
15
 100
AcDbCircle
  10
 677.94850446021
  20
 312.45386384100
  30
0.0
  40
 0.50000000000000
 100
AcDbArc
  50
 54.177382640650
  51
 123.69006752598
   0
ARC
   5
180
 100
AcDbEntity
   8
LEVEL001
   6
CONTINUOUS
  62
15
 100
AcDbCircle
  10
 667.62489343385
  20
 311.19177656624
  30
0.0
  40
 0.50000000000000
 100
AcDbArc
  50
 179.99999999986
  51
 249.51268488489
   0
ARC
   5
181
 100
AcDbEntity
   8
LEVEL001
   6
CONTINUOUS
  62
15
 100
AcDbCircle
  10
 665.87489343385
  20
 306.50802806744
  30
0.0
  40
 4.5000000000000
 100
AcDbArc
  50
 54.177382640708
  51
 69.512684885265
   0
ARC
   5
182
 100
AcDbEntity
   8
LEVEL001
   6
CONTINUOUS
  62
15
 100
AcDbCircle
  10
 668.80128240748
  20
 310.56219229389
  30
0.0
  40
 0.50000000000000
 100
AcDbArc
  50
 234.17738264084
  51
 303.69006752602
   0
ARC
   5
183
 100
AcDbEntity
   8
LEVEL001
   6
CONTINUOUS
  62
15
 100
AcDbCircle
  10
 662.62489343385
  20
 310.30769910583
  30
0.0
  40
 0.50000000000000
 100
AcDbArc
  50
 180.00000000002
  51
 310.54160187348
   0
ARC
   5
184
 100
AcDbEntity
   8
LEVEL001
   6
CONTINUOUS
  62
15
 100
AcDbCircle
  10
 665.87489343385
  20
 306.50802806744
  30
0.0
  40
 4.5000000000000
 100
AcDbArc
  50
 110.48731511473
  51
 130.54160187351
   0
ARC
   5
185
 100
AcDbEntity
   8
LEVEL001
   6
CONTINUOUS
  62
15
 100
AcDbCircle
  10
 664.12489343385
  20
 311.19177656624
  30
0.0
  40
 0.50000000000000
 100
AcDbArc
  50
 290.48731511505
  51
 0.11724796777688E-9
   0
ARC
   5
186
 100
AcDbEntity
   8
LEVEL001
   6
CONTINUOUS
  62
15
 100
AcDbCircle
  10
 683.77489343385
  20
 312.68310976766
  30
0.0
  40
 0.30000000000000
 100
AcDbArc
  50
 0.37997026594182E-9
  51
 127.16889965537
   0
POINT
   5
187
 100
AcDbEntity
   8
LEVEL001
 100
AcDbPoint
  62
15
  10
 687.63881343385
  20
 310.35802806744
  30
0.0
   0
LINE
   5
188
 100
AcDbEntity
   8
LEVEL001
 100
AcDbLine
   6
CONTINUOUS
  62
15
  10
 682.12489343385
  20
 306.50802806744
  30
0.0
  11
 682.12489343385
  21
 311.96517654004
  31
0.0
   0
ARC
   5
189
 100
AcDbEntity
   8
LEVEL001
   6
CONTINUOUS
  62
15
 100
AcDbCircle
  10
 682.42489343385
  20
 311.96517654004
  30
0.0
  40
 0.30000000000000
 100
AcDbArc
  50
 108.83940454758
  51
 180.00000000009
   0
ARC
   5
18A
 100
AcDbEntity
   8
LEVEL001
   6
CONTINUOUS
  62
15
 100
AcDbCircle
  10
 680.87489343385
  20
 316.50802806744
  30
0.0
  40
 4.5000000000000
 100
AcDbArc
  50
 288.83940454727
  51
 307.16889965599
   0
LINE
   5
18B
 100
AcDbEntity
   8
LEVEL001
 100
AcDbLine
   6
CONTINUOUS
  62
15
  10
 688.17489343385
  20
 312.10802806744
  30
0.0
  11
 688.17489343385
  21
 313.50802806744
  31
0.0
   0
ARC
   5
18C
 100
AcDbEntity
   8
LEVEL001
   6
CONTINUOUS
  62
15
 100
AcDbCircle
  10
 687.87489343385
  20
 312.10802806744
  30
0.0
  40
 0.30000000000000
 100
AcDbArc
  50
 270.00000000069
  51
 0.10856293312591E-10
   0
POINT
   5
18D
 100
AcDbEntity
   8
LEVEL001
 100
AcDbPoint
  62
15
  10
 688.17489343385
  20
 311.80802806744
  30
0.0
   0
LINE
   5
18E
 100
AcDbEntity
   8
LEVEL001
 100
AcDbLine
   6
CONTINUOUS
  62
15
  10
 685.37489343385
  20
 312.10802806744
  30
0.0
  11
 685.37489343385
  21
 313.50802806744
  31
0.0
   0
ARC
   5
18F
 100
AcDbEntity
   8
LEVEL001
   6
CONTINUOUS
  62
15
 100
AcDbCircle
  10
 685.67489343385
  20
 312.10802806744
  30
0.0
  40
 0.30000000000000
 100
AcDbArc
  50
 179.99999999999
  51
 269.99999999957
   0
LINE
   5
190
 100
AcDbEntity
   8
LEVEL001
 100
AcDbLine
   6
CONTINUOUS
  62
15
  10
 687.87489343385
  20
 311.80802806744
  30
0.0
  11
 685.67489343385
  21
 311.80802806744
  31
0.0
   0
ARC
   5
191
 100
AcDbEntity
   8
LEVEL001
   6
CONTINUOUS
  62
15
 100
AcDbCircle
  10
 687.33881343385
  20
 310.00802806744
  30
0.0
  40
 0.30000000000000
 100
AcDbArc
  50
0.0
  51
 90.000000000000
   0
LINE
   5
192
 100
AcDbEntity
   8
LEVEL001
 100
AcDbLine
   6
CONTINUOUS
  62
15
  10
 687.33881343385
  20
 310.30802806744
  30
0.0
  11
 685.07489343385
  21
 310.30802806744
  31
0.0
   0
ARC
   5
193
 100
AcDbEntity
   8
LEVEL001
   6
CONTINUOUS
  62
15
 100
AcDbCircle
  10
 685.07489343385
  20
 311.30802806744
  30
0.0
  40
 1.0000000000000
 100
AcDbArc
  50
 179.99999999998
  51
 270.00000000000
   0
POINT
   5
194
 100
AcDbEntity
   8
LEVEL001
 100
AcDbPoint
  62
15
  10
 684.07489343385
  20
 310.30802806744
  30
0.0
   0
LINE
   5
195
 100
AcDbEntity
   8
LEVEL001
 100
AcDbLine
   6
CONTINUOUS
  62
15
  10
 684.07489343385
  20
 311.30802806744
  30
0.0
  11
 684.07489343385
  21
 312.68310976766
  31
0.0
   0
LINE
   5
196
 100
AcDbEntity
   8
LEVEL001
 100
AcDbLine
   6
CONTINUOUS
  62
15
  10
 687.63881343385
  20
 306.50802806744
  30
0.0
  11
 687.63881343385
  21
 310.00802806744
  31
0.0
   0
LINE
   5
197
 100
AcDbEntity
   8
LEVEL001
 100
AcDbLine
   6
CONTINUOUS
  62
15
  10
 687.09609016079
  20
 312.30802806744
  30
0.0
  11
 687.09609016079
  21
 313.50802806744
  31
0.0
   0
ARC
   5
198
 100
AcDbEntity
   8
LEVEL001
   6
CONTINUOUS
  62
15
 100
AcDbCircle
  10
 687.39609016078
  20
 312.30802806744
  30
0.0
  40
 0.30000000000000
 100
AcDbArc
  50
 180.00000000000
  51
 270.00000000022
   0
POINT
   5
199
 100
AcDbEntity
   8
LEVEL001
 100
AcDbPoint
  62
15
  10
 687.09609016079
  20
 312.00802806744
  30
0.0
   0
LINE
   5
19A
 100
AcDbEntity
   8
LEVEL001
 100
AcDbLine
   6
CONTINUOUS
  62
15
  10
 688.09609016079
  20
 312.30802806744
  30
0.0
  11
 688.09609016079
  21
 313.50802806744
  31
0.0
   0
ARC
   5
19B
 100
AcDbEntity
   8
LEVEL001
   6
CONTINUOUS
  62
15
 100
AcDbCircle
  10
 687.79609016078
  20
 312.30802806744
  30
0.0
  40
 0.30000000000000
 100
AcDbArc
  50
 270.00000000056
  51
0.0
   0
POINT
   5
19C
 100
AcDbEntity
   8
LEVEL001
 100
AcDbPoint
  62
15
  10
 688.09609016079
  20
 312.00802806744
  30
0.0
   0
LINE
   5
19D
 100
AcDbEntity
   8
LEVEL001
 100
AcDbLine
   6
CONTINUOUS
  62
15
  10
 687.79609016079
  20
 312.00802806744
  30
0.0
  11
 687.39609016079
  21
 312.00802806744
  31
0.0
   0
ARC
   5
19E
 100
AcDbEntity
   8
LEVEL001
   6
CONTINUOUS
  62
15
 100
AcDbCircle
  10
 687.87489343385
  20
 314.90802806744
  30
0.0
  40
 0.30000000000000
 100
AcDbArc
  50
0.0
  51
 90.000000000043
   0
POINT
   5
19F
 100
AcDbEntity
   8
LEVEL001
 100
AcDbPoint
  62
15
  10
 688.17489343385
  20
 315.20802806744
  30
0.0
   0
LINE
   5
1A0
 100
AcDbEntity
   8
LEVEL001
 100
AcDbLine
   6
CONTINUOUS
  62
15
  10
 688.17489343385
  20
 313.50802806744
  30
0.0
  11
 688.17489343385
  21
 314.90802806744
  31
0.0
   0
ARC
   5
1A1
 100
AcDbEntity
   8
LEVEL001
   6
CONTINUOUS
  62
15
 100
AcDbCircle
  10
 685.67489343385
  20
 314.90802806744
  30
0.0
  40
 0.30000000000000
 100
AcDbArc
  50
 90.000000000000
  51
 180.00000000012
   0
LINE
   5
1A2
 100
AcDbEntity
   8
LEVEL001
 100
AcDbLine
   6
CONTINUOUS
  62
15
  10
 685.37489343385
  20
 313.50802806744
  30
0.0
  11
 685.37489343385
  21
 314.90802806744
  31
0.0
   0
LINE
   5
1A3
 100
AcDbEntity
   8
LEVEL001
 100
AcDbLine
   6
CONTINUOUS
  62
15
  10
 687.87489343385
  20
 315.20802806744
  30
0.0
  11
 685.67489343385
  21
 315.20802806744
  31
0.0
   0
LINE
   5
1A4
 100
AcDbEntity
   8
LEVEL001
 100
AcDbLine
   6
CONTINUOUS
  62
15
  10
 688.09609016079
  20
 313.50802806744
  30
0.0
  11
 688.09609016079
  21
 314.70802806744
  31
0.0
   0
ARC
   5
1A5
 100
AcDbEntity
   8
LEVEL001
   6
CONTINUOUS
  62
15
 100
AcDbCircle
  10
 687.79609016078
  20
 314.70802806744
  30
0.0
  40
 0.30000000000000
 100
AcDbArc
  50
0.0
  51
 89.999999998871
   0
POINT
   5
1A6
 100
AcDbEntity
   8
LEVEL001
 100
AcDbPoint
  62
15
  10
 688.09609016079
  20
 315.00802806744
  30
0.0
   0
LINE
   5
1A7
 100
AcDbEntity
   8
LEVEL001
 100
AcDbLine
   6
CONTINUOUS
  62
15
  10
 687.79609016079
  20
 315.00802806744
  30
0.0
  11
 687.39609016079
  21
 315.00802806744
  31
0.0
   0
ARC
   5
1A8
 100
AcDbEntity
   8
LEVEL001
   6
CONTINUOUS
  62
15
 100
AcDbCircle
  10
 687.39609016079
  20
 314.70802806744
  30
0.0
  40
 0.30000000000000
 100
AcDbArc
  50
 90.000000000000
  51
 180.00000000035
   0
POINT
   5
1A9
 100
AcDbEntity
   8
LEVEL001
 100
AcDbPoint
  62
15
  10
 687.09609016079
  20
 315.00802806744
  30
0.0
   0
LINE
   5
1AA
 100
AcDbEntity
   8
LEVEL001
 100
AcDbLine
   6
CONTINUOUS
  62
15
  10
 687.09609016079
  20
 313.50802806744
  30
0.0
  11
 687.09609016079
  21
 314.70802806744
  31
0.0
   0
POINT
   5
1AB
 100
AcDbEntity
   8
LEVEL001
 100
AcDbPoint
  62
15
  10
 687.63881343385
  20
 297.80802806744
  30
0.0
   0
ARC
   5
1AC
 100
AcDbEntity
   8
LEVEL001
   6
CONTINUOUS
  62
15
 100
AcDbCircle
  10
 687.87489343385
  20
 298.10802806743
  30
0.0
  40
 0.30000000000000
 100
AcDbArc
  50
 269.99999999996
  51
 0.81422199845478E-9
   0
POINT
   5
1AD
 100
AcDbEntity
   8
LEVEL001
 100
AcDbPoint
  62
15
  10
 688.17489343385
  20
 297.80802806744
  30
0.0
   0
LINE
   5
1AE
 100
AcDbEntity
   8
LEVEL001
 100
AcDbLine
   6
CONTINUOUS
  62
15
  10
 688.17489343385
  20
 299.50802806744
  30
0.0
  11
 688.17489343385
  21
 298.10802806744
  31
0.0
   0
POINT
   5
1AF
 100
AcDbEntity
   8
LEVEL001
 100
AcDbPoint
  62
15
  10
 686.87489343385
  20
 297.80802806744
  30
0.0
   0
ARC
   5
1B0
 100
AcDbEntity
   8
LEVEL001
   6
CONTINUOUS
  62
15
 100
AcDbCircle
  10
 685.67489343385
  20
 298.10802806744
  30
0.0
  40
 0.30000000000000
 100
AcDbArc
  50
 179.99999999948
  51
 270.00000000000
   0
LINE
   5
1B1
 100
AcDbEntity
   8
LEVEL001
 100
AcDbLine
   6
CONTINUOUS
  62
15
  10
 685.37489343385
  20
 299.50802806744
  30
0.0
  11
 685.37489343385
  21
 298.10802806744
  31
0.0
   0
LINE
   5
1B2
 100
AcDbEntity
   8
LEVEL001
 100
AcDbLine
   6
CONTINUOUS
  62
15
  10
 687.87489343385
  20
 297.80802806744
  30
0.0
  11
 685.67489343385
  21
 297.80802806744
  31
0.0
   0
POINT
   5
1B3
 100
AcDbEntity
   8
LEVEL001
 100
AcDbPoint
  62
15
  10
 686.87489343385
  20
 301.20802806744
  30
0.0
   0
LINE
   5
1B4
 100
AcDbEntity
   8
LEVEL001
 100
AcDbLine
   6
CONTINUOUS
  62
15
  10
 688.17489343385
  20
 300.90802806744
  30
0.0
  11
 688.17489343385
  21
 299.50802806744
  31
0.0
   0
ARC
   5
1B5
 100
AcDbEntity
   8
LEVEL001
   6
CONTINUOUS
  62
15
 100
AcDbCircle
  10
 687.87489343384
  20
 300.90802806744
  30
0.0
  40
 0.30000000000000
 100
AcDbArc
  50
0.0
  51
 89.999999999132
   0
POINT
   5
1B6
 100
AcDbEntity
   8
LEVEL001
 100
AcDbPoint
  62
15
  10
 688.17489343385
  20
 301.20802806744
  30
0.0
   0
LINE
   5
1B7
 100
AcDbEntity
   8
LEVEL001
 100
AcDbLine
   6
CONTINUOUS
  62
15
  10
 685.37489343385
  20
 300.90802806744
  30
0.0
  11
 685.37489343385
  21
 299.50802806744
  31
0.0
   0
ARC
   5
1B8
 100
AcDbEntity
   8
LEVEL001
   6
CONTINUOUS
  62
15
 100
AcDbCircle
  10
 685.67489343385
  20
 300.90802806744
  30
0.0
  40
 0.30000000000000
 100
AcDbArc
  50
 90.000000000608
  51
 180.00000000001
   0
LINE
   5
1B9
 100
AcDbEntity
   8
LEVEL001
 100
AcDbLine
   6
CONTINUOUS
  62
15
  10
 687.87489343385
  20
 301.20802806744
  30
0.0
  11
 685.67489343385
  21
 301.20802806744
  31
0.0
   0
ARC
   5
1BA
 100
AcDbEntity
   8
LEVEL001
   6
CONTINUOUS
  62
15
 100
AcDbCircle
  10
 687.33881343385
  20
 303.00802806744
  30
0.0
  40
 0.30000000000000
 100
AcDbArc
  50
 270.00000000000
  51
0.0
   0
POINT
   5
1BB
 100
AcDbEntity
   8
LEVEL001
 100
AcDbPoint
  62
15
  10
 687.63881343385
  20
 302.70802806744
  30
0.0
   0
LINE
   5
1BC
 100
AcDbEntity
   8
LEVEL001
 100
AcDbLine
   6
CONTINUOUS
  62
15
  10
 687.33881343385
  20
 302.70802806744
  30
0.0
  11
 685.07489343385
  21
 302.70802806744
  31
0.0
   0
LINE
   5
1BD
 100
AcDbEntity
   8
LEVEL001
 100
AcDbLine
   6
CONTINUOUS
  62
15
  10
 687.63881343385
  20
 303.00802806744
  30
0.0
  11
 687.63881343385
  21
 306.50802806744
  31
0.0
   0
POINT
   5
1BE
 100
AcDbEntity
   8
LEVEL001
 100
AcDbPoint
  62
15
  10
 687.62489343385
  20
 300.75802806744
  30
0.0
   0
LINE
   5
1BF
 100
AcDbEntity
   8
LEVEL001
 100
AcDbLine
   6
CONTINUOUS
  62
15
  10
 687.09609016079
  20
 300.70802806744
  30
0.0
  11
 687.09609016079
  21
 299.50802806744
  31
0.0
   0
ARC
   5
1C0
 100
AcDbEntity
   8
LEVEL001
   6
CONTINUOUS
  62
15
 100
AcDbCircle
  10
 687.39609016078
  20
 300.70802806744
  30
0.0
  40
 0.30000000000000
 100
AcDbArc
  50
 89.999999999696
  51
 180.00000000000
   0
POINT
   5
1C1
 100
AcDbEntity
   8
LEVEL001
 100
AcDbPoint
  62
15
  10
 687.09609016079
  20
 301.00802806744
  30
0.0
   0
LINE
   5
1C2
 100
AcDbEntity
   8
LEVEL001
 100
AcDbLine
   6
CONTINUOUS
  62
15
  10
 688.09609016079
  20
 300.70802806744
  30
0.0
  11
 688.09609016079
  21
 299.50802806744
  31
0.0
   0
ARC
   5
1C3
 100
AcDbEntity
   8
LEVEL001
   6
CONTINUOUS
  62
15
 100
AcDbCircle
  10
 687.79609016078
  20
 300.70802806744
  30
0.0
  40
 0.30000000000000
 100
AcDbArc
  50
0.0
  51
 89.999999999522
   0
POINT
   5
1C4
 100
AcDbEntity
   8
LEVEL001
 100
AcDbPoint
  62
15
  10
 688.09609016079
  20
 301.00802806744
  30
0.0
   0
LINE
   5
1C5
 100
AcDbEntity
   8
LEVEL001
 100
AcDbLine
   6
CONTINUOUS
  62
15
  10
 687.79609016079
  20
 301.00802806744
  30
0.0
  11
 687.39609016079
  21
 301.00802806744
  31
0.0
   0
POINT
   5
1C6
 100
AcDbEntity
   8
LEVEL001
 100
AcDbPoint
  62
15
  10
 687.62489343385
  20
 298.25802806744
  30
0.0
   0
LINE
   5
1C7
 100
AcDbEntity
   8
LEVEL001
 100
AcDbLine
   6
CONTINUOUS
  62
15
  10
 688.09609016079
  20
 299.50802806744
  30
0.0
  11
 688.09609016079
  21
 298.30802806744
  31
0.0
   0
ARC
   5
1C8
 100
AcDbEntity
   8
LEVEL001
   6
CONTINUOUS
  62
15
 100
AcDbCircle
  10
 687.79609016078
  20
 298.30802806744
  30
0.0
  40
 0.30000000000000
 100
AcDbArc
  50
 270.00000000065
  51
0.0
   0
POINT
   5
1C9
 100
AcDbEntity
   8
LEVEL001
 100
AcDbPoint
  62
15
  10
 688.09609016079
  20
 298.00802806744
  30
0.0
   0
LINE
   5
1CA
 100
AcDbEntity
   8
LEVEL001
 100
AcDbLine
   6
CONTINUOUS
  62
15
  10
 687.79609016079
  20
 298.00802806744
  30
0.0
  11
 687.39609016079
  21
 298.00802806744
  31
0.0
   0
ARC
   5
1CB
 100
AcDbEntity
   8
LEVEL001
   6
CONTINUOUS
  62
15
 100
AcDbCircle
  10
 687.39609016079
  20
 298.30802806744
  30
0.0
  40
 0.30000000000000
 100
AcDbArc
  50
 180.00000000012
  51
 270.00000000000
   0
POINT
   5
1CC
 100
AcDbEntity
   8
LEVEL001
 100
AcDbPoint
  62
15
  10
 687.09609016079
  20
 298.00802806744
  30
0.0
   0
LINE
   5
1CD
 100
AcDbEntity
   8
LEVEL001
 100
AcDbLine
   6
CONTINUOUS
  62
15
  10
 687.09609016079
  20
 299.50802806744
  30
0.0
  11
 687.09609016079
  21
 298.30802806744
  31
0.0
   0
ARC
   5
1CE
 100
AcDbEntity
   8
LEVEL001
   6
CONTINUOUS
  62
15
 100
AcDbCircle
  10
 683.77489343384
  20
 300.33294636722
  30
0.0
  40
 0.30000000000000
 100
AcDbArc
  50
 232.83110034497
  51
0.0
   0
POINT
   5
1CF
 100
AcDbEntity
   8
LEVEL001
 100
AcDbPoint
  62
15
  10
 684.07489343385
  20
 302.65802806744
  30
0.0
   0
LINE
   5
1D0
 100
AcDbEntity
   8
LEVEL001
 100
AcDbLine
   6
CONTINUOUS
  62
15
  10
 682.12489343385
  20
 301.05087959484
  30
0.0
  11
 682.12489343385
  21
 306.50802806744
  31
0.0
   0
ARC
   5
1D1
 100
AcDbEntity
   8
LEVEL001
   6
CONTINUOUS
  62
15
 100
AcDbCircle
  10
 682.42489343385
  20
 301.05087959484
  30
0.0
  40
 0.30000000000000
 100
AcDbArc
  50
 179.99999999986
  51
 251.16059545228
   0
ARC
   5
1D2
 100
AcDbEntity
   8
LEVEL001
   6
CONTINUOUS
  62
15
 100
AcDbCircle
  10
 680.87489343385
  20
 296.50802806744
  30
0.0
  40
 4.5000000000000
 100
AcDbArc
  50
 52.831100344010
  51
 71.160595452734
   0
ARC
   5
1D3
 100
AcDbEntity
   8
LEVEL001
   6
CONTINUOUS
  62
15
 100
AcDbCircle
  10
 685.07489343385
  20
 301.70802806744
  30
0.0
  40
 1.0000000000000
 100
AcDbArc
  50
 90.000000000000
  51
 180.00000000005
   0
LINE
   5
1D4
 100
AcDbEntity
   8
LEVEL001
 100
AcDbLine
   6
CONTINUOUS
  62
15
  10
 684.07489343385
  20
 300.33294636722
  30
0.0
  11
 684.07489343385
  21
 301.70802806744
  31
0.0
   0
LINE
   5
1D5
 100
AcDbEntity
   8
LEVEL001
 100
AcDbLine
   6
CONTINUOUS
  62
15
  10
 679.62489343385
  20
 301.19177656624
  30
0.0
  11
 679.62489343385
  21
 306.50802806744
  31
0.0
   0
ARC
   5
1D6
 100
AcDbEntity
   8
LEVEL001
   6
CONTINUOUS
  62
15
 100
AcDbCircle
  10
 679.12489343385
  20
 301.19177656624
  30
0.0
  40
 0.50000000000000
 100
AcDbArc
  50
 290.48731511464
  51
0.0
   0
ARC
   5
1D7
 100
AcDbEntity
   8
LEVEL001
   6
CONTINUOUS
  62
15
 100
AcDbCircle
  10
 680.87489343385
  20
 296.50802806744
  30
0.0
  40
 4.5000000000000
 100
AcDbArc
  50
 110.48731511471
  51
 125.82261735828
   0
ARC
   5
1D8
 100
AcDbEntity
   8
LEVEL001
   6
CONTINUOUS
  62
15
 100
AcDbCircle
  10
 677.94850446028
  20
 300.56219229394
  30
0.0
  40
 0.50000000000000
 100
AcDbArc
  50
 236.30993247403
  51
 305.82261735833
   0
ARC
   5
1D9
 100
AcDbEntity
   8
LEVEL001
   6
CONTINUOUS
  62
15
 100
AcDbCircle
  10
 677.94850446028
  20
 300.56219229394
  30
0.0
  40
 0.50000000000000
 100
AcDbArc
  50
 236.30993247402
  51
 305.82261735830
   0
LINE
   5
1DA
 100
AcDbEntity
   8
LEVEL001
 100
AcDbLine
   6
CONTINUOUS
  62
15
  10
 670.46538299618
  20
 304.95001472409
  30
0.0
  11
 677.67115436217
  21
 300.14616714677
  31
0.0
   0
LINE
   5
1DB
 100
AcDbEntity
   8
LEVEL001
 100
AcDbLine
   6
CONTINUOUS
  62
15
  10
 679.62489343385
  20
 306.50802806744
  30
0.0
  11
 679.62489343385
  21
 311.82427956864
  31
0.0
   0
ARC
   5
1DC
 100
AcDbEntity
   8
LEVEL001
   6
CONTINUOUS
  62
15
 100
AcDbCircle
  10
 670.74273309427
  20
 307.65001626370
  30
0.0
  40
 0.50000000000000
 100
AcDbArc
  50
 123.69006752589
  51
 193.20275241102
   0
ARC
   5
1DD
 100
AcDbEntity
   8
LEVEL001
   6
CONTINUOUS
  62
15
 100
AcDbCircle
  10
 665.87489343385
  20
 306.50802806744
  30
0.0
  40
 4.5000000000000
 100
AcDbArc
  50
 0.10856293312730E-10
  51
 13.202752411285
   0
ARC
   5
1DE
 100
AcDbEntity
   8
LEVEL001
   6
CONTINUOUS
  62
15
 100
AcDbCircle
  10
 670.74273309429
  20
 305.36603987126
  30
0.0
  40
 0.50000000000000
 100
AcDbArc
  50
 166.79724758953
  51
 236.30993247393
   0
ARC
   5
1DF
 100
AcDbEntity
   8
LEVEL001
   6
CONTINUOUS
  62
15
 100
AcDbCircle
  10
 665.87489343385
  20
 306.50802806744
  30
0.0
  40
 4.5000000000000
 100
AcDbArc
  50
 346.79724758973
  51
0.0
   0
ARC
   5
1E0
 100
AcDbEntity
   8
LEVEL001
   6
CONTINUOUS
  62
15
 100
AcDbCircle
  10
 685.55864193265
  20
 294.75802806744
  30
0.0
  40
 0.50000000000000
 100
AcDbArc
  50
 90.000000000000
  51
 159.51268488530
   0
ARC
   5
1E1
 100
AcDbEntity
   8
LEVEL001
   6
CONTINUOUS
  62
15
 100
AcDbCircle
  10
 680.87489343385
  20
 296.50802806744
  30
0.0
  40
 4.5000000000000
 100
AcDbArc
  50
 290.48731511472
  51
 339.51268488528
   0
ARC
   5
1E2
 100
AcDbEntity
   8
LEVEL001
   6
CONTINUOUS
  62
15
 100
AcDbCircle
  10
 687.13881343385
  20
 294.75802806744
  30
0.0
  40
 0.50000000000000
 100
AcDbArc
  50
0.0
  51
 90.000000000052
   0
POINT
   5
1E3
 100
AcDbEntity
   8
LEVEL001
 100
AcDbPoint
  62
15
  10
 687.63881343385
  20
 295.25802806744
  30
0.0
   0
LINE
   5
1E4
 100
AcDbEntity
   8
LEVEL001
 100
AcDbLine
   6
CONTINUOUS
  62
15
  10
 687.13881343385
  20
 295.25802806744
  30
0.0
  11
 685.55864193265
  21
 295.25802806744
  31
0.0
   0
LINE
   5
1E5
 100
AcDbEntity
   8
LEVEL001
 100
AcDbLine
   6
CONTINUOUS
  62
15
  10
 687.63881343385
  20
 289.70802806744
  30
0.0
  11
 687.63881343385
  21
 294.75802806744
  31
0.0
   0
ARC
   5
1E6
 100
AcDbEntity
   8
LEVEL001
   6
CONTINUOUS
  62
15
 100
AcDbCircle
  10
 687.13881343385
  20
 289.70802806744
  30
0.0
  40
 0.50000000000000
 100
AcDbArc
  50
 269.99999999987
  51
0.0
   0
POINT
   5
1E7
 100
AcDbEntity
   8
LEVEL001
 100
AcDbPoint
  62
15
  10
 687.63881343385
  20
 289.20802806744
  30
0.0
   0
LINE
   5
1E8
 100
AcDbEntity
   8
LEVEL001
 100
AcDbLine
   6
CONTINUOUS
  62
15
  10
 682.62489343385
  20
 289.20802806744
  30
0.0
  11
 687.13881343385
  21
 289.20802806744
  31
0.0
   0
ARC
   5
1E9
 100
AcDbEntity
   8
LEVEL001
   6
CONTINUOUS
  62
15
 100
AcDbCircle
  10
 682.62489343385
  20
 291.82427956864
  30
0.0
  40
 0.50000000000000
 100
AcDbArc
  50
 110.48731511491
  51
 180.00000000007
   0
LINE
   5
1EA
 100
AcDbEntity
   8
LEVEL001
 100
AcDbLine
   6
CONTINUOUS
  62
15
  10
 682.12489343385
  20
 289.70802806744
  30
0.0
  11
 682.12489343385
  21
 291.82427956864
  31
0.0
   0
ARC
   5
1EB
 100
AcDbEntity
   8
LEVEL001
   6
CONTINUOUS
  62
15
 100
AcDbCircle
  10
 682.62489343385
  20
 289.70802806744
  30
0.0
  40
 0.50000000000000
 100
AcDbArc
  50
 180.00000000000
  51
 270.00000000003
   0
POINT
   5
1EC
 100
AcDbEntity
   8
LEVEL001
 100
AcDbPoint
  62
15
  10
 682.12489343385
  20
 289.20802806744
  30
0.0
   0
ARC
   5
1ED
 100
AcDbEntity
   8
LEVEL001
   6
CONTINUOUS
  62
15
 100
AcDbCircle
  10
 680.87489343385
  20
 296.50802806744
  30
0.0
  40
 4.5000000000000
 100
AcDbArc
  50
 166.79724758773
  51
 249.51268488528
   0
ARC
   5
1EE
 100
AcDbEntity
   8
LEVEL001
   6
CONTINUOUS
  62
15
 100
AcDbCircle
  10
 679.12489343385
  20
 291.82427956864
  30
0.0
  40
 0.50000000000000
 100
AcDbArc
  50
0.0
  51
 69.512684885255
   0
LINE
   5
1EF
 100
AcDbEntity
   8
LEVEL001
 100
AcDbLine
   6
CONTINUOUS
  62
15
  10
 679.62489343385
  20
 289.70802806744
  30
0.0
  11
 679.62489343385
  21
 291.82427956864
  31
0.0
   0
ARC
   5
1F0
 100
AcDbEntity
   8
LEVEL001
   6
CONTINUOUS
  62
15
 100
AcDbCircle
  10
 679.12489343385
  20
 289.70802806744
  30
0.0
  40
 0.50000000000000
 100
AcDbArc
  50
 269.99999999997
  51
0.0
   0
POINT
   5
1F1
 100
AcDbEntity
   8
LEVEL001
 100
AcDbPoint
  62
15
  10
 679.62489343385
  20
 289.20802806744
  30
0.0
   0
LINE
   5
1F2
 100
AcDbEntity
   8
LEVEL001
 100
AcDbLine
   6
CONTINUOUS
  62
15
  10
 667.62489343385
  20
 289.20802806744
  30
0.0
  11
 679.12489343385
  21
 289.20802806744
  31
0.0
   0
LINE
   5
1F3
 100
AcDbEntity
   8
LEVEL001
 100
AcDbLine
   6
CONTINUOUS
  62
15
  10
 662.12489343385
  20
 289.70802806744
  30
0.0
  11
 662.12489343385
  21
 302.70835702905
  31
0.0
   0
ARC
   5
1F4
 100
AcDbEntity
   8
LEVEL001
   6
CONTINUOUS
  62
15
 100
AcDbCircle
  10
 662.62489343385
  20
 289.70802806744
  30
0.0
  40
 0.50000000000000
 100
AcDbArc
  50
 180.00000000000
  51
 270.00000000003
   0
POINT
   5
1F5
 100
AcDbEntity
   8
LEVEL001
 100
AcDbPoint
  62
15
  10
 662.12489343385
  20
 289.20802806744
  30
0.0
   0
LINE
   5
1F6
 100
AcDbEntity
   8
LEVEL001
 100
AcDbLine
   6
CONTINUOUS
  62
15
  10
 664.62489343385
  20
 289.70802806744
  30
0.0
  11
 664.62489343385
  21
 301.82427956864
  31
0.0
   0
ARC
   5
1F7
 100
AcDbEntity
   8
LEVEL001
   6
CONTINUOUS
  62
15
 100
AcDbCircle
  10
 664.12489343385
  20
 289.70802806744
  30
0.0
  40
 0.50000000000000
 100
AcDbArc
  50
 269.99999999997
  51
0.0
   0
POINT
   5
1F8
 100
AcDbEntity
   8
LEVEL001
 100
AcDbPoint
  62
15
  10
 664.62489343385
  20
 289.20802806744
  30
0.0
   0
LINE
   5
1F9
 100
AcDbEntity
   8
LEVEL001
 100
AcDbLine
   6
CONTINUOUS
  62
15
  10
 662.62489343385
  20
 289.20802806744
  30
0.0
  11
 664.12489343385
  21
 289.20802806744
  31
0.0
   0
LINE
   5
1FA
 100
AcDbEntity
   8
LEVEL001
 100
AcDbLine
   6
CONTINUOUS
  62
15
  10
 667.12489343385
  20
 289.70802806744
  30
0.0
  11
 667.12489343385
  21
 301.82427956864
  31
0.0
   0
ARC
   5
1FB
 100
AcDbEntity
   8
LEVEL001
   6
CONTINUOUS
  62
15
 100
AcDbCircle
  10
 667.62489343385
  20
 289.70802806744
  30
0.0
  40
 0.50000000000000
 100
AcDbArc
  50
 180.00000000000
  51
 270.00000000003
   0
POINT
   5
1FC
 100
AcDbEntity
   8
LEVEL001
 100
AcDbPoint
  62
15
  10
 667.12489343385
  20
 289.20802806744
  30
0.0
   0
ARC
   5
1FD
 100
AcDbEntity
   8
LEVEL001
   6
CONTINUOUS
  62
15
 100
AcDbCircle
  10
 662.62489343385
  20
 302.70835702905
  30
0.0
  40
 0.50000000000000
 100
AcDbArc
  50
 49.458398126564
  51
 179.99999999995
   0
ARC
   5
1FE
 100
AcDbEntity
   8
LEVEL001
   6
CONTINUOUS
  62
15
 100
AcDbCircle
  10
 665.87489343385
  20
 306.50802806744
  30
0.0
  40
 4.5000000000000
 100
AcDbArc
  50
 229.45839812649
  51
 249.51268488527
   0
ARC
   5
1FF
 100
AcDbEntity
   8
LEVEL001
   6
CONTINUOUS
  62
15
 100
AcDbCircle
  10
 664.12489343385
  20
 301.82427956864
  30
0.0
  40
 0.50000000000000
 100
AcDbArc
  50
0.0
  51
 69.512684885032
   0
ARC
   5
200
 100
AcDbEntity
   8
LEVEL001
   6
CONTINUOUS
  62
15
 100
AcDbCircle
  10
 667.62489343385
  20
 301.82427956864
  30
0.0
  40
 0.50000000000000
 100
AcDbArc
  50
 110.48731511503
  51
 180.00000000012
   0
ARC
   5
201
 100
AcDbEntity
   8
LEVEL001
   6
CONTINUOUS
  62
15
 100
AcDbCircle
  10
 665.87489343385
  20
 306.50802806744
  30
0.0
  40
 4.5000000000000
 100
AcDbArc
  50
 290.48731511474
  51
 305.82261736032
   0
ARC
   5
202
 100
AcDbEntity
   8
LEVEL001
   6
CONTINUOUS
  62
15
 100
AcDbCircle
  10
 668.80128240756
  20
 302.45386384105
  30
0.0
  40
 0.50000000000000
 100
AcDbArc
  50
 56.309932473999
  51
 125.82261736024
   0
LINE
   5
203
 100
AcDbEntity
   8
LEVEL001
 100
AcDbLine
   6
CONTINUOUS
  62
15
  10
 669.07863250567
  20
 302.86988898822
  30
0.0
  11
 676.28440387156
  21
 298.06604141096
  31
0.0
   0
ARC
   5
204
 100
AcDbEntity
   8
LEVEL001
   6
CONTINUOUS
  62
15
 100
AcDbCircle
  10
 676.00705377345
  20
 297.65001626379
  30
0.0
  40
 0.50000000000000
 100
AcDbArc
  50
 346.79724758770
  51
 56.309932473999
   0
LINE
   5
205
 100
AcDbEntity
   8
LEVEL001
 100
AcDbLine
   6
CONTINUOUS
  62
7
  10
 138.89624460123
  20
 289.00802806744
  30
0.0
  11
 138.89624460123
  21
 306.50802806744
  31
0.0
   0
LINE
   5
206
 100
AcDbEntity
   8
LEVEL001
 100
AcDbLine
   6
CONTINUOUS
  62
7
  10
 101.31624460123
  20
 287.70802806744
  30
0.0
  11
 120.52812011720
  21
 287.70802806744
  31
0.0
   0
LINE
   5
207
 100
AcDbEntity
   8
LEVEL001
 100
AcDbLine
   6
CONTINUOUS
  62
7
  10
 101.31624460123
  20
 287.70802806744
  30
0.0
  11
 101.31624460123
  21
 289.00802806744
  31
0.0
   0
LINE
   5
208
 100
AcDbEntity
   8
LEVEL001
 100
AcDbLine
   6
CONTINUOUS
  62
7
  10
 137.89624460131
  20
 309.00802806744
  30
0.0
  11
 137.89624460131
  21
 324.00802806744
  31
0.0
   0
LINE
   5
209
 100
AcDbEntity
   8
LEVEL001
 100
AcDbLine
   6
CONTINUOUS
  62
7
  10
 137.89624460131
  20
 306.50802806744
  30
0.0
  11
 137.89624460131
  21
 309.00802806744
  31
0.0
   0
LINE
   5
20A
 100
AcDbEntity
   8
LEVEL001
 100
AcDbLine
   6
CONTINUOUS
  62
7
  10
 137.89624460131
  20
 289.00802806744
  30
0.0
  11
 137.89624460131
  21
 306.50802806744
  31
0.0
   0
LINE
   5
20B
 100
AcDbEntity
   8
LEVEL001
 100
AcDbLine
   6
CONTINUOUS
  62
7
  10
 137.89624460131
  20
 287.70802806744
  30
0.0
  11
 137.89624460131
  21
 288.70802806744
  31
0.0
   0
LINE
   5
20C
 100
AcDbEntity
   8
LEVEL001
 100
AcDbLine
   6
CONTINUOUS
  62
7
  10
 137.89624460131
  20
 288.70802806744
  30
0.0
  11
 137.89624460131
  21
 289.00802806744
  31
0.0
   0
LINE
   5
20D
 100
AcDbEntity
   8
LEVEL001
 100
AcDbLine
   6
CONTINUOUS
  62
7
  10
 137.89624460131
  20
 324.00802806744
  30
0.0
  11
 137.89624460131
  21
 324.30802806744
  31
0.0
   0
LINE
   5
20E
 100
AcDbEntity
   8
LEVEL001
 100
AcDbLine
   6
CONTINUOUS
  62
7
  10
 137.89624460131
  20
 324.30802806744
  30
0.0
  11
 137.89624460131
  21
 325.30802806729
  31
0.0
   0
LINE
   5
20F
 100
AcDbEntity
   8
LEVEL001
 100
AcDbLine
   6
CONTINUOUS
  62
7
  10
 137.89624460100
  20
 325.30802806744
  30
0.0
  11
 138.89624460100
  21
 324.30802806744
  31
0.0
   0
LINE
   5
210
 100
AcDbEntity
   8
LEVEL001
 100
AcDbLine
   6
CONTINUOUS
  62
7
  10
 137.89624460131
  20
 287.70802806744
  30
0.0
  11
 138.89624460123
  21
 288.70802806736
  31
0.0
   0
LINE
   5
211
 100
AcDbEntity
   8
LEVEL001
 100
AcDbLine
   6
CONTINUOUS
  62
7
  10
 138.89624460123
  20
 306.50802806744
  30
0.0
  11
 138.89624460123
  21
 324.30802806721
  31
0.0
   0
LINE
   5
212
 100
AcDbEntity
   8
LEVEL001
 100
AcDbLine
   6
CONTINUOUS
  62
7
  10
 138.89624460123
  20
 288.70802806736
  30
0.0
  11
 138.89624460123
  21
 289.00802806744
  31
0.0
   0
CIRCLE
   5
213
 100
AcDbEntity
   8
LEVEL001
 100
AcDbCircle
   6
CONTINUOUS
  62
7
  10
 96.316244601235
  20
 306.50802806744
  30
0.0
  40
 2.2500000000000
   0
CIRCLE
   5
214
 100
AcDbEntity
   8
LEVEL001
 100
AcDbCircle
   6
CONTINUOUS
  62
7
  10
 81.316244601235
  20
 316.50802806744
  30
0.0
  40
 2.2500000000000
   0
CIRCLE
   5
215
 100
AcDbEntity
   8
LEVEL001
 100
AcDbCircle
   6
CONTINUOUS
  62
7
  10
 81.316244601235
  20
 296.50802806744
  30
0.0
  40
 2.2500000000000
   0
LINE
   5
216
 100
AcDbEntity
   8
LEVEL001
 100
AcDbLine
   6
CONTINUOUS
  62
7
  10
 71.095569017539
  20
 306.50802806744
  30
0.0
  11
 71.095569017539
  21
 324.45802806744
  31
0.0
   0
LINE
   5
217
 100
AcDbEntity
   8
LEVEL001
 100
AcDbLine
   6
CONTINUOUS
  62
7
  10
 73.002324601234
  20
 325.30802806744
  30
0.0
  11
 73.316244601235
  21
 325.30802806744
  31
0.0
   0
LINE
   5
218
 100
AcDbEntity
   8
LEVEL001
 100
AcDbLine
   6
CONTINUOUS
  62
7
  10
 71.095569017539
  20
 324.45802806744
  30
0.0
  11
 73.002324601234
  21
 325.30802806744
  31
0.0
   0
LINE
   5
219
 100
AcDbEntity
   8
LEVEL001
 100
AcDbLine
   6
CONTINUOUS
  62
7
  10
 71.095569017539
  20
 288.55802806744
  30
0.0
  11
 73.002324601234
  21
 287.70802806744
  31
0.0
   0
LINE
   5
21A
 100
AcDbEntity
   8
LEVEL001
 100
AcDbLine
   6
CONTINUOUS
  62
7
  10
 71.095569017539
  20
 288.55802806744
  30
0.0
  11
 71.095569017539
  21
 306.50802806744
  31
0.0
   0
LINE
   5
21B
 100
AcDbEntity
   8
LEVEL001
 100
AcDbLine
   6
CONTINUOUS
  62
7
  10
 73.002324601234
  20
 287.70802806744
  30
0.0
  11
 73.316244601235
  21
 287.70802806744
  31
0.0
   0
LINE
   5
21C
 100
AcDbEntity
   8
LEVEL001
 100
AcDbLine
   6
DASHDOT
  62
3
  10
 86.902801275779
  20
 316.50802806744
  30
0.0
  11
 74.535493545618
  21
 316.50802806744
  31
0.0
   0
LINE
   5
21D
 100
AcDbEntity
   8
LEVEL001
 100
AcDbLine
   6
DASHDOT
  62
3
  10
 87.312732681019
  20
 296.50802806744
  30
0.0
  11
 74.383984781166
  21
 296.50802806744
  31
0.0
   0
LINE
   5
21E
 100
AcDbEntity
   8
LEVEL001
 100
AcDbLine
   6
CONTINUOUS
  62
7
  10
 101.31624460123
  20
 306.50802806744
  30
0.0
  11
 101.31624460123
  21
 324.80802806744
  31
0.0
   0
ARC
   5
21F
 100
AcDbEntity
   8
LEVEL001
   6
CONTINUOUS
  62
7
 100
AcDbCircle
  10
 100.81624460123
  20
 324.80802806744
  30
0.0
  40
 0.50000000000000
 100
AcDbArc
  50
0.0
  51
 89.999999999818
   0
POINT
   5
220
 100
AcDbEntity
   8
LEVEL001
 100
AcDbPoint
  62
7
  10
 101.31624460123
  20
 325.30802806744
  30
0.0
   0
LINE
   5
221
 100
AcDbEntity
   8
LEVEL001
 100
AcDbLine
   6
CONTINUOUS
  62
7
  10
 73.316244601235
  20
 325.30802806744
  30
0.0
  11
 100.81624460123
  21
 325.30802806744
  31
0.0
   0
LINE
   5
222
 100
AcDbEntity
   8
LEVEL001
 100
AcDbLine
   6
CONTINUOUS
  62
7
  10
 101.31624460123
  20
 288.20802806744
  30
0.0
  11
 101.31624460123
  21
 306.50802806744
  31
0.0
   0
ARC
   5
223
 100
AcDbEntity
   8
LEVEL001
   6
CONTINUOUS
  62
7
 100
AcDbCircle
  10
 100.81624460123
  20
 288.20802806744
  30
0.0
  40
 0.50000000000000
 100
AcDbArc
  50
 270.00000000008
  51
0.0
   0
POINT
   5
224
 100
AcDbEntity
   8
LEVEL001
 100
AcDbPoint
  62
7
  10
 101.31624460123
  20
 287.70802806744
  30
0.0
   0
LINE
   5
225
 100
AcDbEntity
   8
LEVEL001
 100
AcDbLine
   6
CONTINUOUS
  62
7
  10
 73.316244601235
  20
 287.70802806744
  30
0.0
  11
 100.81624460123
  21
 287.70802806744
  31
0.0
   0
ARC
   5
226
 100
AcDbEntity
   8
LEVEL001
   6
CONTINUOUS
  62
7
 100
AcDbCircle
  10
 127.97607693460
  20
 324.80802806744
  30
0.0
  40
 0.50000000000000
 100
AcDbArc
  50
 313.04798191466
  51
 89.999999999818
   0
ARC
   5
227
 100
AcDbEntity
   8
LEVEL001
   6
CONTINUOUS
  62
7
 100
AcDbCircle
  10
 127.97607693460
  20
 288.20802806744
  30
0.0
  40
 0.50000000000000
 100
AcDbArc
  50
 270.00000000016
  51
 46.952018085379
   0
ARC
   5
228
 100
AcDbEntity
   8
LEVEL001
   6
CONTINUOUS
  62
7
 100
AcDbCircle
  10
 145.06977715665
  20
 306.50802806744
  30
0.0
  40
 24.541657039447
 100
AcDbArc
  50
 133.04798191442
  51
 226.95201808558
   0
LINE
   5
229
 100
AcDbEntity
   8
LEVEL001
 100
AcDbLine
   6
CONTINUOUS
  62
7
  10
 101.31624460123
  20
 325.30802806744
  30
0.0
  11
 137.89624460100
  21
 325.30802806744
  31
0.0
   0
LINE
   5
22A
 100
AcDbEntity
   8
LEVEL001
 100
AcDbLine
   6
CONTINUOUS
  62
7
  10
 120.52812011720
  20
 287.70802806744
  30
0.0
  11
 137.89624460131
  21
 287.70802806744
  31
0.0
   0
LINE
   5
22B
 100
AcDbEntity
   8
LEVEL001
 100
AcDbLine
   6
DASHDOT
  62
3
  10
 96.316244601235
  20
 312.37674358796
  30
0.0
  11
 96.316244601235
  21
 300.37805463352
  31
0.0
   0
ARC
   5
22C
 100
AcDbEntity
   8
LEVEL001
   6
CONTINUOUS
  62
15
 100
AcDbCircle
  10
 99.566244601235
  20
 323.30802806744
  30
0.0
  40
 0.50000000000000
 100
AcDbArc
  50
 0.39082655925824E-10
  51
 90.000000000000
   0
POINT
   5
22D
 100
AcDbEntity
   8
LEVEL001
 100
AcDbPoint
  62
15
  10
 100.06624460123
  20
 323.80802806744
  30
0.0
   0
POINT
   5
22E
 100
AcDbEntity
   8
LEVEL001
 100
AcDbPoint
  62
15
  10
 97.566244601235
  20
 323.80802806744
  30
0.0
   0
POINT
   5
22F
 100
AcDbEntity
   8
LEVEL001
 100
AcDbPoint
  62
15
  10
 80.066244601235
  20
 323.80802806744
  30
0.0
   0
ARC
   5
230
 100
AcDbEntity
   8
LEVEL001
   6
CONTINUOUS
  62
15
 100
AcDbCircle
  10
 75.052324601234
  20
 323.30802806744
  30
0.0
  40
 0.50000000000000
 100
AcDbArc
  50
 90.000000000000
  51
 179.99999999986
   0
POINT
   5
231
 100
AcDbEntity
   8
LEVEL001
 100
AcDbPoint
  62
15
  10
 74.552324601234
  20
 323.80802806744
  30
0.0
   0
LINE
   5
232
 100
AcDbEntity
   8
LEVEL001
 100
AcDbLine
   6
CONTINUOUS
  62
15
  10
 74.552324601234
  20
 322.55802806744
  30
0.0
  11
 74.552324601234
  21
 323.30802806744
  31
0.0
   0
ARC
   5
233
 100
AcDbEntity
   8
LEVEL001
   6
CONTINUOUS
  62
15
 100
AcDbCircle
  10
 94.566244601235
  20
 323.30802806744
  30
0.0
  40
 0.50000000000000
 100
AcDbArc
  50
0.0
  51
 90.000000000026
   0
POINT
   5
234
 100
AcDbEntity
   8
LEVEL001
 100
AcDbPoint
  62
15
  10
 95.066244601235
  20
 323.80802806744
  30
0.0
   0
LINE
   5
235
 100
AcDbEntity
   8
LEVEL001
 100
AcDbLine
   6
CONTINUOUS
  62
15
  10
 94.566244601235
  20
 323.80802806744
  30
0.0
  11
 83.066244601235
  21
 323.80802806744
  31
0.0
   0
LINE
   5
236
 100
AcDbEntity
   8
LEVEL001
 100
AcDbLine
   6
CONTINUOUS
  62
15
  10
 95.066244601235
  20
 311.19177656624
  30
0.0
  11
 95.066244601235
  21
 323.30802806744
  31
0.0
   0
ARC
   5
237
 100
AcDbEntity
   8
LEVEL001
   6
CONTINUOUS
  62
15
 100
AcDbCircle
  10
 83.066244601235
  20
 323.30802806744
  30
0.0
  40
 0.50000000000000
 100
AcDbArc
  50
 90.000000000000
  51
 179.99999999999
   0
POINT
   5
238
 100
AcDbEntity
   8
LEVEL001
 100
AcDbPoint
  62
15
  10
 82.566244601235
  20
 323.80802806744
  30
0.0
   0
LINE
   5
239
 100
AcDbEntity
   8
LEVEL001
 100
AcDbLine
   6
CONTINUOUS
  62
15
  10
 82.566244601235
  20
 321.19177656624
  30
0.0
  11
 82.566244601235
  21
 323.30802806744
  31
0.0
   0
LINE
   5
23A
 100
AcDbEntity
   8
LEVEL001
 100
AcDbLine
   6
CONTINUOUS
  62
15
  10
 97.566244601235
  20
 311.19177656624
  30
0.0
  11
 97.566244601235
  21
 323.30802806744
  31
0.0
   0
ARC
   5
23B
 100
AcDbEntity
   8
LEVEL001
   6
CONTINUOUS
  62
15
 100
AcDbCircle
  10
 98.066244601235
  20
 323.30802806744
  30
0.0
  40
 0.50000000000000
 100
AcDbArc
  50
 90.000000000000
  51
 179.99999999999
   0
LINE
   5
23C
 100
AcDbEntity
   8
LEVEL001
 100
AcDbLine
   6
CONTINUOUS
  62
15
  10
 80.066244601235
  20
 321.19177656624
  30
0.0
  11
 80.066244601235
  21
 323.30802806744
  31
0.0
   0
ARC
   5
23D
 100
AcDbEntity
   8
LEVEL001
   6
CONTINUOUS
  62
15
 100
AcDbCircle
  10
 79.566244601235
  20
 323.30802806744
  30
0.0
  40
 0.50000000000000
 100
AcDbArc
  50
 0.39082655925824E-10
  51
 90.000000000000
   0
LINE
   5
23E
 100
AcDbEntity
   8
LEVEL001
 100
AcDbLine
   6
CONTINUOUS
  62
15
  10
 98.066244601235
  20
 323.80802806744
  30
0.0
  11
 99.566244601235
  21
 323.80802806744
  31
0.0
   0
LINE
   5
23F
 100
AcDbEntity
   8
LEVEL001
 100
AcDbLine
   6
CONTINUOUS
  62
15
  10
 79.566244601235
  20
 323.80802806744
  30
0.0
  11
 75.052324601234
  21
 323.80802806744
  31
0.0
   0
LINE
   5
240
 100
AcDbEntity
   8
LEVEL001
 100
AcDbLine
   6
CONTINUOUS
  62
15
  10
 100.06624460123
  20
 310.30769910583
  30
0.0
  11
 100.06624460123
  21
 323.30802806744
  31
0.0
   0
LINE
   5
241
 100
AcDbEntity
   8
LEVEL001
 100
AcDbLine
   6
CONTINUOUS
  62
15
  10
 74.552324601234
  20
 318.25802806744
  30
0.0
  11
 74.552324601234
  21
 322.55802806744
  31
0.0
   0
ARC
   5
242
 100
AcDbEntity
   8
LEVEL001
   6
CONTINUOUS
  62
15
 100
AcDbCircle
  10
 75.052324601233
  20
 318.25802806744
  30
0.0
  40
 0.50000000000000
 100
AcDbArc
  50
 180.00000000000
  51
 270.00000000016
   0
POINT
   5
243
 100
AcDbEntity
   8
LEVEL001
 100
AcDbPoint
  62
15
  10
 74.552324601234
  20
 317.75802806744
  30
0.0
   0
LINE
   5
244
 100
AcDbEntity
   8
LEVEL001
 100
AcDbLine
   6
CONTINUOUS
  62
15
  10
 75.052324601234
  20
 317.75802806744
  30
0.0
  11
 76.632496102436
  21
 317.75802806744
  31
0.0
   0
ARC
   5
245
 100
AcDbEntity
   8
LEVEL001
   6
CONTINUOUS
  62
15
 100
AcDbCircle
  10
 76.632496102436
  20
 318.25802806744
  30
0.0
  40
 0.50000000000000
 100
AcDbArc
  50
 270.00000000003
  51
 339.51268488528
   0
ARC
   5
246
 100
AcDbEntity
   8
LEVEL001
   6
CONTINUOUS
  62
15
 100
AcDbCircle
  10
 81.316244601235
  20
 316.50802806744
  30
0.0
  40
 4.5000000000000
 100
AcDbArc
  50
 110.48731511473
  51
 159.51268488528
   0
ARC
   5
247
 100
AcDbEntity
   8
LEVEL001
   6
CONTINUOUS
  62
15
 100
AcDbCircle
  10
 79.566244601233
  20
 321.19177656624
  30
0.0
  40
 0.50000000000000
 100
AcDbArc
  50
 290.48731511486
  51
 0.58623983888576E-10
   0
ARC
   5
248
 100
AcDbEntity
   8
LEVEL001
   6
CONTINUOUS
  62
15
 100
AcDbCircle
  10
 83.066244601234
  20
 321.19177656624
  30
0.0
  40
 0.50000000000000
 100
AcDbArc
  50
 180.00000000000
  51
 249.51268488528
   0
ARC
   5
249
 100
AcDbEntity
   8
LEVEL001
   6
CONTINUOUS
  62
15
 100
AcDbCircle
  10
 81.316244601235
  20
 316.50802806744
  30
0.0
  40
 4.5000000000000
 100
AcDbArc
  50
 0.14475057750305E-11
  51
 69.512684885280
   0
LINE
   5
24A
 100
AcDbEntity
   8
LEVEL001
 100
AcDbLine
   6
CONTINUOUS
  62
15
  10
 91.725755038923
  20
 308.06604141087
  30
0.0
  11
 84.519983672984
  21
 312.86988898816
  31
0.0
   0
LINE
   5
24B
 100
AcDbEntity
   8
LEVEL001
 100
AcDbLine
   6
CONTINUOUS
  62
15
  10
 93.112505529487
  20
 310.14616714672
  30
0.0
  11
 85.906734163546
  21
 314.95001472401
  31
0.0
   0
ARC
   5
24C
 100
AcDbEntity
   8
LEVEL001
   6
CONTINUOUS
  62
15
 100
AcDbCircle
  10
 86.184084261658
  20
 315.36603987118
  30
0.0
  40
 0.50000000000000
 100
AcDbArc
  50
 166.79724758855
  51
 236.30993247394
   0
ARC
   5
24D
 100
AcDbEntity
   8
LEVEL001
   6
CONTINUOUS
  62
15
 100
AcDbCircle
  10
 81.316244601235
  20
 316.50802806744
  30
0.0
  40
 4.5000000000000
 100
AcDbArc
  50
 346.79724758874
  51
0.0
   0
ARC
   5
24E
 100
AcDbEntity
   8
LEVEL001
   6
CONTINUOUS
  62
15
 100
AcDbCircle
  10
 83.066244601235
  20
 311.82427956864
  30
0.0
  40
 0.50000000000000
 100
AcDbArc
  50
 110.48731511480
  51
 180.00000000003
   0
ARC
   5
24F
 100
AcDbEntity
   8
LEVEL001
   6
CONTINUOUS
  62
15
 100
AcDbCircle
  10
 81.316244601235
  20
 316.50802806744
  30
0.0
  40
 4.5000000000000
 100
AcDbArc
  50
 290.48731511471
  51
 305.82261735930
   0
ARC
   5
250
 100
AcDbEntity
   8
LEVEL001
   6
CONTINUOUS
  62
15
 100
AcDbCircle
  10
 84.242633574872
  20
 312.45386384100
  30
0.0
  40
 0.50000000000000
 100
AcDbArc
  50
 56.309932474024
  51
 125.82261735935
   0
ARC
   5
251
 100
AcDbEntity
   8
LEVEL001
   6
CONTINUOUS
  62
15
 100
AcDbCircle
  10
 94.566244601231
  20
 311.19177656624
  30
0.0
  40
 0.50000000000000
 100
AcDbArc
  50
 290.48731511511
  51
 0.14330307172704E-9
   0
ARC
   5
252
 100
AcDbEntity
   8
LEVEL001
   6
CONTINUOUS
  62
15
 100
AcDbCircle
  10
 96.316244601235
  20
 306.50802806744
  30
0.0
  40
 4.5000000000000
 100
AcDbArc
  50
 110.48731511474
  51
 125.82261735929
   0
ARC
   5
253
 100
AcDbEntity
   8
LEVEL001
   6
CONTINUOUS
  62
15
 100
AcDbCircle
  10
 93.389855627601
  20
 310.56219229389
  30
0.0
  40
 0.50000000000000
 100
AcDbArc
  50
 236.30993247398
  51
 305.82261735916
   0
ARC
   5
254
 100
AcDbEntity
   8
LEVEL001
   6
CONTINUOUS
  62
15
 100
AcDbCircle
  10
 99.566244601234
  20
 310.30769910583
  30
0.0
  40
 0.50000000000000
 100
AcDbArc
  50
 229.45839812652
  51
0.0
   0
ARC
   5
255
 100
AcDbEntity
   8
LEVEL001
   6
CONTINUOUS
  62
15
 100
AcDbCircle
  10
 96.316244601234
  20
 306.50802806744
  30
0.0
  40
 4.5000000000000
 100
AcDbArc
  50
 49.458398126492
  51
 69.512684885273
   0
ARC
   5
256
 100
AcDbEntity
   8
LEVEL001
   6
CONTINUOUS
  62
15
 100
AcDbCircle
  10
 98.066244601237
  20
 311.19177656624
  30
0.0
  40
 0.50000000000000
 100
AcDbArc
  50
 179.99999999988
  51
 249.51268488495
   0
ARC
   5
257
 100
AcDbEntity
   8
LEVEL001
   6
CONTINUOUS
  62
15
 100
AcDbCircle
  10
 78.416244601237
  20
 312.68310976766
  30
0.0
  40
 0.30000000000000
 100
AcDbArc
  50
 52.831100344635
  51
 179.99999999962
   0
POINT
   5
258
 100
AcDbEntity
   8
LEVEL001
 100
AcDbPoint
  62
15
  10
 74.552324601234
  20
 310.35802806744
  30
0.0
   0
LINE
   5
259
 100
AcDbEntity
   8
LEVEL001
 100
AcDbLine
   6
CONTINUOUS
  62
15
  10
 80.066244601235
  20
 306.50802806744
  30
0.0
  11
 80.066244601235
  21
 311.96517654004
  31
0.0
   0
ARC
   5
25A
 100
AcDbEntity
   8
LEVEL001
   6
CONTINUOUS
  62
15
 100
AcDbCircle
  10
 79.766244601233
  20
 311.96517654004
  30
0.0
  40
 0.30000000000000
 100
AcDbArc
  50
0.0
  51
 71.160595452416
   0
ARC
   5
25B
 100
AcDbEntity
   8
LEVEL001
   6
CONTINUOUS
  62
15
 100
AcDbCircle
  10
 81.316244601234
  20
 316.50802806744
  30
0.0
  40
 4.5000000000000
 100
AcDbArc
  50
 232.83110034401
  51
 251.16059545273
   0
LINE
   5
25C
 100
AcDbEntity
   8
LEVEL001
 100
AcDbLine
   6
CONTINUOUS
  62
15
  10
 74.016244601234
  20
 312.10802806744
  30
0.0
  11
 74.016244601234
  21
 313.50802806744
  31
0.0
   0
ARC
   5
25D
 100
AcDbEntity
   8
LEVEL001
   6
CONTINUOUS
  62
15
 100
AcDbCircle
  10
 74.316244601238
  20
 312.10802806744
  30
0.0
  40
 0.30000000000000
 100
AcDbArc
  50
 179.99999999999
  51
 269.99999999931
   0
POINT
   5
25E
 100
AcDbEntity
   8
LEVEL001
 100
AcDbPoint
  62
15
  10
 74.016244601234
  20
 311.80802806744
  30
0.0
   0
LINE
   5
25F
 100
AcDbEntity
   8
LEVEL001
 100
AcDbLine
   6
CONTINUOUS
  62
15
  10
 76.816244601235
  20
 312.10802806744
  30
0.0
  11
 76.816244601235
  21
 313.50802806744
  31
0.0
   0
ARC
   5
260
 100
AcDbEntity
   8
LEVEL001
   6
CONTINUOUS
  62
15
 100
AcDbCircle
  10
 76.516244601232
  20
 312.10802806744
  30
0.0
  40
 0.30000000000000
 100
AcDbArc
  50
 270.00000000043
  51
 0.10856293312640E-10
   0
LINE
   5
261
 100
AcDbEntity
   8
LEVEL001
 100
AcDbLine
   6
CONTINUOUS
  62
15
  10
 74.316244601235
  20
 311.80802806744
  30
0.0
  11
 76.516244601234
  21
 311.80802806744
  31
0.0
   0
ARC
   5
262
 100
AcDbEntity
   8
LEVEL001
   6
CONTINUOUS
  62
15
 100
AcDbCircle
  10
 74.852324601234
  20
 310.00802806744
  30
0.0
  40
 0.30000000000000
 100
AcDbArc
  50
 90.000000000000
  51
 180.00000000000
   0
LINE
   5
263
 100
AcDbEntity
   8
LEVEL001
 100
AcDbLine
   6
CONTINUOUS
  62
15
  10
 74.852324601234
  20
 310.30802806744
  30
0.0
  11
 77.116244601234
  21
 310.30802806744
  31
0.0
   0
ARC
   5
264
 100
AcDbEntity
   8
LEVEL001
   6
CONTINUOUS
  62
15
 100
AcDbCircle
  10
 77.116244601234
  20
 311.30802806744
  30
0.0
  40
 1.0000000000000
 100
AcDbArc
  50
 270.00000000000
  51
 0.22798215956730E-10
   0
POINT
   5
265
 100
AcDbEntity
   8
LEVEL001
 100
AcDbPoint
  62
15
  10
 78.116244601234
  20
 310.30802806744
  30
0.0
   0
LINE
   5
266
 100
AcDbEntity
   8
LEVEL001
 100
AcDbLine
   6
CONTINUOUS
  62
15
  10
 78.116244601234
  20
 311.30802806744
  30
0.0
  11
 78.116244601234
  21
 312.68310976766
  31
0.0
   0
LINE
   5
267
 100
AcDbEntity
   8
LEVEL001
 100
AcDbLine
   6
CONTINUOUS
  62
15
  10
 74.552324601234
  20
 306.50802806744
  30
0.0
  11
 74.552324601234
  21
 310.00802806744
  31
0.0
   0
LINE
   5
268
 100
AcDbEntity
   8
LEVEL001
 100
AcDbLine
   6
CONTINUOUS
  62
15
  10
 75.095047874298
  20
 312.30802806744
  30
0.0
  11
 75.095047874298
  21
 313.50802806744
  31
0.0
   0
ARC
   5
269
 100
AcDbEntity
   8
LEVEL001
   6
CONTINUOUS
  62
15
 100
AcDbCircle
  10
 74.795047874299
  20
 312.30802806744
  30
0.0
  40
 0.30000000000000
 100
AcDbArc
  50
 269.99999999978
  51
0.0
   0
POINT
   5
26A
 100
AcDbEntity
   8
LEVEL001
 100
AcDbPoint
  62
15
  10
 75.095047874298
  20
 312.00802806744
  30
0.0
   0
LINE
   5
26B
 100
AcDbEntity
   8
LEVEL001
 100
AcDbLine
   6
CONTINUOUS
  62
15
  10
 74.095047874298
  20
 312.30802806744
  30
0.0
  11
 74.095047874298
  21
 313.50802806744
  31
0.0
   0
ARC
   5
26C
 100
AcDbEntity
   8
LEVEL001
   6
CONTINUOUS
  62
15
 100
AcDbCircle
  10
 74.395047874301
  20
 312.30802806744
  30
0.0
  40
 0.30000000000000
 100
AcDbArc
  50
 180.00000000000
  51
 269.99999999944
   0
POINT
   5
26D
 100
AcDbEntity
   8
LEVEL001
 100
AcDbPoint
  62
15
  10
 74.095047874298
  20
 312.00802806744
  30
0.0
   0
LINE
   5
26E
 100
AcDbEntity
   8
LEVEL001
 100
AcDbLine
   6
CONTINUOUS
  62
15
  10
 74.395047874298
  20
 312.00802806744
  30
0.0
  11
 74.795047874298
  21
 312.00802806744
  31
0.0
   0
ARC
   5
26F
 100
AcDbEntity
   8
LEVEL001
   6
CONTINUOUS
  62
15
 100
AcDbCircle
  10
 74.316244601234
  20
 314.90802806744
  30
0.0
  40
 0.30000000000000
 100
AcDbArc
  50
 89.999999999957
  51
 180.00000000041
   0
POINT
   5
270
 100
AcDbEntity
   8
LEVEL001
 100
AcDbPoint
  62
15
  10
 74.016244601234
  20
 315.20802806744
  30
0.0
   0
LINE
   5
271
 100
AcDbEntity
   8
LEVEL001
 100
AcDbLine
   6
CONTINUOUS
  62
15
  10
 74.016244601234
  20
 313.50802806744
  30
0.0
  11
 74.016244601234
  21
 314.90802806744
  31
0.0
   0
ARC
   5
272
 100
AcDbEntity
   8
LEVEL001
   6
CONTINUOUS
  62
15
 100
AcDbCircle
  10
 76.516244601234
  20
 314.90802806744
  30
0.0
  40
 0.30000000000000
 100
AcDbArc
  50
0.0
  51
 90.000000000000
   0
LINE
   5
273
 100
AcDbEntity
   8
LEVEL001
 100
AcDbLine
   6
CONTINUOUS
  62
15
  10
 76.816244601235
  20
 313.50802806744
  30
0.0
  11
 76.816244601235
  21
 314.90802806744
  31
0.0
   0
LINE
   5
274
 100
AcDbEntity
   8
LEVEL001
 100
AcDbLine
   6
CONTINUOUS
  62
15
  10
 74.316244601235
  20
 315.20802806744
  30
0.0
  11
 76.516244601234
  21
 315.20802806744
  31
0.0
   0
LINE
   5
275
 100
AcDbEntity
   8
LEVEL001
 100
AcDbLine
   6
CONTINUOUS
  62
15
  10
 74.095047874298
  20
 313.50802806744
  30
0.0
  11
 74.095047874298
  21
 314.70802806744
  31
0.0
   0
ARC
   5
276
 100
AcDbEntity
   8
LEVEL001
   6
CONTINUOUS
  62
15
 100
AcDbCircle
  10
 74.395047874304
  20
 314.70802806744
  30
0.0
  40
 0.30000000000000
 100
AcDbArc
  50
 90.000000001129
  51
 180.00000000000
   0
POINT
   5
277
 100
AcDbEntity
   8
LEVEL001
 100
AcDbPoint
  62
15
  10
 74.095047874298
  20
 315.00802806744
  30
0.0
   0
LINE
   5
278
 100
AcDbEntity
   8
LEVEL001
 100
AcDbLine
   6
CONTINUOUS
  62
15
  10
 74.395047874298
  20
 315.00802806744
  30
0.0
  11
 74.795047874298
  21
 315.00802806744
  31
0.0
   0
ARC
   5
279
 100
AcDbEntity
   8
LEVEL001
   6
CONTINUOUS
  62
15
 100
AcDbCircle
  10
 74.795047874298
  20
 314.70802806744
  30
0.0
  40
 0.30000000000000
 100
AcDbArc
  50
0.0
  51
 90.000000000000
   0
POINT
   5
27A
 100
AcDbEntity
   8
LEVEL001
 100
AcDbPoint
  62
15
  10
 75.095047874298
  20
 315.00802806744
  30
0.0
   0
LINE
   5
27B
 100
AcDbEntity
   8
LEVEL001
 100
AcDbLine
   6
CONTINUOUS
  62
15
  10
 75.095047874298
  20
 313.50802806744
  30
0.0
  11
 75.095047874298
  21
 314.70802806744
  31
0.0
   0
POINT
   5
27C
 100
AcDbEntity
   8
LEVEL001
 100
AcDbPoint
  62
15
  10
 74.552324601234
  20
 297.80802806744
  30
0.0
   0
ARC
   5
27D
 100
AcDbEntity
   8
LEVEL001
   6
CONTINUOUS
  62
15
 100
AcDbCircle
  10
 74.316244601234
  20
 298.10802806743
  30
0.0
  40
 0.30000000000000
 100
AcDbArc
  50
 179.99999999919
  51
 270.00000000004
   0
POINT
   5
27E
 100
AcDbEntity
   8
LEVEL001
 100
AcDbPoint
  62
15
  10
 74.016244601234
  20
 297.80802806744
  30
0.0
   0
LINE
   5
27F
 100
AcDbEntity
   8
LEVEL001
 100
AcDbLine
   6
CONTINUOUS
  62
15
  10
 74.016244601234
  20
 299.50802806744
  30
0.0
  11
 74.016244601234
  21
 298.10802806744
  31
0.0
   0
POINT
   5
280
 100
AcDbEntity
   8
LEVEL001
 100
AcDbPoint
  62
15
  10
 75.316244601235
  20
 297.80802806744
  30
0.0
   0
ARC
   5
281
 100
AcDbEntity
   8
LEVEL001
   6
CONTINUOUS
  62
15
 100
AcDbCircle
  10
 76.516244601234
  20
 298.10802806744
  30
0.0
  40
 0.30000000000000
 100
AcDbArc
  50
 270.00000000000
  51
 0.52110207901067E-9
   0
LINE
   5
282
 100
AcDbEntity
   8
LEVEL001
 100
AcDbLine
   6
CONTINUOUS
  62
15
  10
 76.816244601235
  20
 299.50802806744
  30
0.0
  11
 76.816244601235
  21
 298.10802806744
  31
0.0
   0
LINE
   5
283
 100
AcDbEntity
   8
LEVEL001
 100
AcDbLine
   6
CONTINUOUS
  62
15
  10
 74.316244601235
  20
 297.80802806744
  30
0.0
  11
 76.516244601234
  21
 297.80802806744
  31
0.0
   0
POINT
   5
284
 100
AcDbEntity
   8
LEVEL001
 100
AcDbPoint
  62
15
  10
 75.316244601235
  20
 301.20802806744
  30
0.0
   0
LINE
   5
285
 100
AcDbEntity
   8
LEVEL001
 100
AcDbLine
   6
CONTINUOUS
  62
15
  10
 74.016244601234
  20
 300.90802806744
  30
0.0
  11
 74.016244601234
  21
 299.50802806744
  31
0.0
   0
ARC
   5
286
 100
AcDbEntity
   8
LEVEL001
   6
CONTINUOUS
  62
15
 100
AcDbCircle
  10
 74.316244601239
  20
 300.90802806744
  30
0.0
  40
 0.30000000000000
 100
AcDbArc
  50
 90.000000000869
  51
 180.00000000000
   0
POINT
   5
287
 100
AcDbEntity
   8
LEVEL001
 100
AcDbPoint
  62
15
  10
 74.016244601234
  20
 301.20802806744
  30
0.0
   0
LINE
   5
288
 100
AcDbEntity
   8
LEVEL001
 100
AcDbLine
   6
CONTINUOUS
  62
15
  10
 76.816244601235
  20
 300.90802806744
  30
0.0
  11
 76.816244601235
  21
 299.50802806744
  31
0.0
   0
ARC
   5
289
 100
AcDbEntity
   8
LEVEL001
   6
CONTINUOUS
  62
15
 100
AcDbCircle
  10
 76.516244601231
  20
 300.90802806744
  30
0.0
  40
 0.30000000000000
 100
AcDbArc
  50
0.0
  51
 89.999999999392
   0
LINE
   5
28A
 100
AcDbEntity
   8
LEVEL001
 100
AcDbLine
   6
CONTINUOUS
  62
15
  10
 74.316244601235
  20
 301.20802806744
  30
0.0
  11
 76.516244601234
  21
 301.20802806744
  31
0.0
   0
ARC
   5
28B
 100
AcDbEntity
   8
LEVEL001
   6
CONTINUOUS
  62
15
 100
AcDbCircle
  10
 74.852324601234
  20
 303.00802806744
  30
0.0
  40
 0.30000000000000
 100
AcDbArc
  50
 180.00000000016
  51
 270.00000000000
   0
POINT
   5
28C
 100
AcDbEntity
   8
LEVEL001
 100
AcDbPoint
  62
15
  10
 74.552324601234
  20
 302.70802806744
  30
0.0
   0
LINE
   5
28D
 100
AcDbEntity
   8
LEVEL001
 100
AcDbLine
   6
CONTINUOUS
  62
15
  10
 74.852324601234
  20
 302.70802806744
  30
0.0
  11
 77.116244601234
  21
 302.70802806744
  31
0.0
   0
LINE
   5
28E
 100
AcDbEntity
   8
LEVEL001
 100
AcDbLine
   6
CONTINUOUS
  62
15
  10
 74.552324601234
  20
 303.00802806744
  30
0.0
  11
 74.552324601234
  21
 306.50802806744
  31
0.0
   0
POINT
   5
28F
 100
AcDbEntity
   8
LEVEL001
 100
AcDbPoint
  62
15
  10
 74.566244601235
  20
 300.75802806744
  30
0.0
   0
LINE
   5
290
 100
AcDbEntity
   8
LEVEL001
 100
AcDbLine
   6
CONTINUOUS
  62
15
  10
 75.095047874298
  20
 300.70802806744
  30
0.0
  11
 75.095047874298
  21
 299.50802806744
  31
0.0
   0
ARC
   5
291
 100
AcDbEntity
   8
LEVEL001
   6
CONTINUOUS
  62
15
 100
AcDbCircle
  10
 74.795047874299
  20
 300.70802806744
  30
0.0
  40
 0.30000000000000
 100
AcDbArc
  50
0.0
  51
 90.000000000304
   0
POINT
   5
292
 100
AcDbEntity
   8
LEVEL001
 100
AcDbPoint
  62
15
  10
 75.095047874298
  20
 301.00802806744
  30
0.0
   0
LINE
   5
293
 100
AcDbEntity
   8
LEVEL001
 100
AcDbLine
   6
CONTINUOUS
  62
15
  10
 74.095047874298
  20
 300.70802806744
  30
0.0
  11
 74.095047874298
  21
 299.50802806744
  31
0.0
   0
ARC
   5
294
 100
AcDbEntity
   8
LEVEL001
   6
CONTINUOUS
  62
15
 100
AcDbCircle
  10
 74.395047874300
  20
 300.70802806744
  30
0.0
  40
 0.30000000000000
 100
AcDbArc
  50
 90.000000000478
  51
 180.00000000000
   0
POINT
   5
295
 100
AcDbEntity
   8
LEVEL001
 100
AcDbPoint
  62
15
  10
 74.095047874298
  20
 301.00802806744
  30
0.0
   0
LINE
   5
296
 100
AcDbEntity
   8
LEVEL001
 100
AcDbLine
   6
CONTINUOUS
  62
15
  10
 74.395047874298
  20
 301.00802806744
  30
0.0
  11
 74.795047874298
  21
 301.00802806744
  31
0.0
   0
POINT
   5
297
 100
AcDbEntity
   8
LEVEL001
 100
AcDbPoint
  62
15
  10
 74.566244601235
  20
 298.25802806744
  30
0.0
   0
LINE
   5
298
 100
AcDbEntity
   8
LEVEL001
 100
AcDbLine
   6
CONTINUOUS
  62
15
  10
 74.095047874298
  20
 299.50802806744
  30
0.0
  11
 74.095047874298
  21
 298.30802806744
  31
0.0
   0
ARC
   5
299
 100
AcDbEntity
   8
LEVEL001
   6
CONTINUOUS
  62
15
 100
AcDbCircle
  10
 74.395047874301
  20
 298.30802806744
  30
0.0
  40
 0.30000000000000
 100
AcDbArc
  50
 180.00000000000
  51
 269.99999999935
   0
POINT
   5
29A
 100
AcDbEntity
   8
LEVEL001
 100
AcDbPoint
  62
15
  10
 74.095047874298
  20
 298.00802806744
  30
0.0
   0
LINE
   5
29B
 100
AcDbEntity
   8
LEVEL001
 100
AcDbLine
   6
CONTINUOUS
  62
15
  10
 74.395047874298
  20
 298.00802806744
  30
0.0
  11
 74.795047874298
  21
 298.00802806744
  31
0.0
   0
ARC
   5
29C
 100
AcDbEntity
   8
LEVEL001
   6
CONTINUOUS
  62
15
 100
AcDbCircle
  10
 74.795047874298
  20
 298.30802806744
  30
0.0
  40
 0.30000000000000
 100
AcDbArc
  50
 270.00000000000
  51
0.0
   0
POINT
   5
29D
 100
AcDbEntity
   8
LEVEL001
 100
AcDbPoint
  62
15
  10
 75.095047874298
  20
 298.00802806744
  30
0.0
   0
LINE
   5
29E
 100
AcDbEntity
   8
LEVEL001
 100
AcDbLine
   6
CONTINUOUS
  62
15
  10
 75.095047874298
  20
 299.50802806744
  30
0.0
  11
 75.095047874298
  21
 298.30802806744
  31
0.0
   0
ARC
   5
29F
 100
AcDbEntity
   8
LEVEL001
   6
CONTINUOUS
  62
15
 100
AcDbCircle
  10
 78.416244601239
  20
 300.33294636722
  30
0.0
  40
 0.30000000000000
 100
AcDbArc
  50
 180.00000000061
  51
 307.16889965503
   0
POINT
   5
2A0
 100
AcDbEntity
   8
LEVEL001
 100
AcDbPoint
  62
15
  10
 78.116244601234
  20
 302.65802806744
  30
0.0
   0
LINE
   5
2A1
 100
AcDbEntity
   8
LEVEL001
 100
AcDbLine
   6
CONTINUOUS
  62
15
  10
 80.066244601235
  20
 301.05087959484
  30
0.0
  11
 80.066244601235
  21
 306.50802806744
  31
0.0
   0
ARC
   5
2A2
 100
AcDbEntity
   8
LEVEL001
   6
CONTINUOUS
  62
15
 100
AcDbCircle
  10
 79.766244601232
  20
 301.05087959484
  30
0.0
  40
 0.30000000000000
 100
AcDbArc
  50
 288.83940454772
  51
 0.14113181306443E-9
   0
ARC
   5
2A3
 100
AcDbEntity
   8
LEVEL001
   6
CONTINUOUS
  62
15
 100
AcDbCircle
  10
 81.316244601234
  20
 296.50802806744
  30
0.0
  40
 4.5000000000000
 100
AcDbArc
  50
 108.83940454727
  51
 127.16889965599
   0
ARC
   5
2A4
 100
AcDbEntity
   8
LEVEL001
   6
CONTINUOUS
  62
15
 100
AcDbCircle
  10
 77.116244601234
  20
 301.70802806744
  30
0.0
  40
 1.0000000000000
 100
AcDbArc
  50
0.0
  51
 90.000000000000
   0
LINE
   5
2A5
 100
AcDbEntity
   8
LEVEL001
 100
AcDbLine
   6
CONTINUOUS
  62
15
  10
 78.116244601234
  20
 300.33294636722
  30
0.0
  11
 78.116244601234
  21
 301.70802806744
  31
0.0
   0
LINE
   5
2A6
 100
AcDbEntity
   8
LEVEL001
 100
AcDbLine
   6
CONTINUOUS
  62
15
  10
 82.566244601235
  20
 301.19177656624
  30
0.0
  11
 82.566244601235
  21
 306.50802806744
  31
0.0
   0
ARC
   5
2A7
 100
AcDbEntity
   8
LEVEL001
   6
CONTINUOUS
  62
15
 100
AcDbCircle
  10
 83.066244601234
  20
 301.19177656624
  30
0.0
  40
 0.50000000000000
 100
AcDbArc
  50
 180.00000000002
  51
 249.51268488536
   0
ARC
   5
2A8
 100
AcDbEntity
   8
LEVEL001
   6
CONTINUOUS
  62
15
 100
AcDbCircle
  10
 81.316244601235
  20
 296.50802806744
  30
0.0
  40
 4.5000000000000
 100
AcDbArc
  50
 54.177382641720
  51
 69.512684885287
   0
ARC
   5
2A9
 100
AcDbEntity
   8
LEVEL001
   6
CONTINUOUS
  62
15
 100
AcDbCircle
  10
 84.242633574799
  20
 300.56219229394
  30
0.0
  40
 0.50000000000000
 100
AcDbArc
  50
 234.17738264167
  51
 303.69006752597
   0
ARC
   5
2AA
 100
AcDbEntity
   8
LEVEL001
   6
CONTINUOUS
  62
15
 100
AcDbCircle
  10
 84.242633574799
  20
 300.56219229394
  30
0.0
  40
 0.50000000000000
 100
AcDbArc
  50
 234.17738264170
  51
 303.69006752598
   0
LINE
   5
2AB
 100
AcDbEntity
   8
LEVEL001
 100
AcDbLine
   6
CONTINUOUS
  62
15
  10
 91.725755038903
  20
 304.95001472409
  30
0.0
  11
 84.519983672912
  21
 300.14616714677
  31
0.0
   0
LINE
   5
2AC
 100
AcDbEntity
   8
LEVEL001
 100
AcDbLine
   6
CONTINUOUS
  62
15
  10
 82.566244601235
  20
 306.50802806744
  30
0.0
  11
 82.566244601235
  21
 311.82427956864
  31
0.0
   0
ARC
   5
2AD
 100
AcDbEntity
   8
LEVEL001
   6
CONTINUOUS
  62
15
 100
AcDbCircle
  10
 91.448404940810
  20
 307.65001626370
  30
0.0
  40
 0.50000000000000
 100
AcDbArc
  50
 346.79724758898
  51
 56.309932474107
   0
ARC
   5
2AE
 100
AcDbEntity
   8
LEVEL001
   6
CONTINUOUS
  62
15
 100
AcDbCircle
  10
 96.316244601234
  20
 306.50802806744
  30
0.0
  40
 4.5000000000000
 100
AcDbArc
  50
 166.79724758871
  51
 179.99999999999
   0
ARC
   5
2AF
 100
AcDbEntity
   8
LEVEL001
   6
CONTINUOUS
  62
15
 100
AcDbCircle
  10
 91.448404940791
  20
 305.36603987126
  30
0.0
  40
 0.50000000000000
 100
AcDbArc
  50
 303.69006752607
  51
 13.202752410475
   0
ARC
   5
2B0
 100
AcDbEntity
   8
LEVEL001
   6
CONTINUOUS
  62
15
 100
AcDbCircle
  10
 96.316244601235
  20
 306.50802806744
  30
0.0
  40
 4.5000000000000
 100
AcDbArc
  50
 180.00000000002
  51
 193.20275241027
   0
ARC
   5
2B1
 100
AcDbEntity
   8
LEVEL001
   6
CONTINUOUS
  62
15
 100
AcDbCircle
  10
 76.632496102435
  20
 294.75802806744
  30
0.0
  40
 0.50000000000000
 100
AcDbArc
  50
 20.487315114697
  51
 90.000000000000
   0
ARC
   5
2B2
 100
AcDbEntity
   8
LEVEL001
   6
CONTINUOUS
  62
15
 100
AcDbCircle
  10
 81.316244601234
  20
 296.50802806744
  30
0.0
  40
 4.5000000000000
 100
AcDbArc
  50
 200.48731511472
  51
 249.51268488528
   0
ARC
   5
2B3
 100
AcDbEntity
   8
LEVEL001
   6
CONTINUOUS
  62
15
 100
AcDbCircle
  10
 75.052324601234
  20
 294.75802806744
  30
0.0
  40
 0.50000000000000
 100
AcDbArc
  50
 89.999999999948
  51
 180.00000000000
   0
POINT
   5
2B4
 100
AcDbEntity
   8
LEVEL001
 100
AcDbPoint
  62
15
  10
 74.552324601234
  20
 295.25802806744
  30
0.0
   0
LINE
   5
2B5
 100
AcDbEntity
   8
LEVEL001
 100
AcDbLine
   6
CONTINUOUS
  62
15
  10
 75.052324601234
  20
 295.25802806744
  30
0.0
  11
 76.632496102435
  21
 295.25802806744
  31
0.0
   0
LINE
   5
2B6
 100
AcDbEntity
   8
LEVEL001
 100
AcDbLine
   6
CONTINUOUS
  62
15
  10
 74.552324601234
  20
 289.70802806744
  30
0.0
  11
 74.552324601234
  21
 294.75802806744
  31
0.0
   0
ARC
   5
2B7
 100
AcDbEntity
   8
LEVEL001
   6
CONTINUOUS
  62
15
 100
AcDbCircle
  10
 75.052324601233
  20
 289.70802806744
  30
0.0
  40
 0.50000000000000
 100
AcDbArc
  50
 180.00000000000
  51
 270.00000000013
   0
POINT
   5
2B8
 100
AcDbEntity
   8
LEVEL001
 100
AcDbPoint
  62
15
  10
 74.552324601234
  20
 289.20802806744
  30
0.0
   0
LINE
   5
2B9
 100
AcDbEntity
   8
LEVEL001
 100
AcDbLine
   6
CONTINUOUS
  62
15
  10
 79.566244601235
  20
 289.20802806744
  30
0.0
  11
 75.052324601234
  21
 289.20802806744
  31
0.0
   0
ARC
   5
2BA
 100
AcDbEntity
   8
LEVEL001
   6
CONTINUOUS
  62
15
 100
AcDbCircle
  10
 79.566244601233
  20
 291.82427956864
  30
0.0
  40
 0.50000000000000
 100
AcDbArc
  50
0.0
  51
 69.512684885088
   0
LINE
   5
2BB
 100
AcDbEntity
   8
LEVEL001
 100
AcDbLine
   6
CONTINUOUS
  62
15
  10
 80.066244601235
  20
 289.70802806744
  30
0.0
  11
 80.066244601235
  21
 291.82427956864
  31
0.0
   0
ARC
   5
2BC
 100
AcDbEntity
   8
LEVEL001
   6
CONTINUOUS
  62
15
 100
AcDbCircle
  10
 79.566244601235
  20
 289.70802806744
  30
0.0
  40
 0.50000000000000
 100
AcDbArc
  50
 269.99999999997
  51
0.0
   0
POINT
   5
2BD
 100
AcDbEntity
   8
LEVEL001
 100
AcDbPoint
  62
15
  10
 80.066244601235
  20
 289.20802806744
  30
0.0
   0
ARC
   5
2BE
 100
AcDbEntity
   8
LEVEL001
   6
CONTINUOUS
  62
15
 100
AcDbCircle
  10
 81.316244601235
  20
 296.50802806744
  30
0.0
  40
 4.5000000000000
 100
AcDbArc
  50
 290.48731511472
  51
 13.202752412266
   0
ARC
   5
2BF
 100
AcDbEntity
   8
LEVEL001
   6
CONTINUOUS
  62
15
 100
AcDbCircle
  10
 83.066244601235
  20
 291.82427956864
  30
0.0
  40
 0.50000000000000
 100
AcDbArc
  50
 110.48731511475
  51
 180.00000000001
   0
LINE
   5
2C0
 100
AcDbEntity
   8
LEVEL001
 100
AcDbLine
   6
CONTINUOUS
  62
15
  10
 82.566244601235
  20
 289.70802806744
  30
0.0
  11
 82.566244601235
  21
 291.82427956864
  31
0.0
   0
ARC
   5
2C1
 100
AcDbEntity
   8
LEVEL001
   6
CONTINUOUS
  62
15
 100
AcDbCircle
  10
 83.066244601234
  20
 289.70802806744
  30
0.0
  40
 0.50000000000000
 100
AcDbArc
  50
 180.00000000000
  51
 270.00000000003
   0
POINT
   5
2C2
 100
AcDbEntity
   8
LEVEL001
 100
AcDbPoint
  62
15
  10
 82.566244601235
  20
 289.20802806744
  30
0.0
   0
LINE
   5
2C3
 100
AcDbEntity
   8
LEVEL001
 100
AcDbLine
   6
CONTINUOUS
  62
15
  10
 94.566244601235
  20
 289.20802806744
  30
0.0
  11
 83.066244601235
  21
 289.20802806744
  31
0.0
   0
LINE
   5
2C4
 100
AcDbEntity
   8
LEVEL001
 100
AcDbLine
   6
CONTINUOUS
  62
15
  10
 100.06624460123
  20
 289.70802806744
  30
0.0
  11
 100.06624460123
  21
 302.70835702905
  31
0.0
   0
ARC
   5
2C5
 100
AcDbEntity
   8
LEVEL001
   6
CONTINUOUS
  62
15
 100
AcDbCircle
  10
 99.566244601235
  20
 289.70802806744
  30
0.0
  40
 0.50000000000000
 100
AcDbArc
  50
 269.99999999997
  51
0.0
   0
POINT
   5
2C6
 100
AcDbEntity
   8
LEVEL001
 100
AcDbPoint
  62
15
  10
 100.06624460123
  20
 289.20802806744
  30
0.0
   0
LINE
   5
2C7
 100
AcDbEntity
   8
LEVEL001
 100
AcDbLine
   6
CONTINUOUS
  62
15
  10
 97.566244601235
  20
 289.70802806744
  30
0.0
  11
 97.566244601235
  21
 301.82427956864
  31
0.0
   0
ARC
   5
2C8
 100
AcDbEntity
   8
LEVEL001
   6
CONTINUOUS
  62
15
 100
AcDbCircle
  10
 98.066244601234
  20
 289.70802806744
  30
0.0
  40
 0.50000000000000
 100
AcDbArc
  50
 180.00000000000
  51
 270.00000000003
   0
POINT
   5
2C9
 100
AcDbEntity
   8
LEVEL001
 100
AcDbPoint
  62
15
  10
 97.566244601235
  20
 289.20802806744
  30
0.0
   0
LINE
   5
2CA
 100
AcDbEntity
   8
LEVEL001
 100
AcDbLine
   6
CONTINUOUS
  62
15
  10
 99.566244601235
  20
 289.20802806744
  30
0.0
  11
 98.066244601235
  21
 289.20802806744
  31
0.0
   0
LINE
   5
2CB
 100
AcDbEntity
   8
LEVEL001
 100
AcDbLine
   6
CONTINUOUS
  62
15
  10
 95.066244601235
  20
 289.70802806744
  30
0.0
  11
 95.066244601235
  21
 301.82427956864
  31
0.0
   0
ARC
   5
2CC
 100
AcDbEntity
   8
LEVEL001
   6
CONTINUOUS
  62
15
 100
AcDbCircle
  10
 94.566244601235
  20
 289.70802806744
  30
0.0
  40
 0.50000000000000
 100
AcDbArc
  50
 269.99999999997
  51
0.0
   0
POINT
   5
2CD
 100
AcDbEntity
   8
LEVEL001
 100
AcDbPoint
  62
15
  10
 95.066244601235
  20
 289.20802806744
  30
0.0
   0
ARC
   5
2CE
 100
AcDbEntity
   8
LEVEL001
   6
CONTINUOUS
  62
15
 100
AcDbCircle
  10
 99.566244601234
  20
 302.70835702905
  30
0.0
  40
 0.50000000000000
 100
AcDbArc
  50
 0.52110207901027E-10
  51
 130.54160187344
   0
ARC
   5
2CF
 100
AcDbEntity
   8
LEVEL001
   6
CONTINUOUS
  62
15
 100
AcDbCircle
  10
 96.316244601234
  20
 306.50802806744
  30
0.0
  40
 4.5000000000000
 100
AcDbArc
  50
 290.48731511473
  51
 310.54160187351
   0
ARC
   5
2D0
 100
AcDbEntity
   8
LEVEL001
   6
CONTINUOUS
  62
15
 100
AcDbCircle
  10
 98.066244601236
  20
 301.82427956864
  30
0.0
  40
 0.50000000000000
 100
AcDbArc
  50
 110.48731511497
  51
 180.00000000009
   0
ARC
   5
2D1
 100
AcDbEntity
   8
LEVEL001
   6
CONTINUOUS
  62
15
 100
AcDbCircle
  10
 94.566244601232
  20
 301.82427956864
  30
0.0
  40
 0.50000000000000
 100
AcDbArc
  50
0.0
  51
 69.512684884974
   0
ARC
   5
2D2
 100
AcDbEntity
   8
LEVEL001
   6
CONTINUOUS
  62
15
 100
AcDbCircle
  10
 96.316244601235
  20
 306.50802806744
  30
0.0
  40
 4.5000000000000
 100
AcDbArc
  50
 234.17738263968
  51
 249.51268488526
   0
ARC
   5
2D3
 100
AcDbEntity
   8
LEVEL001
   6
CONTINUOUS
  62
15
 100
AcDbCircle
  10
 93.389855627528
  20
 302.45386384105
  30
0.0
  40
 0.50000000000000
 100
AcDbArc
  50
 54.177382639758
  51
 123.69006752600
   0
LINE
   5
2D4
 100
AcDbEntity
   8
LEVEL001
 100
AcDbLine
   6
CONTINUOUS
  62
15
  10
 93.112505529414
  20
 302.86988898822
  30
0.0
  11
 85.906734163526
  21
 298.06604141096
  31
0.0
   0
ARC
   5
2D5
 100
AcDbEntity
   8
LEVEL001
   6
CONTINUOUS
  62
15
 100
AcDbCircle
  10
 86.184084261638
  20
 297.65001626379
  30
0.0
  40
 0.50000000000000
 100
AcDbArc
  50
 123.69006752600
  51
 193.20275241229
   0
LINE
   5
2D6
 100
AcDbEntity
   8
LEVEL001
 100
AcDbLine
   6
CONTINUOUS
  62
15
  10
 138.89624460123
  20
 324.00802806744
  30
0.0
  11
 372.76396103997
  21
 324.00802806744
  31
0.0
   0
LINE
   5
2D7
 100
AcDbEntity
   8
LEVEL001
 100
AcDbLine
   6
CONTINUOUS
  62
15
  10
 138.89624460123
  20
 289.00802806744
  30
0.0
  11
 372.76396103997
  21
 289.00802806744
  31
0.0
   0
LINE
   5
2D8
 100
AcDbEntity
   8
LEVEL001
 100
AcDbLine
   6
DASHDOT
  62
3
  10
 680.87489343385
  20
 322.15784009817
  30
0.0
  11
 680.87489343385
  21
 290.18026104091
  31
0.0
   0
LINE
   5
2D9
 100
AcDbEntity
   8
LEVEL001
 100
AcDbLine
   6
DASHDOT
  62
3
  10
 81.316244601235
  20
 322.04399226615
  30
0.0
  11
 81.316244601235
  21
 290.88299103210
  31
0.0
   0
DIMENSION
   5
2DA
 100
AcDbEntity
   8
LEVEL001
   6
CONTINUOUS
  62
3
 100
AcDbDimension
   2
*D1
  10
 96.316244601235
  20
 347.32618333146
  30
0.0
  11
 88.816244601235
  21
 347.32618333146
  31
0.0
  70
0
   3
GMM001
 100
AcDbAlignedDimension
  13
 81.316244601235
  23
 322.04399226615
  33
0.0
  14
 96.316244601235
  24
 312.37674358796
  34
0.0
 100
AcDbRotatedDimension
   0
DIMENSION
   5
2DB
 100
AcDbEntity
   8
LEVEL001
   6
CONTINUOUS
  62
3
 100
AcDbDimension
   2
*D2
  10
 680.87489343385
  20
 347.32618333146
  30
0.0
  11
 673.37489343385
  21
 347.32618333146
  31
0.0
  70
0
   3
GMM001
 100
AcDbAlignedDimension
  13
 665.87489343385
  23
 347.32618333146
  33
0.0
  14
 680.87489343385
  24
 322.15784009817
  34
0.0
 100
AcDbRotatedDimension
   0
DIMENSION
   5
2DC
 100
AcDbEntity
   8
LEVEL001
   6
CONTINUOUS
  62
3
 100
AcDbDimension
   2
*D3
  10
 712.37684952762
  20
 296.50802806744
  30
0.0
  11
 712.37684952762
  21
 306.50802806744
  31
0.0
  70
0
   3
GMM001
 100
AcDbAlignedDimension
  13
 687.65564448947
  23
 316.50802806744
  33
0.0
  14
 687.80715325392
  24
 296.50802806744
  34
0.0
  50
 270.00000000000
 100
AcDbRotatedDimension
   0
LINE
   5
2DD
 100
AcDbEntity
   8
LEVEL001
 100
AcDbLine
   6
DASHDOT
  62
3
  10
 381.09556901754
  20
 493.84253574855
  30
0.0
  11
 381.09556901754
  21
 424.78905440753
  31
0.0
   0
ELLIPSE
   5
2DE
 100
AcDbEntity
   8
LEVEL001
   6
CONTINUOUS
  62
7
 100
AcDbEllipse
  10
 389.42717699511
  20
 470.12269826546
  30
0.0
  11
0.0
  21
-8.7500000000000
  31
0.0
  40
 0.62667612265204
  41
0.0
  42
 6.2831853071796
   0
ELLIPSE
   5
2DF
 100
AcDbEntity
   8
LEVEL001
   6
CONTINUOUS
  62
7
 100
AcDbEllipse
  10
 389.42717699511
  20
 452.62269826546
  30
0.0
  11
0.0
  21
-8.7500000000000
  31
0.0
  40
 0.62667612265204
  41
 3.1415926535898
  42
0.0
   0
ELLIPSE
   5
2E0
 100
AcDbEntity
   8
LEVEL001
   6
CONTINUOUS
  62
7
 100
AcDbEllipse
  10
 372.76396103997
  20
 470.12269826546
  30
0.0
  11
0.0
  21
 8.7500000000000
  31
0.0
  40
 0.62667612265204
  41
 3.1415926535898
  42
 0.22204460492503E-15
   0
ELLIPSE
   5
2E1
 100
AcDbEntity
   8
LEVEL001
   6
CONTINUOUS
  62
7
 100
AcDbEllipse
  10
 372.76396103997
  20
 452.62269826546
  30
0.0
  11
0.0
  21
 8.7500000000000
  31
0.0
  40
 0.62667612265204
  41
0.0
  42
 6.2831853071796
   0
DIMENSION
   5
2E2
 100
AcDbEntity
   8
LEVEL001
   6
CONTINUOUS
  62
3
 100
AcDbDimension
   2
*D4
  10
 585.98098959171
  20
 443.87269826546
  30
0.0
  11
 585.98098959171
  21
 461.37269826546
  31
0.0
  70
0
   3
GMM002
 100
AcDbAlignedDimension
  13
 585.98098959171
  23
 478.87269826546
  33
0.0
  14
 584.90973182031
  24
 443.87269826546
  34
0.0
  50
 270.00000000000
 100
AcDbRotatedDimension
   0
LINE
   5
2E3
 100
AcDbEntity
   8
LEVEL001
 100
AcDbLine
   6
CONTINUOUS
  62
7
  10
 660.87489343385
  20
 401.37269826551
  30
0.0
  11
 632.89643394457
  21
 461.37269826546
  31
0.0
   0
LINE
   5
2E4
 100
AcDbEntity
   8
LEVEL001
 100
AcDbLine
   6
CONTINUOUS
  62
7
  10
 691.09556901754
  20
 401.37269826546
  30
0.0
  11
 660.87489343387
  21
 401.37269826546
  31
0.0
   0
LINE
   5
2E5
 100
AcDbEntity
   8
LEVEL001
 100
AcDbLine
   6
CONTINUOUS
  62
7
  10
 691.09556901754
  20
 401.37269826546
  30
0.0
  11
 690.39610753031
  21
 402.87269826546
  31
0.0
   0
LINE
   5
2E6
 100
AcDbEntity
   8
LEVEL001
 100
AcDbLine
   6
CONTINUOUS
  62
7
  10
 690.39610753031
  20
 402.87269826546
  30
0.0
  11
 688.85137844382
  21
 402.87269826546
  31
0.0
   0
LINE
   5
2E7
 100
AcDbEntity
   8
LEVEL001
 100
AcDbLine
   6
CONTINUOUS
  62
7
  10
 688.85137844382
  20
 402.87269826546
  30
0.0
  11
 688.18935169242
  21
 402.87269826546
  31
0.0
   0
LINE
   5
2E8
 100
AcDbEntity
   8
LEVEL001
 100
AcDbLine
   6
CONTINUOUS
  62
7
  10
 690.30284599868
  20
 403.07269826546
  30
0.0
  11
 663.11710952824
  21
 461.37269826546
  31
0.0
   0
LINE
   5
2E9
 100
AcDbEntity
   8
LEVEL001
 100
AcDbLine
   6
CONTINUOUS
  62
7
  10
 690.30284599868
  20
 403.07269826546
  30
0.0
  11
 688.75811691219
  21
 403.07269826546
  31
0.0
   0
LINE
   5
2EA
 100
AcDbEntity
   8
LEVEL001
 100
AcDbLine
   6
CONTINUOUS
  62
7
  10
 688.75811691219
  20
 403.07269826546
  30
0.0
  11
 688.42710353647
  21
 403.07269826546
  31
0.0
   0
LINE
   5
2EB
 100
AcDbEntity
   8
LEVEL001
 100
AcDbLine
   6
CONTINUOUS
  62
7
  10
 688.42710353647
  20
 403.07269826546
  30
0.0
  11
 688.09609016079
  21
 403.07269826546
  31
0.0
   0
LINE
   5
2EC
 100
AcDbEntity
   8
LEVEL001
 100
AcDbLine
   6
CONTINUOUS
  62
13
  10
 641.66301791788
  20
 442.37269826546
  30
0.0
  11
 624.29489343377
  21
 442.37269826546
  31
0.0
   0
LINE
   5
2ED
 100
AcDbEntity
   8
LEVEL001
 100
AcDbLine
   6
CONTINUOUS
  62
7
  10
 624.29489343377
  20
 442.37269826546
  30
0.0
  11
 623.29489343385
  21
 443.37269826539
  31
0.0
   0
LINE
   5
2EE
 100
AcDbEntity
   8
LEVEL001
 100
AcDbLine
   6
CONTINUOUS
  62
7
  10
 624.29489343408
  20
 480.37269826546
  30
0.0
  11
 623.29489343408
  21
 479.37269826546
  31
0.0
   0
LINE
   5
2EF
 100
AcDbEntity
   8
LEVEL001
 100
AcDbLine
   6
CONTINUOUS
  62
13
  10
 623.29489343385
  20
 461.37269826546
  30
0.0
  11
 623.29489343385
  21
 479.37269826546
  31
0.0
   0
LINE
   5
2F0
 100
AcDbEntity
   8
LEVEL001
 100
AcDbLine
   6
CONTINUOUS
  62
13
  10
 623.29489343385
  20
 443.37269826539
  30
0.0
  11
 623.29489343385
  21
 461.37269826546
  31
0.0
   0
LINE
   5
2F1
 100
AcDbEntity
   8
LEVEL001
 100
AcDbLine
   6
CONTINUOUS
  62
7
  10
 660.91035369035
  20
 461.37269826546
  30
0.0
  11
 652.05050818540
  21
 480.37269826546
  31
0.0
   0
LINE
   5
2F2
 100
AcDbEntity
   8
LEVEL001
 100
AcDbLine
   6
CONTINUOUS
  62
7
  10
 663.11710952824
  20
 461.37269826546
  30
0.0
  11
 654.29812740887
  21
 480.28506645231
  31
0.0
   0
LINE
   5
2F3
 100
AcDbEntity
   8
LEVEL001
 100
AcDbLine
   6
CONTINUOUS
  62
7
  10
 652.38152156109
  20
 480.37269826546
  30
0.0
  11
 624.29489343392
  21
 480.37269826546
  31
0.0
   0
LINE
   5
2F4
 100
AcDbEntity
   8
LEVEL001
 100
AcDbLine
   6
CONTINUOUS
  62
7
  10
 654.29812740887
  20
 480.28506645231
  30
0.0
  11
 652.38152156109
  21
 480.37269826546
  31
0.0
   0
LINE
   5
2F5
 100
AcDbEntity
   8
LEVEL001
 100
AcDbLine
   6
DOT
  62
1
  10
 653.44943115987
  20
 477.37269826546
  30
0.0
  11
 639.29489343385
  21
 477.37269826546
  31
0.0
   0
LINE
   5
2F6
 100
AcDbEntity
   8
LEVEL001
 100
AcDbLine
   6
DOT
  62
1
  10
 639.29489343385
  20
 478.87269826546
  30
0.0
  11
 623.29489343385
  21
 478.87269826546
  31
0.0
   0
LINE
   5
2F7
 100
AcDbEntity
   8
LEVEL001
 100
AcDbLine
   6
DOT
  62
1
  10
 641.29489343385
  20
 468.37269826546
  30
0.0
  11
 639.29489343385
  21
 468.37269826546
  31
0.0
   0
LINE
   5
2F8
 100
AcDbEntity
   8
LEVEL001
 100
AcDbLine
   6
DOT
  62
1
  10
 637.29489343385
  20
 443.87269826546
  30
0.0
  11
 637.29489343385
  21
 478.87269826546
  31
0.0
   0
LINE
   5
2F9
 100
AcDbEntity
   8
LEVEL001
 100
AcDbLine
   6
DOT
  62
1
  10
 639.29489343385
  20
 451.20045998471
  30
0.0
  11
 639.29489343385
  21
 478.87269826546
  31
0.0
   0
LINE
   5
2FA
 100
AcDbEntity
   8
LEVEL001
 100
AcDbLine
   6
DOT
  62
1
  10
 641.29489343385
  20
 451.64384931009
  30
0.0
  11
 641.29489343385
  21
 477.37269826546
  31
0.0
   0
LINE
   5
2FB
 100
AcDbEntity
   8
LEVEL001
 100
AcDbLine
   6
DOT
  62
1
  10
 641.29489343385
  20
 459.37269826546
  30
0.0
  11
 639.29489343385
  21
 459.37269826546
  31
0.0
   0
LINE
   5
2FC
 100
AcDbEntity
   8
LEVEL001
 100
AcDbLine
   6
DOT
  62
1
  10
 641.29489343385
  20
 462.87269826546
  30
0.0
  11
 639.29489343385
  21
 462.87269826546
  31
0.0
   0
LINE
   5
2FD
 100
AcDbEntity
   8
LEVEL001
 100
AcDbLine
   6
DOT
  62
1
  10
 639.29489343385
  20
 466.12569826546
  30
0.0
  11
 637.29489343385
  21
 466.12569826546
  31
0.0
   0
LINE
   5
2FE
 100
AcDbEntity
   8
LEVEL001
 100
AcDbLine
   6
DOT
  62
1
  10
 639.29489343385
  20
 461.62269826546
  30
0.0
  11
 637.29489343385
  21
 461.62269826546
  31
0.0
   0
LINE
   5
2FF
 100
AcDbEntity
   8
LEVEL001
 100
AcDbLine
   6
DOT
  62
1
  10
 660.43157585055
  20
 405.87269826546
  30
0.0
  11
 639.29489343385
  21
 451.20045998471
  31
0.0
   0
LINE
   5
300
 100
AcDbEntity
   8
LEVEL001
 100
AcDbLine
   6
DOT
  62
1
  10
 641.05681796228
  20
 443.87269826546
  30
0.0
  11
 623.29489343385
  21
 443.87269826546
  31
0.0
   0
POINT
   5
301
 100
AcDbEntity
   8
LEVEL001
 100
AcDbPoint
  62
1
  10
 658.48954684161
  20
 459.93877087284
  30
0.0
   0
ARC
   5
302
 100
AcDbEntity
   8
LEVEL001
   6
DOT
  62
1
 100
AcDbCircle
  10
 658.88822465624
  20
 459.79366401526
  30
0.0
  40
 0.30000000000000
 100
AcDbArc
  50
 115.00000000000
  51
 205.00000000115
   0
ARC
   5
303
 100
AcDbEntity
   8
LEVEL001
   6
DOT
  62
1
 100
AcDbCircle
  10
 660.22009973692
  20
 456.93744868748
  30
0.0
  40
 0.30000000000000
 100
AcDbArc
  50
 204.99999999920
  51
 295.00000000003
   0
POINT
   5
304
 100
AcDbEntity
   8
LEVEL001
 100
AcDbPoint
  62
1
  10
 660.07499287933
  20
 456.53877087285
  30
0.0
   0
LINE
   5
305
 100
AcDbEntity
   8
LEVEL001
 100
AcDbLine
   6
DOT
  62
1
  10
 661.25319300247
  20
 457.08817461311
  30
0.0
  11
 659.66774696474
  21
 460.48817461310
  31
0.0
   0
LINE
   5
306
 100
AcDbEntity
   8
LEVEL001
 100
AcDbLine
   6
DOT
  62
1
  10
 661.28339981687
  20
 460.57269826546
  30
0.0
  11
 659.84900852216
  21
 460.57269826546
  31
0.0
   0
LINE
   5
307
 100
AcDbEntity
   8
LEVEL001
 100
AcDbLine
   6
DOT
  62
1
  10
 663.00873815205
  20
 456.87269826546
  30
0.0
  11
 661.57434685733
  21
 456.87269826546
  31
0.0
   0
LINE
   5
308
 100
AcDbEntity
   8
LEVEL001
 100
AcDbLine
   6
DOT
  62
1
  10
 661.02720864536
  20
 461.12210200574
  30
0.0
  11
 658.76143917772
  21
 460.06555635136
  31
0.0
   0
LINE
   5
309
 100
AcDbEntity
   8
LEVEL001
 100
AcDbLine
   6
DOT
  62
1
  10
 662.61265468309
  20
 457.72210200575
  30
0.0
  11
 660.34688521544
  21
 456.66555635137
  31
0.0
   0
LINE
   5
30A
 100
AcDbEntity
   8
LEVEL001
 100
AcDbLine
   6
DOT
  62
1
  10
 661.57434685733
  20
 456.87269826546
  30
0.0
  11
 659.84900852216
  21
 460.57269826546
  31
0.0
   0
LINE
   5
30B
 100
AcDbEntity
   8
LEVEL001
 100
AcDbLine
   6
DOT
  62
1
  10
 659.94820740081
  20
 456.81066320896
  30
0.0
  11
 658.61633232013
  21
 459.66687853673
  31
0.0
   0
LINE
   5
30C
 100
AcDbEntity
   8
LEVEL001
 100
AcDbLine
   6
DOT
  62
1
  10
 663.70819963931
  20
 455.37269826541
  30
0.0
  11
 662.98315340963
  21
 455.03460365599
  31
0.0
   0
LINE
   5
30D
 100
AcDbEntity
   8
LEVEL001
 100
AcDbLine
   6
DOT
  62
1
  10
 685.67457255362
  20
 406.37269826545
  30
0.0
  11
 662.98315340961
  21
 455.03460365598
  31
0.0
   0
LINE
   5
30E
 100
AcDbEntity
   8
LEVEL001
 100
AcDbLine
   6
DOT
  62
1
  10
 686.55727488887
  20
 406.37269826546
  30
0.0
  11
 685.67457255364
  21
 406.37269826546
  31
0.0
   0
LINE
   5
30F
 100
AcDbEntity
   8
LEVEL001
 100
AcDbLine
   6
DOT
  62
1
  10
 683.13881343385
  20
 401.37269826546
  30
0.0
  11
 683.13881343385
  21
 405.87269826546
  31
0.0
   0
LINE
   5
310
 100
AcDbEntity
   8
LEVEL001
 100
AcDbLine
   6
DOT
  62
1
  10
 678.63881343385
  20
 401.37269826546
  30
0.0
  11
 678.63881343385
  21
 405.87269826546
  31
0.0
   0
ARC
   5
311
 100
AcDbEntity
   8
LEVEL001
   6
DOT
  62
1
 100
AcDbCircle
  10
 679.12489343385
  20
 403.12269826546
  30
0.0
  40
 0.50000000000000
 100
AcDbArc
  50
0.0
  51
 90.000000000000
   0
POINT
   5
312
 100
AcDbEntity
   8
LEVEL001
 100
AcDbPoint
  62
1
  10
 679.62489343385
  20
 403.62269826546
  30
0.0
   0
LINE
   5
313
 100
AcDbEntity
   8
LEVEL001
 100
AcDbLine
   6
DOT
  62
1
  10
 679.62489343385
  20
 401.37269826546
  30
0.0
  11
 679.62489343385
  21
 403.12269826546
  31
0.0
   0
ARC
   5
314
 100
AcDbEntity
   8
LEVEL001
   6
DOT
  62
1
 100
AcDbCircle
  10
 682.62489343385
  20
 403.12269826546
  30
0.0
  40
 0.50000000000000
 100
AcDbArc
  50
 90.000000000000
  51
 180.00000000021
   0
LINE
   5
315
 100
AcDbEntity
   8
LEVEL001
 100
AcDbLine
   6
DOT
  62
1
  10
 682.12489343385
  20
 401.37269826546
  30
0.0
  11
 682.12489343385
  21
 403.12269826546
  31
0.0
   0
POINT
   5
316
 100
AcDbEntity
   8
LEVEL001
 100
AcDbPoint
  62
1
  10
 682.12489343385
  20
 403.62269826546
  30
0.0
   0
ARC
   5
317
 100
AcDbEntity
   8
LEVEL001
   6
DOT
  62
1
 100
AcDbCircle
  10
 667.62489343385
  20
 403.12269826546
  30
0.0
  40
 0.50000000000000
 100
AcDbArc
  50
 90.000000000000
  51
 180.00000000021
   0
POINT
   5
318
 100
AcDbEntity
   8
LEVEL001
 100
AcDbPoint
  62
1
  10
 667.12489343385
  20
 403.62269826546
  30
0.0
   0
LINE
   5
319
 100
AcDbEntity
   8
LEVEL001
 100
AcDbLine
   6
DOT
  62
1
  10
 667.12489343385
  20
 401.37269826546
  30
0.0
  11
 667.12489343385
  21
 403.12269826546
  31
0.0
   0
LINE
   5
31A
 100
AcDbEntity
   8
LEVEL001
 100
AcDbLine
   6
DOT
  62
1
  10
 668.13881343385
  20
 401.37269826546
  30
0.0
  11
 668.13881343385
  21
 405.87269826546
  31
0.0
   0
ARC
   5
31B
 100
AcDbEntity
   8
LEVEL001
   6
DOT
  62
1
 100
AcDbCircle
  10
 664.12489343385
  20
 403.12269826546
  30
0.0
  40
 0.50000000000000
 100
AcDbArc
  50
0.0
  51
 90.000000000000
   0
POINT
   5
31C
 100
AcDbEntity
   8
LEVEL001
 100
AcDbPoint
  62
1
  10
 664.62489343385
  20
 403.62269826546
  30
0.0
   0
LINE
   5
31D
 100
AcDbEntity
   8
LEVEL001
 100
AcDbLine
   6
DOT
  62
1
  10
 664.62489343385
  20
 401.37269826546
  30
0.0
  11
 664.62489343385
  21
 403.12269826546
  31
0.0
   0
LINE
   5
31E
 100
AcDbEntity
   8
LEVEL001
 100
AcDbLine
   6
DOT
  62
1
  10
 663.63881343385
  20
 401.37269826546
  30
0.0
  11
 663.63881343385
  21
 405.87269826546
  31
0.0
   0
LINE
   5
31F
 100
AcDbEntity
   8
LEVEL001
 100
AcDbLine
   6
DOT
  62
1
  10
 662.12489343385
  20
 401.37269826546
  30
0.0
  11
 662.12489343385
  21
 403.12269826546
  31
0.0
   0
LINE
   5
320
 100
AcDbEntity
   8
LEVEL001
 100
AcDbLine
   6
DOT
  62
1
  10
 686.78380605102
  20
 405.87269826546
  30
0.0
  11
 660.43157585055
  21
 405.87269826546
  31
0.0
   0
LINE
   5
321
 100
AcDbEntity
   8
LEVEL001
 100
AcDbLine
   6
DOT
  62
1
  10
 662.60789000515
  20
 405.93798066616
  30
0.0
  11
 641.29489343385
  21
 451.64384931009
  31
0.0
   0
POINT
   5
322
 100
AcDbEntity
   8
LEVEL001
 100
AcDbPoint
  62
1
  10
 662.12489343385
  20
 403.62269826546
  30
0.0
   0
ARC
   5
323
 100
AcDbEntity
   8
LEVEL001
   6
DOT
  62
1
 100
AcDbCircle
  10
 662.62489343385
  20
 403.12269826546
  30
0.0
  40
 0.50000000000000
 100
AcDbArc
  50
 90.000000000000
  51
 180.00000000021
   0
LINE
   5
324
 100
AcDbEntity
   8
LEVEL001
 100
AcDbLine
   6
DOT
  62
1
  10
 664.12489343385
  20
 403.62269826546
  30
0.0
  11
 662.62489343385
  21
 403.62269826546
  31
0.0
   0
LINE
   5
325
 100
AcDbEntity
   8
LEVEL001
 100
AcDbLine
   6
DOT
  62
1
  10
 687.84198100687
  20
 403.62269826546
  30
0.0
  11
 682.62489343385
  21
 403.62269826546
  31
0.0
   0
LINE
   5
326
 100
AcDbEntity
   8
LEVEL001
 100
AcDbLine
   6
DOT
  62
1
  10
 679.12489343385
  20
 403.62269826546
  30
0.0
  11
 667.62489343385
  21
 403.62269826546
  31
0.0
   0
LINE
   5
327
 100
AcDbEntity
   8
LEVEL001
 100
AcDbLine
   6
DOT
  62
1
  10
 686.09609016079
  20
 403.81240973173
  30
0.0
  11
 686.09609016079
  21
 408.01224263364
  31
0.0
   0
LINE
   5
328
 100
AcDbEntity
   8
LEVEL001
 100
AcDbLine
   6
DOT
  62
1
  10
 689.83653834053
  20
 404.07269826546
  30
0.0
  11
 687.65093880804
  21
 404.07269826546
  31
0.0
   0
LINE
   5
329
 100
AcDbEntity
   8
LEVEL001
 100
AcDbLine
   6
DOT
  62
1
  10
 685.38881343385
  20
 401.37269826546
  30
0.0
  11
 685.38881343385
  21
 405.87269826546
  31
0.0
   0
LINE
   5
32A
 100
AcDbEntity
   8
LEVEL001
 100
AcDbLine
   6
DOT
  62
1
  10
 687.79609016079
  20
 401.57269826546
  30
0.0
  11
 687.14048476959
  21
 401.57269826546
  31
0.0
   0
ARC
   5
32B
 100
AcDbEntity
   8
LEVEL001
   6
DOT
  62
1
 100
AcDbCircle
  10
 687.79609016078
  20
 401.87269826546
  30
0.0
  40
 0.30000000000000
 100
AcDbArc
  50
 270.00000000113
  51
 0.10856293312508E-10
   0
LINE
   5
32C
 100
AcDbEntity
   8
LEVEL001
 100
AcDbLine
   6
DOT
  62
1
  10
 688.09609016079
  20
 401.87269826546
  30
0.0
  11
 688.09609016079
  21
 403.07269826546
  31
0.0
   0
LINE
   5
32D
 100
AcDbEntity
   8
LEVEL001
 100
AcDbLine
   6
DOT
  62
1
  10
 688.18881343385
  20
 401.37269826546
  30
0.0
  11
 688.18881343385
  21
 402.87385256469
  31
0.0
   0
ARC
   5
32E
 100
AcDbEntity
   8
LEVEL001
   6
DOT
  62
1
 100
AcDbCircle
  10
 687.13881343385
  20
 403.12269826546
  30
0.0
  40
 0.50000000000000
 100
AcDbArc
  50
0.0
  51
 90.000000000000
   0
LINE
   5
32F
 100
AcDbEntity
   8
LEVEL001
 100
AcDbLine
   6
DOT
  62
1
  10
 687.63881343385
  20
 401.37269826546
  30
0.0
  11
 687.63881343385
  21
 403.12269826546
  31
0.0
   0
POINT
   5
330
 100
AcDbEntity
   8
LEVEL001
 100
AcDbPoint
  62
1
  10
 687.63881343385
  20
 403.62269826546
  30
0.0
   0
LINE
   5
331
 100
AcDbEntity
   8
LEVEL001
 100
AcDbLine
   6
DOT
  62
1
  10
 687.14048476959
  20
 401.57269826546
  30
0.0
  11
 686.09609016081
  21
 403.81240973174
  31
0.0
   0
LINE
   5
332
 100
AcDbEntity
   8
LEVEL001
 100
AcDbLine
   6
DASHDOT
  62
3
  10
 680.88881343385
  20
 410.41642491211
  30
0.0
  11
 680.88881343385
  21
 396.86230057374
  31
0.0
   0
LINE
   5
333
 100
AcDbEntity
   8
LEVEL001
 100
AcDbLine
   6
DASHDOT
  62
3
  10
 665.88881343385
  20
 410.41642491211
  30
0.0
  11
 665.88881343385
  21
 396.86230057374
  31
0.0
   0
LINE
   5
334
 100
AcDbEntity
   8
LEVEL001
 100
AcDbLine
   6
CONTINUOUS
  62
7
  10
 688.18881343385
  20
 402.87385256469
  30
0.0
  11
 660.91035369035
  21
 461.37269826546
  31
0.0
   0
LINE
   5
335
 100
AcDbEntity
   8
LEVEL001
 100
AcDbLine
   6
CONTINUOUS
  62
15
  10
 689.21982655529
  20
 401.37269826546
  30
0.0
  11
 688.52036506806
  21
 402.87269826546
  31
0.0
   0
LINE
   5
336
 100
AcDbEntity
   8
LEVEL001
 100
AcDbLine
   6
CONTINUOUS
  62
15
  10
 688.42710353647
  20
 403.07269826546
  30
0.0
  11
 652.38152156109
  21
 480.37269826546
  31
0.0
   0
LINE
   5
337
 100
AcDbEntity
   8
LEVEL001
 100
AcDbLine
   6
DASHDOT
  62
3
  10
 645.54308960237
  20
 463.87269826546
  30
0.0
  11
 633.82129346996
  21
 463.87269826546
  31
0.0
   0
LINE
   5
338
 100
AcDbEntity
   8
LEVEL001
 100
AcDbLine
   6
DASHDOT
  62
3
  10
 588.41778704117
  20
 461.37269826546
  30
0.0
  11
 648.31201782263
  21
 461.37269826546
  31
0.0
   0
LINE
   5
339
 100
AcDbEntity
   8
LEVEL001
 100
AcDbLine
   6
CONTINUOUS
  62
7
  10
 389.42717699511
  20
 478.87269826546
  30
0.0
  11
 623.29489343385
  21
 478.87269826546
  31
0.0
   0
LINE
   5
33A
 100
AcDbEntity
   8
LEVEL001
 100
AcDbLine
   6
CONTINUOUS
  62
7
  10
 389.42717699511
  20
 443.87269826546
  30
0.0
  11
 623.29489343385
  21
 443.87269826546
  31
0.0
   0
LINE
   5
33B
 100
AcDbEntity
   8
LEVEL001
 100
AcDbLine
   6
CONTINUOUS
  62
15
  10
 624.29489343377
  20
 442.37269826546
  30
0.0
  11
 624.29489343377
  21
 480.37269826546
  31
0.0
   0
LINE
   5
33C
 100
AcDbEntity
   8
LEVEL001
 100
AcDbLine
   6
CONTINUOUS
  62
7
  10
 101.31624460123
  20
 401.37269826551
  30
0.0
  11
 129.29470409051
  21
 461.37269826546
  31
0.0
   0
LINE
   5
33D
 100
AcDbEntity
   8
LEVEL001
 100
AcDbLine
   6
CONTINUOUS
  62
7
  10
 71.095569017542
  20
 401.37269826546
  30
0.0
  11
 101.31624460121
  21
 401.37269826546
  31
0.0
   0
LINE
   5
33E
 100
AcDbEntity
   8
LEVEL001
 100
AcDbLine
   6
CONTINUOUS
  62
7
  10
 71.095569017542
  20
 401.37269826546
  30
0.0
  11
 71.795030504774
  21
 402.87269826546
  31
0.0
   0
LINE
   5
33F
 100
AcDbEntity
   8
LEVEL001
 100
AcDbLine
   6
CONTINUOUS
  62
7
  10
 71.795030504774
  20
 402.87269826546
  30
0.0
  11
 73.339759591261
  21
 402.87269826546
  31
0.0
   0
LINE
   5
340
 100
AcDbEntity
   8
LEVEL001
 100
AcDbLine
   6
CONTINUOUS
  62
7
  10
 73.339759591261
  20
 402.87269826546
  30
0.0
  11
 74.001786342667
  21
 402.87269826546
  31
0.0
   0
LINE
   5
341
 100
AcDbEntity
   8
LEVEL001
 100
AcDbLine
   6
CONTINUOUS
  62
7
  10
 71.888292036403
  20
 403.07269826546
  30
0.0
  11
 99.074028506839
  21
 461.37269826546
  31
0.0
   0
LINE
   5
342
 100
AcDbEntity
   8
LEVEL001
 100
AcDbLine
   6
CONTINUOUS
  62
7
  10
 71.888292036403
  20
 403.07269826546
  30
0.0
  11
 73.433021122892
  21
 403.07269826546
  31
0.0
   0
LINE
   5
343
 100
AcDbEntity
   8
LEVEL001
 100
AcDbLine
   6
CONTINUOUS
  62
7
  10
 73.433021122892
  20
 403.07269826546
  30
0.0
  11
 73.764034498612
  21
 403.07269826546
  31
0.0
   0
LINE
   5
344
 100
AcDbEntity
   8
LEVEL001
 100
AcDbLine
   6
CONTINUOUS
  62
7
  10
 73.764034498612
  20
 403.07269826546
  30
0.0
  11
 74.095047874298
  21
 403.07269826546
  31
0.0
   0
LINE
   5
345
 100
AcDbEntity
   8
LEVEL001
 100
AcDbLine
   6
CONTINUOUS
  62
13
  10
 120.52812011720
  20
 442.37269826546
  30
0.0
  11
 137.89624460131
  21
 442.37269826546
  31
0.0
   0
LINE
   5
346
 100
AcDbEntity
   8
LEVEL001
 100
AcDbLine
   6
CONTINUOUS
  62
7
  10
 137.89624460131
  20
 442.37269826546
  30
0.0
  11
 138.89624460123
  21
 443.37269826539
  31
0.0
   0
LINE
   5
347
 100
AcDbEntity
   8
LEVEL001
 100
AcDbLine
   6
CONTINUOUS
  62
7
  10
 137.89624460100
  20
 480.37269826546
  30
0.0
  11
 138.89624460100
  21
 479.37269826546
  31
0.0
   0
LINE
   5
348
 100
AcDbEntity
   8
LEVEL001
 100
AcDbLine
   6
CONTINUOUS
  62
13
  10
 138.89624460123
  20
 461.37269826546
  30
0.0
  11
 138.89624460123
  21
 479.37269826546
  31
0.0
   0
LINE
   5
349
 100
AcDbEntity
   8
LEVEL001
 100
AcDbLine
   6
CONTINUOUS
  62
13
  10
 138.89624460123
  20
 443.37269826539
  30
0.0
  11
 138.89624460123
  21
 461.37269826546
  31
0.0
   0
LINE
   5
34A
 100
AcDbEntity
   8
LEVEL001
 100
AcDbLine
   6
CONTINUOUS
  62
7
  10
 101.28078434473
  20
 461.37269826546
  30
0.0
  11
 110.14062984968
  21
 480.37269826546
  31
0.0
   0
LINE
   5
34B
 100
AcDbEntity
   8
LEVEL001
 100
AcDbLine
   6
CONTINUOUS
  62
7
  10
 99.074028506839
  20
 461.37269826546
  30
0.0
  11
 107.89301062621
  21
 480.28506645231
  31
0.0
   0
LINE
   5
34C
 100
AcDbEntity
   8
LEVEL001
 100
AcDbLine
   6
CONTINUOUS
  62
7
  10
 109.80961647399
  20
 480.37269826546
  30
0.0
  11
 137.89624460117
  21
 480.37269826546
  31
0.0
   0
LINE
   5
34D
 100
AcDbEntity
   8
LEVEL001
 100
AcDbLine
   6
CONTINUOUS
  62
7
  10
 107.89301062621
  20
 480.28506645231
  30
0.0
  11
 109.80961647399
  21
 480.37269826546
  31
0.0
   0
LINE
   5
34E
 100
AcDbEntity
   8
LEVEL001
 100
AcDbLine
   6
DOT
  62
1
  10
 108.74170687521
  20
 477.37269826546
  30
0.0
  11
 122.89624460123
  21
 477.37269826546
  31
0.0
   0
LINE
   5
34F
 100
AcDbEntity
   8
LEVEL001
 100
AcDbLine
   6
DOT
  62
1
  10
 122.89624460123
  20
 478.87269826546
  30
0.0
  11
 138.89624460123
  21
 478.87269826546
  31
0.0
   0
LINE
   5
350
 100
AcDbEntity
   8
LEVEL001
 100
AcDbLine
   6
DOT
  62
1
  10
 120.89624460123
  20
 468.37269826546
  30
0.0
  11
 122.89624460123
  21
 468.37269826546
  31
0.0
   0
LINE
   5
351
 100
AcDbEntity
   8
LEVEL001
 100
AcDbLine
   6
DOT
  62
1
  10
 124.89624460123
  20
 443.87269826546
  30
0.0
  11
 124.89624460123
  21
 478.87269826546
  31
0.0
   0
LINE
   5
352
 100
AcDbEntity
   8
LEVEL001
 100
AcDbLine
   6
DOT
  62
1
  10
 122.89624460123
  20
 451.20045998471
  30
0.0
  11
 122.89624460123
  21
 478.87269826546
  31
0.0
   0
LINE
   5
353
 100
AcDbEntity
   8
LEVEL001
 100
AcDbLine
   6
DOT
  62
1
  10
 120.89624460123
  20
 451.64384931009
  30
0.0
  11
 120.89624460123
  21
 477.37269826546
  31
0.0
   0
LINE
   5
354
 100
AcDbEntity
   8
LEVEL001
 100
AcDbLine
   6
DOT
  62
1
  10
 120.89624460123
  20
 459.37269826546
  30
0.0
  11
 122.89624460123
  21
 459.37269826546
  31
0.0
   0
LINE
   5
355
 100
AcDbEntity
   8
LEVEL001
 100
AcDbLine
   6
DOT
  62
1
  10
 120.89624460123
  20
 462.87269826546
  30
0.0
  11
 122.89624460123
  21
 462.87269826546
  31
0.0
   0
LINE
   5
356
 100
AcDbEntity
   8
LEVEL001
 100
AcDbLine
   6
DOT
  62
1
  10
 122.89624460123
  20
 466.12569826546
  30
0.0
  11
 124.89624460123
  21
 466.12569826546
  31
0.0
   0
LINE
   5
357
 100
AcDbEntity
   8
LEVEL001
 100
AcDbLine
   6
DOT
  62
1
  10
 122.89624460123
  20
 461.62269826546
  30
0.0
  11
 124.89624460123
  21
 461.62269826546
  31
0.0
   0
LINE
   5
358
 100
AcDbEntity
   8
LEVEL001
 100
AcDbLine
   6
DOT
  62
1
  10
 101.75956218453
  20
 405.87269826546
  30
0.0
  11
 122.89624460123
  21
 451.20045998471
  31
0.0
   0
LINE
   5
359
 100
AcDbEntity
   8
LEVEL001
 100
AcDbLine
   6
DOT
  62
1
  10
 121.13432007280
  20
 443.87269826546
  30
0.0
  11
 138.89624460123
  21
 443.87269826546
  31
0.0
   0
POINT
   5
35A
 100
AcDbEntity
   8
LEVEL001
 100
AcDbPoint
  62
1
  10
 103.70159119348
  20
 459.93877087284
  30
0.0
   0
ARC
   5
35B
 100
AcDbEntity
   8
LEVEL001
   6
DOT
  62
1
 100
AcDbCircle
  10
 103.30291337885
  20
 459.79366401526
  30
0.0
  40
 0.30000000000000
 100
AcDbArc
  50
 334.99999999885
  51
 65.000000000000
   0
ARC
   5
35C
 100
AcDbEntity
   8
LEVEL001
   6
DOT
  62
1
 100
AcDbCircle
  10
 101.97103829816
  20
 456.93744868748
  30
0.0
  40
 0.30000000000000
 100
AcDbArc
  50
 244.99999999997
  51
 335.00000000080
   0
POINT
   5
35D
 100
AcDbEntity
   8
LEVEL001
 100
AcDbPoint
  62
1
  10
 102.11614515575
  20
 456.53877087285
  30
0.0
   0
LINE
   5
35E
 100
AcDbEntity
   8
LEVEL001
 100
AcDbLine
   6
DOT
  62
1
  10
 100.93794503262
  20
 457.08817461311
  30
0.0
  11
 102.52339107034
  21
 460.48817461310
  31
0.0
   0
LINE
   5
35F
 100
AcDbEntity
   8
LEVEL001
 100
AcDbLine
   6
DOT
  62
1
  10
 100.90773821821
  20
 460.57269826546
  30
0.0
  11
 102.34212951292
  21
 460.57269826546
  31
0.0
   0
LINE
   5
360
 100
AcDbEntity
   8
LEVEL001
 100
AcDbLine
   6
DOT
  62
1
  10
 99.182399883037
  20
 456.87269826546
  30
0.0
  11
 100.61679117775
  21
 456.87269826546
  31
0.0
   0
LINE
   5
361
 100
AcDbEntity
   8
LEVEL001
 100
AcDbLine
   6
DOT
  62
1
  10
 101.16392938972
  20
 461.12210200574
  30
0.0
  11
 103.42969885736
  21
 460.06555635136
  31
0.0
   0
LINE
   5
362
 100
AcDbEntity
   8
LEVEL001
 100
AcDbLine
   6
DOT
  62
1
  10
 99.578483351997
  20
 457.72210200575
  30
0.0
  11
 101.84425281964
  21
 456.66555635137
  31
0.0
   0
LINE
   5
363
 100
AcDbEntity
   8
LEVEL001
 100
AcDbLine
   6
DOT
  62
1
  10
 100.61679117775
  20
 456.87269826546
  30
0.0
  11
 102.34212951292
  21
 460.57269826546
  31
0.0
   0
LINE
   5
364
 100
AcDbEntity
   8
LEVEL001
 100
AcDbLine
   6
DOT
  62
1
  10
 102.24293063428
  20
 456.81066320896
  30
0.0
  11
 103.57480571495
  21
 459.66687853673
  31
0.0
   0
LINE
   5
365
 100
AcDbEntity
   8
LEVEL001
 100
AcDbLine
   6
DOT
  62
1
  10
 98.482938395778
  20
 455.37269826541
  30
0.0
  11
 99.207984625458
  21
 455.03460365599
  31
0.0
   0
LINE
   5
366
 100
AcDbEntity
   8
LEVEL001
 100
AcDbLine
   6
DOT
  62
1
  10
 76.516565481463
  20
 406.37269826545
  30
0.0
  11
 99.207984625470
  21
 455.03460365598
  31
0.0
   0
LINE
   5
367
 100
AcDbEntity
   8
LEVEL001
 100
AcDbLine
   6
DOT
  62
1
  10
 75.633863146209
  20
 406.37269826546
  30
0.0
  11
 76.516565481440
  21
 406.37269826546
  31
0.0
   0
LINE
   5
368
 100
AcDbEntity
   8
LEVEL001
 100
AcDbLine
   6
DOT
  62
1
  10
 79.052324601234
  20
 401.37269826546
  30
0.0
  11
 79.052324601234
  21
 405.87269826546
  31
0.0
   0
LINE
   5
369
 100
AcDbEntity
   8
LEVEL001
 100
AcDbLine
   6
DOT
  62
1
  10
 83.552324601234
  20
 401.37269826546
  30
0.0
  11
 83.552324601234
  21
 405.87269826546
  31
0.0
   0
ARC
   5
36A
 100
AcDbEntity
   8
LEVEL001
   6
DOT
  62
1
 100
AcDbCircle
  10
 83.066244601235
  20
 403.12269826546
  30
0.0
  40
 0.50000000000000
 100
AcDbArc
  50
 90.000000000000
  51
 180.00000000023
   0
POINT
   5
36B
 100
AcDbEntity
   8
LEVEL001
 100
AcDbPoint
  62
1
  10
 82.566244601235
  20
 403.62269826546
  30
0.0
   0
LINE
   5
36C
 100
AcDbEntity
   8
LEVEL001
 100
AcDbLine
   6
DOT
  62
1
  10
 82.566244601235
  20
 401.37269826546
  30
0.0
  11
 82.566244601235
  21
 403.12269826546
  31
0.0
   0
ARC
   5
36D
 100
AcDbEntity
   8
LEVEL001
   6
DOT
  62
1
 100
AcDbCircle
  10
 79.566244601235
  20
 403.12269826546
  30
0.0
  40
 0.50000000000000
 100
AcDbArc
  50
0.0
  51
 90.000000000000
   0
LINE
   5
36E
 100
AcDbEntity
   8
LEVEL001
 100
AcDbLine
   6
DOT
  62
1
  10
 80.066244601235
  20
 401.37269826546
  30
0.0
  11
 80.066244601235
  21
 403.12269826546
  31
0.0
   0
POINT
   5
36F
 100
AcDbEntity
   8
LEVEL001
 100
AcDbPoint
  62
1
  10
 80.066244601235
  20
 403.62269826546
  30
0.0
   0
ARC
   5
370
 100
AcDbEntity
   8
LEVEL001
   6
DOT
  62
1
 100
AcDbCircle
  10
 94.566244601235
  20
 403.12269826546
  30
0.0
  40
 0.50000000000000
 100
AcDbArc
  50
0.0
  51
 90.000000000000
   0
POINT
   5
371
 100
AcDbEntity
   8
LEVEL001
 100
AcDbPoint
  62
1
  10
 95.066244601235
  20
 403.62269826546
  30
0.0
   0
LINE
   5
372
 100
AcDbEntity
   8
LEVEL001
 100
AcDbLine
   6
DOT
  62
1
  10
 95.066244601235
  20
 401.37269826546
  30
0.0
  11
 95.066244601235
  21
 403.12269826546
  31
0.0
   0
LINE
   5
373
 100
AcDbEntity
   8
LEVEL001
 100
AcDbLine
   6
DOT
  62
1
  10
 94.052324601234
  20
 401.37269826546
  30
0.0
  11
 94.052324601234
  21
 405.87269826546
  31
0.0
   0
ARC
   5
374
 100
AcDbEntity
   8
LEVEL001
   6
DOT
  62
1
 100
AcDbCircle
  10
 98.066244601235
  20
 403.12269826546
  30
0.0
  40
 0.50000000000000
 100
AcDbArc
  50
 90.000000000000
  51
 180.00000000023
   0
POINT
   5
375
 100
AcDbEntity
   8
LEVEL001
 100
AcDbPoint
  62
1
  10
 97.566244601235
  20
 403.62269826546
  30
0.0
   0
LINE
   5
376
 100
AcDbEntity
   8
LEVEL001
 100
AcDbLine
   6
DOT
  62
1
  10
 97.566244601235
  20
 401.37269826546
  30
0.0
  11
 97.566244601235
  21
 403.12269826546
  31
0.0
   0
LINE
   5
377
 100
AcDbEntity
   8
LEVEL001
 100
AcDbLine
   6
DOT
  62
1
  10
 98.552324601234
  20
 401.37269826546
  30
0.0
  11
 98.552324601234
  21
 405.87269826546
  31
0.0
   0
LINE
   5
378
 100
AcDbEntity
   8
LEVEL001
 100
AcDbLine
   6
DOT
  62
1
  10
 100.06624460123
  20
 401.37269826546
  30
0.0
  11
 100.06624460123
  21
 403.12269826546
  31
0.0
   0
LINE
   5
379
 100
AcDbEntity
   8
LEVEL001
 100
AcDbLine
   6
DOT
  62
1
  10
 75.407331984061
  20
 405.87269826546
  30
0.0
  11
 101.75956218453
  21
 405.87269826546
  31
0.0
   0
LINE
   5
37A
 100
AcDbEntity
   8
LEVEL001
 100
AcDbLine
   6
DOT
  62
1
  10
 99.583248029936
  20
 405.93798066616
  30
0.0
  11
 120.89624460123
  21
 451.64384931009
  31
0.0
   0
POINT
   5
37B
 100
AcDbEntity
   8
LEVEL001
 100
AcDbPoint
  62
1
  10
 100.06624460123
  20
 403.62269826546
  30
0.0
   0
ARC
   5
37C
 100
AcDbEntity
   8
LEVEL001
   6
DOT
  62
1
 100
AcDbCircle
  10
 99.566244601235
  20
 403.12269826546
  30
0.0
  40
 0.50000000000000
 100
AcDbArc
  50
0.0
  51
 90.000000000000
   0
LINE
   5
37D
 100
AcDbEntity
   8
LEVEL001
 100
AcDbLine
   6
DOT
  62
1
  10
 98.066244601235
  20
 403.62269826546
  30
0.0
  11
 99.566244601235
  21
 403.62269826546
  31
0.0
   0
LINE
   5
37E
 100
AcDbEntity
   8
LEVEL001
 100
AcDbLine
   6
DOT
  62
1
  10
 74.349157028216
  20
 403.62269826546
  30
0.0
  11
 79.566244601235
  21
 403.62269826546
  31
0.0
   0
LINE
   5
37F
 100
AcDbEntity
   8
LEVEL001
 100
AcDbLine
   6
DOT
  62
1
  10
 83.066244601235
  20
 403.62269826546
  30
0.0
  11
 94.566244601235
  21
 403.62269826546
  31
0.0
   0
LINE
   5
380
 100
AcDbEntity
   8
LEVEL001
 100
AcDbLine
   6
DOT
  62
1
  10
 76.095047874298
  20
 403.81240973173
  30
0.0
  11
 76.095047874298
  21
 408.01224263364
  31
0.0
   0
LINE
   5
381
 100
AcDbEntity
   8
LEVEL001
 100
AcDbLine
   6
DOT
  62
1
  10
 72.354599694557
  20
 404.07269826546
  30
0.0
  11
 74.540199227045
  21
 404.07269826546
  31
0.0
   0
LINE
   5
382
 100
AcDbEntity
   8
LEVEL001
 100
AcDbLine
   6
DOT
  62
1
  10
 76.802324601234
  20
 401.37269826546
  30
0.0
  11
 76.802324601234
  21
 405.87269826546
  31
0.0
   0
LINE
   5
383
 100
AcDbEntity
   8
LEVEL001
 100
AcDbLine
   6
DOT
  62
1
  10
 74.395047874298
  20
 401.57269826546
  30
0.0
  11
 75.050653265490
  21
 401.57269826546
  31
0.0
   0
ARC
   5
384
 100
AcDbEntity
   8
LEVEL001
   6
DOT
  62
1
 100
AcDbCircle
  10
 74.395047874304
  20
 401.87269826546
  30
0.0
  40
 0.30000000000000
 100
AcDbArc
  50
 179.99999999999
  51
 269.99999999887
   0
LINE
   5
385
 100
AcDbEntity
   8
LEVEL001
 100
AcDbLine
   6
DOT
  62
1
  10
 74.095047874298
  20
 401.87269826546
  30
0.0
  11
 74.095047874298
  21
 403.07269826546
  31
0.0
   0
LINE
   5
386
 100
AcDbEntity
   8
LEVEL001
 100
AcDbLine
   6
DOT
  62
1
  10
 74.002324601234
  20
 401.37269826546
  30
0.0
  11
 74.002324601234
  21
 402.87385256469
  31
0.0
   0
ARC
   5
387
 100
AcDbEntity
   8
LEVEL001
   6
DOT
  62
1
 100
AcDbCircle
  10
 75.052324601234
  20
 403.12269826546
  30
0.0
  40
 0.50000000000000
 100
AcDbArc
  50
 90.000000000000
  51
 180.00000000010
   0
LINE
   5
388
 100
AcDbEntity
   8
LEVEL001
 100
AcDbLine
   6
DOT
  62
1
  10
 74.552324601234
  20
 401.37269826546
  30
0.0
  11
 74.552324601234
  21
 403.12269826546
  31
0.0
   0
POINT
   5
389
 100
AcDbEntity
   8
LEVEL001
 100
AcDbPoint
  62
1
  10
 74.552324601234
  20
 403.62269826546
  30
0.0
   0
LINE
   5
38A
 100
AcDbEntity
   8
LEVEL001
 100
AcDbLine
   6
DOT
  62
1
  10
 75.050653265490
  20
 401.57269826546
  30
0.0
  11
 76.095047874275
  21
 403.81240973174
  31
0.0
   0
LINE
   5
38B
 100
AcDbEntity
   8
LEVEL001
 100
AcDbLine
   6
DASHDOT
  62
3
  10
 81.302324601234
  20
 410.41642491211
  30
0.0
  11
 81.302324601234
  21
 396.86230057374
  31
0.0
   0
LINE
   5
38C
 100
AcDbEntity
   8
LEVEL001
 100
AcDbLine
   6
DASHDOT
  62
3
  10
 96.302324601234
  20
 410.41642491211
  30
0.0
  11
 96.302324601234
  21
 396.86230057374
  31
0.0
   0
LINE
   5
38D
 100
AcDbEntity
   8
LEVEL001
 100
AcDbLine
   6
CONTINUOUS
  62
7
  10
 74.002324601234
  20
 402.87385256469
  30
0.0
  11
 101.28078434473
  21
 461.37269826546
  31
0.0
   0
LINE
   5
38E
 100
AcDbEntity
   8
LEVEL001
 100
AcDbLine
   6
CONTINUOUS
  62
15
  10
 72.971311479791
  20
 401.37269826546
  30
0.0
  11
 73.670772967023
  21
 402.87269826546
  31
0.0
   0
LINE
   5
38F
 100
AcDbEntity
   8
LEVEL001
 100
AcDbLine
   6
CONTINUOUS
  62
15
  10
 73.764034498612
  20
 403.07269826546
  30
0.0
  11
 109.80961647399
  21
 480.37269826546
  31
0.0
   0
LINE
   5
390
 100
AcDbEntity
   8
LEVEL001
 100
AcDbLine
   6
DASHDOT
  62
3
  10
 116.64804843271
  20
 463.87269826546
  30
0.0
  11
 128.36984456513
  21
 463.87269826546
  31
0.0
   0
LINE
   5
391
 100
AcDbEntity
   8
LEVEL001
 100
AcDbLine
   6
CONTINUOUS
  62
15
  10
 137.89624460131
  20
 442.37269826546
  30
0.0
  11
 137.89624460131
  21
 480.37269826546
  31
0.0
   0
LINE
   5
392
 100
AcDbEntity
   8
LEVEL001
 100
AcDbLine
   6
CONTINUOUS
  62
7
  10
 138.89624460123
  20
 478.87269826546
  30
0.0
  11
 372.76396103997
  21
 478.87269826546
  31
0.0
   0
LINE
   5
393
 100
AcDbEntity
   8
LEVEL001
 100
AcDbLine
   6
CONTINUOUS
  62
7
  10
 138.89624460123
  20
 443.87269826546
  30
0.0
  11
 372.76396103997
  21
 443.87269826546
  31
0.0
   0
LINE
   5
394
 100
AcDbEntity
   8
LEVEL001
 100
AcDbLine
   6
DASHDOT
  62
3
  10
 689.24463968904
  20
 400.60962585356
  30
0.0
  11
 688.18881343385
  21
 402.87385256469
  31
0.0
   0
DIMENSION
   5
395
 100
AcDbEntity
   8
LEVEL001
   6
CONTINUOUS
  62
3
 100
AcDbDimension
   2
*D5
  10
 691.09556901754
  20
 369.35749026401
  30
0.0
  11
 657.19523122570
  21
 369.35749026401
  31
0.0
  70
0
   1
\A1;(67.8)
   3
GMM003
 100
AcDbAlignedDimension
  13
 623.29489343385
  23
 443.37269826539
  33
0.0
  14
 691.09556901754
  24
 401.37269826546
  34
0.0
 100
AcDbRotatedDimension
   0
DIMENSION
   5
396
 100
AcDbEntity
   8
LEVEL001
   6
CONTINUOUS
  62
3
 100
AcDbDimension
   2
*D6
  10
 71.095569017542
  20
 369.35749026401
  30
0.0
  11
 104.99590680939
  21
 369.35749026401
  31
0.0
  70
0
   1
\A1;(67.8)
   3
GMM003
 100
AcDbAlignedDimension
  13
 138.89624460123
  23
 443.37269826539
  33
0.0
  14
 71.095569017542
  24
 401.37269826546
  34
0.0
  50
 180.00000000000
 100
AcDbRotatedDimension
   0
DIMENSION
   5
397
 100
AcDbEntity
   8
LEVEL001
   6
CONTINUOUS
  62
3
 100
AcDbDimension
   2
*D7
  10
 585.98098959171
  20
 401.37269826546
  30
0.0
  11
 585.98098959171
  21
 422.62269826546
  31
0.0
  70
0
   3
GMM001
 100
AcDbAlignedDimension
  13
 585.98098959171
  23
 443.87269826546
  33
0.0
  14
 660.87489343387
  24
 401.37269826546
  34
0.0
  50
 270.00000000000
 100
AcDbRotatedDimension
   0
LINE
   5
398
 100
AcDbEntity
   8
LEVEL001
 100
AcDbLine
   6
DASHDOT
  62
3
  10
 114.44299436761
  20
 461.37269826546
  30
0.0
  11
 572.31793640357
  21
 461.37269826546
  31
0.0
   0
LINE
   5
399
 100
AcDbEntity
   8
LEVEL001
 100
AcDbLine
   6
CONTINUOUS
  62
3
  10
 325.08054696277
  20
 531.23726215293
  30
0.0
  11
 345.84750861469
  21
 531.23726215293
  31
0.0
   0
LINE
   5
39A
 100
AcDbEntity
   8
LEVEL001
 100
AcDbLine
   6
CONTINUOUS
  62
3
  10
 355.54908150274
  20
 531.23726215293
  30
0.0
  11
 376.31604315466
  21
 531.23726215293
  31
0.0
   0
LINE
   5
39B
 100
AcDbEntity
   8
LEVEL001
 100
AcDbLine
   6
CONTINUOUS
  62
3
  10
 385.99724387816
  20
 531.23726215293
  30
0.0
  11
 406.76420553008
  21
 531.23726215293
  31
0.0
   0
LINE
   5
39C
 100
AcDbEntity
   8
LEVEL001
 100
AcDbLine
   6
CONTINUOUS
  62
3
  10
 416.23495618677
  20
 531.23726215293
  30
0.0
  11
 437.00191783869
  21
 531.23726215293
  31
0.0
   0
LINE
   5
39D
 100
AcDbEntity
   8
LEVEL001
 100
AcDbLine
   6
CONTINUOUS
  62
3
  10
 301.46853068683
  20
 371.65976491517
  30
0.0
  11
 334.48799971337
  21
 371.65976491517
  31
0.0
   0
LINE
   5
39E
 100
AcDbEntity
   8
LEVEL001
 100
AcDbLine
   6
CONTINUOUS
  62
3
  10
 343.27934681269
  20
 371.65976491517
  30
0.0
  11
 376.29881583924
  21
 371.65976491517
  31
0.0
   0
LINE
   5
39F
 100
AcDbEntity
   8
LEVEL001
 100
AcDbLine
   6
CONTINUOUS
  62
3
  10
 385.60067707276
  20
 371.65976491517
  30
0.0
  11
 418.62014609931
  21
 371.65976491517
  31
0.0
   0
LINE
   5
3A0
 100
AcDbEntity
   8
LEVEL001
 100
AcDbLine
   6
CONTINUOUS
  62
3
  10
 427.48071640413
  20
 371.65976491517
  30
0.0
  11
 460.50018543068
  21
 371.65976491517
  31
0.0
   0
DIMENSION
   5
3A1
 100
AcDbEntity
   8
LEVEL001
   6
CONTINUOUS
  62
3
 100
AcDbDimension
   2
*D8
  10
 637.29489343385
  20
 509.71808203200
  30
0.0
  11
 381.09556901754
  21
 509.71808203200
  31
0.0
  70
0
   1
\A1;ÄÞÉáû_ÆÀé│
   3
GMM004
 100
AcDbAlignedDimension
  13
 124.89624460123
  23
 478.87269826546
  33
0.0
  14
 637.29489343385
  24
 478.87269826546
  34
0.0
 100
AcDbRotatedDimension
   0
LINE
   5
3A2
 100
AcDbEntity
   8
LEVEL001
 100
AcDbLine
   6
CONTINUOUS
  62
3
  10
 302.69547697244
  20
 349.52790372849
  30
0.0
  11
 334.88426753291
  21
 349.52790372849
  31
0.0
   0
LINE
   5
3A3
 100
AcDbEntity
   8
LEVEL001
 100
AcDbLine
   6
CONTINUOUS
  62
3
  10
 344.02173065975
  20
 349.52790372849
  30
0.0
  11
 376.21052122023
  21
 349.52790372849
  31
0.0
   0
LINE
   5
3A4
 100
AcDbEntity
   8
LEVEL001
 100
AcDbLine
   6
CONTINUOUS
  62
3
  10
 386.38633242967
  20
 349.52790372849
  30
0.0
  11
 418.57512299014
  21
 349.52790372849
  31
0.0
   0
DIMENSION
   5
3A5
 100
AcDbEntity
   8
LEVEL001
   6
CONTINUOUS
  62
3
 100
AcDbDimension
   2
*D9
  10
 691.09556901754
  20
 528.99895154557
  30
0.0
  11
 381.09556901754
  21
 528.99895154557
  31
0.0
  70
0
   1
\A1;435üE535üE735üE935
   3
GMM005
 100
AcDbAlignedDimension
  13
 71.095569017542
  23
 401.37269826546
  33
0.0
  14
 691.09556901754
  24
 401.37269826546
  34
0.0
 100
AcDbRotatedDimension
   0
DIMENSION
   5
3A6
 100
AcDbEntity
   8
LEVEL001
   6
CONTINUOUS
  62
3
 100
AcDbDimension
   2
*D10
  10
 623.29489343385
  20
 369.35749026401
  30
0.0
  11
 381.09556901754
  21
 369.35749026401
  31
0.0
  70
0
   1
\A1;299.4üE399.4üE599.4üE799.4
   3
GMM006
 100
AcDbAlignedDimension
  13
 138.89624460123
  23
 365.00494622117
  33
0.0
  14
 623.29489343385
  24
 369.35749026401
  34
0.0
 100
AcDbRotatedDimension
   0
DIMENSION
   5
3A7
 100
AcDbEntity
   8
LEVEL001
   6
CONTINUOUS
  62
3
 100
AcDbDimension
   2
*D11
  10
 665.87489343385
  20
 347.32618333146
  30
0.0
  11
 381.09556901754
  21
 347.32618333146
  31
0.0
  70
0
   1
\A1;384.6üE484.6üE684.6üE884.6
   3
GMM007
 100
AcDbAlignedDimension
  13
 96.316244601235
  23
 347.32618333146
  33
0.0
  14
 665.87489343385
  24
 312.37674358796
  34
0.0
 100
AcDbRotatedDimension
   0
LINE
   5
3A8
 100
AcDbEntity
   8
LEVEL001
 100
AcDbLine
   6
CONTINUOUS
  62
7
  10
 771.78386662668
  20
 401.37269826546
  30
0.0
  11
 771.78386662668
  21
 461.37269826546
  31
0.0
   0
LINE
   5
3A9
 100
AcDbEntity
   8
LEVEL001
 100
AcDbLine
   6
CONTINUOUS
  62
7
  10
 733.78386662668
  20
 401.37269826546
  30
0.0
  11
 733.78386662668
  21
 461.37269826546
  31
0.0
   0
ARC
   5
3AA
 100
AcDbEntity
   8
LEVEL001
   6
CONTINUOUS
  62
7
 100
AcDbCircle
  10
 752.78386662668
  20
 461.37269826546
  30
0.0
  40
 19.000000000000
 100
AcDbArc
  50
0.0
  51
 7.5608431766691
   0
ARC
   5
3AB
 100
AcDbEntity
   8
LEVEL001
   6
CONTINUOUS
  62
7
 100
AcDbCircle
  10
 752.78386662668
  20
 461.37269826546
  30
0.0
  40
 19.000000000000
 100
AcDbArc
  50
 7.5608431766735
  51
 65.098937629633
   0
ARC
   5
3AC
 100
AcDbEntity
   8
LEVEL001
   6
CONTINUOUS
  62
7
 100
AcDbCircle
  10
 752.78386662668
  20
 461.37269826546
  30
0.0
  40
 19.000000000000
 100
AcDbArc
  50
 114.90106237037
  51
 146.26127735126
   0
ARC
   5
3AD
 100
AcDbEntity
   8
LEVEL001
   6
CONTINUOUS
  62
7
 100
AcDbCircle
  10
 752.78386662668
  20
 461.37269826546
  30
0.0
  40
 19.000000000000
 100
AcDbArc
  50
 146.26127735126
  51
 172.43915682333
   0
ARC
   5
3AE
 100
AcDbEntity
   8
LEVEL001
   6
CONTINUOUS
  62
7
 100
AcDbCircle
  10
 752.78386662668
  20
 461.37269826546
  30
0.0
  40
 19.000000000000
 100
AcDbArc
  50
 172.43915682333
  51
 180.00000000000
   0
LINE
   5
3AF
 100
AcDbEntity
   8
LEVEL001
 100
AcDbLine
   6
CONTINUOUS
  62
7
  10
 752.78386662668
  20
 401.37269826546
  30
0.0
  11
 771.78386662668
  21
 401.37269826546
  31
0.0
   0
LINE
   5
3B0
 100
AcDbEntity
   8
LEVEL001
 100
AcDbLine
   6
CONTINUOUS
  62
7
  10
 733.78386662668
  20
 401.37269826546
  30
0.0
  11
 752.78386662668
  21
 401.37269826546
  31
0.0
   0
LINE
   5
3B1
 100
AcDbEntity
   8
LEVEL001
 100
AcDbLine
   6
CONTINUOUS
  62
7
  10
 733.78386662668
  20
 402.87269826546
  30
0.0
  11
 771.78386662668
  21
 402.87269826546
  31
0.0
   0
LINE
   5
3B2
 100
AcDbEntity
   8
LEVEL001
 100
AcDbLine
   6
CONTINUOUS
  62
7
  10
 733.78386662668
  20
 403.07269826546
  30
0.0
  11
 771.78386662668
  21
 403.07269826546
  31
0.0
   0
LINE
   5
3B3
 100
AcDbEntity
   8
LEVEL001
 100
AcDbLine
   6
CONTINUOUS
  62
7
  10
 756.28386662668
  20
 404.07269826546
  30
0.0
  11
 749.28386662668
  21
 404.07269826546
  31
0.0
   0
LINE
   5
3B4
 100
AcDbEntity
   8
LEVEL001
 100
AcDbLine
   6
CONTINUOUS
  62
7
  10
 749.28386662668
  20
 404.07269826546
  30
0.0
  11
 749.28386662668
  21
 403.07269826546
  31
0.0
   0
LINE
   5
3B5
 100
AcDbEntity
   8
LEVEL001
 100
AcDbLine
   6
CONTINUOUS
  62
7
  10
 756.28386662668
  20
 403.07269826546
  30
0.0
  11
 756.28386662668
  21
 404.07269826546
  31
0.0
   0
LINE
   5
3B6
 100
AcDbEntity
   8
LEVEL001
 100
AcDbLine
   6
DASHDOT
  62
3
  10
 742.78386662668
  20
 411.55123126341
  30
0.0
  11
 742.78386662668
  21
 396.43210963812
  31
0.0
   0
LINE
   5
3B7
 100
AcDbEntity
   8
LEVEL001
 100
AcDbLine
   6
DASHDOT
  62
3
  10
 762.78386662668
  20
 411.74845544009
  30
0.0
  11
 762.78386662668
  21
 397.02378216814
  31
0.0
   0
LINE
   5
3B8
 100
AcDbEntity
   8
LEVEL001
 100
AcDbLine
   6
DASHDOT
  62
3
  10
 739.27591674726
  20
 461.37269826546
  30
0.0
  11
 767.30953617505
  21
 461.37269826546
  31
0.0
   0
ARC
   5
3B9
 100
AcDbEntity
   8
LEVEL001
   6
CONTINUOUS
  62
7
 100
AcDbCircle
  10
 752.78386662669
  20
 461.37269826547
  30
0.0
  40
 19.000000000000
 100
AcDbArc
  50
 90.000000000015
  51
 114.90106237038
   0
ARC
   5
3BA
 100
AcDbEntity
   8
LEVEL001
   6
CONTINUOUS
  62
7
 100
AcDbCircle
  10
 752.78386662668
  20
 461.37269826546
  30
0.0
  40
 19.000000000000
 100
AcDbArc
  50
 65.098937629622
  51
 89.999999999990
   0
LINE
   5
3BB
 100
AcDbEntity
   8
LEVEL001
 100
AcDbLine
   6
DASHDOT
  62
3
  10
 752.78386662668
  20
 485.83287983153
  30
0.0
  11
 752.78386662668
  21
 393.87641848270
  31
0.0
   0
LINE
   5
3BC
 100
AcDbEntity
   8
LEVEL001
 100
AcDbLine
   6
CONTINUOUS
  62
15
  10
 734.63386662668
  20
 401.37269826546
  30
0.0
  11
 734.63386662668
  21
 402.87269826546
  31
0.0
   0
LINE
   5
3BD
 100
AcDbEntity
   8
LEVEL001
 100
AcDbLine
   6
CONTINUOUS
  62
15
  10
 770.93386662668
  20
 401.37269826546
  30
0.0
  11
 770.93386662668
  21
 402.87269826546
  31
0.0
   0
LINE
   5
3BE
 100
AcDbEntity
   8
LEVEL001
 100
AcDbLine
   6
CONTINUOUS
  62
15
  10
 770.93386662668
  20
 403.07269826546
  30
0.0
  11
 770.93386662668
  21
 462.13519826546
  31
0.0
   0
LINE
   5
3BF
 100
AcDbEntity
   8
LEVEL001
 100
AcDbLine
   6
CONTINUOUS
  62
15
  10
 734.63386662668
  20
 403.07269826546
  30
0.0
  11
 734.63386662668
  21
 462.13519826546
  31
0.0
   0
ARC
   5
3C0
 100
AcDbEntity
   8
LEVEL001
   6
CONTINUOUS
  62
15
 100
AcDbCircle
  10
 752.78386662668
  20
 462.13519826546
  30
0.0
  40
 18.150000000000
 100
AcDbArc
  50
0.0
  51
 180.00000000000
   0
DIMENSION
   5
3C1
 100
AcDbEntity
   8
LEVEL001
   6
CONTINUOUS
  62
3
 100
AcDbDimension
   2
*D12
  10
 771.78386662668
  20
 369.35749026401
  30
0.0
  11
 752.78386662668
  21
 369.35749026401
  31
0.0
  70
0
   3
GMM001
 100
AcDbAlignedDimension
  13
 733.78386662668
  23
 401.37269826546
  33
0.0
  14
 771.78386662668
  24
 401.37269826546
  34
0.0
 100
AcDbRotatedDimension
   0
DIMENSION
   5
3C2
 100
AcDbEntity
   8
LEVEL001
   6
CONTINUOUS
  62
3
 100
AcDbDimension
   2
*D13
  10
 716.14214897352
  20
 461.37269826546
  30
0.0
  11
 716.14214897352
  21
 431.37269826546
  31
0.0
  70
0
   3
GMM001
 100
AcDbAlignedDimension
  13
 733.78386662668
  23
 401.37269826546
  33
0.0
  14
 739.27591674726
  24
 461.37269826546
  34
0.0
  50
 90.000000000000
 100
AcDbRotatedDimension
   0
DIMENSION
   5
3C3
 100
AcDbEntity
   8
LEVEL001
   6
CONTINUOUS
  62
3
 100
AcDbDimension
   2
*D14
  10
 794.74120378812
  20
 401.37269826546
  30
0.0
  11
 794.74120378812
  21
 440.87269826546
  31
0.0
  70
0
   3
GMM001
 100
AcDbAlignedDimension
  13
 752.78386662668
  23
 480.37269826546
  33
0.0
  14
 771.78386662668
  24
 401.37269826546
  34
0.0
  50
 270.00000000000
 100
AcDbRotatedDimension
   0
LINE
   5
3C4
 100
AcDbEntity
   8
LEVEL001
 100
AcDbLine
   6
CONTINUOUS
  62
3
  10
 427.60648123599
  20
 349.52790372849
  30
0.0
  11
 460.73205514353
  21
 349.52790372849
  31
0.0
   0
ENDSEC
  0
SECTION
  2
OBJECTS
  0
DICTIONARY
  5
C
100
AcDbDictionary
  3
ACAD_GROUP
350
D
  3
ACAD_MLINESTYLE
350
1B
  0
DICTIONARY
  5
D
102
{ACAD_REACTORS
330
C
102
}
100
AcDbDictionary
  0
DICTIONARY
  5
1B
102
{ACAD_REACTORS
330
C
102
}
100
AcDbDictionary
  3
STANDARD
350
1C
  0
MLINESTYLE
  5
1C
102
{ACAD_REACTORS
330
1B
102
}
100
AcDbMlineStyle
  2
STANDARD
 70
     0
  3

 62
   256
 51
90.0
 52
90.0
 71
     2
 49
0.5
 62
   256
  6
BYLAYER
 49
-0.5
 62
   256
  6
BYLAYER
  0
ENDSEC
   0
EOF
