   0
SECTION
   2
HEADER
   9
$ACADVER
   1
AC1015
   9
$LIMMIN
  10
0.0
  20
0.0
   9
$LIMMAX
  10
 420.00000000000
  20
 297.00000000000
   9
$EXTMIN
  10
0.0
  20
0.0
  30
0.0
   9
$EXTMAX
  10
 420.00000000000
  20
 297.00000000000
  30
0.0
   9
$LTSCALE
  40
 8.4000000000000
   9
$HANDSEED
   5
325
   0
ENDSEC
   0
SECTION
   2
TABLES
  0
TABLE
  2
VPORT
  5
8
100
AcDbSymbolTable
 70
     1
  0
VPORT
  5
324
100
AcDbSymbolTableRecord
100
AcDbViewportTableRecord
  2
*ACTIVE
 70
     0
 10
0.0
 20
0.0
 11
1.0
 21
1.0
  12
 210.00000000000
  22
 148.50000000000
 13
0.0
 23
0.0
 14
1.0
 24
1.0
 15
0.0
 25
0.0
 16
0.0
 26
0.0
 36
1.0
 17
0.0
 27
0.0
 37
0.0
  40
 420.00000000000
  41
 1.4787878787879
 42
50.0
 43
0.0
 44
0.0
 50
0.0
 51
0.0
 71
     0
 72
   100
 73
     1
 74
     1
 75
     0
 76
     0
 77
     0
 78
     0
  0
ENDTAB
  0
TABLE
  2
LTYPE
  5
5
100
AcDbSymbolTable
 70
    25
  0
LTYPE
  5
12
100
AcDbSymbolTableRecord
100
AcDbLinetypeTableRecord
  2
BYBLOCK
 70
     0
  3

 72
    65
 73
     0
 40
0.0
  0
LTYPE
  5
13
100
AcDbSymbolTableRecord
100
AcDbLinetypeTableRecord
  2
BYLAYER
 70
     0
  3

 72
    65
 73
     0
 40
0.0
  0
LTYPE
  5
14
100
AcDbSymbolTableRecord
100
AcDbLinetypeTableRecord
  2
CONTINUOUS
 70
     0
  3
Solid line
 72
    65
 73
     0
 40
0.0
  0
LTYPE
  5
20
100
AcDbSymbolTableRecord
100
AcDbLinetypeTableRecord
  2
BORDER
 70
     0
  3
__ __ . __ __ . __ __ . __ __ . __ __ . __ __ .
 72
    65
 73
     6
 40
1.75
 49
0.5
 74
     0
 49
-0.25
 74
     0
 49
0.5
 74
     0
 49
-0.25
 74
     0
 49
0.0
 74
     0
 49
-0.25
 74
     0
  0
LTYPE
  5
21
100
AcDbSymbolTableRecord
100
AcDbLinetypeTableRecord
  2
BORDER2
 70
     0
  3
__.__.__.__.__.__.__.__.__.__.__.__.__.__.__.__
 72
    65
 73
     6
 40
0.875
 49
0.25
 74
     0
 49
-0.125
 74
     0
 49
0.25
 74
     0
 49
-0.125
 74
     0
 49
0.0
 74
     0
 49
-0.125
 74
     0
  0
LTYPE
  5
22
100
AcDbSymbolTableRecord
100
AcDbLinetypeTableRecord
  2
BORDERX2
 70
     0
  3
____  ____  .  ____  ____  .  ____  ____  .  __
 72
    65
 73
     6
 40
3.5
 49
1.0
 74
     0
 49
-0.5
 74
     0
 49
1.0
 74
     0
 49
-0.5
 74
     0
 49
0.0
 74
     0
 49
-0.5
 74
     0
  0
LTYPE
  5
23
100
AcDbSymbolTableRecord
100
AcDbLinetypeTableRecord
  2
CENTER
 70
     0
  3
____ _ ____ _ ____ _ ____ _ ____ _ ____ _ ____ 
 72
    65
 73
     4
 40
2.0
 49
1.25
 74
     0
 49
-0.25
 74
     0
 49
0.25
 74
     0
 49
-0.25
 74
     0
  0
LTYPE
  5
24
100
AcDbSymbolTableRecord
100
AcDbLinetypeTableRecord
  2
CENTER2
 70
     0
  3
___ _ ___ _ ___ _ ___ _ ___ _ ___ _ ___ _ ___ _
 72
    65
 73
     4
 40
1.125
 49
0.75
 74
     0
 49
-0.125
 74
     0
 49
0.125
 74
     0
 49
-0.125
 74
     0
  0
LTYPE
  5
25
100
AcDbSymbolTableRecord
100
AcDbLinetypeTableRecord
  2
CENTERX2
 70
     0
  3
________  __  ________  __  ________  __  _____
 72
    65
 73
     4
 40
4.0
 49
2.5
 74
     0
 49
-0.5
 74
     0
 49
0.5
 74
     0
 49
-0.5
 74
     0
  0
LTYPE
  5
26
100
AcDbSymbolTableRecord
100
AcDbLinetypeTableRecord
  2
DASHDOT
 70
     0
  3
__ . __ . __ . __ . __ . __ . __ . __ . __ . __
 72
    65
 73
     4
 40
1.0
 49
0.5
 74
     0
 49
-0.25
 74
     0
 49
0.0
 74
     0
 49
-0.25
 74
     0
  0
LTYPE
  5
27
100
AcDbSymbolTableRecord
100
AcDbLinetypeTableRecord
  2
DASHDOT2
 70
     0
  3
_._._._._._._._._._._._._._._._._._._._._._._._
 72
    65
 73
     4
 40
0.5
 49
0.25
 74
     0
 49
-0.125
 74
     0
 49
0.0
 74
     0
 49
-0.125
 74
     0
  0
LTYPE
  5
28
100
AcDbSymbolTableRecord
100
AcDbLinetypeTableRecord
  2
DASHDOTX2
 70
     0
  3
____  .  ____  .  ____  .  ____  .  ____  .  __
 72
    65
 73
     4
 40
2.0
 49
1.0
 74
     0
 49
-0.5
 74
     0
 49
0.0
 74
     0
 49
-0.5
 74
     0
  0
LTYPE
  5
29
100
AcDbSymbolTableRecord
100
AcDbLinetypeTableRecord
  2
DASHED
 70
     0
  3
__ __ __ __ __ __ __ __ __ __ __ __ __ __ __ __
 72
    65
 73
     2
 40
0.75
 49
0.5
 74
     0
 49
-0.25
 74
     0
  0
LTYPE
  5
2A
100
AcDbSymbolTableRecord
100
AcDbLinetypeTableRecord
  2
DASHED2
 70
     0
  3
_ _ _ _ _ _ _ _ _ _ _ _ _ _ _ _ _ _ _ _ _ _ _ _
 72
    65
 73
     2
 40
0.375
 49
0.25
 74
     0
 49
-0.125
 74
     0
  0
LTYPE
  5
2B
100
AcDbSymbolTableRecord
100
AcDbLinetypeTableRecord
  2
DASHEDX2
 70
     0
  3
____  ____  ____  ____  ____  ____  ____  ____ 
 72
    65
 73
     2
 40
1.5
 49
1.0
 74
     0
 49
-0.5
 74
     0
  0
LTYPE
  5
2C
100
AcDbSymbolTableRecord
100
AcDbLinetypeTableRecord
  2
DIVIDE
 70
     0
  3
____ . . ____ . . ____ . . ____ . . ____ . . __
 72
    65
 73
     6
 40
1.25
 49
0.5
 74
     0
 49
-0.25
 74
     0
 49
0.0
 74
     0
 49
-0.25
 74
     0
 49
0.0
 74
     0
 49
-0.25
 74
     0
  0
LTYPE
  5
2D
100
AcDbSymbolTableRecord
100
AcDbLinetypeTableRecord
  2
DIVIDE2
 70
     0
  3
__..__..__..__..__..__..__..__..__..__..__..__.
 72
    65
 73
     6
 40
0.625
 49
0.25
 74
     0
 49
-0.125
 74
     0
 49
0.0
 74
     0
 49
-0.125
 74
     0
 49
0.0
 74
     0
 49
-0.125
 74
     0
  0
LTYPE
  5
2E
100
AcDbSymbolTableRecord
100
AcDbLinetypeTableRecord
  2
DIVIDEX2
 70
     0
  3
________  .  .  ________  .  .  ________  .  . 
 72
    65
 73
     6
 40
2.5
 49
1.0
 74
     0
 49
-0.5
 74
     0
 49
0.0
 74
     0
 49
-0.5
 74
     0
 49
0.0
 74
     0
 49
-0.5
 74
     0
  0
LTYPE
  5
2F
100
AcDbSymbolTableRecord
100
AcDbLinetypeTableRecord
  2
DOT
 70
     0
  3
. . . . . . . . . . . . . . . . . . . . . . . .
 72
    65
 73
     2
 40
0.25
 49
0.0
 74
     0
 49
-0.25
 74
     0
  0
LTYPE
  5
30
100
AcDbSymbolTableRecord
100
AcDbLinetypeTableRecord
  2
DOT2
 70
     0
  3
...............................................
 72
    65
 73
     2
 40
0.125
 49
0.0
 74
     0
 49
-0.125
 74
     0
  0
LTYPE
  5
31
100
AcDbSymbolTableRecord
100
AcDbLinetypeTableRecord
  2
DOTX2
 70
     0
  3
.  .  .  .  .  .  .  .  .  .  .  .  .  .  .  . 
 72
    65
 73
     2
 40
0.5
 49
0.0
 74
     0
 49
-0.5
 74
     0
  0
LTYPE
  5
32
100
AcDbSymbolTableRecord
100
AcDbLinetypeTableRecord
  2
HIDDEN
 70
     0
  3
__ __ __ __ __ __ __ __ __ __ __ __ __ __ __ __
 72
    65
 73
     2
 40
0.375
 49
0.25
 74
     0
 49
-0.125
 74
     0
  0
LTYPE
  5
33
100
AcDbSymbolTableRecord
100
AcDbLinetypeTableRecord
  2
HIDDEN2
 70
     0
  3
_ _ _ _ _ _ _ _ _ _ _ _ _ _ _ _ _ _ _ _ _ _ _ _
 72
    65
 73
     2
 40
0.1875
 49
0.125
 74
     0
 49
-0.0625
 74
     0
  0
LTYPE
  5
34
100
AcDbSymbolTableRecord
100
AcDbLinetypeTableRecord
  2
HIDDENX2
 70
     0
  3
____ ____ ____ ____ ____ ____ ____ ____ ____ __
 72
    65
 73
     2
 40
0.75
 49
0.5
 74
     0
 49
-0.25
 74
     0
  0
LTYPE
  5
35
100
AcDbSymbolTableRecord
100
AcDbLinetypeTableRecord
  2
PHANTOM
 70
     0
  3
______  __  __  ______  __  __  ______  __  __ 
 72
    65
 73
     6
 40
2.5
 49
1.25
 74
     0
 49
-0.25
 74
     0
 49
0.25
 74
     0
 49
-0.25
 74
     0
 49
0.25
 74
     0
 49
-0.25
 74
     0
  0
LTYPE
  5
36
100
AcDbSymbolTableRecord
100
AcDbLinetypeTableRecord
  2
PHANTOM2
 70
     0
  3
___ _ _ ___ _ _ ___ _ _ ___ _ _ ___ _ _ ___ _ _
 72
    65
 73
     6
 40
1.25
 49
0.625
 74
     0
 49
-0.125
 74
     0
 49
0.125
 74
     0
 49
-0.125
 74
     0
 49
0.125
 74
     0
 49
-0.125
 74
     0
  0
LTYPE
  5
37
100
AcDbSymbolTableRecord
100
AcDbLinetypeTableRecord
  2
PHANTOMX2
 70
     0
  3
____________    ____    ____    ____________   
 72
    65
 73
     6
 40
5.0
 49
2.5
 74
     0
 49
-0.5
 74
     0
 49
0.5
 74
     0
 49
-0.5
 74
     0
 49
0.5
 74
     0
 49
-0.5
 74
     0
  0
ENDTAB
   0
TABLE
   2
LAYER
   5
2
 100
AcDbSymbolTable
  70
2
   0
LAYER
   5
E
 100
AcDbSymbolTableRecord
 100
AcDbLayerTableRecord
   2
0
  70
0
  62
7
   6
CONTINUOUS
 390
30
   0
LAYER
   5
39
 100
AcDbSymbolTableRecord
 100
AcDbLayerTableRecord
   2
LEVEL001
  70
0
  62
7
   6
CONTINUOUS
 390
30
   0
ENDTAB
  0
TABLE
  2
STYLE
  5
3
100
AcDbSymbolTable
  70
3
  0
STYLE
  5
F
100
AcDbSymbolTableRecord
100
AcDbTextStyleTableRecord
  2
STANDARD
 70
     0
 40
0.0
 41
1.0
 50
0.0
 71
     0
 42
0.2
  3
TXT
  4
BIGFONT
  0
STYLE
  5
38
100
AcDbSymbolTableRecord
100
AcDbTextStyleTableRecord
  2
STANDARD1
 70
     4
 40
0.0
 41
1.0
 50
0.0
 71
     0
 42
0.2
  3
TXT
  4
BIGFONT
   0
STYLE
   5
3A
 100
AcDbSymbolTableRecord
 100
AcDbTextStyleTableRecord
   2
GMM001
  70
0
  40
0.0
  41
 0.95000000000000
  50
0.0
  71
     0
  42
1.0
   3
txt.shx
   4
bigfont.shx
   0
ENDTAB
  0
TABLE
  2
VIEW
  5
6
100
AcDbSymbolTable
 70
     0
  0
ENDTAB
  0
TABLE
  2
UCS
  5
7
100
AcDbSymbolTable
 70
     0
  0
ENDTAB
  0
TABLE
  2
APPID
  5
9
100
AcDbSymbolTable
 70
     1
  0
APPID
  5
10
100
AcDbSymbolTableRecord
100
AcDbRegAppTableRecord
  2
ACAD
 70
     0
  0
ENDTAB
   0
TABLE
   2
DIMSTYLE
   5
A
 100
AcDbSymbolTable
  70
6
 100
AcDbDimStyleTable
  0
DIMSTYLE
105
1D
100
AcDbSymbolTableRecord
100
AcDbDimStyleTableRecord
  2
STANDARD
 70
     0
  3

  4

  5

  6

  7

 40
1.0
 41
0.18
 42
0.0625
 43
0.38
 44
0.18
 45
0.0
 46
0.0
 47
0.0
 48
0.0
140
0.18
141
0.09
142
0.0
143
25.4
144
1.0
145
0.0
146
1.0
147
0.09
 71
     0
 72
     0
 73
     1
 74
     1
 75
     0
 76
     0
 77
     0
 78
     0
170
     0
171
     2
172
     0
173
     0
174
     0
175
     0
176
     0
177
     0
178
     0
270
     2
271
     4
272
     4
273
     2
274
     2
340
F
275
     0
280
     0
281
     0
282
     0
283
     1
284
     0
285
     0
286
     0
287
     3
288
     0
   0
DIMSTYLE
 105
3B
 100
AcDbSymbolTableRecord
 100
AcDbDimStyleTableRecord
   2
GMM001
  70
0
   3

   4

   5

   6
_OPEN30
   7
_OPEN30
  40
 1.0000000000000
  41
 3.0000000000000
  42
 1.0000000000000
  43
 8.0000000000000
  44
 1.0000000000000
  45
0.0
  46
0.0
  47
0.0
  48
0.0
 140
 4.0000000000000
 141
 1.0000000000000
 142
0.0
 143
 0.39400000000000E-1
 144
 1.0000000000000
 145
0.0
 146
 0.62500000000000
 147
 1.7142857142857
  71
0
  72
0
  73
0
  74
0
  75
0
  76
0
  77
3
  78
8
 170
0
 171
2
 172
1
 173
1
 174
0
 175
0
 176
3
 177
3
 178
3
 270
2
 271
4
 272
0
 273
2
 274
2
 340
3A
 275
0
 280
0
 281
0
 282
0
 283
1
 284
0
 285
0
 286
0
 287
3
 288
0
   0
DIMSTYLE
 105
3C
 100
AcDbSymbolTableRecord
 100
AcDbDimStyleTableRecord
   2
GMM002
  70
0
   3

   4

   5

   6
_OPEN30
   7
_OPEN30
  40
 1.0000000000000
  41
 3.0000000000000
  42
 1.0000000000000
  43
 8.0000000000000
  44
 1.0000000000000
  45
0.0
  46
0.0
  47
0.0
  48
0.0
 140
 4.0000000000000
 141
 1.0000000000000
 142
0.0
 143
 0.39400000000000E-1
 144
 1.0000000000000
 145
0.0
 146
 0.62500000000000
 147
 1.7142857142857
  71
0
  72
0
  73
0
  74
0
  75
0
  76
0
  77
3
  78
8
 170
0
 171
2
 172
1
 173
1
 174
0
 175
0
 176
3
 177
3
 178
3
 270
2
 271
6
 272
0
 273
2
 274
2
 340
3A
 275
0
 280
0
 281
0
 282
0
 283
1
 284
0
 285
0
 286
0
 287
3
 288
0
   0
DIMSTYLE
 105
3D
 100
AcDbSymbolTableRecord
 100
AcDbDimStyleTableRecord
   2
GMM003
  70
0
   3
R<>
   4

   5

   6
_NONE
   7
_OPEN30
  40
 1.0000000000000
  41
 3.0000000000000
  42
 1.0000000000000
  43
 8.0000000000000
  44
 1.0000000000000
  45
0.0
  46
0.0
  47
0.0
  48
0.0
 140
 4.0000000000000
 141
 1.0000000000000
 142
0.0
 143
 0.39400000000000E-1
 144
 1.0000000000000
 145
0.0
 146
 0.62500000000000
 147
 1.7142857142857
  71
0
  72
0
  73
0
  74
0
  75
0
  76
0
  77
3
  78
8
 170
0
 171
2
 172
1
 173
1
 174
0
 175
0
 176
3
 177
3
 178
3
 270
2
 271
6
 272
0
 273
2
 274
2
 340
3A
 275
0
 280
0
 281
0
 282
0
 283
1
 284
0
 285
0
 286
0
 287
3
 288
1
   0
DIMSTYLE
 105
3E
 100
AcDbSymbolTableRecord
 100
AcDbDimStyleTableRecord
   2
GMM004
  70
0
   3

   4

   5

   6
_OPEN30
   7
_OPEN30
  40
 1.0000000000000
  41
 3.0000000000000
  42
 1.0000000000000
  43
 8.0000000000000
  44
 1.0000000000000
  45
0.0
  46
0.0
  47
0.0
  48
0.0
 140
 4.0000000000000
 141
 1.0000000000000
 142
0.0
 143
 0.39400000000000E-1
 144
 1.0000000000000
 145
0.0
 146
 0.62500000000000
 147
 2.0344598905404
  71
0
  72
0
  73
0
  74
0
  75
0
  76
0
  77
3
  78
8
 170
0
 171
2
 172
1
 173
1
 174
0
 175
0
 176
3
 177
3
 178
3
 270
2
 271
6
 272
0
 273
2
 274
2
 340
3A
 275
0
 280
0
 281
0
 282
0
 283
1
 284
0
 285
0
 286
0
 287
3
 288
1
   0
ENDTAB
  0
TABLE
  2
BLOCK_RECORD
  5
1
100
AcDbSymbolTable
 70
     0
  0
BLOCK_RECORD
  5
18
100
AcDbSymbolTableRecord
100
AcDbBlockTableRecord
  2
*MODEL_SPACE
  0
BLOCK_RECORD
  5
15
100
AcDbSymbolTableRecord
100
AcDbBlockTableRecord
  2
*PAPER_SPACE
   0
BLOCK_RECORD
   5
3F
 100
AcDbSymbolTableRecord
 100
AcDbBlockTableRecord
   2
*D1
   0
BLOCK_RECORD
   5
40
 100
AcDbSymbolTableRecord
 100
AcDbBlockTableRecord
   2
*D2
   0
BLOCK_RECORD
   5
41
 100
AcDbSymbolTableRecord
 100
AcDbBlockTableRecord
   2
*D3
   0
BLOCK_RECORD
   5
42
 100
AcDbSymbolTableRecord
 100
AcDbBlockTableRecord
   2
*D4
   0
BLOCK_RECORD
   5
43
 100
AcDbSymbolTableRecord
 100
AcDbBlockTableRecord
   2
*D5
   0
BLOCK_RECORD
   5
44
 100
AcDbSymbolTableRecord
 100
AcDbBlockTableRecord
   2
*D6
   0
BLOCK_RECORD
   5
45
 100
AcDbSymbolTableRecord
 100
AcDbBlockTableRecord
   2
*D7
   0
BLOCK_RECORD
   5
46
 100
AcDbSymbolTableRecord
 100
AcDbBlockTableRecord
   2
*D8
   0
BLOCK_RECORD
   5
47
 100
AcDbSymbolTableRecord
 100
AcDbBlockTableRecord
   2
*D9
   0
BLOCK_RECORD
   5
48
 100
AcDbSymbolTableRecord
 100
AcDbBlockTableRecord
   2
*D10
   0
BLOCK_RECORD
   5
49
 100
AcDbSymbolTableRecord
 100
AcDbBlockTableRecord
   2
*D11
   0
BLOCK_RECORD
   5
4A
 100
AcDbSymbolTableRecord
 100
AcDbBlockTableRecord
   2
*D12
   0
BLOCK_RECORD
   5
4B
 100
AcDbSymbolTableRecord
 100
AcDbBlockTableRecord
   2
*D13
   0
BLOCK_RECORD
   5
4C
 100
AcDbSymbolTableRecord
 100
AcDbBlockTableRecord
   2
*D14
   0
BLOCK_RECORD
   5
4D
 100
AcDbSymbolTableRecord
 100
AcDbBlockTableRecord
   2
*D15
   0
BLOCK_RECORD
   5
4E
 100
AcDbSymbolTableRecord
 100
AcDbBlockTableRecord
   2
*D16
   0
BLOCK_RECORD
   5
4F
 100
AcDbSymbolTableRecord
 100
AcDbBlockTableRecord
   2
*D17
   0
BLOCK_RECORD
   5
50
 100
AcDbSymbolTableRecord
 100
AcDbBlockTableRecord
   2
*D18
   0
BLOCK_RECORD
   5
51
 100
AcDbSymbolTableRecord
 100
AcDbBlockTableRecord
   2
_ARCHTICK
   0
BLOCK_RECORD
   5
52
 100
AcDbSymbolTableRecord
 100
AcDbBlockTableRecord
   2
_BOXBLANK
   0
BLOCK_RECORD
   5
53
 100
AcDbSymbolTableRecord
 100
AcDbBlockTableRecord
   2
_BOXFILLED
   0
BLOCK_RECORD
   5
54
 100
AcDbSymbolTableRecord
 100
AcDbBlockTableRecord
   2
_CLOSED
   0
BLOCK_RECORD
   5
55
 100
AcDbSymbolTableRecord
 100
AcDbBlockTableRecord
   2
_CLOSEDBLANK
   0
BLOCK_RECORD
   5
56
 100
AcDbSymbolTableRecord
 100
AcDbBlockTableRecord
   2
_DATUMBLANK
   0
BLOCK_RECORD
   5
57
 100
AcDbSymbolTableRecord
 100
AcDbBlockTableRecord
   2
_DATUMFILLED
   0
BLOCK_RECORD
   5
58
 100
AcDbSymbolTableRecord
 100
AcDbBlockTableRecord
   2
_DOT
   0
BLOCK_RECORD
   5
59
 100
AcDbSymbolTableRecord
 100
AcDbBlockTableRecord
   2
_DOTBLANK
   0
BLOCK_RECORD
   5
5A
 100
AcDbSymbolTableRecord
 100
AcDbBlockTableRecord
   2
_DOTSMALL
   0
BLOCK_RECORD
   5
5B
 100
AcDbSymbolTableRecord
 100
AcDbBlockTableRecord
   2
_INTEGRAL
   0
BLOCK_RECORD
   5
5C
 100
AcDbSymbolTableRecord
 100
AcDbBlockTableRecord
   2
_NONE
   0
BLOCK_RECORD
   5
5D
 100
AcDbSymbolTableRecord
 100
AcDbBlockTableRecord
   2
_OBLIQUE
   0
BLOCK_RECORD
   5
5E
 100
AcDbSymbolTableRecord
 100
AcDbBlockTableRecord
   2
_OPEN
   0
BLOCK_RECORD
   5
5F
 100
AcDbSymbolTableRecord
 100
AcDbBlockTableRecord
   2
_OPEN30
   0
BLOCK_RECORD
   5
60
 100
AcDbSymbolTableRecord
 100
AcDbBlockTableRecord
   2
_OPEN90
   0
BLOCK_RECORD
   5
61
 100
AcDbSymbolTableRecord
 100
AcDbBlockTableRecord
   2
_ORIGIN
   0
ENDTAB
   0
ENDSEC
  0
SECTION
  2
BLOCKS
  0
BLOCK
  5
19
100
AcDbEntity
  8
0
100
AcDbBlockBegin
  2
*MODEL_SPACE
 70
     0
 10
0.0
 20
0.0
 30
0.0
  3
*MODEL_SPACE
  1

  0
ENDBLK
  5
1A
100
AcDbEntity
  8
0
100
AcDbBlockEnd
  0
BLOCK
  5
16
100
AcDbEntity
 67
     1
  8
0
100
AcDbBlockBegin
  2
*PAPER_SPACE
 70
     0
 10
0.0
 20
0.0
 30
0.0
  3
*PAPER_SPACE
  1

  0
ENDBLK
  5
17
100
AcDbEntity
 67
     1
  8
0
100
AcDbBlockEnd
   0
BLOCK
   5
62
 100
AcDbEntity
   8
0
 100
AcDbBlockBegin
   2
_ARCHTICK
  70
0
  10
0.0
  20
0.0
  30
0.0
   3
_ARCHTICK
   0
POLYLINE
   5
63
 100
AcDbEntity
   8
0
   6
BYBLOCK
  62
0
 100
AcDb2dPolyline
  66
1
  10
0.0
  20
0.0
  30
0.0
  70
1
  40
 0.15000000000000
  41
 0.15000000000000
   0
VERTEX
   5
64
 100
AcDbEntity
   8
0
   6
BYBLOCK
  62
0
 100
AcDbVertex
 100
AcDb2dVertex
  10
-0.50000000000000
  20
-0.50000000000000
  30
0.0
  40
 0.15000000000000
  41
 0.15000000000000
   0
VERTEX
   5
65
 100
AcDbEntity
   8
0
   6
BYBLOCK
  62
0
 100
AcDbVertex
 100
AcDb2dVertex
  10
 0.50000000000000
  20
 0.50000000000000
  30
0.0
  40
 0.15000000000000
  41
 0.15000000000000
   0
SEQEND
   5
66
 100
AcDbEntity
   8
0
   6
BYBLOCK
  62
0
   0
ENDBLK
   5
67
 100
AcDbEntity
   8
0
 100
AcDbBlockEnd
   0
BLOCK
   5
68
 100
AcDbEntity
   8
0
 100
AcDbBlockBegin
   2
_OBLIQUE
  70
0
  10
0.0
  20
0.0
  30
0.0
   3
_OBLIQUE
   0
LINE
   5
69
 100
AcDbEntity
   8
0
 100
AcDbLine
   6
BYBLOCK
  62
0
  10
-0.50000000000000
  20
-0.50000000000000
  30
0.0
  11
 0.50000000000000
  21
 0.50000000000000
  31
0.0
   0
ENDBLK
   5
6A
 100
AcDbEntity
   8
0
 100
AcDbBlockEnd
   0
BLOCK
   5
6B
 100
AcDbEntity
   8
0
 100
AcDbBlockBegin
   2
_BOXBLANK
  70
0
  10
0.0
  20
0.0
  30
0.0
   3
_BOXBLANK
   0
LINE
   5
6C
 100
AcDbEntity
   8
0
 100
AcDbLine
   6
BYBLOCK
  62
0
  10
-0.50000000000000
  20
-0.50000000000000
  30
0.0
  11
 0.50000000000000
  21
-0.50000000000000
  31
0.0
   0
LINE
   5
6D
 100
AcDbEntity
   8
0
 100
AcDbLine
   6
BYBLOCK
  62
0
  10
 0.50000000000000
  20
-0.50000000000000
  30
0.0
  11
 0.50000000000000
  21
 0.50000000000000
  31
0.0
   0
LINE
   5
6E
 100
AcDbEntity
   8
0
 100
AcDbLine
   6
BYBLOCK
  62
0
  10
 0.50000000000000
  20
 0.50000000000000
  30
0.0
  11
-0.50000000000000
  21
 0.50000000000000
  31
0.0
   0
LINE
   5
6F
 100
AcDbEntity
   8
0
 100
AcDbLine
   6
BYBLOCK
  62
0
  10
-0.50000000000000
  20
 0.50000000000000
  30
0.0
  11
-0.50000000000000
  21
-0.50000000000000
  31
0.0
   0
LINE
   5
70
 100
AcDbEntity
   8
0
 100
AcDbLine
   6
BYBLOCK
  62
0
  10
-0.50000000000000
  20
0.0
  30
0.0
  11
-1.0000000000000
  21
0.0
  31
0.0
   0
ENDBLK
   5
71
 100
AcDbEntity
   8
0
 100
AcDbBlockEnd
   0
BLOCK
   5
72
 100
AcDbEntity
   8
0
 100
AcDbBlockBegin
   2
_BOXFILLED
  70
0
  10
0.0
  20
0.0
  30
0.0
   3
_BOXFILLED
   0
SOLID
   5
73
 100
AcDbEntity
   8
0
 100
AcDbTrace
   6
BYBLOCK
  62
0
  10
-0.50000000000000
  20
 0.50000000000000
  30
0.0
  11
 0.50000000000000
  21
 0.50000000000000
  31
0.0
  12
-0.50000000000000
  22
-0.50000000000000
  32
0.0
  13
 0.50000000000000
  23
-0.50000000000000
  33
0.0
   0
LINE
   5
74
 100
AcDbEntity
   8
0
 100
AcDbLine
   6
BYBLOCK
  62
0
  10
-0.50000000000000
  20
0.0
  30
0.0
  11
-1.0000000000000
  21
0.0
  31
0.0
   0
ENDBLK
   5
75
 100
AcDbEntity
   8
0
 100
AcDbBlockEnd
   0
BLOCK
   5
76
 100
AcDbEntity
   8
0
 100
AcDbBlockBegin
   2
_CLOSED
  70
0
  10
0.0
  20
0.0
  30
0.0
   3
_CLOSED
   0
LINE
   5
77
 100
AcDbEntity
   8
0
 100
AcDbLine
   6
BYBLOCK
  62
0
  10
-1.0000000000000
  20
 0.16666666666667
  30
0.0
  11
0.0
  21
0.0
  31
0.0
   0
LINE
   5
78
 100
AcDbEntity
   8
0
 100
AcDbLine
   6
BYBLOCK
  62
0
  10
0.0
  20
0.0
  30
0.0
  11
-1.0000000000000
  21
-0.16666666666667
  31
0.0
   0
LINE
   5
79
 100
AcDbEntity
   8
0
 100
AcDbLine
   6
BYBLOCK
  62
0
  10
-1.0000000000000
  20
 0.16666666666667
  30
0.0
  11
-1.0000000000000
  21
-0.16666666666667
  31
0.0
   0
LINE
   5
7A
 100
AcDbEntity
   8
0
 100
AcDbLine
   6
BYBLOCK
  62
0
  10
0.0
  20
0.0
  30
0.0
  11
-1.0000000000000
  21
0.0
  31
0.0
   0
ENDBLK
   5
7B
 100
AcDbEntity
   8
0
 100
AcDbBlockEnd
   0
BLOCK
   5
7C
 100
AcDbEntity
   8
0
 100
AcDbBlockBegin
   2
_OPEN
  70
0
  10
0.0
  20
0.0
  30
0.0
   3
_OPEN
   0
LINE
   5
7D
 100
AcDbEntity
   8
0
 100
AcDbLine
   6
BYBLOCK
  62
0
  10
-1.0000000000000
  20
 0.16666666666667
  30
0.0
  11
0.0
  21
0.0
  31
0.0
   0
LINE
   5
7E
 100
AcDbEntity
   8
0
 100
AcDbLine
   6
BYBLOCK
  62
0
  10
0.0
  20
0.0
  30
0.0
  11
-1.0000000000000
  21
-0.16666666666667
  31
0.0
   0
LINE
   5
7F
 100
AcDbEntity
   8
0
 100
AcDbLine
   6
BYBLOCK
  62
0
  10
0.0
  20
0.0
  30
0.0
  11
-1.0000000000000
  21
0.0
  31
0.0
   0
ENDBLK
   5
80
 100
AcDbEntity
   8
0
 100
AcDbBlockEnd
   0
BLOCK
   5
81
 100
AcDbEntity
   8
0
 100
AcDbBlockBegin
   2
_OPEN30
  70
0
  10
0.0
  20
0.0
  30
0.0
   3
_OPEN30
   0
LINE
   5
82
 100
AcDbEntity
   8
0
 100
AcDbLine
   6
BYBLOCK
  62
0
  10
-1.0000000000000
  20
 0.26794919243110
  30
0.0
  11
0.0
  21
0.0
  31
0.0
   0
LINE
   5
83
 100
AcDbEntity
   8
0
 100
AcDbLine
   6
BYBLOCK
  62
0
  10
0.0
  20
0.0
  30
0.0
  11
-1.0000000000000
  21
-0.26794919243110
  31
0.0
   0
LINE
   5
84
 100
AcDbEntity
   8
0
 100
AcDbLine
   6
BYBLOCK
  62
0
  10
0.0
  20
0.0
  30
0.0
  11
-1.0000000000000
  21
0.0
  31
0.0
   0
ENDBLK
   5
85
 100
AcDbEntity
   8
0
 100
AcDbBlockEnd
   0
BLOCK
   5
86
 100
AcDbEntity
   8
0
 100
AcDbBlockBegin
   2
_OPEN90
  70
0
  10
0.0
  20
0.0
  30
0.0
   3
_OPEN90
   0
LINE
   5
87
 100
AcDbEntity
   8
0
 100
AcDbLine
   6
BYBLOCK
  62
0
  10
-0.50000000000000
  20
 0.50000000000000
  30
0.0
  11
0.0
  21
0.0
  31
0.0
   0
LINE
   5
88
 100
AcDbEntity
   8
0
 100
AcDbLine
   6
BYBLOCK
  62
0
  10
0.0
  20
0.0
  30
0.0
  11
-0.50000000000000
  21
-0.50000000000000
  31
0.0
   0
LINE
   5
89
 100
AcDbEntity
   8
0
 100
AcDbLine
   6
BYBLOCK
  62
0
  10
0.0
  20
0.0
  30
0.0
  11
-1.0000000000000
  21
0.0
  31
0.0
   0
ENDBLK
   5
8A
 100
AcDbEntity
   8
0
 100
AcDbBlockEnd
   0
BLOCK
   5
8B
 100
AcDbEntity
   8
0
 100
AcDbBlockBegin
   2
_CLOSEDBLANK
  70
0
  10
0.0
  20
0.0
  30
0.0
   3
_CLOSEDBLANK
   0
LINE
   5
8C
 100
AcDbEntity
   8
0
 100
AcDbLine
   6
BYBLOCK
  62
0
  10
-1.0000000000000
  20
 0.16666666666667
  30
0.0
  11
0.0
  21
0.0
  31
0.0
   0
LINE
   5
8D
 100
AcDbEntity
   8
0
 100
AcDbLine
   6
BYBLOCK
  62
0
  10
0.0
  20
0.0
  30
0.0
  11
-1.0000000000000
  21
-0.16666666666667
  31
0.0
   0
LINE
   5
8E
 100
AcDbEntity
   8
0
 100
AcDbLine
   6
BYBLOCK
  62
0
  10
-1.0000000000000
  20
 0.16666666666667
  30
0.0
  11
-1.0000000000000
  21
-0.16666666666667
  31
0.0
   0
ENDBLK
   5
8F
 100
AcDbEntity
   8
0
 100
AcDbBlockEnd
   0
BLOCK
   5
90
 100
AcDbEntity
   8
0
 100
AcDbBlockBegin
   2
_DOT
  70
0
  10
0.0
  20
0.0
  30
0.0
   3
_DOT
   0
POLYLINE
   5
91
 100
AcDbEntity
   8
0
   6
BYBLOCK
  62
0
 100
AcDb2dPolyline
  66
1
  10
0.0
  20
0.0
  30
0.0
  70
1
  40
 0.50000000000000
  41
 0.50000000000000
   0
VERTEX
   5
92
 100
AcDbEntity
   8
0
   6
BYBLOCK
  62
0
 100
AcDbVertex
 100
AcDb2dVertex
  10
-0.25000000000000
  20
0.0
  30
0.0
  42
 1.0000000000000
  40
 0.50000000000000
  41
 0.50000000000000
   0
VERTEX
   5
93
 100
AcDbEntity
   8
0
   6
BYBLOCK
  62
0
 100
AcDbVertex
 100
AcDb2dVertex
  10
 0.25000000000000
  20
0.0
  30
0.0
  42
 1.0000000000000
  40
 0.50000000000000
  41
 0.50000000000000
   0
SEQEND
   5
94
 100
AcDbEntity
   8
0
   6
BYBLOCK
  62
0
   0
LINE
   5
95
 100
AcDbEntity
   8
0
 100
AcDbLine
   6
BYBLOCK
  62
0
  10
-0.50000000000000
  20
0.0
  30
0.0
  11
-1.0000000000000
  21
0.0
  31
0.0
   0
ENDBLK
   5
96
 100
AcDbEntity
   8
0
 100
AcDbBlockEnd
   0
BLOCK
   5
97
 100
AcDbEntity
   8
0
 100
AcDbBlockBegin
   2
_DOTSMALL
  70
0
  10
0.0
  20
0.0
  30
0.0
   3
_DOTSMALL
   0
POLYLINE
   5
98
 100
AcDbEntity
   8
0
   6
BYBLOCK
  62
0
 100
AcDb2dPolyline
  66
1
  10
0.0
  20
0.0
  30
0.0
  70
1
  40
 0.50000000000000
  41
 0.50000000000000
   0
VERTEX
   5
99
 100
AcDbEntity
   8
0
   6
BYBLOCK
  62
0
 100
AcDbVertex
 100
AcDb2dVertex
  10
-0.62500000000000E-1
  20
0.0
  30
0.0
  42
 1.0000000000000
  40
 0.50000000000000
  41
 0.50000000000000
   0
VERTEX
   5
9A
 100
AcDbEntity
   8
0
   6
BYBLOCK
  62
0
 100
AcDbVertex
 100
AcDb2dVertex
  10
 0.62500000000000E-1
  20
0.0
  30
0.0
  42
 1.0000000000000
  40
 0.50000000000000
  41
 0.50000000000000
   0
SEQEND
   5
9B
 100
AcDbEntity
   8
0
   6
BYBLOCK
  62
0
   0
ENDBLK
   5
9C
 100
AcDbEntity
   8
0
 100
AcDbBlockEnd
   0
BLOCK
   5
9D
 100
AcDbEntity
   8
0
 100
AcDbBlockBegin
   2
_DATUMBLANK
  70
0
  10
0.0
  20
0.0
  30
0.0
   3
_DATUMBLANK
   0
LINE
   5
9E
 100
AcDbEntity
   8
0
 100
AcDbLine
   6
BYBLOCK
  62
0
  10
0.0
  20
 0.57735027000000
  30
0.0
  11
-1.0000000000000
  21
0.0
  31
0.0
   0
LINE
   5
9F
 100
AcDbEntity
   8
0
 100
AcDbLine
   6
BYBLOCK
  62
0
  10
-1.0000000000000
  20
0.0
  30
0.0
  11
0.0
  21
-0.57735027000000
  31
0.0
   0
LINE
   5
A0
 100
AcDbEntity
   8
0
 100
AcDbLine
   6
BYBLOCK
  62
0
  10
0.0
  20
-0.57735027000000
  30
0.0
  11
0.0
  21
 0.57735027000000
  31
0.0
   0
ENDBLK
   5
A1
 100
AcDbEntity
   8
0
 100
AcDbBlockEnd
   0
BLOCK
   5
A2
 100
AcDbEntity
   8
0
 100
AcDbBlockBegin
   2
_DATUMFILLED
  70
0
  10
0.0
  20
0.0
  30
0.0
   3
_DATUMFILLED
   0
SOLID
   5
A3
 100
AcDbEntity
   8
0
 100
AcDbTrace
   6
BYBLOCK
  62
0
  10
0.0
  20
 0.57735027000000
  30
0.0
  11
-1.0000000000000
  21
0.0
  31
0.0
  12
0.0
  22
-0.57735027000000
  32
0.0
  13
0.0
  23
-0.57735027000000
  33
0.0
   0
ENDBLK
   5
A4
 100
AcDbEntity
   8
0
 100
AcDbBlockEnd
   0
BLOCK
   5
A5
 100
AcDbEntity
   8
0
 100
AcDbBlockBegin
   2
_ORIGIN
  70
0
  10
0.0
  20
0.0
  30
0.0
   3
_ORIGIN
   0
CIRCLE
   5
A6
 100
AcDbEntity
   8
0
 100
AcDbCircle
   6
BYBLOCK
  62
0
  10
0.0
  20
0.0
  30
0.0
  40
 0.50000000000000
   0
LINE
   5
A7
 100
AcDbEntity
   8
0
 100
AcDbLine
   6
BYBLOCK
  62
0
  10
0.0
  20
0.0
  30
0.0
  11
-1.0000000000000
  21
0.0
  31
0.0
   0
ENDBLK
   5
A8
 100
AcDbEntity
   8
0
 100
AcDbBlockEnd
   0
BLOCK
   5
A9
 100
AcDbEntity
   8
0
 100
AcDbBlockBegin
   2
_NONE
  70
0
  10
0.0
  20
0.0
  30
0.0
   3
_NONE
   0
CIRCLE
   5
AA
 100
AcDbEntity
   8
0
 100
AcDbCircle
   6
BYBLOCK
  62
0
  10
0.0
  20
0.0
  30
0.0
  40
 0.25000000000000
   0
ENDBLK
   5
AB
 100
AcDbEntity
   8
0
 100
AcDbBlockEnd
   0
BLOCK
   5
AC
 100
AcDbEntity
   8
0
 100
AcDbBlockBegin
   2
_DOTBLANK
  70
0
  10
0.0
  20
0.0
  30
0.0
   3
_DOTBLANK
   0
CIRCLE
   5
AD
 100
AcDbEntity
   8
0
 100
AcDbCircle
   6
BYBLOCK
  62
0
  10
0.0
  20
0.0
  30
0.0
  40
 0.50000000000000
   0
LINE
   5
AE
 100
AcDbEntity
   8
0
 100
AcDbLine
   6
BYBLOCK
  62
0
  10
-0.50000000000000
  20
0.0
  30
0.0
  11
-1.0000000000000
  21
0.0
  31
0.0
   0
ENDBLK
   5
AF
 100
AcDbEntity
   8
0
 100
AcDbBlockEnd
   0
BLOCK
   5
B0
 100
AcDbEntity
   8
0
 100
AcDbBlockBegin
   2
_INTEGRAL
  70
0
  10
0.0
  20
0.0
  30
0.0
   3
_INTEGRAL
   0
ARC
   5
B1
 100
AcDbEntity
   8
0
   6
BYBLOCK
  62
0
 100
AcDbCircle
  10
 0.44488800000000
  20
-0.91335000000000E-1
  30
0.0
  40
 0.45416700000000
 100
AcDbArc
  50
 102.00000000000
  51
 168.00000000000
   0
ARC
   5
B2
 100
AcDbEntity
   8
0
   6
BYBLOCK
  62
0
 100
AcDbCircle
  10
-0.44488800000000
  20
 0.91335000000000E-1
  30
0.0
  40
 0.45416700000000
 100
AcDbArc
  50
 282.00000000000
  51
 348.00000000000
   0
ENDBLK
   5
B3
 100
AcDbEntity
   8
0
 100
AcDbBlockEnd
   0
BLOCK
   5
B4
 100
AcDbEntity
   8
0
 100
AcDbBlockBegin
   2
*D1
  70
65
  10
0.0
  20
0.0
  30
0.0
   3
*D1
   0
LINE
   5
B5
 100
AcDbEntity
   8
LEVEL001
 100
AcDbLine
   6
CONTINUOUS
  62
3
  10
 306.94822474981
  20
 219.91906600082
  30
0.0
  11
 312.17135932793
  21
 232.22399995371
  31
0.0
   0
LINE
   5
B6
 100
AcDbEntity
   8
LEVEL001
 100
AcDbLine
   6
CONTINUOUS
  62
3
  10
 303.44101280472
  20
 220.13679887667
  30
0.0
  11
 298.31030034906
  21
 232.22399995371
  31
0.0
   0
ARC
   5
B7
 100
AcDbEntity
   8
LEVEL001
   6
CONTINUOUS
  62
3
 100
AcDbCircle
  10
 305.24082983849
  20
 215.89669565961
  30
0.0
  40
 16.737336454947
 100
AcDbArc
  50
 67.000000000000
  51
 89.999999999997
   0
ARC
   5
B8
 100
AcDbEntity
   8
LEVEL001
   6
CONTINUOUS
  62
3
 100
AcDbCircle
  10
 305.24082983849
  20
 215.89669565961
  30
0.0
  40
 16.737336454947
 100
AcDbArc
  50
 89.999999999997
  51
 113.00000000000
   0
INSERT
   5
B9
 100
AcDbEntity
   8
LEVEL001
   6
CONTINUOUS
  62
3
 100
AcDbBlockReference
   2
_OPEN30
  10
 311.78062819944
  20
 231.30349510026
  30
0.0
  41
 3.0000000000000
  42
 3.0000000000000
  43
 3.0000000000000
  50
 337.00000000000
   0
INSERT
   5
BA
 100
AcDbEntity
   8
LEVEL001
   6
CONTINUOUS
  62
3
 100
AcDbBlockReference
   2
_OPEN30
  10
 298.70103147755
  20
 231.30349510026
  30
0.0
  41
 3.0000000000000
  42
 3.0000000000000
  43
 3.0000000000000
  50
 203.00000000000
   0
MTEXT
   5
BB
 100
AcDbEntity
   8
LEVEL001
  62
3
 100
AcDbMText
  10
 305.24082983849
  20
 234.34831782884
  30
0.0
  40
 4.0000000000000
  41
0.0
  71
8
  72
1
   1
\A1;46%%d
   7
GMM001
   0
ENDBLK
   5
BC
 100
AcDbEntity
   8
0
 100
AcDbBlockEnd
   0
BLOCK
   5
BD
 100
AcDbEntity
   8
0
 100
AcDbBlockBegin
   2
*D2
  70
65
  10
0.0
  20
0.0
  30
0.0
   3
*D2
   0
LINE
   5
BE
 100
AcDbEntity
   8
LEVEL001
 100
AcDbLine
   6
CONTINUOUS
  62
3
  10
 304.24082983849
  20
 198.39669565961
  30
0.0
  11
 276.13302561064
  21
 198.39669565961
  31
0.0
   0
LINE
   5
BF
 100
AcDbEntity
   8
LEVEL001
 100
AcDbLine
   6
CONTINUOUS
  62
3
  10
 285.74082983849
  20
 155.89669565961
  30
0.0
  11
 276.13302561064
  21
 155.89669565961
  31
0.0
   0
LINE
   5
C0
 100
AcDbEntity
   8
LEVEL001
 100
AcDbLine
   6
CONTINUOUS
  62
3
  10
 277.13302561064
  20
 198.39669565961
  30
0.0
  11
 277.13302561064
  21
 177.14669565961
  31
0.0
   0
LINE
   5
C1
 100
AcDbEntity
   8
LEVEL001
 100
AcDbLine
   6
CONTINUOUS
  62
3
  10
 277.13302561064
  20
 155.89669565961
  30
0.0
  11
 277.13302561064
  21
 177.14669565961
  31
0.0
   0
INSERT
   5
C2
 100
AcDbEntity
   8
LEVEL001
   6
CONTINUOUS
  62
3
 100
AcDbBlockReference
   2
_OPEN30
  10
 277.13302561064
  20
 198.39669565961
  30
0.0
  41
 3.0000000000000
  42
 3.0000000000000
  43
 3.0000000000000
  50
 90.000000000000
   0
INSERT
   5
C3
 100
AcDbEntity
   8
LEVEL001
   6
CONTINUOUS
  62
3
 100
AcDbBlockReference
   2
_OPEN30
  10
 277.13302561064
  20
 155.89669565961
  30
0.0
  41
 3.0000000000000
  42
 3.0000000000000
  43
 3.0000000000000
  50
 270.00000000000
   0
MTEXT
   5
C4
 100
AcDbEntity
   8
LEVEL001
  62
3
 100
AcDbMText
  10
 275.41873989635
  20
 177.14669565961
  30
0.0
  40
 4.0000000000000
  41
0.0
  71
8
  72
1
   1
\A1;42.5
   7
GMM001
  11
0.0
  21
 1.0000000000000
  31
0.0
   0
ENDBLK
   5
C5
 100
AcDbEntity
   8
0
 100
AcDbBlockEnd
   0
BLOCK
   5
C6
 100
AcDbEntity
   8
0
 100
AcDbBlockBegin
   2
*D3
  70
65
  10
0.0
  20
0.0
  30
0.0
   3
*D3
   0
LINE
   5
C7
 100
AcDbEntity
   8
LEVEL001
 100
AcDbLine
   6
CONTINUOUS
  62
3
  10
 195.42671406094
  20
 204.02194625054
  30
0.0
  11
 195.42671406094
  21
 212.94694951920
  31
0.0
   0
LINE
   5
C8
 100
AcDbEntity
   8
LEVEL001
 100
AcDbLine
   6
CONTINUOUS
  62
3
  10
 214.42671406094
  20
 204.02194625054
  30
0.0
  11
 214.42671406094
  21
 212.94694951920
  31
0.0
   0
LINE
   5
C9
 100
AcDbEntity
   8
LEVEL001
 100
AcDbLine
   6
CONTINUOUS
  62
3
  10
 195.42671406094
  20
 211.94694951920
  30
0.0
  11
 204.92671406094
  21
 211.94694951920
  31
0.0
   0
LINE
   5
CA
 100
AcDbEntity
   8
LEVEL001
 100
AcDbLine
   6
CONTINUOUS
  62
3
  10
 214.42671406094
  20
 211.94694951920
  30
0.0
  11
 204.92671406094
  21
 211.94694951920
  31
0.0
   0
INSERT
   5
CB
 100
AcDbEntity
   8
LEVEL001
   6
CONTINUOUS
  62
3
 100
AcDbBlockReference
   2
_OPEN30
  10
 195.42671406094
  20
 211.94694951920
  30
0.0
  41
 3.0000000000000
  42
 3.0000000000000
  43
 3.0000000000000
  50
 180.00000000000
   0
INSERT
   5
CC
 100
AcDbEntity
   8
LEVEL001
   6
CONTINUOUS
  62
3
 100
AcDbBlockReference
   2
_OPEN30
  10
 214.42671406094
  20
 211.94694951920
  30
0.0
  41
 3.0000000000000
  42
 3.0000000000000
  43
 3.0000000000000
  50
0.0
   0
MTEXT
   5
CD
 100
AcDbEntity
   8
LEVEL001
  62
3
 100
AcDbMText
  10
 204.92671406094
  20
 213.66123523349
  30
0.0
  40
 4.0000000000000
  41
0.0
  71
8
  72
1
   1
\A1;19
   7
GMM001
   0
ENDBLK
   5
CE
 100
AcDbEntity
   8
0
 100
AcDbBlockEnd
   0
BLOCK
   5
CF
 100
AcDbEntity
   8
0
 100
AcDbBlockBegin
   2
*D4
  70
65
  10
0.0
  20
0.0
  30
0.0
   3
*D4
   0
LINE
   5
D0
 100
AcDbEntity
   8
LEVEL001
 100
AcDbLine
   6
CONTINUOUS
  62
3
  10
 323.44082983849
  20
 163.41966823607
  30
0.0
  11
 323.54798548404
  21
 163.52463331421
  31
0.0
   0
LINE
   5
D1
 100
AcDbEntity
   8
LEVEL001
 100
AcDbLine
   6
CONTINUOUS
  62
3
  10
 323.54798548404
  20
 163.52463331421
  30
0.0
  11
 336.57866857380
  21
 176.28893202824
  31
0.0
   0
INSERT
   5
D2
 100
AcDbEntity
   8
LEVEL001
   6
CONTINUOUS
  62
3
 100
AcDbBlockReference
   2
_OPEN30
  10
 323.65514112958
  20
 163.62959839234
  30
0.0
  41
 3.0000000000000
  42
 3.0000000000000
  43
 3.0000000000000
  50
 224.40832840912
   0
MTEXT
   5
D3
 100
AcDbEntity
   8
LEVEL001
  62
3
 100
AcDbMText
  10
 325.87793377574
  20
 168.20666438285
  30
0.0
  40
 4.0000000000000
  41
0.0
  71
7
  72
1
   1
\A1;R0.3
   7
GMM001
  11
 0.71437097030887
  21
 0.69976718755595
  31
0.0
   0
ENDBLK
   5
D4
 100
AcDbEntity
   8
0
 100
AcDbBlockEnd
   0
BLOCK
   5
D5
 100
AcDbEntity
   8
0
 100
AcDbBlockBegin
   2
*D5
  70
65
  10
0.0
  20
0.0
  30
0.0
   3
*D5
   0
LINE
   5
D6
 100
AcDbEntity
   8
LEVEL001
 100
AcDbLine
   6
CONTINUOUS
  62
3
  10
 103.53723645376
  20
 155.89669565961
  30
0.0
  11
 95.030037871182
  21
 155.89669565961
  31
0.0
   0
LINE
   5
D7
 100
AcDbEntity
   8
LEVEL001
 100
AcDbLine
   6
CONTINUOUS
  62
3
  10
 103.53723645376
  20
 163.69669565961
  30
0.0
  11
 95.030037871182
  21
 163.69669565961
  31
0.0
   0
LINE
   5
D8
 100
AcDbEntity
   8
LEVEL001
 100
AcDbLine
   6
CONTINUOUS
  62
3
  10
 96.030037871182
  20
 155.89669565961
  30
0.0
  11
 96.030037871182
  21
 159.79669565961
  31
0.0
   0
LINE
   5
D9
 100
AcDbEntity
   8
LEVEL001
 100
AcDbLine
   6
CONTINUOUS
  62
3
  10
 96.030037871182
  20
 163.69669565961
  30
0.0
  11
 96.030037871182
  21
 159.79669565961
  31
0.0
   0
INSERT
   5
DA
 100
AcDbEntity
   8
LEVEL001
   6
CONTINUOUS
  62
3
 100
AcDbBlockReference
   2
_OPEN30
  10
 96.030037871182
  20
 155.89669565961
  30
0.0
  41
 3.0000000000000
  42
 3.0000000000000
  43
 3.0000000000000
  50
 270.00000000000
   0
INSERT
   5
DB
 100
AcDbEntity
   8
LEVEL001
   6
CONTINUOUS
  62
3
 100
AcDbBlockReference
   2
_OPEN30
  10
 96.030037871182
  20
 163.69669565961
  30
0.0
  41
 3.0000000000000
  42
 3.0000000000000
  43
 3.0000000000000
  50
 90.000000000000
   0
MTEXT
   5
DC
 100
AcDbEntity
   8
LEVEL001
  62
3
 100
AcDbMText
  10
 94.315752156897
  20
 159.79669565961
  30
0.0
  40
 4.0000000000000
  41
0.0
  71
8
  72
1
   1
\A1;7.8
   7
GMM001
  11
0.0
  21
 1.0000000000000
  31
0.0
   0
ENDBLK
   5
DD
 100
AcDbEntity
   8
0
 100
AcDbBlockEnd
   0
BLOCK
   5
DE
 100
AcDbEntity
   8
0
 100
AcDbBlockBegin
   2
*D6
  70
65
  10
0.0
  20
0.0
  30
0.0
   3
*D6
   0
LINE
   5
DF
 100
AcDbEntity
   8
LEVEL001
 100
AcDbLine
   6
CONTINUOUS
  62
3
  10
 94.030037871182
  20
 155.89669565961
  30
0.0
  11
 86.215059081012
  21
 155.89669565961
  31
0.0
   0
LINE
   5
E0
 100
AcDbEntity
   8
LEVEL001
 100
AcDbLine
   6
CONTINUOUS
  62
3
  10
 118.58420800745
  20
 164.89669565961
  30
0.0
  11
 86.215059081012
  21
 164.89669565961
  31
0.0
   0
LINE
   5
E1
 100
AcDbEntity
   8
LEVEL001
 100
AcDbLine
   6
CONTINUOUS
  62
3
  10
 87.215059081012
  20
 155.89669565961
  30
0.0
  11
 87.215059081012
  21
 160.39669565961
  31
0.0
   0
LINE
   5
E2
 100
AcDbEntity
   8
LEVEL001
 100
AcDbLine
   6
CONTINUOUS
  62
3
  10
 87.215059081012
  20
 164.89669565961
  30
0.0
  11
 87.215059081012
  21
 160.39669565961
  31
0.0
   0
INSERT
   5
E3
 100
AcDbEntity
   8
LEVEL001
   6
CONTINUOUS
  62
3
 100
AcDbBlockReference
   2
_OPEN30
  10
 87.215059081012
  20
 155.89669565961
  30
0.0
  41
 3.0000000000000
  42
 3.0000000000000
  43
 3.0000000000000
  50
 270.00000000000
   0
INSERT
   5
E4
 100
AcDbEntity
   8
LEVEL001
   6
CONTINUOUS
  62
3
 100
AcDbBlockReference
   2
_OPEN30
  10
 87.215059081012
  20
 164.89669565961
  30
0.0
  41
 3.0000000000000
  42
 3.0000000000000
  43
 3.0000000000000
  50
 90.000000000000
   0
MTEXT
   5
E5
 100
AcDbEntity
   8
LEVEL001
  62
3
 100
AcDbMText
  10
 85.500773366727
  20
 160.39669565961
  30
0.0
  40
 4.0000000000000
  41
0.0
  71
8
  72
1
   1
\A1;9
   7
GMM001
  11
0.0
  21
 1.0000000000000
  31
0.0
   0
ENDBLK
   5
E6
 100
AcDbEntity
   8
0
 100
AcDbBlockEnd
   0
BLOCK
   5
E7
 100
AcDbEntity
   8
0
 100
AcDbBlockBegin
   2
*D7
  70
65
  10
0.0
  20
0.0
  30
0.0
   3
*D7
   0
LINE
   5
E8
 100
AcDbEntity
   8
LEVEL001
 100
AcDbLine
   6
CONTINUOUS
  62
3
  10
 111.53723645376
  20
 202.64888881084
  30
0.0
  11
 111.53723645376
  21
 223.00880630093
  31
0.0
   0
LINE
   5
E9
 100
AcDbEntity
   8
LEVEL001
 100
AcDbLine
   6
CONTINUOUS
  62
3
  10
 134.53723645376
  20
 202.64888881084
  30
0.0
  11
 134.53723645376
  21
 223.00880630093
  31
0.0
   0
LINE
   5
EA
 100
AcDbEntity
   8
LEVEL001
 100
AcDbLine
   6
CONTINUOUS
  62
3
  10
 111.53723645376
  20
 222.00880630093
  30
0.0
  11
 123.03723645376
  21
 222.00880630093
  31
0.0
   0
LINE
   5
EB
 100
AcDbEntity
   8
LEVEL001
 100
AcDbLine
   6
CONTINUOUS
  62
3
  10
 134.53723645376
  20
 222.00880630093
  30
0.0
  11
 123.03723645376
  21
 222.00880630093
  31
0.0
   0
INSERT
   5
EC
 100
AcDbEntity
   8
LEVEL001
   6
CONTINUOUS
  62
3
 100
AcDbBlockReference
   2
_OPEN30
  10
 111.53723645376
  20
 222.00880630093
  30
0.0
  41
 3.0000000000000
  42
 3.0000000000000
  43
 3.0000000000000
  50
 180.00000000000
   0
INSERT
   5
ED
 100
AcDbEntity
   8
LEVEL001
   6
CONTINUOUS
  62
3
 100
AcDbBlockReference
   2
_OPEN30
  10
 134.53723645376
  20
 222.00880630093
  30
0.0
  41
 3.0000000000000
  42
 3.0000000000000
  43
 3.0000000000000
  50
0.0
   0
MTEXT
   5
EE
 100
AcDbEntity
   8
LEVEL001
  62
3
 100
AcDbMText
  10
 123.03723645376
  20
 223.72309201522
  30
0.0
  40
 4.0000000000000
  41
0.0
  71
8
  72
1
   1
\A1;23
   7
GMM001
   0
ENDBLK
   5
EF
 100
AcDbEntity
   8
0
 100
AcDbBlockEnd
   0
BLOCK
   5
F0
 100
AcDbEntity
   8
0
 100
AcDbBlockBegin
   2
*D8
  70
65
  10
0.0
  20
0.0
  30
0.0
   3
*D8
   0
LINE
   5
F1
 100
AcDbEntity
   8
LEVEL001
 100
AcDbLine
   6
CONTINUOUS
  62
3
  10
 123.03723645376
  20
 215.89669565961
  30
0.0
  11
 127.16967624365
  21
 208.18401510206
  31
0.0
   0
LINE
   5
F2
 100
AcDbEntity
   8
LEVEL001
 100
AcDbLine
   6
CONTINUOUS
  62
3
  10
 127.16967624365
  20
 208.18401510206
  30
0.0
  11
 141.98278648575
  21
 180.53720276604
  31
0.0
   0
INSERT
   5
F3
 100
AcDbEntity
   8
LEVEL001
   6
CONTINUOUS
  62
3
 100
AcDbBlockReference
   2
_OPEN30
  10
 131.30211603355
  20
 200.47133454450
  30
0.0
  41
 3.0000000000000
  42
 3.0000000000000
  43
 3.0000000000000
  50
 118.18232248784
   0
MTEXT
   5
F4
 100
AcDbEntity
   8
LEVEL001
  62
3
 100
AcDbMText
  10
 135.41787422192
  20
 196.41960505531
  30
0.0
  40
 4.0000000000000
  41
0.0
  71
7
  72
1
   1
\A1;R17.5
   7
GMM001
  11
 0.47227883313100
  21
-0.88144920657768
  31
0.0
   0
ENDBLK
   5
F5
 100
AcDbEntity
   8
0
 100
AcDbBlockEnd
   0
BLOCK
   5
F6
 100
AcDbEntity
   8
0
 100
AcDbBlockBegin
   2
*D9
  70
65
  10
0.0
  20
0.0
  30
0.0
   3
*D9
   0
LINE
   5
F7
 100
AcDbEntity
   8
LEVEL001
 100
AcDbLine
   6
CONTINUOUS
  62
3
  10
 120.03723645376
  20
 174.23314648895
  30
0.0
  11
 120.03723645376
  21
 175.23314648895
  31
0.0
   0
LINE
   5
F8
 100
AcDbEntity
   8
LEVEL001
 100
AcDbLine
   6
CONTINUOUS
  62
3
  10
 112.87748157278
  20
 174.23314648895
  30
0.0
  11
 123.03723645376
  21
 174.23314648895
  31
0.0
   0
LINE
   5
F9
 100
AcDbEntity
   8
LEVEL001
 100
AcDbLine
   6
CONTINUOUS
  62
3
  10
 129.78723645376
  20
 174.23314648895
  30
0.0
  11
 123.03723645376
  21
 174.23314648895
  31
0.0
   0
INSERT
   5
FA
 100
AcDbEntity
   8
LEVEL001
   6
CONTINUOUS
  62
3
 100
AcDbBlockReference
   2
_OPEN30
  10
 120.03723645376
  20
 174.23314648895
  30
0.0
  41
 3.0000000000000
  42
 3.0000000000000
  43
 3.0000000000000
  50
0.0
   0
INSERT
   5
FB
 100
AcDbEntity
   8
LEVEL001
   6
CONTINUOUS
  62
3
 100
AcDbBlockReference
   2
_OPEN30
  10
 126.03723645376
  20
 174.23314648895
  30
0.0
  41
 3.0000000000000
  42
 3.0000000000000
  43
 3.0000000000000
  50
 180.00000000000
   0
MTEXT
   5
FC
 100
AcDbEntity
   8
LEVEL001
  62
3
 100
AcDbMText
  10
 116.67748157278
  20
 176.26760637949
  30
0.0
  40
 4.0000000000000
  41
0.0
  71
9
  72
1
   1
\A1;6
   7
GMM001
   0
ENDBLK
   5
FD
 100
AcDbEntity
   8
0
 100
AcDbBlockEnd
   0
BLOCK
   5
FE
 100
AcDbEntity
   8
0
 100
AcDbBlockBegin
   2
*D10
  70
65
  10
0.0
  20
0.0
  30
0.0
   3
*D10
   0
LINE
   5
FF
 100
AcDbEntity
   8
LEVEL001
 100
AcDbLine
   6
CONTINUOUS
  62
3
  10
 142.53723645376
  20
 155.89669565961
  30
0.0
  11
 159.13399769588
  21
 155.89669565961
  31
0.0
   0
LINE
   5
100
 100
AcDbEntity
   8
LEVEL001
 100
AcDbLine
   6
CONTINUOUS
  62
3
  10
 132.51681496307
  20
 215.89669565961
  30
0.0
  11
 159.13399769588
  21
 215.89669565961
  31
0.0
   0
LINE
   5
101
 100
AcDbEntity
   8
LEVEL001
 100
AcDbLine
   6
CONTINUOUS
  62
3
  10
 158.13399769588
  20
 155.89669565961
  30
0.0
  11
 158.13399769588
  21
 185.89669565961
  31
0.0
   0
LINE
   5
102
 100
AcDbEntity
   8
LEVEL001
 100
AcDbLine
   6
CONTINUOUS
  62
3
  10
 158.13399769588
  20
 215.89669565961
  30
0.0
  11
 158.13399769588
  21
 185.89669565961
  31
0.0
   0
INSERT
   5
103
 100
AcDbEntity
   8
LEVEL001
   6
CONTINUOUS
  62
3
 100
AcDbBlockReference
   2
_OPEN30
  10
 158.13399769588
  20
 155.89669565961
  30
0.0
  41
 3.0000000000000
  42
 3.0000000000000
  43
 3.0000000000000
  50
 270.00000000000
   0
INSERT
   5
104
 100
AcDbEntity
   8
LEVEL001
   6
CONTINUOUS
  62
3
 100
AcDbBlockReference
   2
_OPEN30
  10
 158.13399769588
  20
 215.89669565961
  30
0.0
  41
 3.0000000000000
  42
 3.0000000000000
  43
 3.0000000000000
  50
 90.000000000000
   0
MTEXT
   5
105
 100
AcDbEntity
   8
LEVEL001
  62
3
 100
AcDbMText
  10
 156.41971198159
  20
 185.89669565961
  30
0.0
  40
 4.0000000000000
  41
0.0
  71
8
  72
1
   1
\A1;60
   7
GMM001
  11
0.0
  21
 1.0000000000000
  31
0.0
   0
ENDBLK
   5
106
 100
AcDbEntity
   8
0
 100
AcDbBlockEnd
   0
BLOCK
   5
107
 100
AcDbEntity
   8
0
 100
AcDbBlockBegin
   2
*D11
  70
65
  10
0.0
  20
0.0
  30
0.0
   3
*D11
   0
POLYLINE
   5
108
 100
AcDbEntity
   8
LEVEL001
   6
CONTINUOUS
  62
3
 100
AcDb2dPolyline
  66
1
  10
0.0
  20
0.0
  30
0.0
  70
0
   0
VERTEX
   5
109
 100
AcDbEntity
   8
LEVEL001
   6
CONTINUOUS
  62
3
 100
AcDbVertex
 100
AcDb2dVertex
  10
 218.76898548942
  20
 201.91562321597
  30
0.0
   0
VERTEX
   5
10A
 100
AcDbEntity
   8
LEVEL001
   6
CONTINUOUS
  62
3
 100
AcDbVertex
 100
AcDb2dVertex
  10
 223.94081698606
  20
 211.01785931814
  30
0.0
   0
VERTEX
   5
10B
 100
AcDbEntity
   8
LEVEL001
   6
CONTINUOUS
  62
3
 100
AcDbVertex
 100
AcDb2dVertex
  10
 237.24081698606
  20
 211.01785931814
  30
0.0
   0
SEQEND
   5
10C
 100
AcDbEntity
   8
LEVEL001
   6
CONTINUOUS
  62
3
   0
INSERT
   5
10D
 100
AcDbEntity
   8
LEVEL001
   6
CONTINUOUS
  62
3
 100
AcDbBlockReference
   2
_OPEN30
  10
 218.76898548942
  20
 201.91562321597
  30
0.0
  41
 3.0000000000000
  42
 3.0000000000000
  43
 3.0000000000000
  50
 240.39504276825
   0
MTEXT
   5
10E
 100
AcDbEntity
   8
LEVEL001
  62
3
 100
AcDbMText
  10
 223.94081698606
  20
 212.73214503242
  30
0.0
  40
 4.0000000000000
  41
0.0
  71
7
  72
1
   1
\A1;Ｒ０.５
   7
GMM001
   0
ENDBLK
   5
10F
 100
AcDbEntity
   8
0
 100
AcDbBlockEnd
   0
BLOCK
   5
110
 100
AcDbEntity
   8
0
 100
AcDbBlockBegin
   2
*D12
  70
65
  10
0.0
  20
0.0
  30
0.0
   3
*D12
   0
LINE
   5
111
 100
AcDbEntity
   8
LEVEL001
 100
AcDbLine
   6
CONTINUOUS
  62
3
  10
 190.92671406094
  20
 203.05113690725
  30
0.0
  11
 190.92671406094
  21
 221.77309426474
  31
0.0
   0
LINE
   5
112
 100
AcDbEntity
   8
LEVEL001
 100
AcDbLine
   6
CONTINUOUS
  62
3
  10
 218.92671406094
  20
 203.05113690725
  30
0.0
  11
 218.92671406094
  21
 221.77309426474
  31
0.0
   0
LINE
   5
113
 100
AcDbEntity
   8
LEVEL001
 100
AcDbLine
   6
CONTINUOUS
  62
3
  10
 190.92671406094
  20
 220.77309426474
  30
0.0
  11
 204.92671406094
  21
 220.77309426474
  31
0.0
   0
LINE
   5
114
 100
AcDbEntity
   8
LEVEL001
 100
AcDbLine
   6
CONTINUOUS
  62
3
  10
 218.92671406094
  20
 220.77309426474
  30
0.0
  11
 204.92671406094
  21
 220.77309426474
  31
0.0
   0
INSERT
   5
115
 100
AcDbEntity
   8
LEVEL001
   6
CONTINUOUS
  62
3
 100
AcDbBlockReference
   2
_OPEN30
  10
 190.92671406094
  20
 220.77309426474
  30
0.0
  41
 3.0000000000000
  42
 3.0000000000000
  43
 3.0000000000000
  50
 180.00000000000
   0
INSERT
   5
116
 100
AcDbEntity
   8
LEVEL001
   6
CONTINUOUS
  62
3
 100
AcDbBlockReference
   2
_OPEN30
  10
 218.92671406094
  20
 220.77309426474
  30
0.0
  41
 3.0000000000000
  42
 3.0000000000000
  43
 3.0000000000000
  50
0.0
   0
MTEXT
   5
117
 100
AcDbEntity
   8
LEVEL001
  62
3
 100
AcDbMText
  10
 204.92671406094
  20
 222.48737997903
  30
0.0
  40
 4.0000000000000
  41
0.0
  71
8
  72
1
   1
\A1;28
   7
GMM001
   0
ENDBLK
   5
118
 100
AcDbEntity
   8
0
 100
AcDbBlockEnd
   0
BLOCK
   5
119
 100
AcDbEntity
   8
0
 100
AcDbBlockBegin
   2
*D13
  70
65
  10
0.0
  20
0.0
  30
0.0
   3
*D13
   0
LINE
   5
11A
 100
AcDbEntity
   8
LEVEL001
 100
AcDbLine
   6
CONTINUOUS
  62
3
  10
 222.16681069378
  20
 112.61575886174
  30
0.0
  11
 234.98764883430
  21
 112.61575886174
  31
0.0
   0
LINE
   5
11B
 100
AcDbEntity
   8
LEVEL001
 100
AcDbLine
   6
CONTINUOUS
  62
3
  10
 222.16681069378
  20
 87.615758861740
  30
0.0
  11
 234.98764883430
  21
 87.615758861740
  31
0.0
   0
LINE
   5
11C
 100
AcDbEntity
   8
LEVEL001
 100
AcDbLine
   6
CONTINUOUS
  62
3
  10
 233.98764883430
  20
 112.61575886174
  30
0.0
  11
 233.98764883430
  21
 100.11575886174
  31
0.0
   0
LINE
   5
11D
 100
AcDbEntity
   8
LEVEL001
 100
AcDbLine
   6
CONTINUOUS
  62
3
  10
 233.98764883430
  20
 87.615758861740
  30
0.0
  11
 233.98764883430
  21
 100.11575886174
  31
0.0
   0
INSERT
   5
11E
 100
AcDbEntity
   8
LEVEL001
   6
CONTINUOUS
  62
3
 100
AcDbBlockReference
   2
_OPEN30
  10
 233.98764883430
  20
 112.61575886174
  30
0.0
  41
 3.0000000000000
  42
 3.0000000000000
  43
 3.0000000000000
  50
 90.000000000000
   0
INSERT
   5
11F
 100
AcDbEntity
   8
LEVEL001
   6
CONTINUOUS
  62
3
 100
AcDbBlockReference
   2
_OPEN30
  10
 233.98764883430
  20
 87.615758861740
  30
0.0
  41
 3.0000000000000
  42
 3.0000000000000
  43
 3.0000000000000
  50
 270.00000000000
   0
MTEXT
   5
120
 100
AcDbEntity
   8
LEVEL001
  62
3
 100
AcDbMText
  10
 232.27336312002
  20
 100.11575886174
  30
0.0
  40
 4.0000000000000
  41
0.0
  71
8
  72
1
   1
\A1;25
   7
GMM001
  11
0.0
  21
 1.0000000000000
  31
0.0
   0
ENDBLK
   5
121
 100
AcDbEntity
   8
0
 100
AcDbBlockEnd
   0
BLOCK
   5
122
 100
AcDbEntity
   8
0
 100
AcDbBlockBegin
   2
*D14
  70
65
  10
0.0
  20
0.0
  30
0.0
   3
*D14
   0
LINE
   5
123
 100
AcDbEntity
   8
LEVEL001
 100
AcDbLine
   6
CONTINUOUS
  62
3
  10
 197.42671406094
  20
 121.89022130812
  30
0.0
  11
 197.42671406094
  21
 130.57367637809
  31
0.0
   0
LINE
   5
124
 100
AcDbEntity
   8
LEVEL001
 100
AcDbLine
   6
CONTINUOUS
  62
3
  10
 212.42671406094
  20
 121.89022130812
  30
0.0
  11
 212.42671406094
  21
 130.57367637809
  31
0.0
   0
LINE
   5
125
 100
AcDbEntity
   8
LEVEL001
 100
AcDbLine
   6
CONTINUOUS
  62
3
  10
 197.42671406094
  20
 129.57367637809
  30
0.0
  11
 204.92671406094
  21
 129.57367637809
  31
0.0
   0
LINE
   5
126
 100
AcDbEntity
   8
LEVEL001
 100
AcDbLine
   6
CONTINUOUS
  62
3
  10
 212.42671406094
  20
 129.57367637809
  30
0.0
  11
 204.92671406094
  21
 129.57367637809
  31
0.0
   0
INSERT
   5
127
 100
AcDbEntity
   8
LEVEL001
   6
CONTINUOUS
  62
3
 100
AcDbBlockReference
   2
_OPEN30
  10
 197.42671406094
  20
 129.57367637809
  30
0.0
  41
 3.0000000000000
  42
 3.0000000000000
  43
 3.0000000000000
  50
 180.00000000000
   0
INSERT
   5
128
 100
AcDbEntity
   8
LEVEL001
   6
CONTINUOUS
  62
3
 100
AcDbBlockReference
   2
_OPEN30
  10
 212.42671406094
  20
 129.57367637809
  30
0.0
  41
 3.0000000000000
  42
 3.0000000000000
  43
 3.0000000000000
  50
0.0
   0
MTEXT
   5
129
 100
AcDbEntity
   8
LEVEL001
  62
3
 100
AcDbMText
  10
 204.92671406094
  20
 131.28796209238
  30
0.0
  40
 4.0000000000000
  41
0.0
  71
8
  72
1
   1
\A1;15
   7
GMM001
   0
ENDBLK
   5
12A
 100
AcDbEntity
   8
0
 100
AcDbBlockEnd
   0
BLOCK
   5
12B
 100
AcDbEntity
   8
0
 100
AcDbBlockBegin
   2
*D15
  70
65
  10
0.0
  20
0.0
  30
0.0
   3
*D15
   0
LINE
   5
12C
 100
AcDbEntity
   8
LEVEL001
 100
AcDbLine
   6
CONTINUOUS
  62
3
  10
 190.92671406094
  20
 154.89669565961
  30
0.0
  11
 190.92671406094
  21
 139.92580549405
  31
0.0
   0
LINE
   5
12D
 100
AcDbEntity
   8
LEVEL001
 100
AcDbLine
   6
CONTINUOUS
  62
3
  10
 218.92671406094
  20
 154.89669565961
  30
0.0
  11
 218.92671406094
  21
 139.92580549405
  31
0.0
   0
LINE
   5
12E
 100
AcDbEntity
   8
LEVEL001
 100
AcDbLine
   6
CONTINUOUS
  62
3
  10
 190.92671406094
  20
 140.92580549405
  30
0.0
  11
 204.92671406094
  21
 140.92580549405
  31
0.0
   0
LINE
   5
12F
 100
AcDbEntity
   8
LEVEL001
 100
AcDbLine
   6
CONTINUOUS
  62
3
  10
 218.92671406094
  20
 140.92580549405
  30
0.0
  11
 204.92671406094
  21
 140.92580549405
  31
0.0
   0
INSERT
   5
130
 100
AcDbEntity
   8
LEVEL001
   6
CONTINUOUS
  62
3
 100
AcDbBlockReference
   2
_OPEN30
  10
 190.92671406094
  20
 140.92580549405
  30
0.0
  41
 3.0000000000000
  42
 3.0000000000000
  43
 3.0000000000000
  50
 180.00000000000
   0
INSERT
   5
131
 100
AcDbEntity
   8
LEVEL001
   6
CONTINUOUS
  62
3
 100
AcDbBlockReference
   2
_OPEN30
  10
 218.92671406094
  20
 140.92580549405
  30
0.0
  41
 3.0000000000000
  42
 3.0000000000000
  43
 3.0000000000000
  50
0.0
   0
MTEXT
   5
132
 100
AcDbEntity
   8
LEVEL001
  62
3
 100
AcDbMText
  10
 204.92671406094
  20
 142.64009120833
  30
0.0
  40
 4.0000000000000
  41
0.0
  71
8
  72
1
   1
\A1;28
   7
GMM001
   0
ENDBLK
   5
133
 100
AcDbEntity
   8
0
 100
AcDbBlockEnd
   0
BLOCK
   5
134
 100
AcDbEntity
   8
0
 100
AcDbBlockBegin
   2
*D16
  70
65
  10
0.0
  20
0.0
  30
0.0
   3
*D16
   0
LINE
   5
135
 100
AcDbEntity
   8
LEVEL001
 100
AcDbLine
   6
CONTINUOUS
  62
3
  10
 104.53723645376
  20
 154.89669565961
  30
0.0
  11
 104.53723645376
  21
 139.92580549405
  31
0.0
   0
LINE
   5
136
 100
AcDbEntity
   8
LEVEL001
 100
AcDbLine
   6
CONTINUOUS
  62
3
  10
 141.53723645376
  20
 154.89669565961
  30
0.0
  11
 141.53723645376
  21
 139.92580549405
  31
0.0
   0
LINE
   5
137
 100
AcDbEntity
   8
LEVEL001
 100
AcDbLine
   6
CONTINUOUS
  62
3
  10
 104.53723645376
  20
 140.92580549405
  30
0.0
  11
 123.03723645376
  21
 140.92580549405
  31
0.0
   0
LINE
   5
138
 100
AcDbEntity
   8
LEVEL001
 100
AcDbLine
   6
CONTINUOUS
  62
3
  10
 141.53723645376
  20
 140.92580549405
  30
0.0
  11
 123.03723645376
  21
 140.92580549405
  31
0.0
   0
INSERT
   5
139
 100
AcDbEntity
   8
LEVEL001
   6
CONTINUOUS
  62
3
 100
AcDbBlockReference
   2
_OPEN30
  10
 104.53723645376
  20
 140.92580549405
  30
0.0
  41
 3.0000000000000
  42
 3.0000000000000
  43
 3.0000000000000
  50
 180.00000000000
   0
INSERT
   5
13A
 100
AcDbEntity
   8
LEVEL001
   6
CONTINUOUS
  62
3
 100
AcDbBlockReference
   2
_OPEN30
  10
 141.53723645376
  20
 140.92580549405
  30
0.0
  41
 3.0000000000000
  42
 3.0000000000000
  43
 3.0000000000000
  50
0.0
   0
MTEXT
   5
13B
 100
AcDbEntity
   8
LEVEL001
  62
3
 100
AcDbMText
  10
 123.03723645376
  20
 142.64009120833
  30
0.0
  40
 4.0000000000000
  41
0.0
  71
8
  72
1
   1
\A1;37
   7
GMM001
   0
ENDBLK
   5
13C
 100
AcDbEntity
   8
0
 100
AcDbBlockEnd
   0
BLOCK
   5
13D
 100
AcDbEntity
   8
0
 100
AcDbBlockBegin
   2
*D17
  70
65
  10
0.0
  20
0.0
  30
0.0
   3
*D17
   0
POLYLINE
   5
13E
 100
AcDbEntity
   8
LEVEL001
   6
CONTINUOUS
  62
3
 100
AcDb2dPolyline
  66
1
  10
0.0
  20
0.0
  30
0.0
  70
0
   0
VERTEX
   5
13F
 100
AcDbEntity
   8
LEVEL001
   6
CONTINUOUS
  62
3
 100
AcDbVertex
 100
AcDb2dVertex
  10
 212.42671406094
  20
 112.61575886174
  30
0.0
   0
VERTEX
   5
140
 100
AcDbEntity
   8
LEVEL001
   6
CONTINUOUS
  62
3
 100
AcDbVertex
 100
AcDb2dVertex
  10
 222.36453763040
  20
 128.24490370819
  30
0.0
   0
VERTEX
   5
141
 100
AcDbEntity
   8
LEVEL001
   6
CONTINUOUS
  62
3
 100
AcDbVertex
 100
AcDb2dVertex
  10
 247.06453763040
  20
 128.24490370819
  30
0.0
   0
SEQEND
   5
142
 100
AcDbEntity
   8
LEVEL001
   6
CONTINUOUS
  62
3
   0
INSERT
   5
143
 100
AcDbEntity
   8
LEVEL001
   6
CONTINUOUS
  62
3
 100
AcDbBlockReference
   2
_OPEN30
  10
 212.42671406094
  20
 112.61575886174
  30
0.0
  41
 3.0000000000000
  42
 3.0000000000000
  43
 3.0000000000000
  50
 237.54967618202
   0
MTEXT
   5
144
 100
AcDbEntity
   8
LEVEL001
  62
3
 100
AcDbMText
  10
 222.36453763040
  20
 129.95918942248
  30
0.0
  40
 4.0000000000000
  41
0.0
  71
7
  72
1
   1
\A1;４－%%c４.７穴
   7
GMM001
   0
ENDBLK
   5
145
 100
AcDbEntity
   8
0
 100
AcDbBlockEnd
   0
BLOCK
   5
146
 100
AcDbEntity
   8
0
 100
AcDbBlockBegin
   2
*D18
  70
65
  10
0.0
  20
0.0
  30
0.0
   3
*D18
   0
POLYLINE
   5
147
 100
AcDbEntity
   8
LEVEL001
   6
CONTINUOUS
  62
3
 100
AcDb2dPolyline
  66
1
  10
0.0
  20
0.0
  30
0.0
  70
0
   0
VERTEX
   5
148
 100
AcDbEntity
   8
LEVEL001
   6
CONTINUOUS
  62
3
 100
AcDbVertex
 100
AcDb2dVertex
  10
 214.49468509676
  20
 197.58509263341
  30
0.0
   0
VERTEX
   5
149
 100
AcDbEntity
   8
LEVEL001
   6
CONTINUOUS
  62
3
 100
AcDbVertex
 100
AcDb2dVertex
  10
 225.65840207448
  20
 172.46337144124
  30
0.0
   0
VERTEX
   5
14A
 100
AcDbEntity
   8
LEVEL001
   6
CONTINUOUS
  62
3
 100
AcDbVertex
 100
AcDb2dVertex
  10
 263.65840207448
  20
 172.46337144124
  30
0.0
   0
SEQEND
   5
14B
 100
AcDbEntity
   8
LEVEL001
   6
CONTINUOUS
  62
3
   0
INSERT
   5
14C
 100
AcDbEntity
   8
LEVEL001
   6
CONTINUOUS
  62
3
 100
AcDbBlockReference
   2
_OPEN30
  10
 214.49468509676
  20
 197.58509263341
  30
0.0
  41
 3.0000000000000
  42
 3.0000000000000
  43
 3.0000000000000
  50
 113.95964652167
   0
MTEXT
   5
14D
 100
AcDbEntity
   8
LEVEL001
  62
3
 100
AcDbMText
  10
 225.65840207448
  20
 174.17765715552
  30
0.0
  40
 4.0000000000000
  41
0.0
  71
7
  72
1
   1
\A1;２－%%c４穴 %%c７.２皿
   7
GMM001
   0
ENDBLK
   5
14E
 100
AcDbEntity
   8
0
 100
AcDbBlockEnd
   0
ENDSEC
   0
SECTION
   2
ENTITIES
   0
ELLIPSE
   5
14F
 100
AcDbEntity
   8
LEVEL001
   6
CONTINUOUS
  62
7
 100
AcDbEllipse
  10
 214.42671406094
  20
 197.48659859056
  30
0.0
  11
-3.6000000000000
  21
0.0
  31
0.0
  40
 0.38888888888889
  41
0.0
  42
 6.2831853071796
   0
LINE
   5
150
 100
AcDbEntity
   8
LEVEL001
 100
AcDbLine
   6
CONTINUOUS
  62
7
  10
 218.92671406094
  20
 155.89669565961
  30
0.0
  11
 218.92671406094
  21
 197.20848918989
  31
0.0
   0
LINE
   5
151
 100
AcDbEntity
   8
LEVEL001
 100
AcDbLine
   6
CONTINUOUS
  62
7
  10
 190.92671406094
  20
 155.89669565961
  30
0.0
  11
 204.92671406094
  21
 155.89669565961
  31
0.0
   0
LINE
   5
152
 100
AcDbEntity
   8
LEVEL001
 100
AcDbLine
   6
CONTINUOUS
  62
7
  10
 218.92671406094
  20
 155.89669565961
  30
0.0
  11
 204.92671406094
  21
 155.89669565961
  31
0.0
   0
LINE
   5
153
 100
AcDbEntity
   8
LEVEL001
 100
AcDbLine
   6
CONTINUOUS
  62
7
  10
 190.92671406094
  20
 155.89669565961
  30
0.0
  11
 190.92671406094
  21
 157.39669565961
  31
0.0
   0
LINE
   5
154
 100
AcDbEntity
   8
LEVEL001
 100
AcDbLine
   6
CONTINUOUS
  62
7
  10
 192.22671406094
  20
 157.39669565961
  30
0.0
  11
 192.42671406094
  21
 157.39669565961
  31
0.0
   0
LINE
   5
155
 100
AcDbEntity
   8
LEVEL001
 100
AcDbLine
   6
CONTINUOUS
  62
7
  10
 192.42671406094
  20
 157.49669565961
  30
0.0
  11
 192.42671406094
  21
 157.39669565961
  31
0.0
   0
LINE
   5
156
 100
AcDbEntity
   8
LEVEL001
 100
AcDbLine
   6
CONTINUOUS
  62
7
  10
 217.42671406094
  20
 157.39669565961
  30
0.0
  11
 218.92671406094
  21
 157.39669565961
  31
0.0
   0
LINE
   5
157
 100
AcDbEntity
   8
LEVEL001
 100
AcDbLine
   6
CONTINUOUS
  62
7
  10
 217.42671406094
  20
 157.39669565961
  30
0.0
  11
 217.42671406094
  21
 157.49669565961
  31
0.0
   0
LINE
   5
158
 100
AcDbEntity
   8
LEVEL001
 100
AcDbLine
   6
DOT
  62
7
  10
 192.42671406094
  20
 157.39669565961
  30
0.0
  11
 192.72671406094
  21
 157.39669565961
  31
0.0
   0
LINE
   5
159
 100
AcDbEntity
   8
LEVEL001
 100
AcDbLine
   6
DOT
  62
7
  10
 217.42671406094
  20
 157.39669565961
  30
0.0
  11
 217.12671406094
  21
 157.39669565961
  31
0.0
   0
LINE
   5
15A
 100
AcDbEntity
   8
LEVEL001
 100
AcDbLine
   6
CONTINUOUS
  62
7
  10
 190.92671406094
  20
 165.44131140158
  30
0.0
  11
 192.42671406094
  21
 165.44131140158
  31
0.0
   0
LINE
   5
15B
 100
AcDbEntity
   8
LEVEL001
 100
AcDbLine
   6
CONTINUOUS
  62
7
  10
 192.42671406094
  20
 164.94131140158
  30
0.0
  11
 192.42671406094
  21
 165.44131140158
  31
0.0
   0
LINE
   5
15C
 100
AcDbEntity
   8
LEVEL001
 100
AcDbLine
   6
CONTINUOUS
  62
7
  10
 190.92671406094
  20
 165.44131140158
  30
0.0
  11
 190.92671406094
  21
 197.20848918989
  31
0.0
   0
LINE
   5
15D
 100
AcDbEntity
   8
LEVEL001
 100
AcDbLine
   6
CONTINUOUS
  62
7
  10
 293.74082983849
  20
 199.79545347151
  30
0.0
  11
 293.74082983849
  21
 201.64888881084
  31
0.0
   0
ARC
   5
15E
 100
AcDbEntity
   8
LEVEL001
   6
CONTINUOUS
  62
7
 100
AcDbCircle
  10
 294.24082983850
  20
 201.64888881083
  30
0.0
  40
 0.50000000000000
 100
AcDbArc
  50
 52.330113036120
  51
 179.99999999972
   0
LINE
   5
15F
 100
AcDbEntity
   8
LEVEL001
 100
AcDbLine
   6
CONTINUOUS
  62
7
  10
 305.24082983849
  20
 155.89669565961
  30
0.0
  11
 286.74082983849
  21
 155.89669565961
  31
0.0
   0
ARC
   5
160
 100
AcDbEntity
   8
LEVEL001
   6
CONTINUOUS
  62
7
 100
AcDbCircle
  10
 300.24082983849
  20
 194.47241037398
  30
0.0
  40
 2.0000000000000
 100
AcDbArc
  50
0.0
  51
 76.863441213050
   0
LINE
   5
161
 100
AcDbEntity
   8
LEVEL001
 100
AcDbLine
   6
CONTINUOUS
  62
7
  10
 287.74082983849
  20
 157.39669565961
  30
0.0
  11
 286.74082983849
  21
 157.39669565961
  31
0.0
   0
LINE
   5
162
 100
AcDbEntity
   8
LEVEL001
 100
AcDbLine
   6
CONTINUOUS
  62
7
  10
 287.74082983849
  20
 157.39669565961
  30
0.0
  11
 323.74082983849
  21
 157.39669565961
  31
0.0
   0
LINE
   5
163
 100
AcDbEntity
   8
LEVEL001
 100
AcDbLine
   6
CONTINUOUS
  62
7
  10
 323.74082983849
  20
 155.89669565961
  30
0.0
  11
 323.74082983849
  21
 157.49669565961
  31
0.0
   0
LINE
   5
164
 100
AcDbEntity
   8
LEVEL001
 100
AcDbLine
   6
CONTINUOUS
  62
7
  10
 286.74082983849
  20
 155.89669565961
  30
0.0
  11
 286.74082983849
  21
 157.49669565961
  31
0.0
   0
LINE
   5
165
 100
AcDbEntity
   8
LEVEL001
 100
AcDbLine
   6
CONTINUOUS
  62
7
  10
 317.24082983849
  20
 157.39669565961
  30
0.0
  11
 317.24082983849
  21
 157.49669565961
  31
0.0
   0
LINE
   5
166
 100
AcDbEntity
   8
LEVEL001
 100
AcDbLine
   6
CONTINUOUS
  62
7
  10
 318.24082983849
  20
 157.39669565961
  30
0.0
  11
 318.24082983849
  21
 157.49669565961
  31
0.0
   0
LINE
   5
167
 100
AcDbEntity
   8
LEVEL001
 100
AcDbLine
   6
CONTINUOUS
  62
7
  10
 292.24082983849
  20
 157.39669565961
  30
0.0
  11
 292.24082983849
  21
 157.49669565961
  31
0.0
   0
LINE
   5
168
 100
AcDbEntity
   8
LEVEL001
 100
AcDbLine
   6
CONTINUOUS
  62
7
  10
 293.24082983849
  20
 157.39669565961
  30
0.0
  11
 293.24082983849
  21
 157.49669565961
  31
0.0
   0
LINE
   5
169
 100
AcDbEntity
   8
LEVEL001
 100
AcDbLine
   6
CONTINUOUS
  62
7
  10
 323.74082983849
  20
 155.89669565961
  30
0.0
  11
 305.24082983849
  21
 155.89669565961
  31
0.0
   0
LINE
   5
16A
 100
AcDbEntity
   8
LEVEL001
 100
AcDbLine
   6
DOT
  62
6
  10
 302.04082983849
  20
 162.69669565961
  30
0.0
  11
 302.04082983849
  21
 162.89669565961
  31
0.0
   0
LINE
   5
16B
 100
AcDbEntity
   8
LEVEL001
 100
AcDbLine
   6
CONTINUOUS
  62
7
  10
 308.24082983849
  20
 163.39669565961
  30
0.0
  11
 308.24082983849
  21
 194.47241037398
  31
0.0
   0
LINE
   5
16C
 100
AcDbEntity
   8
LEVEL001
 100
AcDbLine
   6
CONTINUOUS
  62
7
  10
 302.24082983849
  20
 163.39669565961
  30
0.0
  11
 302.24082983849
  21
 194.47241037398
  31
0.0
   0
POINT
   5
16D
 100
AcDbEntity
   8
LEVEL001
 100
AcDbPoint
  62
7
  10
 302.24082983849
  20
 162.39669565961
  30
0.0
   0
LINE
   5
16E
 100
AcDbEntity
   8
LEVEL001
 100
AcDbLine
   6
CONTINUOUS
  62
7
  10
 190.92671406094
  20
 197.20848918989
  30
0.0
  11
 190.92671406094
  21
 201.55113690725
  31
0.0
   0
ARC
   5
16F
 100
AcDbEntity
   8
LEVEL001
   6
CONTINUOUS
  62
7
 100
AcDbCircle
  10
 191.42671406094
  20
 201.55113690725
  30
0.0
  40
 0.50000000000000
 100
AcDbArc
  50
 90.000000000397
  51
 180.00000000000
   0
POINT
   5
170
 100
AcDbEntity
   8
LEVEL001
 100
AcDbPoint
  62
7
  10
 190.92671406094
  20
 202.05113690725
  30
0.0
   0
LINE
   5
171
 100
AcDbEntity
   8
LEVEL001
 100
AcDbLine
   6
CONTINUOUS
  62
7
  10
 191.42671406094
  20
 202.05113690725
  30
0.0
  11
 204.92671406094
  21
 202.05113690725
  31
0.0
   0
LINE
   5
172
 100
AcDbEntity
   8
LEVEL001
 100
AcDbLine
   6
CONTINUOUS
  62
7
  10
 204.92671406094
  20
 202.05113690725
  30
0.0
  11
 218.42671406094
  21
 202.05113690725
  31
0.0
   0
ARC
   5
173
 100
AcDbEntity
   8
LEVEL001
   6
CONTINUOUS
  62
7
 100
AcDbCircle
  10
 218.42671406094
  20
 201.55113690725
  30
0.0
  40
 0.50000000000000
 100
AcDbArc
  50
0.0
  51
 90.000000000000
   0
POINT
   5
174
 100
AcDbEntity
   8
LEVEL001
 100
AcDbPoint
  62
7
  10
 218.92671406094
  20
 202.05113690725
  30
0.0
   0
LINE
   5
175
 100
AcDbEntity
   8
LEVEL001
 100
AcDbLine
   6
CONTINUOUS
  62
7
  10
 218.92671406094
  20
 197.20848918989
  30
0.0
  11
 218.92671406094
  21
 201.55113690725
  31
0.0
   0
ARC
   5
176
 100
AcDbEntity
   8
LEVEL001
   6
CONTINUOUS
  62
7
 100
AcDbCircle
  10
 191.42671406093
  20
 199.69392994505
  30
0.0
  40
 0.50000000000000
 100
AcDbArc
  50
 180.00000000000
  51
 270.00000000019
   0
ARC
   5
177
 100
AcDbEntity
   8
LEVEL001
   6
CONTINUOUS
  62
7
 100
AcDbCircle
  10
 191.46671406093
  20
 196.49229409663
  30
0.0
  40
 0.54000000000000
 100
AcDbArc
  50
 180.00000000000
  51
 270.00000000051
   0
ARC
   5
178
 100
AcDbEntity
   8
LEVEL001
   6
CONTINUOUS
  62
7
 100
AcDbCircle
  10
 218.42671406094
  20
 199.69392994505
  30
0.0
  40
 0.50000000000000
 100
AcDbArc
  50
 269.99999999951
  51
0.0
   0
ARC
   5
179
 100
AcDbEntity
   8
LEVEL001
   6
CONTINUOUS
  62
7
 100
AcDbCircle
  10
 218.38671406094
  20
 196.49229409663
  30
0.0
  40
 0.54000000000000
 100
AcDbArc
  50
 269.99999999957
  51
0.0
   0
LINE
   5
17A
 100
AcDbEntity
   8
LEVEL001
 100
AcDbLine
   6
CONTINUOUS
  62
7
  10
 191.42671406094
  20
 199.19392994505
  30
0.0
  11
 218.42671406094
  21
 199.19392994505
  31
0.0
   0
LINE
   5
17B
 100
AcDbEntity
   8
LEVEL001
 100
AcDbLine
   6
CONTINUOUS
  62
7
  10
 191.46671406094
  20
 195.95229409663
  30
0.0
  11
 218.38671406094
  21
 195.95229409663
  31
0.0
   0
ARC
   5
17C
 100
AcDbEntity
   8
LEVEL001
   6
CONTINUOUS
  62
7
 100
AcDbCircle
  10
 301.24082983849
  20
 163.39669565960
  30
0.0
  40
 1.0000000000000
 100
AcDbArc
  50
 323.13010235474
  51
 0.47062031510390E-9
   0
LINE
   5
17D
 100
AcDbEntity
   8
LEVEL001
 100
AcDbLine
   6
CONTINUOUS
  62
7
  10
 190.92671406094
  20
 157.39669565961
  30
0.0
  11
 217.42671406094
  21
 157.39669565961
  31
0.0
   0
LINE
   5
17E
 100
AcDbEntity
   8
LEVEL001
 100
AcDbLine
   6
DASHDOT
  62
3
  10
 300.98943369192
  20
 215.89669565961
  30
0.0
  11
 309.26832534882
  21
 215.89669565961
  31
0.0
   0
LINE
   5
17F
 100
AcDbEntity
   8
LEVEL001
 100
AcDbLine
   6
DASHDOT
  62
3
  10
 306.55749362132
  20
 218.99856114737
  30
0.0
  11
 296.30007687792
  21
 194.83360164521
  31
0.0
   0
LINE
   5
180
 100
AcDbEntity
   8
LEVEL001
 100
AcDbLine
   6
DASHDOT
  62
3
  10
 303.83174393321
  20
 219.21629402322
  30
0.0
  11
 313.99814622313
  21
 195.26575113659
  31
0.0
   0
DIMENSION
   5
181
 100
AcDbEntity
   8
LEVEL001
   6
CONTINUOUS
  62
3
 100
AcDbDimension
   2
*D1
  10
 296.30007687792
  20
 194.83360164521
  30
0.0
  11
 305.24082983849
  21
 232.63403211456
  31
0.0
  70
2
   3
GMM001
 100
AcDb2LineAngularDimension
  13
 303.83174393321
  23
 219.21629402322
  33
0.0
  14
 313.99814622313
  24
 195.26575113659
  34
0.0
  15
 306.55749362132
  25
 218.99856114737
  35
0.0
  16
 298.70118554587
  26
 231.30356049747
  36
0.0
   0
DIMENSION
   5
182
 100
AcDbEntity
   8
LEVEL001
   6
CONTINUOUS
  62
3
 100
AcDbDimension
   2
*D2
  10
 277.13302561064
  20
 155.89669565961
  30
0.0
  11
 277.13302561064
  21
 177.14669565961
  31
0.0
  70
0
   3
GMM002
 100
AcDbAlignedDimension
  13
 305.24082983849
  23
 198.39669565961
  33
0.0
  14
 286.74082983849
  24
 155.89669565961
  34
0.0
  50
 270.00000000000
 100
AcDbRotatedDimension
   0
ARC
   5
183
 100
AcDbEntity
   8
LEVEL001
   6
CONTINUOUS
  62
7
 100
AcDbCircle
  10
 305.24082983849
  20
 215.89669565961
  30
0.0
  40
 17.500000000000
 100
AcDbArc
  50
 232.33011303569
  51
 307.66988696433
   0
ARC
   5
184
 100
AcDbEntity
   8
LEVEL001
   6
CONTINUOUS
  62
7
 100
AcDbCircle
  10
 305.24082983849
  20
 215.89669565961
  30
0.0
  40
 20.000000000000
 100
AcDbArc
  50
 235.66000505630
  51
 256.86344121306
   0
ARC
   5
185
 100
AcDbEntity
   8
LEVEL001
   6
CONTINUOUS
  62
7
 100
AcDbCircle
  10
 294.24082983850
  20
 199.79545347150
  30
0.0
  40
 0.50000000000000
 100
AcDbArc
  50
 179.99999999955
  51
 235.66000505550
   0
LINE
   5
186
 100
AcDbEntity
   8
LEVEL001
 100
AcDbLine
   6
DOT
  62
1
  10
 296.39182867190
  20
 200.42429512322
  30
0.0
  11
 296.51938554315
  21
 200.72480028014
  31
0.0
   0
LINE
   5
187
 100
AcDbEntity
   8
LEVEL001
 100
AcDbLine
   6
DOT
  62
1
  10
 300.25794905639
  20
 198.78322438372
  30
0.0
  11
 296.39182867190
  21
 200.42429512322
  31
0.0
   0
LINE
   5
188
 100
AcDbEntity
   8
LEVEL001
 100
AcDbLine
   6
DOT
  62
1
  10
 296.39182867190
  20
 200.42429512322
  30
0.0
  11
 294.42497469900
  21
 199.62963453578
  31
0.0
   0
LINE
   5
189
 100
AcDbEntity
   8
LEVEL001
 100
AcDbLine
   6
DOT
  62
1
  10
 300.25794905639
  20
 198.78322438372
  30
0.0
  11
 300.38550592758
  21
 199.08372954049
  31
0.0
   0
LINE
   5
18A
 100
AcDbEntity
   8
LEVEL001
 100
AcDbLine
   6
DOT
  62
1
  10
 300.25794905646
  20
 198.78322438354
  30
0.0
  11
 301.05260964390
  21
 196.81637041064
  31
0.0
   0
LINE
   5
18B
 100
AcDbEntity
   8
LEVEL001
 100
AcDbLine
   6
DOT
  62
1
  10
 300.86766401785
  20
 196.38066581988
  30
0.0
  11
 301.05260964392
  21
 196.81637041060
  31
0.0
   0
LINE
   5
18C
 100
AcDbEntity
   8
LEVEL001
 100
AcDbLine
   6
DOT
  62
1
  10
 294.24002907289
  20
 199.19392994505
  30
0.0
  11
 294.42497469896
  21
 199.62963453577
  31
0.0
   0
LINE
   5
18D
 100
AcDbEntity
   8
LEVEL001
 100
AcDbLine
   6
DOT
  62
1
  10
 294.42497469897
  20
 199.62963453579
  30
0.0
  11
 301.05260964390
  21
 196.81637041064
  31
0.0
   0
LINE
   5
18E
 100
AcDbEntity
   8
LEVEL001
 100
AcDbLine
   6
CONTINUOUS
  62
7
  10
 316.74082983849
  20
 199.79545347151
  30
0.0
  11
 316.74082983849
  21
 201.64888881084
  31
0.0
   0
ARC
   5
18F
 100
AcDbEntity
   8
LEVEL001
   6
CONTINUOUS
  62
7
 100
AcDbCircle
  10
 316.24082983849
  20
 201.64888881084
  30
0.0
  40
 0.50000000000000
 100
AcDbArc
  50
 0.97706639814515E-11
  51
 127.66988696431
   0
ARC
   5
190
 100
AcDbEntity
   8
LEVEL001
   6
CONTINUOUS
  62
7
 100
AcDbCircle
  10
 305.24082983849
  20
 215.89669565961
  30
0.0
  40
 20.000000000000
 100
AcDbArc
  50
 283.13655878694
  51
 304.33999494370
   0
ARC
   5
191
 100
AcDbEntity
   8
LEVEL001
   6
CONTINUOUS
  62
7
 100
AcDbCircle
  10
 316.24082983850
  20
 199.79545347151
  30
0.0
  40
 0.50000000000000
 100
AcDbArc
  50
 304.33999494301
  51
0.0
   0
LINE
   5
192
 100
AcDbEntity
   8
LEVEL001
 100
AcDbLine
   6
DOT
  62
1
  10
 314.08983100509
  20
 200.42429512322
  30
0.0
  11
 313.96227413384
  21
 200.72480028014
  31
0.0
   0
LINE
   5
193
 100
AcDbEntity
   8
LEVEL001
 100
AcDbLine
   6
DOT
  62
1
  10
 310.22371062059
  20
 198.78322438372
  30
0.0
  11
 314.08983100509
  21
 200.42429512322
  31
0.0
   0
LINE
   5
194
 100
AcDbEntity
   8
LEVEL001
 100
AcDbLine
   6
DOT
  62
1
  10
 314.08983100509
  20
 200.42429512322
  30
0.0
  11
 316.05668497799
  21
 199.62963453578
  31
0.0
   0
LINE
   5
195
 100
AcDbEntity
   8
LEVEL001
 100
AcDbLine
   6
DOT
  62
1
  10
 310.22371062059
  20
 198.78322438372
  30
0.0
  11
 310.09615374941
  21
 199.08372954049
  31
0.0
   0
LINE
   5
196
 100
AcDbEntity
   8
LEVEL001
 100
AcDbLine
   6
DOT
  62
1
  10
 310.22371062052
  20
 198.78322438354
  30
0.0
  11
 309.42905003308
  21
 196.81637041064
  31
0.0
   0
LINE
   5
197
 100
AcDbEntity
   8
LEVEL001
 100
AcDbLine
   6
DOT
  62
1
  10
 316.24163060409
  20
 199.19392994505
  30
0.0
  11
 316.05668497803
  21
 199.62963453577
  31
0.0
   0
LINE
   5
198
 100
AcDbEntity
   8
LEVEL001
 100
AcDbLine
   6
DOT
  62
1
  10
 316.05668497802
  20
 199.62963453579
  30
0.0
  11
 309.42905003308
  21
 196.81637041064
  31
0.0
   0
ARC
   5
199
 100
AcDbEntity
   8
LEVEL001
   6
CONTINUOUS
  62
7
 100
AcDbCircle
  10
 310.24082983849
  20
 194.47241037398
  30
0.0
  40
 2.0000000000000
 100
AcDbArc
  50
 103.13655878695
  51
 180.00000000000
   0
LINE
   5
19A
 100
AcDbEntity
   8
LEVEL001
 100
AcDbLine
   6
DOT
  62
1
  10
 309.61399565913
  20
 196.38066581988
  30
0.0
  11
 309.42905003307
  21
 196.81637041060
  31
0.0
   0
LINE
   5
19B
 100
AcDbEntity
   8
LEVEL001
 100
AcDbLine
   6
DASHDOT
  62
3
  10
 291.62763110104
  20
 165.71767272684
  30
0.0
  11
 293.86804077007
  21
 153.01167810235
  31
0.0
   0
LINE
   5
19C
 100
AcDbEntity
   8
LEVEL001
 100
AcDbLine
   6
DASHDOT
  62
3
  10
 292.74082983849
  20
 165.69978025623
  30
0.0
  11
 292.74082983849
  21
 152.38626849764
  31
0.0
   0
LINE
   5
19D
 100
AcDbEntity
   8
LEVEL001
 100
AcDbLine
   6
DASHDOT
  62
3
  10
 296.84015878617
  20
 157.89669565961
  30
0.0
  11
 285.53764343831
  21
 157.89669565961
  31
0.0
   0
LINE
   5
19E
 100
AcDbEntity
   8
LEVEL001
 100
AcDbLine
   6
DOT
  62
1
  10
 302.24082983849
  20
 164.94131140158
  30
0.0
  11
 308.24082983849
  21
 164.94131140158
  31
0.0
   0
LINE
   5
19F
 100
AcDbEntity
   8
LEVEL001
 100
AcDbLine
   6
CONTINUOUS
  62
15
  10
 308.44082983849
  20
 157.49669565961
  30
0.0
  11
 323.74082983849
  21
 157.49669565961
  31
0.0
   0
LINE
   5
1A0
 100
AcDbEntity
   8
LEVEL001
 100
AcDbLine
   6
CONTINUOUS
  62
15
  10
 286.74082983849
  20
 157.49669565961
  30
0.0
  11
 302.04082983849
  21
 157.49669565961
  31
0.0
   0
LINE
   5
1A1
 100
AcDbEntity
   8
LEVEL001
 100
AcDbLine
   6
DOT
  62
1
  10
 302.04082983849
  20
 157.49669565961
  30
0.0
  11
 308.44082983849
  21
 157.49669565961
  31
0.0
   0
LINE
   5
1A2
 100
AcDbEntity
   8
LEVEL001
 100
AcDbLine
   6
DOT
  62
1
  10
 295.09082983849
  20
 155.89669565961
  30
0.0
  11
 295.09082983849
  21
 159.82612018305
  31
0.0
   0
LINE
   5
1A3
 100
AcDbEntity
   8
LEVEL001
 100
AcDbLine
   6
DOT
  62
1
  10
 290.39082983849
  20
 155.89669565961
  30
0.0
  11
 290.39082983849
  21
 158.98837284171
  31
0.0
   0
ARC
   5
1A4
 100
AcDbEntity
   8
LEVEL001
   6
DOT
  62
1
 100
AcDbCircle
  10
 301.24082983850
  20
 163.39669565961
  30
0.0
  40
 1.0000000000000
 100
AcDbArc
  50
 269.99999999981
  51
 323.13010235404
   0
LINE
   5
1A5
 100
AcDbEntity
   8
LEVEL001
 100
AcDbLine
   6
DOT
  62
1
  10
 301.24082983849
  20
 162.39669565961
  30
0.0
  11
 296.24775256786
  21
 162.39669565961
  31
0.0
   0
LINE
   5
1A6
 100
AcDbEntity
   8
LEVEL001
 100
AcDbLine
   6
DOT
  62
1
  10
 287.74082983849
  20
 157.39669565961
  30
0.0
  11
 287.74082983849
  21
 160.89669565961
  31
0.0
   0
LINE
   5
1A7
 100
AcDbEntity
   8
LEVEL001
 100
AcDbLine
   6
DOT
  62
1
  10
 296.48309929992
  20
 160.06427204067
  30
0.0
  11
 296.48309929992
  21
 162.39669565961
  31
0.0
   0
LINE
   5
1A8
 100
AcDbEntity
   8
LEVEL001
 100
AcDbLine
   6
DOT
  62
1
  10
 292.24082983849
  20
 157.49669565961
  30
0.0
  11
 292.24082983849
  21
 158.19669565961
  31
0.0
   0
LINE
   5
1A9
 100
AcDbEntity
   8
LEVEL001
 100
AcDbLine
   6
DOT
  62
1
  10
 292.24082983849
  20
 158.19669565961
  30
0.0
  11
 293.24082983849
  21
 158.19669565961
  31
0.0
   0
LINE
   5
1AA
 100
AcDbEntity
   8
LEVEL001
 100
AcDbLine
   6
DOT
  62
1
  10
 293.24082983849
  20
 157.49669565961
  30
0.0
  11
 293.24082983849
  21
 158.19669565961
  31
0.0
   0
LINE
   5
1AB
 100
AcDbEntity
   8
LEVEL001
 100
AcDbLine
   6
DOT
  62
1
  10
 287.74082983849
  20
 160.89669565962
  30
0.0
  11
 296.24775256786
  21
 162.39669565961
  31
0.0
   0
LINE
   5
1AC
 100
AcDbEntity
   8
LEVEL001
 100
AcDbLine
   6
DOT
  62
1
  10
 287.73245289639
  20
 158.52129698109
  30
0.0
  11
 296.48309929992
  21
 160.06427204067
  31
0.0
   0
LINE
   5
1AD
 100
AcDbEntity
   8
LEVEL001
 100
AcDbLine
   6
DOT
  62
1
  10
 287.64082983849
  20
 157.49669565961
  30
0.0
  11
 287.64082983849
  21
 162.56466088533
  31
0.0
   0
LINE
   5
1AE
 100
AcDbEntity
   8
LEVEL001
 100
AcDbLine
   6
DOT
  62
1
  10
 287.64082983849
  20
 162.56466088533
  30
0.0
  11
 302.03195263897
  21
 163.71235677210
  31
0.0
   0
LINE
   5
1AF
 100
AcDbEntity
   8
LEVEL001
 100
AcDbLine
   6
CONTINUOUS
  62
7
  10
 286.74082983849
  20
 157.49669565961
  30
0.0
  11
 286.74082983849
  21
 163.41966823607
  31
0.0
   0
ARC
   5
1B0
 100
AcDbEntity
   8
LEVEL001
   6
CONTINUOUS
  62
7
 100
AcDbCircle
  10
 287.04082983850
  20
 163.41966823607
  30
0.0
  40
 0.30000000000000
 100
AcDbArc
  50
 94.559703329295
  51
 180.00000000010
   0
LINE
   5
1B1
 100
AcDbEntity
   8
LEVEL001
 100
AcDbLine
   6
CONTINUOUS
  62
7
  10
 302.04276635189
  20
 164.91702918324
  30
0.0
  11
 287.01698048037
  21
 163.71871874705
  31
0.0
   0
LINE
   5
1B2
 100
AcDbEntity
   8
LEVEL001
 100
AcDbLine
   6
CONTINUOUS
  62
7
  10
 302.04082983849
  20
 157.49669565961
  30
0.0
  11
 302.04082983849
  21
 164.94131140158
  31
0.0
   0
LINE
   5
1B3
 100
AcDbEntity
   8
LEVEL001
 100
AcDbLine
   6
CONTINUOUS
  62
7
  10
 302.04082983849
  20
 164.94131140158
  30
0.0
  11
 302.24082983849
  21
 164.94131140158
  31
0.0
   0
LINE
   5
1B4
 100
AcDbEntity
   8
LEVEL001
 100
AcDbLine
   6
DASHDOT
  62
3
  10
 318.85402857595
  20
 165.71767272684
  30
0.0
  11
 316.61361890692
  21
 153.01167810235
  31
0.0
   0
LINE
   5
1B5
 100
AcDbEntity
   8
LEVEL001
 100
AcDbLine
   6
DASHDOT
  62
3
  10
 317.74082983849
  20
 165.69978025623
  30
0.0
  11
 317.74082983849
  21
 152.38626849764
  31
0.0
   0
LINE
   5
1B6
 100
AcDbEntity
   8
LEVEL001
 100
AcDbLine
   6
DASHDOT
  62
3
  10
 313.64150089081
  20
 157.89669565961
  30
0.0
  11
 324.94401623868
  21
 157.89669565961
  31
0.0
   0
LINE
   5
1B7
 100
AcDbEntity
   8
LEVEL001
 100
AcDbLine
   6
DOT
  62
1
  10
 315.39082983849
  20
 155.89669565961
  30
0.0
  11
 315.39082983849
  21
 159.82612018305
  31
0.0
   0
LINE
   5
1B8
 100
AcDbEntity
   8
LEVEL001
 100
AcDbLine
   6
DOT
  62
1
  10
 320.09082983849
  20
 155.89669565961
  30
0.0
  11
 320.09082983849
  21
 158.98837284171
  31
0.0
   0
LINE
   5
1B9
 100
AcDbEntity
   8
LEVEL001
 100
AcDbLine
   6
DOT
  62
1
  10
 309.24082983849
  20
 162.39669565961
  30
0.0
  11
 314.23390710912
  21
 162.39669565961
  31
0.0
   0
LINE
   5
1BA
 100
AcDbEntity
   8
LEVEL001
 100
AcDbLine
   6
DOT
  62
1
  10
 322.74082983849
  20
 157.39669565961
  30
0.0
  11
 322.74082983849
  21
 160.89669565961
  31
0.0
   0
LINE
   5
1BB
 100
AcDbEntity
   8
LEVEL001
 100
AcDbLine
   6
DOT
  62
1
  10
 313.99856037707
  20
 160.06427204067
  30
0.0
  11
 313.99856037707
  21
 162.39669565961
  31
0.0
   0
LINE
   5
1BC
 100
AcDbEntity
   8
LEVEL001
 100
AcDbLine
   6
DOT
  62
1
  10
 318.24082983849
  20
 157.49669565961
  30
0.0
  11
 318.24082983849
  21
 158.19669565961
  31
0.0
   0
LINE
   5
1BD
 100
AcDbEntity
   8
LEVEL001
 100
AcDbLine
   6
DOT
  62
1
  10
 318.24082983849
  20
 158.19669565961
  30
0.0
  11
 317.24082983849
  21
 158.19669565961
  31
0.0
   0
LINE
   5
1BE
 100
AcDbEntity
   8
LEVEL001
 100
AcDbLine
   6
DOT
  62
1
  10
 317.24082983849
  20
 157.49669565961
  30
0.0
  11
 317.24082983849
  21
 158.19669565961
  31
0.0
   0
LINE
   5
1BF
 100
AcDbEntity
   8
LEVEL001
 100
AcDbLine
   6
DOT
  62
1
  10
 322.74082983849
  20
 160.89669565962
  30
0.0
  11
 314.23390710912
  21
 162.39669565961
  31
0.0
   0
LINE
   5
1C0
 100
AcDbEntity
   8
LEVEL001
 100
AcDbLine
   6
DOT
  62
1
  10
 322.74920678060
  20
 158.52129698109
  30
0.0
  11
 313.99856037707
  21
 160.06427204067
  31
0.0
   0
LINE
   5
1C1
 100
AcDbEntity
   8
LEVEL001
 100
AcDbLine
   6
DOT
  62
1
  10
 322.84082983849
  20
 157.49669565961
  30
0.0
  11
 322.84082983849
  21
 162.56466088533
  31
0.0
   0
LINE
   5
1C2
 100
AcDbEntity
   8
LEVEL001
 100
AcDbLine
   6
DOT
  62
1
  10
 322.84082983849
  20
 162.56466088533
  30
0.0
  11
 308.44970703801
  21
 163.71235677210
  31
0.0
   0
LINE
   5
1C3
 100
AcDbEntity
   8
LEVEL001
 100
AcDbLine
   6
CONTINUOUS
  62
7
  10
 323.74082983849
  20
 157.49669565961
  30
0.0
  11
 323.74082983849
  21
 163.41966823607
  31
0.0
   0
ARC
   5
1C4
 100
AcDbEntity
   8
LEVEL001
   6
CONTINUOUS
  62
7
 100
AcDbCircle
  10
 323.44082983848
  20
 163.41966823607
  30
0.0
  40
 0.30000000000000
 100
AcDbArc
  50
0.0
  51
 85.440296669115
   0
LINE
   5
1C5
 100
AcDbEntity
   8
LEVEL001
 100
AcDbLine
   6
CONTINUOUS
  62
7
  10
 308.43889332510
  20
 164.91702918324
  30
0.0
  11
 323.46467919661
  21
 163.71871874705
  31
0.0
   0
LINE
   5
1C6
 100
AcDbEntity
   8
LEVEL001
 100
AcDbLine
   6
CONTINUOUS
  62
7
  10
 308.44082983849
  20
 157.49669565961
  30
0.0
  11
 308.44082983849
  21
 164.94131140158
  31
0.0
   0
POINT
   5
1C7
 100
AcDbEntity
   8
LEVEL001
 100
AcDbPoint
  62
7
  10
 308.24082983849
  20
 162.39669565961
  30
0.0
   0
ARC
   5
1C8
 100
AcDbEntity
   8
LEVEL001
   6
CONTINUOUS
  62
7
 100
AcDbCircle
  10
 309.24082983849
  20
 163.39669565961
  30
0.0
  40
 1.0000000000000
 100
AcDbArc
  50
 179.99999999994
  51
 216.86989764577
   0
ARC
   5
1C9
 100
AcDbEntity
   8
LEVEL001
   6
DOT
  62
1
 100
AcDbCircle
  10
 309.24082983849
  20
 163.39669565961
  30
0.0
  40
 1.0000000000000
 100
AcDbArc
  50
 216.86989764592
  51
 270.00000000012
   0
LINE
   5
1CA
 100
AcDbEntity
   8
LEVEL001
 100
AcDbLine
   6
DASHDOT
  62
3
  10
 195.42671406094
  20
 203.02194625054
  30
0.0
  11
 195.42671406094
  21
 192.90733291939
  31
0.0
   0
LINE
   5
1CB
 100
AcDbEntity
   8
LEVEL001
 100
AcDbLine
   6
DIVIDE
  62
3
  10
 186.87291198676
  20
 198.39669565961
  30
0.0
  11
 223.21059691716
  21
 198.39669565961
  31
0.0
   0
LINE
   5
1CC
 100
AcDbEntity
   8
LEVEL001
 100
AcDbLine
   6
DASHDOT
  62
3
  10
 214.42671406094
  20
 203.02194625054
  30
0.0
  11
 214.42671406094
  21
 192.90733291939
  31
0.0
   0
DIMENSION
   5
1CD
 100
AcDbEntity
   8
LEVEL001
   6
CONTINUOUS
  62
3
 100
AcDbDimension
   2
*D3
  10
 214.42671406094
  20
 211.94694951920
  30
0.0
  11
 204.92671406094
  21
 211.94694951920
  31
0.0
  70
0
   3
GMM002
 100
AcDbAlignedDimension
  13
 195.42671406094
  23
 203.02194625054
  33
0.0
  14
 214.42671406094
  24
 203.02194625054
  34
0.0
 100
AcDbRotatedDimension
   0
LINE
   5
1CE
 100
AcDbEntity
   8
LEVEL001
 100
AcDbLine
   6
DASHDOT
  62
3
  10
 204.92671406094
  20
 213.90920365559
  30
0.0
  11
 204.92671406094
  21
 147.62529070703
  31
0.0
   0
LINE
   5
1CF
 100
AcDbEntity
   8
LEVEL001
 100
AcDbLine
   6
DASHDOT
  62
3
  10
 212.42671406094
  20
 161.88252130528
  30
0.0
  11
 212.42671406094
  21
 153.71601860290
  31
0.0
   0
LINE
   5
1D0
 100
AcDbEntity
   8
LEVEL001
 100
AcDbLine
   6
DASHDOT
  62
3
  10
 197.42671406094
  20
 161.76473520861
  30
0.0
  11
 197.42671406094
  21
 153.71601860290
  31
0.0
   0
LINE
   5
1D1
 100
AcDbEntity
   8
LEVEL001
 100
AcDbLine
   6
DOT
  62
1
  10
 195.07671406094
  20
 155.89669565961
  30
0.0
  11
 195.07671406094
  21
 158.52262405138
  31
0.0
   0
LINE
   5
1D2
 100
AcDbEntity
   8
LEVEL001
 100
AcDbLine
   6
DOT
  62
1
  10
 199.77671406094
  20
 155.89669565961
  30
0.0
  11
 199.77671406094
  21
 158.52262405138
  31
0.0
   0
LINE
   5
1D3
 100
AcDbEntity
   8
LEVEL001
 100
AcDbLine
   6
DOT
  62
1
  10
 210.07671406094
  20
 155.89669565961
  30
0.0
  11
 210.07671406094
  21
 158.52262405138
  31
0.0
   0
LINE
   5
1D4
 100
AcDbEntity
   8
LEVEL001
 100
AcDbLine
   6
DOT
  62
1
  10
 214.77671406094
  20
 155.89669565961
  30
0.0
  11
 214.77671406094
  21
 158.52262405138
  31
0.0
   0
ELLIPSE
   5
1D5
 100
AcDbEntity
   8
LEVEL001
   6
DOT
  62
1
 100
AcDbEllipse
  10
 212.42671406094
  20
 159.40837284171
  30
0.0
  11
-2.3000000000000
  21
0.0
  31
0.0
  40
 0.18260869565217
  41
0.0
  42
 6.2831853071796
   0
ELLIPSE
   5
1D6
 100
AcDbEntity
   8
LEVEL001
   6
DOT
  62
1
 100
AcDbEllipse
  10
 197.42671406094
  20
 159.40837284171
  30
0.0
  11
-2.3000000000000
  21
0.0
  31
0.0
  40
 0.18260869565217
  41
0.0
  42
 6.2831853071796
   0
ARC
   5
1D7
 100
AcDbEntity
   8
LEVEL001
   6
DOT
  62
1
 100
AcDbCircle
  10
 197.42671406094
  20
 154.10419598877
  30
0.0
  40
 5.9600760519027
 100
AcDbArc
  50
 47.845477631737
  51
 132.15452236826
   0
ARC
   5
1D8
 100
AcDbEntity
   8
LEVEL001
   6
DOT
  62
1
 100
AcDbCircle
  10
 212.42671406094
  20
 154.10419598877
  30
0.0
  40
 5.9600760519027
 100
AcDbArc
  50
 47.845477631737
  51
 132.15452236826
   0
LINE
   5
1D9
 100
AcDbEntity
   8
LEVEL001
 100
AcDbLine
   6
DOT
  62
1
  10
 208.42671406094
  20
 158.52262405138
  30
0.0
  11
 208.42671406094
  21
 162.39669565961
  31
0.0
   0
LINE
   5
1DA
 100
AcDbEntity
   8
LEVEL001
 100
AcDbLine
   6
DOT
  62
1
  10
 201.42671406094
  20
 158.52262405138
  30
0.0
  11
 201.42671406094
  21
 162.39669565961
  31
0.0
   0
LINE
   5
1DB
 100
AcDbEntity
   8
LEVEL001
 100
AcDbLine
   6
DOT
  62
1
  10
 193.42671406094
  20
 158.52262405138
  30
0.0
  11
 193.42671406094
  21
 162.39669565961
  31
0.0
   0
LINE
   5
1DC
 100
AcDbEntity
   8
LEVEL001
 100
AcDbLine
   6
DOT
  62
1
  10
 216.42671406094
  20
 158.52262405138
  30
0.0
  11
 216.42671406094
  21
 161.63276363711
  31
0.0
   0
LINE
   5
1DD
 100
AcDbEntity
   8
LEVEL001
 100
AcDbLine
   6
DOT
  62
1
  10
 192.42671406094
  20
 162.39669565961
  30
0.0
  11
 214.42671406094
  21
 162.39669565961
  31
0.0
   0
LINE
   5
1DE
 100
AcDbEntity
   8
LEVEL001
 100
AcDbLine
   6
DOT
  62
1
  10
 192.42671406094
  20
 157.49669565961
  30
0.0
  11
 192.42671406094
  21
 164.94131140158
  31
0.0
   0
ARC
   5
1DF
 100
AcDbEntity
   8
LEVEL001
   6
DOT
  62
1
 100
AcDbCircle
  10
 192.22671406094
  20
 157.89669565961
  30
0.0
  40
 0.30000000000000
 100
AcDbArc
  50
 270.00000000000
  51
 90.000000000000
   0
LINE
   5
1E0
 100
AcDbEntity
   8
LEVEL001
 100
AcDbLine
   6
DOT
  62
1
  10
 192.42671406094
  20
 158.19669565961
  30
0.0
  11
 192.72671406094
  21
 158.19669565961
  31
0.0
   0
LINE
   5
1E1
 100
AcDbEntity
   8
LEVEL001
 100
AcDbLine
   6
DOT
  62
1
  10
 192.22671406094
  20
 157.49669565961
  30
0.0
  11
 192.22671406094
  21
 163.72279946734
  31
0.0
   0
LINE
   5
1E2
 100
AcDbEntity
   8
LEVEL001
 100
AcDbLine
   6
DOT
  62
1
  10
 192.42671406094
  20
 158.52262405138
  30
0.0
  11
 217.42671406094
  21
 158.52262405138
  31
0.0
   0
LINE
   5
1E3
 100
AcDbEntity
   8
LEVEL001
 100
AcDbLine
   6
CONTINUOUS
  62
15
  10
 190.92671406094
  20
 157.49669565961
  30
0.0
  11
 218.92671406094
  21
 157.49669565961
  31
0.0
   0
ARC
   5
1E4
 100
AcDbEntity
   8
LEVEL001
   6
CONTINUOUS
  62
7
 100
AcDbCircle
  10
 191.12671406094
  20
 164.74131140158
  30
0.0
  40
 0.20000000000000
 100
AcDbArc
  50
 89.999999999984
  51
 179.99999999935
   0
POINT
   5
1E5
 100
AcDbEntity
   8
LEVEL001
 100
AcDbPoint
  62
7
  10
 190.92671406094
  20
 164.94131140158
  30
0.0
   0
LINE
   5
1E6
 100
AcDbEntity
   8
LEVEL001
 100
AcDbLine
   6
CONTINUOUS
  62
7
  10
 190.92671406094
  20
 164.74131140158
  30
0.0
  11
 190.92671406094
  21
 157.39669565961
  31
0.0
   0
LINE
   5
1E7
 100
AcDbEntity
   8
LEVEL001
 100
AcDbLine
   6
DOT
  62
1
  10
 202.96671406094
  20
 155.89669565961
  30
0.0
  11
 202.96671406094
  21
 158.52262405138
  31
0.0
   0
LINE
   5
1E8
 100
AcDbEntity
   8
LEVEL001
 100
AcDbLine
   6
DOT
  62
1
  10
 206.88671406094
  20
 155.89669565961
  30
0.0
  11
 206.88671406094
  21
 158.52262405138
  31
0.0
   0
LINE
   5
1E9
 100
AcDbEntity
   8
LEVEL001
 100
AcDbLine
   6
DASHDOT
  62
3
  10
 188.91896852440
  20
 157.89669565961
  30
0.0
  11
 220.68860854145
  21
 157.89669565961
  31
0.0
   0
LINE
   5
1EA
 100
AcDbEntity
   8
LEVEL001
 100
AcDbLine
   6
DOT
  62
1
  10
 192.22671406094
  20
 163.72279946734
  30
0.0
  11
 217.62671406094
  21
 163.72279946734
  31
0.0
   0
LINE
   5
1EB
 100
AcDbEntity
   8
LEVEL001
 100
AcDbLine
   6
CONTINUOUS
  62
7
  10
 190.92671406094
  20
 163.69669565961
  30
0.0
  11
 218.92671406094
  21
 163.69669565961
  31
0.0
   0
LINE
   5
1EC
 100
AcDbEntity
   8
LEVEL001
 100
AcDbLine
   6
CONTINUOUS
  62
7
  10
 191.12671406094
  20
 164.94131140158
  30
0.0
  11
 218.92671406094
  21
 164.94131140158
  31
0.0
   0
LINE
   5
1ED
 100
AcDbEntity
   8
LEVEL001
 100
AcDbLine
   6
DOT
  62
1
  10
 217.42671406094
  20
 163.39669565961
  30
0.0
  11
 218.92671406094
  21
 163.39669565961
  31
0.0
   0
LINE
   5
1EE
 100
AcDbEntity
   8
LEVEL001
 100
AcDbLine
   6
DOT
  62
1
  10
 217.42671406094
  20
 157.49669565961
  30
0.0
  11
 217.42671406094
  21
 163.39669565961
  31
0.0
   0
LINE
   5
1EF
 100
AcDbEntity
   8
LEVEL001
 100
AcDbLine
   6
DOT
  62
1
  10
 217.62671406094
  20
 157.49669565961
  30
0.0
  11
 217.62671406094
  21
 163.72279946734
  31
0.0
   0
ARC
   5
1F0
 100
AcDbEntity
   8
LEVEL001
   6
DOT
  62
1
 100
AcDbCircle
  10
 214.42671406094
  20
 159.39669565961
  30
0.0
  40
 3.0000000000000
 100
AcDbArc
  50
0.0
  51
 89.999999999991
   0
LINE
   5
1F1
 100
AcDbEntity
   8
LEVEL001
 100
AcDbLine
   6
DOT
  62
1
  10
 217.42671406094
  20
 158.19669565961
  30
0.0
  11
 217.12671406094
  21
 158.19669565961
  31
0.0
   0
ARC
   5
1F2
 100
AcDbEntity
   8
LEVEL001
   6
DOT
  62
1
 100
AcDbCircle
  10
 217.62671406094
  20
 157.89669565961
  30
0.0
  40
 0.30000000000000
 100
AcDbArc
  50
 89.999999999951
  51
 269.99999999995
   0
LINE
   5
1F3
 100
AcDbEntity
   8
LEVEL001
 100
AcDbLine
   6
DOT
  62
1
  10
 217.12671406094
  20
 157.39669565961
  30
0.0
  11
 217.12671406094
  21
 158.19669565961
  31
0.0
   0
LINE
   5
1F4
 100
AcDbEntity
   8
LEVEL001
 100
AcDbLine
   6
DOT
  62
1
  10
 192.72671406094
  20
 157.39669565961
  30
0.0
  11
 192.72671406094
  21
 158.19669565961
  31
0.0
   0
DIMENSION
   5
1F5
 100
AcDbEntity
   8
LEVEL001
   6
CONTINUOUS
  62
3
 100
AcDbDimension
   2
*D4
  10
 323.44082983849
  20
 163.41966823607
  30
0.0
  11
 327.07753466869
  21
 166.98202843375
  31
0.0
  70
132
   3
GMM003
 100
AcDbRadialDimension
  15
 323.65514112958
  25
 163.62959839234
  35
0.0
  40
 5.0882551261969
   0
LINE
   5
1F6
 100
AcDbEntity
   8
LEVEL001
 100
AcDbLine
   6
DASHDOT
  62
3
  10
 305.24082983849
  20
 220.94257372485
  30
0.0
  11
 305.24082983849
  21
 147.01018926957
  31
0.0
   0
ARC
   5
1F7
 100
AcDbEntity
   8
LEVEL001
   6
CONTINUOUS
  62
6
 100
AcDbCircle
  10
 123.03723645376
  20
 215.89669565961
  30
0.0
  40
 20.000000000000
 100
AcDbArc
  50
 240.65941842498
  51
 241.04497562814
   0
ARC
   5
1F8
 100
AcDbEntity
   8
LEVEL001
   6
CONTINUOUS
  62
6
 100
AcDbCircle
  10
 123.03723645376
  20
 215.89669565961
  30
0.0
  40
 20.000000000000
 100
AcDbArc
  50
 240.00000000001
  51
 240.65941842499
   0
ARC
   5
1F9
 100
AcDbEntity
   8
LEVEL001
   6
CONTINUOUS
  62
6
 100
AcDbCircle
  10
 123.03723645376
  20
 215.89669565961
  30
0.0
  40
 20.000000000000
 100
AcDbArc
  50
 236.63298703077
  51
 240.00000000000
   0
ARC
   5
1FA
 100
AcDbEntity
   8
LEVEL001
   6
CONTINUOUS
  62
7
 100
AcDbCircle
  10
 112.03723645376
  20
 199.79545347150
  30
0.0
  40
 0.50000000000000
 100
AcDbArc
  50
 179.99999999973
  51
 235.66000505582
   0
LINE
   5
1FB
 100
AcDbEntity
   8
LEVEL001
 100
AcDbLine
   6
CONTINUOUS
  62
7
  10
 123.03723645376
  20
 155.89669565961
  30
0.0
  11
 141.53723645376
  21
 155.89669565961
  31
0.0
   0
ARC
   5
1FC
 100
AcDbEntity
   8
LEVEL001
   6
CONTINUOUS
  62
7
 100
AcDbCircle
  10
 128.03723645376
  20
 194.47241037398
  30
0.0
  40
 2.0000000000000
 100
AcDbArc
  50
 103.13655878693
  51
 180.00000000000
   0
LINE
   5
1FD
 100
AcDbEntity
   8
LEVEL001
 100
AcDbLine
   6
CONTINUOUS
  62
6
  10
 105.93723645376
  20
 157.49669565961
  30
0.0
  11
 105.53723645376
  21
 157.49669565961
  31
0.0
   0
LINE
   5
1FE
 100
AcDbEntity
   8
LEVEL001
 100
AcDbLine
   6
CONTINUOUS
  62
7
  10
 140.53723645376
  20
 157.39669565961
  30
0.0
  11
 141.53723645376
  21
 157.39669565961
  31
0.0
   0
LINE
   5
1FF
 100
AcDbEntity
   8
LEVEL001
 100
AcDbLine
   6
CONTINUOUS
  62
7
  10
 140.53723645376
  20
 157.39669565961
  30
0.0
  11
 104.53723645376
  21
 157.39669565961
  31
0.0
   0
LINE
   5
200
 100
AcDbEntity
   8
LEVEL001
 100
AcDbLine
   6
CONTINUOUS
  62
7
  10
 104.53723645376
  20
 155.89669565961
  30
0.0
  11
 104.53723645376
  21
 157.49669565961
  31
0.0
   0
LINE
   5
201
 100
AcDbEntity
   8
LEVEL001
 100
AcDbLine
   6
CONTINUOUS
  62
7
  10
 141.53723645376
  20
 155.89669565961
  30
0.0
  11
 141.53723645376
  21
 157.49669565961
  31
0.0
   0
LINE
   5
202
 100
AcDbEntity
   8
LEVEL001
 100
AcDbLine
   6
CONTINUOUS
  62
7
  10
 111.03723645376
  20
 157.39669565961
  30
0.0
  11
 111.03723645376
  21
 157.49669565961
  31
0.0
   0
LINE
   5
203
 100
AcDbEntity
   8
LEVEL001
 100
AcDbLine
   6
CONTINUOUS
  62
7
  10
 110.03723645376
  20
 157.39669565961
  30
0.0
  11
 110.03723645376
  21
 157.49669565961
  31
0.0
   0
LINE
   5
204
 100
AcDbEntity
   8
LEVEL001
 100
AcDbLine
   6
CONTINUOUS
  62
7
  10
 136.03723645376
  20
 157.39669565961
  30
0.0
  11
 136.03723645376
  21
 157.49669565961
  31
0.0
   0
LINE
   5
205
 100
AcDbEntity
   8
LEVEL001
 100
AcDbLine
   6
CONTINUOUS
  62
7
  10
 135.03723645376
  20
 157.39669565961
  30
0.0
  11
 135.03723645376
  21
 157.49669565961
  31
0.0
   0
LINE
   5
206
 100
AcDbEntity
   8
LEVEL001
 100
AcDbLine
   6
CONTINUOUS
  62
7
  10
 104.53723645376
  20
 155.89669565961
  30
0.0
  11
 123.03723645376
  21
 155.89669565961
  31
0.0
   0
LINE
   5
207
 100
AcDbEntity
   8
LEVEL001
 100
AcDbLine
   6
CONTINUOUS
  62
7
  10
 126.03723645376
  20
 164.94131140158
  30
0.0
  11
 126.03723645376
  21
 194.47241037398
  31
0.0
   0
LINE
   5
208
 100
AcDbEntity
   8
LEVEL001
 100
AcDbLine
   6
CONTINUOUS
  62
7
  10
 120.03723645376
  20
 165.49669565961
  30
0.0
  11
 123.03723645376
  21
 165.49669565961
  31
0.0
   0
LINE
   5
209
 100
AcDbEntity
   8
LEVEL001
 100
AcDbLine
   6
CONTINUOUS
  62
7
  10
 123.03723645376
  20
 165.49669565961
  30
0.0
  11
 126.03723645376
  21
 165.49669565961
  31
0.0
   0
ARC
   5
20A
 100
AcDbEntity
   8
LEVEL001
   6
CONTINUOUS
  62
7
 100
AcDbCircle
  10
 123.03723645376
  20
 215.89669565961
  30
0.0
  40
 20.000000000000
 100
AcDbArc
  50
 235.66000505630
  51
 256.86344121306
   0
ARC
   5
20B
 100
AcDbEntity
   8
LEVEL001
   6
CONTINUOUS
  62
7
 100
AcDbCircle
  10
 118.03723645376
  20
 194.47241037398
  30
0.0
  40
 2.0000000000000
 100
AcDbArc
  50
0.0
  51
 76.863441213030
   0
ARC
   5
20C
 100
AcDbEntity
   8
LEVEL001
   6
CONTINUOUS
  62
7
 100
AcDbCircle
  10
 123.03723645376
  20
 215.89669565961
  30
0.0
  40
 20.000000000000
 100
AcDbArc
  50
 283.13655878694
  51
 304.33999494370
   0
ARC
   5
20D
 100
AcDbEntity
   8
LEVEL001
   6
CONTINUOUS
  62
7
 100
AcDbCircle
  10
 128.03723645376
  20
 194.47241037398
  30
0.0
  40
 2.0000000000000
 100
AcDbArc
  50
 103.13655878693
  51
 180.00000000000
   0
ARC
   5
20E
 100
AcDbEntity
   8
LEVEL001
   6
CONTINUOUS
  62
7
 100
AcDbCircle
  10
 134.03723645376
  20
 199.79545347150
  30
0.0
  40
 0.50000000000000
 100
AcDbArc
  50
 304.33999494420
  51
 0.28009236746640E-9
   0
LINE
   5
20F
 100
AcDbEntity
   8
LEVEL001
 100
AcDbLine
   6
DOT
  62
1
  10
 114.18823528716
  20
 200.42429512322
  30
0.0
  11
 112.22138131426
  21
 199.62963453578
  31
0.0
   0
LINE
   5
210
 100
AcDbEntity
   8
LEVEL001
 100
AcDbLine
   6
DOT
  62
1
  10
 114.18823528716
  20
 200.42429512322
  30
0.0
  11
 118.05435567166
  21
 198.78322438372
  31
0.0
   0
LINE
   5
211
 100
AcDbEntity
   8
LEVEL001
 100
AcDbLine
   6
DOT
  62
1
  10
 114.18823528716
  20
 200.42429512322
  30
0.0
  11
 114.31579215841
  21
 200.72480028014
  31
0.0
   0
LINE
   5
212
 100
AcDbEntity
   8
LEVEL001
 100
AcDbLine
   6
DOT
  62
1
  10
 112.03643568816
  20
 199.19392994505
  30
0.0
  11
 112.22138131422
  21
 199.62963453577
  31
0.0
   0
LINE
   5
213
 100
AcDbEntity
   8
LEVEL001
 100
AcDbLine
   6
DOT
  62
1
  10
 118.05435567173
  20
 198.78322438354
  30
0.0
  11
 118.84901625917
  21
 196.81637041064
  31
0.0
   0
LINE
   5
214
 100
AcDbEntity
   8
LEVEL001
 100
AcDbLine
   6
DOT
  62
1
  10
 118.05435567166
  20
 198.78322438372
  30
0.0
  11
 118.18191254284
  21
 199.08372954049
  31
0.0
   0
LINE
   5
215
 100
AcDbEntity
   8
LEVEL001
 100
AcDbLine
   6
DOT
  62
1
  10
 118.66407063312
  20
 196.38066581988
  30
0.0
  11
 118.84901625919
  21
 196.81637041060
  31
0.0
   0
LINE
   5
216
 100
AcDbEntity
   8
LEVEL001
 100
AcDbLine
   6
DOT
  62
1
  10
 128.02011723579
  20
 198.78322438354
  30
0.0
  11
 127.22545664835
  21
 196.81637041064
  31
0.0
   0
LINE
   5
217
 100
AcDbEntity
   8
LEVEL001
 100
AcDbLine
   6
DOT
  62
1
  10
 128.02011723586
  20
 198.78322438372
  30
0.0
  11
 127.89256036467
  21
 199.08372954049
  31
0.0
   0
LINE
   5
218
 100
AcDbEntity
   8
LEVEL001
 100
AcDbLine
   6
DOT
  62
1
  10
 128.02011723586
  20
 198.78322438372
  30
0.0
  11
 131.88623762035
  21
 200.42429512322
  31
0.0
   0
LINE
   5
219
 100
AcDbEntity
   8
LEVEL001
 100
AcDbLine
   6
DOT
  62
1
  10
 127.41040227440
  20
 196.38066581988
  30
0.0
  11
 127.22545664833
  21
 196.81637041060
  31
0.0
   0
LINE
   5
21A
 100
AcDbEntity
   8
LEVEL001
 100
AcDbLine
   6
DOT
  62
1
  10
 131.88623762035
  20
 200.42429512322
  30
0.0
  11
 133.85309159326
  21
 199.62963453578
  31
0.0
   0
LINE
   5
21B
 100
AcDbEntity
   8
LEVEL001
 100
AcDbLine
   6
DOT
  62
1
  10
 131.88623762035
  20
 200.42429512322
  30
0.0
  11
 131.75868074910
  21
 200.72480028014
  31
0.0
   0
LINE
   5
21C
 100
AcDbEntity
   8
LEVEL001
 100
AcDbLine
   6
DOT
  62
1
  10
 134.03803721936
  20
 199.19392994505
  30
0.0
  11
 133.85309159329
  21
 199.62963453577
  31
0.0
   0
LINE
   5
21D
 100
AcDbEntity
   8
LEVEL001
 100
AcDbLine
   6
DOT
  62
1
  10
 127.22545664832
  20
 196.81637041063
  30
0.0
  11
 133.85309159326
  21
 199.62963453578
  31
0.0
   0
LINE
   5
21E
 100
AcDbEntity
   8
LEVEL001
 100
AcDbLine
   6
DOT
  62
1
  10
 112.22138131423
  20
 199.62963453579
  30
0.0
  11
 118.84901625917
  21
 196.81637041064
  31
0.0
   0
LINE
   5
21F
 100
AcDbEntity
   8
LEVEL001
 100
AcDbLine
   6
DASHDOT
  62
3
  10
 113.58357500693
  20
 215.89669565961
  30
0.0
  11
 131.51681496307
  21
 215.89669565961
  31
0.0
   0
LINE
   5
220
 100
AcDbEntity
   8
LEVEL001
 100
AcDbLine
   6
DASHDOT
  62
3
  10
 102.33150452893
  20
 157.89669565961
  30
0.0
  11
 114.33683180447
  21
 157.89669565961
  31
0.0
   0
LINE
   5
221
 100
AcDbEntity
   8
LEVEL001
 100
AcDbLine
   6
DASHDOT
  62
3
  10
 109.09776469372
  20
 167.56805898802
  30
0.0
  11
 112.07880742111
  21
 150.66172556470
  31
0.0
   0
LINE
   5
222
 100
AcDbEntity
   8
LEVEL001
 100
AcDbLine
   6
DASHDOT
  62
3
  10
 110.53723645376
  20
 167.69559488122
  30
0.0
  11
 110.53723645376
  21
 150.33877223726
  31
0.0
   0
LINE
   5
223
 100
AcDbEntity
   8
LEVEL001
 100
AcDbLine
   6
CONTINUOUS
  62
7
  10
 119.58420800745
  20
 164.89669565961
  30
0.0
  11
 123.03723645376
  21
 164.89669565961
  31
0.0
   0
ARC
   5
224
 100
AcDbEntity
   8
LEVEL001
   6
DOT
  62
1
 100
AcDbCircle
  10
 119.03723645376
  20
 163.39669565961
  30
0.0
  40
 1.0000000000000
 100
AcDbArc
  50
 270.00000000000
  51
 0.11073419178983E-9
   0
LINE
   5
225
 100
AcDbEntity
   8
LEVEL001
 100
AcDbLine
   6
DOT
  62
1
  10
 105.53723645376
  20
 157.39669565961
  30
0.0
  11
 105.53723645376
  21
 160.89669565961
  31
0.0
   0
LINE
   5
226
 100
AcDbEntity
   8
LEVEL001
 100
AcDbLine
   6
DOT
  62
1
  10
 119.83723645376
  20
 157.49669565961
  30
0.0
  11
 119.83723645376
  21
 164.89669565961
  31
0.0
   0
LINE
   5
227
 100
AcDbEntity
   8
LEVEL001
 100
AcDbLine
   6
CONTINUOUS
  62
15
  10
 141.53723645376
  20
 157.49669565961
  30
0.0
  11
 104.53723645376
  21
 157.49669565961
  31
0.0
   0
LINE
   5
228
 100
AcDbEntity
   8
LEVEL001
 100
AcDbLine
   6
DOT
  62
1
  10
 120.03723645376
  20
 164.89669565961
  30
0.0
  11
 120.03723645376
  21
 163.39669565961
  31
0.0
   0
LINE
   5
229
 100
AcDbEntity
   8
LEVEL001
 100
AcDbLine
   6
CONTINUOUS
  62
7
  10
 120.03723645376
  20
 164.89669565961
  30
0.0
  11
 120.03723645376
  21
 194.47241037398
  31
0.0
   0
LINE
   5
22A
 100
AcDbEntity
   8
LEVEL001
 100
AcDbLine
   6
DOT
  62
1
  10
 105.43723645376
  20
 162.56466088533
  30
0.0
  11
 119.83723645376
  21
 163.71306473114
  31
0.0
   0
LINE
   5
22B
 100
AcDbEntity
   8
LEVEL001
 100
AcDbLine
   6
DOT
  62
1
  10
 105.43723645376
  20
 157.49669565961
  30
0.0
  11
 105.43723645376
  21
 162.56466088533
  31
0.0
   0
LINE
   5
22C
 100
AcDbEntity
   8
LEVEL001
 100
AcDbLine
   6
DOT
  62
1
  10
 105.53723645376
  20
 160.89669565962
  30
0.0
  11
 114.04415918313
  21
 162.39669565961
  31
0.0
   0
LINE
   5
22D
 100
AcDbEntity
   8
LEVEL001
 100
AcDbLine
   6
DOT
  62
1
  10
 105.52663979681
  20
 158.52090558547
  30
0.0
  11
 114.27950591518
  21
 160.06427204067
  31
0.0
   0
LINE
   5
22E
 100
AcDbEntity
   8
LEVEL001
 100
AcDbLine
   6
DOT
  62
1
  10
 114.04415918313
  20
 162.39669565961
  30
0.0
  11
 119.03723645376
  21
 162.39669565961
  31
0.0
   0
LINE
   5
22F
 100
AcDbEntity
   8
LEVEL001
 100
AcDbLine
   6
DOT
  62
1
  10
 112.88723645376
  20
 155.89669565961
  30
0.0
  11
 112.88723645376
  21
 159.81028606352
  31
0.0
   0
LINE
   5
230
 100
AcDbEntity
   8
LEVEL001
 100
AcDbLine
   6
DOT
  62
1
  10
 114.27950591518
  20
 160.06427204067
  30
0.0
  11
 114.27950591518
  21
 162.39669565961
  31
0.0
   0
LINE
   5
231
 100
AcDbEntity
   8
LEVEL001
 100
AcDbLine
   6
DOT
  62
1
  10
 108.18723645376
  20
 155.89669565961
  30
0.0
  11
 108.18723645376
  21
 158.99004056087
  31
0.0
   0
LINE
   5
232
 100
AcDbEntity
   8
LEVEL001
 100
AcDbLine
   6
DOT
  62
1
  10
 110.03723645376
  20
 157.49669565961
  30
0.0
  11
 110.03723645376
  21
 158.19669565961
  31
0.0
   0
LINE
   5
233
 100
AcDbEntity
   8
LEVEL001
 100
AcDbLine
   6
DOT
  62
1
  10
 111.03723645376
  20
 157.49669565961
  30
0.0
  11
 111.03723645376
  21
 158.19669565961
  31
0.0
   0
LINE
   5
234
 100
AcDbEntity
   8
LEVEL001
 100
AcDbLine
   6
DOT
  62
1
  10
 110.03723645376
  20
 158.19669565961
  30
0.0
  11
 111.03723645376
  21
 158.19669565961
  31
0.0
   0
LINE
   5
235
 100
AcDbEntity
   8
LEVEL001
 100
AcDbLine
   6
DASHDOT
  62
3
  10
 143.74296837859
  20
 157.89669565961
  30
0.0
  11
 131.73764110304
  21
 157.89669565961
  31
0.0
   0
LINE
   5
236
 100
AcDbEntity
   8
LEVEL001
 100
AcDbLine
   6
DASHDOT
  62
3
  10
 136.97670821379
  20
 167.56805898802
  30
0.0
  11
 133.99566548641
  21
 150.66172556470
  31
0.0
   0
LINE
   5
237
 100
AcDbEntity
   8
LEVEL001
 100
AcDbLine
   6
DASHDOT
  62
3
  10
 135.53723645376
  20
 167.69559488122
  30
0.0
  11
 135.53723645376
  21
 150.33877223726
  31
0.0
   0
ARC
   5
238
 100
AcDbEntity
   8
LEVEL001
   6
CONTINUOUS
  62
7
 100
AcDbCircle
  10
 141.23723645376
  20
 163.41966823607
  30
0.0
  40
 0.30000000000000
 100
AcDbArc
  50
 0.43425173251288E-10
  51
 85.440296672508
   0
LINE
   5
239
 100
AcDbEntity
   8
LEVEL001
 100
AcDbLine
   6
CONTINUOUS
  62
7
  10
 126.49026490007
  20
 164.89669565961
  30
0.0
  11
 141.26108581188
  21
 163.71871874705
  31
0.0
   0
LINE
   5
23A
 100
AcDbEntity
   8
LEVEL001
 100
AcDbLine
   6
CONTINUOUS
  62
7
  10
 141.53723645376
  20
 157.49669565961
  30
0.0
  11
 141.53723645376
  21
 163.41966823607
  31
0.0
   0
LINE
   5
23B
 100
AcDbEntity
   8
LEVEL001
 100
AcDbLine
   6
DOT
  62
1
  10
 140.53723645376
  20
 157.39669565961
  30
0.0
  11
 140.53723645376
  21
 160.89669565961
  31
0.0
   0
LINE
   5
23C
 100
AcDbEntity
   8
LEVEL001
 100
AcDbLine
   6
DOT
  62
1
  10
 140.63723645376
  20
 162.56466088533
  30
0.0
  11
 126.23723645376
  21
 163.71306473114
  31
0.0
   0
LINE
   5
23D
 100
AcDbEntity
   8
LEVEL001
 100
AcDbLine
   6
DOT
  62
1
  10
 140.63723645376
  20
 157.49669565961
  30
0.0
  11
 140.63723645376
  21
 162.56466088533
  31
0.0
   0
LINE
   5
23E
 100
AcDbEntity
   8
LEVEL001
 100
AcDbLine
   6
DOT
  62
1
  10
 140.53723645376
  20
 160.89669565962
  30
0.0
  11
 132.03031372439
  21
 162.39669565961
  31
0.0
   0
LINE
   5
23F
 100
AcDbEntity
   8
LEVEL001
 100
AcDbLine
   6
DOT
  62
1
  10
 140.54783311071
  20
 158.52090558547
  30
0.0
  11
 131.79496699233
  21
 160.06427204067
  31
0.0
   0
LINE
   5
240
 100
AcDbEntity
   8
LEVEL001
 100
AcDbLine
   6
DOT
  62
1
  10
 132.03031372439
  20
 162.39669565961
  30
0.0
  11
 127.03723645376
  21
 162.39669565961
  31
0.0
   0
LINE
   5
241
 100
AcDbEntity
   8
LEVEL001
 100
AcDbLine
   6
DOT
  62
1
  10
 133.18723645376
  20
 155.89669565961
  30
0.0
  11
 133.18723645376
  21
 159.81028606352
  31
0.0
   0
LINE
   5
242
 100
AcDbEntity
   8
LEVEL001
 100
AcDbLine
   6
DOT
  62
1
  10
 131.79496699233
  20
 160.06427204067
  30
0.0
  11
 131.79496699233
  21
 162.39669565961
  31
0.0
   0
LINE
   5
243
 100
AcDbEntity
   8
LEVEL001
 100
AcDbLine
   6
DOT
  62
1
  10
 137.88723645376
  20
 155.89669565961
  30
0.0
  11
 137.88723645376
  21
 158.99004056087
  31
0.0
   0
LINE
   5
244
 100
AcDbEntity
   8
LEVEL001
 100
AcDbLine
   6
DOT
  62
1
  10
 136.03723645376
  20
 157.49669565961
  30
0.0
  11
 136.03723645376
  21
 158.19669565961
  31
0.0
   0
LINE
   5
245
 100
AcDbEntity
   8
LEVEL001
 100
AcDbLine
   6
DOT
  62
1
  10
 135.03723645376
  20
 157.49669565961
  30
0.0
  11
 135.03723645376
  21
 158.19669565961
  31
0.0
   0
LINE
   5
246
 100
AcDbEntity
   8
LEVEL001
 100
AcDbLine
   6
DOT
  62
1
  10
 136.03723645376
  20
 158.19669565961
  30
0.0
  11
 135.03723645376
  21
 158.19669565961
  31
0.0
   0
ARC
   5
247
 100
AcDbEntity
   8
LEVEL001
   6
DOT
  62
1
 100
AcDbCircle
  10
 127.03723645376
  20
 163.39669565961
  30
0.0
  40
 1.0000000000000
 100
AcDbArc
  50
 179.99999999996
  51
 270.00000000000
   0
LINE
   5
248
 100
AcDbEntity
   8
LEVEL001
 100
AcDbLine
   6
DOT
  62
1
  10
 126.23723645376
  20
 157.49669565961
  30
0.0
  11
 126.23723645376
  21
 164.89669565961
  31
0.0
   0
LINE
   5
249
 100
AcDbEntity
   8
LEVEL001
 100
AcDbLine
   6
DOT
  62
1
  10
 126.03723645376
  20
 164.89669565961
  30
0.0
  11
 126.03723645376
  21
 163.39669565961
  31
0.0
   0
LINE
   5
24A
 100
AcDbEntity
   8
LEVEL001
 100
AcDbLine
   6
CONTINUOUS
  62
7
  10
 126.49026490007
  20
 164.89669565961
  30
0.0
  11
 123.03723645376
  21
 164.89669565961
  31
0.0
   0
LINE
   5
24B
 100
AcDbEntity
   8
LEVEL001
 100
AcDbLine
   6
CONTINUOUS
  62
7
  10
 104.53723645376
  20
 157.49669565961
  30
0.0
  11
 104.53723645376
  21
 163.41966823607
  31
0.0
   0
ARC
   5
24C
 100
AcDbEntity
   8
LEVEL001
   6
CONTINUOUS
  62
7
 100
AcDbCircle
  10
 104.83723645376
  20
 163.41966823607
  30
0.0
  40
 0.30000000000000
 100
AcDbArc
  50
 94.559703327966
  51
 179.99999999999
   0
POINT
   5
24D
 100
AcDbEntity
   8
LEVEL001
 100
AcDbPoint
  62
7
  10
 104.53723645376
  20
 163.69669565961
  30
0.0
   0
LINE
   5
24E
 100
AcDbEntity
   8
LEVEL001
 100
AcDbLine
   6
CONTINUOUS
  62
7
  10
 119.58420800745
  20
 164.89669565961
  30
0.0
  11
 104.81338709564
  21
 163.71871874705
  31
0.0
   0
DIMENSION
   5
24F
 100
AcDbEntity
   8
LEVEL001
   6
CONTINUOUS
  62
3
 100
AcDbDimension
   2
*D5
  10
 96.030037871182
  20
 163.69669565961
  30
0.0
  11
 96.030037871182
  21
 159.79669565961
  31
0.0
  70
0
   3
GMM002
 100
AcDbAlignedDimension
  13
 104.53723645376
  23
 155.89669565961
  33
0.0
  14
 104.53723645376
  24
 163.69669565961
  34
0.0
  50
 90.000000000000
 100
AcDbRotatedDimension
   0
DIMENSION
   5
250
 100
AcDbEntity
   8
LEVEL001
   6
CONTINUOUS
  62
3
 100
AcDbDimension
   2
*D6
  10
 87.215059081012
  20
 164.89669565961
  30
0.0
  11
 87.215059081012
  21
 160.39669565961
  31
0.0
  70
0
   3
GMM002
 100
AcDbAlignedDimension
  13
 95.030037871182
  23
 155.89669565961
  33
0.0
  14
 119.58420800745
  24
 164.89669565961
  34
0.0
  50
 90.000000000000
 100
AcDbRotatedDimension
   0
LINE
   5
251
 100
AcDbEntity
   8
LEVEL001
 100
AcDbLine
   6
CONTINUOUS
  62
7
  10
 134.53723645376
  20
 199.79545347151
  30
0.0
  11
 134.53723645376
  21
 201.64888881084
  31
0.0
   0
ARC
   5
252
 100
AcDbEntity
   8
LEVEL001
   6
CONTINUOUS
  62
7
 100
AcDbCircle
  10
 134.03723645376
  20
 201.64888881083
  30
0.0
  40
 0.50000000000000
 100
AcDbArc
  50
 0.29963369542927E-9
  51
 127.66988696383
   0
LINE
   5
253
 100
AcDbEntity
   8
LEVEL001
 100
AcDbLine
   6
CONTINUOUS
  62
7
  10
 111.53723645376
  20
 199.79545347151
  30
0.0
  11
 111.53723645376
  21
 201.64888881084
  31
0.0
   0
ARC
   5
254
 100
AcDbEntity
   8
LEVEL001
   6
CONTINUOUS
  62
7
 100
AcDbCircle
  10
 112.03723645376
  20
 201.64888881084
  30
0.0
  40
 0.50000000000000
 100
AcDbArc
  50
 52.330113035406
  51
 180.00000000016
   0
ARC
   5
255
 100
AcDbEntity
   8
LEVEL001
   6
CONTINUOUS
  62
7
 100
AcDbCircle
  10
 123.03723645376
  20
 215.89669565961
  30
0.0
  40
 17.500000000000
 100
AcDbArc
  50
 232.33011303567
  51
 307.66988696434
   0
DIMENSION
   5
256
 100
AcDbEntity
   8
LEVEL001
   6
CONTINUOUS
  62
3
 100
AcDbDimension
   2
*D7
  10
 134.53723645376
  20
 222.00880630093
  30
0.0
  11
 123.03723645376
  21
 222.00880630093
  31
0.0
  70
0
   3
GMM002
 100
AcDbAlignedDimension
  13
 111.53723645376
  23
 201.64888881084
  33
0.0
  14
 134.53723645376
  24
 201.64888881084
  34
0.0
 100
AcDbRotatedDimension
   0
DIMENSION
   5
257
 100
AcDbEntity
   8
LEVEL001
   6
CONTINUOUS
  62
3
 100
AcDbDimension
   2
*D8
  10
 123.03723645376
  20
 215.89669565961
  30
0.0
  11
 133.90681843921
  21
 195.60998419852
  31
0.0
  70
132
   3
GMM003
 100
AcDbRadialDimension
  15
 131.30211603355
  25
 200.47133454450
  35
0.0
  40
 5.7754633856224
   0
DIMENSION
   5
258
 100
AcDbEntity
   8
LEVEL001
   6
CONTINUOUS
  62
3
 100
AcDbDimension
   2
*D9
  10
 126.03723645376
  20
 174.23314648895
  30
0.0
  11
 116.67748157278
  21
 174.23314648895
  31
0.0
  70
128
   3
GMM004
 100
AcDbAlignedDimension
  13
 120.03723645376
  23
 173.87543925545
  33
0.0
  14
 126.03723645376
  24
 174.23314648895
  34
0.0
 100
AcDbRotatedDimension
   0
DIMENSION
   5
259
 100
AcDbEntity
   8
LEVEL001
   6
CONTINUOUS
  62
3
 100
AcDbDimension
   2
*D10
  10
 158.13399769588
  20
 215.89669565961
  30
0.0
  11
 158.13399769588
  21
 185.89669565961
  31
0.0
  70
0
   3
GMM002
 100
AcDbAlignedDimension
  13
 141.53723645376
  23
 155.89669565961
  33
0.0
  14
 131.51681496307
  24
 215.89669565961
  34
0.0
  50
 90.000000000000
 100
AcDbRotatedDimension
   0
INSERT
   5
25A
 100
AcDbEntity
   8
LEVEL001
 100
AcDbBlockReference
   2
*D11
  10
0.0
  20
0.0
  30
0.0
   0
DIMENSION
   5
25B
 100
AcDbEntity
   8
LEVEL001
   6
CONTINUOUS
  62
3
 100
AcDbDimension
   2
*D12
  10
 218.92671406094
  20
 220.77309426474
  30
0.0
  11
 204.92671406094
  21
 220.77309426474
  31
0.0
  70
0
   3
GMM002
 100
AcDbAlignedDimension
  13
 190.92671406094
  23
 202.05113690725
  33
0.0
  14
 218.92671406094
  24
 202.05113690725
  34
0.0
 100
AcDbRotatedDimension
   0
LINE
   5
25C
 100
AcDbEntity
   8
LEVEL001
 100
AcDbLine
   6
DASHDOT
  62
3
  10
 124.60163598265
  20
 219.58218999084
  30
0.0
  11
 113.08096172496
  21
 192.44118228498
  31
0.0
   0
LINE
   5
25D
 100
AcDbEntity
   8
LEVEL001
 100
AcDbLine
   6
DASHDOT
  62
3
  10
 121.47556986918
  20
 219.57575157752
  30
0.0
  11
 132.78115721652
  21
 192.94145687827
  31
0.0
   0
LINE
   5
25E
 100
AcDbEntity
   8
LEVEL001
 100
AcDbLine
   6
DASHDOT
  62
3
  10
 123.03723645376
  20
 221.46360457509
  30
0.0
  11
 123.03723645376
  21
 148.98475900948
  31
0.0
   0
CIRCLE
   5
25F
 100
AcDbEntity
   8
LEVEL001
 100
AcDbCircle
   6
CONTINUOUS
  62
7
  10
 212.42671406094
  20
 87.615758861740
  30
0.0
  40
 2.3500000000000
   0
CIRCLE
   5
260
 100
AcDbEntity
   8
LEVEL001
 100
AcDbCircle
   6
CONTINUOUS
  62
7
  10
 212.42671406094
  20
 112.61575886174
  30
0.0
  40
 2.3500000000000
   0
LINE
   5
261
 100
AcDbEntity
   8
LEVEL001
 100
AcDbLine
   6
CONTINUOUS
  62
7
  10
 197.46671406094
  20
 92.615758861740
  30
0.0
  11
 199.01419228387
  21
 92.615758861740
  31
0.0
   0
LINE
   5
262
 100
AcDbEntity
   8
LEVEL001
 100
AcDbLine
   6
CONTINUOUS
  62
7
  10
 195.42671406094
  20
 92.615758861740
  30
0.0
  11
 197.40408605426
  21
 92.615758861740
  31
0.0
   0
LINE
   5
263
 100
AcDbEntity
   8
LEVEL001
 100
AcDbLine
   6
CONTINUOUS
  62
7
  10
 194.42671406094
  20
 94.047809669309
  30
0.0
  11
 194.42671406094
  21
 95.774082154898
  31
0.0
   0
LINE
   5
264
 100
AcDbEntity
   8
LEVEL001
 100
AcDbLine
   6
CONTINUOUS
  62
7
  10
 194.42671406094
  20
 95.774082154898
  30
0.0
  11
 194.42671406094
  21
 97.115758861740
  31
0.0
   0
LINE
   5
265
 100
AcDbEntity
   8
LEVEL001
 100
AcDbLine
   6
CONTINUOUS
  62
7
  10
 210.83923583801
  20
 107.61575886174
  30
0.0
  11
 212.42671406094
  21
 107.61575886174
  31
0.0
   0
LINE
   5
266
 100
AcDbEntity
   8
LEVEL001
 100
AcDbLine
   6
CONTINUOUS
  62
7
  10
 215.42671406094
  20
 104.45743556858
  30
0.0
  11
 215.42671406094
  21
 106.18370805417
  31
0.0
   0
LINE
   5
267
 100
AcDbEntity
   8
LEVEL001
 100
AcDbLine
   6
CONTINUOUS
  62
7
  10
 215.42671406094
  20
 103.11575886174
  30
0.0
  11
 215.42671406094
  21
 104.45743556858
  31
0.0
   0
LINE
   5
268
 100
AcDbEntity
   8
LEVEL001
 100
AcDbLine
   6
CONTINUOUS
  62
7
  10
 194.42671406094
  20
 103.11575886174
  30
0.0
  11
 194.42671406094
  21
 106.61575886174
  31
0.0
   0
ARC
   5
269
 100
AcDbEntity
   8
LEVEL001
   6
CONTINUOUS
  62
7
 100
AcDbCircle
  10
 195.42671406093
  20
 106.61575886174
  30
0.0
  40
 1.0000000000000
 100
AcDbArc
  50
 89.999999999876
  51
 180.00000000000
   0
POINT
   5
26A
 100
AcDbEntity
   8
LEVEL001
 100
AcDbPoint
  62
7
  10
 194.42671406094
  20
 107.61575886174
  30
0.0
   0
LINE
   5
26B
 100
AcDbEntity
   8
LEVEL001
 100
AcDbLine
   6
CONTINUOUS
  62
7
  10
 195.42671406094
  20
 107.61575886174
  30
0.0
  11
 197.46671406094
  21
 107.61575886174
  31
0.0
   0
LINE
   5
26C
 100
AcDbEntity
   8
LEVEL001
 100
AcDbLine
   6
CONTINUOUS
  62
7
  10
 197.46671406094
  20
 107.61575886174
  30
0.0
  11
 202.67671406094
  21
 107.61575886174
  31
0.0
   0
ARC
   5
26D
 100
AcDbEntity
   8
LEVEL001
   6
CONTINUOUS
  62
7
 100
AcDbCircle
  10
 202.67671406094
  20
 106.61575886174
  30
0.0
  40
 1.0000000000000
 100
AcDbArc
  50
 0.58623983888736E-10
  51
 90.000000000000
   0
POINT
   5
26E
 100
AcDbEntity
   8
LEVEL001
 100
AcDbPoint
  62
7
  10
 203.67671406094
  20
 107.61575886174
  30
0.0
   0
LINE
   5
26F
 100
AcDbEntity
   8
LEVEL001
 100
AcDbLine
   6
CONTINUOUS
  62
7
  10
 203.67671406094
  20
 103.11575886174
  30
0.0
  11
 203.67671406094
  21
 106.61575886174
  31
0.0
   0
LINE
   5
270
 100
AcDbEntity
   8
LEVEL001
 100
AcDbLine
   6
CONTINUOUS
  62
7
  10
 203.67671406094
  20
 102.36575886174
  30
0.0
  11
 203.67671406094
  21
 103.11575886174
  31
0.0
   0
ARC
   5
271
 100
AcDbEntity
   8
LEVEL001
   6
CONTINUOUS
  62
7
 100
AcDbCircle
  10
 202.67671406094
  20
 102.36575886174
  30
0.0
  40
 1.0000000000000
 100
AcDbArc
  50
 269.99999999992
  51
0.0
   0
POINT
   5
272
 100
AcDbEntity
   8
LEVEL001
 100
AcDbPoint
  62
7
  10
 203.67671406094
  20
 101.36575886174
  30
0.0
   0
LINE
   5
273
 100
AcDbEntity
   8
LEVEL001
 100
AcDbLine
   6
CONTINUOUS
  62
7
  10
 197.46671406094
  20
 101.36575886174
  30
0.0
  11
 202.67671406094
  21
 101.36575886174
  31
0.0
   0
LINE
   5
274
 100
AcDbEntity
   8
LEVEL001
 100
AcDbLine
   6
CONTINUOUS
  62
7
  10
 194.42671406094
  20
 102.36575886174
  30
0.0
  11
 194.42671406094
  21
 103.11575886174
  31
0.0
   0
ARC
   5
275
 100
AcDbEntity
   8
LEVEL001
   6
CONTINUOUS
  62
7
 100
AcDbCircle
  10
 195.42671406093
  20
 102.36575886174
  30
0.0
  40
 1.0000000000000
 100
AcDbArc
  50
 180.00000000000
  51
 270.00000000015
   0
POINT
   5
276
 100
AcDbEntity
   8
LEVEL001
 100
AcDbPoint
  62
7
  10
 194.42671406094
  20
 101.36575886174
  30
0.0
   0
LINE
   5
277
 100
AcDbEntity
   8
LEVEL001
 100
AcDbLine
   6
CONTINUOUS
  62
7
  10
 195.42671406094
  20
 101.36575886174
  30
0.0
  11
 197.46671406094
  21
 101.36575886174
  31
0.0
   0
LINE
   5
278
 100
AcDbEntity
   8
LEVEL001
 100
AcDbLine
   6
CONTINUOUS
  62
7
  10
 206.17671406094
  20
 102.36575886174
  30
0.0
  11
 206.17671406094
  21
 103.11575886174
  31
0.0
   0
ARC
   5
279
 100
AcDbEntity
   8
LEVEL001
   6
CONTINUOUS
  62
7
 100
AcDbCircle
  10
 207.17671406094
  20
 102.36575886174
  30
0.0
  40
 1.0000000000000
 100
AcDbArc
  50
 180.00000000000
  51
 269.99999999994
   0
POINT
   5
27A
 100
AcDbEntity
   8
LEVEL001
 100
AcDbPoint
  62
7
  10
 206.17671406094
  20
 101.36575886174
  30
0.0
   0
LINE
   5
27B
 100
AcDbEntity
   8
LEVEL001
 100
AcDbLine
   6
CONTINUOUS
  62
7
  10
 207.17671406094
  20
 101.36575886174
  30
0.0
  11
 212.42671406094
  21
 101.36575886174
  31
0.0
   0
LINE
   5
27C
 100
AcDbEntity
   8
LEVEL001
 100
AcDbLine
   6
CONTINUOUS
  62
7
  10
 206.17671406094
  20
 103.11575886174
  30
0.0
  11
 206.17671406094
  21
 106.61575886174
  31
0.0
   0
ARC
   5
27D
 100
AcDbEntity
   8
LEVEL001
   6
CONTINUOUS
  62
7
 100
AcDbCircle
  10
 207.17671406094
  20
 106.61575886174
  30
0.0
  40
 1.0000000000000
 100
AcDbArc
  50
 90.000000000081
  51
 180.00000000000
   0
POINT
   5
27E
 100
AcDbEntity
   8
LEVEL001
 100
AcDbPoint
  62
7
  10
 206.17671406094
  20
 107.61575886174
  30
0.0
   0
LINE
   5
27F
 100
AcDbEntity
   8
LEVEL001
 100
AcDbLine
   6
CONTINUOUS
  62
7
  10
 207.17671406094
  20
 107.61575886174
  30
0.0
  11
 210.83923583801
  21
 107.61575886174
  31
0.0
   0
LINE
   5
280
 100
AcDbEntity
   8
LEVEL001
 100
AcDbLine
   6
CONTINUOUS
  62
7
  10
 212.44934206761
  20
 107.61575886174
  30
0.0
  11
 214.42671406094
  21
 107.61575886174
  31
0.0
   0
ARC
   5
281
 100
AcDbEntity
   8
LEVEL001
   6
CONTINUOUS
  62
7
 100
AcDbCircle
  10
 214.42671406094
  20
 106.61575886174
  30
0.0
  40
 1.0000000000000
 100
AcDbArc
  50
0.0
  51
 90.000000000000
   0
POINT
   5
282
 100
AcDbEntity
   8
LEVEL001
 100
AcDbPoint
  62
7
  10
 215.42671406094
  20
 107.61575886174
  30
0.0
   0
LINE
   5
283
 100
AcDbEntity
   8
LEVEL001
 100
AcDbLine
   6
CONTINUOUS
  62
7
  10
 215.42671406094
  20
 106.18370805417
  30
0.0
  11
 215.42671406094
  21
 106.61575886174
  31
0.0
   0
LINE
   5
284
 100
AcDbEntity
   8
LEVEL001
 100
AcDbLine
   6
CONTINUOUS
  62
7
  10
 215.42671406094
  20
 102.36575886174
  30
0.0
  11
 215.42671406094
  21
 103.11575886174
  31
0.0
   0
ARC
   5
285
 100
AcDbEntity
   8
LEVEL001
   6
CONTINUOUS
  62
7
 100
AcDbCircle
  10
 214.42671406093
  20
 102.36575886174
  30
0.0
  40
 1.0000000000000
 100
AcDbArc
  50
 270.00000000012
  51
0.0
   0
POINT
   5
286
 100
AcDbEntity
   8
LEVEL001
 100
AcDbPoint
  62
7
  10
 215.42671406094
  20
 101.36575886174
  30
0.0
   0
LINE
   5
287
 100
AcDbEntity
   8
LEVEL001
 100
AcDbLine
   6
CONTINUOUS
  62
7
  10
 212.42671406094
  20
 101.36575886174
  30
0.0
  11
 214.42671406094
  21
 101.36575886174
  31
0.0
   0
LINE
   5
288
 100
AcDbEntity
   8
LEVEL001
 100
AcDbLine
   6
CONTINUOUS
  62
7
  10
 212.42671406094
  20
 98.865758861740
  30
0.0
  11
 214.42671406094
  21
 98.865758861740
  31
0.0
   0
ARC
   5
289
 100
AcDbEntity
   8
LEVEL001
   6
CONTINUOUS
  62
7
 100
AcDbCircle
  10
 214.42671406094
  20
 97.865758861742
  30
0.0
  40
 1.0000000000000
 100
AcDbArc
  50
0.0
  51
 90.000000000000
   0
POINT
   5
28A
 100
AcDbEntity
   8
LEVEL001
 100
AcDbPoint
  62
7
  10
 215.42671406094
  20
 98.865758861740
  30
0.0
   0
LINE
   5
28B
 100
AcDbEntity
   8
LEVEL001
 100
AcDbLine
   6
CONTINUOUS
  62
7
  10
 215.42671406094
  20
 97.115758861740
  30
0.0
  11
 215.42671406094
  21
 97.865758861740
  31
0.0
   0
LINE
   5
28C
 100
AcDbEntity
   8
LEVEL001
 100
AcDbLine
   6
CONTINUOUS
  62
7
  10
 207.17671406094
  20
 98.865758861740
  30
0.0
  11
 212.42671406094
  21
 98.865758861740
  31
0.0
   0
ARC
   5
28D
 100
AcDbEntity
   8
LEVEL001
   6
CONTINUOUS
  62
7
 100
AcDbCircle
  10
 207.17671406094
  20
 97.865758861741
  30
0.0
  40
 1.0000000000000
 100
AcDbArc
  50
 90.000000000000
  51
 180.00000000008
   0
POINT
   5
28E
 100
AcDbEntity
   8
LEVEL001
 100
AcDbPoint
  62
7
  10
 206.17671406094
  20
 98.865758861740
  30
0.0
   0
LINE
   5
28F
 100
AcDbEntity
   8
LEVEL001
 100
AcDbLine
   6
CONTINUOUS
  62
7
  10
 206.17671406094
  20
 97.115758861740
  30
0.0
  11
 206.17671406094
  21
 97.865758861740
  31
0.0
   0
LINE
   5
290
 100
AcDbEntity
   8
LEVEL001
 100
AcDbLine
   6
CONTINUOUS
  62
7
  10
 197.46671406094
  20
 98.865758861740
  30
0.0
  11
 202.67671406094
  21
 98.865758861740
  31
0.0
   0
ARC
   5
291
 100
AcDbEntity
   8
LEVEL001
   6
CONTINUOUS
  62
7
 100
AcDbCircle
  10
 202.67671406094
  20
 97.865758861739
  30
0.0
  40
 1.0000000000000
 100
AcDbArc
  50
 0.60252427885645E-10
  51
 90.000000000000
   0
POINT
   5
292
 100
AcDbEntity
   8
LEVEL001
 100
AcDbPoint
  62
7
  10
 203.67671406094
  20
 98.865758861740
  30
0.0
   0
LINE
   5
293
 100
AcDbEntity
   8
LEVEL001
 100
AcDbLine
   6
CONTINUOUS
  62
7
  10
 203.67671406094
  20
 97.115758861740
  30
0.0
  11
 203.67671406094
  21
 97.865758861740
  31
0.0
   0
LINE
   5
294
 100
AcDbEntity
   8
LEVEL001
 100
AcDbLine
   6
CONTINUOUS
  62
7
  10
 206.17671406094
  20
 93.615758861740
  30
0.0
  11
 206.17671406094
  21
 97.115758861740
  31
0.0
   0
ARC
   5
295
 100
AcDbEntity
   8
LEVEL001
   6
CONTINUOUS
  62
7
 100
AcDbCircle
  10
 207.17671406094
  20
 93.615758861740
  30
0.0
  40
 1.0000000000000
 100
AcDbArc
  50
 180.00000000000
  51
 269.99999999994
   0
POINT
   5
296
 100
AcDbEntity
   8
LEVEL001
 100
AcDbPoint
  62
7
  10
 206.17671406094
  20
 92.615758861740
  30
0.0
   0
LINE
   5
297
 100
AcDbEntity
   8
LEVEL001
 100
AcDbLine
   6
CONTINUOUS
  62
7
  10
 207.17671406094
  20
 92.615758861740
  30
0.0
  11
 212.42671406094
  21
 92.615758861740
  31
0.0
   0
LINE
   5
298
 100
AcDbEntity
   8
LEVEL001
 100
AcDbLine
   6
CONTINUOUS
  62
7
  10
 212.42671406094
  20
 92.615758861740
  30
0.0
  11
 214.42671406094
  21
 92.615758861740
  31
0.0
   0
ARC
   5
299
 100
AcDbEntity
   8
LEVEL001
   6
CONTINUOUS
  62
7
 100
AcDbCircle
  10
 214.42671406094
  20
 93.615758861737
  30
0.0
  40
 1.0000000000000
 100
AcDbArc
  50
 270.00000000000
  51
 0.12539018776202E-9
   0
POINT
   5
29A
 100
AcDbEntity
   8
LEVEL001
 100
AcDbPoint
  62
7
  10
 215.42671406094
  20
 92.615758861740
  30
0.0
   0
LINE
   5
29B
 100
AcDbEntity
   8
LEVEL001
 100
AcDbLine
   6
CONTINUOUS
  62
7
  10
 215.42671406094
  20
 93.615758861740
  30
0.0
  11
 215.42671406094
  21
 97.115758861740
  31
0.0
   0
LINE
   5
29C
 100
AcDbEntity
   8
LEVEL001
 100
AcDbLine
   6
CONTINUOUS
  62
7
  10
 199.01419228387
  20
 92.615758861740
  30
0.0
  11
 202.67671406094
  21
 92.615758861740
  31
0.0
   0
ARC
   5
29D
 100
AcDbEntity
   8
LEVEL001
   6
CONTINUOUS
  62
7
 100
AcDbCircle
  10
 202.67671406094
  20
 93.615758861741
  30
0.0
  40
 1.0000000000000
 100
AcDbArc
  50
 270.00000000000
  51
0.0
   0
POINT
   5
29E
 100
AcDbEntity
   8
LEVEL001
 100
AcDbPoint
  62
7
  10
 203.67671406094
  20
 92.615758861740
  30
0.0
   0
LINE
   5
29F
 100
AcDbEntity
   8
LEVEL001
 100
AcDbLine
   6
CONTINUOUS
  62
7
  10
 203.67671406094
  20
 93.615758861740
  30
0.0
  11
 203.67671406094
  21
 97.115758861740
  31
0.0
   0
LINE
   5
2A0
 100
AcDbEntity
   8
LEVEL001
 100
AcDbLine
   6
CONTINUOUS
  62
7
  10
 194.42671406094
  20
 93.615758861740
  30
0.0
  11
 194.42671406094
  21
 94.047809669309
  31
0.0
   0
ARC
   5
2A1
 100
AcDbEntity
   8
LEVEL001
   6
CONTINUOUS
  62
7
 100
AcDbCircle
  10
 195.42671406093
  20
 93.615758861740
  30
0.0
  40
 1.0000000000000
 100
AcDbArc
  50
 180.00000000000
  51
 270.00000000015
   0
POINT
   5
2A2
 100
AcDbEntity
   8
LEVEL001
 100
AcDbPoint
  62
7
  10
 194.42671406094
  20
 92.615758861740
  30
0.0
   0
LINE
   5
2A3
 100
AcDbEntity
   8
LEVEL001
 100
AcDbLine
   6
CONTINUOUS
  62
7
  10
 194.42671406094
  20
 97.115758861740
  30
0.0
  11
 194.42671406094
  21
 97.865758861740
  31
0.0
   0
ARC
   5
2A4
 100
AcDbEntity
   8
LEVEL001
   6
CONTINUOUS
  62
7
 100
AcDbCircle
  10
 195.42671406093
  20
 97.865758861740
  30
0.0
  40
 1.0000000000000
 100
AcDbArc
  50
 89.999999999876
  51
 180.00000000000
   0
POINT
   5
2A5
 100
AcDbEntity
   8
LEVEL001
 100
AcDbPoint
  62
7
  10
 194.42671406094
  20
 98.865758861740
  30
0.0
   0
LINE
   5
2A6
 100
AcDbEntity
   8
LEVEL001
 100
AcDbLine
   6
CONTINUOUS
  62
7
  10
 195.42671406094
  20
 98.865758861740
  30
0.0
  11
 197.46671406094
  21
 98.865758861740
  31
0.0
   0
POINT
   5
2A7
 100
AcDbEntity
   8
LEVEL001
 100
AcDbPoint
  62
7
  10
 202.96671406094
  20
 109.61575886174
  30
0.0
   0
LINE
   5
2A8
 100
AcDbEntity
   8
LEVEL001
 100
AcDbLine
   6
CONTINUOUS
  62
7
  10
 203.96671406094
  20
 109.61575886174
  30
0.0
  11
 204.92671406094
  21
 109.61575886174
  31
0.0
   0
LINE
   5
2A9
 100
AcDbEntity
   8
LEVEL001
 100
AcDbLine
   6
CONTINUOUS
  62
7
  10
 204.92671406094
  20
 109.61575886174
  30
0.0
  11
 205.88671406094
  21
 109.61575886174
  31
0.0
   0
POINT
   5
2AA
 100
AcDbEntity
   8
LEVEL001
 100
AcDbPoint
  62
7
  10
 206.88671406094
  20
 109.61575886174
  30
0.0
   0
POINT
   5
2AB
 100
AcDbEntity
   8
LEVEL001
 100
AcDbPoint
  62
7
  10
 206.88671406094
  20
 115.71575886174
  30
0.0
   0
LINE
   5
2AC
 100
AcDbEntity
   8
LEVEL001
 100
AcDbLine
   6
CONTINUOUS
  62
7
  10
 204.92671406094
  20
 115.71575886174
  30
0.0
  11
 205.88671406094
  21
 115.71575886174
  31
0.0
   0
LINE
   5
2AD
 100
AcDbEntity
   8
LEVEL001
 100
AcDbLine
   6
CONTINUOUS
  62
7
  10
 203.96671406094
  20
 115.71575886174
  30
0.0
  11
 204.92671406094
  21
 115.71575886174
  31
0.0
   0
POINT
   5
2AE
 100
AcDbEntity
   8
LEVEL001
 100
AcDbPoint
  62
7
  10
 202.96671406094
  20
 115.71575886174
  30
0.0
   0
LINE
   5
2AF
 100
AcDbEntity
   8
LEVEL001
 100
AcDbLine
   6
CONTINUOUS
  62
7
  10
 203.96671406094
  20
 84.515758861740
  30
0.0
  11
 204.92671406094
  21
 84.515758861740
  31
0.0
   0
POINT
   5
2B0
 100
AcDbEntity
   8
LEVEL001
 100
AcDbPoint
  62
7
  10
 202.96671406094
  20
 84.515758861740
  30
0.0
   0
POINT
   5
2B1
 100
AcDbEntity
   8
LEVEL001
 100
AcDbPoint
  62
7
  10
 206.88671406094
  20
 84.515758861740
  30
0.0
   0
LINE
   5
2B2
 100
AcDbEntity
   8
LEVEL001
 100
AcDbLine
   6
CONTINUOUS
  62
7
  10
 204.92671406094
  20
 84.515758861740
  30
0.0
  11
 205.88671406094
  21
 84.515758861740
  31
0.0
   0
POINT
   5
2B3
 100
AcDbEntity
   8
LEVEL001
 100
AcDbPoint
  62
7
  10
 206.88671406094
  20
 90.615758861740
  30
0.0
   0
POINT
   5
2B4
 100
AcDbEntity
   8
LEVEL001
 100
AcDbPoint
  62
7
  10
 202.96671406094
  20
 90.615758861740
  30
0.0
   0
LINE
   5
2B5
 100
AcDbEntity
   8
LEVEL001
 100
AcDbLine
   6
CONTINUOUS
  62
7
  10
 203.96671406094
  20
 90.615758861740
  30
0.0
  11
 204.92671406094
  21
 90.615758861740
  31
0.0
   0
LINE
   5
2B6
 100
AcDbEntity
   8
LEVEL001
 100
AcDbLine
   6
CONTINUOUS
  62
7
  10
 204.92671406094
  20
 90.615758861740
  30
0.0
  11
 205.88671406094
  21
 90.615758861740
  31
0.0
   0
ARC
   5
2B7
 100
AcDbEntity
   8
LEVEL001
   6
CONTINUOUS
  62
7
 100
AcDbCircle
  10
 205.92671406093
  20
 114.71575886174
  30
0.0
  40
 1.0000000000000
 100
AcDbArc
  50
0.0
  51
 89.999999999883
   0
LINE
   5
2B8
 100
AcDbEntity
   8
LEVEL001
 100
AcDbLine
   6
CONTINUOUS
  62
7
  10
 206.92671406094
  20
 112.61575886174
  30
0.0
  11
 206.92671406094
  21
 114.71575886174
  31
0.0
   0
ARC
   5
2B9
 100
AcDbEntity
   8
LEVEL001
   6
CONTINUOUS
  62
7
 100
AcDbCircle
  10
 205.92671406094
  20
 110.61575886174
  30
0.0
  40
 1.0000000000000
 100
AcDbArc
  50
 270.00000000000
  51
 0.12701863175893E-9
   0
LINE
   5
2BA
 100
AcDbEntity
   8
LEVEL001
 100
AcDbLine
   6
CONTINUOUS
  62
7
  10
 206.92671406094
  20
 110.61575886174
  30
0.0
  11
 206.92671406094
  21
 111.61575886174
  31
0.0
   0
LINE
   5
2BB
 100
AcDbEntity
   8
LEVEL001
 100
AcDbLine
   6
CONTINUOUS
  62
7
  10
 206.92671406094
  20
 111.61575886174
  30
0.0
  11
 206.92671406094
  21
 112.61575886174
  31
0.0
   0
ARC
   5
2BC
 100
AcDbEntity
   8
LEVEL001
   6
CONTINUOUS
  62
7
 100
AcDbCircle
  10
 205.92671406094
  20
 89.615758861742
  30
0.0
  40
 1.0000000000000
 100
AcDbArc
  50
0.0
  51
 90.000000000000
   0
LINE
   5
2BD
 100
AcDbEntity
   8
LEVEL001
 100
AcDbLine
   6
CONTINUOUS
  62
7
  10
 206.92671406094
  20
 89.615758861740
  30
0.0
  11
 206.92671406094
  21
 88.615758861740
  31
0.0
   0
ARC
   5
2BE
 100
AcDbEntity
   8
LEVEL001
   6
CONTINUOUS
  62
7
 100
AcDbCircle
  10
 205.92671406093
  20
 85.515758861740
  30
0.0
  40
 1.0000000000000
 100
AcDbArc
  50
 270.00000000014
  51
0.0
   0
LINE
   5
2BF
 100
AcDbEntity
   8
LEVEL001
 100
AcDbLine
   6
CONTINUOUS
  62
7
  10
 206.92671406094
  20
 87.615758861740
  30
0.0
  11
 206.92671406094
  21
 85.515758861740
  31
0.0
   0
LINE
   5
2C0
 100
AcDbEntity
   8
LEVEL001
 100
AcDbLine
   6
CONTINUOUS
  62
7
  10
 206.92671406094
  20
 88.615758861740
  30
0.0
  11
 206.92671406094
  21
 87.615758861740
  31
0.0
   0
CIRCLE
   5
2C1
 100
AcDbEntity
   8
LEVEL001
 100
AcDbCircle
   6
CONTINUOUS
  62
7
  10
 197.42671406094
  20
 112.61575886174
  30
0.0
  40
 2.3500000000000
   0
CIRCLE
   5
2C2
 100
AcDbEntity
   8
LEVEL001
 100
AcDbCircle
   6
CONTINUOUS
  62
7
  10
 197.42671406094
  20
 87.615758861740
  30
0.0
  40
 2.3500000000000
   0
ARC
   5
2C3
 100
AcDbEntity
   8
LEVEL001
   6
CONTINUOUS
  62
7
 100
AcDbCircle
  10
 203.92671406094
  20
 114.71575886174
  30
0.0
  40
 1.0000000000000
 100
AcDbArc
  50
 90.000000000000
  51
 179.99999999985
   0
LINE
   5
2C4
 100
AcDbEntity
   8
LEVEL001
 100
AcDbLine
   6
CONTINUOUS
  62
7
  10
 202.92671406094
  20
 112.61575886174
  30
0.0
  11
 202.92671406094
  21
 114.71575886174
  31
0.0
   0
LINE
   5
2C5
 100
AcDbEntity
   8
LEVEL001
 100
AcDbLine
   6
CONTINUOUS
  62
7
  10
 202.92671406094
  20
 110.61575886174
  30
0.0
  11
 202.92671406094
  21
 111.61575886174
  31
0.0
   0
ARC
   5
2C6
 100
AcDbEntity
   8
LEVEL001
   6
CONTINUOUS
  62
7
 100
AcDbCircle
  10
 203.92671406093
  20
 110.61575886174
  30
0.0
  40
 1.0000000000000
 100
AcDbArc
  50
 180.00000000000
  51
 270.00000000015
   0
LINE
   5
2C7
 100
AcDbEntity
   8
LEVEL001
 100
AcDbLine
   6
CONTINUOUS
  62
7
  10
 202.92671406094
  20
 111.61575886174
  30
0.0
  11
 202.92671406094
  21
 112.61575886174
  31
0.0
   0
ARC
   5
2C8
 100
AcDbEntity
   8
LEVEL001
   6
CONTINUOUS
  62
7
 100
AcDbCircle
  10
 203.92671406093
  20
 89.615758861740
  30
0.0
  40
 1.0000000000000
 100
AcDbArc
  50
 89.999999999876
  51
 180.00000000000
   0
LINE
   5
2C9
 100
AcDbEntity
   8
LEVEL001
 100
AcDbLine
   6
CONTINUOUS
  62
7
  10
 202.92671406094
  20
 88.615758861740
  30
0.0
  11
 202.92671406094
  21
 87.615758861740
  31
0.0
   0
LINE
   5
2CA
 100
AcDbEntity
   8
LEVEL001
 100
AcDbLine
   6
CONTINUOUS
  62
7
  10
 202.92671406094
  20
 89.615758861740
  30
0.0
  11
 202.92671406094
  21
 88.615758861740
  31
0.0
   0
ARC
   5
2CB
 100
AcDbEntity
   8
LEVEL001
   6
CONTINUOUS
  62
7
 100
AcDbCircle
  10
 203.92671406094
  20
 85.515758861742
  30
0.0
  40
 1.0000000000000
 100
AcDbArc
  50
 180.00000000013
  51
 270.00000000000
   0
LINE
   5
2CC
 100
AcDbEntity
   8
LEVEL001
 100
AcDbLine
   6
CONTINUOUS
  62
7
  10
 202.92671406094
  20
 87.615758861740
  30
0.0
  11
 202.92671406094
  21
 85.515758861740
  31
0.0
   0
LINE
   5
2CD
 100
AcDbEntity
   8
LEVEL001
 100
AcDbLine
   6
CONTINUOUS
  62
7
  10
 204.92671406094
  20
 118.61575886174
  30
0.0
  11
 218.62671406094
  21
 118.61575886174
  31
0.0
   0
ARC
   5
2CE
 100
AcDbEntity
   8
LEVEL001
   6
CONTINUOUS
  62
7
 100
AcDbCircle
  10
 218.62671406094
  20
 118.31575886174
  30
0.0
  40
 0.30000000000000
 100
AcDbArc
  50
 0.14113181306547E-9
  51
 89.999999999989
   0
POINT
   5
2CF
 100
AcDbEntity
   8
LEVEL001
 100
AcDbPoint
  62
7
  10
 218.92671406094
  20
 118.61575886174
  30
0.0
   0
LINE
   5
2D0
 100
AcDbEntity
   8
LEVEL001
 100
AcDbLine
   6
CONTINUOUS
  62
7
  10
 218.92671406094
  20
 100.11575886174
  30
0.0
  11
 218.92671406094
  21
 118.31575886174
  31
0.0
   0
LINE
   5
2D1
 100
AcDbEntity
   8
LEVEL001
 100
AcDbLine
   6
CONTINUOUS
  62
7
  10
 190.92671406094
  20
 100.11575886174
  30
0.0
  11
 190.92671406094
  21
 118.31575886174
  31
0.0
   0
ARC
   5
2D2
 100
AcDbEntity
   8
LEVEL001
   6
CONTINUOUS
  62
7
 100
AcDbCircle
  10
 191.22671406094
  20
 118.31575886174
  30
0.0
  40
 0.30000000000000
 100
AcDbArc
  50
 90.000000000185
  51
 180.00000000000
   0
POINT
   5
2D3
 100
AcDbEntity
   8
LEVEL001
 100
AcDbPoint
  62
7
  10
 190.92671406094
  20
 118.61575886174
  30
0.0
   0
LINE
   5
2D4
 100
AcDbEntity
   8
LEVEL001
 100
AcDbLine
   6
CONTINUOUS
  62
7
  10
 191.22671406094
  20
 118.61575886174
  30
0.0
  11
 204.92671406094
  21
 118.61575886174
  31
0.0
   0
LINE
   5
2D5
 100
AcDbEntity
   8
LEVEL001
 100
AcDbLine
   6
CONTINUOUS
  62
7
  10
 191.22671406094
  20
 81.615758861740
  30
0.0
  11
 204.92671406094
  21
 81.615758861740
  31
0.0
   0
ARC
   5
2D6
 100
AcDbEntity
   8
LEVEL001
   6
CONTINUOUS
  62
7
 100
AcDbCircle
  10
 191.22671406094
  20
 81.915758861736
  30
0.0
  40
 0.30000000000000
 100
AcDbArc
  50
 179.99999999923
  51
 270.00000000001
   0
POINT
   5
2D7
 100
AcDbEntity
   8
LEVEL001
 100
AcDbPoint
  62
7
  10
 190.92671406094
  20
 81.615758861740
  30
0.0
   0
LINE
   5
2D8
 100
AcDbEntity
   8
LEVEL001
 100
AcDbLine
   6
CONTINUOUS
  62
7
  10
 190.92671406094
  20
 81.915758861740
  30
0.0
  11
 190.92671406094
  21
 100.11575886174
  31
0.0
   0
LINE
   5
2D9
 100
AcDbEntity
   8
LEVEL001
 100
AcDbLine
   6
CONTINUOUS
  62
7
  10
 204.92671406094
  20
 81.615758861740
  30
0.0
  11
 218.62671406094
  21
 81.615758861740
  31
0.0
   0
ARC
   5
2DA
 100
AcDbEntity
   8
LEVEL001
   6
CONTINUOUS
  62
7
 100
AcDbCircle
  10
 218.62671406094
  20
 81.915758861737
  30
0.0
  40
 0.30000000000000
 100
AcDbArc
  50
 270.00000000001
  51
 0.42068136586827E-9
   0
POINT
   5
2DB
 100
AcDbEntity
   8
LEVEL001
 100
AcDbPoint
  62
7
  10
 218.92671406094
  20
 81.615758861740
  30
0.0
   0
LINE
   5
2DC
 100
AcDbEntity
   8
LEVEL001
 100
AcDbLine
   6
CONTINUOUS
  62
7
  10
 218.92671406094
  20
 81.915758861740
  30
0.0
  11
 218.92671406094
  21
 100.11575886174
  31
0.0
   0
LINE
   5
2DD
 100
AcDbEntity
   8
LEVEL001
 100
AcDbLine
   6
DOT
  62
7
  10
 217.12671406094
  20
 100.01575886174
  30
0.0
  11
 217.12671406094
  21
 100.11575886174
  31
0.0
   0
LINE
   5
2DE
 100
AcDbEntity
   8
LEVEL001
 100
AcDbLine
   6
DOT
  62
6
  10
 217.42671406094
  20
 96.915758861740
  30
0.0
  11
 217.62671406094
  21
 96.915758861740
  31
0.0
   0
LINE
   5
2DF
 100
AcDbEntity
   8
LEVEL001
 100
AcDbLine
   6
DASHDOT
  62
3
  10
 197.42671406094
  20
 120.89022130812
  30
0.0
  11
 197.42671406094
  21
 79.243604284247
  31
0.0
   0
LINE
   5
2E0
 100
AcDbEntity
   8
LEVEL001
 100
AcDbLine
   6
DASHDOT
  62
3
  10
 204.92671406094
  20
 124.70044371669
  30
0.0
  11
 204.92671406094
  21
 73.927014876944
  31
0.0
   0
LINE
   5
2E1
 100
AcDbEntity
   8
LEVEL001
 100
AcDbLine
   6
DASHDOT
  62
3
  10
 212.42671406094
  20
 120.89022130812
  30
0.0
  11
 212.42671406094
  21
 79.066384637337
  31
0.0
   0
LINE
   5
2E2
 100
AcDbEntity
   8
LEVEL001
 100
AcDbLine
   6
DASHDOT
  62
3
  10
 183.27987758158
  20
 100.11575886174
  30
0.0
  11
 225.45815354619
  21
 100.11575886174
  31
0.0
   0
LINE
   5
2E3
 100
AcDbEntity
   8
LEVEL001
 100
AcDbLine
   6
DASHDOT
  62
3
  10
 189.55678544522
  20
 87.615758861740
  30
0.0
  11
 221.16681069378
  21
 87.615758861740
  31
0.0
   0
LINE
   5
2E4
 100
AcDbEntity
   8
LEVEL001
 100
AcDbLine
   6
DOT
  62
1
  10
 201.42671406094
  20
 87.615758861741
  30
0.0
  11
 201.42671406094
  21
 82.615758861741
  31
0.0
   0
LINE
   5
2E5
 100
AcDbEntity
   8
LEVEL001
 100
AcDbLine
   6
DOT
  62
1
  10
 193.42671406094
  20
 87.615758861741
  30
0.0
  11
 193.42671406094
  21
 82.615758861741
  31
0.0
   0
ARC
   5
2E6
 100
AcDbEntity
   8
LEVEL001
   6
DOT
  62
1
 100
AcDbCircle
  10
 197.42671406094
  20
 87.615758861741
  30
0.0
  40
 4.0000000000000
 100
AcDbArc
  50
0.0
  51
 180.00000000000
   0
LINE
   5
2E7
 100
AcDbEntity
   8
LEVEL001
 100
AcDbLine
   6
DOT
  62
1
  10
 192.22671406094
  20
 82.515758861740
  30
0.0
  11
 217.62671406094
  21
 82.515758861740
  31
0.0
   0
LINE
   5
2E8
 100
AcDbEntity
   8
LEVEL001
 100
AcDbLine
   6
DOT
  62
1
  10
 192.42671406094
  20
 82.615758861740
  30
0.0
  11
 217.42671406094
  21
 82.615758861740
  31
0.0
   0
LINE
   5
2E9
 100
AcDbEntity
   8
LEVEL001
 100
AcDbLine
   6
DOT
  62
1
  10
 216.42671406094
  20
 87.615758861741
  30
0.0
  11
 216.42671406094
  21
 82.615758861741
  31
0.0
   0
ARC
   5
2EA
 100
AcDbEntity
   8
LEVEL001
   6
DOT
  62
1
 100
AcDbCircle
  10
 212.42671406094
  20
 87.615758861741
  30
0.0
  40
 4.0000000000000
 100
AcDbArc
  50
0.0
  51
 180.00000000000
   0
LINE
   5
2EB
 100
AcDbEntity
   8
LEVEL001
 100
AcDbLine
   6
DOT
  62
1
  10
 208.42671406094
  20
 87.615758861741
  30
0.0
  11
 208.42671406094
  21
 82.615758861741
  31
0.0
   0
LINE
   5
2EC
 100
AcDbEntity
   8
LEVEL001
 100
AcDbLine
   6
DOT
  62
1
  10
 217.42671406094
  20
 87.115758861740
  30
0.0
  11
 217.12671406094
  21
 87.115758861740
  31
0.0
   0
LINE
   5
2ED
 100
AcDbEntity
   8
LEVEL001
 100
AcDbLine
   6
DOT
  62
1
  10
 217.42671406094
  20
 88.115758861740
  30
0.0
  11
 217.12671406094
  21
 88.115758861740
  31
0.0
   0
LINE
   5
2EE
 100
AcDbEntity
   8
LEVEL001
 100
AcDbLine
   6
DOT
  62
1
  10
 217.12671406094
  20
 88.115758861740
  30
0.0
  11
 217.12671406094
  21
 87.115758861740
  31
0.0
   0
ARC
   5
2EF
 100
AcDbEntity
   8
LEVEL001
   6
DOT
  62
1
 100
AcDbCircle
  10
 217.62671406094
  20
 87.615758861743
  30
0.0
  40
 0.30000000000000
 100
AcDbArc
  50
 89.999999999881
  51
 269.99999999988
   0
LINE
   5
2F0
 100
AcDbEntity
   8
LEVEL001
 100
AcDbLine
   6
DOT
  62
1
  10
 217.42671406094
  20
 82.615758861740
  30
0.0
  11
 217.42671406094
  21
 97.115758861740
  31
0.0
   0
LINE
   5
2F1
 100
AcDbEntity
   8
LEVEL001
 100
AcDbLine
   6
DOT
  62
1
  10
 217.62671406094
  20
 82.515758861740
  30
0.0
  11
 217.62671406094
  21
 96.915758861740
  31
0.0
   0
LINE
   5
2F2
 100
AcDbEntity
   8
LEVEL001
 100
AcDbLine
   6
DOT
  62
1
  10
 192.22671406094
  20
 82.515758861740
  30
0.0
  11
 192.22671406094
  21
 100.19186540478
  31
0.0
   0
LINE
   5
2F3
 100
AcDbEntity
   8
LEVEL001
 100
AcDbLine
   6
DOT
  62
1
  10
 192.42671406094
  20
 82.615758861740
  30
0.0
  11
 192.42671406094
  21
 100.19186540478
  31
0.0
   0
LINE
   5
2F4
 100
AcDbEntity
   8
LEVEL001
 100
AcDbLine
   6
DOT
  62
1
  10
 192.22671406094
  20
 96.915758861740
  30
0.0
  11
 218.92671406094
  21
 96.915758861740
  31
0.0
   0
LINE
   5
2F5
 100
AcDbEntity
   8
LEVEL001
 100
AcDbLine
   6
DOT
  62
1
  10
 192.42671406094
  20
 97.115758861740
  30
0.0
  11
 218.92671406094
  21
 97.115758861740
  31
0.0
   0
LINE
   5
2F6
 100
AcDbEntity
   8
LEVEL001
 100
AcDbLine
   6
DOT
  62
1
  10
 192.22671406094
  20
 117.71575886174
  30
0.0
  11
 192.22671406094
  21
 100.03965231870
  31
0.0
   0
LINE
   5
2F7
 100
AcDbEntity
   8
LEVEL001
 100
AcDbLine
   6
DOT
  62
1
  10
 192.42671406094
  20
 117.61575886174
  30
0.0
  11
 192.42671406094
  21
 100.03965231870
  31
0.0
   0
LINE
   5
2F8
 100
AcDbEntity
   8
LEVEL001
 100
AcDbLine
   6
DOT
  62
1
  10
 192.22671406094
  20
 103.31575886174
  30
0.0
  11
 218.92671406094
  21
 103.31575886174
  31
0.0
   0
LINE
   5
2F9
 100
AcDbEntity
   8
LEVEL001
 100
AcDbLine
   6
DOT
  62
1
  10
 192.42671406094
  20
 103.11575886174
  30
0.0
  11
 218.92671406094
  21
 103.11575886174
  31
0.0
   0
LINE
   5
2FA
 100
AcDbEntity
   8
LEVEL001
 100
AcDbLine
   6
DOT
  62
6
  10
 217.42671406094
  20
 103.31575886174
  30
0.0
  11
 217.62671406094
  21
 103.31575886174
  31
0.0
   0
LINE
   5
2FB
 100
AcDbEntity
   8
LEVEL001
 100
AcDbLine
   6
DOT
  62
1
  10
 217.62671406094
  20
 117.71575886174
  30
0.0
  11
 217.62671406094
  21
 103.31575886174
  31
0.0
   0
LINE
   5
2FC
 100
AcDbEntity
   8
LEVEL001
 100
AcDbLine
   6
DASHDOT
  62
3
  10
 189.55678544522
  20
 112.61575886174
  30
0.0
  11
 221.16681069378
  21
 112.61575886174
  31
0.0
   0
LINE
   5
2FD
 100
AcDbEntity
   8
LEVEL001
 100
AcDbLine
   6
DOT
  62
1
  10
 216.42671406094
  20
 112.61575886174
  30
0.0
  11
 216.42671406094
  21
 117.61575886174
  31
0.0
   0
ARC
   5
2FE
 100
AcDbEntity
   8
LEVEL001
   6
DOT
  62
1
 100
AcDbCircle
  10
 212.42671406094
  20
 112.61575886174
  30
0.0
  40
 4.0000000000000
 100
AcDbArc
  50
 180.00000000000
  51
0.0
   0
LINE
   5
2FF
 100
AcDbEntity
   8
LEVEL001
 100
AcDbLine
   6
DOT
  62
1
  10
 217.42671406094
  20
 113.11575886174
  30
0.0
  11
 217.12671406094
  21
 113.11575886174
  31
0.0
   0
LINE
   5
300
 100
AcDbEntity
   8
LEVEL001
 100
AcDbLine
   6
DOT
  62
1
  10
 217.42671406094
  20
 112.11575886174
  30
0.0
  11
 217.12671406094
  21
 112.11575886174
  31
0.0
   0
LINE
   5
301
 100
AcDbEntity
   8
LEVEL001
 100
AcDbLine
   6
DOT
  62
1
  10
 217.12671406094
  20
 112.11575886174
  30
0.0
  11
 217.12671406094
  21
 113.11575886174
  31
0.0
   0
ARC
   5
302
 100
AcDbEntity
   8
LEVEL001
   6
DOT
  62
1
 100
AcDbCircle
  10
 217.62671406094
  20
 112.61575886174
  30
0.0
  40
 0.30000000000000
 100
AcDbArc
  50
 90.000000000119
  51
 270.00000000012
   0
LINE
   5
303
 100
AcDbEntity
   8
LEVEL001
 100
AcDbLine
   6
DOT
  62
1
  10
 217.42671406094
  20
 117.61575886174
  30
0.0
  11
 217.42671406094
  21
 103.11575886174
  31
0.0
   0
LINE
   5
304
 100
AcDbEntity
   8
LEVEL001
 100
AcDbLine
   6
DOT
  62
1
  10
 192.22671406094
  20
 117.71575886174
  30
0.0
  11
 217.62671406094
  21
 117.71575886174
  31
0.0
   0
LINE
   5
305
 100
AcDbEntity
   8
LEVEL001
 100
AcDbLine
   6
DOT
  62
1
  10
 192.42671406094
  20
 117.61575886174
  30
0.0
  11
 217.42671406094
  21
 117.61575886174
  31
0.0
   0
LINE
   5
306
 100
AcDbEntity
   8
LEVEL001
 100
AcDbLine
   6
DOT
  62
1
  10
 208.42671406094
  20
 112.61575886174
  30
0.0
  11
 208.42671406094
  21
 117.61575886174
  31
0.0
   0
LINE
   5
307
 100
AcDbEntity
   8
LEVEL001
 100
AcDbLine
   6
DOT
  62
1
  10
 201.42671406094
  20
 112.61575886174
  30
0.0
  11
 201.42671406094
  21
 117.61575886174
  31
0.0
   0
LINE
   5
308
 100
AcDbEntity
   8
LEVEL001
 100
AcDbLine
   6
DOT
  62
1
  10
 193.42671406094
  20
 112.61575886174
  30
0.0
  11
 193.42671406094
  21
 117.61575886174
  31
0.0
   0
ARC
   5
309
 100
AcDbEntity
   8
LEVEL001
   6
DOT
  62
1
 100
AcDbCircle
  10
 197.42671406094
  20
 112.61575886174
  30
0.0
  40
 4.0000000000000
 100
AcDbArc
  50
 180.00000000000
  51
0.0
   0
DIMENSION
   5
30A
 100
AcDbEntity
   8
LEVEL001
   6
CONTINUOUS
  62
3
 100
AcDbDimension
   2
*D13
  10
 233.98764883430
  20
 87.615758861740
  30
0.0
  11
 233.98764883430
  21
 100.11575886174
  31
0.0
  70
0
   3
GMM002
 100
AcDbAlignedDimension
  13
 221.16681069378
  23
 112.61575886174
  33
0.0
  14
 221.16681069378
  24
 87.615758861740
  34
0.0
  50
 270.00000000000
 100
AcDbRotatedDimension
   0
DIMENSION
   5
30B
 100
AcDbEntity
   8
LEVEL001
   6
CONTINUOUS
  62
3
 100
AcDbDimension
   2
*D14
  10
 212.42671406094
  20
 129.57367637809
  30
0.0
  11
 204.92671406094
  21
 129.57367637809
  31
0.0
  70
0
   3
GMM002
 100
AcDbAlignedDimension
  13
 197.42671406094
  23
 120.89022130812
  33
0.0
  14
 212.42671406094
  24
 120.89022130812
  34
0.0
 100
AcDbRotatedDimension
   0
DIMENSION
   5
30C
 100
AcDbEntity
   8
LEVEL001
   6
CONTINUOUS
  62
3
 100
AcDbDimension
   2
*D15
  10
 218.92671406094
  20
 140.92580549405
  30
0.0
  11
 204.92671406094
  21
 140.92580549405
  31
0.0
  70
0
   3
GMM002
 100
AcDbAlignedDimension
  13
 190.92671406094
  23
 155.89669565961
  33
0.0
  14
 218.92671406094
  24
 155.89669565961
  34
0.0
 100
AcDbRotatedDimension
   0
DIMENSION
   5
30D
 100
AcDbEntity
   8
LEVEL001
   6
CONTINUOUS
  62
3
 100
AcDbDimension
   2
*D16
  10
 141.53723645376
  20
 140.92580549405
  30
0.0
  11
 123.03723645376
  21
 140.92580549405
  31
0.0
  70
0
   3
GMM002
 100
AcDbAlignedDimension
  13
 104.53723645376
  23
 155.89669565961
  33
0.0
  14
 141.53723645376
  24
 155.89669565961
  34
0.0
 100
AcDbRotatedDimension
   0
LINE
   5
30E
 100
AcDbEntity
   8
LEVEL001
 100
AcDbLine
   6
DOT
  62
1
  10
 193.32671406094
  20
 199.60375975344
  30
0.0
  11
 193.32671406094
  21
 199.90426491036
  31
0.0
   0
LINE
   5
30F
 100
AcDbEntity
   8
LEVEL001
 100
AcDbLine
   6
DOT
  62
1
  10
 197.52671406094
  20
 199.60375975344
  30
0.0
  11
 197.52671406094
  21
 199.90426491036
  31
0.0
   0
ELLIPSE
   5
310
 100
AcDbEntity
   8
LEVEL001
   6
DOT
  62
1
 100
AcDbEllipse
  10
 195.42671406094
  20
 199.60375975344
  30
0.0
  11
-2.1000000000000
  21
0.0
  31
0.0
  40
 0.39073112846586
  41
0.0
  42
 6.2831853071796
   0
ELLIPSE
   5
311
 100
AcDbEntity
   8
LEVEL001
   6
DOT
  62
1
 100
AcDbEllipse
  10
 195.42671406094
  20
 199.90426491036
  30
0.0
  11
-2.1000000000000
  21
0.0
  31
0.0
  40
 0.39073112846586
  41
0.0
  42
 6.2831853071796
   0
LINE
   5
312
 100
AcDbEntity
   8
LEVEL001
 100
AcDbLine
   6
DOT
  62
1
  10
 210.82671406094
  20
 198.22300247321
  30
0.0
  11
 210.82671406094
  21
 197.48659859056
  31
0.0
   0
LINE
   5
313
 100
AcDbEntity
   8
LEVEL001
 100
AcDbLine
   6
DOT
  62
1
  10
 218.02671406094
  20
 198.22300247321
  30
0.0
  11
 218.02671406094
  21
 197.48659859056
  31
0.0
   0
LINE
   5
314
 100
AcDbEntity
   8
LEVEL001
 100
AcDbLine
   6
DOT
  62
1
  10
 216.52671406094
  20
 199.60375975344
  30
0.0
  11
 216.52671406094
  21
 199.90426491036
  31
0.0
   0
ELLIPSE
   5
315
 100
AcDbEntity
   8
LEVEL001
   6
DOT
  62
1
 100
AcDbEllipse
  10
 214.42671406094
  20
 199.60375975344
  30
0.0
  11
-2.1000000000000
  21
0.0
  31
0.0
  40
 0.39073112846586
  41
0.0
  42
 6.2831853071796
   0
ELLIPSE
   5
316
 100
AcDbEntity
   8
LEVEL001
   6
DOT
  62
1
 100
AcDbEllipse
  10
 214.42671406094
  20
 199.90426491036
  30
0.0
  11
-2.1000000000000
  21
0.0
  31
0.0
  40
 0.39073112846586
  41
0.0
  42
 6.2831853071796
   0
LINE
   5
317
 100
AcDbEntity
   8
LEVEL001
 100
AcDbLine
   6
DOT
  62
1
  10
 212.32671406094
  20
 199.60375975344
  30
0.0
  11
 212.32671406094
  21
 199.90426491036
  31
0.0
   0
LINE
   5
318
 100
AcDbEntity
   8
LEVEL001
 100
AcDbLine
   6
DOT
  62
1
  10
 212.32671406094
  20
 199.60375975344
  30
0.0
  11
 211.29303530446
  21
 198.90264983913
  31
0.0
   0
LINE
   5
319
 100
AcDbEntity
   8
LEVEL001
 100
AcDbLine
   6
DOT
  62
1
  10
 216.52671406094
  20
 199.60375975344
  30
0.0
  11
 217.56039281741
  21
 198.90264983913
  31
0.0
   0
ELLIPSE
   5
31A
 100
AcDbEntity
   8
LEVEL001
   6
DOT
  62
1
 100
AcDbEllipse
  10
 214.42671406094
  20
 198.22300247321
  30
0.0
  11
-3.6000000000000
  21
0.0
  31
0.0
  40
 0.38354368895405
  41
 2.8735740057310
  42
 0.26801864785876
   0
ELLIPSE
   5
31B
 100
AcDbEntity
   8
LEVEL001
   6
CONTINUOUS
  62
15
 100
AcDbEllipse
  10
 214.42671406094
  20
 198.22300247321
  30
0.0
  11
-3.6000000000000
  21
0.0
  31
0.0
  40
 0.38354368895405
  41
 0.26801864785876
  42
 2.8735740057310
   0
INSERT
   5
31C
 100
AcDbEntity
   8
LEVEL001
 100
AcDbBlockReference
   2
*D17
  10
0.0
  20
0.0
  30
0.0
   0
INSERT
   5
31D
 100
AcDbEntity
   8
LEVEL001
 100
AcDbBlockReference
   2
*D18
  10
0.0
  20
0.0
  30
0.0
   0
LINE
   5
31E
 100
AcDbEntity
   8
LEVEL001
 100
AcDbLine
   6
DOT
  62
1
  10
 127.41040227440
  20
 196.38066581988
  30
0.0
  11
 134.03803721936
  21
 199.19392994505
  31
0.0
   0
ELLIPSE
   5
31F
 100
AcDbEntity
   8
LEVEL001
   6
DOT
  62
1
 100
AcDbEllipse
  10
 195.42671406094
  20
 197.78729788247
  30
0.0
  11
-3.6000000000000
  21
0.0
  31
0.0
  40
 0.39073112849550
  41
0.0
  42
 6.2831853071796
   0
ELLIPSE
   5
320
 100
AcDbEntity
   8
LEVEL001
   6
DOT
  62
1
 100
AcDbEllipse
  10
 195.42671406094
  20
 198.22300247320
  30
0.0
  11
-3.6000000000000
  21
0.0
  31
0.0
  40
 0.39073112849550
  41
0.0
  42
 6.2831853071796
   0
LINE
   5
321
 100
AcDbEntity
   8
LEVEL001
 100
AcDbLine
   6
DOT
  62
1
  10
 191.82671406094
  20
 198.22300247320
  30
0.0
  11
 191.82671406094
  21
 197.78729788247
  31
0.0
   0
LINE
   5
322
 100
AcDbEntity
   8
LEVEL001
 100
AcDbLine
   6
DOT
  62
1
  10
 199.02671406094
  20
 198.22300247320
  30
0.0
  11
 199.02671406094
  21
 197.78729788247
  31
0.0
   0
LINE
   5
323
 100
AcDbEntity
   8
LEVEL001
 100
AcDbLine
   6
DOT
  62
1
  10
 127.89256036467
  20
 199.08372954049
  30
0.0
  11
 131.75868074910
  21
 200.72480028014
  31
0.0
   0
ENDSEC
  0
SECTION
  2
OBJECTS
  0
DICTIONARY
  5
C
100
AcDbDictionary
  3
ACAD_GROUP
350
D
  3
ACAD_MLINESTYLE
350
1B
  0
DICTIONARY
  5
D
102
{ACAD_REACTORS
330
C
102
}
100
AcDbDictionary
  0
DICTIONARY
  5
1B
102
{ACAD_REACTORS
330
C
102
}
100
AcDbDictionary
  3
STANDARD
350
1C
  0
MLINESTYLE
  5
1C
102
{ACAD_REACTORS
330
1B
102
}
100
AcDbMlineStyle
  2
STANDARD
 70
     0
  3

 62
   256
 51
90.0
 52
90.0
 71
     2
 49
0.5
 62
   256
  6
BYLAYER
 49
-0.5
 62
   256
  6
BYLAYER
  0
ENDSEC
   0
EOF
