   0
SECTION
   2
HEADER
   9
$ACADVER
   1
AC1015
   9
$LIMMIN
  10
0.0
  20
0.0
   9
$LIMMAX
  10
 420.00000000000
  20
 297.00000000000
   9
$EXTMIN
  10
0.0
  20
0.0
  30
0.0
   9
$EXTMAX
  10
 420.00000000000
  20
 297.00000000000
  30
0.0
   9
$LTSCALE
  40
 8.4000000000000
   9
$HANDSEED
   5
6AA
   0
ENDSEC
   0
SECTION
   2
TABLES
  0
TABLE
  2
VPORT
  5
8
100
AcDbSymbolTable
 70
     1
  0
VPORT
  5
6A9
100
AcDbSymbolTableRecord
100
AcDbViewportTableRecord
  2
*ACTIVE
 70
     0
 10
0.0
 20
0.0
 11
1.0
 21
1.0
  12
 210.00000000000
  22
 148.50000000000
 13
0.0
 23
0.0
 14
1.0
 24
1.0
 15
0.0
 25
0.0
 16
0.0
 26
0.0
 36
1.0
 17
0.0
 27
0.0
 37
0.0
  40
 420.00000000000
  41
 1.4787878787879
 42
50.0
 43
0.0
 44
0.0
 50
0.0
 51
0.0
 71
     0
 72
   100
 73
     1
 74
     1
 75
     0
 76
     0
 77
     0
 78
     0
  0
ENDTAB
  0
TABLE
  2
LTYPE
  5
5
100
AcDbSymbolTable
 70
    25
  0
LTYPE
  5
12
100
AcDbSymbolTableRecord
100
AcDbLinetypeTableRecord
  2
BYBLOCK
 70
     0
  3

 72
    65
 73
     0
 40
0.0
  0
LTYPE
  5
13
100
AcDbSymbolTableRecord
100
AcDbLinetypeTableRecord
  2
BYLAYER
 70
     0
  3

 72
    65
 73
     0
 40
0.0
  0
LTYPE
  5
14
100
AcDbSymbolTableRecord
100
AcDbLinetypeTableRecord
  2
CONTINUOUS
 70
     0
  3
Solid line
 72
    65
 73
     0
 40
0.0
  0
LTYPE
  5
20
100
AcDbSymbolTableRecord
100
AcDbLinetypeTableRecord
  2
BORDER
 70
     0
  3
__ __ . __ __ . __ __ . __ __ . __ __ . __ __ .
 72
    65
 73
     6
 40
1.75
 49
0.5
 74
     0
 49
-0.25
 74
     0
 49
0.5
 74
     0
 49
-0.25
 74
     0
 49
0.0
 74
     0
 49
-0.25
 74
     0
  0
LTYPE
  5
21
100
AcDbSymbolTableRecord
100
AcDbLinetypeTableRecord
  2
BORDER2
 70
     0
  3
__.__.__.__.__.__.__.__.__.__.__.__.__.__.__.__
 72
    65
 73
     6
 40
0.875
 49
0.25
 74
     0
 49
-0.125
 74
     0
 49
0.25
 74
     0
 49
-0.125
 74
     0
 49
0.0
 74
     0
 49
-0.125
 74
     0
  0
LTYPE
  5
22
100
AcDbSymbolTableRecord
100
AcDbLinetypeTableRecord
  2
BORDERX2
 70
     0
  3
____  ____  .  ____  ____  .  ____  ____  .  __
 72
    65
 73
     6
 40
3.5
 49
1.0
 74
     0
 49
-0.5
 74
     0
 49
1.0
 74
     0
 49
-0.5
 74
     0
 49
0.0
 74
     0
 49
-0.5
 74
     0
  0
LTYPE
  5
23
100
AcDbSymbolTableRecord
100
AcDbLinetypeTableRecord
  2
CENTER
 70
     0
  3
____ _ ____ _ ____ _ ____ _ ____ _ ____ _ ____ 
 72
    65
 73
     4
 40
2.0
 49
1.25
 74
     0
 49
-0.25
 74
     0
 49
0.25
 74
     0
 49
-0.25
 74
     0
  0
LTYPE
  5
24
100
AcDbSymbolTableRecord
100
AcDbLinetypeTableRecord
  2
CENTER2
 70
     0
  3
___ _ ___ _ ___ _ ___ _ ___ _ ___ _ ___ _ ___ _
 72
    65
 73
     4
 40
1.125
 49
0.75
 74
     0
 49
-0.125
 74
     0
 49
0.125
 74
     0
 49
-0.125
 74
     0
  0
LTYPE
  5
25
100
AcDbSymbolTableRecord
100
AcDbLinetypeTableRecord
  2
CENTERX2
 70
     0
  3
________  __  ________  __  ________  __  _____
 72
    65
 73
     4
 40
4.0
 49
2.5
 74
     0
 49
-0.5
 74
     0
 49
0.5
 74
     0
 49
-0.5
 74
     0
  0
LTYPE
  5
26
100
AcDbSymbolTableRecord
100
AcDbLinetypeTableRecord
  2
DASHDOT
 70
     0
  3
__ . __ . __ . __ . __ . __ . __ . __ . __ . __
 72
    65
 73
     4
 40
1.0
 49
0.5
 74
     0
 49
-0.25
 74
     0
 49
0.0
 74
     0
 49
-0.25
 74
     0
  0
LTYPE
  5
27
100
AcDbSymbolTableRecord
100
AcDbLinetypeTableRecord
  2
DASHDOT2
 70
     0
  3
_._._._._._._._._._._._._._._._._._._._._._._._
 72
    65
 73
     4
 40
0.5
 49
0.25
 74
     0
 49
-0.125
 74
     0
 49
0.0
 74
     0
 49
-0.125
 74
     0
  0
LTYPE
  5
28
100
AcDbSymbolTableRecord
100
AcDbLinetypeTableRecord
  2
DASHDOTX2
 70
     0
  3
____  .  ____  .  ____  .  ____  .  ____  .  __
 72
    65
 73
     4
 40
2.0
 49
1.0
 74
     0
 49
-0.5
 74
     0
 49
0.0
 74
     0
 49
-0.5
 74
     0
  0
LTYPE
  5
29
100
AcDbSymbolTableRecord
100
AcDbLinetypeTableRecord
  2
DASHED
 70
     0
  3
__ __ __ __ __ __ __ __ __ __ __ __ __ __ __ __
 72
    65
 73
     2
 40
0.75
 49
0.5
 74
     0
 49
-0.25
 74
     0
  0
LTYPE
  5
2A
100
AcDbSymbolTableRecord
100
AcDbLinetypeTableRecord
  2
DASHED2
 70
     0
  3
_ _ _ _ _ _ _ _ _ _ _ _ _ _ _ _ _ _ _ _ _ _ _ _
 72
    65
 73
     2
 40
0.375
 49
0.25
 74
     0
 49
-0.125
 74
     0
  0
LTYPE
  5
2B
100
AcDbSymbolTableRecord
100
AcDbLinetypeTableRecord
  2
DASHEDX2
 70
     0
  3
____  ____  ____  ____  ____  ____  ____  ____ 
 72
    65
 73
     2
 40
1.5
 49
1.0
 74
     0
 49
-0.5
 74
     0
  0
LTYPE
  5
2C
100
AcDbSymbolTableRecord
100
AcDbLinetypeTableRecord
  2
DIVIDE
 70
     0
  3
____ . . ____ . . ____ . . ____ . . ____ . . __
 72
    65
 73
     6
 40
1.25
 49
0.5
 74
     0
 49
-0.25
 74
     0
 49
0.0
 74
     0
 49
-0.25
 74
     0
 49
0.0
 74
     0
 49
-0.25
 74
     0
  0
LTYPE
  5
2D
100
AcDbSymbolTableRecord
100
AcDbLinetypeTableRecord
  2
DIVIDE2
 70
     0
  3
__..__..__..__..__..__..__..__..__..__..__..__.
 72
    65
 73
     6
 40
0.625
 49
0.25
 74
     0
 49
-0.125
 74
     0
 49
0.0
 74
     0
 49
-0.125
 74
     0
 49
0.0
 74
     0
 49
-0.125
 74
     0
  0
LTYPE
  5
2E
100
AcDbSymbolTableRecord
100
AcDbLinetypeTableRecord
  2
DIVIDEX2
 70
     0
  3
________  .  .  ________  .  .  ________  .  . 
 72
    65
 73
     6
 40
2.5
 49
1.0
 74
     0
 49
-0.5
 74
     0
 49
0.0
 74
     0
 49
-0.5
 74
     0
 49
0.0
 74
     0
 49
-0.5
 74
     0
  0
LTYPE
  5
2F
100
AcDbSymbolTableRecord
100
AcDbLinetypeTableRecord
  2
DOT
 70
     0
  3
. . . . . . . . . . . . . . . . . . . . . . . .
 72
    65
 73
     2
 40
0.25
 49
0.0
 74
     0
 49
-0.25
 74
     0
  0
LTYPE
  5
30
100
AcDbSymbolTableRecord
100
AcDbLinetypeTableRecord
  2
DOT2
 70
     0
  3
...............................................
 72
    65
 73
     2
 40
0.125
 49
0.0
 74
     0
 49
-0.125
 74
     0
  0
LTYPE
  5
31
100
AcDbSymbolTableRecord
100
AcDbLinetypeTableRecord
  2
DOTX2
 70
     0
  3
.  .  .  .  .  .  .  .  .  .  .  .  .  .  .  . 
 72
    65
 73
     2
 40
0.5
 49
0.0
 74
     0
 49
-0.5
 74
     0
  0
LTYPE
  5
32
100
AcDbSymbolTableRecord
100
AcDbLinetypeTableRecord
  2
HIDDEN
 70
     0
  3
__ __ __ __ __ __ __ __ __ __ __ __ __ __ __ __
 72
    65
 73
     2
 40
0.375
 49
0.25
 74
     0
 49
-0.125
 74
     0
  0
LTYPE
  5
33
100
AcDbSymbolTableRecord
100
AcDbLinetypeTableRecord
  2
HIDDEN2
 70
     0
  3
_ _ _ _ _ _ _ _ _ _ _ _ _ _ _ _ _ _ _ _ _ _ _ _
 72
    65
 73
     2
 40
0.1875
 49
0.125
 74
     0
 49
-0.0625
 74
     0
  0
LTYPE
  5
34
100
AcDbSymbolTableRecord
100
AcDbLinetypeTableRecord
  2
HIDDENX2
 70
     0
  3
____ ____ ____ ____ ____ ____ ____ ____ ____ __
 72
    65
 73
     2
 40
0.75
 49
0.5
 74
     0
 49
-0.25
 74
     0
  0
LTYPE
  5
35
100
AcDbSymbolTableRecord
100
AcDbLinetypeTableRecord
  2
PHANTOM
 70
     0
  3
______  __  __  ______  __  __  ______  __  __ 
 72
    65
 73
     6
 40
2.5
 49
1.25
 74
     0
 49
-0.25
 74
     0
 49
0.25
 74
     0
 49
-0.25
 74
     0
 49
0.25
 74
     0
 49
-0.25
 74
     0
  0
LTYPE
  5
36
100
AcDbSymbolTableRecord
100
AcDbLinetypeTableRecord
  2
PHANTOM2
 70
     0
  3
___ _ _ ___ _ _ ___ _ _ ___ _ _ ___ _ _ ___ _ _
 72
    65
 73
     6
 40
1.25
 49
0.625
 74
     0
 49
-0.125
 74
     0
 49
0.125
 74
     0
 49
-0.125
 74
     0
 49
0.125
 74
     0
 49
-0.125
 74
     0
  0
LTYPE
  5
37
100
AcDbSymbolTableRecord
100
AcDbLinetypeTableRecord
  2
PHANTOMX2
 70
     0
  3
____________    ____    ____    ____________   
 72
    65
 73
     6
 40
5.0
 49
2.5
 74
     0
 49
-0.5
 74
     0
 49
0.5
 74
     0
 49
-0.5
 74
     0
 49
0.5
 74
     0
 49
-0.5
 74
     0
  0
ENDTAB
   0
TABLE
   2
LAYER
   5
2
 100
AcDbSymbolTable
  70
3
   0
LAYER
   5
E
 100
AcDbSymbolTableRecord
 100
AcDbLayerTableRecord
   2
0
  70
0
  62
7
   6
CONTINUOUS
 390
30
   0
LAYER
   5
39
 100
AcDbSymbolTableRecord
 100
AcDbLayerTableRecord
   2
LEVEL001
  70
0
  62
7
   6
CONTINUOUS
 390
30
   0
LAYER
   5
3A
 100
AcDbSymbolTableRecord
 100
AcDbLayerTableRecord
   2
LEVEL002
  70
0
  62
7
   6
CONTINUOUS
 390
30
   0
ENDTAB
  0
TABLE
  2
STYLE
  5
3
100
AcDbSymbolTable
  70
3
  0
STYLE
  5
F
100
AcDbSymbolTableRecord
100
AcDbTextStyleTableRecord
  2
STANDARD
 70
     0
 40
0.0
 41
1.0
 50
0.0
 71
     0
 42
0.2
  3
TXT
  4
BIGFONT
  0
STYLE
  5
38
100
AcDbSymbolTableRecord
100
AcDbTextStyleTableRecord
  2
STANDARD1
 70
     4
 40
0.0
 41
1.0
 50
0.0
 71
     0
 42
0.2
  3
TXT
  4
BIGFONT
   0
STYLE
   5
3B
 100
AcDbSymbolTableRecord
 100
AcDbTextStyleTableRecord
   2
GMM001
  70
0
  40
0.0
  41
 1.0000000000000
  50
0.0
  71
     0
  42
1.0
   3
txt.shx
   4
bigfont.shx
   0
ENDTAB
  0
TABLE
  2
VIEW
  5
6
100
AcDbSymbolTable
 70
     0
  0
ENDTAB
  0
TABLE
  2
UCS
  5
7
100
AcDbSymbolTable
 70
     0
  0
ENDTAB
  0
TABLE
  2
APPID
  5
9
100
AcDbSymbolTable
 70
     1
  0
APPID
  5
10
100
AcDbSymbolTableRecord
100
AcDbRegAppTableRecord
  2
ACAD
 70
     0
  0
ENDTAB
   0
TABLE
   2
DIMSTYLE
   5
A
 100
AcDbSymbolTable
  70
12
 100
AcDbDimStyleTable
  0
DIMSTYLE
105
1D
100
AcDbSymbolTableRecord
100
AcDbDimStyleTableRecord
  2
STANDARD
 70
     0
  3

  4

  5

  6

  7

 40
1.0
 41
0.18
 42
0.0625
 43
0.38
 44
0.18
 45
0.0
 46
0.0
 47
0.0
 48
0.0
140
0.18
141
0.09
142
0.0
143
25.4
144
1.0
145
0.0
146
1.0
147
0.09
 71
     0
 72
     0
 73
     1
 74
     1
 75
     0
 76
     0
 77
     0
 78
     0
170
     0
171
     2
172
     0
173
     0
174
     0
175
     0
176
     0
177
     0
178
     0
270
     2
271
     4
272
     4
273
     2
274
     2
340
F
275
     0
280
     0
281
     0
282
     0
283
     1
284
     0
285
     0
286
     0
287
     3
288
     0
   0
DIMSTYLE
 105
3C
 100
AcDbSymbolTableRecord
 100
AcDbDimStyleTableRecord
   2
GMM001
  70
0
   3

   4

   5

   6
_OPEN30
   7
_OPEN30
  40
 1.0000000000000
  41
 3.0000000000000
  42
 1.0000000000000
  43
 8.0000000000000
  44
 1.5000000000000
  45
0.0
  46
0.0
  47
0.0
  48
0.0
 140
 4.0000000000000
 141
 1.0000000000000
 142
0.0
 143
 0.39400000000000E-1
 144
 1.0000000000000
 145
0.0
 146
 0.62500000000000
 147
 1.7142857142857
  71
0
  72
0
  73
0
  74
0
  75
0
  76
0
  77
3
  78
8
 170
0
 171
2
 172
1
 173
1
 174
0
 175
0
 176
2
 177
2
 178
2
 270
2
 271
6
 272
0
 273
2
 274
2
 340
3B
 275
1
 280
0
 281
0
 282
0
 283
1
 284
0
 285
0
 286
0
 287
3
 288
0
   0
DIMSTYLE
 105
3D
 100
AcDbSymbolTableRecord
 100
AcDbDimStyleTableRecord
   2
GMM002
  70
0
   3
9～12<>
   4

   5

   6
_OPEN30
   7
_OPEN30
  40
 1.0000000000000
  41
 3.0000000000000
  42
 1.0000000000000
  43
 8.0000000000000
  44
 1.5000000000000
  45
0.0
  46
0.0
  47
0.0
  48
0.0
 140
 4.0000000000000
 141
 1.0000000000000
 142
0.0
 143
 0.39400000000000E-1
 144
 1.0000000000000
 145
0.0
 146
 0.62500000000000
 147
 1.7142857142857
  71
0
  72
0
  73
0
  74
0
  75
0
  76
0
  77
3
  78
8
 170
0
 171
2
 172
1
 173
1
 174
0
 175
0
 176
2
 177
2
 178
2
 270
2
 271
6
 272
0
 273
2
 274
2
 340
3B
 275
1
 280
0
 281
0
 282
0
 283
1
 284
0
 285
0
 286
0
 287
3
 288
1
   0
DIMSTYLE
 105
3E
 100
AcDbSymbolTableRecord
 100
AcDbDimStyleTableRecord
   2
GMM003
  70
0
   3
パイプ長 -10.<>
   4

   5

   6
_OPEN30
   7
_OPEN30
  40
 1.0000000000000
  41
 3.0000000000000
  42
 1.0000000000000
  43
 8.0000000000000
  44
 1.5000000000000
  45
0.0
  46
0.0
  47
0.0
  48
0.0
 140
 4.0000000000000
 141
 1.0000000000000
 142
0.0
 143
 0.39400000000000E-1
 144
 1.0000000000000
 145
0.0
 146
 0.62500000000000
 147
 1.7142857142857
  71
0
  72
0
  73
0
  74
0
  75
0
  76
0
  77
3
  78
8
 170
0
 171
2
 172
1
 173
1
 174
0
 175
0
 176
2
 177
2
 178
2
 270
2
 271
6
 272
0
 273
2
 274
2
 340
3B
 275
1
 280
0
 281
0
 282
0
 283
1
 284
0
 285
0
 286
0
 287
3
 288
0
   0
DIMSTYLE
 105
3F
 100
AcDbSymbolTableRecord
 100
AcDbDimStyleTableRecord
   2
GMM004
  70
0
   3
パイプ長<>
   4

   5

   6
_OPEN30
   7
_OPEN30
  40
 1.0000000000000
  41
 3.0000000000000
  42
 1.0000000000000
  43
 8.0000000000000
  44
 1.5000000000000
  45
0.0
  46
0.0
  47
0.0
  48
0.0
 140
 4.0000000000000
 141
 1.0000000000000
 142
0.0
 143
 0.39400000000000E-1
 144
 1.0000000000000
 145
0.0
 146
 0.62500000000000
 147
 1.7142857142857
  71
0
  72
0
  73
0
  74
0
  75
0
  76
0
  77
3
  78
8
 170
0
 171
2
 172
1
 173
1
 174
0
 175
0
 176
2
 177
2
 178
2
 270
2
 271
6
 272
0
 273
2
 274
2
 340
3B
 275
1
 280
0
 281
0
 282
0
 283
1
 284
0
 285
0
 286
0
 287
3
 288
0
   0
DIMSTYLE
 105
40
 100
AcDbSymbolTableRecord
 100
AcDbDimStyleTableRecord
   2
GMM005
  70
0
   3
パイプ長 +3<>
   4

   5

   6
_OPEN30
   7
_OPEN30
  40
 1.0000000000000
  41
 3.0000000000000
  42
 1.0000000000000
  43
 8.0000000000000
  44
 1.5000000000000
  45
0.0
  46
0.0
  47
0.0
  48
0.0
 140
 4.0000000000000
 141
 1.0000000000000
 142
0.0
 143
 0.39400000000000E-1
 144
 1.0000000000000
 145
0.0
 146
 0.62500000000000
 147
 1.7142857142857
  71
0
  72
0
  73
0
  74
0
  75
0
  76
0
  77
3
  78
8
 170
0
 171
2
 172
1
 173
1
 174
0
 175
0
 176
2
 177
2
 178
2
 270
2
 271
6
 272
0
 273
2
 274
2
 340
3B
 275
1
 280
0
 281
0
 282
0
 283
1
 284
0
 285
0
 286
0
 287
3
 288
0
   0
DIMSTYLE
 105
41
 100
AcDbSymbolTableRecord
 100
AcDbDimStyleTableRecord
   2
GMM006
  70
0
   3
R<>
   4

   5

   6
_NONE
   7
_OPEN30
  40
 1.0000000000000
  41
 3.0000000000000
  42
 1.0000000000000
  43
 8.0000000000000
  44
 1.5000000000000
  45
0.0
  46
0.0
  47
0.0
  48
0.0
 140
 4.0000000000000
 141
 1.0000000000000
 142
0.0
 143
 0.39400000000000E-1
 144
 1.0000000000000
 145
0.0
 146
 0.62500000000000
 147
 1.7142857142857
  71
0
  72
0
  73
0
  74
0
  75
0
  76
0
  77
3
  78
8
 170
0
 171
2
 172
1
 173
1
 174
0
 175
0
 176
2
 177
2
 178
2
 270
2
 271
6
 272
0
 273
2
 274
2
 340
3B
 275
1
 280
0
 281
0
 282
0
 283
1
 284
0
 285
0
 286
0
 287
3
 288
1
   0
DIMSTYLE
 105
42
 100
AcDbSymbolTableRecord
 100
AcDbDimStyleTableRecord
   2
GMM007
  70
0
   3
19.4<>
   4

   5

   6
_OPEN30
   7
_OPEN30
  40
 1.0000000000000
  41
 3.0000000000000
  42
 1.0000000000000
  43
 8.0000000000000
  44
 1.5000000000000
  45
0.0
  46
0.0
  47
0.0
  48
0.0
 140
 4.0000000000000
 141
 1.0000000000000
 142
0.0
 143
 0.39400000000000E-1
 144
 1.0000000000000
 145
0.0
 146
 0.62500000000000
 147
 1.7142857142857
  71
0
  72
0
  73
0
  74
0
  75
0
  76
0
  77
3
  78
8
 170
0
 171
2
 172
1
 173
1
 174
0
 175
0
 176
2
 177
2
 178
2
 270
2
 271
6
 272
0
 273
2
 274
2
 340
3B
 275
1
 280
0
 281
0
 282
0
 283
1
 284
0
 285
0
 286
0
 287
3
 288
0
   0
DIMSTYLE
 105
43
 100
AcDbSymbolTableRecord
 100
AcDbDimStyleTableRecord
   2
GMM008
  70
0
   3

   4

   5

   6
_OPEN30
   7
_OPEN30
  40
 1.0000000000000
  41
 3.0000000000000
  42
 1.0000000000000
  43
 8.0000000000000
  44
 1.5000000000000
  45
0.0
  46
0.0
  47
0.0
  48
0.0
 140
 4.0000000000000
 141
 1.0000000000000
 142
0.0
 143
 0.39400000000000E-1
 144
 1.0000000000000
 145
0.0
 146
 0.62500000000000
 147
 1.7142857142857
  71
0
  72
0
  73
0
  74
0
  75
0
  76
0
  77
3
  78
8
 170
0
 171
2
 172
1
 173
1
 174
0
 175
0
 176
2
 177
2
 178
2
 270
2
 271
6
 272
0
 273
2
 274
2
 340
3B
 275
1
 280
0
 281
0
 282
0
 283
1
 284
0
 285
0
 286
0
 287
3
 288
1
   0
DIMSTYLE
 105
44
 100
AcDbSymbolTableRecord
 100
AcDbDimStyleTableRecord
   2
GMM009
  70
0
   3

   4

   5

   6
_OPEN30
   7
_OPEN30
  40
 1.0000000000000
  41
 3.0000000000000
  42
 1.0000000000000
  43
 8.0000000000000
  44
 1.5000000000000
  45
0.0
  46
0.0
  47
0.0
  48
0.0
 140
 4.0000000000000
 141
 1.0000000000000
 142
0.0
 143
 0.39400000000000E-1
 144
 1.0000000000000
 145
0.0
 146
 0.62500000000000
 147
 1.7142857142857
  71
0
  72
0
  73
0
  74
0
  75
0
  76
0
  77
3
  78
8
 170
0
 171
2
 172
1
 173
1
 174
0
 175
0
 176
2
 177
2
 178
2
 270
2
 271
6
 272
0
 273
2
 274
2
 340
3B
 275
1
 280
0
 281
0
 282
0
 283
1
 284
0
 285
0
 286
0
 287
3
 288
1
   0
DIMSTYLE
 105
45
 100
AcDbSymbolTableRecord
 100
AcDbDimStyleTableRecord
   2
GMM010
  70
0
   3
約300<>
   4

   5

   6
_OPEN30
   7
_OPEN30
  40
 1.0000000000000
  41
 3.0000000000000
  42
 1.0000000000000
  43
 8.0000000000000
  44
 1.5000000000000
  45
0.0
  46
0.0
  47
0.0
  48
0.0
 140
 4.0000000000000
 141
 1.0000000000000
 142
0.0
 143
 0.39400000000000E-1
 144
 1.0000000000000
 145
0.0
 146
 0.62500000000000
 147
 1.7142857142857
  71
0
  72
0
  73
0
  74
0
  75
0
  76
0
  77
3
  78
8
 170
0
 171
2
 172
1
 173
1
 174
0
 175
0
 176
2
 177
2
 178
2
 270
2
 271
6
 272
0
 273
2
 274
2
 340
3B
 275
1
 280
0
 281
0
 282
0
 283
1
 284
0
 285
0
 286
0
 287
3
 288
0
   0
ENDTAB
  0
TABLE
  2
BLOCK_RECORD
  5
1
100
AcDbSymbolTable
 70
     0
  0
BLOCK_RECORD
  5
18
100
AcDbSymbolTableRecord
100
AcDbBlockTableRecord
  2
*MODEL_SPACE
  0
BLOCK_RECORD
  5
15
100
AcDbSymbolTableRecord
100
AcDbBlockTableRecord
  2
*PAPER_SPACE
   0
BLOCK_RECORD
   5
46
 100
AcDbSymbolTableRecord
 100
AcDbBlockTableRecord
   2
*D1
   0
BLOCK_RECORD
   5
47
 100
AcDbSymbolTableRecord
 100
AcDbBlockTableRecord
   2
*D2
   0
BLOCK_RECORD
   5
48
 100
AcDbSymbolTableRecord
 100
AcDbBlockTableRecord
   2
HATCH001
   0
BLOCK_RECORD
   5
49
 100
AcDbSymbolTableRecord
 100
AcDbBlockTableRecord
   2
*D3
   0
BLOCK_RECORD
   5
4A
 100
AcDbSymbolTableRecord
 100
AcDbBlockTableRecord
   2
*D4
   0
BLOCK_RECORD
   5
4B
 100
AcDbSymbolTableRecord
 100
AcDbBlockTableRecord
   2
*D5
   0
BLOCK_RECORD
   5
4C
 100
AcDbSymbolTableRecord
 100
AcDbBlockTableRecord
   2
*D6
   0
BLOCK_RECORD
   5
4D
 100
AcDbSymbolTableRecord
 100
AcDbBlockTableRecord
   2
*D7
   0
BLOCK_RECORD
   5
4E
 100
AcDbSymbolTableRecord
 100
AcDbBlockTableRecord
   2
*D8
   0
BLOCK_RECORD
   5
4F
 100
AcDbSymbolTableRecord
 100
AcDbBlockTableRecord
   2
*D9
   0
BLOCK_RECORD
   5
50
 100
AcDbSymbolTableRecord
 100
AcDbBlockTableRecord
   2
HATCH002
   0
BLOCK_RECORD
   5
51
 100
AcDbSymbolTableRecord
 100
AcDbBlockTableRecord
   2
HATCH003
   0
BLOCK_RECORD
   5
52
 100
AcDbSymbolTableRecord
 100
AcDbBlockTableRecord
   2
*D10
   0
BLOCK_RECORD
   5
53
 100
AcDbSymbolTableRecord
 100
AcDbBlockTableRecord
   2
*D11
   0
BLOCK_RECORD
   5
54
 100
AcDbSymbolTableRecord
 100
AcDbBlockTableRecord
   2
*D12
   0
BLOCK_RECORD
   5
55
 100
AcDbSymbolTableRecord
 100
AcDbBlockTableRecord
   2
*D13
   0
BLOCK_RECORD
   5
56
 100
AcDbSymbolTableRecord
 100
AcDbBlockTableRecord
   2
*D14
   0
BLOCK_RECORD
   5
57
 100
AcDbSymbolTableRecord
 100
AcDbBlockTableRecord
   2
*D15
   0
BLOCK_RECORD
   5
58
 100
AcDbSymbolTableRecord
 100
AcDbBlockTableRecord
   2
*D16
   0
BLOCK_RECORD
   5
59
 100
AcDbSymbolTableRecord
 100
AcDbBlockTableRecord
   2
*D17
   0
BLOCK_RECORD
   5
5A
 100
AcDbSymbolTableRecord
 100
AcDbBlockTableRecord
   2
*D18
   0
BLOCK_RECORD
   5
5B
 100
AcDbSymbolTableRecord
 100
AcDbBlockTableRecord
   2
*D19
   0
BLOCK_RECORD
   5
5C
 100
AcDbSymbolTableRecord
 100
AcDbBlockTableRecord
   2
*D20
   0
BLOCK_RECORD
   5
5D
 100
AcDbSymbolTableRecord
 100
AcDbBlockTableRecord
   2
*D21
   0
BLOCK_RECORD
   5
5E
 100
AcDbSymbolTableRecord
 100
AcDbBlockTableRecord
   2
*D22
   0
BLOCK_RECORD
   5
5F
 100
AcDbSymbolTableRecord
 100
AcDbBlockTableRecord
   2
*D23
   0
BLOCK_RECORD
   5
60
 100
AcDbSymbolTableRecord
 100
AcDbBlockTableRecord
   2
*D24
   0
BLOCK_RECORD
   5
61
 100
AcDbSymbolTableRecord
 100
AcDbBlockTableRecord
   2
*D25
   0
BLOCK_RECORD
   5
62
 100
AcDbSymbolTableRecord
 100
AcDbBlockTableRecord
   2
*D26
   0
BLOCK_RECORD
   5
63
 100
AcDbSymbolTableRecord
 100
AcDbBlockTableRecord
   2
*D27
   0
BLOCK_RECORD
   5
64
 100
AcDbSymbolTableRecord
 100
AcDbBlockTableRecord
   2
*D28
   0
BLOCK_RECORD
   5
65
 100
AcDbSymbolTableRecord
 100
AcDbBlockTableRecord
   2
*D29
   0
BLOCK_RECORD
   5
66
 100
AcDbSymbolTableRecord
 100
AcDbBlockTableRecord
   2
*D30
   0
BLOCK_RECORD
   5
67
 100
AcDbSymbolTableRecord
 100
AcDbBlockTableRecord
   2
*D31
   0
BLOCK_RECORD
   5
68
 100
AcDbSymbolTableRecord
 100
AcDbBlockTableRecord
   2
_ARCHTICK
   0
BLOCK_RECORD
   5
69
 100
AcDbSymbolTableRecord
 100
AcDbBlockTableRecord
   2
_BOXBLANK
   0
BLOCK_RECORD
   5
6A
 100
AcDbSymbolTableRecord
 100
AcDbBlockTableRecord
   2
_BOXFILLED
   0
BLOCK_RECORD
   5
6B
 100
AcDbSymbolTableRecord
 100
AcDbBlockTableRecord
   2
_CLOSED
   0
BLOCK_RECORD
   5
6C
 100
AcDbSymbolTableRecord
 100
AcDbBlockTableRecord
   2
_CLOSEDBLANK
   0
BLOCK_RECORD
   5
6D
 100
AcDbSymbolTableRecord
 100
AcDbBlockTableRecord
   2
_DATUMBLANK
   0
BLOCK_RECORD
   5
6E
 100
AcDbSymbolTableRecord
 100
AcDbBlockTableRecord
   2
_DATUMFILLED
   0
BLOCK_RECORD
   5
6F
 100
AcDbSymbolTableRecord
 100
AcDbBlockTableRecord
   2
_DOT
   0
BLOCK_RECORD
   5
70
 100
AcDbSymbolTableRecord
 100
AcDbBlockTableRecord
   2
_DOTBLANK
   0
BLOCK_RECORD
   5
71
 100
AcDbSymbolTableRecord
 100
AcDbBlockTableRecord
   2
_DOTSMALL
   0
BLOCK_RECORD
   5
72
 100
AcDbSymbolTableRecord
 100
AcDbBlockTableRecord
   2
_INTEGRAL
   0
BLOCK_RECORD
   5
73
 100
AcDbSymbolTableRecord
 100
AcDbBlockTableRecord
   2
_NONE
   0
BLOCK_RECORD
   5
74
 100
AcDbSymbolTableRecord
 100
AcDbBlockTableRecord
   2
_OBLIQUE
   0
BLOCK_RECORD
   5
75
 100
AcDbSymbolTableRecord
 100
AcDbBlockTableRecord
   2
_OPEN
   0
BLOCK_RECORD
   5
76
 100
AcDbSymbolTableRecord
 100
AcDbBlockTableRecord
   2
_OPEN30
   0
BLOCK_RECORD
   5
77
 100
AcDbSymbolTableRecord
 100
AcDbBlockTableRecord
   2
_OPEN90
   0
BLOCK_RECORD
   5
78
 100
AcDbSymbolTableRecord
 100
AcDbBlockTableRecord
   2
_ORIGIN
   0
ENDTAB
   0
ENDSEC
  0
SECTION
  2
BLOCKS
  0
BLOCK
  5
19
100
AcDbEntity
  8
0
100
AcDbBlockBegin
  2
*MODEL_SPACE
 70
     0
 10
0.0
 20
0.0
 30
0.0
  3
*MODEL_SPACE
  1

  0
ENDBLK
  5
1A
100
AcDbEntity
  8
0
100
AcDbBlockEnd
  0
BLOCK
  5
16
100
AcDbEntity
 67
     1
  8
0
100
AcDbBlockBegin
  2
*PAPER_SPACE
 70
     0
 10
0.0
 20
0.0
 30
0.0
  3
*PAPER_SPACE
  1

  0
ENDBLK
  5
17
100
AcDbEntity
 67
     1
  8
0
100
AcDbBlockEnd
   0
BLOCK
   5
79
 100
AcDbEntity
   8
0
 100
AcDbBlockBegin
   2
_ARCHTICK
  70
0
  10
0.0
  20
0.0
  30
0.0
   3
_ARCHTICK
   0
POLYLINE
   5
7A
 100
AcDbEntity
   8
0
   6
BYBLOCK
  62
0
 100
AcDb2dPolyline
  66
1
  10
0.0
  20
0.0
  30
0.0
  70
1
  40
 0.15000000000000
  41
 0.15000000000000
   0
VERTEX
   5
7B
 100
AcDbEntity
   8
0
   6
BYBLOCK
  62
0
 100
AcDbVertex
 100
AcDb2dVertex
  10
-0.50000000000000
  20
-0.50000000000000
  30
0.0
  40
 0.15000000000000
  41
 0.15000000000000
   0
VERTEX
   5
7C
 100
AcDbEntity
   8
0
   6
BYBLOCK
  62
0
 100
AcDbVertex
 100
AcDb2dVertex
  10
 0.50000000000000
  20
 0.50000000000000
  30
0.0
  40
 0.15000000000000
  41
 0.15000000000000
   0
SEQEND
   5
7D
 100
AcDbEntity
   8
0
   6
BYBLOCK
  62
0
   0
ENDBLK
   5
7E
 100
AcDbEntity
   8
0
 100
AcDbBlockEnd
   0
BLOCK
   5
7F
 100
AcDbEntity
   8
0
 100
AcDbBlockBegin
   2
_OBLIQUE
  70
0
  10
0.0
  20
0.0
  30
0.0
   3
_OBLIQUE
   0
LINE
   5
80
 100
AcDbEntity
   8
0
 100
AcDbLine
   6
BYBLOCK
  62
0
  10
-0.50000000000000
  20
-0.50000000000000
  30
0.0
  11
 0.50000000000000
  21
 0.50000000000000
  31
0.0
   0
ENDBLK
   5
81
 100
AcDbEntity
   8
0
 100
AcDbBlockEnd
   0
BLOCK
   5
82
 100
AcDbEntity
   8
0
 100
AcDbBlockBegin
   2
_BOXBLANK
  70
0
  10
0.0
  20
0.0
  30
0.0
   3
_BOXBLANK
   0
LINE
   5
83
 100
AcDbEntity
   8
0
 100
AcDbLine
   6
BYBLOCK
  62
0
  10
-0.50000000000000
  20
-0.50000000000000
  30
0.0
  11
 0.50000000000000
  21
-0.50000000000000
  31
0.0
   0
LINE
   5
84
 100
AcDbEntity
   8
0
 100
AcDbLine
   6
BYBLOCK
  62
0
  10
 0.50000000000000
  20
-0.50000000000000
  30
0.0
  11
 0.50000000000000
  21
 0.50000000000000
  31
0.0
   0
LINE
   5
85
 100
AcDbEntity
   8
0
 100
AcDbLine
   6
BYBLOCK
  62
0
  10
 0.50000000000000
  20
 0.50000000000000
  30
0.0
  11
-0.50000000000000
  21
 0.50000000000000
  31
0.0
   0
LINE
   5
86
 100
AcDbEntity
   8
0
 100
AcDbLine
   6
BYBLOCK
  62
0
  10
-0.50000000000000
  20
 0.50000000000000
  30
0.0
  11
-0.50000000000000
  21
-0.50000000000000
  31
0.0
   0
LINE
   5
87
 100
AcDbEntity
   8
0
 100
AcDbLine
   6
BYBLOCK
  62
0
  10
-0.50000000000000
  20
0.0
  30
0.0
  11
-1.0000000000000
  21
0.0
  31
0.0
   0
ENDBLK
   5
88
 100
AcDbEntity
   8
0
 100
AcDbBlockEnd
   0
BLOCK
   5
89
 100
AcDbEntity
   8
0
 100
AcDbBlockBegin
   2
_BOXFILLED
  70
0
  10
0.0
  20
0.0
  30
0.0
   3
_BOXFILLED
   0
SOLID
   5
8A
 100
AcDbEntity
   8
0
 100
AcDbTrace
   6
BYBLOCK
  62
0
  10
-0.50000000000000
  20
 0.50000000000000
  30
0.0
  11
 0.50000000000000
  21
 0.50000000000000
  31
0.0
  12
-0.50000000000000
  22
-0.50000000000000
  32
0.0
  13
 0.50000000000000
  23
-0.50000000000000
  33
0.0
   0
LINE
   5
8B
 100
AcDbEntity
   8
0
 100
AcDbLine
   6
BYBLOCK
  62
0
  10
-0.50000000000000
  20
0.0
  30
0.0
  11
-1.0000000000000
  21
0.0
  31
0.0
   0
ENDBLK
   5
8C
 100
AcDbEntity
   8
0
 100
AcDbBlockEnd
   0
BLOCK
   5
8D
 100
AcDbEntity
   8
0
 100
AcDbBlockBegin
   2
_CLOSED
  70
0
  10
0.0
  20
0.0
  30
0.0
   3
_CLOSED
   0
LINE
   5
8E
 100
AcDbEntity
   8
0
 100
AcDbLine
   6
BYBLOCK
  62
0
  10
-1.0000000000000
  20
 0.16666666666667
  30
0.0
  11
0.0
  21
0.0
  31
0.0
   0
LINE
   5
8F
 100
AcDbEntity
   8
0
 100
AcDbLine
   6
BYBLOCK
  62
0
  10
0.0
  20
0.0
  30
0.0
  11
-1.0000000000000
  21
-0.16666666666667
  31
0.0
   0
LINE
   5
90
 100
AcDbEntity
   8
0
 100
AcDbLine
   6
BYBLOCK
  62
0
  10
-1.0000000000000
  20
 0.16666666666667
  30
0.0
  11
-1.0000000000000
  21
-0.16666666666667
  31
0.0
   0
LINE
   5
91
 100
AcDbEntity
   8
0
 100
AcDbLine
   6
BYBLOCK
  62
0
  10
0.0
  20
0.0
  30
0.0
  11
-1.0000000000000
  21
0.0
  31
0.0
   0
ENDBLK
   5
92
 100
AcDbEntity
   8
0
 100
AcDbBlockEnd
   0
BLOCK
   5
93
 100
AcDbEntity
   8
0
 100
AcDbBlockBegin
   2
_OPEN
  70
0
  10
0.0
  20
0.0
  30
0.0
   3
_OPEN
   0
LINE
   5
94
 100
AcDbEntity
   8
0
 100
AcDbLine
   6
BYBLOCK
  62
0
  10
-1.0000000000000
  20
 0.16666666666667
  30
0.0
  11
0.0
  21
0.0
  31
0.0
   0
LINE
   5
95
 100
AcDbEntity
   8
0
 100
AcDbLine
   6
BYBLOCK
  62
0
  10
0.0
  20
0.0
  30
0.0
  11
-1.0000000000000
  21
-0.16666666666667
  31
0.0
   0
LINE
   5
96
 100
AcDbEntity
   8
0
 100
AcDbLine
   6
BYBLOCK
  62
0
  10
0.0
  20
0.0
  30
0.0
  11
-1.0000000000000
  21
0.0
  31
0.0
   0
ENDBLK
   5
97
 100
AcDbEntity
   8
0
 100
AcDbBlockEnd
   0
BLOCK
   5
98
 100
AcDbEntity
   8
0
 100
AcDbBlockBegin
   2
_OPEN30
  70
0
  10
0.0
  20
0.0
  30
0.0
   3
_OPEN30
   0
LINE
   5
99
 100
AcDbEntity
   8
0
 100
AcDbLine
   6
BYBLOCK
  62
0
  10
-1.0000000000000
  20
 0.26794919243110
  30
0.0
  11
0.0
  21
0.0
  31
0.0
   0
LINE
   5
9A
 100
AcDbEntity
   8
0
 100
AcDbLine
   6
BYBLOCK
  62
0
  10
0.0
  20
0.0
  30
0.0
  11
-1.0000000000000
  21
-0.26794919243110
  31
0.0
   0
LINE
   5
9B
 100
AcDbEntity
   8
0
 100
AcDbLine
   6
BYBLOCK
  62
0
  10
0.0
  20
0.0
  30
0.0
  11
-1.0000000000000
  21
0.0
  31
0.0
   0
ENDBLK
   5
9C
 100
AcDbEntity
   8
0
 100
AcDbBlockEnd
   0
BLOCK
   5
9D
 100
AcDbEntity
   8
0
 100
AcDbBlockBegin
   2
_OPEN90
  70
0
  10
0.0
  20
0.0
  30
0.0
   3
_OPEN90
   0
LINE
   5
9E
 100
AcDbEntity
   8
0
 100
AcDbLine
   6
BYBLOCK
  62
0
  10
-0.50000000000000
  20
 0.50000000000000
  30
0.0
  11
0.0
  21
0.0
  31
0.0
   0
LINE
   5
9F
 100
AcDbEntity
   8
0
 100
AcDbLine
   6
BYBLOCK
  62
0
  10
0.0
  20
0.0
  30
0.0
  11
-0.50000000000000
  21
-0.50000000000000
  31
0.0
   0
LINE
   5
A0
 100
AcDbEntity
   8
0
 100
AcDbLine
   6
BYBLOCK
  62
0
  10
0.0
  20
0.0
  30
0.0
  11
-1.0000000000000
  21
0.0
  31
0.0
   0
ENDBLK
   5
A1
 100
AcDbEntity
   8
0
 100
AcDbBlockEnd
   0
BLOCK
   5
A2
 100
AcDbEntity
   8
0
 100
AcDbBlockBegin
   2
_CLOSEDBLANK
  70
0
  10
0.0
  20
0.0
  30
0.0
   3
_CLOSEDBLANK
   0
LINE
   5
A3
 100
AcDbEntity
   8
0
 100
AcDbLine
   6
BYBLOCK
  62
0
  10
-1.0000000000000
  20
 0.16666666666667
  30
0.0
  11
0.0
  21
0.0
  31
0.0
   0
LINE
   5
A4
 100
AcDbEntity
   8
0
 100
AcDbLine
   6
BYBLOCK
  62
0
  10
0.0
  20
0.0
  30
0.0
  11
-1.0000000000000
  21
-0.16666666666667
  31
0.0
   0
LINE
   5
A5
 100
AcDbEntity
   8
0
 100
AcDbLine
   6
BYBLOCK
  62
0
  10
-1.0000000000000
  20
 0.16666666666667
  30
0.0
  11
-1.0000000000000
  21
-0.16666666666667
  31
0.0
   0
ENDBLK
   5
A6
 100
AcDbEntity
   8
0
 100
AcDbBlockEnd
   0
BLOCK
   5
A7
 100
AcDbEntity
   8
0
 100
AcDbBlockBegin
   2
_DOT
  70
0
  10
0.0
  20
0.0
  30
0.0
   3
_DOT
   0
POLYLINE
   5
A8
 100
AcDbEntity
   8
0
   6
BYBLOCK
  62
0
 100
AcDb2dPolyline
  66
1
  10
0.0
  20
0.0
  30
0.0
  70
1
  40
 0.50000000000000
  41
 0.50000000000000
   0
VERTEX
   5
A9
 100
AcDbEntity
   8
0
   6
BYBLOCK
  62
0
 100
AcDbVertex
 100
AcDb2dVertex
  10
-0.25000000000000
  20
0.0
  30
0.0
  42
 1.0000000000000
  40
 0.50000000000000
  41
 0.50000000000000
   0
VERTEX
   5
AA
 100
AcDbEntity
   8
0
   6
BYBLOCK
  62
0
 100
AcDbVertex
 100
AcDb2dVertex
  10
 0.25000000000000
  20
0.0
  30
0.0
  42
 1.0000000000000
  40
 0.50000000000000
  41
 0.50000000000000
   0
SEQEND
   5
AB
 100
AcDbEntity
   8
0
   6
BYBLOCK
  62
0
   0
LINE
   5
AC
 100
AcDbEntity
   8
0
 100
AcDbLine
   6
BYBLOCK
  62
0
  10
-0.50000000000000
  20
0.0
  30
0.0
  11
-1.0000000000000
  21
0.0
  31
0.0
   0
ENDBLK
   5
AD
 100
AcDbEntity
   8
0
 100
AcDbBlockEnd
   0
BLOCK
   5
AE
 100
AcDbEntity
   8
0
 100
AcDbBlockBegin
   2
_DOTSMALL
  70
0
  10
0.0
  20
0.0
  30
0.0
   3
_DOTSMALL
   0
POLYLINE
   5
AF
 100
AcDbEntity
   8
0
   6
BYBLOCK
  62
0
 100
AcDb2dPolyline
  66
1
  10
0.0
  20
0.0
  30
0.0
  70
1
  40
 0.50000000000000
  41
 0.50000000000000
   0
VERTEX
   5
B0
 100
AcDbEntity
   8
0
   6
BYBLOCK
  62
0
 100
AcDbVertex
 100
AcDb2dVertex
  10
-0.62500000000000E-1
  20
0.0
  30
0.0
  42
 1.0000000000000
  40
 0.50000000000000
  41
 0.50000000000000
   0
VERTEX
   5
B1
 100
AcDbEntity
   8
0
   6
BYBLOCK
  62
0
 100
AcDbVertex
 100
AcDb2dVertex
  10
 0.62500000000000E-1
  20
0.0
  30
0.0
  42
 1.0000000000000
  40
 0.50000000000000
  41
 0.50000000000000
   0
SEQEND
   5
B2
 100
AcDbEntity
   8
0
   6
BYBLOCK
  62
0
   0
ENDBLK
   5
B3
 100
AcDbEntity
   8
0
 100
AcDbBlockEnd
   0
BLOCK
   5
B4
 100
AcDbEntity
   8
0
 100
AcDbBlockBegin
   2
_DATUMBLANK
  70
0
  10
0.0
  20
0.0
  30
0.0
   3
_DATUMBLANK
   0
LINE
   5
B5
 100
AcDbEntity
   8
0
 100
AcDbLine
   6
BYBLOCK
  62
0
  10
0.0
  20
 0.57735027000000
  30
0.0
  11
-1.0000000000000
  21
0.0
  31
0.0
   0
LINE
   5
B6
 100
AcDbEntity
   8
0
 100
AcDbLine
   6
BYBLOCK
  62
0
  10
-1.0000000000000
  20
0.0
  30
0.0
  11
0.0
  21
-0.57735027000000
  31
0.0
   0
LINE
   5
B7
 100
AcDbEntity
   8
0
 100
AcDbLine
   6
BYBLOCK
  62
0
  10
0.0
  20
-0.57735027000000
  30
0.0
  11
0.0
  21
 0.57735027000000
  31
0.0
   0
ENDBLK
   5
B8
 100
AcDbEntity
   8
0
 100
AcDbBlockEnd
   0
BLOCK
   5
B9
 100
AcDbEntity
   8
0
 100
AcDbBlockBegin
   2
_DATUMFILLED
  70
0
  10
0.0
  20
0.0
  30
0.0
   3
_DATUMFILLED
   0
SOLID
   5
BA
 100
AcDbEntity
   8
0
 100
AcDbTrace
   6
BYBLOCK
  62
0
  10
0.0
  20
 0.57735027000000
  30
0.0
  11
-1.0000000000000
  21
0.0
  31
0.0
  12
0.0
  22
-0.57735027000000
  32
0.0
  13
0.0
  23
-0.57735027000000
  33
0.0
   0
ENDBLK
   5
BB
 100
AcDbEntity
   8
0
 100
AcDbBlockEnd
   0
BLOCK
   5
BC
 100
AcDbEntity
   8
0
 100
AcDbBlockBegin
   2
_ORIGIN
  70
0
  10
0.0
  20
0.0
  30
0.0
   3
_ORIGIN
   0
CIRCLE
   5
BD
 100
AcDbEntity
   8
0
 100
AcDbCircle
   6
BYBLOCK
  62
0
  10
0.0
  20
0.0
  30
0.0
  40
 0.50000000000000
   0
LINE
   5
BE
 100
AcDbEntity
   8
0
 100
AcDbLine
   6
BYBLOCK
  62
0
  10
0.0
  20
0.0
  30
0.0
  11
-1.0000000000000
  21
0.0
  31
0.0
   0
ENDBLK
   5
BF
 100
AcDbEntity
   8
0
 100
AcDbBlockEnd
   0
BLOCK
   5
C0
 100
AcDbEntity
   8
0
 100
AcDbBlockBegin
   2
_NONE
  70
0
  10
0.0
  20
0.0
  30
0.0
   3
_NONE
   0
CIRCLE
   5
C1
 100
AcDbEntity
   8
0
 100
AcDbCircle
   6
BYBLOCK
  62
0
  10
0.0
  20
0.0
  30
0.0
  40
 0.25000000000000
   0
ENDBLK
   5
C2
 100
AcDbEntity
   8
0
 100
AcDbBlockEnd
   0
BLOCK
   5
C3
 100
AcDbEntity
   8
0
 100
AcDbBlockBegin
   2
_DOTBLANK
  70
0
  10
0.0
  20
0.0
  30
0.0
   3
_DOTBLANK
   0
CIRCLE
   5
C4
 100
AcDbEntity
   8
0
 100
AcDbCircle
   6
BYBLOCK
  62
0
  10
0.0
  20
0.0
  30
0.0
  40
 0.50000000000000
   0
LINE
   5
C5
 100
AcDbEntity
   8
0
 100
AcDbLine
   6
BYBLOCK
  62
0
  10
-0.50000000000000
  20
0.0
  30
0.0
  11
-1.0000000000000
  21
0.0
  31
0.0
   0
ENDBLK
   5
C6
 100
AcDbEntity
   8
0
 100
AcDbBlockEnd
   0
BLOCK
   5
C7
 100
AcDbEntity
   8
0
 100
AcDbBlockBegin
   2
_INTEGRAL
  70
0
  10
0.0
  20
0.0
  30
0.0
   3
_INTEGRAL
   0
ARC
   5
C8
 100
AcDbEntity
   8
0
   6
BYBLOCK
  62
0
 100
AcDbCircle
  10
 0.44488800000000
  20
-0.91335000000000E-1
  30
0.0
  40
 0.45416700000000
 100
AcDbArc
  50
 102.00000000000
  51
 168.00000000000
   0
ARC
   5
C9
 100
AcDbEntity
   8
0
   6
BYBLOCK
  62
0
 100
AcDbCircle
  10
-0.44488800000000
  20
 0.91335000000000E-1
  30
0.0
  40
 0.45416700000000
 100
AcDbArc
  50
 282.00000000000
  51
 348.00000000000
   0
ENDBLK
   5
CA
 100
AcDbEntity
   8
0
 100
AcDbBlockEnd
   0
BLOCK
   5
CB
 100
AcDbEntity
   8
0
 100
AcDbBlockBegin
   2
*D1
  70
65
  10
0.0
  20
0.0
  30
0.0
   3
*D1
   0
LINE
   5
CC
 100
AcDbEntity
   8
LEVEL001
 100
AcDbLine
   6
CONTINUOUS
  62
2
  10
 287.27360531707
  20
 181.24111628350
  30
0.0
  11
 287.27360531707
  21
 163.23828711243
  31
0.0
   0
LINE
   5
CD
 100
AcDbEntity
   8
LEVEL001
 100
AcDbLine
   6
CONTINUOUS
  62
2
  10
 302.27360531707
  20
 181.24111628350
  30
0.0
  11
 302.27360531707
  21
 163.23828711243
  31
0.0
   0
LINE
   5
CE
 100
AcDbEntity
   8
LEVEL001
 100
AcDbLine
   6
CONTINUOUS
  62
2
  10
 287.27360531707
  20
 164.73828711243
  30
0.0
  11
 294.77360531707
  21
 164.73828711243
  31
0.0
   0
LINE
   5
CF
 100
AcDbEntity
   8
LEVEL001
 100
AcDbLine
   6
CONTINUOUS
  62
2
  10
 302.27360531707
  20
 164.73828711243
  30
0.0
  11
 294.77360531707
  21
 164.73828711243
  31
0.0
   0
INSERT
   5
D0
 100
AcDbEntity
   8
LEVEL001
   6
CONTINUOUS
  62
2
 100
AcDbBlockReference
   2
_OPEN30
  10
 287.27360531707
  20
 164.73828711243
  30
0.0
  41
 3.0000000000000
  42
 3.0000000000000
  43
 3.0000000000000
  50
 180.00000000000
   0
INSERT
   5
D1
 100
AcDbEntity
   8
LEVEL001
   6
CONTINUOUS
  62
2
 100
AcDbBlockReference
   2
_OPEN30
  10
 302.27360531707
  20
 164.73828711243
  30
0.0
  41
 3.0000000000000
  42
 3.0000000000000
  43
 3.0000000000000
  50
0.0
   0
MTEXT
   5
D2
 100
AcDbEntity
   8
LEVEL001
  62
2
 100
AcDbMText
  10
 294.77360531707
  20
 166.45257282672
  30
0.0
  40
 4.0000000000000
  41
0.0
  71
8
  72
1
   1
\A1;15
   7
GMM001
   0
ENDBLK
   5
D3
 100
AcDbEntity
   8
0
 100
AcDbBlockEnd
   0
BLOCK
   5
D4
 100
AcDbEntity
   8
0
 100
AcDbBlockBegin
   2
*D2
  70
65
  10
0.0
  20
0.0
  30
0.0
   3
*D2
   0
LINE
   5
D5
 100
AcDbEntity
   8
LEVEL001
 100
AcDbLine
   6
CONTINUOUS
  62
2
  10
 296.25816775560
  20
 176.27474460208
  30
0.0
  11
 318.63217127869
  21
 176.27474460208
  31
0.0
   0
LINE
   5
D6
 100
AcDbEntity
   8
LEVEL001
 100
AcDbLine
   6
CONTINUOUS
  62
2
  10
 296.25816775560
  20
 206.27474460208
  30
0.0
  11
 318.63217127869
  21
 206.27474460208
  31
0.0
   0
LINE
   5
D7
 100
AcDbEntity
   8
LEVEL001
 100
AcDbLine
   6
CONTINUOUS
  62
2
  10
 317.13217127869
  20
 176.27474460208
  30
0.0
  11
 317.13217127869
  21
 191.27474460208
  31
0.0
   0
LINE
   5
D8
 100
AcDbEntity
   8
LEVEL001
 100
AcDbLine
   6
CONTINUOUS
  62
2
  10
 317.13217127869
  20
 206.27474460208
  30
0.0
  11
 317.13217127869
  21
 191.27474460208
  31
0.0
   0
INSERT
   5
D9
 100
AcDbEntity
   8
LEVEL001
   6
CONTINUOUS
  62
2
 100
AcDbBlockReference
   2
_OPEN30
  10
 317.13217127869
  20
 176.27474460208
  30
0.0
  41
 3.0000000000000
  42
 3.0000000000000
  43
 3.0000000000000
  50
 270.00000000000
   0
INSERT
   5
DA
 100
AcDbEntity
   8
LEVEL001
   6
CONTINUOUS
  62
2
 100
AcDbBlockReference
   2
_OPEN30
  10
 317.13217127869
  20
 206.27474460208
  30
0.0
  41
 3.0000000000000
  42
 3.0000000000000
  43
 3.0000000000000
  50
 90.000000000000
   0
MTEXT
   5
DB
 100
AcDbEntity
   8
LEVEL001
  62
2
 100
AcDbMText
  10
 315.41788556441
  20
 191.27474460208
  30
0.0
  40
 4.0000000000000
  41
0.0
  71
8
  72
1
   1
\A1;30
   7
GMM001
  11
0.0
  21
 1.0000000000000
  31
0.0
   0
ENDBLK
   5
DC
 100
AcDbEntity
   8
0
 100
AcDbBlockEnd
   0
BLOCK
   5
DD
 100
AcDbEntity
   8
0
 100
AcDbBlockBegin
   2
HATCH001
  70
64
  10
0.0
  20
0.0
  30
0.0
   3
HATCH001
   0
LINE
   5
DE
 100
AcDbEntity
   8
LEVEL001
 100
AcDbLine
   6
DIVIDE
  62
3
  10
 23.354031221814
  20
 103.76581287795
  30
0.0
  11
 28.936664531427
  21
 109.34844618756
  31
0.0
   0
LINE
   5
DF
 100
AcDbEntity
   8
LEVEL001
 100
AcDbLine
   6
DIVIDE
  62
3
  10
 23.354031221814
  20
 98.108958637947
  30
0.0
  11
 33.459308129278
  21
 108.21423554541
  31
0.0
   0
LINE
   5
E0
 100
AcDbEntity
   8
LEVEL001
 100
AcDbLine
   6
DIVIDE
  62
3
  10
 23.354031221814
  20
 92.452104397947
  30
0.0
  11
 33.459308129278
  21
 102.55738130541
  31
0.0
   0
LINE
   5
E1
 100
AcDbEntity
   8
LEVEL001
 100
AcDbLine
   6
DIVIDE
  62
3
  10
 23.354031221814
  20
 86.795250157947
  30
0.0
  11
 33.459308129278
  21
 96.900527065412
  31
0.0
   0
LINE
   5
E2
 100
AcDbEntity
   8
LEVEL001
 100
AcDbLine
   6
DIVIDE
  62
3
  10
 23.354031221814
  20
 81.138395917947
  30
0.0
  11
 33.459308129278
  21
 91.243672825412
  31
0.0
   0
LINE
   5
E3
 100
AcDbEntity
   8
LEVEL001
 100
AcDbLine
   6
DIVIDE
  62
3
  10
 23.354031221814
  20
 75.481541677947
  30
0.0
  11
 33.459308129278
  21
 85.586818585412
  31
0.0
   0
LINE
   5
E4
 100
AcDbEntity
   8
LEVEL001
 100
AcDbLine
   6
DIVIDE
  62
3
  10
 23.354031221814
  20
 69.824687437947
  30
0.0
  11
 33.459308129278
  21
 79.929964345412
  31
0.0
   0
LINE
   5
E5
 100
AcDbEntity
   8
LEVEL001
 100
AcDbLine
   6
DIVIDE
  62
3
  10
 23.354031221814
  20
 64.167833197947
  30
0.0
  11
 33.459308129278
  21
 74.273110105412
  31
0.0
   0
LINE
   5
E6
 100
AcDbEntity
   8
LEVEL001
 100
AcDbLine
   6
DIVIDE
  62
3
  10
 23.354031221814
  20
 58.510978957947
  30
0.0
  11
 33.459308129278
  21
 68.616255865412
  31
0.0
   0
LINE
   5
E7
 100
AcDbEntity
   8
LEVEL001
 100
AcDbLine
   6
DIVIDE
  62
3
  10
 23.354031221814
  20
 52.854124717947
  30
0.0
  11
 33.459308129278
  21
 62.959401625412
  31
0.0
   0
LINE
   5
E8
 100
AcDbEntity
   8
LEVEL001
 100
AcDbLine
   6
DIVIDE
  62
3
  10
 23.354031221814
  20
 47.197270477947
  30
0.0
  11
 33.459308129278
  21
 57.302547385412
  31
0.0
   0
LINE
   5
E9
 100
AcDbEntity
   8
LEVEL001
 100
AcDbLine
   6
DIVIDE
  62
3
  10
 23.354031221814
  20
 41.540416237947
  30
0.0
  11
 33.459308129278
  21
 51.645693145412
  31
0.0
   0
LINE
   5
EA
 100
AcDbEntity
   8
LEVEL001
 100
AcDbLine
   6
DIVIDE
  62
3
  10
 27.781747269828
  20
 40.311278045962
  30
0.0
  11
 33.459308129278
  21
 45.988838905412
  31
0.0
   0
LINE
   5
EB
 100
AcDbEntity
   8
LEVEL001
 100
AcDbLine
   6
DIVIDE
  62
3
  10
 33.438601509828
  20
 40.311278045962
  30
0.0
  11
 33.459308129278
  21
 40.331984665412
  31
0.0
   0
ENDBLK
   5
EC
 100
AcDbEntity
   8
0
 100
AcDbBlockEnd
   0
BLOCK
   5
ED
 100
AcDbEntity
   8
0
 100
AcDbBlockBegin
   2
*D3
  70
65
  10
0.0
  20
0.0
  30
0.0
   3
*D3
   0
LINE
   5
EE
 100
AcDbEntity
   8
LEVEL001
 100
AcDbLine
   6
CONTINUOUS
  62
2
  10
 166.60913087941
  20
 98.962024937583
  30
0.0
  11
 168.10913087941
  21
 98.962024937583
  31
0.0
   0
LINE
   5
EF
 100
AcDbEntity
   8
LEVEL001
 100
AcDbLine
   6
CONTINUOUS
  62
2
  10
 166.60913087941
  20
 93.962024937583
  30
0.0
  11
 165.10913087941
  21
 93.962024937583
  31
0.0
   0
LINE
   5
F0
 100
AcDbEntity
   8
LEVEL001
 100
AcDbLine
   6
CONTINUOUS
  62
2
  10
 166.60913087941
  20
 116.17050761381
  30
0.0
  11
 166.60913087941
  21
 96.462024937583
  31
0.0
   0
LINE
   5
F1
 100
AcDbEntity
   8
LEVEL001
 100
AcDbLine
   6
CONTINUOUS
  62
2
  10
 166.60913087941
  20
 90.212024937583
  30
0.0
  11
 166.60913087941
  21
 96.462024937583
  31
0.0
   0
INSERT
   5
F2
 100
AcDbEntity
   8
LEVEL001
   6
CONTINUOUS
  62
2
 100
AcDbBlockReference
   2
_OPEN30
  10
 166.60913087941
  20
 98.962024937583
  30
0.0
  41
 3.0000000000000
  42
 3.0000000000000
  43
 3.0000000000000
  50
 270.00000000000
   0
INSERT
   5
F3
 100
AcDbEntity
   8
LEVEL001
   6
CONTINUOUS
  62
2
 100
AcDbBlockReference
   2
_OPEN30
  10
 166.60913087941
  20
 93.962024937583
  30
0.0
  41
 3.0000000000000
  42
 3.0000000000000
  43
 3.0000000000000
  50
 90.000000000000
   0
MTEXT
   5
F4
 100
AcDbEntity
   8
LEVEL001
  62
2
 100
AcDbMText
  10
 164.89484516512
  20
 108.17050761381
  30
0.0
  40
 4.0000000000000
  41
0.0
  71
8
  72
1
   1
\A1;9～12
   7
GMM001
  11
0.0
  21
 1.0000000000000
  31
0.0
   0
ENDBLK
   5
F5
 100
AcDbEntity
   8
0
 100
AcDbBlockEnd
   0
BLOCK
   5
F6
 100
AcDbEntity
   8
0
 100
AcDbBlockBegin
   2
*D4
  70
65
  10
0.0
  20
0.0
  30
0.0
   3
*D4
   0
POLYLINE
   5
F7
 100
AcDbEntity
   8
LEVEL001
   6
CONTINUOUS
  62
2
 100
AcDb2dPolyline
  66
1
  10
0.0
  20
0.0
  30
0.0
  70
0
   0
VERTEX
   5
F8
 100
AcDbEntity
   8
LEVEL001
   6
CONTINUOUS
  62
2
 100
AcDbVertex
 100
AcDb2dVertex
  10
 57.709308129278
  20
 99.712024937583
  30
0.0
   0
VERTEX
   5
F9
 100
AcDbEntity
   8
LEVEL001
   6
CONTINUOUS
  62
2
 100
AcDbVertex
 100
AcDb2dVertex
  10
 64.061519598523
  20
 108.43746584387
  30
0.0
   0
VERTEX
   5
FA
 100
AcDbEntity
   8
LEVEL001
   6
CONTINUOUS
  62
2
 100
AcDbVertex
 100
AcDb2dVertex
  10
 84.061519598523
  20
 108.43746584387
  30
0.0
   0
SEQEND
   5
FB
 100
AcDbEntity
   8
LEVEL001
   6
CONTINUOUS
  62
2
   0
INSERT
   5
FC
 100
AcDbEntity
   8
LEVEL001
   6
CONTINUOUS
  62
2
 100
AcDbBlockReference
   2
_OPEN30
  10
 57.709308129278
  20
 99.712024937583
  30
0.0
  41
 3.0000000000000
  42
 3.0000000000000
  43
 3.0000000000000
  50
 233.94499346480
   0
MTEXT
   5
FD
 100
AcDbEntity
   8
LEVEL001
  62
2
 100
AcDbMText
  10
 64.061519598523
  20
 110.15175155815
  30
0.0
  40
 4.0000000000000
  41
0.0
  71
7
  72
1
   1
\A1;ワッシャー
   7
GMM001
   0
ENDBLK
   5
FE
 100
AcDbEntity
   8
0
 100
AcDbBlockEnd
   0
BLOCK
   5
FF
 100
AcDbEntity
   8
0
 100
AcDbBlockBegin
   2
*D5
  70
65
  10
0.0
  20
0.0
  30
0.0
   3
*D5
   0
POLYLINE
   5
100
 100
AcDbEntity
   8
LEVEL001
   6
CONTINUOUS
  62
2
 100
AcDb2dPolyline
  66
1
  10
0.0
  20
0.0
  30
0.0
  70
0
   0
VERTEX
   5
101
 100
AcDbEntity
   8
LEVEL001
   6
CONTINUOUS
  62
2
 100
AcDbVertex
 100
AcDb2dVertex
  10
 125.22109433094
  20
 68.797526221526
  30
0.0
   0
VERTEX
   5
102
 100
AcDbEntity
   8
LEVEL001
   6
CONTINUOUS
  62
2
 100
AcDbVertex
 100
AcDb2dVertex
  10
 129.91988161380
  20
 74.866793128551
  30
0.0
   0
VERTEX
   5
103
 100
AcDbEntity
   8
LEVEL001
   6
CONTINUOUS
  62
2
 100
AcDbVertex
 100
AcDb2dVertex
  10
 157.91988161380
  20
 74.866793128551
  30
0.0
   0
SEQEND
   5
104
 100
AcDbEntity
   8
LEVEL001
   6
CONTINUOUS
  62
2
   0
INSERT
   5
105
 100
AcDbEntity
   8
LEVEL001
   6
CONTINUOUS
  62
2
 100
AcDbBlockReference
   2
_OPEN30
  10
 125.22109433094
  20
 68.797526221526
  30
0.0
  41
 3.0000000000000
  42
 3.0000000000000
  43
 3.0000000000000
  50
 232.25319461273
   0
MTEXT
   5
106
 100
AcDbEntity
   8
LEVEL001
  62
2
 100
AcDbMText
  10
 129.91988161380
  20
 76.581078842837
  30
0.0
  40
 4.0000000000000
  41
0.0
  71
7
  72
1
   1
\A1;中間ブラケット
   7
GMM001
   0
ENDBLK
   5
107
 100
AcDbEntity
   8
0
 100
AcDbBlockEnd
   0
BLOCK
   5
108
 100
AcDbEntity
   8
0
 100
AcDbBlockBegin
   2
*D6
  70
65
  10
0.0
  20
0.0
  30
0.0
   3
*D6
   0
POLYLINE
   5
109
 100
AcDbEntity
   8
LEVEL001
   6
CONTINUOUS
  62
2
 100
AcDb2dPolyline
  66
1
  10
0.0
  20
0.0
  30
0.0
  70
0
   0
VERTEX
   5
10A
 100
AcDbEntity
   8
LEVEL001
   6
CONTINUOUS
  62
2
 100
AcDbVertex
 100
AcDb2dVertex
  10
 54.509308129278
  20
 97.110916168660
  30
0.0
   0
VERTEX
   5
10B
 100
AcDbEntity
   8
LEVEL001
   6
CONTINUOUS
  62
2
 100
AcDbVertex
 100
AcDb2dVertex
  10
 64.938221654961
  20
 85.696937447798
  30
0.0
   0
VERTEX
   5
10C
 100
AcDbEntity
   8
LEVEL001
   6
CONTINUOUS
  62
2
 100
AcDbVertex
 100
AcDb2dVertex
  10
 92.938221654961
  20
 85.696937447798
  30
0.0
   0
SEQEND
   5
10D
 100
AcDbEntity
   8
LEVEL001
   6
CONTINUOUS
  62
2
   0
INSERT
   5
10E
 100
AcDbEntity
   8
LEVEL001
   6
CONTINUOUS
  62
2
 100
AcDbBlockReference
   2
_OPEN30
  10
 54.509308129278
  20
 97.110916168660
  30
0.0
  41
 3.0000000000000
  42
 3.0000000000000
  43
 3.0000000000000
  50
 132.41783910846
   0
MTEXT
   5
10F
 100
AcDbEntity
   8
LEVEL001
  62
2
 100
AcDbMText
  10
 64.938221654961
  20
 87.411223162084
  30
0.0
  40
 4.0000000000000
  41
0.0
  71
7
  72
1
   1
\A1;下穴（Ｍ４用）
   7
GMM001
   0
ENDBLK
   5
110
 100
AcDbEntity
   8
0
 100
AcDbBlockEnd
   0
BLOCK
   5
111
 100
AcDbEntity
   8
0
 100
AcDbBlockBegin
   2
*D7
  70
65
  10
0.0
  20
0.0
  30
0.0
   3
*D7
   0
POLYLINE
   5
112
 100
AcDbEntity
   8
LEVEL001
   6
CONTINUOUS
  62
2
 100
AcDb2dPolyline
  66
1
  10
0.0
  20
0.0
  30
0.0
  70
0
   0
VERTEX
   5
113
 100
AcDbEntity
   8
LEVEL001
   6
CONTINUOUS
  62
2
 100
AcDbVertex
 100
AcDb2dVertex
  10
 56.030104097875
  20
 68.663833547437
  30
0.0
   0
VERTEX
   5
114
 100
AcDbEntity
   8
LEVEL001
   6
CONTINUOUS
  62
2
 100
AcDbVertex
 100
AcDb2dVertex
  10
 62.784610816984
  20
 75.026774659641
  30
0.0
   0
VERTEX
   5
115
 100
AcDbEntity
   8
LEVEL001
   6
CONTINUOUS
  62
2
 100
AcDbVertex
 100
AcDb2dVertex
  10
 94.784610816984
  20
 75.026774659641
  30
0.0
   0
SEQEND
   5
116
 100
AcDbEntity
   8
LEVEL001
   6
CONTINUOUS
  62
2
   0
INSERT
   5
117
 100
AcDbEntity
   8
LEVEL001
   6
CONTINUOUS
  62
2
 100
AcDbBlockReference
   2
_OPEN30
  10
 56.030104097875
  20
 68.663833547437
  30
0.0
  41
 3.0000000000000
  42
 3.0000000000000
  43
 3.0000000000000
  50
 223.29018595586
   0
MTEXT
   5
118
 100
AcDbEntity
   8
LEVEL001
  62
2
 100
AcDbMText
  10
 62.784610816984
  20
 76.741060373927
  30
0.0
  40
 4.0000000000000
  41
0.0
  71
7
  72
1
   1
\A1;エンドブラケット
   7
GMM001
   0
ENDBLK
   5
119
 100
AcDbEntity
   8
0
 100
AcDbBlockEnd
   0
BLOCK
   5
11A
 100
AcDbEntity
   8
0
 100
AcDbBlockBegin
   2
*D8
  70
65
  10
0.0
  20
0.0
  30
0.0
   3
*D8
   0
POLYLINE
   5
11B
 100
AcDbEntity
   8
LEVEL001
   6
CONTINUOUS
  62
2
 100
AcDb2dPolyline
  66
1
  10
0.0
  20
0.0
  30
0.0
  70
0
   0
VERTEX
   5
11C
 100
AcDbEntity
   8
LEVEL001
   6
CONTINUOUS
  62
2
 100
AcDbVertex
 100
AcDb2dVertex
  10
 53.049847875854
  20
 105.03282085945
  30
0.0
   0
VERTEX
   5
11D
 100
AcDbEntity
   8
LEVEL001
   6
CONTINUOUS
  62
2
 100
AcDbVertex
 100
AcDb2dVertex
  10
 46.066927886051
  20
 112.92939393203
  30
0.0
   0
VERTEX
   5
11E
 100
AcDbEntity
   8
LEVEL001
   6
CONTINUOUS
  62
2
 100
AcDbVertex
 100
AcDb2dVertex
  10
 30.066927886051
  20
 112.92939393203
  30
0.0
   0
SEQEND
   5
11F
 100
AcDbEntity
   8
LEVEL001
   6
CONTINUOUS
  62
2
   0
INSERT
   5
120
 100
AcDbEntity
   8
LEVEL001
   6
CONTINUOUS
  62
2
 100
AcDbBlockReference
   2
_OPEN30
  10
 53.049847875854
  20
 105.03282085945
  30
0.0
  41
 3.0000000000000
  42
 3.0000000000000
  43
 3.0000000000000
  50
 311.48624973940
   0
MTEXT
   5
121
 100
AcDbEntity
   8
LEVEL001
  62
2
 100
AcDbMText
  10
 30.066927886051
  20
 114.64367964632
  30
0.0
  40
 4.0000000000000
  41
0.0
  71
7
  72
1
   1
\A1;固定ねじ
   7
GMM001
   0
ENDBLK
   5
122
 100
AcDbEntity
   8
0
 100
AcDbBlockEnd
   0
BLOCK
   5
123
 100
AcDbEntity
   8
0
 100
AcDbBlockBegin
   2
*D9
  70
65
  10
0.0
  20
0.0
  30
0.0
   3
*D9
   0
LINE
   5
124
 100
AcDbEntity
   8
LEVEL001
 100
AcDbLine
   6
CONTINUOUS
  62
2
  10
 53.459308129278
  20
 113.66548130323
  30
0.0
  11
 53.459308129278
  21
 120.47359859934
  31
0.0
   0
LINE
   5
125
 100
AcDbEntity
   8
LEVEL001
 100
AcDbLine
   6
CONTINUOUS
  62
2
  10
 192.75791321502
  20
 113.66548130323
  30
0.0
  11
 192.75791321502
  21
 120.47359859934
  31
0.0
   0
LINE
   5
126
 100
AcDbEntity
   8
LEVEL001
 100
AcDbLine
   6
CONTINUOUS
  62
2
  10
 53.459308129278
  20
 118.97359859934
  30
0.0
  11
 123.10861067215
  21
 118.97359859934
  31
0.0
   0
LINE
   5
127
 100
AcDbEntity
   8
LEVEL001
 100
AcDbLine
   6
CONTINUOUS
  62
2
  10
 192.75791321502
  20
 118.97359859934
  30
0.0
  11
 123.10861067215
  21
 118.97359859934
  31
0.0
   0
INSERT
   5
128
 100
AcDbEntity
   8
LEVEL001
   6
CONTINUOUS
  62
2
 100
AcDbBlockReference
   2
_OPEN30
  10
 53.459308129278
  20
 118.97359859934
  30
0.0
  41
 3.0000000000000
  42
 3.0000000000000
  43
 3.0000000000000
  50
 180.00000000000
   0
INSERT
   5
129
 100
AcDbEntity
   8
LEVEL001
   6
CONTINUOUS
  62
2
 100
AcDbBlockReference
   2
_OPEN30
  10
 192.75791321502
  20
 118.97359859934
  30
0.0
  41
 3.0000000000000
  42
 3.0000000000000
  43
 3.0000000000000
  50
0.0
   0
MTEXT
   5
12A
 100
AcDbEntity
   8
LEVEL001
  62
2
 100
AcDbMText
  10
 123.10861067215
  20
 120.68788431363
  30
0.0
  40
 4.0000000000000
  41
0.0
  71
8
  72
1
   1
\A1;パイプ長 -10.5
   7
GMM001
   0
ENDBLK
   5
12B
 100
AcDbEntity
   8
0
 100
AcDbBlockEnd
   0
BLOCK
   5
12C
 100
AcDbEntity
   8
0
 100
AcDbBlockBegin
   2
HATCH002
  70
64
  10
0.0
  20
0.0
  30
0.0
   3
HATCH002
   0
LINE
   5
12D
 100
AcDbEntity
   8
LEVEL001
 100
AcDbLine
   6
DIVIDE
  62
3
  10
 217.43042621413
  20
 40.311278045962
  30
0.0
  11
 222.86319012249
  21
 45.744041954320
  31
0.0
   0
LINE
   5
12E
 100
AcDbEntity
   8
LEVEL001
 100
AcDbLine
   6
DIVIDE
  62
3
  10
 212.75791321502
  20
 41.295619286855
  30
0.0
  11
 222.86319012249
  21
 51.400896194320
  31
0.0
   0
LINE
   5
12F
 100
AcDbEntity
   8
LEVEL001
 100
AcDbLine
   6
DIVIDE
  62
3
  10
 212.75791321502
  20
 46.952473526855
  30
0.0
  11
 222.86319012249
  21
 57.057750434320
  31
0.0
   0
LINE
   5
130
 100
AcDbEntity
   8
LEVEL001
 100
AcDbLine
   6
DIVIDE
  62
3
  10
 212.75791321502
  20
 52.609327766855
  30
0.0
  11
 222.86319012249
  21
 62.714604674320
  31
0.0
   0
LINE
   5
131
 100
AcDbEntity
   8
LEVEL001
 100
AcDbLine
   6
DIVIDE
  62
3
  10
 212.75791321502
  20
 58.266182006855
  30
0.0
  11
 222.86319012249
  21
 68.371458914320
  31
0.0
   0
LINE
   5
132
 100
AcDbEntity
   8
LEVEL001
 100
AcDbLine
   6
DIVIDE
  62
3
  10
 212.75791321502
  20
 63.923036246855
  30
0.0
  11
 222.86319012249
  21
 74.028313154320
  31
0.0
   0
LINE
   5
133
 100
AcDbEntity
   8
LEVEL001
 100
AcDbLine
   6
DIVIDE
  62
3
  10
 212.75791321502
  20
 69.579890486855
  30
0.0
  11
 222.86319012249
  21
 79.685167394320
  31
0.0
   0
LINE
   5
134
 100
AcDbEntity
   8
LEVEL001
 100
AcDbLine
   6
DIVIDE
  62
3
  10
 212.75791321502
  20
 75.236744726855
  30
0.0
  11
 222.86319012249
  21
 85.342021634320
  31
0.0
   0
LINE
   5
135
 100
AcDbEntity
   8
LEVEL001
 100
AcDbLine
   6
DIVIDE
  62
3
  10
 212.75791321502
  20
 80.893598966855
  30
0.0
  11
 222.86319012249
  21
 90.998875874320
  31
0.0
   0
LINE
   5
136
 100
AcDbEntity
   8
LEVEL001
 100
AcDbLine
   6
DIVIDE
  62
3
  10
 212.75791321502
  20
 86.550453206855
  30
0.0
  11
 222.86319012249
  21
 96.655730114320
  31
0.0
   0
LINE
   5
137
 100
AcDbEntity
   8
LEVEL001
 100
AcDbLine
   6
DIVIDE
  62
3
  10
 212.75791321502
  20
 92.207307446855
  30
0.0
  11
 222.86319012249
  21
 102.31258435432
  31
0.0
   0
LINE
   5
138
 100
AcDbEntity
   8
LEVEL001
 100
AcDbLine
   6
DIVIDE
  62
3
  10
 212.75791321502
  20
 97.864161686855
  30
0.0
  11
 222.86319012249
  21
 107.96943859432
  31
0.0
   0
LINE
   5
139
 100
AcDbEntity
   8
LEVEL001
 100
AcDbLine
   6
DIVIDE
  62
3
  10
 212.75791321502
  20
 103.52101592685
  30
0.0
  11
 218.58534347573
  21
 109.34844618756
  31
0.0
   0
LINE
   5
13A
 100
AcDbEntity
   8
LEVEL001
 100
AcDbLine
   6
DIVIDE
  62
3
  10
 212.75791321502
  20
 109.17787016685
  30
0.0
  11
 212.92848923573
  21
 109.34844618756
  31
0.0
   0
ENDBLK
   5
13B
 100
AcDbEntity
   8
0
 100
AcDbBlockEnd
   0
BLOCK
   5
13C
 100
AcDbEntity
   8
0
 100
AcDbBlockBegin
   2
HATCH003
  70
64
  10
0.0
  20
0.0
  30
0.0
   3
HATCH003
   0
LINE
   5
13D
 100
AcDbEntity
   8
LEVEL001
 100
AcDbLine
   6
DIVIDE
  62
3
  10
 294.56364695760
  20
 109.10327933373
  30
0.0
  11
 294.80881381143
  21
 109.34844618756
  31
0.0
   0
LINE
   5
13E
 100
AcDbEntity
   8
LEVEL001
 100
AcDbLine
   6
DIVIDE
  62
3
  10
 294.56364695760
  20
 103.44642509373
  30
0.0
  11
 300.46566805143
  21
 109.34844618756
  31
0.0
   0
LINE
   5
13F
 100
AcDbEntity
   8
LEVEL001
 100
AcDbLine
   6
DIVIDE
  62
3
  10
 294.56364695760
  20
 97.789570853729
  30
0.0
  11
 302.52318042668
  21
 105.74910432281
  31
0.0
   0
LINE
   5
140
 100
AcDbEntity
   8
LEVEL001
 100
AcDbLine
   6
DIVIDE
  62
3
  10
 294.56364695760
  20
 92.132716613729
  30
0.0
  11
 302.52318042668
  21
 100.09225008281
  31
0.0
   0
LINE
   5
141
 100
AcDbEntity
   8
LEVEL001
 100
AcDbLine
   6
DIVIDE
  62
3
  10
 294.56364695760
  20
 86.475862373729
  30
0.0
  11
 302.52318042668
  21
 94.435395842808
  31
0.0
   0
LINE
   5
142
 100
AcDbEntity
   8
LEVEL001
 100
AcDbLine
   6
DIVIDE
  62
3
  10
 294.56364695760
  20
 80.819008133729
  30
0.0
  11
 302.52318042668
  21
 88.778541602808
  31
0.0
   0
LINE
   5
143
 100
AcDbEntity
   8
LEVEL001
 100
AcDbLine
   6
DIVIDE
  62
3
  10
 294.56364695760
  20
 75.162153893729
  30
0.0
  11
 302.52318042668
  21
 83.121687362809
  31
0.0
   0
LINE
   5
144
 100
AcDbEntity
   8
LEVEL001
 100
AcDbLine
   6
DIVIDE
  62
3
  10
 294.56364695760
  20
 69.505299653729
  30
0.0
  11
 302.52318042668
  21
 77.464833122809
  31
0.0
   0
LINE
   5
145
 100
AcDbEntity
   8
LEVEL001
 100
AcDbLine
   6
DIVIDE
  62
3
  10
 294.56364695760
  20
 63.848445413729
  30
0.0
  11
 302.52318042668
  21
 71.807978882808
  31
0.0
   0
LINE
   5
146
 100
AcDbEntity
   8
LEVEL001
 100
AcDbLine
   6
DIVIDE
  62
3
  10
 294.56364695760
  20
 58.191591173729
  30
0.0
  11
 302.52318042668
  21
 66.151124642808
  31
0.0
   0
LINE
   5
147
 100
AcDbEntity
   8
LEVEL001
 100
AcDbLine
   6
DIVIDE
  62
3
  10
 297.52590121209
  20
 55.496991188219
  30
0.0
  11
 302.52318042668
  21
 60.494270402809
  31
0.0
   0
ENDBLK
   5
148
 100
AcDbEntity
   8
0
 100
AcDbBlockEnd
   0
BLOCK
   5
149
 100
AcDbEntity
   8
0
 100
AcDbBlockBegin
   2
*D10
  70
65
  10
0.0
  20
0.0
  30
0.0
   3
*D10
   0
LINE
   5
14A
 100
AcDbEntity
   8
LEVEL001
 100
AcDbLine
   6
CONTINUOUS
  62
2
  10
 50.834308129278
  20
 51.212024937583
  30
0.0
  11
 50.834308129278
  21
 37.289627568091
  31
0.0
   0
LINE
   5
14B
 100
AcDbEntity
   8
LEVEL001
 100
AcDbLine
   6
CONTINUOUS
  62
2
  10
 195.38291321502
  20
 51.212024937583
  30
0.0
  11
 195.38291321502
  21
 37.289627568091
  31
0.0
   0
LINE
   5
14C
 100
AcDbEntity
   8
LEVEL001
 100
AcDbLine
   6
CONTINUOUS
  62
2
  10
 50.834308129278
  20
 38.789627568091
  30
0.0
  11
 123.10861067215
  21
 38.789627568091
  31
0.0
   0
LINE
   5
14D
 100
AcDbEntity
   8
LEVEL001
 100
AcDbLine
   6
CONTINUOUS
  62
2
  10
 195.38291321502
  20
 38.789627568091
  30
0.0
  11
 123.10861067215
  21
 38.789627568091
  31
0.0
   0
INSERT
   5
14E
 100
AcDbEntity
   8
LEVEL001
   6
CONTINUOUS
  62
2
 100
AcDbBlockReference
   2
_OPEN30
  10
 50.834308129278
  20
 38.789627568091
  30
0.0
  41
 3.0000000000000
  42
 3.0000000000000
  43
 3.0000000000000
  50
 180.00000000000
   0
INSERT
   5
14F
 100
AcDbEntity
   8
LEVEL001
   6
CONTINUOUS
  62
2
 100
AcDbBlockReference
   2
_OPEN30
  10
 195.38291321502
  20
 38.789627568091
  30
0.0
  41
 3.0000000000000
  42
 3.0000000000000
  43
 3.0000000000000
  50
0.0
   0
MTEXT
   5
150
 100
AcDbEntity
   8
LEVEL001
  62
2
 100
AcDbMText
  10
 123.10861067215
  20
 40.503913282377
  30
0.0
  40
 4.0000000000000
  41
0.0
  71
8
  72
1
   1
\A1;パイプ長
   7
GMM001
   0
ENDBLK
   5
151
 100
AcDbEntity
   8
0
 100
AcDbBlockEnd
   0
BLOCK
   5
152
 100
AcDbEntity
   8
0
 100
AcDbBlockBegin
   2
*D11
  70
65
  10
0.0
  20
0.0
  30
0.0
   3
*D11
   0
LINE
   5
153
 100
AcDbEntity
   8
LEVEL001
 100
AcDbLine
   6
CONTINUOUS
  62
2
  10
 196.13291321502
  20
 50.462024937583
  30
0.0
  11
 196.13291321502
  21
 28.411751461897
  31
0.0
   0
LINE
   5
154
 100
AcDbEntity
   8
LEVEL001
 100
AcDbLine
   6
CONTINUOUS
  62
2
  10
 50.084308129278
  20
 50.462024937583
  30
0.0
  11
 50.084308129278
  21
 28.411751461897
  31
0.0
   0
LINE
   5
155
 100
AcDbEntity
   8
LEVEL001
 100
AcDbLine
   6
CONTINUOUS
  62
2
  10
 196.13291321502
  20
 29.911751461897
  30
0.0
  11
 123.10861067215
  21
 29.911751461897
  31
0.0
   0
LINE
   5
156
 100
AcDbEntity
   8
LEVEL001
 100
AcDbLine
   6
CONTINUOUS
  62
2
  10
 50.084308129278
  20
 29.911751461897
  30
0.0
  11
 123.10861067215
  21
 29.911751461897
  31
0.0
   0
INSERT
   5
157
 100
AcDbEntity
   8
LEVEL001
   6
CONTINUOUS
  62
2
 100
AcDbBlockReference
   2
_OPEN30
  10
 196.13291321502
  20
 29.911751461897
  30
0.0
  41
 3.0000000000000
  42
 3.0000000000000
  43
 3.0000000000000
  50
0.0
   0
INSERT
   5
158
 100
AcDbEntity
   8
LEVEL001
   6
CONTINUOUS
  62
2
 100
AcDbBlockReference
   2
_OPEN30
  10
 50.084308129278
  20
 29.911751461897
  30
0.0
  41
 3.0000000000000
  42
 3.0000000000000
  43
 3.0000000000000
  50
 180.00000000000
   0
MTEXT
   5
159
 100
AcDbEntity
   8
LEVEL001
  62
2
 100
AcDbMText
  10
 123.10861067215
  20
 31.626037176182
  30
0.0
  40
 4.0000000000000
  41
0.0
  71
8
  72
1
   1
\A1;パイプ長 +3
   7
GMM001
   0
ENDBLK
   5
15A
 100
AcDbEntity
   8
0
 100
AcDbBlockEnd
   0
BLOCK
   5
15B
 100
AcDbEntity
   8
0
 100
AcDbBlockBegin
   2
*D12
  70
65
  10
0.0
  20
0.0
  30
0.0
   3
*D12
   0
LINE
   5
15C
 100
AcDbEntity
   8
LEVEL001
 100
AcDbLine
   6
CONTINUOUS
  62
2
  10
 76.957776543270
  20
 266.32854016560
  30
0.0
  11
 91.907623633922
  21
 266.32854016560
  31
0.0
   0
LINE
   5
15D
 100
AcDbEntity
   8
LEVEL001
 100
AcDbLine
   6
CONTINUOUS
  62
2
  10
 76.957776543270
  20
 252.82854016560
  30
0.0
  11
 91.907623633922
  21
 252.82854016560
  31
0.0
   0
LINE
   5
15E
 100
AcDbEntity
   8
LEVEL001
 100
AcDbLine
   6
CONTINUOUS
  62
2
  10
 90.407623633922
  20
 266.32854016560
  30
0.0
  11
 90.407623633922
  21
 259.57854016560
  31
0.0
   0
LINE
   5
15F
 100
AcDbEntity
   8
LEVEL001
 100
AcDbLine
   6
CONTINUOUS
  62
2
  10
 90.407623633922
  20
 252.82854016560
  30
0.0
  11
 90.407623633922
  21
 259.57854016560
  31
0.0
   0
INSERT
   5
160
 100
AcDbEntity
   8
LEVEL001
   6
CONTINUOUS
  62
2
 100
AcDbBlockReference
   2
_OPEN30
  10
 90.407623633922
  20
 266.32854016560
  30
0.0
  41
 3.0000000000000
  42
 3.0000000000000
  43
 3.0000000000000
  50
 90.000000000000
   0
INSERT
   5
161
 100
AcDbEntity
   8
LEVEL001
   6
CONTINUOUS
  62
2
 100
AcDbBlockReference
   2
_OPEN30
  10
 90.407623633922
  20
 252.82854016560
  30
0.0
  41
 3.0000000000000
  42
 3.0000000000000
  43
 3.0000000000000
  50
 270.00000000000
   0
MTEXT
   5
162
 100
AcDbEntity
   8
LEVEL001
  62
2
 100
AcDbMText
  10
 88.693337919636
  20
 259.57854016560
  30
0.0
  40
 4.0000000000000
  41
0.0
  71
8
  72
1
   1
\A1;13.5
   7
GMM001
  11
0.0
  21
 1.0000000000000
  31
0.0
   0
ENDBLK
   5
163
 100
AcDbEntity
   8
0
 100
AcDbBlockEnd
   0
BLOCK
   5
164
 100
AcDbEntity
   8
0
 100
AcDbBlockBegin
   2
*D13
  70
65
  10
0.0
  20
0.0
  30
0.0
   3
*D13
   0
LINE
   5
165
 100
AcDbEntity
   8
LEVEL001
 100
AcDbLine
   6
CONTINUOUS
  62
2
  10
 48.957776543270
  20
 261.32854016560
  30
0.0
  11
 47.103189786559
  21
 263.00499713249
  31
0.0
   0
LINE
   5
166
 100
AcDbEntity
   8
LEVEL001
 100
AcDbLine
   6
CONTINUOUS
  62
2
  10
 47.103189786559
  20
 263.00499713249
  30
0.0
  11
 36.521569135942
  21
 272.57027176659
  31
0.0
   0
INSERT
   5
167
 100
AcDbEntity
   8
LEVEL001
   6
CONTINUOUS
  62
2
 100
AcDbBlockReference
   2
_OPEN30
  10
 45.248603029848
  20
 264.68145409938
  30
0.0
  41
 3.0000000000000
  42
 3.0000000000000
  43
 3.0000000000000
  50
 317.88793949044
   0
MTEXT
   5
168
 100
AcDbEntity
   8
LEVEL001
  62
2
 100
AcDbMText
  10
 43.605817248999
  20
 268.47732610572
  30
0.0
  40
 4.0000000000000
  41
0.0
  71
9
  72
1
   1
\A1;R5
   7
GMM001
  11
 0.74183470268444
  21
-0.67058278675573
  31
0.0
   0
ENDBLK
   5
169
 100
AcDbEntity
   8
0
 100
AcDbBlockEnd
   0
BLOCK
   5
16A
 100
AcDbEntity
   8
0
 100
AcDbBlockBegin
   2
*D14
  70
65
  10
0.0
  20
0.0
  30
0.0
   3
*D14
   0
LINE
   5
16B
 100
AcDbEntity
   8
LEVEL001
 100
AcDbLine
   6
CONTINUOUS
  62
2
  10
 168.43740782819
  20
 260.57854016560
  30
0.0
  11
 166.88409987478
  21
 261.83839507862
  31
0.0
   0
LINE
   5
16C
 100
AcDbEntity
   8
LEVEL001
 100
AcDbLine
   6
CONTINUOUS
  62
2
  10
 166.88409987478
  20
 261.83839507862
  30
0.0
  11
 156.28508641212
  21
 270.43502857598
  31
0.0
   0
INSERT
   5
16D
 100
AcDbEntity
   8
LEVEL001
   6
CONTINUOUS
  62
2
 100
AcDbBlockReference
   2
_OPEN30
  10
 165.33079192136
  20
 263.09824999164
  30
0.0
  41
 3.0000000000000
  42
 3.0000000000000
  43
 3.0000000000000
  50
 320.95522938823
   0
MTEXT
   5
16E
 100
AcDbEntity
   8
LEVEL001
  62
2
 100
AcDbMText
  10
 163.57819386552
  20
 266.72701574113
  30
0.0
  40
 4.0000000000000
  41
0.0
  71
9
  72
1
   1
\A1;R4
   7
GMM001
  11
 0.77665397670826
  21
-0.62992745650849
  31
0.0
   0
ENDBLK
   5
16F
 100
AcDbEntity
   8
0
 100
AcDbBlockEnd
   0
BLOCK
   5
170
 100
AcDbEntity
   8
0
 100
AcDbBlockBegin
   2
*D15
  70
65
  10
0.0
  20
0.0
  30
0.0
   3
*D15
   0
LINE
   5
171
 100
AcDbEntity
   8
LEVEL001
 100
AcDbLine
   6
CONTINUOUS
  62
2
  10
 197.43740782819
  20
 264.57854016560
  30
0.0
  11
 211.19123857977
  21
 264.57854016560
  31
0.0
   0
LINE
   5
172
 100
AcDbEntity
   8
LEVEL001
 100
AcDbLine
   6
CONTINUOUS
  62
2
  10
 197.43740782819
  20
 254.57854016560
  30
0.0
  11
 211.19123857977
  21
 254.57854016560
  31
0.0
   0
LINE
   5
173
 100
AcDbEntity
   8
LEVEL001
 100
AcDbLine
   6
CONTINUOUS
  62
2
  10
 209.69123857977
  20
 264.57854016560
  30
0.0
  11
 209.69123857977
  21
 259.57854016560
  31
0.0
   0
LINE
   5
174
 100
AcDbEntity
   8
LEVEL001
 100
AcDbLine
   6
CONTINUOUS
  62
2
  10
 209.69123857977
  20
 254.57854016560
  30
0.0
  11
 209.69123857977
  21
 259.57854016560
  31
0.0
   0
INSERT
   5
175
 100
AcDbEntity
   8
LEVEL001
   6
CONTINUOUS
  62
2
 100
AcDbBlockReference
   2
_OPEN30
  10
 209.69123857977
  20
 264.57854016560
  30
0.0
  41
 3.0000000000000
  42
 3.0000000000000
  43
 3.0000000000000
  50
 90.000000000000
   0
INSERT
   5
176
 100
AcDbEntity
   8
LEVEL001
   6
CONTINUOUS
  62
2
 100
AcDbBlockReference
   2
_OPEN30
  10
 209.69123857977
  20
 254.57854016560
  30
0.0
  41
 3.0000000000000
  42
 3.0000000000000
  43
 3.0000000000000
  50
 270.00000000000
   0
MTEXT
   5
177
 100
AcDbEntity
   8
LEVEL001
  62
2
 100
AcDbMText
  10
 207.97695286549
  20
 259.57854016560
  30
0.0
  40
 4.0000000000000
  41
0.0
  71
8
  72
1
   1
\A1;10
   7
GMM001
  11
0.0
  21
 1.0000000000000
  31
0.0
   0
ENDBLK
   5
178
 100
AcDbEntity
   8
0
 100
AcDbBlockEnd
   0
BLOCK
   5
179
 100
AcDbEntity
   8
0
 100
AcDbBlockBegin
   2
*D16
  70
65
  10
0.0
  20
0.0
  30
0.0
   3
*D16
   0
POLYLINE
   5
17A
 100
AcDbEntity
   8
LEVEL001
   6
CONTINUOUS
  62
2
 100
AcDb2dPolyline
  66
1
  10
0.0
  20
0.0
  30
0.0
  70
0
   0
VERTEX
   5
17B
 100
AcDbEntity
   8
LEVEL001
   6
CONTINUOUS
  62
2
 100
AcDbVertex
 100
AcDb2dVertex
  10
 59.957776543270
  20
 259.57854016560
  30
0.0
   0
VERTEX
   5
17C
 100
AcDbEntity
   8
LEVEL001
   6
CONTINUOUS
  62
2
 100
AcDbVertex
 100
AcDb2dVertex
  10
 67.163082655577
  20
 271.91223493891
  30
0.0
   0
VERTEX
   5
17D
 100
AcDbEntity
   8
LEVEL001
   6
CONTINUOUS
  62
2
 100
AcDbVertex
 100
AcDb2dVertex
  10
 111.16308265558
  20
 271.91223493891
  30
0.0
   0
SEQEND
   5
17E
 100
AcDbEntity
   8
LEVEL001
   6
CONTINUOUS
  62
2
   0
INSERT
   5
17F
 100
AcDbEntity
   8
LEVEL001
   6
CONTINUOUS
  62
2
 100
AcDbBlockReference
   2
_OPEN30
  10
 59.957776543270
  20
 259.57854016560
  30
0.0
  41
 3.0000000000000
  42
 3.0000000000000
  43
 3.0000000000000
  50
 239.70666042667
   0
MTEXT
   5
180
 100
AcDbEntity
   8
LEVEL001
  62
2
 100
AcDbMText
  10
 67.163082655577
  20
 273.62652065319
  30
0.0
  40
 4.0000000000000
  41
0.0
  71
7
  72
1
   1
\A1;Ｍ４タップ（有効１２）
   7
GMM001
   0
ENDBLK
   5
181
 100
AcDbEntity
   8
0
 100
AcDbBlockEnd
   0
BLOCK
   5
182
 100
AcDbEntity
   8
0
 100
AcDbBlockBegin
   2
*D17
  70
65
  10
0.0
  20
0.0
  30
0.0
   3
*D17
   0
POLYLINE
   5
183
 100
AcDbEntity
   8
LEVEL001
   6
CONTINUOUS
  62
2
 100
AcDb2dPolyline
  66
1
  10
0.0
  20
0.0
  30
0.0
  70
0
   0
VERTEX
   5
184
 100
AcDbEntity
   8
LEVEL001
   6
CONTINUOUS
  62
2
 100
AcDbVertex
 100
AcDb2dVertex
  10
 180.43740782819
  20
 259.57854016560
  30
0.0
   0
VERTEX
   5
185
 100
AcDbEntity
   8
LEVEL001
   6
CONTINUOUS
  62
2
 100
AcDbVertex
 100
AcDb2dVertex
  10
 187.24803840780
  20
 270.97772166457
  30
0.0
   0
VERTEX
   5
186
 100
AcDbEntity
   8
LEVEL001
   6
CONTINUOUS
  62
2
 100
AcDbVertex
 100
AcDb2dVertex
  10
 231.24803840780
  20
 270.97772166457
  30
0.0
   0
SEQEND
   5
187
 100
AcDbEntity
   8
LEVEL001
   6
CONTINUOUS
  62
2
   0
INSERT
   5
188
 100
AcDbEntity
   8
LEVEL001
   6
CONTINUOUS
  62
2
 100
AcDbBlockReference
   2
_OPEN30
  10
 180.43740782819
  20
 259.57854016560
  30
0.0
  41
 3.0000000000000
  42
 3.0000000000000
  43
 3.0000000000000
  50
 239.14309165042
   0
MTEXT
   5
189
 100
AcDbEntity
   8
LEVEL001
  62
2
 100
AcDbMText
  10
 187.24803840780
  20
 272.69200737886
  30
0.0
  40
 4.0000000000000
  41
0.0
  71
7
  72
1
   1
\A1;Ｍ４タップ（有効１２）
   7
GMM001
   0
ENDBLK
   5
18A
 100
AcDbEntity
   8
0
 100
AcDbBlockEnd
   0
BLOCK
   5
18B
 100
AcDbEntity
   8
0
 100
AcDbBlockBegin
   2
*D18
  70
65
  10
0.0
  20
0.0
  30
0.0
   3
*D18
   0
LINE
   5
18C
 100
AcDbEntity
   8
LEVEL001
 100
AcDbLine
   6
CONTINUOUS
  62
2
  10
 43.957776543270
  20
 251.82854016560
  30
0.0
  11
 43.957776543270
  21
 241.01574766080
  31
0.0
   0
LINE
   5
18D
 100
AcDbEntity
   8
LEVEL001
 100
AcDbLine
   6
CONTINUOUS
  62
2
  10
 75.957776543270
  20
 251.82854016560
  30
0.0
  11
 75.957776543270
  21
 241.01574766080
  31
0.0
   0
LINE
   5
18E
 100
AcDbEntity
   8
LEVEL001
 100
AcDbLine
   6
CONTINUOUS
  62
2
  10
 43.957776543270
  20
 242.51574766080
  30
0.0
  11
 59.957776543270
  21
 242.51574766080
  31
0.0
   0
LINE
   5
18F
 100
AcDbEntity
   8
LEVEL001
 100
AcDbLine
   6
CONTINUOUS
  62
2
  10
 75.957776543270
  20
 242.51574766080
  30
0.0
  11
 59.957776543270
  21
 242.51574766080
  31
0.0
   0
INSERT
   5
190
 100
AcDbEntity
   8
LEVEL001
   6
CONTINUOUS
  62
2
 100
AcDbBlockReference
   2
_OPEN30
  10
 43.957776543270
  20
 242.51574766080
  30
0.0
  41
 3.0000000000000
  42
 3.0000000000000
  43
 3.0000000000000
  50
 180.00000000000
   0
INSERT
   5
191
 100
AcDbEntity
   8
LEVEL001
   6
CONTINUOUS
  62
2
 100
AcDbBlockReference
   2
_OPEN30
  10
 75.957776543270
  20
 242.51574766080
  30
0.0
  41
 3.0000000000000
  42
 3.0000000000000
  43
 3.0000000000000
  50
0.0
   0
MTEXT
   5
192
 100
AcDbEntity
   8
LEVEL001
  62
2
 100
AcDbMText
  10
 59.957776543270
  20
 244.23003337508
  30
0.0
  40
 4.0000000000000
  41
0.0
  71
8
  72
1
   1
\A1;32
   7
GMM001
   0
ENDBLK
   5
193
 100
AcDbEntity
   8
0
 100
AcDbBlockEnd
   0
BLOCK
   5
194
 100
AcDbEntity
   8
0
 100
AcDbBlockBegin
   2
*D19
  70
65
  10
0.0
  20
0.0
  30
0.0
   3
*D19
   0
LINE
   5
195
 100
AcDbEntity
   8
LEVEL001
 100
AcDbLine
   6
CONTINUOUS
  62
2
  10
 164.43740782819
  20
 253.57854016560
  30
0.0
  11
 164.43740782819
  21
 241.01574766080
  31
0.0
   0
LINE
   5
196
 100
AcDbEntity
   8
LEVEL001
 100
AcDbLine
   6
CONTINUOUS
  62
2
  10
 196.43740782819
  20
 253.57854016560
  30
0.0
  11
 196.43740782819
  21
 241.01574766080
  31
0.0
   0
LINE
   5
197
 100
AcDbEntity
   8
LEVEL001
 100
AcDbLine
   6
CONTINUOUS
  62
2
  10
 164.43740782819
  20
 242.51574766080
  30
0.0
  11
 180.43740782819
  21
 242.51574766080
  31
0.0
   0
LINE
   5
198
 100
AcDbEntity
   8
LEVEL001
 100
AcDbLine
   6
CONTINUOUS
  62
2
  10
 196.43740782819
  20
 242.51574766080
  30
0.0
  11
 180.43740782819
  21
 242.51574766080
  31
0.0
   0
INSERT
   5
199
 100
AcDbEntity
   8
LEVEL001
   6
CONTINUOUS
  62
2
 100
AcDbBlockReference
   2
_OPEN30
  10
 164.43740782819
  20
 242.51574766080
  30
0.0
  41
 3.0000000000000
  42
 3.0000000000000
  43
 3.0000000000000
  50
 180.00000000000
   0
INSERT
   5
19A
 100
AcDbEntity
   8
LEVEL001
   6
CONTINUOUS
  62
2
 100
AcDbBlockReference
   2
_OPEN30
  10
 196.43740782819
  20
 242.51574766080
  30
0.0
  41
 3.0000000000000
  42
 3.0000000000000
  43
 3.0000000000000
  50
0.0
   0
MTEXT
   5
19B
 100
AcDbEntity
   8
LEVEL001
  62
2
 100
AcDbMText
  10
 180.43740782819
  20
 244.23003337508
  30
0.0
  40
 4.0000000000000
  41
0.0
  71
8
  72
1
   1
\A1;32
   7
GMM001
   0
ENDBLK
   5
19C
 100
AcDbEntity
   8
0
 100
AcDbBlockEnd
   0
BLOCK
   5
19D
 100
AcDbEntity
   8
0
 100
AcDbBlockBegin
   2
*D20
  70
65
  10
0.0
  20
0.0
  30
0.0
   3
*D20
   0
LINE
   5
19E
 100
AcDbEntity
   8
LEVEL001
 100
AcDbLine
   6
CONTINUOUS
  62
2
  10
 50.757776543270
  20
 151.28578432422
  30
0.0
  11
 50.757776543270
  21
 133.02409124712
  31
0.0
   0
LINE
   5
19F
 100
AcDbEntity
   8
LEVEL001
 100
AcDbLine
   6
CONTINUOUS
  62
2
  10
 69.157776543270
  20
 151.28578432422
  30
0.0
  11
 69.157776543270
  21
 133.02409124712
  31
0.0
   0
LINE
   5
1A0
 100
AcDbEntity
   8
LEVEL001
 100
AcDbLine
   6
CONTINUOUS
  62
2
  10
 50.757776543270
  20
 134.52409124712
  30
0.0
  11
 59.957776543270
  21
 134.52409124712
  31
0.0
   0
LINE
   5
1A1
 100
AcDbEntity
   8
LEVEL001
 100
AcDbLine
   6
CONTINUOUS
  62
2
  10
 69.157776543270
  20
 134.52409124712
  30
0.0
  11
 59.957776543270
  21
 134.52409124712
  31
0.0
   0
INSERT
   5
1A2
 100
AcDbEntity
   8
LEVEL001
   6
CONTINUOUS
  62
2
 100
AcDbBlockReference
   2
_OPEN30
  10
 50.757776543270
  20
 134.52409124712
  30
0.0
  41
 3.0000000000000
  42
 3.0000000000000
  43
 3.0000000000000
  50
 180.00000000000
   0
INSERT
   5
1A3
 100
AcDbEntity
   8
LEVEL001
   6
CONTINUOUS
  62
2
 100
AcDbBlockReference
   2
_OPEN30
  10
 69.157776543270
  20
 134.52409124712
  30
0.0
  41
 3.0000000000000
  42
 3.0000000000000
  43
 3.0000000000000
  50
0.0
   0
MTEXT
   5
1A4
 100
AcDbEntity
   8
LEVEL001
  62
2
 100
AcDbMText
  10
 59.957776543270
  20
 136.23837696141
  30
0.0
  40
 4.0000000000000
  41
0.0
  71
8
  72
1
   1
\A1;18.4
   7
GMM001
   0
ENDBLK
   5
1A5
 100
AcDbEntity
   8
0
 100
AcDbBlockEnd
   0
BLOCK
   5
1A6
 100
AcDbEntity
   8
0
 100
AcDbBlockBegin
   2
*D21
  70
65
  10
0.0
  20
0.0
  30
0.0
   3
*D21
   0
LINE
   5
1A7
 100
AcDbEntity
   8
LEVEL001
 100
AcDbLine
   6
CONTINUOUS
  62
2
  10
 170.73740051574
  20
 151.46543034192
  30
0.0
  11
 170.73740051574
  21
 133.02409124712
  31
0.0
   0
LINE
   5
1A8
 100
AcDbEntity
   8
LEVEL001
 100
AcDbLine
   6
CONTINUOUS
  62
2
  10
 190.13740782819
  20
 151.46543034192
  30
0.0
  11
 190.13740782819
  21
 133.02409124712
  31
0.0
   0
LINE
   5
1A9
 100
AcDbEntity
   8
LEVEL001
 100
AcDbLine
   6
CONTINUOUS
  62
2
  10
 170.73740051574
  20
 134.52409124712
  30
0.0
  11
 180.43740417197
  21
 134.52409124712
  31
0.0
   0
LINE
   5
1AA
 100
AcDbEntity
   8
LEVEL001
 100
AcDbLine
   6
CONTINUOUS
  62
2
  10
 190.13740782819
  20
 134.52409124712
  30
0.0
  11
 180.43740417197
  21
 134.52409124712
  31
0.0
   0
INSERT
   5
1AB
 100
AcDbEntity
   8
LEVEL001
   6
CONTINUOUS
  62
2
 100
AcDbBlockReference
   2
_OPEN30
  10
 170.73740051574
  20
 134.52409124712
  30
0.0
  41
 3.0000000000000
  42
 3.0000000000000
  43
 3.0000000000000
  50
 180.00000000000
   0
INSERT
   5
1AC
 100
AcDbEntity
   8
LEVEL001
   6
CONTINUOUS
  62
2
 100
AcDbBlockReference
   2
_OPEN30
  10
 190.13740782819
  20
 134.52409124712
  30
0.0
  41
 3.0000000000000
  42
 3.0000000000000
  43
 3.0000000000000
  50
0.0
   0
MTEXT
   5
1AD
 100
AcDbEntity
   8
LEVEL001
  62
2
 100
AcDbMText
  10
 180.43740417197
  20
 136.23837696141
  30
0.0
  40
 4.0000000000000
  41
0.0
  71
8
  72
1
   1
\A1;19.4
   7
GMM001
   0
ENDBLK
   5
1AE
 100
AcDbEntity
   8
0
 100
AcDbBlockEnd
   0
BLOCK
   5
1AF
 100
AcDbEntity
   8
0
 100
AcDbBlockBegin
   2
*D22
  70
65
  10
0.0
  20
0.0
  30
0.0
   3
*D22
   0
LINE
   5
1B0
 100
AcDbEntity
   8
LEVEL001
 100
AcDbLine
   6
CONTINUOUS
  62
2
  10
 163.43740782819
  20
 231.82383742156
  30
0.0
  11
 154.93066604564
  21
 231.82383742156
  31
0.0
   0
LINE
   5
1B1
 100
AcDbEntity
   8
LEVEL001
 100
AcDbLine
   6
CONTINUOUS
  62
2
  10
 163.43740782819
  20
 229.32383742156
  30
0.0
  11
 154.93066604564
  21
 229.32383742156
  31
0.0
   0
LINE
   5
1B2
 100
AcDbEntity
   8
LEVEL001
 100
AcDbLine
   6
CONTINUOUS
  62
2
  10
 156.43066604564
  20
 244.45171352776
  30
0.0
  11
 156.43066604564
  21
 230.57383742156
  31
0.0
   0
LINE
   5
1B3
 100
AcDbEntity
   8
LEVEL001
 100
AcDbLine
   6
CONTINUOUS
  62
2
  10
 156.43066604564
  20
 225.57383742156
  30
0.0
  11
 156.43066604564
  21
 230.57383742156
  31
0.0
   0
INSERT
   5
1B4
 100
AcDbEntity
   8
LEVEL001
   6
CONTINUOUS
  62
2
 100
AcDbBlockReference
   2
_OPEN30
  10
 156.43066604564
  20
 231.82383742156
  30
0.0
  41
 3.0000000000000
  42
 3.0000000000000
  43
 3.0000000000000
  50
 270.00000000000
   0
INSERT
   5
1B5
 100
AcDbEntity
   8
LEVEL001
   6
CONTINUOUS
  62
2
 100
AcDbBlockReference
   2
_OPEN30
  10
 156.43066604564
  20
 229.32383742156
  30
0.0
  41
 3.0000000000000
  42
 3.0000000000000
  43
 3.0000000000000
  50
 90.000000000000
   0
MTEXT
   5
1B6
 100
AcDbEntity
   8
LEVEL001
  62
2
 100
AcDbMText
  10
 154.71638033136
  20
 239.45171352776
  30
0.0
  40
 4.0000000000000
  41
0.0
  71
8
  72
1
   1
\A1;2.5
   7
GMM001
  11
0.0
  21
 1.0000000000000
  31
0.0
   0
ENDBLK
   5
1B7
 100
AcDbEntity
   8
0
 100
AcDbBlockEnd
   0
BLOCK
   5
1B8
 100
AcDbEntity
   8
0
 100
AcDbBlockBegin
   2
*D23
  70
65
  10
0.0
  20
0.0
  30
0.0
   3
*D23
   0
LINE
   5
1B9
 100
AcDbEntity
   8
LEVEL001
 100
AcDbLine
   6
CONTINUOUS
  62
2
  10
 87.726811571696
  20
 231.82383742156
  30
0.0
  11
 95.939551431329
  21
 231.82383742156
  31
0.0
   0
LINE
   5
1BA
 100
AcDbEntity
   8
LEVEL001
 100
AcDbLine
   6
CONTINUOUS
  62
2
  10
 75.691408766738
  20
 163.52383742156
  30
0.0
  11
 95.939551431329
  21
 163.52383742156
  31
0.0
   0
LINE
   5
1BB
 100
AcDbEntity
   8
LEVEL001
 100
AcDbLine
   6
CONTINUOUS
  62
2
  10
 94.439551431329
  20
 231.82383742156
  30
0.0
  11
 94.439551431329
  21
 197.67383742156
  31
0.0
   0
LINE
   5
1BC
 100
AcDbEntity
   8
LEVEL001
 100
AcDbLine
   6
CONTINUOUS
  62
2
  10
 94.439551431329
  20
 163.52383742156
  30
0.0
  11
 94.439551431329
  21
 197.67383742156
  31
0.0
   0
INSERT
   5
1BD
 100
AcDbEntity
   8
LEVEL001
   6
CONTINUOUS
  62
2
 100
AcDbBlockReference
   2
_OPEN30
  10
 94.439551431329
  20
 231.82383742156
  30
0.0
  41
 3.0000000000000
  42
 3.0000000000000
  43
 3.0000000000000
  50
 90.000000000000
   0
INSERT
   5
1BE
 100
AcDbEntity
   8
LEVEL001
   6
CONTINUOUS
  62
2
 100
AcDbBlockReference
   2
_OPEN30
  10
 94.439551431329
  20
 163.52383742156
  30
0.0
  41
 3.0000000000000
  42
 3.0000000000000
  43
 3.0000000000000
  50
 270.00000000000
   0
MTEXT
   5
1BF
 100
AcDbEntity
   8
LEVEL001
  62
2
 100
AcDbMText
  10
 92.725265717044
  20
 197.67383742156
  30
0.0
  40
 4.0000000000000
  41
0.0
  71
8
  72
1
   1
\A1;68.3
   7
GMM001
  11
0.0
  21
 1.0000000000000
  31
0.0
   0
ENDBLK
   5
1C0
 100
AcDbEntity
   8
0
 100
AcDbBlockEnd
   0
BLOCK
   5
1C1
 100
AcDbEntity
   8
0
 100
AcDbBlockBegin
   2
*D24
  70
65
  10
0.0
  20
0.0
  30
0.0
   3
*D24
   0
LINE
   5
1C2
 100
AcDbEntity
   8
LEVEL001
 100
AcDbLine
   6
CONTINUOUS
  62
2
  10
 106.85978076279
  20
 145.82383742156
  30
0.0
  11
 106.85978076279
  21
 133.02409124712
  31
0.0
   0
LINE
   5
1C3
 100
AcDbEntity
   8
LEVEL001
 100
AcDbLine
   6
CONTINUOUS
  62
2
  10
 120.35978076279
  20
 145.82383742156
  30
0.0
  11
 120.35978076279
  21
 133.02409124712
  31
0.0
   0
LINE
   5
1C4
 100
AcDbEntity
   8
LEVEL001
 100
AcDbLine
   6
CONTINUOUS
  62
2
  10
 106.85978076279
  20
 134.52409124712
  30
0.0
  11
 113.60978076279
  21
 134.52409124712
  31
0.0
   0
LINE
   5
1C5
 100
AcDbEntity
   8
LEVEL001
 100
AcDbLine
   6
CONTINUOUS
  62
2
  10
 120.35978076279
  20
 134.52409124712
  30
0.0
  11
 113.60978076279
  21
 134.52409124712
  31
0.0
   0
INSERT
   5
1C6
 100
AcDbEntity
   8
LEVEL001
   6
CONTINUOUS
  62
2
 100
AcDbBlockReference
   2
_OPEN30
  10
 106.85978076279
  20
 134.52409124712
  30
0.0
  41
 3.0000000000000
  42
 3.0000000000000
  43
 3.0000000000000
  50
 180.00000000000
   0
INSERT
   5
1C7
 100
AcDbEntity
   8
LEVEL001
   6
CONTINUOUS
  62
2
 100
AcDbBlockReference
   2
_OPEN30
  10
 120.35978076279
  20
 134.52409124712
  30
0.0
  41
 3.0000000000000
  42
 3.0000000000000
  43
 3.0000000000000
  50
0.0
   0
MTEXT
   5
1C8
 100
AcDbEntity
   8
LEVEL001
  62
2
 100
AcDbMText
  10
 113.60978076279
  20
 136.23837696141
  30
0.0
  40
 4.0000000000000
  41
0.0
  71
8
  72
1
   1
\A1;13.5
   7
GMM001
   0
ENDBLK
   5
1C9
 100
AcDbEntity
   8
0
 100
AcDbBlockEnd
   0
BLOCK
   5
1CA
 100
AcDbEntity
   8
0
 100
AcDbBlockBegin
   2
*D25
  70
65
  10
0.0
  20
0.0
  30
0.0
   3
*D25
   0
LINE
   5
1CB
 100
AcDbEntity
   8
LEVEL001
 100
AcDbLine
   6
CONTINUOUS
  62
2
  10
 121.35978076279
  20
 146.82383742156
  30
0.0
  11
 138.27710150120
  21
 146.82383742156
  31
0.0
   0
LINE
   5
1CC
 100
AcDbEntity
   8
LEVEL001
 100
AcDbLine
   6
CONTINUOUS
  62
2
  10
 121.35978076279
  20
 231.82383742156
  30
0.0
  11
 138.27710150120
  21
 231.82383742156
  31
0.0
   0
LINE
   5
1CD
 100
AcDbEntity
   8
LEVEL001
 100
AcDbLine
   6
CONTINUOUS
  62
2
  10
 136.77710150120
  20
 146.82383742156
  30
0.0
  11
 136.77710150120
  21
 189.32383742156
  31
0.0
   0
LINE
   5
1CE
 100
AcDbEntity
   8
LEVEL001
 100
AcDbLine
   6
CONTINUOUS
  62
2
  10
 136.77710150120
  20
 231.82383742156
  30
0.0
  11
 136.77710150120
  21
 189.32383742156
  31
0.0
   0
INSERT
   5
1CF
 100
AcDbEntity
   8
LEVEL001
   6
CONTINUOUS
  62
2
 100
AcDbBlockReference
   2
_OPEN30
  10
 136.77710150120
  20
 146.82383742156
  30
0.0
  41
 3.0000000000000
  42
 3.0000000000000
  43
 3.0000000000000
  50
 270.00000000000
   0
INSERT
   5
1D0
 100
AcDbEntity
   8
LEVEL001
   6
CONTINUOUS
  62
2
 100
AcDbBlockReference
   2
_OPEN30
  10
 136.77710150120
  20
 231.82383742156
  30
0.0
  41
 3.0000000000000
  42
 3.0000000000000
  43
 3.0000000000000
  50
 90.000000000000
   0
MTEXT
   5
1D1
 100
AcDbEntity
   8
LEVEL001
  62
2
 100
AcDbMText
  10
 135.06281578691
  20
 189.32383742156
  30
0.0
  40
 4.0000000000000
  41
0.0
  71
8
  72
1
   1
\A1;85
   7
GMM001
  11
0.0
  21
 1.0000000000000
  31
0.0
   0
ENDBLK
   5
1D2
 100
AcDbEntity
   8
0
 100
AcDbBlockEnd
   0
BLOCK
   5
1D3
 100
AcDbEntity
   8
0
 100
AcDbBlockBegin
   2
*D26
  70
65
  10
0.0
  20
0.0
  30
0.0
   3
*D26
   0
LINE
   5
1D4
 100
AcDbEntity
   8
LEVEL001
 100
AcDbLine
   6
CONTINUOUS
  62
2
  10
 228.13539308268
  20
 145.32383742156
  30
0.0
  11
 228.13539308268
  21
 133.02409124712
  31
0.0
   0
LINE
   5
1D5
 100
AcDbEntity
   8
LEVEL001
 100
AcDbLine
   6
CONTINUOUS
  62
2
  10
 238.13539308268
  20
 145.32383742156
  30
0.0
  11
 238.13539308268
  21
 133.02409124712
  31
0.0
   0
LINE
   5
1D6
 100
AcDbEntity
   8
LEVEL001
 100
AcDbLine
   6
CONTINUOUS
  62
2
  10
 228.13539308268
  20
 134.52409124712
  30
0.0
  11
 233.13539308268
  21
 134.52409124712
  31
0.0
   0
LINE
   5
1D7
 100
AcDbEntity
   8
LEVEL001
 100
AcDbLine
   6
CONTINUOUS
  62
2
  10
 238.13539308268
  20
 134.52409124712
  30
0.0
  11
 233.13539308268
  21
 134.52409124712
  31
0.0
   0
INSERT
   5
1D8
 100
AcDbEntity
   8
LEVEL001
   6
CONTINUOUS
  62
2
 100
AcDbBlockReference
   2
_OPEN30
  10
 228.13539308268
  20
 134.52409124712
  30
0.0
  41
 3.0000000000000
  42
 3.0000000000000
  43
 3.0000000000000
  50
 180.00000000000
   0
INSERT
   5
1D9
 100
AcDbEntity
   8
LEVEL001
   6
CONTINUOUS
  62
2
 100
AcDbBlockReference
   2
_OPEN30
  10
 238.13539308268
  20
 134.52409124712
  30
0.0
  41
 3.0000000000000
  42
 3.0000000000000
  43
 3.0000000000000
  50
0.0
   0
MTEXT
   5
1DA
 100
AcDbEntity
   8
LEVEL001
  62
2
 100
AcDbMText
  10
 233.13539308268
  20
 136.23837696141
  30
0.0
  40
 4.0000000000000
  41
0.0
  71
8
  72
1
   1
\A1;10
   7
GMM001
   0
ENDBLK
   5
1DB
 100
AcDbEntity
   8
0
 100
AcDbBlockEnd
   0
BLOCK
   5
1DC
 100
AcDbEntity
   8
0
 100
AcDbBlockBegin
   2
*D27
  70
65
  10
0.0
  20
0.0
  30
0.0
   3
*D27
   0
LINE
   5
1DD
 100
AcDbEntity
   8
LEVEL001
 100
AcDbLine
   6
CONTINUOUS
  62
2
  10
 239.13539308268
  20
 146.32383742156
  30
0.0
  11
 259.40506108703
  21
 146.32383742156
  31
0.0
   0
LINE
   5
1DE
 100
AcDbEntity
   8
LEVEL001
 100
AcDbLine
   6
CONTINUOUS
  62
2
  10
 239.13539308268
  20
 231.82383742156
  30
0.0
  11
 259.40506108703
  21
 231.82383742156
  31
0.0
   0
LINE
   5
1DF
 100
AcDbEntity
   8
LEVEL001
 100
AcDbLine
   6
CONTINUOUS
  62
2
  10
 257.90506108703
  20
 146.32383742156
  30
0.0
  11
 257.90506108703
  21
 189.07383742156
  31
0.0
   0
LINE
   5
1E0
 100
AcDbEntity
   8
LEVEL001
 100
AcDbLine
   6
CONTINUOUS
  62
2
  10
 257.90506108703
  20
 231.82383742156
  30
0.0
  11
 257.90506108703
  21
 189.07383742156
  31
0.0
   0
INSERT
   5
1E1
 100
AcDbEntity
   8
LEVEL001
   6
CONTINUOUS
  62
2
 100
AcDbBlockReference
   2
_OPEN30
  10
 257.90506108703
  20
 146.32383742156
  30
0.0
  41
 3.0000000000000
  42
 3.0000000000000
  43
 3.0000000000000
  50
 270.00000000000
   0
INSERT
   5
1E2
 100
AcDbEntity
   8
LEVEL001
   6
CONTINUOUS
  62
2
 100
AcDbBlockReference
   2
_OPEN30
  10
 257.90506108703
  20
 231.82383742156
  30
0.0
  41
 3.0000000000000
  42
 3.0000000000000
  43
 3.0000000000000
  50
 90.000000000000
   0
MTEXT
   5
1E3
 100
AcDbEntity
   8
LEVEL001
  62
2
 100
AcDbMText
  10
 256.19077537274
  20
 189.07383742156
  30
0.0
  40
 4.0000000000000
  41
0.0
  71
8
  72
1
   1
\A1;85.5
   7
GMM001
  11
0.0
  21
 1.0000000000000
  31
0.0
   0
ENDBLK
   5
1E4
 100
AcDbEntity
   8
0
 100
AcDbBlockEnd
   0
BLOCK
   5
1E5
 100
AcDbEntity
   8
0
 100
AcDbBlockBegin
   2
*D28
  70
65
  10
0.0
  20
0.0
  30
0.0
   3
*D28
   0
LINE
   5
1E6
 100
AcDbEntity
   8
LEVEL001
 100
AcDbLine
   6
CONTINUOUS
  62
2
  10
 208.20644285662
  20
 231.82383742156
  30
0.0
  11
 216.41918271625
  21
 231.82383742156
  31
0.0
   0
LINE
   5
1E7
 100
AcDbEntity
   8
LEVEL001
 100
AcDbLine
   6
CONTINUOUS
  62
2
  10
 196.17104005166
  20
 163.52383742156
  30
0.0
  11
 216.41918271625
  21
 163.52383742156
  31
0.0
   0
LINE
   5
1E8
 100
AcDbEntity
   8
LEVEL001
 100
AcDbLine
   6
CONTINUOUS
  62
2
  10
 214.91918271625
  20
 231.82383742156
  30
0.0
  11
 214.91918271625
  21
 197.67383742156
  31
0.0
   0
LINE
   5
1E9
 100
AcDbEntity
   8
LEVEL001
 100
AcDbLine
   6
CONTINUOUS
  62
2
  10
 214.91918271625
  20
 163.52383742156
  30
0.0
  11
 214.91918271625
  21
 197.67383742156
  31
0.0
   0
INSERT
   5
1EA
 100
AcDbEntity
   8
LEVEL001
   6
CONTINUOUS
  62
2
 100
AcDbBlockReference
   2
_OPEN30
  10
 214.91918271625
  20
 231.82383742156
  30
0.0
  41
 3.0000000000000
  42
 3.0000000000000
  43
 3.0000000000000
  50
 90.000000000000
   0
INSERT
   5
1EB
 100
AcDbEntity
   8
LEVEL001
   6
CONTINUOUS
  62
2
 100
AcDbBlockReference
   2
_OPEN30
  10
 214.91918271625
  20
 163.52383742156
  30
0.0
  41
 3.0000000000000
  42
 3.0000000000000
  43
 3.0000000000000
  50
 270.00000000000
   0
MTEXT
   5
1EC
 100
AcDbEntity
   8
LEVEL001
  62
2
 100
AcDbMText
  10
 213.20489700197
  20
 197.67383742156
  30
0.0
  40
 4.0000000000000
  41
0.0
  71
8
  72
1
   1
\A1;68.3
   7
GMM001
  11
0.0
  21
 1.0000000000000
  31
0.0
   0
ENDBLK
   5
1ED
 100
AcDbEntity
   8
0
 100
AcDbBlockEnd
   0
BLOCK
   5
1EE
 100
AcDbEntity
   8
0
 100
AcDbBlockBegin
   2
*D29
  70
65
  10
0.0
  20
0.0
  30
0.0
   3
*D29
   0
LINE
   5
1EF
 100
AcDbEntity
   8
LEVEL001
 100
AcDbLine
   6
CONTINUOUS
  62
2
  10
 76.957776543270
  20
 231.82383742156
  30
0.0
  11
 86.726811571696
  21
 231.82383742156
  31
0.0
   0
LINE
   5
1F0
 100
AcDbEntity
   8
LEVEL001
 100
AcDbLine
   6
CONTINUOUS
  62
2
  10
 76.957776543270
  20
 229.32383742156
  30
0.0
  11
 86.726811571696
  21
 229.32383742156
  31
0.0
   0
LINE
   5
1F1
 100
AcDbEntity
   8
LEVEL001
 100
AcDbLine
   6
CONTINUOUS
  62
2
  10
 85.226811571696
  20
 244.29596131537
  30
0.0
  11
 85.226811571696
  21
 230.57383742156
  31
0.0
   0
LINE
   5
1F2
 100
AcDbEntity
   8
LEVEL001
 100
AcDbLine
   6
CONTINUOUS
  62
2
  10
 85.226811571696
  20
 225.57383742156
  30
0.0
  11
 85.226811571696
  21
 230.57383742156
  31
0.0
   0
INSERT
   5
1F3
 100
AcDbEntity
   8
LEVEL001
   6
CONTINUOUS
  62
2
 100
AcDbBlockReference
   2
_OPEN30
  10
 85.226811571696
  20
 231.82383742156
  30
0.0
  41
 3.0000000000000
  42
 3.0000000000000
  43
 3.0000000000000
  50
 270.00000000000
   0
INSERT
   5
1F4
 100
AcDbEntity
   8
LEVEL001
   6
CONTINUOUS
  62
2
 100
AcDbBlockReference
   2
_OPEN30
  10
 85.226811571696
  20
 229.32383742156
  30
0.0
  41
 3.0000000000000
  42
 3.0000000000000
  43
 3.0000000000000
  50
 90.000000000000
   0
MTEXT
   5
1F5
 100
AcDbEntity
   8
LEVEL001
  62
2
 100
AcDbMText
  10
 83.512525857410
  20
 239.29596131537
  30
0.0
  40
 4.0000000000000
  41
0.0
  71
8
  72
1
   1
\A1;2.5
   7
GMM001
  11
0.0
  21
 1.0000000000000
  31
0.0
   0
ENDBLK
   5
1F6
 100
AcDbEntity
   8
0
 100
AcDbBlockEnd
   0
BLOCK
   5
1F7
 100
AcDbEntity
   8
0
 100
AcDbBlockBegin
   2
*D30
  70
65
  10
0.0
  20
0.0
  30
0.0
   3
*D30
   0
LINE
   5
1F8
 100
AcDbEntity
   8
LEVEL001
 100
AcDbLine
   6
CONTINUOUS
  62
2
  10
 197.43740782819
  20
 231.82383742156
  30
0.0
  11
 207.20644285662
  21
 231.82383742156
  31
0.0
   0
LINE
   5
1F9
 100
AcDbEntity
   8
LEVEL001
 100
AcDbLine
   6
CONTINUOUS
  62
2
  10
 197.43740782819
  20
 229.32383742156
  30
0.0
  11
 207.20644285662
  21
 229.32383742156
  31
0.0
   0
LINE
   5
1FA
 100
AcDbEntity
   8
LEVEL001
 100
AcDbLine
   6
CONTINUOUS
  62
2
  10
 205.70644285662
  20
 244.08829169885
  30
0.0
  11
 205.70644285662
  21
 230.57383742156
  31
0.0
   0
LINE
   5
1FB
 100
AcDbEntity
   8
LEVEL001
 100
AcDbLine
   6
CONTINUOUS
  62
2
  10
 205.70644285662
  20
 225.57383742156
  30
0.0
  11
 205.70644285662
  21
 230.57383742156
  31
0.0
   0
INSERT
   5
1FC
 100
AcDbEntity
   8
LEVEL001
   6
CONTINUOUS
  62
2
 100
AcDbBlockReference
   2
_OPEN30
  10
 205.70644285662
  20
 231.82383742156
  30
0.0
  41
 3.0000000000000
  42
 3.0000000000000
  43
 3.0000000000000
  50
 270.00000000000
   0
INSERT
   5
1FD
 100
AcDbEntity
   8
LEVEL001
   6
CONTINUOUS
  62
2
 100
AcDbBlockReference
   2
_OPEN30
  10
 205.70644285662
  20
 229.32383742156
  30
0.0
  41
 3.0000000000000
  42
 3.0000000000000
  43
 3.0000000000000
  50
 90.000000000000
   0
MTEXT
   5
1FE
 100
AcDbEntity
   8
LEVEL001
  62
2
 100
AcDbMText
  10
 203.99215714233
  20
 239.08829169885
  30
0.0
  40
 4.0000000000000
  41
0.0
  71
8
  72
1
   1
\A1;2.5
   7
GMM001
  11
0.0
  21
 1.0000000000000
  31
0.0
   0
ENDBLK
   5
1FF
 100
AcDbEntity
   8
0
 100
AcDbBlockEnd
   0
BLOCK
   5
200
 100
AcDbEntity
   8
0
 100
AcDbBlockBegin
   2
*D31
  70
65
  10
0.0
  20
0.0
  30
0.0
   3
*D31
   0
LINE
   5
201
 100
AcDbEntity
   8
LEVEL001
 100
AcDbLine
   6
CONTINUOUS
  62
2
  10
 259.22196837274
  20
 114.15428132259
  30
0.0
  11
 259.22196837274
  21
 120.47359859934
  31
0.0
   0
LINE
   5
202
 100
AcDbEntity
   8
LEVEL001
 100
AcDbLine
   6
CONTINUOUS
  62
2
  10
 294.56364695760
  20
 110.34844618756
  30
0.0
  11
 294.56364695760
  21
 120.47359859934
  31
0.0
   0
LINE
   5
203
 100
AcDbEntity
   8
LEVEL001
 100
AcDbLine
   6
CONTINUOUS
  62
2
  10
 259.22196837274
  20
 118.97359859934
  30
0.0
  11
 276.89280766517
  21
 118.97359859934
  31
0.0
   0
LINE
   5
204
 100
AcDbEntity
   8
LEVEL001
 100
AcDbLine
   6
CONTINUOUS
  62
2
  10
 294.56364695760
  20
 118.97359859934
  30
0.0
  11
 276.89280766517
  21
 118.97359859934
  31
0.0
   0
INSERT
   5
205
 100
AcDbEntity
   8
LEVEL001
   6
CONTINUOUS
  62
2
 100
AcDbBlockReference
   2
_OPEN30
  10
 259.22196837274
  20
 118.97359859934
  30
0.0
  41
 3.0000000000000
  42
 3.0000000000000
  43
 3.0000000000000
  50
 180.00000000000
   0
INSERT
   5
206
 100
AcDbEntity
   8
LEVEL001
   6
CONTINUOUS
  62
2
 100
AcDbBlockReference
   2
_OPEN30
  10
 294.56364695760
  20
 118.97359859934
  30
0.0
  41
 3.0000000000000
  42
 3.0000000000000
  43
 3.0000000000000
  50
0.0
   0
MTEXT
   5
207
 100
AcDbEntity
   8
LEVEL001
  62
2
 100
AcDbMText
  10
 276.89280766517
  20
 120.68788431363
  30
0.0
  40
 4.0000000000000
  41
0.0
  71
8
  72
1
   1
\A1;約300
   7
GMM001
   0
ENDBLK
   5
208
 100
AcDbEntity
   8
0
 100
AcDbBlockEnd
   0
ENDSEC
   0
SECTION
   2
ENTITIES
   0
LINE
   5
209
 100
AcDbEntity
   8
LEVEL001
 100
AcDbLine
   6
CONTINUOUS
  62
7
  10
 332.40604517837
  20
 176.27474460208
  30
0.0
  11
 332.40604517837
  21
 206.27474460208
  31
0.0
   0
POLYLINE
   5
20A
 100
AcDbEntity
   8
LEVEL001
   6
DIVIDE
  62
3
 100
AcDb2dPolyline
  66
1
  10
0.0
  20
0.0
  30
0.0
  70
0
   0
VERTEX
   5
20B
 100
AcDbEntity
   8
LEVEL001
   6
DIVIDE
  62
3
 100
AcDbVertex
 100
AcDb2dVertex
  10
 390.07731322238
  20
 209.78314992557
  30
0.0
   0
VERTEX
   5
20C
 100
AcDbEntity
   8
LEVEL001
   6
DIVIDE
  62
3
 100
AcDbVertex
 100
AcDb2dVertex
  10
 390.07731322238
  20
 209.78314992557
  30
0.0
   0
VERTEX
   5
20D
 100
AcDbEntity
   8
LEVEL001
   6
DIVIDE
  62
3
 100
AcDbVertex
 100
AcDb2dVertex
  10
 389.84585914428
  20
 209.42799483917
  30
0.0
   0
VERTEX
   5
20E
 100
AcDbEntity
   8
LEVEL001
   6
DIVIDE
  62
3
 100
AcDbVertex
 100
AcDb2dVertex
  10
 389.61493470627
  20
 209.07272465791
  30
0.0
   0
VERTEX
   5
20F
 100
AcDbEntity
   8
LEVEL001
   6
DIVIDE
  62
3
 100
AcDbVertex
 100
AcDb2dVertex
  10
 389.38506954844
  20
 208.71722428692
  30
0.0
   0
VERTEX
   5
210
 100
AcDbEntity
   8
LEVEL001
   6
DIVIDE
  62
3
 100
AcDbVertex
 100
AcDb2dVertex
  10
 389.15679331089
  20
 208.36137863133
  30
0.0
   0
VERTEX
   5
211
 100
AcDbEntity
   8
LEVEL001
   6
DIVIDE
  62
3
 100
AcDbVertex
 100
AcDb2dVertex
  10
 388.93063563371
  20
 208.00507259627
  30
0.0
   0
VERTEX
   5
212
 100
AcDbEntity
   8
LEVEL001
   6
DIVIDE
  62
3
 100
AcDbVertex
 100
AcDb2dVertex
  10
 388.70712615698
  20
 207.64819108689
  30
0.0
   0
VERTEX
   5
213
 100
AcDbEntity
   8
LEVEL001
   6
DIVIDE
  62
3
 100
AcDbVertex
 100
AcDb2dVertex
  10
 388.48679452080
  20
 207.29061900830
  30
0.0
   0
VERTEX
   5
214
 100
AcDbEntity
   8
LEVEL001
   6
DIVIDE
  62
3
 100
AcDbVertex
 100
AcDb2dVertex
  10
 388.27017036527
  20
 206.93224126566
  30
0.0
   0
VERTEX
   5
215
 100
AcDbEntity
   8
LEVEL001
   6
DIVIDE
  62
3
 100
AcDbVertex
 100
AcDb2dVertex
  10
 388.05778333046
  20
 206.57294276408
  30
0.0
   0
VERTEX
   5
216
 100
AcDbEntity
   8
LEVEL001
   6
DIVIDE
  62
3
 100
AcDbVertex
 100
AcDb2dVertex
  10
 387.85016305648
  20
 206.21260840871
  30
0.0
   0
VERTEX
   5
217
 100
AcDbEntity
   8
LEVEL001
   6
DIVIDE
  62
3
 100
AcDbVertex
 100
AcDb2dVertex
  10
 387.64783918342
  20
 205.85112310468
  30
0.0
   0
VERTEX
   5
218
 100
AcDbEntity
   8
LEVEL001
   6
DIVIDE
  62
3
 100
AcDbVertex
 100
AcDb2dVertex
  10
 387.45134135137
  20
 205.48837175713
  30
0.0
   0
VERTEX
   5
219
 100
AcDbEntity
   8
LEVEL001
   6
DIVIDE
  62
3
 100
AcDbVertex
 100
AcDb2dVertex
  10
 387.26119920041
  20
 205.12423927118
  30
0.0
   0
VERTEX
   5
21A
 100
AcDbEntity
   8
LEVEL001
   6
DIVIDE
  62
3
 100
AcDbVertex
 100
AcDb2dVertex
  10
 387.07794237064
  20
 204.75861055197
  30
0.0
   0
VERTEX
   5
21B
 100
AcDbEntity
   8
LEVEL001
   6
DIVIDE
  62
3
 100
AcDbVertex
 100
AcDb2dVertex
  10
 386.73420323506
  20
 204.02240403431
  30
0.0
   0
VERTEX
   5
21C
 100
AcDbEntity
   8
LEVEL001
   6
DIVIDE
  62
3
 100
AcDbVertex
 100
AcDb2dVertex
  10
 386.73420323506
  20
 204.02240403431
  30
0.0
   0
VERTEX
   5
21D
 100
AcDbEntity
   8
LEVEL001
   6
DIVIDE
  62
3
 100
AcDbVertex
 100
AcDb2dVertex
  10
 386.57478020942
  20
 203.65159604613
  30
0.0
   0
VERTEX
   5
21E
 100
AcDbEntity
   8
LEVEL001
   6
DIVIDE
  62
3
 100
AcDbVertex
 100
AcDb2dVertex
  10
 386.42436106533
  20
 203.27883144522
  30
0.0
   0
VERTEX
   5
21F
 100
AcDbEntity
   8
LEVEL001
   6
DIVIDE
  62
3
 100
AcDbVertex
 100
AcDb2dVertex
  10
 386.28347544290
  20
 202.90399513672
  30
0.0
   0
VERTEX
   5
220
 100
AcDbEntity
   8
LEVEL001
   6
DIVIDE
  62
3
 100
AcDbVertex
 100
AcDb2dVertex
  10
 386.15265298221
  20
 202.52697202577
  30
0.0
   0
VERTEX
   5
221
 100
AcDbEntity
   8
LEVEL001
   6
DIVIDE
  62
3
 100
AcDbVertex
 100
AcDb2dVertex
  10
 386.03242332335
  20
 202.14764701750
  30
0.0
   0
VERTEX
   5
222
 100
AcDbEntity
   8
LEVEL001
   6
DIVIDE
  62
3
 100
AcDbVertex
 100
AcDb2dVertex
  10
 385.92331610641
  20
 201.76590501704
  30
0.0
   0
VERTEX
   5
223
 100
AcDbEntity
   8
LEVEL001
   6
DIVIDE
  62
3
 100
AcDbVertex
 100
AcDb2dVertex
  10
 385.82586097149
  20
 201.38163092953
  30
0.0
   0
VERTEX
   5
224
 100
AcDbEntity
   8
LEVEL001
   6
DIVIDE
  62
3
 100
AcDbVertex
 100
AcDb2dVertex
  10
 385.74058755868
  20
 200.99470966009
  30
0.0
   0
VERTEX
   5
225
 100
AcDbEntity
   8
LEVEL001
   6
DIVIDE
  62
3
 100
AcDbVertex
 100
AcDb2dVertex
  10
 385.66802550807
  20
 200.60502611387
  30
0.0
   0
VERTEX
   5
226
 100
AcDbEntity
   8
LEVEL001
   6
DIVIDE
  62
3
 100
AcDbVertex
 100
AcDb2dVertex
  10
 385.60870445975
  20
 200.21246519600
  30
0.0
   0
VERTEX
   5
227
 100
AcDbEntity
   8
LEVEL001
   6
DIVIDE
  62
3
 100
AcDbVertex
 100
AcDb2dVertex
  10
 385.56315405382
  20
 199.81691181161
  30
0.0
   0
VERTEX
   5
228
 100
AcDbEntity
   8
LEVEL001
   6
DIVIDE
  62
3
 100
AcDbVertex
 100
AcDb2dVertex
  10
 385.53190393035
  20
 199.41825086584
  30
0.0
   0
VERTEX
   5
229
 100
AcDbEntity
   8
LEVEL001
   6
DIVIDE
  62
3
 100
AcDbVertex
 100
AcDb2dVertex
  10
 385.51548372946
  20
 199.01636726382
  30
0.0
   0
VERTEX
   5
22A
 100
AcDbEntity
   8
LEVEL001
   6
DIVIDE
  62
3
 100
AcDbVertex
 100
AcDb2dVertex
  10
 385.51442309122
  20
 198.61114591068
  30
0.0
   0
VERTEX
   5
22B
 100
AcDbEntity
   8
LEVEL001
   6
DIVIDE
  62
3
 100
AcDbVertex
 100
AcDb2dVertex
  10
 385.56049906309
  20
 197.79022957158
  30
0.0
   0
VERTEX
   5
22C
 100
AcDbEntity
   8
LEVEL001
   6
DIVIDE
  62
3
 100
AcDbVertex
 100
AcDb2dVertex
  10
 385.56049906309
  20
 197.79022957158
  30
0.0
   0
VERTEX
   5
22D
 100
AcDbEntity
   8
LEVEL001
   6
DIVIDE
  62
3
 100
AcDbVertex
 100
AcDb2dVertex
  10
 385.67210916896
  20
 196.95481739060
  30
0.0
   0
VERTEX
   5
22E
 100
AcDbEntity
   8
LEVEL001
   6
DIVIDE
  62
3
 100
AcDbVertex
 100
AcDb2dVertex
  10
 385.84219154095
  20
 196.10517011362
  30
0.0
   0
VERTEX
   5
22F
 100
AcDbEntity
   8
LEVEL001
   6
DIVIDE
  62
3
 100
AcDbVertex
 100
AcDb2dVertex
  10
 386.06142451345
  20
 195.24178478748
  30
0.0
   0
VERTEX
   5
230
 100
AcDbEntity
   8
LEVEL001
   6
DIVIDE
  62
3
 100
AcDbVertex
 100
AcDb2dVertex
  10
 386.32048642085
  20
 194.36515845906
  30
0.0
   0
VERTEX
   5
231
 100
AcDbEntity
   8
LEVEL001
   6
DIVIDE
  62
3
 100
AcDbVertex
 100
AcDb2dVertex
  10
 386.61005559752
  20
 193.47578817520
  30
0.0
   0
VERTEX
   5
232
 100
AcDbEntity
   8
LEVEL001
   6
DIVIDE
  62
3
 100
AcDbVertex
 100
AcDb2dVertex
  10
 386.92081037786
  20
 192.57417098276
  30
0.0
   0
VERTEX
   5
233
 100
AcDbEntity
   8
LEVEL001
   6
DIVIDE
  62
3
 100
AcDbVertex
 100
AcDb2dVertex
  10
 387.24342909625
  20
 191.66080392860
  30
0.0
   0
VERTEX
   5
234
 100
AcDbEntity
   8
LEVEL001
   6
DIVIDE
  62
3
 100
AcDbVertex
 100
AcDb2dVertex
  10
 387.56859008709
  20
 190.73618405957
  30
0.0
   0
VERTEX
   5
235
 100
AcDbEntity
   8
LEVEL001
   6
DIVIDE
  62
3
 100
AcDbVertex
 100
AcDb2dVertex
  10
 387.88697168475
  20
 189.80080842252
  30
0.0
   0
VERTEX
   5
236
 100
AcDbEntity
   8
LEVEL001
   6
DIVIDE
  62
3
 100
AcDbVertex
 100
AcDb2dVertex
  10
 388.18925222363
  20
 188.85517406431
  30
0.0
   0
VERTEX
   5
237
 100
AcDbEntity
   8
LEVEL001
   6
DIVIDE
  62
3
 100
AcDbVertex
 100
AcDb2dVertex
  10
 388.46611003810
  20
 187.89977803179
  30
0.0
   0
VERTEX
   5
238
 100
AcDbEntity
   8
LEVEL001
   6
DIVIDE
  62
3
 100
AcDbVertex
 100
AcDb2dVertex
  10
 388.70822346257
  20
 186.93511737183
  30
0.0
   0
VERTEX
   5
239
 100
AcDbEntity
   8
LEVEL001
   6
DIVIDE
  62
3
 100
AcDbVertex
 100
AcDb2dVertex
  10
 388.90627083141
  20
 185.96168913128
  30
0.0
   0
VERTEX
   5
23A
 100
AcDbEntity
   8
LEVEL001
   6
DIVIDE
  62
3
 100
AcDbVertex
 100
AcDb2dVertex
  10
 389.05093047901
  20
 184.97999035698
  30
0.0
   0
VERTEX
   5
23B
 100
AcDbEntity
   8
LEVEL001
   6
DIVIDE
  62
3
 100
AcDbVertex
 100
AcDb2dVertex
  10
 389.14279994804
  20
 182.99376939459
  30
0.0
   0
VERTEX
   5
23C
 100
AcDbEntity
   8
LEVEL001
   6
DIVIDE
  62
3
 100
AcDbVertex
 100
AcDb2dVertex
  10
 389.14279994804
  20
 182.99376939459
  30
0.0
   0
VERTEX
   5
23D
 100
AcDbEntity
   8
LEVEL001
   6
DIVIDE
  62
3
 100
AcDbVertex
 100
AcDb2dVertex
  10
 389.08506185550
  20
 182.09653576408
  30
0.0
   0
VERTEX
   5
23E
 100
AcDbEntity
   8
LEVEL001
   6
DIVIDE
  62
3
 100
AcDbVertex
 100
AcDb2dVertex
  10
 388.96802705575
  20
 181.19751342490
  30
0.0
   0
VERTEX
   5
23F
 100
AcDbEntity
   8
LEVEL001
   6
DIVIDE
  62
3
 100
AcDbVertex
 100
AcDb2dVertex
  10
 388.79755990752
  20
 180.30035381432
  30
0.0
   0
VERTEX
   5
240
 100
AcDbEntity
   8
LEVEL001
   6
DIVIDE
  62
3
 100
AcDbVertex
 100
AcDb2dVertex
  10
 388.57952476950
  20
 179.40870836966
  30
0.0
   0
VERTEX
   5
241
 100
AcDbEntity
   8
LEVEL001
   6
DIVIDE
  62
3
 100
AcDbVertex
 100
AcDb2dVertex
  10
 388.31978600040
  20
 178.52622852821
  30
0.0
   0
VERTEX
   5
242
 100
AcDbEntity
   8
LEVEL001
   6
DIVIDE
  62
3
 100
AcDbVertex
 100
AcDb2dVertex
  10
 388.02420795894
  20
 177.65656572727
  30
0.0
   0
VERTEX
   5
243
 100
AcDbEntity
   8
LEVEL001
   6
DIVIDE
  62
3
 100
AcDbVertex
 100
AcDb2dVertex
  10
 387.69865500381
  20
 176.80337140412
  30
0.0
   0
VERTEX
   5
244
 100
AcDbEntity
   8
LEVEL001
   6
DIVIDE
  62
3
 100
AcDbVertex
 100
AcDb2dVertex
  10
 387.34899149372
  20
 175.97029699607
  30
0.0
   0
VERTEX
   5
245
 100
AcDbEntity
   8
LEVEL001
   6
DIVIDE
  62
3
 100
AcDbVertex
 100
AcDb2dVertex
  10
 386.98108178739
  20
 175.16099394040
  30
0.0
   0
VERTEX
   5
246
 100
AcDbEntity
   8
LEVEL001
   6
DIVIDE
  62
3
 100
AcDbVertex
 100
AcDb2dVertex
  10
 386.60079024351
  20
 174.37911367443
  30
0.0
   0
VERTEX
   5
247
 100
AcDbEntity
   8
LEVEL001
   6
DIVIDE
  62
3
 100
AcDbVertex
 100
AcDb2dVertex
  10
 386.21398122080
  20
 173.62830763543
  30
0.0
   0
VERTEX
   5
248
 100
AcDbEntity
   8
LEVEL001
   6
DIVIDE
  62
3
 100
AcDbVertex
 100
AcDb2dVertex
  10
 385.82651907796
  20
 172.91222726072
  30
0.0
   0
VERTEX
   5
249
 100
AcDbEntity
   8
LEVEL001
   6
DIVIDE
  62
3
 100
AcDbVertex
 100
AcDb2dVertex
  10
 385.44426817370
  20
 172.23452398757
  30
0.0
   0
VERTEX
   5
24A
 100
AcDbEntity
   8
LEVEL001
   6
DIVIDE
  62
3
 100
AcDbVertex
 100
AcDb2dVertex
  10
 385.07309286673
  20
 171.59884925330
  30
0.0
   0
VERTEX
   5
24B
 100
AcDbEntity
   8
LEVEL001
   6
DIVIDE
  62
3
 100
AcDbVertex
 100
AcDb2dVertex
  10
 384.38742647948
  20
 170.46819115054
  30
0.0
   0
SEQEND
   5
24C
 100
AcDbEntity
   8
LEVEL001
   6
DIVIDE
  62
3
   0
LINE
   5
24D
 100
AcDbEntity
   8
LEVEL001
 100
AcDbLine
   6
DASHDOT
  62
3
  10
 326.91879781591
  20
 191.27474460208
  30
0.0
  11
 400.15890989723
  21
 191.27474460208
  31
0.0
   0
LINE
   5
24E
 100
AcDbEntity
   8
LEVEL001
 100
AcDbLine
   6
CONTINUOUS
  62
15
  10
 332.40604517837
  20
 198.22474460208
  30
0.0
  11
 385.52803014484
  21
 198.22474460208
  31
0.0
   0
LINE
   5
24F
 100
AcDbEntity
   8
LEVEL001
 100
AcDbLine
   6
CONTINUOUS
  62
15
  10
 332.40604517837
  20
 195.44474460208
  30
0.0
  11
 386.00628475336
  21
 195.44474460208
  31
0.0
   0
LINE
   5
250
 100
AcDbEntity
   8
LEVEL001
 100
AcDbLine
   6
CONTINUOUS
  62
15
  10
 332.40604517837
  20
 192.66474460208
  30
0.0
  11
 386.88909094898
  21
 192.66474460208
  31
0.0
   0
LINE
   5
251
 100
AcDbEntity
   8
LEVEL001
 100
AcDbLine
   6
CONTINUOUS
  62
15
  10
 332.40604517837
  20
 189.88474460208
  30
0.0
  11
 387.85906307534
  21
 189.88474460208
  31
0.0
   0
LINE
   5
252
 100
AcDbEntity
   8
LEVEL001
 100
AcDbLine
   6
CONTINUOUS
  62
15
  10
 332.40604517837
  20
 187.10474460208
  30
0.0
  11
 388.66873207258
  21
 187.10474460208
  31
0.0
   0
LINE
   5
253
 100
AcDbEntity
   8
LEVEL001
 100
AcDbLine
   6
CONTINUOUS
  62
15
  10
 332.40604517837
  20
 184.32474460208
  30
0.0
  11
 389.11285093105
  21
 184.32474460208
  31
0.0
   0
LINE
   5
254
 100
AcDbEntity
   8
LEVEL001
 100
AcDbLine
   6
CONTINUOUS
  62
7
  10
 332.40604517837
  20
 206.27474460208
  30
0.0
  11
 387.88555697263
  21
 206.27474460207
  31
0.0
   0
LINE
   5
255
 100
AcDbEntity
   8
LEVEL001
 100
AcDbLine
   6
CONTINUOUS
  62
15
  10
 332.40604517837
  20
 206.16080274967
  30
0.0
  11
 387.82078832660
  21
 206.16080274966
  31
0.0
   0
LINE
   5
256
 100
AcDbEntity
   8
LEVEL001
 100
AcDbLine
   6
CONTINUOUS
  62
15
  10
 332.40604517837
  20
 205.82243925798
  30
0.0
  11
 387.63205628173
  21
 205.82243925796
  31
0.0
   0
LINE
   5
257
 100
AcDbEntity
   8
LEVEL001
 100
AcDbLine
   6
CONTINUOUS
  62
15
  10
 332.40604517837
  20
 205.26993513047
  30
0.0
  11
 387.33639173103
  21
 205.26993513044
  31
0.0
   0
LINE
   5
258
 100
AcDbEntity
   8
LEVEL001
 100
AcDbLine
   6
CONTINUOUS
  62
15
  10
 332.40604517837
  20
 204.52007792548
  30
0.0
  11
 386.96276044637
  21
 204.52007792545
  31
0.0
   0
LINE
   5
259
 100
AcDbEntity
   8
LEVEL001
 100
AcDbLine
   6
CONTINUOUS
  62
15
  10
 332.40604517837
  20
 202.52474460208
  30
0.0
  11
 386.15191328044
  21
 202.52474460208
  31
0.0
   0
LINE
   5
25A
 100
AcDbEntity
   8
LEVEL001
 100
AcDbLine
   6
CONTINUOUS
  62
15
  10
 332.40604517837
  20
 203.59565167473
  30
0.0
  11
 386.55156546671
  21
 203.59565167473
  31
0.0
   0
LINE
   5
25B
 100
AcDbEntity
   8
LEVEL001
 100
AcDbLine
   6
CONTINUOUS
  62
15
  10
 332.40604517837
  20
 201.42507379743
  30
0.0
  11
 385.85251215042
  21
 201.42507379743
  31
0.0
   0
LINE
   5
25C
 100
AcDbEntity
   8
LEVEL001
 100
AcDbLine
   6
CONTINUOUS
  62
15
  10
 332.40604517837
  20
 178.95383752943
  30
0.0
  11
 388.45088741293
  21
 178.95383752943
  31
0.0
   0
LINE
   5
25D
 100
AcDbEntity
   8
LEVEL001
 100
AcDbLine
   6
CONTINUOUS
  62
15
  10
 332.40604517837
  20
 180.02474460208
  30
0.0
  11
 388.73514899795
  21
 180.02474460208
  31
0.0
   0
LINE
   5
25E
 100
AcDbEntity
   8
LEVEL001
 100
AcDbLine
   6
CONTINUOUS
  62
15
  10
 332.40604517837
  20
 177.27955407370
  30
0.0
  11
 387.88455307816
  21
 177.27955407370
  31
0.0
   0
LINE
   5
25F
 100
AcDbEntity
   8
LEVEL001
 100
AcDbLine
   6
CONTINUOUS
  62
7
  10
 332.40604517837
  20
 176.27474460208
  30
0.0
  11
 387.48029026669
  21
 176.27474460208
  31
0.0
   0
LINE
   5
260
 100
AcDbEntity
   8
LEVEL001
 100
AcDbLine
   6
CONTINUOUS
  62
15
  10
 332.40604517837
  20
 176.38868645449
  30
0.0
  11
 387.52839991518
  21
 176.38868645449
  31
0.0
   0
LINE
   5
261
 100
AcDbEntity
   8
LEVEL001
 100
AcDbLine
   6
CONTINUOUS
  62
15
  10
 332.40604517837
  20
 176.72704994619
  30
0.0
  11
 387.66789655124
  21
 176.72704994619
  31
0.0
   0
LINE
   5
262
 100
AcDbEntity
   8
LEVEL001
 100
AcDbLine
   6
CONTINUOUS
  62
15
  10
 332.40604517837
  20
 178.02941127869
  30
0.0
  11
 388.15556113784
  21
 178.02941127869
  31
0.0
   0
LINE
   5
263
 100
AcDbEntity
   8
LEVEL001
 100
AcDbLine
   6
CONTINUOUS
  62
15
  10
 332.40604517837
  20
 181.12441540673
  30
0.0
  11
 388.94486274122
  21
 181.12441540673
  31
0.0
   0
ARC
   5
264
 100
AcDbEntity
   8
LEVEL002
   6
CONTINUOUS
  62
7
 100
AcDbCircle
  10
 287.32566840195
  20
 198.22474460208
  30
0.0
  40
 0.30000000000000
 100
AcDbArc
  50
 331.57373514099
  51
 28.426264858950
   0
ARC
   5
265
 100
AcDbEntity
   8
LEVEL002
   6
CONTINUOUS
  62
7
 100
AcDbCircle
  10
 287.32566840196
  20
 192.66474460208
  30
0.0
  40
 0.30000000000000
 100
AcDbArc
  50
 331.57373514161
  51
 28.426264859932
   0
ARC
   5
266
 100
AcDbEntity
   8
LEVEL002
   6
CONTINUOUS
  62
7
 100
AcDbCircle
  10
 287.32566840195
  20
 184.32474460208
  30
0.0
  40
 0.30000000000000
 100
AcDbArc
  50
 331.57373514143
  51
 28.426264859723
   0
ARC
   5
267
 100
AcDbEntity
   8
LEVEL002
   6
CONTINUOUS
  62
7
 100
AcDbCircle
  10
 302.22154223218
  20
 184.32474460208
  30
0.0
  40
 0.30000000000000
 100
AcDbArc
  50
 151.57373514083
  51
 208.42626485844
   0
ARC
   5
268
 100
AcDbEntity
   8
LEVEL002
   6
CONTINUOUS
  62
7
 100
AcDbCircle
  10
 302.22154223218
  20
 192.66474460207
  30
0.0
  40
 0.30000000000000
 100
AcDbArc
  50
 151.57373514001
  51
 208.42626485711
   0
ARC
   5
269
 100
AcDbEntity
   8
LEVEL002
   6
CONTINUOUS
  62
7
 100
AcDbCircle
  10
 302.22154223219
  20
 198.22474460207
  30
0.0
  40
 0.30000000000000
 100
AcDbArc
  50
 151.57373513932
  51
 208.42626485582
   0
LINE
   5
26A
 100
AcDbEntity
   8
LEVEL002
 100
AcDbLine
   6
CONTINUOUS
  62
7
  10
 300.57360531707
  20
 183.77474460208
  30
0.0
  11
 300.57360531707
  21
 183.74474460208
  31
0.0
   0
LINE
   5
26B
 100
AcDbEntity
   8
LEVEL002
 100
AcDbLine
   6
DASHDOT
  62
3
  10
 283.79066321704
  20
 191.27474460208
  30
0.0
  11
 306.41246600194
  21
 191.27474460208
  31
0.0
   0
LINE
   5
26C
 100
AcDbEntity
   8
LEVEL002
 100
AcDbLine
   6
DASHDOT
  62
3
  10
 285.91073384942
  20
 198.77474460208
  30
0.0
  11
 303.78678395427
  21
 198.77474460208
  31
0.0
   0
LINE
   5
26D
 100
AcDbEntity
   8
LEVEL002
 100
AcDbLine
   6
CONTINUOUS
  62
7
  10
 294.77360531707
  20
 206.27474460208
  30
0.0
  11
 294.46390766677
  21
 205.86798697531
  31
0.0
   0
LINE
   5
26E
 100
AcDbEntity
   8
LEVEL002
 100
AcDbLine
   6
CONTINUOUS
  62
7
  10
 294.77360531707
  20
 206.27474460208
  30
0.0
  11
 295.08330296736
  21
 205.86798697531
  31
0.0
   0
LINE
   5
26F
 100
AcDbEntity
   8
LEVEL002
 100
AcDbLine
   6
CONTINUOUS
  62
7
  10
 294.11993724646
  20
 206.24620483777
  30
0.0
  11
 293.84686935230
  21
 205.81400311784
  31
0.0
   0
LINE
   5
270
 100
AcDbEntity
   8
LEVEL002
 100
AcDbLine
   6
CONTINUOUS
  62
7
  10
 294.11993724646
  20
 206.24620483777
  30
0.0
  11
 294.46390766677
  21
 205.86798697531
  31
0.0
   0
LINE
   5
271
 100
AcDbEntity
   8
LEVEL002
 100
AcDbLine
   6
CONTINUOUS
  62
7
  10
 293.47124398456
  20
 206.16080274967
  30
0.0
  11
 293.23688405811
  21
 205.70644625263
  31
0.0
   0
LINE
   5
272
 100
AcDbEntity
   8
LEVEL002
 100
AcDbLine
   6
CONTINUOUS
  62
7
  10
 293.47124398456
  20
 206.16080274967
  30
0.0
  11
 293.84686935230
  21
 205.81400311784
  31
0.0
   0
LINE
   5
273
 100
AcDbEntity
   8
LEVEL002
 100
AcDbLine
   6
CONTINUOUS
  62
7
  10
 292.83246247880
  20
 206.01918829925
  30
0.0
  11
 292.63859414059
  21
 205.54613495240
  31
0.0
   0
LINE
   5
274
 100
AcDbEntity
   8
LEVEL002
 100
AcDbLine
   6
CONTINUOUS
  62
7
  10
 292.83246247880
  20
 206.01918829925
  30
0.0
  11
 293.23688405811
  21
 205.70644625263
  31
0.0
   0
LINE
   5
275
 100
AcDbEntity
   8
LEVEL002
 100
AcDbLine
   6
CONTINUOUS
  62
7
  10
 292.20845424212
  20
 205.82243925798
  30
0.0
  11
 292.05655294727
  21
 205.33428928291
  31
0.0
   0
LINE
   5
276
 100
AcDbEntity
   8
LEVEL002
 100
AcDbLine
   6
CONTINUOUS
  62
7
  10
 292.20845424212
  20
 205.82243925798
  30
0.0
  11
 292.63859414059
  21
 205.54613495240
  31
0.0
   0
LINE
   5
277
 100
AcDbEntity
   8
LEVEL002
 100
AcDbLine
   6
CONTINUOUS
  62
7
  10
 291.60396835401
  20
 205.57205300486
  30
0.0
  11
 291.49519016310
  21
 205.07252151765
  31
0.0
   0
LINE
   5
278
 100
AcDbEntity
   8
LEVEL002
 100
AcDbLine
   6
CONTINUOUS
  62
7
  10
 291.60396835401
  20
 205.57205300486
  30
0.0
  11
 292.05655294727
  21
 205.33428928291
  31
0.0
   0
LINE
   5
279
 100
AcDbEntity
   8
LEVEL002
 100
AcDbLine
   6
CONTINUOUS
  62
7
  10
 291.02360531707
  20
 205.26993513047
  30
0.0
  11
 290.95877809780
  21
 204.76282386735
  31
0.0
   0
LINE
   5
27A
 100
AcDbEntity
   8
LEVEL002
 100
AcDbLine
   6
CONTINUOUS
  62
7
  10
 291.02360531707
  20
 205.26993513047
  30
0.0
  11
 291.49519016310
  21
 205.07252151765
  31
0.0
   0
LINE
   5
27B
 100
AcDbEntity
   8
LEVEL002
 100
AcDbLine
   6
CONTINUOUS
  62
7
  10
 290.47178204443
  20
 204.91838493425
  30
0.0
  11
 290.45139917110
  21
 204.40755331815
  31
0.0
   0
LINE
   5
27C
 100
AcDbEntity
   8
LEVEL002
 100
AcDbLine
   6
CONTINUOUS
  62
7
  10
 290.47178204443
  20
 204.91838493425
  30
0.0
  11
 290.95877809780
  21
 204.76282386735
  31
0.0
   0
LINE
   5
27D
 100
AcDbEntity
   8
LEVEL002
 100
AcDbLine
   6
CONTINUOUS
  62
7
  10
 289.95269824442
  20
 204.52007792548
  30
0.0
  11
 289.97691484300
  21
 204.00941369344
  31
0.0
   0
LINE
   5
27E
 100
AcDbEntity
   8
LEVEL002
 100
AcDbLine
   6
CONTINUOUS
  62
7
  10
 289.95269824442
  20
 204.52007792548
  30
0.0
  11
 290.45139917110
  21
 204.40755331815
  31
0.0
   0
LINE
   5
27F
 100
AcDbEntity
   8
LEVEL002
 100
AcDbLine
   6
CONTINUOUS
  62
7
  10
 289.47030445817
  20
 204.07804546098
  30
0.0
  11
 289.53893622571
  21
 203.57143507615
  31
0.0
   0
LINE
   5
280
 100
AcDbEntity
   8
LEVEL002
 100
AcDbLine
   6
CONTINUOUS
  62
7
  10
 289.47030445817
  20
 204.07804546098
  30
0.0
  11
 289.97691484300
  21
 204.00941369344
  31
0.0
   0
LINE
   5
281
 100
AcDbEntity
   8
LEVEL002
 100
AcDbLine
   6
CONTINUOUS
  62
7
  10
 289.02827199367
  20
 203.59565167473
  30
0.0
  11
 289.14079660100
  21
 203.09695074805
  31
0.0
   0
LINE
   5
282
 100
AcDbEntity
   8
LEVEL002
 100
AcDbLine
   6
CONTINUOUS
  62
7
  10
 289.02827199367
  20
 203.59565167473
  30
0.0
  11
 289.53893622571
  21
 203.57143507615
  31
0.0
   0
LINE
   5
283
 100
AcDbEntity
   8
LEVEL002
 100
AcDbLine
   6
CONTINUOUS
  62
7
  10
 288.62996498490
  20
 203.07656787472
  30
0.0
  11
 288.78552605180
  21
 202.58957182135
  31
0.0
   0
LINE
   5
284
 100
AcDbEntity
   8
LEVEL002
 100
AcDbLine
   6
CONTINUOUS
  62
7
  10
 288.62996498490
  20
 203.07656787472
  30
0.0
  11
 289.14079660100
  21
 203.09695074805
  31
0.0
   0
LINE
   5
285
 100
AcDbEntity
   8
LEVEL002
 100
AcDbLine
   6
CONTINUOUS
  62
7
  10
 288.27841478868
  20
 202.52474460208
  30
0.0
  11
 288.47582840150
  21
 202.05315975605
  31
0.0
   0
LINE
   5
286
 100
AcDbEntity
   8
LEVEL002
 100
AcDbLine
   6
CONTINUOUS
  62
7
  10
 288.27841478868
  20
 202.52474460208
  30
0.0
  11
 288.78552605180
  21
 202.58957182135
  31
0.0
   0
LINE
   5
287
 100
AcDbEntity
   8
LEVEL002
 100
AcDbLine
   6
CONTINUOUS
  62
7
  10
 287.97629691429
  20
 201.94438156514
  30
0.0
  11
 288.21406063624
  21
 201.49179697188
  31
0.0
   0
LINE
   5
288
 100
AcDbEntity
   8
LEVEL002
 100
AcDbLine
   6
CONTINUOUS
  62
7
  10
 287.97629691429
  20
 201.94438156514
  30
0.0
  11
 288.47582840150
  21
 202.05315975605
  31
0.0
   0
LINE
   5
289
 100
AcDbEntity
   8
LEVEL002
 100
AcDbLine
   6
CONTINUOUS
  62
7
  10
 295.42727338767
  20
 206.24620483777
  30
0.0
  11
 295.70034128183
  21
 205.81400311784
  31
0.0
   0
LINE
   5
28A
 100
AcDbEntity
   8
LEVEL002
 100
AcDbLine
   6
CONTINUOUS
  62
7
  10
 295.42727338767
  20
 206.24620483777
  30
0.0
  11
 295.08330296736
  21
 205.86798697531
  31
0.0
   0
LINE
   5
28B
 100
AcDbEntity
   8
LEVEL002
 100
AcDbLine
   6
CONTINUOUS
  62
7
  10
 296.07596664957
  20
 206.16080274967
  30
0.0
  11
 296.31032657603
  21
 205.70644625263
  31
0.0
   0
LINE
   5
28C
 100
AcDbEntity
   8
LEVEL002
 100
AcDbLine
   6
CONTINUOUS
  62
7
  10
 296.07596664957
  20
 206.16080274967
  30
0.0
  11
 295.70034128183
  21
 205.81400311784
  31
0.0
   0
LINE
   5
28D
 100
AcDbEntity
   8
LEVEL002
 100
AcDbLine
   6
CONTINUOUS
  62
7
  10
 296.71474815534
  20
 206.01918829925
  30
0.0
  11
 296.90861649355
  21
 205.54613495240
  31
0.0
   0
LINE
   5
28E
 100
AcDbEntity
   8
LEVEL002
 100
AcDbLine
   6
CONTINUOUS
  62
7
  10
 296.71474815534
  20
 206.01918829925
  30
0.0
  11
 296.31032657603
  21
 205.70644625263
  31
0.0
   0
LINE
   5
28F
 100
AcDbEntity
   8
LEVEL002
 100
AcDbLine
   6
CONTINUOUS
  62
7
  10
 297.33875639201
  20
 205.82243925798
  30
0.0
  11
 297.49065768686
  21
 205.33428928291
  31
0.0
   0
LINE
   5
290
 100
AcDbEntity
   8
LEVEL002
 100
AcDbLine
   6
CONTINUOUS
  62
7
  10
 297.33875639201
  20
 205.82243925798
  30
0.0
  11
 296.90861649355
  21
 205.54613495240
  31
0.0
   0
LINE
   5
291
 100
AcDbEntity
   8
LEVEL002
 100
AcDbLine
   6
CONTINUOUS
  62
7
  10
 297.94324228012
  20
 205.57205300486
  30
0.0
  11
 298.05202047104
  21
 205.07252151765
  31
0.0
   0
LINE
   5
292
 100
AcDbEntity
   8
LEVEL002
 100
AcDbLine
   6
CONTINUOUS
  62
7
  10
 297.94324228012
  20
 205.57205300486
  30
0.0
  11
 297.49065768686
  21
 205.33428928291
  31
0.0
   0
LINE
   5
293
 100
AcDbEntity
   8
LEVEL002
 100
AcDbLine
   6
CONTINUOUS
  62
7
  10
 298.52360531707
  20
 205.26993513047
  30
0.0
  11
 298.58843253633
  21
 204.76282386735
  31
0.0
   0
LINE
   5
294
 100
AcDbEntity
   8
LEVEL002
 100
AcDbLine
   6
CONTINUOUS
  62
7
  10
 298.52360531707
  20
 205.26993513047
  30
0.0
  11
 298.05202047104
  21
 205.07252151765
  31
0.0
   0
LINE
   5
295
 100
AcDbEntity
   8
LEVEL002
 100
AcDbLine
   6
CONTINUOUS
  62
7
  10
 299.07542858970
  20
 204.91838493425
  30
0.0
  11
 299.09581146303
  21
 204.40755331815
  31
0.0
   0
LINE
   5
296
 100
AcDbEntity
   8
LEVEL002
 100
AcDbLine
   6
CONTINUOUS
  62
7
  10
 299.07542858970
  20
 204.91838493425
  30
0.0
  11
 298.58843253633
  21
 204.76282386735
  31
0.0
   0
LINE
   5
297
 100
AcDbEntity
   8
LEVEL002
 100
AcDbLine
   6
CONTINUOUS
  62
7
  10
 299.59451238972
  20
 204.52007792548
  30
0.0
  11
 299.57029579114
  21
 204.00941369344
  31
0.0
   0
LINE
   5
298
 100
AcDbEntity
   8
LEVEL002
 100
AcDbLine
   6
CONTINUOUS
  62
7
  10
 299.59451238972
  20
 204.52007792548
  30
0.0
  11
 299.09581146303
  21
 204.40755331815
  31
0.0
   0
LINE
   5
299
 100
AcDbEntity
   8
LEVEL002
 100
AcDbLine
   6
CONTINUOUS
  62
7
  10
 300.07690617597
  20
 204.07804546098
  30
0.0
  11
 300.00827440842
  21
 203.57143507615
  31
0.0
   0
LINE
   5
29A
 100
AcDbEntity
   8
LEVEL002
 100
AcDbLine
   6
CONTINUOUS
  62
7
  10
 300.07690617597
  20
 204.07804546098
  30
0.0
  11
 299.57029579114
  21
 204.00941369344
  31
0.0
   0
LINE
   5
29B
 100
AcDbEntity
   8
LEVEL002
 100
AcDbLine
   6
CONTINUOUS
  62
7
  10
 300.51893864046
  20
 203.59565167473
  30
0.0
  11
 300.40641403313
  21
 203.09695074805
  31
0.0
   0
LINE
   5
29C
 100
AcDbEntity
   8
LEVEL002
 100
AcDbLine
   6
CONTINUOUS
  62
7
  10
 300.51893864046
  20
 203.59565167473
  30
0.0
  11
 300.00827440842
  21
 203.57143507615
  31
0.0
   0
LINE
   5
29D
 100
AcDbEntity
   8
LEVEL002
 100
AcDbLine
   6
CONTINUOUS
  62
7
  10
 300.91724564923
  20
 203.07656787472
  30
0.0
  11
 300.76168458234
  21
 202.58957182135
  31
0.0
   0
LINE
   5
29E
 100
AcDbEntity
   8
LEVEL002
 100
AcDbLine
   6
CONTINUOUS
  62
7
  10
 300.91724564923
  20
 203.07656787472
  30
0.0
  11
 300.40641403313
  21
 203.09695074805
  31
0.0
   0
LINE
   5
29F
 100
AcDbEntity
   8
LEVEL002
 100
AcDbLine
   6
CONTINUOUS
  62
7
  10
 301.26879584545
  20
 202.52474460208
  30
0.0
  11
 301.07138223263
  21
 202.05315975605
  31
0.0
   0
LINE
   5
2A0
 100
AcDbEntity
   8
LEVEL002
 100
AcDbLine
   6
CONTINUOUS
  62
7
  10
 301.26879584545
  20
 202.52474460208
  30
0.0
  11
 300.76168458234
  21
 202.58957182135
  31
0.0
   0
LINE
   5
2A1
 100
AcDbEntity
   8
LEVEL002
 100
AcDbLine
   6
CONTINUOUS
  62
7
  10
 301.57091371984
  20
 201.94438156514
  30
0.0
  11
 301.33314999790
  21
 201.49179697188
  31
0.0
   0
LINE
   5
2A2
 100
AcDbEntity
   8
LEVEL002
 100
AcDbLine
   6
CONTINUOUS
  62
7
  10
 301.57091371984
  20
 201.94438156514
  30
0.0
  11
 301.07138223263
  21
 202.05315975605
  31
0.0
   0
LINE
   5
2A3
 100
AcDbEntity
   8
LEVEL002
 100
AcDbLine
   6
CONTINUOUS
  62
7
  10
 289.95269824442
  20
 178.02941127869
  30
0.0
  11
 289.97691484300
  21
 178.54007551073
  31
0.0
   0
LINE
   5
2A4
 100
AcDbEntity
   8
LEVEL002
 100
AcDbLine
   6
CONTINUOUS
  62
7
  10
 289.47030445817
  20
 178.47144374318
  30
0.0
  11
 289.53893622571
  21
 178.97805412801
  31
0.0
   0
LINE
   5
2A5
 100
AcDbEntity
   8
LEVEL002
 100
AcDbLine
   6
CONTINUOUS
  62
7
  10
 289.47030445817
  20
 178.47144374318
  30
0.0
  11
 289.97691484300
  21
 178.54007551073
  31
0.0
   0
LINE
   5
2A6
 100
AcDbEntity
   8
LEVEL002
 100
AcDbLine
   6
CONTINUOUS
  62
7
  10
 289.02827199367
  20
 178.95383752943
  30
0.0
  11
 289.14079660100
  21
 179.45253845612
  31
0.0
   0
LINE
   5
2A7
 100
AcDbEntity
   8
LEVEL002
 100
AcDbLine
   6
CONTINUOUS
  62
7
  10
 289.02827199367
  20
 178.95383752943
  30
0.0
  11
 289.53893622571
  21
 178.97805412801
  31
0.0
   0
LINE
   5
2A8
 100
AcDbEntity
   8
LEVEL002
 100
AcDbLine
   6
CONTINUOUS
  62
7
  10
 288.62996498490
  20
 179.47292132945
  30
0.0
  11
 288.78552605180
  21
 179.95991738282
  31
0.0
   0
LINE
   5
2A9
 100
AcDbEntity
   8
LEVEL002
 100
AcDbLine
   6
CONTINUOUS
  62
7
  10
 288.62996498490
  20
 179.47292132945
  30
0.0
  11
 289.14079660100
  21
 179.45253845612
  31
0.0
   0
LINE
   5
2AA
 100
AcDbEntity
   8
LEVEL002
 100
AcDbLine
   6
CONTINUOUS
  62
7
  10
 288.27841478868
  20
 180.02474460208
  30
0.0
  11
 288.47582840150
  21
 180.49632944811
  31
0.0
   0
LINE
   5
2AB
 100
AcDbEntity
   8
LEVEL002
 100
AcDbLine
   6
CONTINUOUS
  62
7
  10
 288.27841478868
  20
 180.02474460208
  30
0.0
  11
 288.78552605180
  21
 179.95991738282
  31
0.0
   0
LINE
   5
2AC
 100
AcDbEntity
   8
LEVEL002
 100
AcDbLine
   6
CONTINUOUS
  62
7
  10
 287.97629691429
  20
 180.60510763903
  30
0.0
  11
 288.21406063624
  21
 181.05769223229
  31
0.0
   0
LINE
   5
2AD
 100
AcDbEntity
   8
LEVEL002
 100
AcDbLine
   6
CONTINUOUS
  62
7
  10
 287.97629691429
  20
 180.60510763903
  30
0.0
  11
 288.47582840150
  21
 180.49632944811
  31
0.0
   0
LINE
   5
2AE
 100
AcDbEntity
   8
LEVEL002
 100
AcDbLine
   6
CONTINUOUS
  62
7
  10
 291.60396835401
  20
 176.97743619931
  30
0.0
  11
 291.49519016310
  21
 177.47696768652
  31
0.0
   0
LINE
   5
2AF
 100
AcDbEntity
   8
LEVEL002
 100
AcDbLine
   6
CONTINUOUS
  62
7
  10
 291.60396835401
  20
 176.97743619931
  30
0.0
  11
 292.05655294727
  21
 177.21519992125
  31
0.0
   0
LINE
   5
2B0
 100
AcDbEntity
   8
LEVEL002
 100
AcDbLine
   6
CONTINUOUS
  62
7
  10
 291.02360531707
  20
 177.27955407370
  30
0.0
  11
 290.95877809780
  21
 177.78666533681
  31
0.0
   0
LINE
   5
2B1
 100
AcDbEntity
   8
LEVEL002
 100
AcDbLine
   6
CONTINUOUS
  62
7
  10
 291.02360531707
  20
 177.27955407370
  30
0.0
  11
 291.49519016310
  21
 177.47696768652
  31
0.0
   0
LINE
   5
2B2
 100
AcDbEntity
   8
LEVEL002
 100
AcDbLine
   6
CONTINUOUS
  62
7
  10
 290.47178204443
  20
 177.63110426992
  30
0.0
  11
 290.45139917110
  21
 178.14193588602
  31
0.0
   0
LINE
   5
2B3
 100
AcDbEntity
   8
LEVEL002
 100
AcDbLine
   6
CONTINUOUS
  62
7
  10
 290.47178204443
  20
 177.63110426992
  30
0.0
  11
 290.95877809780
  21
 177.78666533681
  31
0.0
   0
LINE
   5
2B4
 100
AcDbEntity
   8
LEVEL002
 100
AcDbLine
   6
CONTINUOUS
  62
7
  10
 289.95269824442
  20
 178.02941127869
  30
0.0
  11
 290.45139917110
  21
 178.14193588602
  31
0.0
   0
LINE
   5
2B5
 100
AcDbEntity
   8
LEVEL002
 100
AcDbLine
   6
CONTINUOUS
  62
7
  10
 298.52360531707
  20
 177.27955407370
  30
0.0
  11
 298.58843253633
  21
 177.78666533681
  31
0.0
   0
LINE
   5
2B6
 100
AcDbEntity
   8
LEVEL002
 100
AcDbLine
   6
CONTINUOUS
  62
7
  10
 298.52360531707
  20
 177.27955407370
  30
0.0
  11
 298.05202047104
  21
 177.47696768652
  31
0.0
   0
LINE
   5
2B7
 100
AcDbEntity
   8
LEVEL002
 100
AcDbLine
   6
CONTINUOUS
  62
7
  10
 299.07542858970
  20
 177.63110426992
  30
0.0
  11
 299.09581146303
  21
 178.14193588602
  31
0.0
   0
LINE
   5
2B8
 100
AcDbEntity
   8
LEVEL002
 100
AcDbLine
   6
CONTINUOUS
  62
7
  10
 299.07542858970
  20
 177.63110426992
  30
0.0
  11
 298.58843253633
  21
 177.78666533681
  31
0.0
   0
LINE
   5
2B9
 100
AcDbEntity
   8
LEVEL002
 100
AcDbLine
   6
CONTINUOUS
  62
7
  10
 299.59451238972
  20
 178.02941127869
  30
0.0
  11
 299.57029579114
  21
 178.54007551073
  31
0.0
   0
LINE
   5
2BA
 100
AcDbEntity
   8
LEVEL002
 100
AcDbLine
   6
CONTINUOUS
  62
7
  10
 299.59451238972
  20
 178.02941127869
  30
0.0
  11
 299.09581146303
  21
 178.14193588602
  31
0.0
   0
LINE
   5
2BB
 100
AcDbEntity
   8
LEVEL002
 100
AcDbLine
   6
CONTINUOUS
  62
7
  10
 300.07690617597
  20
 178.47144374318
  30
0.0
  11
 300.00827440842
  21
 178.97805412801
  31
0.0
   0
LINE
   5
2BC
 100
AcDbEntity
   8
LEVEL002
 100
AcDbLine
   6
CONTINUOUS
  62
7
  10
 300.07690617597
  20
 178.47144374318
  30
0.0
  11
 299.57029579114
  21
 178.54007551073
  31
0.0
   0
LINE
   5
2BD
 100
AcDbEntity
   8
LEVEL002
 100
AcDbLine
   6
CONTINUOUS
  62
7
  10
 300.51893864046
  20
 178.95383752943
  30
0.0
  11
 300.40641403313
  21
 179.45253845612
  31
0.0
   0
LINE
   5
2BE
 100
AcDbEntity
   8
LEVEL002
 100
AcDbLine
   6
CONTINUOUS
  62
7
  10
 300.51893864046
  20
 178.95383752943
  30
0.0
  11
 300.00827440842
  21
 178.97805412801
  31
0.0
   0
LINE
   5
2BF
 100
AcDbEntity
   8
LEVEL002
 100
AcDbLine
   6
CONTINUOUS
  62
7
  10
 300.91724564923
  20
 179.47292132945
  30
0.0
  11
 300.76168458234
  21
 179.95991738282
  31
0.0
   0
LINE
   5
2C0
 100
AcDbEntity
   8
LEVEL002
 100
AcDbLine
   6
CONTINUOUS
  62
7
  10
 300.91724564923
  20
 179.47292132945
  30
0.0
  11
 300.40641403313
  21
 179.45253845612
  31
0.0
   0
LINE
   5
2C1
 100
AcDbEntity
   8
LEVEL002
 100
AcDbLine
   6
CONTINUOUS
  62
7
  10
 301.26879584545
  20
 180.02474460208
  30
0.0
  11
 301.07138223263
  21
 180.49632944811
  31
0.0
   0
LINE
   5
2C2
 100
AcDbEntity
   8
LEVEL002
 100
AcDbLine
   6
CONTINUOUS
  62
7
  10
 301.26879584545
  20
 180.02474460208
  30
0.0
  11
 300.76168458234
  21
 179.95991738282
  31
0.0
   0
LINE
   5
2C3
 100
AcDbEntity
   8
LEVEL002
 100
AcDbLine
   6
CONTINUOUS
  62
7
  10
 301.57091371984
  20
 180.60510763903
  30
0.0
  11
 301.33314999790
  21
 181.05769223229
  31
0.0
   0
LINE
   5
2C4
 100
AcDbEntity
   8
LEVEL002
 100
AcDbLine
   6
CONTINUOUS
  62
7
  10
 301.57091371984
  20
 180.60510763903
  30
0.0
  11
 301.07138223263
  21
 180.49632944811
  31
0.0
   0
LINE
   5
2C5
 100
AcDbEntity
   8
LEVEL002
 100
AcDbLine
   6
CONTINUOUS
  62
7
  10
 294.77360531707
  20
 176.27474460208
  30
0.0
  11
 295.08330296736
  21
 176.68150222885
  31
0.0
   0
LINE
   5
2C6
 100
AcDbEntity
   8
LEVEL002
 100
AcDbLine
   6
CONTINUOUS
  62
7
  10
 295.42727338767
  20
 176.30328436640
  30
0.0
  11
 295.70034128183
  21
 176.73548608633
  31
0.0
   0
LINE
   5
2C7
 100
AcDbEntity
   8
LEVEL002
 100
AcDbLine
   6
CONTINUOUS
  62
7
  10
 295.42727338767
  20
 176.30328436640
  30
0.0
  11
 295.08330296736
  21
 176.68150222885
  31
0.0
   0
LINE
   5
2C8
 100
AcDbEntity
   8
LEVEL002
 100
AcDbLine
   6
CONTINUOUS
  62
7
  10
 296.07596664957
  20
 176.38868645449
  30
0.0
  11
 296.31032657603
  21
 176.84304295153
  31
0.0
   0
LINE
   5
2C9
 100
AcDbEntity
   8
LEVEL002
 100
AcDbLine
   6
CONTINUOUS
  62
7
  10
 296.07596664957
  20
 176.38868645449
  30
0.0
  11
 295.70034128183
  21
 176.73548608633
  31
0.0
   0
LINE
   5
2CA
 100
AcDbEntity
   8
LEVEL002
 100
AcDbLine
   6
CONTINUOUS
  62
7
  10
 296.71474815534
  20
 176.53030090492
  30
0.0
  11
 296.90861649355
  21
 177.00335425177
  31
0.0
   0
LINE
   5
2CB
 100
AcDbEntity
   8
LEVEL002
 100
AcDbLine
   6
CONTINUOUS
  62
7
  10
 296.71474815534
  20
 176.53030090492
  30
0.0
  11
 296.31032657603
  21
 176.84304295153
  31
0.0
   0
LINE
   5
2CC
 100
AcDbEntity
   8
LEVEL002
 100
AcDbLine
   6
CONTINUOUS
  62
7
  10
 297.33875639201
  20
 176.72704994619
  30
0.0
  11
 297.49065768686
  21
 177.21519992125
  31
0.0
   0
LINE
   5
2CD
 100
AcDbEntity
   8
LEVEL002
 100
AcDbLine
   6
CONTINUOUS
  62
7
  10
 297.33875639201
  20
 176.72704994619
  30
0.0
  11
 296.90861649355
  21
 177.00335425177
  31
0.0
   0
LINE
   5
2CE
 100
AcDbEntity
   8
LEVEL002
 100
AcDbLine
   6
CONTINUOUS
  62
7
  10
 297.94324228012
  20
 176.97743619931
  30
0.0
  11
 298.05202047104
  21
 177.47696768652
  31
0.0
   0
LINE
   5
2CF
 100
AcDbEntity
   8
LEVEL002
 100
AcDbLine
   6
CONTINUOUS
  62
7
  10
 297.94324228012
  20
 176.97743619931
  30
0.0
  11
 297.49065768686
  21
 177.21519992125
  31
0.0
   0
LINE
   5
2D0
 100
AcDbEntity
   8
LEVEL002
 100
AcDbLine
   6
CONTINUOUS
  62
7
  10
 294.11993724646
  20
 176.30328436640
  30
0.0
  11
 293.84686935230
  21
 176.73548608633
  31
0.0
   0
LINE
   5
2D1
 100
AcDbEntity
   8
LEVEL002
 100
AcDbLine
   6
CONTINUOUS
  62
7
  10
 294.11993724646
  20
 176.30328436640
  30
0.0
  11
 294.46390766677
  21
 176.68150222885
  31
0.0
   0
LINE
   5
2D2
 100
AcDbEntity
   8
LEVEL002
 100
AcDbLine
   6
CONTINUOUS
  62
7
  10
 293.47124398456
  20
 176.38868645449
  30
0.0
  11
 293.23688405811
  21
 176.84304295153
  31
0.0
   0
LINE
   5
2D3
 100
AcDbEntity
   8
LEVEL002
 100
AcDbLine
   6
CONTINUOUS
  62
7
  10
 293.47124398456
  20
 176.38868645449
  30
0.0
  11
 293.84686935230
  21
 176.73548608633
  31
0.0
   0
LINE
   5
2D4
 100
AcDbEntity
   8
LEVEL002
 100
AcDbLine
   6
CONTINUOUS
  62
7
  10
 292.83246247880
  20
 176.53030090492
  30
0.0
  11
 292.63859414059
  21
 177.00335425177
  31
0.0
   0
LINE
   5
2D5
 100
AcDbEntity
   8
LEVEL002
 100
AcDbLine
   6
CONTINUOUS
  62
7
  10
 292.83246247880
  20
 176.53030090492
  30
0.0
  11
 293.23688405811
  21
 176.84304295153
  31
0.0
   0
LINE
   5
2D6
 100
AcDbEntity
   8
LEVEL002
 100
AcDbLine
   6
CONTINUOUS
  62
7
  10
 292.20845424212
  20
 176.72704994619
  30
0.0
  11
 292.05655294727
  21
 177.21519992125
  31
0.0
   0
LINE
   5
2D7
 100
AcDbEntity
   8
LEVEL002
 100
AcDbLine
   6
CONTINUOUS
  62
7
  10
 292.20845424212
  20
 176.72704994619
  30
0.0
  11
 292.63859414059
  21
 177.00335425177
  31
0.0
   0
LINE
   5
2D8
 100
AcDbEntity
   8
LEVEL002
 100
AcDbLine
   6
CONTINUOUS
  62
7
  10
 294.77360531707
  20
 176.27474460208
  30
0.0
  11
 294.46390766677
  21
 176.68150222885
  31
0.0
   0
LINE
   5
2D9
 100
AcDbEntity
   8
LEVEL002
 100
AcDbLine
   6
DASHDOT
  62
3
  10
 285.91073384942
  20
 183.77474460208
  30
0.0
  11
 303.78678395427
  21
 183.77474460208
  31
0.0
   0
LINE
   5
2DA
 100
AcDbEntity
   8
LEVEL002
 100
AcDbLine
   6
CONTINUOUS
  62
7
  10
 287.99963905431
  20
 201.42507379743
  30
0.0
  11
 288.21406063624
  21
 201.49179697188
  31
0.0
   0
ARC
   5
2DB
 100
AcDbEntity
   8
LEVEL002
   6
CONTINUOUS
  62
7
 100
AcDbCircle
  10
 289.89360531707
  20
 199.61474460208
  30
0.0
  40
 2.6200000000000
 100
AcDbArc
  50
 136.29342731226
  51
 208.42626485900
   0
LINE
   5
2DC
 100
AcDbEntity
   8
LEVEL002
 100
AcDbLine
   6
CONTINUOUS
  62
7
  10
 301.54757157982
  20
 201.42507379743
  30
0.0
  11
 301.33314999790
  21
 201.49179697188
  31
0.0
   0
LINE
   5
2DD
 100
AcDbEntity
   8
LEVEL002
 100
AcDbLine
   6
CONTINUOUS
  62
7
  10
 287.99963905431
  20
 181.12441540673
  30
0.0
  11
 288.21406063624
  21
 181.05769223229
  31
0.0
   0
ARC
   5
2DE
 100
AcDbEntity
   8
LEVEL002
   6
CONTINUOUS
  62
7
 100
AcDbCircle
  10
 289.89360531707
  20
 182.93474460208
  30
0.0
  40
 2.6200000000000
 100
AcDbArc
  50
 151.57373514102
  51
 223.70657268774
   0
ARC
   5
2DF
 100
AcDbEntity
   8
LEVEL002
   6
CONTINUOUS
  62
7
 100
AcDbCircle
  10
 299.65360531707
  20
 182.93474460208
  30
0.0
  40
 2.6200000000000
 100
AcDbArc
  50
 316.29342731223
  51
 28.426264858949
   0
LINE
   5
2E0
 100
AcDbEntity
   8
LEVEL002
 100
AcDbLine
   6
CONTINUOUS
  62
7
  10
 301.54757157982
  20
 181.12441540673
  30
0.0
  11
 301.33314999790
  21
 181.05769223229
  31
0.0
   0
ARC
   5
2E1
 100
AcDbEntity
   8
LEVEL002
   6
CONTINUOUS
  62
7
 100
AcDbCircle
  10
 302.22154223219
  20
 189.88474460209
  30
0.0
  40
 0.30000000000000
 100
AcDbArc
  50
 151.57373514370
  51
 208.42626486043
   0
ARC
   5
2E2
 100
AcDbEntity
   8
LEVEL002
   6
CONTINUOUS
  62
7
 100
AcDbCircle
  10
 299.65360531707
  20
 185.71474460208
  30
0.0
  40
 2.6200000000000
 100
AcDbArc
  50
 331.57373514105
  51
 28.426264859004
   0
ARC
   5
2E3
 100
AcDbEntity
   8
LEVEL002
   6
CONTINUOUS
  62
7
 100
AcDbCircle
  10
 302.22154223218
  20
 187.10474460209
  30
0.0
  40
 0.30000000000000
 100
AcDbArc
  50
 151.57373514198
  51
 208.42626485950
   0
ARC
   5
2E4
 100
AcDbEntity
   8
LEVEL002
   6
CONTINUOUS
  62
7
 100
AcDbCircle
  10
 299.65360531707
  20
 188.49474460208
  30
0.0
  40
 2.6200000000000
 100
AcDbArc
  50
 331.57373514104
  51
 28.426264858985
   0
ARC
   5
2E5
 100
AcDbEntity
   8
LEVEL002
   6
CONTINUOUS
  62
7
 100
AcDbCircle
  10
 302.22154223218
  20
 195.44474460208
  30
0.0
  40
 0.30000000000000
 100
AcDbArc
  50
 151.57373514018
  51
 208.42626485852
   0
ARC
   5
2E6
 100
AcDbEntity
   8
LEVEL002
   6
CONTINUOUS
  62
7
 100
AcDbCircle
  10
 289.89360531706
  20
 194.05474460208
  30
0.0
  40
 2.6200000000000
 100
AcDbArc
  50
 151.57373514105
  51
 208.42626485902
   0
ARC
   5
2E7
 100
AcDbEntity
   8
LEVEL002
   6
CONTINUOUS
  62
7
 100
AcDbCircle
  10
 287.32566840196
  20
 195.44474460206
  30
0.0
  40
 0.30000000000000
 100
AcDbArc
  50
 331.57373514344
  51
 28.426264863376
   0
ARC
   5
2E8
 100
AcDbEntity
   8
LEVEL002
   6
CONTINUOUS
  62
7
 100
AcDbCircle
  10
 289.89360531707
  20
 196.83474460208
  30
0.0
  40
 2.6200000000000
 100
AcDbArc
  50
 151.57373514103
  51
 208.42626485897
   0
ARC
   5
2E9
 100
AcDbEntity
   8
LEVEL002
   6
CONTINUOUS
  62
7
 100
AcDbCircle
  10
 289.89360531707
  20
 191.27474460208
  30
0.0
  40
 2.6200000000000
 100
AcDbArc
  50
 151.57373514101
  51
 208.42626485892
   0
ARC
   5
2EA
 100
AcDbEntity
   8
LEVEL002
   6
CONTINUOUS
  62
7
 100
AcDbCircle
  10
 287.32566840196
  20
 189.88474460209
  30
0.0
  40
 0.30000000000000
 100
AcDbArc
  50
 331.57373513834
  51
 28.426264857493
   0
ARC
   5
2EB
 100
AcDbEntity
   8
LEVEL002
   6
CONTINUOUS
  62
7
 100
AcDbCircle
  10
 289.89360531707
  20
 185.71474460208
  30
0.0
  40
 2.6200000000000
 100
AcDbArc
  50
 151.57373514105
  51
 208.42626485900
   0
ARC
   5
2EC
 100
AcDbEntity
   8
LEVEL002
   6
CONTINUOUS
  62
7
 100
AcDbCircle
  10
 287.32566840195
  20
 187.10474460209
  30
0.0
  40
 0.30000000000000
 100
AcDbArc
  50
 331.57373514050
  51
 28.426264858018
   0
ARC
   5
2ED
 100
AcDbEntity
   8
LEVEL002
   6
CONTINUOUS
  62
7
 100
AcDbCircle
  10
 289.89360531707
  20
 188.49474460208
  30
0.0
  40
 2.6200000000000
 100
AcDbArc
  50
 151.57373514100
  51
 208.42626485893
   0
ARC
   5
2EE
 100
AcDbEntity
   8
LEVEL002
   6
CONTINUOUS
  62
7
 100
AcDbCircle
  10
 294.77360531707
  20
 183.77474460208
  30
0.0
  40
 5.8000000000000
 100
AcDbArc
  50
 180.00000000000
  51
0.0
   0
LINE
   5
2EF
 100
AcDbEntity
   8
LEVEL002
 100
AcDbLine
   6
CONTINUOUS
  62
7
  10
 300.57360531707
  20
 183.77474460208
  30
0.0
  11
 300.57360531707
  21
 198.77474460208
  31
0.0
   0
ARC
   5
2F0
 100
AcDbEntity
   8
LEVEL002
   6
CONTINUOUS
  62
7
 100
AcDbCircle
  10
 294.77360531707
  20
 198.77474460208
  30
0.0
  40
 5.8000000000000
 100
AcDbArc
  50
0.0
  51
 180.00000000000
   0
LINE
   5
2F1
 100
AcDbEntity
   8
LEVEL002
 100
AcDbLine
   6
CONTINUOUS
  62
7
  10
 288.97360531707
  20
 183.77474460208
  30
0.0
  11
 288.97360531707
  21
 198.77474460208
  31
0.0
   0
LINE
   5
2F2
 100
AcDbEntity
   8
LEVEL002
 100
AcDbLine
   6
DASHDOT
  62
3
  10
 294.77360531707
  20
 208.04477810721
  30
0.0
  11
 294.77360531707
  21
 172.15224709520
  31
0.0
   0
DIMENSION
   5
2F3
 100
AcDbEntity
   8
LEVEL001
   6
CONTINUOUS
  62
2
 100
AcDbDimension
   2
*D1
  10
 302.27360531707
  20
 164.73828711243
  30
0.0
  11
 294.77360531707
  21
 164.73828711243
  31
0.0
  70
0
   3
GMM001
 100
AcDbAlignedDimension
  13
 287.27360531707
  23
 182.24111628350
  33
0.0
  14
 302.27360531707
  24
 182.24111628350
  34
0.0
 100
AcDbRotatedDimension
   0
ARC
   5
2F4
 100
AcDbEntity
   8
LEVEL002
   6
CONTINUOUS
  62
7
 100
AcDbCircle
  10
 299.65360531707
  20
 199.61474460208
  30
0.0
  40
 2.6200000000000
 100
AcDbArc
  50
 331.57373514101
  51
 43.706572687807
   0
ARC
   5
2F5
 100
AcDbEntity
   8
LEVEL002
   6
CONTINUOUS
  62
7
 100
AcDbCircle
  10
 299.65360531707
  20
 196.83474460208
  30
0.0
  40
 2.6200000000000
 100
AcDbArc
  50
 331.57373514080
  51
 28.426264858847
   0
ARC
   5
2F6
 100
AcDbEntity
   8
LEVEL002
   6
CONTINUOUS
  62
7
 100
AcDbCircle
  10
 299.65360531706
  20
 194.05474460208
  30
0.0
  40
 2.6200000000000
 100
AcDbArc
  50
 331.57373514126
  51
 28.426264858944
   0
ARC
   5
2F7
 100
AcDbEntity
   8
LEVEL002
   6
CONTINUOUS
  62
7
 100
AcDbCircle
  10
 299.65360531707
  20
 191.27474460208
  30
0.0
  40
 2.6200000000000
 100
AcDbArc
  50
 331.57373514100
  51
 28.426264858979
   0
DIMENSION
   5
2F8
 100
AcDbEntity
   8
LEVEL001
   6
CONTINUOUS
  62
2
 100
AcDbDimension
   2
*D2
  10
 317.13217127869
  20
 206.27474460208
  30
0.0
  11
 317.13217127869
  21
 191.27474460208
  31
0.0
  70
0
   3
GMM001
 100
AcDbAlignedDimension
  13
 295.25816775560
  23
 176.27474460208
  33
0.0
  14
 295.25816775560
  24
 206.27474460208
  34
0.0
  50
 90.000000000000
 100
AcDbRotatedDimension
   0
LINE
   5
2F9
 100
AcDbEntity
   8
LEVEL001
 100
AcDbLine
   6
CONTINUOUS
  62
7
  10
 328.81726220218
  20
 157.88876517980
  30
0.0
  11
 341.62337305454
  21
 157.88876517980
  31
0.0
   0
TEXT
   5
2FA
 100
AcDbEntity
   8
LEVEL001
  62
7
 100
AcDbText
  10
 329.22526419021
  20
 159.08380810007
  30
0.0
  40
 4.0000000000000
   1
レール
   7
STANDARD
 100
AcDbText
   0
LINE
   5
2FB
 100
AcDbEntity
   8
LEVEL001
 100
AcDbLine
   6
CONTINUOUS
  62
7
  10
 56.834308129278
  20
 68.412024937583
  30
0.0
  11
 50.584308129278
  21
 68.412024937583
  31
0.0
   0
ARC
   5
2FC
 100
AcDbEntity
   8
LEVEL001
   6
CONTINUOUS
  62
7
 100
AcDbCircle
  10
 50.584308129278
  20
 67.912024937583
  30
0.0
  40
 0.50000000000000
 100
AcDbArc
  50
 90.000000000000
  51
 179.99999999999
   0
LINE
   5
2FD
 100
AcDbEntity
   8
LEVEL001
 100
AcDbLine
   6
CONTINUOUS
  62
7
  10
 53.834308129278
  20
 93.962024937583
  30
0.0
  11
 53.459308129278
  21
 94.712024937583
  31
0.0
   0
LINE
   5
2FE
 100
AcDbEntity
   8
LEVEL001
 100
AcDbLine
   6
CONTINUOUS
  62
7
  10
 53.084308129278
  20
 93.962024937583
  30
0.0
  11
 53.459308129278
  21
 94.712024937583
  31
0.0
   0
LINE
   5
2FF
 100
AcDbEntity
   8
LEVEL001
 100
AcDbLine
   6
DOT
  62
2
  10
 53.459308129278
  20
 86.735710965472
  30
0.0
  11
 52.634308129278
  21
 87.212024937553
  31
0.0
   0
LINE
   5
300
 100
AcDbEntity
   8
LEVEL001
 100
AcDbLine
   6
DOT
  62
2
  10
 53.459308129278
  20
 87.212024937583
  30
0.0
  11
 52.634308129278
  21
 87.212024937583
  31
0.0
   0
LINE
   5
301
 100
AcDbEntity
   8
LEVEL001
 100
AcDbLine
   6
DOT
  62
2
  10
 52.459308129278
  20
 93.962024937583
  30
0.0
  11
 52.459308129278
  21
 87.962024937583
  31
0.0
   0
LINE
   5
302
 100
AcDbEntity
   8
LEVEL001
 100
AcDbLine
   6
DOT
  62
2
  10
 52.634308129278
  20
 93.962024937583
  30
0.0
  11
 52.634308129278
  21
 87.212024937583
  31
0.0
   0
LINE
   5
303
 100
AcDbEntity
   8
LEVEL001
 100
AcDbLine
   6
DOT
  62
2
  10
 52.459308129278
  20
 87.962024937583
  30
0.0
  11
 54.459308129278
  21
 87.962024937583
  31
0.0
   0
LINE
   5
304
 100
AcDbEntity
   8
LEVEL001
 100
AcDbLine
   6
DOT
  62
2
  10
 53.459308129278
  20
 86.735710965472
  30
0.0
  11
 54.284308129278
  21
 87.212024937553
  31
0.0
   0
LINE
   5
305
 100
AcDbEntity
   8
LEVEL001
 100
AcDbLine
   6
DOT
  62
2
  10
 53.459308129278
  20
 87.212024937583
  30
0.0
  11
 54.284308129278
  21
 87.212024937583
  31
0.0
   0
LINE
   5
306
 100
AcDbEntity
   8
LEVEL001
 100
AcDbLine
   6
DOT
  62
2
  10
 54.284308129278
  20
 93.962024937583
  30
0.0
  11
 54.284308129278
  21
 87.212024937583
  31
0.0
   0
LINE
   5
307
 100
AcDbEntity
   8
LEVEL001
 100
AcDbLine
   6
DOT
  62
2
  10
 54.459308129278
  20
 93.962024937583
  30
0.0
  11
 54.459308129278
  21
 87.962024937583
  31
0.0
   0
LINE
   5
308
 100
AcDbEntity
   8
LEVEL001
 100
AcDbLine
   6
CONTINUOUS
  62
7
  10
 50.084308129278
  20
 93.712024937583
  30
0.0
  11
 50.084308129278
  21
 93.962024937583
  31
0.0
   0
ARC
   5
309
 100
AcDbEntity
   8
LEVEL001
   6
CONTINUOUS
  62
7
 100
AcDbCircle
  10
 51.084308129278
  20
 93.712024937583
  30
0.0
  40
 1.0000000000000
 100
AcDbArc
  50
 180.00000000000
  51
 270.00000000002
   0
POINT
   5
30A
 100
AcDbEntity
   8
LEVEL001
 100
AcDbPoint
  62
7
  10
 50.084308129278
  20
 92.712024937583
  30
0.0
   0
ARC
   5
30B
 100
AcDbEntity
   8
LEVEL001
   6
CONTINUOUS
  62
7
 100
AcDbCircle
  10
 55.834308129278
  20
 93.712024937583
  30
0.0
  40
 1.0000000000000
 100
AcDbArc
  50
 270.00000000000
  51
0.0
   0
POINT
   5
30C
 100
AcDbEntity
   8
LEVEL001
 100
AcDbPoint
  62
7
  10
 56.834308129278
  20
 92.712024937583
  30
0.0
   0
LINE
   5
30D
 100
AcDbEntity
   8
LEVEL001
 100
AcDbLine
   6
CONTINUOUS
  62
7
  10
 55.834308129278
  20
 92.712024937583
  30
0.0
  11
 51.084308129278
  21
 92.712024937583
  31
0.0
   0
LINE
   5
30E
 100
AcDbEntity
   8
LEVEL001
 100
AcDbLine
   6
DOT
  62
2
  10
 56.584308129278
  20
 67.412024937583
  30
0.0
  11
 50.834308129278
  21
 67.412024937583
  31
0.0
   0
ARC
   5
30F
 100
AcDbEntity
   8
LEVEL001
   6
DOT
  62
2
 100
AcDbCircle
  10
 56.584308129278
  20
 67.662024937584
  30
0.0
  40
 0.25000000000000
 100
AcDbArc
  50
 270.00000000000
  51
0.0
   0
LINE
   5
310
 100
AcDbEntity
   8
LEVEL001
 100
AcDbLine
   6
DOT
  62
2
  10
 50.834308129278
  20
 67.412024937583
  30
0.0
  11
 50.834308129278
  21
 52.212024937583
  31
0.0
   0
LINE
   5
311
 100
AcDbEntity
   8
LEVEL001
 100
AcDbLine
   6
DOT
  62
2
  10
 56.584308129278
  20
 52.212024937583
  30
0.0
  11
 50.834308129278
  21
 52.212024937583
  31
0.0
   0
ARC
   5
312
 100
AcDbEntity
   8
LEVEL001
   6
CONTINUOUS
  62
7
 100
AcDbCircle
  10
 50.584308129278
  20
 68.315733735802
  30
0.0
  40
 0.50000000000000
 100
AcDbArc
  50
 158.19859051388
  51
 180.00000000026
   0
POINT
   5
313
 100
AcDbEntity
   8
LEVEL001
 100
AcDbPoint
  62
7
  10
 50.084308129278
  20
 68.412024937583
  30
0.0
   0
LINE
   5
314
 100
AcDbEntity
   8
LEVEL001
 100
AcDbLine
   6
CONTINUOUS
  62
7
  10
 52.012317371753
  20
 74.140957955094
  30
0.0
  11
 50.089149689229
  21
 93.613741270586
  31
0.0
   0
ARC
   5
315
 100
AcDbEntity
   8
LEVEL001
   6
CONTINUOUS
  62
7
 100
AcDbCircle
  10
 49.026842051605
  20
 73.846106954102
  30
0.0
  40
 3.0000000000000
 100
AcDbArc
  50
 338.19859051364
  51
 5.6403449448903
   0
POINT
   5
316
 100
AcDbEntity
   8
LEVEL001
 100
AcDbPoint
  62
7
  10
 52.084308129278
  20
 73.412024937583
  30
0.0
   0
LINE
   5
317
 100
AcDbEntity
   8
LEVEL001
 100
AcDbLine
   6
CONTINUOUS
  62
7
  10
 50.120069783836
  20
 68.501429073976
  30
0.0
  11
 51.812272124261
  21
 72.731934925040
  31
0.0
   0
ARC
   5
318
 100
AcDbEntity
   8
LEVEL001
   6
CONTINUOUS
  62
7
 100
AcDbCircle
  10
 56.334308129278
  20
 51.962024937583
  30
0.0
  40
 0.50000000000000
 100
AcDbArc
  50
 269.99999999999
  51
0.0
   0
POINT
   5
319
 100
AcDbEntity
   8
LEVEL001
 100
AcDbPoint
  62
7
  10
 56.834308129278
  20
 51.462024937583
  30
0.0
   0
LINE
   5
31A
 100
AcDbEntity
   8
LEVEL001
 100
AcDbLine
   6
CONTINUOUS
  62
7
  10
 56.334308129278
  20
 51.462024937583
  30
0.0
  11
 50.584308129278
  21
 51.462024937583
  31
0.0
   0
ARC
   5
31B
 100
AcDbEntity
   8
LEVEL001
   6
CONTINUOUS
  62
7
 100
AcDbCircle
  10
 50.584308129278
  20
 51.962024937583
  30
0.0
  40
 0.50000000000000
 100
AcDbArc
  50
 180.00000000000
  51
 270.00000000005
   0
POINT
   5
31C
 100
AcDbEntity
   8
LEVEL001
 100
AcDbPoint
  62
7
  10
 50.084308129278
  20
 51.462024937583
  30
0.0
   0
LINE
   5
31D
 100
AcDbEntity
   8
LEVEL001
 100
AcDbLine
   6
CONTINUOUS
  62
7
  10
 50.084308129278
  20
 51.962024937583
  30
0.0
  11
 50.084308129278
  21
 68.315733735799
  31
0.0
   0
LINE
   5
31E
 100
AcDbEntity
   8
LEVEL001
 100
AcDbLine
   6
CONTINUOUS
  62
7
  10
 56.834308129278
  20
 51.962024937583
  30
0.0
  11
 56.834308129278
  21
 93.962024937583
  31
0.0
   0
ARC
   5
31F
 100
AcDbEntity
   8
LEVEL001
   6
DOT
  62
2
 100
AcDbCircle
  10
 56.584308129278
  20
 51.962024937583
  30
0.0
  40
 0.25000000000000
 100
AcDbArc
  50
0.0
  51
 89.999999999902
   0
LINE
   5
320
 100
AcDbEntity
   8
LEVEL001
 100
AcDbLine
   6
CONTINUOUS
  62
7
  10
 122.73361067215
  20
 93.962024937583
  30
0.0
  11
 123.10861067215
  21
 94.712024937583
  31
0.0
   0
LINE
   5
321
 100
AcDbEntity
   8
LEVEL001
 100
AcDbLine
   6
CONTINUOUS
  62
7
  10
 123.48361067215
  20
 93.962024937583
  30
0.0
  11
 123.10861067215
  21
 94.712024937583
  31
0.0
   0
LINE
   5
322
 100
AcDbEntity
   8
LEVEL001
 100
AcDbLine
   6
CONTINUOUS
  62
7
  10
 120.60861067215
  20
 68.412024937583
  30
0.0
  11
 125.60861067215
  21
 68.412024937583
  31
0.0
   0
ARC
   5
323
 100
AcDbEntity
   8
LEVEL001
   6
CONTINUOUS
  62
7
 100
AcDbCircle
  10
 124.60861067215
  20
 93.712024937583
  30
0.0
  40
 1.0000000000000
 100
AcDbArc
  50
 270.00000000002
  51
0.0
   0
POINT
   5
324
 100
AcDbEntity
   8
LEVEL001
 100
AcDbPoint
  62
7
  10
 125.60861067215
  20
 92.712024937583
  30
0.0
   0
LINE
   5
325
 100
AcDbEntity
   8
LEVEL001
 100
AcDbLine
   6
CONTINUOUS
  62
7
  10
 121.60861067215
  20
 92.712024937583
  30
0.0
  11
 124.60861067215
  21
 92.712024937583
  31
0.0
   0
ARC
   5
326
 100
AcDbEntity
   8
LEVEL001
   6
CONTINUOUS
  62
7
 100
AcDbCircle
  10
 121.60861067215
  20
 93.712024937584
  30
0.0
  40
 1.0000000000000
 100
AcDbArc
  50
 180.00000000005
  51
 270.00000000000
   0
POINT
   5
327
 100
AcDbEntity
   8
LEVEL001
 100
AcDbPoint
  62
7
  10
 120.60861067215
  20
 92.712024937583
  30
0.0
   0
LINE
   5
328
 100
AcDbEntity
   8
LEVEL001
 100
AcDbLine
   6
DOT
  62
2
  10
 123.10861067215
  20
 86.735710965472
  30
0.0
  11
 123.93361067215
  21
 87.212024937553
  31
0.0
   0
LINE
   5
329
 100
AcDbEntity
   8
LEVEL001
 100
AcDbLine
   6
DOT
  62
2
  10
 124.10861067215
  20
 93.962024937583
  30
0.0
  11
 124.10861067215
  21
 87.962024937583
  31
0.0
   0
LINE
   5
32A
 100
AcDbEntity
   8
LEVEL001
 100
AcDbLine
   6
DOT
  62
2
  10
 123.93361067215
  20
 93.962024937583
  30
0.0
  11
 123.93361067215
  21
 87.212024937553
  31
0.0
   0
LINE
   5
32B
 100
AcDbEntity
   8
LEVEL001
 100
AcDbLine
   6
DOT
  62
2
  10
 123.93361067215
  20
 87.212024937583
  30
0.0
  11
 122.28361067215
  21
 87.212024937583
  31
0.0
   0
LINE
   5
32C
 100
AcDbEntity
   8
LEVEL001
 100
AcDbLine
   6
DOT
  62
2
  10
 124.10861067215
  20
 87.962024937583
  30
0.0
  11
 122.10861067215
  21
 87.962024937583
  31
0.0
   0
LINE
   5
32D
 100
AcDbEntity
   8
LEVEL001
 100
AcDbLine
   6
DOT
  62
2
  10
 123.10861067215
  20
 86.735710965472
  30
0.0
  11
 122.28361067215
  21
 87.212024937553
  31
0.0
   0
LINE
   5
32E
 100
AcDbEntity
   8
LEVEL001
 100
AcDbLine
   6
DOT
  62
2
  10
 122.28361067215
  20
 93.962024937583
  30
0.0
  11
 122.28361067215
  21
 87.212024937583
  31
0.0
   0
LINE
   5
32F
 100
AcDbEntity
   8
LEVEL001
 100
AcDbLine
   6
DOT
  62
2
  10
 122.10861067215
  20
 93.962024937583
  30
0.0
  11
 122.10861067215
  21
 87.962024937583
  31
0.0
   0
LINE
   5
330
 100
AcDbEntity
   8
LEVEL001
 100
AcDbLine
   6
CONTINUOUS
  62
7
  10
 125.60861067215
  20
 51.462024937583
  30
0.0
  11
 125.60861067215
  21
 93.962024937583
  31
0.0
   0
ARC
   5
331
 100
AcDbEntity
   8
LEVEL001
   6
CONTINUOUS
  62
7
 100
AcDbCircle
  10
 125.35861067215
  20
 51.462024937583
  30
0.0
  40
 0.25000000000000
 100
AcDbArc
  50
 270.00000000009
  51
0.0
   0
POINT
   5
332
 100
AcDbEntity
   8
LEVEL001
 100
AcDbPoint
  62
7
  10
 125.60861067215
  20
 51.212024937583
  30
0.0
   0
LINE
   5
333
 100
AcDbEntity
   8
LEVEL001
 100
AcDbLine
   6
CONTINUOUS
  62
7
  10
 120.85861067215
  20
 51.212024937583
  30
0.0
  11
 125.35861067215
  21
 51.212024937583
  31
0.0
   0
ARC
   5
334
 100
AcDbEntity
   8
LEVEL001
   6
CONTINUOUS
  62
7
 100
AcDbCircle
  10
 120.85861067215
  20
 51.462024937582
  30
0.0
  40
 0.25000000000000
 100
AcDbArc
  50
 179.99999999979
  51
 270.00000000000
   0
POINT
   5
335
 100
AcDbEntity
   8
LEVEL001
 100
AcDbPoint
  62
7
  10
 120.60861067215
  20
 51.212024937583
  30
0.0
   0
LINE
   5
336
 100
AcDbEntity
   8
LEVEL001
 100
AcDbLine
   6
CONTINUOUS
  62
7
  10
 120.60861067215
  20
 51.462024937583
  30
0.0
  11
 120.60861067215
  21
 93.962024937583
  31
0.0
   0
LINE
   5
337
 100
AcDbEntity
   8
LEVEL001
 100
AcDbLine
   6
CONTINUOUS
  62
2
  10
 120.60861067215
  20
 60.507024937583
  30
0.0
  11
 125.60861067215
  21
 60.507024937583
  31
0.0
   0
LINE
   5
338
 100
AcDbEntity
   8
LEVEL001
 100
AcDbLine
   6
CONTINUOUS
  62
2
  10
 120.60861067215
  20
 61.897024937583
  30
0.0
  11
 125.60861067215
  21
 61.897024937583
  31
0.0
   0
LINE
   5
339
 100
AcDbEntity
   8
LEVEL001
 100
AcDbLine
   6
CONTINUOUS
  62
2
  10
 120.60861067215
  20
 63.287024937583
  30
0.0
  11
 125.60861067215
  21
 63.287024937583
  31
0.0
   0
LINE
   5
33A
 100
AcDbEntity
   8
LEVEL001
 100
AcDbLine
   6
CONTINUOUS
  62
2
  10
 120.60861067215
  20
 56.337024937583
  30
0.0
  11
 125.60861067215
  21
 56.337024937583
  31
0.0
   0
LINE
   5
33B
 100
AcDbEntity
   8
LEVEL001
 100
AcDbLine
   6
CONTINUOUS
  62
2
  10
 120.60861067215
  20
 57.727024937583
  30
0.0
  11
 125.60861067215
  21
 57.727024937583
  31
0.0
   0
LINE
   5
33C
 100
AcDbEntity
   8
LEVEL001
 100
AcDbLine
   6
CONTINUOUS
  62
2
  10
 120.60861067215
  20
 59.117024937583
  30
0.0
  11
 125.60861067215
  21
 59.117024937583
  31
0.0
   0
LINE
   5
33D
 100
AcDbEntity
   8
LEVEL001
 100
AcDbLine
   6
CONTINUOUS
  62
7
  10
 189.38291321502
  20
 68.412024937583
  30
0.0
  11
 195.63291321502
  21
 68.412024937583
  31
0.0
   0
ARC
   5
33E
 100
AcDbEntity
   8
LEVEL001
   6
CONTINUOUS
  62
7
 100
AcDbCircle
  10
 195.63291321502
  20
 67.912024937583
  30
0.0
  40
 0.50000000000000
 100
AcDbArc
  50
 0.13027551975275E-10
  51
 90.000000000000
   0
LINE
   5
33F
 100
AcDbEntity
   8
LEVEL001
 100
AcDbLine
   6
CONTINUOUS
  62
7
  10
 192.38291321502
  20
 93.962024937583
  30
0.0
  11
 192.75791321502
  21
 94.712024937583
  31
0.0
   0
LINE
   5
340
 100
AcDbEntity
   8
LEVEL001
 100
AcDbLine
   6
CONTINUOUS
  62
7
  10
 193.13291321502
  20
 93.962024937583
  30
0.0
  11
 192.75791321502
  21
 94.712024937583
  31
0.0
   0
LINE
   5
341
 100
AcDbEntity
   8
LEVEL001
 100
AcDbLine
   6
DOT
  62
2
  10
 192.75791321502
  20
 86.735710965472
  30
0.0
  11
 193.58291321502
  21
 87.212024937553
  31
0.0
   0
LINE
   5
342
 100
AcDbEntity
   8
LEVEL001
 100
AcDbLine
   6
DOT
  62
2
  10
 192.75791321502
  20
 87.212024937583
  30
0.0
  11
 193.58291321502
  21
 87.212024937583
  31
0.0
   0
LINE
   5
343
 100
AcDbEntity
   8
LEVEL001
 100
AcDbLine
   6
DOT
  62
2
  10
 193.75791321502
  20
 93.962024937583
  30
0.0
  11
 193.75791321502
  21
 87.962024937583
  31
0.0
   0
LINE
   5
344
 100
AcDbEntity
   8
LEVEL001
 100
AcDbLine
   6
DOT
  62
2
  10
 193.58291321502
  20
 93.962024937583
  30
0.0
  11
 193.58291321502
  21
 87.212024937583
  31
0.0
   0
LINE
   5
345
 100
AcDbEntity
   8
LEVEL001
 100
AcDbLine
   6
DOT
  62
2
  10
 193.75791321502
  20
 87.962024937583
  30
0.0
  11
 191.75791321502
  21
 87.962024937583
  31
0.0
   0
LINE
   5
346
 100
AcDbEntity
   8
LEVEL001
 100
AcDbLine
   6
DOT
  62
2
  10
 192.75791321502
  20
 86.735710965472
  30
0.0
  11
 191.93291321502
  21
 87.212024937553
  31
0.0
   0
LINE
   5
347
 100
AcDbEntity
   8
LEVEL001
 100
AcDbLine
   6
DOT
  62
2
  10
 192.75791321502
  20
 87.212024937583
  30
0.0
  11
 191.93291321502
  21
 87.212024937583
  31
0.0
   0
LINE
   5
348
 100
AcDbEntity
   8
LEVEL001
 100
AcDbLine
   6
DOT
  62
2
  10
 191.93291321502
  20
 93.962024937583
  30
0.0
  11
 191.93291321502
  21
 87.212024937583
  31
0.0
   0
LINE
   5
349
 100
AcDbEntity
   8
LEVEL001
 100
AcDbLine
   6
DOT
  62
2
  10
 191.75791321502
  20
 93.962024937583
  30
0.0
  11
 191.75791321502
  21
 87.962024937583
  31
0.0
   0
LINE
   5
34A
 100
AcDbEntity
   8
LEVEL001
 100
AcDbLine
   6
CONTINUOUS
  62
7
  10
 196.13291321502
  20
 93.712024937583
  30
0.0
  11
 196.13291321502
  21
 93.962024937583
  31
0.0
   0
ARC
   5
34B
 100
AcDbEntity
   8
LEVEL001
   6
CONTINUOUS
  62
7
 100
AcDbCircle
  10
 195.13291321502
  20
 93.712024937583
  30
0.0
  40
 1.0000000000000
 100
AcDbArc
  50
 269.99999999998
  51
0.0
   0
POINT
   5
34C
 100
AcDbEntity
   8
LEVEL001
 100
AcDbPoint
  62
7
  10
 196.13291321502
  20
 92.712024937583
  30
0.0
   0
ARC
   5
34D
 100
AcDbEntity
   8
LEVEL001
   6
CONTINUOUS
  62
7
 100
AcDbCircle
  10
 190.38291321502
  20
 93.712024937583
  30
0.0
  40
 1.0000000000000
 100
AcDbArc
  50
 180.00000000000
  51
 270.00000000000
   0
POINT
   5
34E
 100
AcDbEntity
   8
LEVEL001
 100
AcDbPoint
  62
7
  10
 189.38291321502
  20
 92.712024937583
  30
0.0
   0
LINE
   5
34F
 100
AcDbEntity
   8
LEVEL001
 100
AcDbLine
   6
CONTINUOUS
  62
7
  10
 190.38291321502
  20
 92.712024937583
  30
0.0
  11
 195.13291321502
  21
 92.712024937583
  31
0.0
   0
LINE
   5
350
 100
AcDbEntity
   8
LEVEL001
 100
AcDbLine
   6
DOT
  62
2
  10
 189.63291321502
  20
 67.412024937583
  30
0.0
  11
 195.38291321502
  21
 67.412024937583
  31
0.0
   0
ARC
   5
351
 100
AcDbEntity
   8
LEVEL001
   6
DOT
  62
2
 100
AcDbCircle
  10
 189.63291321502
  20
 67.662024937584
  30
0.0
  40
 0.25000000000000
 100
AcDbArc
  50
 180.00000000018
  51
 270.00000000000
   0
LINE
   5
352
 100
AcDbEntity
   8
LEVEL001
 100
AcDbLine
   6
DOT
  62
2
  10
 195.38291321502
  20
 67.412024937583
  30
0.0
  11
 195.38291321502
  21
 52.212024937583
  31
0.0
   0
LINE
   5
353
 100
AcDbEntity
   8
LEVEL001
 100
AcDbLine
   6
DOT
  62
2
  10
 189.63291321502
  20
 52.212024937583
  30
0.0
  11
 195.38291321502
  21
 52.212024937583
  31
0.0
   0
ARC
   5
354
 100
AcDbEntity
   8
LEVEL001
   6
CONTINUOUS
  62
7
 100
AcDbCircle
  10
 195.63291321502
  20
 68.315733735802
  30
0.0
  40
 0.50000000000000
 100
AcDbArc
  50
0.0
  51
 21.801409486115
   0
POINT
   5
355
 100
AcDbEntity
   8
LEVEL001
 100
AcDbPoint
  62
7
  10
 196.13291321502
  20
 68.412024937583
  30
0.0
   0
LINE
   5
356
 100
AcDbEntity
   8
LEVEL001
 100
AcDbLine
   6
CONTINUOUS
  62
7
  10
 194.20490397255
  20
 74.140957955094
  30
0.0
  11
 196.12807165507
  21
 93.613741270586
  31
0.0
   0
ARC
   5
357
 100
AcDbEntity
   8
LEVEL001
   6
CONTINUOUS
  62
7
 100
AcDbCircle
  10
 197.19037929269
  20
 73.846106954102
  30
0.0
  40
 3.0000000000000
 100
AcDbArc
  50
 174.35965505511
  51
 201.80140948636
   0
POINT
   5
358
 100
AcDbEntity
   8
LEVEL001
 100
AcDbPoint
  62
7
  10
 194.13291321502
  20
 73.412024937583
  30
0.0
   0
LINE
   5
359
 100
AcDbEntity
   8
LEVEL001
 100
AcDbLine
   6
CONTINUOUS
  62
7
  10
 196.09715156046
  20
 68.501429073976
  30
0.0
  11
 194.40494922004
  21
 72.731934925040
  31
0.0
   0
ARC
   5
35A
 100
AcDbEntity
   8
LEVEL001
   6
CONTINUOUS
  62
7
 100
AcDbCircle
  10
 189.88291321502
  20
 51.962024937583
  30
0.0
  40
 0.50000000000000
 100
AcDbArc
  50
 180.00000000000
  51
 270.00000000001
   0
POINT
   5
35B
 100
AcDbEntity
   8
LEVEL001
 100
AcDbPoint
  62
7
  10
 189.38291321502
  20
 51.462024937583
  30
0.0
   0
LINE
   5
35C
 100
AcDbEntity
   8
LEVEL001
 100
AcDbLine
   6
CONTINUOUS
  62
7
  10
 189.88291321502
  20
 51.462024937583
  30
0.0
  11
 195.63291321502
  21
 51.462024937583
  31
0.0
   0
ARC
   5
35D
 100
AcDbEntity
   8
LEVEL001
   6
CONTINUOUS
  62
7
 100
AcDbCircle
  10
 195.63291321502
  20
 51.962024937583
  30
0.0
  40
 0.50000000000000
 100
AcDbArc
  50
 269.99999999995
  51
0.0
   0
POINT
   5
35E
 100
AcDbEntity
   8
LEVEL001
 100
AcDbPoint
  62
7
  10
 196.13291321502
  20
 51.462024937583
  30
0.0
   0
LINE
   5
35F
 100
AcDbEntity
   8
LEVEL001
 100
AcDbLine
   6
CONTINUOUS
  62
7
  10
 196.13291321502
  20
 51.962024937583
  30
0.0
  11
 196.13291321502
  21
 68.315733735799
  31
0.0
   0
LINE
   5
360
 100
AcDbEntity
   8
LEVEL001
 100
AcDbLine
   6
CONTINUOUS
  62
7
  10
 189.38291321502
  20
 51.962024937583
  30
0.0
  11
 189.38291321502
  21
 93.962024937583
  31
0.0
   0
ARC
   5
361
 100
AcDbEntity
   8
LEVEL001
   6
DOT
  62
2
 100
AcDbCircle
  10
 189.63291321502
  20
 51.962024937583
  30
0.0
  40
 0.25000000000000
 100
AcDbArc
  50
 90.000000000098
  51
 180.00000000000
   0
POLYLINE
   5
362
 100
AcDbEntity
   8
LEVEL001
   6
DIVIDE
  62
3
 100
AcDb2dPolyline
  66
1
  10
0.0
  20
0.0
  30
0.0
  70
0
   0
VERTEX
   5
363
 100
AcDbEntity
   8
LEVEL001
   6
DIVIDE
  62
3
 100
AcDbVertex
 100
AcDb2dVertex
  10
 155.43778699422
  20
 69.066227599325
  30
0.0
   0
VERTEX
   5
364
 100
AcDbEntity
   8
LEVEL001
   6
DIVIDE
  62
3
 100
AcDbVertex
 100
AcDb2dVertex
  10
 155.43778699422
  20
 69.066227599325
  30
0.0
   0
VERTEX
   5
365
 100
AcDbEntity
   8
LEVEL001
   6
DIVIDE
  62
3
 100
AcDbVertex
 100
AcDb2dVertex
  10
 155.32205995517
  20
 68.888650056129
  30
0.0
   0
VERTEX
   5
366
 100
AcDbEntity
   8
LEVEL001
   6
DIVIDE
  62
3
 100
AcDbVertex
 100
AcDb2dVertex
  10
 155.20659773616
  20
 68.711014965498
  30
0.0
   0
VERTEX
   5
367
 100
AcDbEntity
   8
LEVEL001
   6
DIVIDE
  62
3
 100
AcDbVertex
 100
AcDb2dVertex
  10
 155.09166515725
  20
 68.533264780002
  30
0.0
   0
VERTEX
   5
368
 100
AcDbEntity
   8
LEVEL001
   6
DIVIDE
  62
3
 100
AcDbVertex
 100
AcDb2dVertex
  10
 154.97752703847
  20
 68.355341952206
  30
0.0
   0
VERTEX
   5
369
 100
AcDbEntity
   8
LEVEL001
   6
DIVIDE
  62
3
 100
AcDbVertex
 100
AcDb2dVertex
  10
 154.86444819988
  20
 68.177188934679
  30
0.0
   0
VERTEX
   5
36A
 100
AcDbEntity
   8
LEVEL001
   6
DIVIDE
  62
3
 100
AcDbVertex
 100
AcDb2dVertex
  10
 154.75269346152
  20
 67.998748179986
  30
0.0
   0
VERTEX
   5
36B
 100
AcDbEntity
   8
LEVEL001
   6
DIVIDE
  62
3
 100
AcDbVertex
 100
AcDb2dVertex
  10
 154.64252764343
  20
 67.819962140694
  30
0.0
   0
VERTEX
   5
36C
 100
AcDbEntity
   8
LEVEL001
   6
DIVIDE
  62
3
 100
AcDbVertex
 100
AcDb2dVertex
  10
 154.53421556566
  20
 67.640773269371
  30
0.0
   0
VERTEX
   5
36D
 100
AcDbEntity
   8
LEVEL001
   6
DIVIDE
  62
3
 100
AcDbVertex
 100
AcDb2dVertex
  10
 154.42802204826
  20
 67.461124018584
  30
0.0
   0
VERTEX
   5
36E
 100
AcDbEntity
   8
LEVEL001
   6
DIVIDE
  62
3
 100
AcDbVertex
 100
AcDb2dVertex
  10
 154.32421191127
  20
 67.280956840899
  30
0.0
   0
VERTEX
   5
36F
 100
AcDbEntity
   8
LEVEL001
   6
DIVIDE
  62
3
 100
AcDbVertex
 100
AcDb2dVertex
  10
 154.22304997474
  20
 67.100214188884
  30
0.0
   0
VERTEX
   5
370
 100
AcDbEntity
   8
LEVEL001
   6
DIVIDE
  62
3
 100
AcDbVertex
 100
AcDb2dVertex
  10
 154.12480105871
  20
 66.918838515106
  30
0.0
   0
VERTEX
   5
371
 100
AcDbEntity
   8
LEVEL001
   6
DIVIDE
  62
3
 100
AcDbVertex
 100
AcDb2dVertex
  10
 154.02972998323
  20
 66.736772272131
  30
0.0
   0
VERTEX
   5
372
 100
AcDbEntity
   8
LEVEL001
   6
DIVIDE
  62
3
 100
AcDbVertex
 100
AcDb2dVertex
  10
 153.93810156835
  20
 66.553957912526
  30
0.0
   0
VERTEX
   5
373
 100
AcDbEntity
   8
LEVEL001
   6
DIVIDE
  62
3
 100
AcDbVertex
 100
AcDb2dVertex
  10
 153.76623200056
  20
 66.185854653696
  30
0.0
   0
VERTEX
   5
374
 100
AcDbEntity
   8
LEVEL001
   6
DIVIDE
  62
3
 100
AcDbVertex
 100
AcDb2dVertex
  10
 153.76623200056
  20
 66.185854653696
  30
0.0
   0
VERTEX
   5
375
 100
AcDbEntity
   8
LEVEL001
   6
DIVIDE
  62
3
 100
AcDbVertex
 100
AcDb2dVertex
  10
 153.68652048773
  20
 66.000450659605
  30
0.0
   0
VERTEX
   5
376
 100
AcDbEntity
   8
LEVEL001
   6
DIVIDE
  62
3
 100
AcDbVertex
 100
AcDb2dVertex
  10
 153.61131091569
  20
 65.814068359151
  30
0.0
   0
VERTEX
   5
377
 100
AcDbEntity
   8
LEVEL001
   6
DIVIDE
  62
3
 100
AcDbVertex
 100
AcDb2dVertex
  10
 153.54086810448
  20
 65.626650204904
  30
0.0
   0
VERTEX
   5
378
 100
AcDbEntity
   8
LEVEL001
   6
DIVIDE
  62
3
 100
AcDbVertex
 100
AcDb2dVertex
  10
 153.47545687413
  20
 65.438138649428
  30
0.0
   0
VERTEX
   5
379
 100
AcDbEntity
   8
LEVEL001
   6
DIVIDE
  62
3
 100
AcDbVertex
 100
AcDb2dVertex
  10
 153.41534204470
  20
 65.248476145292
  30
0.0
   0
VERTEX
   5
37A
 100
AcDbEntity
   8
LEVEL001
   6
DIVIDE
  62
3
 100
AcDbVertex
 100
AcDb2dVertex
  10
 153.36078843623
  20
 65.057605145061
  30
0.0
   0
VERTEX
   5
37B
 100
AcDbEntity
   8
LEVEL001
   6
DIVIDE
  62
3
 100
AcDbVertex
 100
AcDb2dVertex
  10
 153.31206086877
  20
 64.865468101305
  30
0.0
   0
VERTEX
   5
37C
 100
AcDbEntity
   8
LEVEL001
   6
DIVIDE
  62
3
 100
AcDbVertex
 100
AcDb2dVertex
  10
 153.26942416237
  20
 64.672007466588
  30
0.0
   0
VERTEX
   5
37D
 100
AcDbEntity
   8
LEVEL001
   6
DIVIDE
  62
3
 100
AcDbVertex
 100
AcDb2dVertex
  10
 153.23314313706
  20
 64.477165693478
  30
0.0
   0
VERTEX
   5
37E
 100
AcDbEntity
   8
LEVEL001
   6
DIVIDE
  62
3
 100
AcDbVertex
 100
AcDb2dVertex
  10
 153.20348261290
  20
 64.280885234542
  30
0.0
   0
VERTEX
   5
37F
 100
AcDbEntity
   8
LEVEL001
   6
DIVIDE
  62
3
 100
AcDbVertex
 100
AcDb2dVertex
  10
 153.18070740994
  20
 64.083108542348
  30
0.0
   0
VERTEX
   5
380
 100
AcDbEntity
   8
LEVEL001
   6
DIVIDE
  62
3
 100
AcDbVertex
 100
AcDb2dVertex
  10
 153.16508234820
  20
 63.883778069461
  30
0.0
   0
VERTEX
   5
381
 100
AcDbEntity
   8
LEVEL001
   6
DIVIDE
  62
3
 100
AcDbVertex
 100
AcDb2dVertex
  10
 153.15687224776
  20
 63.682836268450
  30
0.0
   0
VERTEX
   5
382
 100
AcDbEntity
   8
LEVEL001
   6
DIVIDE
  62
3
 100
AcDbVertex
 100
AcDb2dVertex
  10
 153.15634192864
  20
 63.480225591880
  30
0.0
   0
VERTEX
   5
383
 100
AcDbEntity
   8
LEVEL001
   6
DIVIDE
  62
3
 100
AcDbVertex
 100
AcDb2dVertex
  10
 153.17937991457
  20
 63.069767422334
  30
0.0
   0
VERTEX
   5
384
 100
AcDbEntity
   8
LEVEL001
   6
DIVIDE
  62
3
 100
AcDbVertex
 100
AcDb2dVertex
  10
 153.17937991457
  20
 63.069767422334
  30
0.0
   0
VERTEX
   5
385
 100
AcDbEntity
   8
LEVEL001
   6
DIVIDE
  62
3
 100
AcDbVertex
 100
AcDb2dVertex
  10
 153.23518496751
  20
 62.652061331842
  30
0.0
   0
VERTEX
   5
386
 100
AcDbEntity
   8
LEVEL001
   6
DIVIDE
  62
3
 100
AcDbVertex
 100
AcDb2dVertex
  10
 153.32022615350
  20
 62.227237693350
  30
0.0
   0
VERTEX
   5
387
 100
AcDbEntity
   8
LEVEL001
   6
DIVIDE
  62
3
 100
AcDbVertex
 100
AcDb2dVertex
  10
 153.42984263975
  20
 61.795545030284
  30
0.0
   0
VERTEX
   5
388
 100
AcDbEntity
   8
LEVEL001
   6
DIVIDE
  62
3
 100
AcDbVertex
 100
AcDb2dVertex
  10
 153.55937359345
  20
 61.357231866072
  30
0.0
   0
VERTEX
   5
389
 100
AcDbEntity
   8
LEVEL001
   6
DIVIDE
  62
3
 100
AcDbVertex
 100
AcDb2dVertex
  10
 153.70415818179
  20
 60.912546724143
  30
0.0
   0
VERTEX
   5
38A
 100
AcDbEntity
   8
LEVEL001
   6
DIVIDE
  62
3
 100
AcDbVertex
 100
AcDb2dVertex
  10
 153.85953557196
  20
 60.461738127924
  30
0.0
   0
VERTEX
   5
38B
 100
AcDbEntity
   8
LEVEL001
   6
DIVIDE
  62
3
 100
AcDbVertex
 100
AcDb2dVertex
  10
 154.02084493115
  20
 60.005054600842
  30
0.0
   0
VERTEX
   5
38C
 100
AcDbEntity
   8
LEVEL001
   6
DIVIDE
  62
3
 100
AcDbVertex
 100
AcDb2dVertex
  10
 154.18342542657
  20
 59.542744666325
  30
0.0
   0
VERTEX
   5
38D
 100
AcDbEntity
   8
LEVEL001
   6
DIVIDE
  62
3
 100
AcDbVertex
 100
AcDb2dVertex
  10
 154.34261622540
  20
 59.075056847800
  30
0.0
   0
VERTEX
   5
38E
 100
AcDbEntity
   8
LEVEL001
   6
DIVIDE
  62
3
 100
AcDbVertex
 100
AcDb2dVertex
  10
 154.49375649484
  20
 58.602239668696
  30
0.0
   0
VERTEX
   5
38F
 100
AcDbEntity
   8
LEVEL001
   6
DIVIDE
  62
3
 100
AcDbVertex
 100
AcDb2dVertex
  10
 154.63218540208
  20
 58.124541652439
  30
0.0
   0
VERTEX
   5
390
 100
AcDbEntity
   8
LEVEL001
   6
DIVIDE
  62
3
 100
AcDbVertex
 100
AcDb2dVertex
  10
 154.75324211431
  20
 57.642211322458
  30
0.0
   0
VERTEX
   5
391
 100
AcDbEntity
   8
LEVEL001
   6
DIVIDE
  62
3
 100
AcDbVertex
 100
AcDb2dVertex
  10
 154.85226579873
  20
 57.155497202180
  30
0.0
   0
VERTEX
   5
392
 100
AcDbEntity
   8
LEVEL001
   6
DIVIDE
  62
3
 100
AcDbVertex
 100
AcDb2dVertex
  10
 154.92459562253
  20
 56.664647815032
  30
0.0
   0
VERTEX
   5
393
 100
AcDbEntity
   8
LEVEL001
   6
DIVIDE
  62
3
 100
AcDbVertex
 100
AcDb2dVertex
  10
 154.97053035705
  20
 55.671537333839
  30
0.0
   0
VERTEX
   5
394
 100
AcDbEntity
   8
LEVEL001
   6
DIVIDE
  62
3
 100
AcDbVertex
 100
AcDb2dVertex
  10
 154.97053035705
  20
 55.671537333839
  30
0.0
   0
VERTEX
   5
395
 100
AcDbEntity
   8
LEVEL001
   6
DIVIDE
  62
3
 100
AcDbVertex
 100
AcDb2dVertex
  10
 154.94166131078
  20
 55.222920518584
  30
0.0
   0
VERTEX
   5
396
 100
AcDbEntity
   8
LEVEL001
   6
DIVIDE
  62
3
 100
AcDbVertex
 100
AcDb2dVertex
  10
 154.88314391090
  20
 54.773409348989
  30
0.0
   0
VERTEX
   5
397
 100
AcDbEntity
   8
LEVEL001
   6
DIVIDE
  62
3
 100
AcDbVertex
 100
AcDb2dVertex
  10
 154.79791033679
  20
 54.324829543704
  30
0.0
   0
VERTEX
   5
398
 100
AcDbEntity
   8
LEVEL001
   6
DIVIDE
  62
3
 100
AcDbVertex
 100
AcDb2dVertex
  10
 154.68889276778
  20
 53.879006821374
  30
0.0
   0
VERTEX
   5
399
 100
AcDbEntity
   8
LEVEL001
   6
DIVIDE
  62
3
 100
AcDbVertex
 100
AcDb2dVertex
  10
 154.55902338323
  20
 53.437766900648
  30
0.0
   0
VERTEX
   5
39A
 100
AcDbEntity
   8
LEVEL001
   6
DIVIDE
  62
3
 100
AcDbVertex
 100
AcDb2dVertex
  10
 154.41123436249
  20
 53.002935500175
  30
0.0
   0
VERTEX
   5
39B
 100
AcDbEntity
   8
LEVEL001
   6
DIVIDE
  62
3
 100
AcDbVertex
 100
AcDb2dVertex
  10
 154.24845788493
  20
 52.576338338601
  30
0.0
   0
VERTEX
   5
39C
 100
AcDbEntity
   8
LEVEL001
   6
DIVIDE
  62
3
 100
AcDbVertex
 100
AcDb2dVertex
  10
 154.07362612989
  20
 52.159801134574
  30
0.0
   0
VERTEX
   5
39D
 100
AcDbEntity
   8
LEVEL001
   6
DIVIDE
  62
3
 100
AcDbVertex
 100
AcDb2dVertex
  10
 153.88967127672
  20
 51.755149606743
  30
0.0
   0
VERTEX
   5
39E
 100
AcDbEntity
   8
LEVEL001
   6
DIVIDE
  62
3
 100
AcDbVertex
 100
AcDb2dVertex
  10
 153.69952550478
  20
 51.364209473755
  30
0.0
   0
VERTEX
   5
39F
 100
AcDbEntity
   8
LEVEL001
   6
DIVIDE
  62
3
 100
AcDbVertex
 100
AcDb2dVertex
  10
 153.50612099343
  20
 50.988806454258
  30
0.0
   0
VERTEX
   5
3A0
 100
AcDbEntity
   8
LEVEL001
   6
DIVIDE
  62
3
 100
AcDbVertex
 100
AcDb2dVertex
  10
 153.31238992201
  20
 50.630766266900
  30
0.0
   0
VERTEX
   5
3A1
 100
AcDbEntity
   8
LEVEL001
   6
DIVIDE
  62
3
 100
AcDbVertex
 100
AcDb2dVertex
  10
 153.12126446988
  20
 50.291914630328
  30
0.0
   0
VERTEX
   5
3A2
 100
AcDbEntity
   8
LEVEL001
   6
DIVIDE
  62
3
 100
AcDbVertex
 100
AcDb2dVertex
  10
 152.93567681639
  20
 49.974077263191
  30
0.0
   0
VERTEX
   5
3A3
 100
AcDbEntity
   8
LEVEL001
   6
DIVIDE
  62
3
 100
AcDbVertex
 100
AcDb2dVertex
  10
 152.59284362277
  20
 49.408748211811
  30
0.0
   0
SEQEND
   5
3A4
 100
AcDbEntity
   8
LEVEL001
   6
DIVIDE
  62
3
   0
LINE
   5
3A5
 100
AcDbEntity
   8
LEVEL001
 100
AcDbLine
   6
CONTINUOUS
  62
15
  10
 125.60861067215
  20
 63.287024937583
  30
0.0
  11
 153.16314545545
  21
 63.287024937584
  31
0.0
   0
LINE
   5
3A6
 100
AcDbEntity
   8
LEVEL001
 100
AcDbLine
   6
CONTINUOUS
  62
15
  10
 125.60861067215
  20
 61.897024937583
  30
0.0
  11
 153.40227275971
  21
 61.897024937583
  31
0.0
   0
LINE
   5
3A7
 100
AcDbEntity
   8
LEVEL001
 100
AcDbLine
   6
CONTINUOUS
  62
15
  10
 125.60861067215
  20
 60.507024937582
  30
0.0
  11
 153.84367585752
  21
 60.507024937582
  31
0.0
   0
LINE
   5
3A8
 100
AcDbEntity
   8
LEVEL001
 100
AcDbLine
   6
CONTINUOUS
  62
15
  10
 125.60861067215
  20
 59.117024937584
  30
0.0
  11
 154.32866192070
  21
 59.117024937584
  31
0.0
   0
LINE
   5
3A9
 100
AcDbEntity
   8
LEVEL001
 100
AcDbLine
   6
CONTINUOUS
  62
15
  10
 125.60861067215
  20
 57.727024937583
  30
0.0
  11
 154.73349641932
  21
 57.727024937583
  31
0.0
   0
LINE
   5
3AA
 100
AcDbEntity
   8
LEVEL001
 100
AcDbLine
   6
CONTINUOUS
  62
15
  10
 125.60861067215
  20
 56.337024937583
  30
0.0
  11
 154.95555584855
  21
 56.337024937583
  31
0.0
   0
LINE
   5
3AB
 100
AcDbEntity
   8
LEVEL001
 100
AcDbLine
   6
CONTINUOUS
  62
7
  10
 125.60861067215
  20
 67.312024937583
  30
0.0
  11
 154.34190886934
  21
 67.312024937576
  31
0.0
   0
LINE
   5
3AC
 100
AcDbEntity
   8
LEVEL001
 100
AcDbLine
   6
CONTINUOUS
  62
15
  10
 125.60861067215
  20
 67.255054011378
  30
0.0
  11
 154.30952454632
  21
 67.255054011371
  31
0.0
   0
LINE
   5
3AD
 100
AcDbEntity
   8
LEVEL001
 100
AcDbLine
   6
CONTINUOUS
  62
15
  10
 125.60861067215
  20
 67.085872265530
  30
0.0
  11
 154.21515852389
  21
 67.085872265521
  31
0.0
   0
LINE
   5
3AE
 100
AcDbEntity
   8
LEVEL001
 100
AcDbLine
   6
CONTINUOUS
  62
15
  10
 125.60861067215
  20
 66.809620201775
  30
0.0
  11
 154.06732624854
  21
 66.809620201764
  31
0.0
   0
LINE
   5
3AF
 100
AcDbEntity
   8
LEVEL001
 100
AcDbLine
   6
CONTINUOUS
  62
15
  10
 125.60861067215
  20
 66.434691599280
  30
0.0
  11
 153.88051060621
  21
 66.434691599265
  31
0.0
   0
LINE
   5
3B0
 100
AcDbEntity
   8
LEVEL001
 100
AcDbLine
   6
CONTINUOUS
  62
15
  10
 125.60861067215
  20
 65.437024937583
  30
0.0
  11
 153.47508702325
  21
 65.437024937583
  31
0.0
   0
LINE
   5
3B1
 100
AcDbEntity
   8
LEVEL001
 100
AcDbLine
   6
CONTINUOUS
  62
15
  10
 125.60861067215
  20
 65.972478473908
  30
0.0
  11
 153.67491311638
  21
 65.972478473908
  31
0.0
   0
LINE
   5
3B2
 100
AcDbEntity
   8
LEVEL001
 100
AcDbLine
   6
CONTINUOUS
  62
15
  10
 125.60861067215
  20
 64.887189535259
  30
0.0
  11
 153.32538645824
  21
 64.887189535259
  31
0.0
   0
LINE
   5
3B3
 100
AcDbEntity
   8
LEVEL001
 100
AcDbLine
   6
CONTINUOUS
  62
15
  10
 125.60861067215
  20
 53.651571401258
  30
0.0
  11
 154.62457408949
  21
 53.651571401258
  31
0.0
   0
LINE
   5
3B4
 100
AcDbEntity
   8
LEVEL001
 100
AcDbLine
   6
CONTINUOUS
  62
15
  10
 125.60861067215
  20
 54.187024937583
  30
0.0
  11
 154.76670488200
  21
 54.187024937583
  31
0.0
   0
LINE
   5
3B5
 100
AcDbEntity
   8
LEVEL001
 100
AcDbLine
   6
CONTINUOUS
  62
15
  10
 125.60861067215
  20
 52.814429673391
  30
0.0
  11
 154.34140692211
  21
 52.814429673391
  31
0.0
   0
LINE
   5
3B6
 100
AcDbEntity
   8
LEVEL001
 100
AcDbLine
   6
CONTINUOUS
  62
7
  10
 125.60861067215
  20
 52.312024937583
  30
0.0
  11
 154.13927551637
  21
 52.312024937583
  31
0.0
   0
LINE
   5
3B7
 100
AcDbEntity
   8
LEVEL001
 100
AcDbLine
   6
CONTINUOUS
  62
15
  10
 125.60861067215
  20
 52.368995863788
  30
0.0
  11
 154.16333034062
  21
 52.368995863788
  31
0.0
   0
LINE
   5
3B8
 100
AcDbEntity
   8
LEVEL001
 100
AcDbLine
   6
CONTINUOUS
  62
15
  10
 125.60861067215
  20
 52.538177609636
  30
0.0
  11
 154.23307865865
  21
 52.538177609636
  31
0.0
   0
LINE
   5
3B9
 100
AcDbEntity
   8
LEVEL001
 100
AcDbLine
   6
CONTINUOUS
  62
15
  10
 125.60861067215
  20
 53.189358275886
  30
0.0
  11
 154.47691095195
  21
 53.189358275886
  31
0.0
   0
LINE
   5
3BA
 100
AcDbEntity
   8
LEVEL001
 100
AcDbLine
   6
CONTINUOUS
  62
15
  10
 125.60861067215
  20
 54.736860339907
  30
0.0
  11
 154.87156175364
  21
 54.736860339907
  31
0.0
   0
POLYLINE
   5
3BB
 100
AcDbEntity
   8
LEVEL001
   6
DIVIDE
  62
3
 100
AcDb2dPolyline
  66
1
  10
0.0
  20
0.0
  30
0.0
  70
0
   0
VERTEX
   5
3BC
 100
AcDbEntity
   8
LEVEL001
   6
DIVIDE
  62
3
 100
AcDbVertex
 100
AcDb2dVertex
  10
 158.52975684017
  20
 69.066227599325
  30
0.0
   0
VERTEX
   5
3BD
 100
AcDbEntity
   8
LEVEL001
   6
DIVIDE
  62
3
 100
AcDbVertex
 100
AcDb2dVertex
  10
 158.52975684017
  20
 69.066227599325
  30
0.0
   0
VERTEX
   5
3BE
 100
AcDbEntity
   8
LEVEL001
   6
DIVIDE
  62
3
 100
AcDbVertex
 100
AcDb2dVertex
  10
 158.41402980112
  20
 68.888650056129
  30
0.0
   0
VERTEX
   5
3BF
 100
AcDbEntity
   8
LEVEL001
   6
DIVIDE
  62
3
 100
AcDbVertex
 100
AcDb2dVertex
  10
 158.29856758211
  20
 68.711014965498
  30
0.0
   0
VERTEX
   5
3C0
 100
AcDbEntity
   8
LEVEL001
   6
DIVIDE
  62
3
 100
AcDbVertex
 100
AcDb2dVertex
  10
 158.18363500320
  20
 68.533264780002
  30
0.0
   0
VERTEX
   5
3C1
 100
AcDbEntity
   8
LEVEL001
   6
DIVIDE
  62
3
 100
AcDbVertex
 100
AcDb2dVertex
  10
 158.06949688443
  20
 68.355341952206
  30
0.0
   0
VERTEX
   5
3C2
 100
AcDbEntity
   8
LEVEL001
   6
DIVIDE
  62
3
 100
AcDbVertex
 100
AcDb2dVertex
  10
 157.95641804583
  20
 68.177188934679
  30
0.0
   0
VERTEX
   5
3C3
 100
AcDbEntity
   8
LEVEL001
   6
DIVIDE
  62
3
 100
AcDbVertex
 100
AcDb2dVertex
  10
 157.84466330747
  20
 67.998748179986
  30
0.0
   0
VERTEX
   5
3C4
 100
AcDbEntity
   8
LEVEL001
   6
DIVIDE
  62
3
 100
AcDbVertex
 100
AcDb2dVertex
  10
 157.73449748938
  20
 67.819962140694
  30
0.0
   0
VERTEX
   5
3C5
 100
AcDbEntity
   8
LEVEL001
   6
DIVIDE
  62
3
 100
AcDbVertex
 100
AcDb2dVertex
  10
 157.62618541161
  20
 67.640773269371
  30
0.0
   0
VERTEX
   5
3C6
 100
AcDbEntity
   8
LEVEL001
   6
DIVIDE
  62
3
 100
AcDbVertex
 100
AcDb2dVertex
  10
 157.51999189421
  20
 67.461124018584
  30
0.0
   0
VERTEX
   5
3C7
 100
AcDbEntity
   8
LEVEL001
   6
DIVIDE
  62
3
 100
AcDbVertex
 100
AcDb2dVertex
  10
 157.41618175722
  20
 67.280956840899
  30
0.0
   0
VERTEX
   5
3C8
 100
AcDbEntity
   8
LEVEL001
   6
DIVIDE
  62
3
 100
AcDbVertex
 100
AcDb2dVertex
  10
 157.31501982069
  20
 67.100214188884
  30
0.0
   0
VERTEX
   5
3C9
 100
AcDbEntity
   8
LEVEL001
   6
DIVIDE
  62
3
 100
AcDbVertex
 100
AcDb2dVertex
  10
 157.21677090466
  20
 66.918838515106
  30
0.0
   0
VERTEX
   5
3CA
 100
AcDbEntity
   8
LEVEL001
   6
DIVIDE
  62
3
 100
AcDbVertex
 100
AcDb2dVertex
  10
 157.12169982918
  20
 66.736772272131
  30
0.0
   0
VERTEX
   5
3CB
 100
AcDbEntity
   8
LEVEL001
   6
DIVIDE
  62
3
 100
AcDbVertex
 100
AcDb2dVertex
  10
 157.03007141430
  20
 66.553957912526
  30
0.0
   0
VERTEX
   5
3CC
 100
AcDbEntity
   8
LEVEL001
   6
DIVIDE
  62
3
 100
AcDbVertex
 100
AcDb2dVertex
  10
 156.85820184651
  20
 66.185854653696
  30
0.0
   0
VERTEX
   5
3CD
 100
AcDbEntity
   8
LEVEL001
   6
DIVIDE
  62
3
 100
AcDbVertex
 100
AcDb2dVertex
  10
 156.85820184651
  20
 66.185854653696
  30
0.0
   0
VERTEX
   5
3CE
 100
AcDbEntity
   8
LEVEL001
   6
DIVIDE
  62
3
 100
AcDbVertex
 100
AcDb2dVertex
  10
 156.77849033369
  20
 66.000450659605
  30
0.0
   0
VERTEX
   5
3CF
 100
AcDbEntity
   8
LEVEL001
   6
DIVIDE
  62
3
 100
AcDbVertex
 100
AcDb2dVertex
  10
 156.70328076165
  20
 65.814068359151
  30
0.0
   0
VERTEX
   5
3D0
 100
AcDbEntity
   8
LEVEL001
   6
DIVIDE
  62
3
 100
AcDbVertex
 100
AcDb2dVertex
  10
 156.63283795043
  20
 65.626650204904
  30
0.0
   0
VERTEX
   5
3D1
 100
AcDbEntity
   8
LEVEL001
   6
DIVIDE
  62
3
 100
AcDbVertex
 100
AcDb2dVertex
  10
 156.56742672008
  20
 65.438138649428
  30
0.0
   0
VERTEX
   5
3D2
 100
AcDbEntity
   8
LEVEL001
   6
DIVIDE
  62
3
 100
AcDbVertex
 100
AcDb2dVertex
  10
 156.50731189065
  20
 65.248476145292
  30
0.0
   0
VERTEX
   5
3D3
 100
AcDbEntity
   8
LEVEL001
   6
DIVIDE
  62
3
 100
AcDbVertex
 100
AcDb2dVertex
  10
 156.45275828219
  20
 65.057605145061
  30
0.0
   0
VERTEX
   5
3D4
 100
AcDbEntity
   8
LEVEL001
   6
DIVIDE
  62
3
 100
AcDbVertex
 100
AcDb2dVertex
  10
 156.40403071473
  20
 64.865468101305
  30
0.0
   0
VERTEX
   5
3D5
 100
AcDbEntity
   8
LEVEL001
   6
DIVIDE
  62
3
 100
AcDbVertex
 100
AcDb2dVertex
  10
 156.36139400832
  20
 64.672007466588
  30
0.0
   0
VERTEX
   5
3D6
 100
AcDbEntity
   8
LEVEL001
   6
DIVIDE
  62
3
 100
AcDbVertex
 100
AcDb2dVertex
  10
 156.32511298302
  20
 64.477165693478
  30
0.0
   0
VERTEX
   5
3D7
 100
AcDbEntity
   8
LEVEL001
   6
DIVIDE
  62
3
 100
AcDbVertex
 100
AcDb2dVertex
  10
 156.29545245886
  20
 64.280885234542
  30
0.0
   0
VERTEX
   5
3D8
 100
AcDbEntity
   8
LEVEL001
   6
DIVIDE
  62
3
 100
AcDbVertex
 100
AcDb2dVertex
  10
 156.27267725589
  20
 64.083108542348
  30
0.0
   0
VERTEX
   5
3D9
 100
AcDbEntity
   8
LEVEL001
   6
DIVIDE
  62
3
 100
AcDbVertex
 100
AcDb2dVertex
  10
 156.25705219416
  20
 63.883778069461
  30
0.0
   0
VERTEX
   5
3DA
 100
AcDbEntity
   8
LEVEL001
   6
DIVIDE
  62
3
 100
AcDbVertex
 100
AcDb2dVertex
  10
 156.24884209371
  20
 63.682836268450
  30
0.0
   0
VERTEX
   5
3DB
 100
AcDbEntity
   8
LEVEL001
   6
DIVIDE
  62
3
 100
AcDbVertex
 100
AcDb2dVertex
  10
 156.24831177459
  20
 63.480225591880
  30
0.0
   0
VERTEX
   5
3DC
 100
AcDbEntity
   8
LEVEL001
   6
DIVIDE
  62
3
 100
AcDbVertex
 100
AcDb2dVertex
  10
 156.27134976052
  20
 63.069767422334
  30
0.0
   0
VERTEX
   5
3DD
 100
AcDbEntity
   8
LEVEL001
   6
DIVIDE
  62
3
 100
AcDbVertex
 100
AcDb2dVertex
  10
 156.27134976052
  20
 63.069767422334
  30
0.0
   0
VERTEX
   5
3DE
 100
AcDbEntity
   8
LEVEL001
   6
DIVIDE
  62
3
 100
AcDbVertex
 100
AcDb2dVertex
  10
 156.32715481346
  20
 62.652061331842
  30
0.0
   0
VERTEX
   5
3DF
 100
AcDbEntity
   8
LEVEL001
   6
DIVIDE
  62
3
 100
AcDbVertex
 100
AcDb2dVertex
  10
 156.41219599946
  20
 62.227237693350
  30
0.0
   0
VERTEX
   5
3E0
 100
AcDbEntity
   8
LEVEL001
   6
DIVIDE
  62
3
 100
AcDbVertex
 100
AcDb2dVertex
  10
 156.52181248571
  20
 61.795545030284
  30
0.0
   0
VERTEX
   5
3E1
 100
AcDbEntity
   8
LEVEL001
   6
DIVIDE
  62
3
 100
AcDbVertex
 100
AcDb2dVertex
  10
 156.65134343940
  20
 61.357231866072
  30
0.0
   0
VERTEX
   5
3E2
 100
AcDbEntity
   8
LEVEL001
   6
DIVIDE
  62
3
 100
AcDbVertex
 100
AcDb2dVertex
  10
 156.79612802774
  20
 60.912546724143
  30
0.0
   0
VERTEX
   5
3E3
 100
AcDbEntity
   8
LEVEL001
   6
DIVIDE
  62
3
 100
AcDbVertex
 100
AcDb2dVertex
  10
 156.95150541791
  20
 60.461738127924
  30
0.0
   0
VERTEX
   5
3E4
 100
AcDbEntity
   8
LEVEL001
   6
DIVIDE
  62
3
 100
AcDbVertex
 100
AcDb2dVertex
  10
 157.11281477711
  20
 60.005054600842
  30
0.0
   0
VERTEX
   5
3E5
 100
AcDbEntity
   8
LEVEL001
   6
DIVIDE
  62
3
 100
AcDbVertex
 100
AcDb2dVertex
  10
 157.27539527252
  20
 59.542744666325
  30
0.0
   0
VERTEX
   5
3E6
 100
AcDbEntity
   8
LEVEL001
   6
DIVIDE
  62
3
 100
AcDbVertex
 100
AcDb2dVertex
  10
 157.43458607135
  20
 59.075056847800
  30
0.0
   0
VERTEX
   5
3E7
 100
AcDbEntity
   8
LEVEL001
   6
DIVIDE
  62
3
 100
AcDbVertex
 100
AcDb2dVertex
  10
 157.58572634079
  20
 58.602239668696
  30
0.0
   0
VERTEX
   5
3E8
 100
AcDbEntity
   8
LEVEL001
   6
DIVIDE
  62
3
 100
AcDbVertex
 100
AcDb2dVertex
  10
 157.72415524803
  20
 58.124541652439
  30
0.0
   0
VERTEX
   5
3E9
 100
AcDbEntity
   8
LEVEL001
   6
DIVIDE
  62
3
 100
AcDbVertex
 100
AcDb2dVertex
  10
 157.84521196026
  20
 57.642211322458
  30
0.0
   0
VERTEX
   5
3EA
 100
AcDbEntity
   8
LEVEL001
   6
DIVIDE
  62
3
 100
AcDbVertex
 100
AcDb2dVertex
  10
 157.94423564468
  20
 57.155497202180
  30
0.0
   0
VERTEX
   5
3EB
 100
AcDbEntity
   8
LEVEL001
   6
DIVIDE
  62
3
 100
AcDbVertex
 100
AcDb2dVertex
  10
 158.01656546848
  20
 56.664647815032
  30
0.0
   0
VERTEX
   5
3EC
 100
AcDbEntity
   8
LEVEL001
   6
DIVIDE
  62
3
 100
AcDbVertex
 100
AcDb2dVertex
  10
 158.06250020300
  20
 55.671537333839
  30
0.0
   0
VERTEX
   5
3ED
 100
AcDbEntity
   8
LEVEL001
   6
DIVIDE
  62
3
 100
AcDbVertex
 100
AcDb2dVertex
  10
 158.06250020300
  20
 55.671537333839
  30
0.0
   0
VERTEX
   5
3EE
 100
AcDbEntity
   8
LEVEL001
   6
DIVIDE
  62
3
 100
AcDbVertex
 100
AcDb2dVertex
  10
 158.03363115673
  20
 55.222920518584
  30
0.0
   0
VERTEX
   5
3EF
 100
AcDbEntity
   8
LEVEL001
   6
DIVIDE
  62
3
 100
AcDbVertex
 100
AcDb2dVertex
  10
 157.97511375686
  20
 54.773409348989
  30
0.0
   0
VERTEX
   5
3F0
 100
AcDbEntity
   8
LEVEL001
   6
DIVIDE
  62
3
 100
AcDbVertex
 100
AcDb2dVertex
  10
 157.88988018274
  20
 54.324829543704
  30
0.0
   0
VERTEX
   5
3F1
 100
AcDbEntity
   8
LEVEL001
   6
DIVIDE
  62
3
 100
AcDbVertex
 100
AcDb2dVertex
  10
 157.78086261373
  20
 53.879006821374
  30
0.0
   0
VERTEX
   5
3F2
 100
AcDbEntity
   8
LEVEL001
   6
DIVIDE
  62
3
 100
AcDbVertex
 100
AcDb2dVertex
  10
 157.65099322918
  20
 53.437766900648
  30
0.0
   0
VERTEX
   5
3F3
 100
AcDbEntity
   8
LEVEL001
   6
DIVIDE
  62
3
 100
AcDbVertex
 100
AcDb2dVertex
  10
 157.50320420845
  20
 53.002935500175
  30
0.0
   0
VERTEX
   5
3F4
 100
AcDbEntity
   8
LEVEL001
   6
DIVIDE
  62
3
 100
AcDbVertex
 100
AcDb2dVertex
  10
 157.34042773088
  20
 52.576338338601
  30
0.0
   0
VERTEX
   5
3F5
 100
AcDbEntity
   8
LEVEL001
   6
DIVIDE
  62
3
 100
AcDbVertex
 100
AcDb2dVertex
  10
 157.16559597584
  20
 52.159801134574
  30
0.0
   0
VERTEX
   5
3F6
 100
AcDbEntity
   8
LEVEL001
   6
DIVIDE
  62
3
 100
AcDbVertex
 100
AcDb2dVertex
  10
 156.98164112267
  20
 51.755149606743
  30
0.0
   0
VERTEX
   5
3F7
 100
AcDbEntity
   8
LEVEL001
   6
DIVIDE
  62
3
 100
AcDbVertex
 100
AcDb2dVertex
  10
 156.79149535073
  20
 51.364209473755
  30
0.0
   0
VERTEX
   5
3F8
 100
AcDbEntity
   8
LEVEL001
   6
DIVIDE
  62
3
 100
AcDbVertex
 100
AcDb2dVertex
  10
 156.59809083938
  20
 50.988806454258
  30
0.0
   0
VERTEX
   5
3F9
 100
AcDbEntity
   8
LEVEL001
   6
DIVIDE
  62
3
 100
AcDbVertex
 100
AcDb2dVertex
  10
 156.40435976796
  20
 50.630766266900
  30
0.0
   0
VERTEX
   5
3FA
 100
AcDbEntity
   8
LEVEL001
   6
DIVIDE
  62
3
 100
AcDbVertex
 100
AcDb2dVertex
  10
 156.21323431583
  20
 50.291914630328
  30
0.0
   0
VERTEX
   5
3FB
 100
AcDbEntity
   8
LEVEL001
   6
DIVIDE
  62
3
 100
AcDbVertex
 100
AcDb2dVertex
  10
 156.02764666234
  20
 49.974077263191
  30
0.0
   0
VERTEX
   5
3FC
 100
AcDbEntity
   8
LEVEL001
   6
DIVIDE
  62
3
 100
AcDbVertex
 100
AcDb2dVertex
  10
 155.68481346872
  20
 49.408748211811
  30
0.0
   0
SEQEND
   5
3FD
 100
AcDbEntity
   8
LEVEL001
   6
DIVIDE
  62
3
   0
LINE
   5
3FE
 100
AcDbEntity
   8
LEVEL001
 100
AcDbLine
   6
CONTINUOUS
  62
15
  10
 189.38291321502
  20
 67.085872265530
  30
0.0
  11
 157.30712836984
  21
 67.085872265521
  31
0.0
   0
LINE
   5
3FF
 100
AcDbEntity
   8
LEVEL001
 100
AcDbLine
   6
CONTINUOUS
  62
15
  10
 189.38291321502
  20
 67.255054011378
  30
0.0
  11
 157.40149439228
  21
 67.255054011371
  31
0.0
   0
LINE
   5
400
 100
AcDbEntity
   8
LEVEL001
 100
AcDbLine
   6
CONTINUOUS
  62
15
  10
 189.38291321502
  20
 66.434691599280
  30
0.0
  11
 156.97248045217
  21
 66.434691599265
  31
0.0
   0
LINE
   5
401
 100
AcDbEntity
   8
LEVEL001
 100
AcDbLine
   6
CONTINUOUS
  62
7
  10
 189.38291321502
  20
 67.312024937583
  30
0.0
  11
 157.43387871530
  21
 67.312024937576
  31
0.0
   0
LINE
   5
402
 100
AcDbEntity
   8
LEVEL001
 100
AcDbLine
   6
CONTINUOUS
  62
15
  10
 189.38291321502
  20
 66.809620201775
  30
0.0
  11
 157.15929609449
  21
 66.809620201764
  31
0.0
   0
LINE
   5
403
 100
AcDbEntity
   8
LEVEL001
 100
AcDbLine
   6
CONTINUOUS
  62
15
  10
 189.38291321502
  20
 65.972478473908
  30
0.0
  11
 156.76688296233
  21
 65.972478473908
  31
0.0
   0
LINE
   5
404
 100
AcDbEntity
   8
LEVEL001
 100
AcDbLine
   6
CONTINUOUS
  62
15
  10
 189.38291321502
  20
 64.887189535259
  30
0.0
  11
 156.40922328039
  21
 64.887189535259
  31
0.0
   0
LINE
   5
405
 100
AcDbEntity
   8
LEVEL001
 100
AcDbLine
   6
CONTINUOUS
  62
15
  10
 189.38291321502
  20
 65.437024937583
  30
0.0
  11
 156.56705686920
  21
 65.437024937583
  31
0.0
   0
LINE
   5
406
 100
AcDbEntity
   8
LEVEL001
 100
AcDbLine
   6
CONTINUOUS
  62
15
  10
 189.38291321502
  20
 63.287024937583
  30
0.0
  11
 156.25511530140
  21
 63.287024937584
  31
0.0
   0
LINE
   5
407
 100
AcDbEntity
   8
LEVEL001
 100
AcDbLine
   6
CONTINUOUS
  62
15
  10
 189.38291321502
  20
 61.897024937583
  30
0.0
  11
 156.49424260566
  21
 61.897024937583
  31
0.0
   0
LINE
   5
408
 100
AcDbEntity
   8
LEVEL001
 100
AcDbLine
   6
CONTINUOUS
  62
15
  10
 189.38291321502
  20
 60.507024937582
  30
0.0
  11
 156.93564570347
  21
 60.507024937582
  31
0.0
   0
LINE
   5
409
 100
AcDbEntity
   8
LEVEL001
 100
AcDbLine
   6
CONTINUOUS
  62
15
  10
 189.38291321502
  20
 59.117024937584
  30
0.0
  11
 157.42063176665
  21
 59.117024937584
  31
0.0
   0
LINE
   5
40A
 100
AcDbEntity
   8
LEVEL001
 100
AcDbLine
   6
CONTINUOUS
  62
15
  10
 189.38291321502
  20
 57.727024937583
  30
0.0
  11
 157.82546626527
  21
 57.727024937583
  31
0.0
   0
LINE
   5
40B
 100
AcDbEntity
   8
LEVEL001
 100
AcDbLine
   6
CONTINUOUS
  62
15
  10
 189.38291321502
  20
 56.337024937583
  30
0.0
  11
 158.04752569450
  21
 56.337024937583
  31
0.0
   0
LINE
   5
40C
 100
AcDbEntity
   8
LEVEL001
 100
AcDbLine
   6
CONTINUOUS
  62
15
  10
 189.38291321502
  20
 54.736860339907
  30
0.0
  11
 157.96913918190
  21
 54.736860339907
  31
0.0
   0
LINE
   5
40D
 100
AcDbEntity
   8
LEVEL001
 100
AcDbLine
   6
CONTINUOUS
  62
15
  10
 189.38291321502
  20
 54.187024937583
  30
0.0
  11
 157.85867472795
  21
 54.187024937583
  31
0.0
   0
LINE
   5
40E
 100
AcDbEntity
   8
LEVEL001
 100
AcDbLine
   6
CONTINUOUS
  62
15
  10
 189.38291321502
  20
 53.189358275886
  30
0.0
  11
 157.56888079790
  21
 53.189358275901
  31
0.0
   0
LINE
   5
40F
 100
AcDbEntity
   8
LEVEL001
 100
AcDbLine
   6
CONTINUOUS
  62
15
  10
 189.38291321502
  20
 52.814429673391
  30
0.0
  11
 157.43337676806
  21
 52.814429673402
  31
0.0
   0
LINE
   5
410
 100
AcDbEntity
   8
LEVEL001
 100
AcDbLine
   6
CONTINUOUS
  62
15
  10
 189.38291321502
  20
 52.538177609636
  30
0.0
  11
 157.32504850460
  21
 52.538177609645
  31
0.0
   0
LINE
   5
411
 100
AcDbEntity
   8
LEVEL001
 100
AcDbLine
   6
CONTINUOUS
  62
15
  10
 189.38291321502
  20
 52.368995863788
  30
0.0
  11
 157.25530018657
  21
 52.368995863795
  31
0.0
   0
LINE
   5
412
 100
AcDbEntity
   8
LEVEL001
 100
AcDbLine
   6
CONTINUOUS
  62
15
  10
 189.38291321502
  20
 53.651571401258
  30
0.0
  11
 157.71654393544
  21
 53.651571401258
  31
0.0
   0
LINE
   5
413
 100
AcDbEntity
   8
LEVEL001
 100
AcDbLine
   6
CONTINUOUS
  62
7
  10
 189.38291321502
  20
 52.312024937583
  30
0.0
  11
 157.23124536233
  21
 52.312024937589
  31
0.0
   0
POLYLINE
   5
414
 100
AcDbEntity
   8
LEVEL001
   6
DIVIDE
  62
3
 100
AcDb2dPolyline
  66
1
  10
0.0
  20
0.0
  30
0.0
  70
0
   0
VERTEX
   5
415
 100
AcDbEntity
   8
LEVEL001
   6
DIVIDE
  62
3
 100
AcDbVertex
 100
AcDb2dVertex
  10
 86.663484451345
  20
 69.066227599325
  30
0.0
   0
VERTEX
   5
416
 100
AcDbEntity
   8
LEVEL001
   6
DIVIDE
  62
3
 100
AcDbVertex
 100
AcDb2dVertex
  10
 86.663484451345
  20
 69.066227599325
  30
0.0
   0
VERTEX
   5
417
 100
AcDbEntity
   8
LEVEL001
   6
DIVIDE
  62
3
 100
AcDbVertex
 100
AcDb2dVertex
  10
 86.547757412295
  20
 68.888650056129
  30
0.0
   0
VERTEX
   5
418
 100
AcDbEntity
   8
LEVEL001
   6
DIVIDE
  62
3
 100
AcDbVertex
 100
AcDb2dVertex
  10
 86.432295193291
  20
 68.711014965498
  30
0.0
   0
VERTEX
   5
419
 100
AcDbEntity
   8
LEVEL001
   6
DIVIDE
  62
3
 100
AcDbVertex
 100
AcDb2dVertex
  10
 86.317362614378
  20
 68.533264780002
  30
0.0
   0
VERTEX
   5
41A
 100
AcDbEntity
   8
LEVEL001
   6
DIVIDE
  62
3
 100
AcDbVertex
 100
AcDb2dVertex
  10
 86.203224495602
  20
 68.355341952206
  30
0.0
   0
VERTEX
   5
41B
 100
AcDbEntity
   8
LEVEL001
   6
DIVIDE
  62
3
 100
AcDbVertex
 100
AcDb2dVertex
  10
 86.090145657010
  20
 68.177188934679
  30
0.0
   0
VERTEX
   5
41C
 100
AcDbEntity
   8
LEVEL001
   6
DIVIDE
  62
3
 100
AcDbVertex
 100
AcDb2dVertex
  10
 85.978390918646
  20
 67.998748179986
  30
0.0
   0
VERTEX
   5
41D
 100
AcDbEntity
   8
LEVEL001
   6
DIVIDE
  62
3
 100
AcDbVertex
 100
AcDb2dVertex
  10
 85.868225100557
  20
 67.819962140694
  30
0.0
   0
VERTEX
   5
41E
 100
AcDbEntity
   8
LEVEL001
   6
DIVIDE
  62
3
 100
AcDbVertex
 100
AcDb2dVertex
  10
 85.759913022789
  20
 67.640773269371
  30
0.0
   0
VERTEX
   5
41F
 100
AcDbEntity
   8
LEVEL001
   6
DIVIDE
  62
3
 100
AcDbVertex
 100
AcDb2dVertex
  10
 85.653719505387
  20
 67.461124018584
  30
0.0
   0
VERTEX
   5
420
 100
AcDbEntity
   8
LEVEL001
   6
DIVIDE
  62
3
 100
AcDbVertex
 100
AcDb2dVertex
  10
 85.549909368397
  20
 67.280956840899
  30
0.0
   0
VERTEX
   5
421
 100
AcDbEntity
   8
LEVEL001
   6
DIVIDE
  62
3
 100
AcDbVertex
 100
AcDb2dVertex
  10
 85.448747431866
  20
 67.100214188884
  30
0.0
   0
VERTEX
   5
422
 100
AcDbEntity
   8
LEVEL001
   6
DIVIDE
  62
3
 100
AcDbVertex
 100
AcDb2dVertex
  10
 85.350498515838
  20
 66.918838515106
  30
0.0
   0
VERTEX
   5
423
 100
AcDbEntity
   8
LEVEL001
   6
DIVIDE
  62
3
 100
AcDbVertex
 100
AcDb2dVertex
  10
 85.255427440360
  20
 66.736772272131
  30
0.0
   0
VERTEX
   5
424
 100
AcDbEntity
   8
LEVEL001
   6
DIVIDE
  62
3
 100
AcDbVertex
 100
AcDb2dVertex
  10
 85.163799025478
  20
 66.553957912526
  30
0.0
   0
VERTEX
   5
425
 100
AcDbEntity
   8
LEVEL001
   6
DIVIDE
  62
3
 100
AcDbVertex
 100
AcDb2dVertex
  10
 84.991929457684
  20
 66.185854653696
  30
0.0
   0
VERTEX
   5
426
 100
AcDbEntity
   8
LEVEL001
   6
DIVIDE
  62
3
 100
AcDbVertex
 100
AcDb2dVertex
  10
 84.991929457684
  20
 66.185854653696
  30
0.0
   0
VERTEX
   5
427
 100
AcDbEntity
   8
LEVEL001
   6
DIVIDE
  62
3
 100
AcDbVertex
 100
AcDb2dVertex
  10
 84.912217944863
  20
 66.000450659605
  30
0.0
   0
VERTEX
   5
428
 100
AcDbEntity
   8
LEVEL001
   6
DIVIDE
  62
3
 100
AcDbVertex
 100
AcDb2dVertex
  10
 84.837008372822
  20
 65.814068359151
  30
0.0
   0
VERTEX
   5
429
 100
AcDbEntity
   8
LEVEL001
   6
DIVIDE
  62
3
 100
AcDbVertex
 100
AcDb2dVertex
  10
 84.766565561605
  20
 65.626650204904
  30
0.0
   0
VERTEX
   5
42A
 100
AcDbEntity
   8
LEVEL001
   6
DIVIDE
  62
3
 100
AcDbVertex
 100
AcDb2dVertex
  10
 84.701154331259
  20
 65.438138649428
  30
0.0
   0
VERTEX
   5
42B
 100
AcDbEntity
   8
LEVEL001
   6
DIVIDE
  62
3
 100
AcDbVertex
 100
AcDb2dVertex
  10
 84.641039501829
  20
 65.248476145292
  30
0.0
   0
VERTEX
   5
42C
 100
AcDbEntity
   8
LEVEL001
   6
DIVIDE
  62
3
 100
AcDbVertex
 100
AcDb2dVertex
  10
 84.586485893362
  20
 65.057605145061
  30
0.0
   0
VERTEX
   5
42D
 100
AcDbEntity
   8
LEVEL001
   6
DIVIDE
  62
3
 100
AcDbVertex
 100
AcDb2dVertex
  10
 84.537758325903
  20
 64.865468101305
  30
0.0
   0
VERTEX
   5
42E
 100
AcDbEntity
   8
LEVEL001
   6
DIVIDE
  62
3
 100
AcDbVertex
 100
AcDb2dVertex
  10
 84.495121619498
  20
 64.672007466588
  30
0.0
   0
VERTEX
   5
42F
 100
AcDbEntity
   8
LEVEL001
   6
DIVIDE
  62
3
 100
AcDbVertex
 100
AcDb2dVertex
  10
 84.458840594192
  20
 64.477165693478
  30
0.0
   0
VERTEX
   5
430
 100
AcDbEntity
   8
LEVEL001
   6
DIVIDE
  62
3
 100
AcDbVertex
 100
AcDb2dVertex
  10
 84.429180070032
  20
 64.280885234542
  30
0.0
   0
VERTEX
   5
431
 100
AcDbEntity
   8
LEVEL001
   6
DIVIDE
  62
3
 100
AcDbVertex
 100
AcDb2dVertex
  10
 84.406404867064
  20
 64.083108542348
  30
0.0
   0
VERTEX
   5
432
 100
AcDbEntity
   8
LEVEL001
   6
DIVIDE
  62
3
 100
AcDbVertex
 100
AcDb2dVertex
  10
 84.390779805333
  20
 63.883778069461
  30
0.0
   0
VERTEX
   5
433
 100
AcDbEntity
   8
LEVEL001
   6
DIVIDE
  62
3
 100
AcDbVertex
 100
AcDb2dVertex
  10
 84.382569704885
  20
 63.682836268450
  30
0.0
   0
VERTEX
   5
434
 100
AcDbEntity
   8
LEVEL001
   6
DIVIDE
  62
3
 100
AcDbVertex
 100
AcDb2dVertex
  10
 84.382039385766
  20
 63.480225591880
  30
0.0
   0
VERTEX
   5
435
 100
AcDbEntity
   8
LEVEL001
   6
DIVIDE
  62
3
 100
AcDbVertex
 100
AcDb2dVertex
  10
 84.405077371699
  20
 63.069767422334
  30
0.0
   0
VERTEX
   5
436
 100
AcDbEntity
   8
LEVEL001
   6
DIVIDE
  62
3
 100
AcDbVertex
 100
AcDb2dVertex
  10
 84.405077371699
  20
 63.069767422334
  30
0.0
   0
VERTEX
   5
437
 100
AcDbEntity
   8
LEVEL001
   6
DIVIDE
  62
3
 100
AcDbVertex
 100
AcDb2dVertex
  10
 84.460882424635
  20
 62.652061331842
  30
0.0
   0
VERTEX
   5
438
 100
AcDbEntity
   8
LEVEL001
   6
DIVIDE
  62
3
 100
AcDbVertex
 100
AcDb2dVertex
  10
 84.545923610632
  20
 62.227237693350
  30
0.0
   0
VERTEX
   5
439
 100
AcDbEntity
   8
LEVEL001
   6
DIVIDE
  62
3
 100
AcDbVertex
 100
AcDb2dVertex
  10
 84.655540096882
  20
 61.795545030284
  30
0.0
   0
VERTEX
   5
43A
 100
AcDbEntity
   8
LEVEL001
   6
DIVIDE
  62
3
 100
AcDbVertex
 100
AcDb2dVertex
  10
 84.785071050578
  20
 61.357231866072
  30
0.0
   0
VERTEX
   5
43B
 100
AcDbEntity
   8
LEVEL001
   6
DIVIDE
  62
3
 100
AcDbVertex
 100
AcDb2dVertex
  10
 84.929855638915
  20
 60.912546724143
  30
0.0
   0
VERTEX
   5
43C
 100
AcDbEntity
   8
LEVEL001
   6
DIVIDE
  62
3
 100
AcDbVertex
 100
AcDb2dVertex
  10
 85.085233029085
  20
 60.461738127924
  30
0.0
   0
VERTEX
   5
43D
 100
AcDbEntity
   8
LEVEL001
   6
DIVIDE
  62
3
 100
AcDbVertex
 100
AcDb2dVertex
  10
 85.246542388282
  20
 60.005054600842
  30
0.0
   0
VERTEX
   5
43E
 100
AcDbEntity
   8
LEVEL001
   6
DIVIDE
  62
3
 100
AcDbVertex
 100
AcDb2dVertex
  10
 85.409122883700
  20
 59.542744666325
  30
0.0
   0
VERTEX
   5
43F
 100
AcDbEntity
   8
LEVEL001
   6
DIVIDE
  62
3
 100
AcDbVertex
 100
AcDb2dVertex
  10
 85.568313682531
  20
 59.075056847800
  30
0.0
   0
VERTEX
   5
440
 100
AcDbEntity
   8
LEVEL001
   6
DIVIDE
  62
3
 100
AcDbVertex
 100
AcDb2dVertex
  10
 85.719453951969
  20
 58.602239668696
  30
0.0
   0
VERTEX
   5
441
 100
AcDbEntity
   8
LEVEL001
   6
DIVIDE
  62
3
 100
AcDbVertex
 100
AcDb2dVertex
  10
 85.857882859208
  20
 58.124541652439
  30
0.0
   0
VERTEX
   5
442
 100
AcDbEntity
   8
LEVEL001
   6
DIVIDE
  62
3
 100
AcDbVertex
 100
AcDb2dVertex
  10
 85.978939571440
  20
 57.642211322458
  30
0.0
   0
VERTEX
   5
443
 100
AcDbEntity
   8
LEVEL001
   6
DIVIDE
  62
3
 100
AcDbVertex
 100
AcDb2dVertex
  10
 86.077963255860
  20
 57.155497202180
  30
0.0
   0
VERTEX
   5
444
 100
AcDbEntity
   8
LEVEL001
   6
DIVIDE
  62
3
 100
AcDbVertex
 100
AcDb2dVertex
  10
 86.150293079660
  20
 56.664647815032
  30
0.0
   0
VERTEX
   5
445
 100
AcDbEntity
   8
LEVEL001
   6
DIVIDE
  62
3
 100
AcDbVertex
 100
AcDb2dVertex
  10
 86.196227814177
  20
 55.671537333839
  30
0.0
   0
VERTEX
   5
446
 100
AcDbEntity
   8
LEVEL001
   6
DIVIDE
  62
3
 100
AcDbVertex
 100
AcDb2dVertex
  10
 86.196227814177
  20
 55.671537333839
  30
0.0
   0
VERTEX
   5
447
 100
AcDbEntity
   8
LEVEL001
   6
DIVIDE
  62
3
 100
AcDbVertex
 100
AcDb2dVertex
  10
 86.167358767904
  20
 55.222920518584
  30
0.0
   0
VERTEX
   5
448
 100
AcDbEntity
   8
LEVEL001
   6
DIVIDE
  62
3
 100
AcDbVertex
 100
AcDb2dVertex
  10
 86.108841368032
  20
 54.773409348989
  30
0.0
   0
VERTEX
   5
449
 100
AcDbEntity
   8
LEVEL001
   6
DIVIDE
  62
3
 100
AcDbVertex
 100
AcDb2dVertex
  10
 86.023607793915
  20
 54.324829543704
  30
0.0
   0
VERTEX
   5
44A
 100
AcDbEntity
   8
LEVEL001
   6
DIVIDE
  62
3
 100
AcDbVertex
 100
AcDb2dVertex
  10
 85.914590224905
  20
 53.879006821374
  30
0.0
   0
VERTEX
   5
44B
 100
AcDbEntity
   8
LEVEL001
   6
DIVIDE
  62
3
 100
AcDbVertex
 100
AcDb2dVertex
  10
 85.784720840357
  20
 53.437766900648
  30
0.0
   0
VERTEX
   5
44C
 100
AcDbEntity
   8
LEVEL001
   6
DIVIDE
  62
3
 100
AcDbVertex
 100
AcDb2dVertex
  10
 85.636931819623
  20
 53.002935500175
  30
0.0
   0
VERTEX
   5
44D
 100
AcDbEntity
   8
LEVEL001
   6
DIVIDE
  62
3
 100
AcDbVertex
 100
AcDb2dVertex
  10
 85.474155342058
  20
 52.576338338601
  30
0.0
   0
VERTEX
   5
44E
 100
AcDbEntity
   8
LEVEL001
   6
DIVIDE
  62
3
 100
AcDbVertex
 100
AcDb2dVertex
  10
 85.299323587015
  20
 52.159801134574
  30
0.0
   0
VERTEX
   5
44F
 100
AcDbEntity
   8
LEVEL001
   6
DIVIDE
  62
3
 100
AcDbVertex
 100
AcDb2dVertex
  10
 85.115368733848
  20
 51.755149606743
  30
0.0
   0
VERTEX
   5
450
 100
AcDbEntity
   8
LEVEL001
   6
DIVIDE
  62
3
 100
AcDbVertex
 100
AcDb2dVertex
  10
 84.925222961910
  20
 51.364209473755
  30
0.0
   0
VERTEX
   5
451
 100
AcDbEntity
   8
LEVEL001
   6
DIVIDE
  62
3
 100
AcDbVertex
 100
AcDb2dVertex
  10
 84.731818450555
  20
 50.988806454258
  30
0.0
   0
VERTEX
   5
452
 100
AcDbEntity
   8
LEVEL001
   6
DIVIDE
  62
3
 100
AcDbVertex
 100
AcDb2dVertex
  10
 84.538087379136
  20
 50.630766266900
  30
0.0
   0
VERTEX
   5
453
 100
AcDbEntity
   8
LEVEL001
   6
DIVIDE
  62
3
 100
AcDbVertex
 100
AcDb2dVertex
  10
 84.346961927007
  20
 50.291914630328
  30
0.0
   0
VERTEX
   5
454
 100
AcDbEntity
   8
LEVEL001
   6
DIVIDE
  62
3
 100
AcDbVertex
 100
AcDb2dVertex
  10
 84.161374273521
  20
 49.974077263191
  30
0.0
   0
VERTEX
   5
455
 100
AcDbEntity
   8
LEVEL001
   6
DIVIDE
  62
3
 100
AcDbVertex
 100
AcDb2dVertex
  10
 83.818541079894
  20
 49.408748211811
  30
0.0
   0
SEQEND
   5
456
 100
AcDbEntity
   8
LEVEL001
   6
DIVIDE
  62
3
   0
LINE
   5
457
 100
AcDbEntity
   8
LEVEL001
 100
AcDbLine
   6
CONTINUOUS
  62
15
  10
 56.834308129278
  20
 63.287024937583
  30
0.0
  11
 84.388842912578
  21
 63.287024937584
  31
0.0
   0
LINE
   5
458
 100
AcDbEntity
   8
LEVEL001
 100
AcDbLine
   6
CONTINUOUS
  62
15
  10
 56.834308129278
  20
 61.897024937583
  30
0.0
  11
 84.627970216836
  21
 61.897024937583
  31
0.0
   0
LINE
   5
459
 100
AcDbEntity
   8
LEVEL001
 100
AcDbLine
   6
CONTINUOUS
  62
15
  10
 56.834308129278
  20
 60.507024937582
  30
0.0
  11
 85.069373314646
  21
 60.507024937582
  31
0.0
   0
LINE
   5
45A
 100
AcDbEntity
   8
LEVEL001
 100
AcDbLine
   6
CONTINUOUS
  62
15
  10
 56.834308129278
  20
 59.117024937584
  30
0.0
  11
 85.554359377824
  21
 59.117024937584
  31
0.0
   0
LINE
   5
45B
 100
AcDbEntity
   8
LEVEL001
 100
AcDbLine
   6
CONTINUOUS
  62
15
  10
 56.834308129278
  20
 57.727024937583
  30
0.0
  11
 85.959193876444
  21
 57.727024937583
  31
0.0
   0
LINE
   5
45C
 100
AcDbEntity
   8
LEVEL001
 100
AcDbLine
   6
CONTINUOUS
  62
15
  10
 56.834308129278
  20
 56.337024937583
  30
0.0
  11
 86.181253305681
  21
 56.337024937583
  31
0.0
   0
LINE
   5
45D
 100
AcDbEntity
   8
LEVEL001
 100
AcDbLine
   6
CONTINUOUS
  62
7
  10
 56.834308129278
  20
 67.312024937583
  30
0.0
  11
 85.567606326472
  21
 67.312024937576
  31
0.0
   0
LINE
   5
45E
 100
AcDbEntity
   8
LEVEL001
 100
AcDbLine
   6
CONTINUOUS
  62
15
  10
 56.834308129278
  20
 67.255054011378
  30
0.0
  11
 85.535222003454
  21
 67.255054011371
  31
0.0
   0
LINE
   5
45F
 100
AcDbEntity
   8
LEVEL001
 100
AcDbLine
   6
CONTINUOUS
  62
15
  10
 56.834308129278
  20
 67.085872265530
  30
0.0
  11
 85.440855981018
  21
 67.085872265521
  31
0.0
   0
LINE
   5
460
 100
AcDbEntity
   8
LEVEL001
 100
AcDbLine
   6
CONTINUOUS
  62
15
  10
 56.834308129278
  20
 66.809620201775
  30
0.0
  11
 85.293023705668
  21
 66.809620201764
  31
0.0
   0
LINE
   5
461
 100
AcDbEntity
   8
LEVEL001
 100
AcDbLine
   6
CONTINUOUS
  62
15
  10
 56.834308129278
  20
 66.434691599280
  30
0.0
  11
 85.106208063342
  21
 66.434691599265
  31
0.0
   0
LINE
   5
462
 100
AcDbEntity
   8
LEVEL001
 100
AcDbLine
   6
CONTINUOUS
  62
15
  10
 56.834308129278
  20
 65.437024937583
  30
0.0
  11
 84.700784480374
  21
 65.437024937583
  31
0.0
   0
LINE
   5
463
 100
AcDbEntity
   8
LEVEL001
 100
AcDbLine
   6
CONTINUOUS
  62
15
  10
 56.834308129278
  20
 65.972478473908
  30
0.0
  11
 84.900610573511
  21
 65.972478473908
  31
0.0
   0
LINE
   5
464
 100
AcDbEntity
   8
LEVEL001
 100
AcDbLine
   6
CONTINUOUS
  62
15
  10
 56.834308129278
  20
 64.887189535259
  30
0.0
  11
 84.551083915367
  21
 64.887189535259
  31
0.0
   0
LINE
   5
465
 100
AcDbEntity
   8
LEVEL001
 100
AcDbLine
   6
CONTINUOUS
  62
15
  10
 56.834308129278
  20
 53.651571401258
  30
0.0
  11
 85.850271546621
  21
 53.651571401258
  31
0.0
   0
LINE
   5
466
 100
AcDbEntity
   8
LEVEL001
 100
AcDbLine
   6
CONTINUOUS
  62
15
  10
 56.834308129278
  20
 54.187024937583
  30
0.0
  11
 85.992402339130
  21
 54.187024937583
  31
0.0
   0
LINE
   5
467
 100
AcDbEntity
   8
LEVEL001
 100
AcDbLine
   6
CONTINUOUS
  62
15
  10
 56.834308129278
  20
 52.814429673391
  30
0.0
  11
 85.567104379234
  21
 52.814429673391
  31
0.0
   0
LINE
   5
468
 100
AcDbEntity
   8
LEVEL001
 100
AcDbLine
   6
CONTINUOUS
  62
7
  10
 56.834308129278
  20
 52.312024937583
  30
0.0
  11
 85.364972973503
  21
 52.312024937583
  31
0.0
   0
LINE
   5
469
 100
AcDbEntity
   8
LEVEL001
 100
AcDbLine
   6
CONTINUOUS
  62
15
  10
 56.834308129278
  20
 52.368995863788
  30
0.0
  11
 85.389027797744
  21
 52.368995863788
  31
0.0
   0
LINE
   5
46A
 100
AcDbEntity
   8
LEVEL001
 100
AcDbLine
   6
CONTINUOUS
  62
15
  10
 56.834308129278
  20
 52.538177609636
  30
0.0
  11
 85.458776115778
  21
 52.538177609636
  31
0.0
   0
LINE
   5
46B
 100
AcDbEntity
   8
LEVEL001
 100
AcDbLine
   6
CONTINUOUS
  62
15
  10
 56.834308129278
  20
 53.189358275886
  30
0.0
  11
 85.702608409076
  21
 53.189358275886
  31
0.0
   0
LINE
   5
46C
 100
AcDbEntity
   8
LEVEL001
 100
AcDbLine
   6
CONTINUOUS
  62
15
  10
 56.834308129278
  20
 54.736860339907
  30
0.0
  11
 86.097259210766
  21
 54.736860339907
  31
0.0
   0
POLYLINE
   5
46D
 100
AcDbEntity
   8
LEVEL001
   6
DIVIDE
  62
3
 100
AcDb2dPolyline
  66
1
  10
0.0
  20
0.0
  30
0.0
  70
0
   0
VERTEX
   5
46E
 100
AcDbEntity
   8
LEVEL001
   6
DIVIDE
  62
3
 100
AcDbVertex
 100
AcDb2dVertex
  10
 89.755454297297
  20
 69.066227599325
  30
0.0
   0
VERTEX
   5
46F
 100
AcDbEntity
   8
LEVEL001
   6
DIVIDE
  62
3
 100
AcDbVertex
 100
AcDb2dVertex
  10
 89.755454297297
  20
 69.066227599325
  30
0.0
   0
VERTEX
   5
470
 100
AcDbEntity
   8
LEVEL001
   6
DIVIDE
  62
3
 100
AcDbVertex
 100
AcDb2dVertex
  10
 89.639727258247
  20
 68.888650056129
  30
0.0
   0
VERTEX
   5
471
 100
AcDbEntity
   8
LEVEL001
   6
DIVIDE
  62
3
 100
AcDbVertex
 100
AcDb2dVertex
  10
 89.524265039243
  20
 68.711014965498
  30
0.0
   0
VERTEX
   5
472
 100
AcDbEntity
   8
LEVEL001
   6
DIVIDE
  62
3
 100
AcDbVertex
 100
AcDb2dVertex
  10
 89.409332460330
  20
 68.533264780002
  30
0.0
   0
VERTEX
   5
473
 100
AcDbEntity
   8
LEVEL001
   6
DIVIDE
  62
3
 100
AcDbVertex
 100
AcDb2dVertex
  10
 89.295194341554
  20
 68.355341952206
  30
0.0
   0
VERTEX
   5
474
 100
AcDbEntity
   8
LEVEL001
   6
DIVIDE
  62
3
 100
AcDbVertex
 100
AcDb2dVertex
  10
 89.182115502962
  20
 68.177188934679
  30
0.0
   0
VERTEX
   5
475
 100
AcDbEntity
   8
LEVEL001
   6
DIVIDE
  62
3
 100
AcDbVertex
 100
AcDb2dVertex
  10
 89.070360764598
  20
 67.998748179986
  30
0.0
   0
VERTEX
   5
476
 100
AcDbEntity
   8
LEVEL001
   6
DIVIDE
  62
3
 100
AcDbVertex
 100
AcDb2dVertex
  10
 88.960194946509
  20
 67.819962140694
  30
0.0
   0
VERTEX
   5
477
 100
AcDbEntity
   8
LEVEL001
   6
DIVIDE
  62
3
 100
AcDbVertex
 100
AcDb2dVertex
  10
 88.851882868741
  20
 67.640773269371
  30
0.0
   0
VERTEX
   5
478
 100
AcDbEntity
   8
LEVEL001
   6
DIVIDE
  62
3
 100
AcDbVertex
 100
AcDb2dVertex
  10
 88.745689351339
  20
 67.461124018584
  30
0.0
   0
VERTEX
   5
479
 100
AcDbEntity
   8
LEVEL001
   6
DIVIDE
  62
3
 100
AcDbVertex
 100
AcDb2dVertex
  10
 88.641879214350
  20
 67.280956840899
  30
0.0
   0
VERTEX
   5
47A
 100
AcDbEntity
   8
LEVEL001
   6
DIVIDE
  62
3
 100
AcDbVertex
 100
AcDb2dVertex
  10
 88.540717277818
  20
 67.100214188884
  30
0.0
   0
VERTEX
   5
47B
 100
AcDbEntity
   8
LEVEL001
   6
DIVIDE
  62
3
 100
AcDbVertex
 100
AcDb2dVertex
  10
 88.442468361790
  20
 66.918838515106
  30
0.0
   0
VERTEX
   5
47C
 100
AcDbEntity
   8
LEVEL001
   6
DIVIDE
  62
3
 100
AcDbVertex
 100
AcDb2dVertex
  10
 88.347397286313
  20
 66.736772272131
  30
0.0
   0
VERTEX
   5
47D
 100
AcDbEntity
   8
LEVEL001
   6
DIVIDE
  62
3
 100
AcDbVertex
 100
AcDb2dVertex
  10
 88.255768871430
  20
 66.553957912526
  30
0.0
   0
VERTEX
   5
47E
 100
AcDbEntity
   8
LEVEL001
   6
DIVIDE
  62
3
 100
AcDbVertex
 100
AcDb2dVertex
  10
 88.083899303636
  20
 66.185854653696
  30
0.0
   0
VERTEX
   5
47F
 100
AcDbEntity
   8
LEVEL001
   6
DIVIDE
  62
3
 100
AcDbVertex
 100
AcDb2dVertex
  10
 88.083899303636
  20
 66.185854653696
  30
0.0
   0
VERTEX
   5
480
 100
AcDbEntity
   8
LEVEL001
   6
DIVIDE
  62
3
 100
AcDbVertex
 100
AcDb2dVertex
  10
 88.004187790815
  20
 66.000450659605
  30
0.0
   0
VERTEX
   5
481
 100
AcDbEntity
   8
LEVEL001
   6
DIVIDE
  62
3
 100
AcDbVertex
 100
AcDb2dVertex
  10
 87.928978218774
  20
 65.814068359151
  30
0.0
   0
VERTEX
   5
482
 100
AcDbEntity
   8
LEVEL001
   6
DIVIDE
  62
3
 100
AcDbVertex
 100
AcDb2dVertex
  10
 87.858535407557
  20
 65.626650204904
  30
0.0
   0
VERTEX
   5
483
 100
AcDbEntity
   8
LEVEL001
   6
DIVIDE
  62
3
 100
AcDbVertex
 100
AcDb2dVertex
  10
 87.793124177211
  20
 65.438138649428
  30
0.0
   0
VERTEX
   5
484
 100
AcDbEntity
   8
LEVEL001
   6
DIVIDE
  62
3
 100
AcDbVertex
 100
AcDb2dVertex
  10
 87.733009347782
  20
 65.248476145292
  30
0.0
   0
VERTEX
   5
485
 100
AcDbEntity
   8
LEVEL001
   6
DIVIDE
  62
3
 100
AcDbVertex
 100
AcDb2dVertex
  10
 87.678455739314
  20
 65.057605145061
  30
0.0
   0
VERTEX
   5
486
 100
AcDbEntity
   8
LEVEL001
   6
DIVIDE
  62
3
 100
AcDbVertex
 100
AcDb2dVertex
  10
 87.629728171855
  20
 64.865468101305
  30
0.0
   0
VERTEX
   5
487
 100
AcDbEntity
   8
LEVEL001
   6
DIVIDE
  62
3
 100
AcDbVertex
 100
AcDb2dVertex
  10
 87.587091465450
  20
 64.672007466588
  30
0.0
   0
VERTEX
   5
488
 100
AcDbEntity
   8
LEVEL001
   6
DIVIDE
  62
3
 100
AcDbVertex
 100
AcDb2dVertex
  10
 87.550810440144
  20
 64.477165693478
  30
0.0
   0
VERTEX
   5
489
 100
AcDbEntity
   8
LEVEL001
   6
DIVIDE
  62
3
 100
AcDbVertex
 100
AcDb2dVertex
  10
 87.521149915984
  20
 64.280885234542
  30
0.0
   0
VERTEX
   5
48A
 100
AcDbEntity
   8
LEVEL001
   6
DIVIDE
  62
3
 100
AcDbVertex
 100
AcDb2dVertex
  10
 87.498374713016
  20
 64.083108542348
  30
0.0
   0
VERTEX
   5
48B
 100
AcDbEntity
   8
LEVEL001
   6
DIVIDE
  62
3
 100
AcDbVertex
 100
AcDb2dVertex
  10
 87.482749651285
  20
 63.883778069461
  30
0.0
   0
VERTEX
   5
48C
 100
AcDbEntity
   8
LEVEL001
   6
DIVIDE
  62
3
 100
AcDbVertex
 100
AcDb2dVertex
  10
 87.474539550837
  20
 63.682836268450
  30
0.0
   0
VERTEX
   5
48D
 100
AcDbEntity
   8
LEVEL001
   6
DIVIDE
  62
3
 100
AcDbVertex
 100
AcDb2dVertex
  10
 87.474009231718
  20
 63.480225591880
  30
0.0
   0
VERTEX
   5
48E
 100
AcDbEntity
   8
LEVEL001
   6
DIVIDE
  62
3
 100
AcDbVertex
 100
AcDb2dVertex
  10
 87.497047217651
  20
 63.069767422334
  30
0.0
   0
VERTEX
   5
48F
 100
AcDbEntity
   8
LEVEL001
   6
DIVIDE
  62
3
 100
AcDbVertex
 100
AcDb2dVertex
  10
 87.497047217651
  20
 63.069767422334
  30
0.0
   0
VERTEX
   5
490
 100
AcDbEntity
   8
LEVEL001
   6
DIVIDE
  62
3
 100
AcDbVertex
 100
AcDb2dVertex
  10
 87.552852270588
  20
 62.652061331842
  30
0.0
   0
VERTEX
   5
491
 100
AcDbEntity
   8
LEVEL001
   6
DIVIDE
  62
3
 100
AcDbVertex
 100
AcDb2dVertex
  10
 87.637893456584
  20
 62.227237693350
  30
0.0
   0
VERTEX
   5
492
 100
AcDbEntity
   8
LEVEL001
   6
DIVIDE
  62
3
 100
AcDbVertex
 100
AcDb2dVertex
  10
 87.747509942834
  20
 61.795545030284
  30
0.0
   0
VERTEX
   5
493
 100
AcDbEntity
   8
LEVEL001
   6
DIVIDE
  62
3
 100
AcDbVertex
 100
AcDb2dVertex
  10
 87.877040896531
  20
 61.357231866072
  30
0.0
   0
VERTEX
   5
494
 100
AcDbEntity
   8
LEVEL001
   6
DIVIDE
  62
3
 100
AcDbVertex
 100
AcDb2dVertex
  10
 88.021825484867
  20
 60.912546724143
  30
0.0
   0
VERTEX
   5
495
 100
AcDbEntity
   8
LEVEL001
   6
DIVIDE
  62
3
 100
AcDbVertex
 100
AcDb2dVertex
  10
 88.177202875037
  20
 60.461738127924
  30
0.0
   0
VERTEX
   5
496
 100
AcDbEntity
   8
LEVEL001
   6
DIVIDE
  62
3
 100
AcDbVertex
 100
AcDb2dVertex
  10
 88.338512234235
  20
 60.005054600842
  30
0.0
   0
VERTEX
   5
497
 100
AcDbEntity
   8
LEVEL001
   6
DIVIDE
  62
3
 100
AcDbVertex
 100
AcDb2dVertex
  10
 88.501092729652
  20
 59.542744666325
  30
0.0
   0
VERTEX
   5
498
 100
AcDbEntity
   8
LEVEL001
   6
DIVIDE
  62
3
 100
AcDbVertex
 100
AcDb2dVertex
  10
 88.660283528483
  20
 59.075056847800
  30
0.0
   0
VERTEX
   5
499
 100
AcDbEntity
   8
LEVEL001
   6
DIVIDE
  62
3
 100
AcDbVertex
 100
AcDb2dVertex
  10
 88.811423797921
  20
 58.602239668696
  30
0.0
   0
VERTEX
   5
49A
 100
AcDbEntity
   8
LEVEL001
   6
DIVIDE
  62
3
 100
AcDbVertex
 100
AcDb2dVertex
  10
 88.949852705160
  20
 58.124541652439
  30
0.0
   0
VERTEX
   5
49B
 100
AcDbEntity
   8
LEVEL001
   6
DIVIDE
  62
3
 100
AcDbVertex
 100
AcDb2dVertex
  10
 89.070909417392
  20
 57.642211322458
  30
0.0
   0
VERTEX
   5
49C
 100
AcDbEntity
   8
LEVEL001
   6
DIVIDE
  62
3
 100
AcDbVertex
 100
AcDb2dVertex
  10
 89.169933101812
  20
 57.155497202180
  30
0.0
   0
VERTEX
   5
49D
 100
AcDbEntity
   8
LEVEL001
   6
DIVIDE
  62
3
 100
AcDbVertex
 100
AcDb2dVertex
  10
 89.242262925613
  20
 56.664647815032
  30
0.0
   0
VERTEX
   5
49E
 100
AcDbEntity
   8
LEVEL001
   6
DIVIDE
  62
3
 100
AcDbVertex
 100
AcDb2dVertex
  10
 89.288197660129
  20
 55.671537333839
  30
0.0
   0
VERTEX
   5
49F
 100
AcDbEntity
   8
LEVEL001
   6
DIVIDE
  62
3
 100
AcDbVertex
 100
AcDb2dVertex
  10
 89.288197660129
  20
 55.671537333839
  30
0.0
   0
VERTEX
   5
4A0
 100
AcDbEntity
   8
LEVEL001
   6
DIVIDE
  62
3
 100
AcDbVertex
 100
AcDb2dVertex
  10
 89.259328613856
  20
 55.222920518584
  30
0.0
   0
VERTEX
   5
4A1
 100
AcDbEntity
   8
LEVEL001
   6
DIVIDE
  62
3
 100
AcDbVertex
 100
AcDb2dVertex
  10
 89.200811213984
  20
 54.773409348989
  30
0.0
   0
VERTEX
   5
4A2
 100
AcDbEntity
   8
LEVEL001
   6
DIVIDE
  62
3
 100
AcDbVertex
 100
AcDb2dVertex
  10
 89.115577639867
  20
 54.324829543704
  30
0.0
   0
VERTEX
   5
4A3
 100
AcDbEntity
   8
LEVEL001
   6
DIVIDE
  62
3
 100
AcDbVertex
 100
AcDb2dVertex
  10
 89.006560070857
  20
 53.879006821374
  30
0.0
   0
VERTEX
   5
4A4
 100
AcDbEntity
   8
LEVEL001
   6
DIVIDE
  62
3
 100
AcDbVertex
 100
AcDb2dVertex
  10
 88.876690686309
  20
 53.437766900648
  30
0.0
   0
VERTEX
   5
4A5
 100
AcDbEntity
   8
LEVEL001
   6
DIVIDE
  62
3
 100
AcDbVertex
 100
AcDb2dVertex
  10
 88.728901665575
  20
 53.002935500175
  30
0.0
   0
VERTEX
   5
4A6
 100
AcDbEntity
   8
LEVEL001
   6
DIVIDE
  62
3
 100
AcDbVertex
 100
AcDb2dVertex
  10
 88.566125188010
  20
 52.576338338601
  30
0.0
   0
VERTEX
   5
4A7
 100
AcDbEntity
   8
LEVEL001
   6
DIVIDE
  62
3
 100
AcDbVertex
 100
AcDb2dVertex
  10
 88.391293432968
  20
 52.159801134574
  30
0.0
   0
VERTEX
   5
4A8
 100
AcDbEntity
   8
LEVEL001
   6
DIVIDE
  62
3
 100
AcDbVertex
 100
AcDb2dVertex
  10
 88.207338579800
  20
 51.755149606743
  30
0.0
   0
VERTEX
   5
4A9
 100
AcDbEntity
   8
LEVEL001
   6
DIVIDE
  62
3
 100
AcDbVertex
 100
AcDb2dVertex
  10
 88.017192807862
  20
 51.364209473755
  30
0.0
   0
VERTEX
   5
4AA
 100
AcDbEntity
   8
LEVEL001
   6
DIVIDE
  62
3
 100
AcDbVertex
 100
AcDb2dVertex
  10
 87.823788296507
  20
 50.988806454258
  30
0.0
   0
VERTEX
   5
4AB
 100
AcDbEntity
   8
LEVEL001
   6
DIVIDE
  62
3
 100
AcDbVertex
 100
AcDb2dVertex
  10
 87.630057225088
  20
 50.630766266900
  30
0.0
   0
VERTEX
   5
4AC
 100
AcDbEntity
   8
LEVEL001
   6
DIVIDE
  62
3
 100
AcDbVertex
 100
AcDb2dVertex
  10
 87.438931772959
  20
 50.291914630328
  30
0.0
   0
VERTEX
   5
4AD
 100
AcDbEntity
   8
LEVEL001
   6
DIVIDE
  62
3
 100
AcDbVertex
 100
AcDb2dVertex
  10
 87.253344119473
  20
 49.974077263191
  30
0.0
   0
VERTEX
   5
4AE
 100
AcDbEntity
   8
LEVEL001
   6
DIVIDE
  62
3
 100
AcDbVertex
 100
AcDb2dVertex
  10
 86.910510925847
  20
 49.408748211811
  30
0.0
   0
SEQEND
   5
4AF
 100
AcDbEntity
   8
LEVEL001
   6
DIVIDE
  62
3
   0
LINE
   5
4B0
 100
AcDbEntity
   8
LEVEL001
 100
AcDbLine
   6
CONTINUOUS
  62
15
  10
 120.60861067215
  20
 67.085872265530
  30
0.0
  11
 88.532825826970
  21
 67.085872265521
  31
0.0
   0
LINE
   5
4B1
 100
AcDbEntity
   8
LEVEL001
 100
AcDbLine
   6
CONTINUOUS
  62
15
  10
 120.60861067215
  20
 67.255054011378
  30
0.0
  11
 88.627191849406
  21
 67.255054011371
  31
0.0
   0
LINE
   5
4B2
 100
AcDbEntity
   8
LEVEL001
 100
AcDbLine
   6
CONTINUOUS
  62
15
  10
 120.60861067215
  20
 66.434691599280
  30
0.0
  11
 88.198177909294
  21
 66.434691599265
  31
0.0
   0
LINE
   5
4B3
 100
AcDbEntity
   8
LEVEL001
 100
AcDbLine
   6
CONTINUOUS
  62
7
  10
 120.60861067215
  20
 67.312024937583
  30
0.0
  11
 88.659576172424
  21
 67.312024937576
  31
0.0
   0
LINE
   5
4B4
 100
AcDbEntity
   8
LEVEL001
 100
AcDbLine
   6
CONTINUOUS
  62
15
  10
 120.60861067215
  20
 66.809620201775
  30
0.0
  11
 88.384993551620
  21
 66.809620201764
  31
0.0
   0
LINE
   5
4B5
 100
AcDbEntity
   8
LEVEL001
 100
AcDbLine
   6
CONTINUOUS
  62
15
  10
 120.60861067215
  20
 65.972478473908
  30
0.0
  11
 87.992580419463
  21
 65.972478473908
  31
0.0
   0
LINE
   5
4B6
 100
AcDbEntity
   8
LEVEL001
 100
AcDbLine
   6
CONTINUOUS
  62
15
  10
 120.60861067215
  20
 64.887189535259
  30
0.0
  11
 87.634920737521
  21
 64.887189535259
  31
0.0
   0
LINE
   5
4B7
 100
AcDbEntity
   8
LEVEL001
 100
AcDbLine
   6
CONTINUOUS
  62
15
  10
 120.60861067215
  20
 65.437024937583
  30
0.0
  11
 87.792754326327
  21
 65.437024937583
  31
0.0
   0
LINE
   5
4B8
 100
AcDbEntity
   8
LEVEL001
 100
AcDbLine
   6
CONTINUOUS
  62
15
  10
 120.60861067215
  20
 63.287024937583
  30
0.0
  11
 87.480812758530
  21
 63.287024937584
  31
0.0
   0
LINE
   5
4B9
 100
AcDbEntity
   8
LEVEL001
 100
AcDbLine
   6
CONTINUOUS
  62
15
  10
 120.60861067215
  20
 61.897024937583
  30
0.0
  11
 87.719940062788
  21
 61.897024937583
  31
0.0
   0
LINE
   5
4BA
 100
AcDbEntity
   8
LEVEL001
 100
AcDbLine
   6
CONTINUOUS
  62
15
  10
 120.60861067215
  20
 60.507024937582
  30
0.0
  11
 88.161343160598
  21
 60.507024937582
  31
0.0
   0
LINE
   5
4BB
 100
AcDbEntity
   8
LEVEL001
 100
AcDbLine
   6
CONTINUOUS
  62
15
  10
 120.60861067215
  20
 59.117024937584
  30
0.0
  11
 88.646329223777
  21
 59.117024937584
  31
0.0
   0
LINE
   5
4BC
 100
AcDbEntity
   8
LEVEL001
 100
AcDbLine
   6
CONTINUOUS
  62
15
  10
 120.60861067215
  20
 57.727024937583
  30
0.0
  11
 89.051163722396
  21
 57.727024937583
  31
0.0
   0
LINE
   5
4BD
 100
AcDbEntity
   8
LEVEL001
 100
AcDbLine
   6
CONTINUOUS
  62
15
  10
 120.60861067215
  20
 56.337024937583
  30
0.0
  11
 89.273223151633
  21
 56.337024937583
  31
0.0
   0
LINE
   5
4BE
 100
AcDbEntity
   8
LEVEL001
 100
AcDbLine
   6
CONTINUOUS
  62
15
  10
 120.60861067215
  20
 54.736860339907
  30
0.0
  11
 89.194836639034
  21
 54.736860339907
  31
0.0
   0
LINE
   5
4BF
 100
AcDbEntity
   8
LEVEL001
 100
AcDbLine
   6
CONTINUOUS
  62
15
  10
 120.60861067215
  20
 54.187024937583
  30
0.0
  11
 89.084372185082
  21
 54.187024937583
  31
0.0
   0
LINE
   5
4C0
 100
AcDbEntity
   8
LEVEL001
 100
AcDbLine
   6
CONTINUOUS
  62
15
  10
 120.60861067215
  20
 53.189358275886
  30
0.0
  11
 88.794578255033
  21
 53.189358275901
  31
0.0
   0
LINE
   5
4C1
 100
AcDbEntity
   8
LEVEL001
 100
AcDbLine
   6
CONTINUOUS
  62
15
  10
 120.60861067215
  20
 52.814429673391
  30
0.0
  11
 88.659074225190
  21
 52.814429673402
  31
0.0
   0
LINE
   5
4C2
 100
AcDbEntity
   8
LEVEL001
 100
AcDbLine
   6
CONTINUOUS
  62
15
  10
 120.60861067215
  20
 52.538177609636
  30
0.0
  11
 88.550745961733
  21
 52.538177609645
  31
0.0
   0
LINE
   5
4C3
 100
AcDbEntity
   8
LEVEL001
 100
AcDbLine
   6
CONTINUOUS
  62
15
  10
 120.60861067215
  20
 52.368995863788
  30
0.0
  11
 88.480997643699
  21
 52.368995863795
  31
0.0
   0
LINE
   5
4C4
 100
AcDbEntity
   8
LEVEL001
 100
AcDbLine
   6
CONTINUOUS
  62
15
  10
 120.60861067215
  20
 53.651571401258
  30
0.0
  11
 88.942241392573
  21
 53.651571401258
  31
0.0
   0
LINE
   5
4C5
 100
AcDbEntity
   8
LEVEL001
 100
AcDbLine
   6
CONTINUOUS
  62
7
  10
 120.60861067215
  20
 52.312024937583
  30
0.0
  11
 88.456942819457
  21
 52.312024937589
  31
0.0
   0
ARC
   5
4C6
 100
AcDbEntity
   8
LEVEL001
   6
CONTINUOUS
  62
7
 100
AcDbCircle
  10
 197.00791321502
  20
 98.962024937583
  30
0.0
  40
 0.75000000000000
 100
AcDbArc
  50
0.0
  51
 90.000000000000
   0
POINT
   5
4C7
 100
AcDbEntity
   8
LEVEL001
 100
AcDbPoint
  62
7
  10
 197.75791321502
  20
 99.712024937583
  30
0.0
   0
ARC
   5
4C8
 100
AcDbEntity
   8
LEVEL001
   6
CONTINUOUS
  62
7
 100
AcDbCircle
  10
 188.50791321502
  20
 98.962024937583
  30
0.0
  40
 0.75000000000000
 100
AcDbArc
  50
 90.000000000000
  51
 180.00000000000
   0
POINT
   5
4C9
 100
AcDbEntity
   8
LEVEL001
 100
AcDbPoint
  62
7
  10
 187.75791321502
  20
 99.712024937583
  30
0.0
   0
LINE
   5
4CA
 100
AcDbEntity
   8
LEVEL001
 100
AcDbLine
   6
DOT
  62
2
  10
 194.10791321502
  20
 99.012024937582
  30
0.0
  11
 192.75791321502
  21
 99.012024937582
  31
0.0
   0
LINE
   5
4CB
 100
AcDbEntity
   8
LEVEL001
 100
AcDbLine
   6
DOT
  62
2
  10
 194.10791321502
  20
 99.012024937582
  30
0.0
  11
 194.80791321502
  21
 99.712024937582
  31
0.0
   0
LINE
   5
4CC
 100
AcDbEntity
   8
LEVEL001
 100
AcDbLine
   6
DOT
  62
2
  10
 194.10791321502
  20
 98.962024937583
  30
0.0
  11
 194.10791321502
  21
 99.012024937582
  31
0.0
   0
LINE
   5
4CD
 100
AcDbEntity
   8
LEVEL001
 100
AcDbLine
   6
DOT
  62
2
  10
 191.40791321502
  20
 99.012024937582
  30
0.0
  11
 192.75791321502
  21
 99.012024937582
  31
0.0
   0
LINE
   5
4CE
 100
AcDbEntity
   8
LEVEL001
 100
AcDbLine
   6
DOT
  62
2
  10
 191.40791321502
  20
 99.012024937582
  30
0.0
  11
 190.70791321502
  21
 99.712024937582
  31
0.0
   0
LINE
   5
4CF
 100
AcDbEntity
   8
LEVEL001
 100
AcDbLine
   6
DOT
  62
2
  10
 191.40791321502
  20
 98.962024937583
  30
0.0
  11
 191.40791321502
  21
 99.012024937582
  31
0.0
   0
LINE
   5
4D0
 100
AcDbEntity
   8
LEVEL001
 100
AcDbLine
   6
CONTINUOUS
  62
7
  10
 188.50791321502
  20
 99.712024937583
  30
0.0
  11
 197.00791321502
  21
 99.712024937583
  31
0.0
   0
ARC
   5
4D1
 100
AcDbEntity
   8
LEVEL001
   6
CONTINUOUS
  62
7
 100
AcDbCircle
  10
 127.35861067215
  20
 98.962024937583
  30
0.0
  40
 0.75000000000000
 100
AcDbArc
  50
0.0
  51
 90.000000000000
   0
POINT
   5
4D2
 100
AcDbEntity
   8
LEVEL001
 100
AcDbPoint
  62
7
  10
 128.10861067215
  20
 99.712024937583
  30
0.0
   0
ARC
   5
4D3
 100
AcDbEntity
   8
LEVEL001
   6
CONTINUOUS
  62
7
 100
AcDbCircle
  10
 118.85861067215
  20
 98.962024937583
  30
0.0
  40
 0.75000000000000
 100
AcDbArc
  50
 90.000000000000
  51
 180.00000000000
   0
POINT
   5
4D4
 100
AcDbEntity
   8
LEVEL001
 100
AcDbPoint
  62
7
  10
 118.10861067215
  20
 99.712024937583
  30
0.0
   0
LINE
   5
4D5
 100
AcDbEntity
   8
LEVEL001
 100
AcDbLine
   6
DOT
  62
2
  10
 124.45861067215
  20
 99.012024937582
  30
0.0
  11
 123.10861067215
  21
 99.012024937582
  31
0.0
   0
LINE
   5
4D6
 100
AcDbEntity
   8
LEVEL001
 100
AcDbLine
   6
DOT
  62
2
  10
 124.45861067215
  20
 99.012024937582
  30
0.0
  11
 125.15861067215
  21
 99.712024937582
  31
0.0
   0
LINE
   5
4D7
 100
AcDbEntity
   8
LEVEL001
 100
AcDbLine
   6
DOT
  62
2
  10
 124.45861067215
  20
 98.962024937583
  30
0.0
  11
 124.45861067215
  21
 99.012024937582
  31
0.0
   0
LINE
   5
4D8
 100
AcDbEntity
   8
LEVEL001
 100
AcDbLine
   6
DOT
  62
2
  10
 121.75861067215
  20
 99.012024937582
  30
0.0
  11
 123.10861067215
  21
 99.012024937582
  31
0.0
   0
LINE
   5
4D9
 100
AcDbEntity
   8
LEVEL001
 100
AcDbLine
   6
DOT
  62
2
  10
 121.75861067215
  20
 99.012024937582
  30
0.0
  11
 121.05861067215
  21
 99.712024937582
  31
0.0
   0
LINE
   5
4DA
 100
AcDbEntity
   8
LEVEL001
 100
AcDbLine
   6
DOT
  62
2
  10
 121.75861067215
  20
 98.962024937583
  30
0.0
  11
 121.75861067215
  21
 99.012024937582
  31
0.0
   0
LINE
   5
4DB
 100
AcDbEntity
   8
LEVEL001
 100
AcDbLine
   6
CONTINUOUS
  62
7
  10
 118.85861067215
  20
 99.712024937583
  30
0.0
  11
 127.35861067215
  21
 99.712024937583
  31
0.0
   0
ARC
   5
4DC
 100
AcDbEntity
   8
LEVEL001
   6
CONTINUOUS
  62
7
 100
AcDbCircle
  10
 57.709308129278
  20
 98.962024937583
  30
0.0
  40
 0.75000000000000
 100
AcDbArc
  50
0.0
  51
 90.000000000000
   0
POINT
   5
4DD
 100
AcDbEntity
   8
LEVEL001
 100
AcDbPoint
  62
7
  10
 58.459308129278
  20
 99.712024937583
  30
0.0
   0
ARC
   5
4DE
 100
AcDbEntity
   8
LEVEL001
   6
CONTINUOUS
  62
7
 100
AcDbCircle
  10
 49.209308129278
  20
 98.962024937583
  30
0.0
  40
 0.75000000000000
 100
AcDbArc
  50
 90.000000000000
  51
 180.00000000000
   0
POINT
   5
4DF
 100
AcDbEntity
   8
LEVEL001
 100
AcDbPoint
  62
7
  10
 48.459308129278
  20
 99.712024937583
  30
0.0
   0
LINE
   5
4E0
 100
AcDbEntity
   8
LEVEL001
 100
AcDbLine
   6
DOT
  62
2
  10
 54.809308129278
  20
 99.012024937582
  30
0.0
  11
 53.459308129278
  21
 99.012024937582
  31
0.0
   0
LINE
   5
4E1
 100
AcDbEntity
   8
LEVEL001
 100
AcDbLine
   6
DOT
  62
2
  10
 54.809308129278
  20
 99.012024937582
  30
0.0
  11
 55.509308129278
  21
 99.712024937582
  31
0.0
   0
LINE
   5
4E2
 100
AcDbEntity
   8
LEVEL001
 100
AcDbLine
   6
DOT
  62
2
  10
 54.809308129278
  20
 98.962024937583
  30
0.0
  11
 54.809308129278
  21
 99.012024937582
  31
0.0
   0
LINE
   5
4E3
 100
AcDbEntity
   8
LEVEL001
 100
AcDbLine
   6
DOT
  62
2
  10
 52.109308129278
  20
 99.012024937582
  30
0.0
  11
 53.459308129278
  21
 99.012024937582
  31
0.0
   0
LINE
   5
4E4
 100
AcDbEntity
   8
LEVEL001
 100
AcDbLine
   6
DOT
  62
2
  10
 52.109308129278
  20
 99.012024937582
  30
0.0
  11
 51.409308129278
  21
 99.712024937582
  31
0.0
   0
LINE
   5
4E5
 100
AcDbEntity
   8
LEVEL001
 100
AcDbLine
   6
DOT
  62
2
  10
 52.109308129278
  20
 98.962024937583
  30
0.0
  11
 52.109308129278
  21
 99.012024937582
  31
0.0
   0
LINE
   5
4E6
 100
AcDbEntity
   8
LEVEL001
 100
AcDbLine
   6
CONTINUOUS
  62
7
  10
 49.209308129278
  20
 99.712024937583
  30
0.0
  11
 57.709308129278
  21
 99.712024937583
  31
0.0
   0
LINE
   5
4E7
 100
AcDbEntity
   8
LEVEL001
 100
AcDbLine
   6
DIVIDE
  62
3
  10
 33.459308129278
  20
 109.34844618756
  30
0.0
  11
 33.459308129278
  21
 40.311278045962
  31
0.0
   0
LINE
   5
4E8
 100
AcDbEntity
   8
LEVEL001
 100
AcDbLine
   6
DIVIDE
  62
3
  10
 33.459308129278
  20
 98.962024937583
  30
0.0
  11
 212.75791321502
  21
 98.962024937583
  31
0.0
   0
LINE
   5
4E9
 100
AcDbEntity
   8
LEVEL001
 100
AcDbLine
   6
DIVIDE
  62
3
  10
 33.459308129278
  20
 93.962024937583
  30
0.0
  11
 212.75791321502
  21
 93.962024937583
  31
0.0
   0
INSERT
   5
4EA
 100
AcDbEntity
   8
LEVEL001
 100
AcDbBlockReference
   2
HATCH001
  10
0.0
  20
0.0
  30
0.0
   0
DIMENSION
   5
4EB
 100
AcDbEntity
   8
LEVEL001
   6
CONTINUOUS
  62
2
 100
AcDbDimension
   2
*D3
  10
 166.60913087941
  20
 93.962024937583
  30
0.0
  11
 166.60913087941
  21
 108.17050761381
  31
0.0
  70
128
   1
\A1;9～12
   3
GMM002
 100
AcDbAlignedDimension
  13
 166.49762152059
  23
 98.962024937583
  33
0.0
  14
 166.72064023823
  24
 93.962024937583
  34
0.0
  50
 270.00000000000
 100
AcDbRotatedDimension
   0
LINE
   5
4EC
 100
AcDbEntity
   8
LEVEL001
 100
AcDbLine
   6
DOT
  62
2
  10
 191.70791321502
  20
 98.962024937583
  30
0.0
  11
 191.70791321502
  21
 93.962024937583
  31
0.0
   0
LINE
   5
4ED
 100
AcDbEntity
   8
LEVEL001
 100
AcDbLine
   6
DOT
  62
2
  10
 193.80791321502
  20
 98.962024937583
  30
0.0
  11
 193.80791321502
  21
 93.962024937583
  31
0.0
   0
LINE
   5
4EE
 100
AcDbEntity
   8
LEVEL001
 100
AcDbLine
   6
DOT
  62
2
  10
 122.05861067215
  20
 98.962024937583
  30
0.0
  11
 122.05861067215
  21
 93.962024937583
  31
0.0
   0
LINE
   5
4EF
 100
AcDbEntity
   8
LEVEL001
 100
AcDbLine
   6
DOT
  62
2
  10
 124.15861067215
  20
 98.962024937583
  30
0.0
  11
 124.15861067215
  21
 93.962024937583
  31
0.0
   0
LINE
   5
4F0
 100
AcDbEntity
   8
LEVEL001
 100
AcDbLine
   6
DOT
  62
2
  10
 52.409308129278
  20
 98.962024937583
  30
0.0
  11
 52.409308129278
  21
 93.962024937583
  31
0.0
   0
LINE
   5
4F1
 100
AcDbEntity
   8
LEVEL001
 100
AcDbLine
   6
DOT
  62
2
  10
 54.509308129278
  20
 98.962024937583
  30
0.0
  11
 54.509308129278
  21
 93.962024937583
  31
0.0
   0
INSERT
   5
4F2
 100
AcDbEntity
   8
LEVEL001
 100
AcDbBlockReference
   2
*D4
  10
0.0
  20
0.0
  30
0.0
   0
INSERT
   5
4F3
 100
AcDbEntity
   8
LEVEL001
 100
AcDbBlockReference
   2
*D5
  10
0.0
  20
0.0
  30
0.0
   0
INSERT
   5
4F4
 100
AcDbEntity
   8
LEVEL001
 100
AcDbBlockReference
   2
*D6
  10
0.0
  20
0.0
  30
0.0
   0
INSERT
   5
4F5
 100
AcDbEntity
   8
LEVEL001
 100
AcDbBlockReference
   2
*D7
  10
0.0
  20
0.0
  30
0.0
   0
LINE
   5
4F6
 100
AcDbEntity
   8
LEVEL001
 100
AcDbLine
   6
DASHDOT
  62
2
  10
 192.75791321502
  20
 85.559968001411
  30
0.0
  11
 192.75791321502
  21
 112.66548130323
  31
0.0
   0
LINE
   5
4F7
 100
AcDbEntity
   8
LEVEL001
 100
AcDbLine
   6
DASHDOT
  62
2
  10
 123.10861067215
  20
 48.734016641630
  30
0.0
  11
 123.10861067215
  21
 112.66548130323
  31
0.0
   0
LINE
   5
4F8
 100
AcDbEntity
   8
LEVEL001
 100
AcDbLine
   6
DASHDOT
  62
2
  10
 53.459308129278
  20
 85.559968001411
  30
0.0
  11
 53.459308129278
  21
 112.66548130323
  31
0.0
   0
LINE
   5
4F9
 100
AcDbEntity
   8
LEVEL001
 100
AcDbLine
   6
CONTINUOUS
  62
7
  10
 191.75791321502
  20
 110.16948712564
  30
0.0
  11
 193.75791321502
  21
 110.16948712564
  31
0.0
   0
LINE
   5
4FA
 100
AcDbEntity
   8
LEVEL001
 100
AcDbLine
   6
CONTINUOUS
  62
7
  10
 194.75791321502
  20
 111.16948712564
  30
0.0
  11
 193.75791321502
  21
 110.16948712564
  31
0.0
   0
LINE
   5
4FB
 100
AcDbEntity
   8
LEVEL001
 100
AcDbLine
   6
CONTINUOUS
  62
7
  10
 190.75791321502
  20
 111.16948712564
  30
0.0
  11
 194.75791321502
  21
 111.16948712564
  31
0.0
   0
LINE
   5
4FC
 100
AcDbEntity
   8
LEVEL001
 100
AcDbLine
   6
CONTINUOUS
  62
15
  10
 193.50791321502
  20
 101.16948712564
  30
0.0
  11
 193.50791321502
  21
 110.16948712564
  31
0.0
   0
LINE
   5
4FD
 100
AcDbEntity
   8
LEVEL001
 100
AcDbLine
   6
CONTINUOUS
  62
7
  10
 192.00791321502
  20
 101.16948712564
  30
0.0
  11
 193.50791321502
  21
 101.16948712564
  31
0.0
   0
LINE
   5
4FE
 100
AcDbEntity
   8
LEVEL001
 100
AcDbLine
   6
CONTINUOUS
  62
7
  10
 193.50791321502
  20
 101.16948712564
  30
0.0
  11
 193.75791321502
  21
 101.41948712564
  31
0.0
   0
POINT
   5
4FF
 100
AcDbEntity
   8
LEVEL001
 100
AcDbPoint
  62
7
  10
 193.75791321502
  20
 101.16948712564
  30
0.0
   0
LINE
   5
500
 100
AcDbEntity
   8
LEVEL001
 100
AcDbLine
   6
CONTINUOUS
  62
7
  10
 193.75791321502
  20
 101.41948712564
  30
0.0
  11
 193.75791321502
  21
 110.16948712564
  31
0.0
   0
LINE
   5
501
 100
AcDbEntity
   8
LEVEL001
 100
AcDbLine
   6
CONTINUOUS
  62
7
  10
 190.75791321502
  20
 111.16948712564
  30
0.0
  11
 191.75791321502
  21
 110.16948712564
  31
0.0
   0
LINE
   5
502
 100
AcDbEntity
   8
LEVEL001
 100
AcDbLine
   6
CONTINUOUS
  62
15
  10
 192.00791321502
  20
 110.16948712564
  30
0.0
  11
 192.00791321502
  21
 101.16948712564
  31
0.0
   0
LINE
   5
503
 100
AcDbEntity
   8
LEVEL001
 100
AcDbLine
   6
CONTINUOUS
  62
7
  10
 191.75791321502
  20
 101.41948712564
  30
0.0
  11
 191.75791321502
  21
 110.16948712564
  31
0.0
   0
LINE
   5
504
 100
AcDbEntity
   8
LEVEL001
 100
AcDbLine
   6
CONTINUOUS
  62
7
  10
 191.75791321502
  20
 101.41948712564
  30
0.0
  11
 192.00791321502
  21
 101.16948712564
  31
0.0
   0
POINT
   5
505
 100
AcDbEntity
   8
LEVEL001
 100
AcDbPoint
  62
7
  10
 191.75791321502
  20
 101.16948712564
  30
0.0
   0
LINE
   5
506
 100
AcDbEntity
   8
LEVEL001
 100
AcDbLine
   6
CONTINUOUS
  62
7
  10
 122.10861067215
  20
 110.16948712564
  30
0.0
  11
 124.10861067215
  21
 110.16948712564
  31
0.0
   0
LINE
   5
507
 100
AcDbEntity
   8
LEVEL001
 100
AcDbLine
   6
CONTINUOUS
  62
7
  10
 125.10861067215
  20
 111.16948712564
  30
0.0
  11
 124.10861067215
  21
 110.16948712564
  31
0.0
   0
LINE
   5
508
 100
AcDbEntity
   8
LEVEL001
 100
AcDbLine
   6
CONTINUOUS
  62
7
  10
 121.10861067215
  20
 111.16948712564
  30
0.0
  11
 125.10861067215
  21
 111.16948712564
  31
0.0
   0
LINE
   5
509
 100
AcDbEntity
   8
LEVEL001
 100
AcDbLine
   6
CONTINUOUS
  62
15
  10
 123.85861067215
  20
 101.16948712564
  30
0.0
  11
 123.85861067215
  21
 110.16948712564
  31
0.0
   0
LINE
   5
50A
 100
AcDbEntity
   8
LEVEL001
 100
AcDbLine
   6
CONTINUOUS
  62
7
  10
 122.35861067215
  20
 101.16948712564
  30
0.0
  11
 123.85861067215
  21
 101.16948712564
  31
0.0
   0
LINE
   5
50B
 100
AcDbEntity
   8
LEVEL001
 100
AcDbLine
   6
CONTINUOUS
  62
7
  10
 123.85861067215
  20
 101.16948712564
  30
0.0
  11
 124.10861067215
  21
 101.41948712564
  31
0.0
   0
POINT
   5
50C
 100
AcDbEntity
   8
LEVEL001
 100
AcDbPoint
  62
7
  10
 124.10861067215
  20
 101.16948712564
  30
0.0
   0
LINE
   5
50D
 100
AcDbEntity
   8
LEVEL001
 100
AcDbLine
   6
CONTINUOUS
  62
7
  10
 124.10861067215
  20
 101.41948712564
  30
0.0
  11
 124.10861067215
  21
 110.16948712564
  31
0.0
   0
LINE
   5
50E
 100
AcDbEntity
   8
LEVEL001
 100
AcDbLine
   6
CONTINUOUS
  62
7
  10
 121.10861067215
  20
 111.16948712564
  30
0.0
  11
 122.10861067215
  21
 110.16948712564
  31
0.0
   0
LINE
   5
50F
 100
AcDbEntity
   8
LEVEL001
 100
AcDbLine
   6
CONTINUOUS
  62
15
  10
 122.35861067215
  20
 110.16948712564
  30
0.0
  11
 122.35861067215
  21
 101.16948712564
  31
0.0
   0
LINE
   5
510
 100
AcDbEntity
   8
LEVEL001
 100
AcDbLine
   6
CONTINUOUS
  62
7
  10
 122.10861067215
  20
 101.41948712564
  30
0.0
  11
 122.10861067215
  21
 110.16948712564
  31
0.0
   0
LINE
   5
511
 100
AcDbEntity
   8
LEVEL001
 100
AcDbLine
   6
CONTINUOUS
  62
7
  10
 122.10861067215
  20
 101.41948712564
  30
0.0
  11
 122.35861067215
  21
 101.16948712564
  31
0.0
   0
POINT
   5
512
 100
AcDbEntity
   8
LEVEL001
 100
AcDbPoint
  62
7
  10
 122.10861067215
  20
 101.16948712564
  30
0.0
   0
LINE
   5
513
 100
AcDbEntity
   8
LEVEL001
 100
AcDbLine
   6
CONTINUOUS
  62
7
  10
 52.459308129278
  20
 110.16948712564
  30
0.0
  11
 54.459308129278
  21
 110.16948712564
  31
0.0
   0
LINE
   5
514
 100
AcDbEntity
   8
LEVEL001
 100
AcDbLine
   6
CONTINUOUS
  62
7
  10
 55.459308129278
  20
 111.16948712564
  30
0.0
  11
 54.459308129278
  21
 110.16948712564
  31
0.0
   0
LINE
   5
515
 100
AcDbEntity
   8
LEVEL001
 100
AcDbLine
   6
CONTINUOUS
  62
7
  10
 51.459308129278
  20
 111.16948712564
  30
0.0
  11
 55.459308129278
  21
 111.16948712564
  31
0.0
   0
LINE
   5
516
 100
AcDbEntity
   8
LEVEL001
 100
AcDbLine
   6
CONTINUOUS
  62
15
  10
 54.209308129278
  20
 101.16948712564
  30
0.0
  11
 54.209308129278
  21
 110.16948712564
  31
0.0
   0
LINE
   5
517
 100
AcDbEntity
   8
LEVEL001
 100
AcDbLine
   6
CONTINUOUS
  62
7
  10
 52.709308129278
  20
 101.16948712564
  30
0.0
  11
 54.209308129278
  21
 101.16948712564
  31
0.0
   0
LINE
   5
518
 100
AcDbEntity
   8
LEVEL001
 100
AcDbLine
   6
CONTINUOUS
  62
7
  10
 54.209308129278
  20
 101.16948712564
  30
0.0
  11
 54.459308129278
  21
 101.41948712564
  31
0.0
   0
POINT
   5
519
 100
AcDbEntity
   8
LEVEL001
 100
AcDbPoint
  62
7
  10
 54.459308129278
  20
 101.16948712564
  30
0.0
   0
LINE
   5
51A
 100
AcDbEntity
   8
LEVEL001
 100
AcDbLine
   6
CONTINUOUS
  62
7
  10
 54.459308129278
  20
 101.41948712564
  30
0.0
  11
 54.459308129278
  21
 110.16948712564
  31
0.0
   0
LINE
   5
51B
 100
AcDbEntity
   8
LEVEL001
 100
AcDbLine
   6
CONTINUOUS
  62
7
  10
 51.459308129278
  20
 111.16948712564
  30
0.0
  11
 52.459308129278
  21
 110.16948712564
  31
0.0
   0
LINE
   5
51C
 100
AcDbEntity
   8
LEVEL001
 100
AcDbLine
   6
CONTINUOUS
  62
15
  10
 52.709308129278
  20
 110.16948712564
  30
0.0
  11
 52.709308129278
  21
 101.16948712564
  31
0.0
   0
LINE
   5
51D
 100
AcDbEntity
   8
LEVEL001
 100
AcDbLine
   6
CONTINUOUS
  62
7
  10
 52.459308129278
  20
 101.41948712564
  30
0.0
  11
 52.459308129278
  21
 110.16948712564
  31
0.0
   0
LINE
   5
51E
 100
AcDbEntity
   8
LEVEL001
 100
AcDbLine
   6
CONTINUOUS
  62
7
  10
 52.459308129278
  20
 101.41948712564
  30
0.0
  11
 52.709308129278
  21
 101.16948712564
  31
0.0
   0
POINT
   5
51F
 100
AcDbEntity
   8
LEVEL001
 100
AcDbPoint
  62
7
  10
 52.459308129278
  20
 101.16948712564
  30
0.0
   0
INSERT
   5
520
 100
AcDbEntity
   8
LEVEL001
 100
AcDbBlockReference
   2
*D8
  10
0.0
  20
0.0
  30
0.0
   0
DIMENSION
   5
521
 100
AcDbEntity
   8
LEVEL001
   6
CONTINUOUS
  62
2
 100
AcDbDimension
   2
*D9
  10
 192.75791321502
  20
 118.97359859934
  30
0.0
  11
 123.10861067215
  21
 118.97359859934
  31
0.0
  70
0
   1
\A1;パイプ長 -10.5
   3
GMM003
 100
AcDbAlignedDimension
  13
 53.459308129278
  23
 112.66548130323
  33
0.0
  14
 192.75791321502
  24
 112.66548130323
  34
0.0
 100
AcDbRotatedDimension
   0
LINE
   5
522
 100
AcDbEntity
   8
LEVEL001
 100
AcDbLine
   6
DIVIDE
  62
3
  10
 212.75791321502
  20
 109.34844618756
  30
0.0
  11
 212.75791321502
  21
 40.311278045962
  31
0.0
   0
INSERT
   5
523
 100
AcDbEntity
   8
LEVEL001
 100
AcDbBlockReference
   2
HATCH002
  10
0.0
  20
0.0
  30
0.0
   0
LINE
   5
524
 100
AcDbEntity
   8
LEVEL001
 100
AcDbLine
   6
CONTINUOUS
  62
7
  10
 252.72196837274
  20
 93.962024937583
  30
0.0
  11
 252.34696837274
  21
 94.712024937583
  31
0.0
   0
LINE
   5
525
 100
AcDbEntity
   8
LEVEL001
 100
AcDbLine
   6
CONTINUOUS
  62
7
  10
 251.97196837274
  20
 93.962024937583
  30
0.0
  11
 252.34696837274
  21
 94.712024937583
  31
0.0
   0
LINE
   5
526
 100
AcDbEntity
   8
LEVEL001
 100
AcDbLine
   6
CONTINUOUS
  62
7
  10
 265.72196837274
  20
 93.962024937583
  30
0.0
  11
 266.09696837274
  21
 94.712024937583
  31
0.0
   0
LINE
   5
527
 100
AcDbEntity
   8
LEVEL001
 100
AcDbLine
   6
CONTINUOUS
  62
7
  10
 266.47196837274
  20
 93.962024937583
  30
0.0
  11
 266.09696837274
  21
 94.712024937583
  31
0.0
   0
LINE
   5
528
 100
AcDbEntity
   8
LEVEL001
 100
AcDbLine
   6
DOT
  62
2
  10
 259.22196837274
  20
 86.735710965472
  30
0.0
  11
 258.39696837274
  21
 87.212024937553
  31
0.0
   0
LINE
   5
529
 100
AcDbEntity
   8
LEVEL001
 100
AcDbLine
   6
DOT
  62
2
  10
 259.22196837274
  20
 87.212024937583
  30
0.0
  11
 258.39696837274
  21
 87.212024937583
  31
0.0
   0
LINE
   5
52A
 100
AcDbEntity
   8
LEVEL001
 100
AcDbLine
   6
DOT
  62
2
  10
 259.22196837274
  20
 86.735710965472
  30
0.0
  11
 260.04696837274
  21
 87.212024937553
  31
0.0
   0
LINE
   5
52B
 100
AcDbEntity
   8
LEVEL001
 100
AcDbLine
   6
DOT
  62
2
  10
 259.22196837274
  20
 87.212024937583
  30
0.0
  11
 260.04696837274
  21
 87.212024937583
  31
0.0
   0
LINE
   5
52C
 100
AcDbEntity
   8
LEVEL001
 100
AcDbLine
   6
DASHDOT
  62
2
  10
 252.34696837274
  20
 93.281020008377
  30
0.0
  11
 252.34696837274
  21
 95.280801500784
  31
0.0
   0
LINE
   5
52D
 100
AcDbEntity
   8
LEVEL001
 100
AcDbLine
   6
DASHDOT
  62
2
  10
 266.09696837274
  20
 93.281020008377
  30
0.0
  11
 266.09696837274
  21
 95.280801500784
  31
0.0
   0
LINE
   5
52E
 100
AcDbEntity
   8
LEVEL001
 100
AcDbLine
   6
CONTINUOUS
  62
7
  10
 251.22196837274
  20
 93.962024937583
  30
0.0
  11
 251.22196837274
  21
 93.712024937583
  31
0.0
   0
ARC
   5
52F
 100
AcDbEntity
   8
LEVEL001
   6
CONTINUOUS
  62
7
 100
AcDbCircle
  10
 252.22196837274
  20
 93.712024937583
  30
0.0
  40
 1.0000000000000
 100
AcDbArc
  50
 180.00000000000
  51
 270.00000000003
   0
POINT
   5
530
 100
AcDbEntity
   8
LEVEL001
 100
AcDbPoint
  62
7
  10
 251.22196837274
  20
 92.712024937583
  30
0.0
   0
LINE
   5
531
 100
AcDbEntity
   8
LEVEL001
 100
AcDbLine
   6
CONTINUOUS
  62
7
  10
 267.22196837274
  20
 93.962024937583
  30
0.0
  11
 267.22196837274
  21
 93.712024937583
  31
0.0
   0
ARC
   5
532
 100
AcDbEntity
   8
LEVEL001
   6
CONTINUOUS
  62
7
 100
AcDbCircle
  10
 266.22196837274
  20
 93.712024937583
  30
0.0
  40
 1.0000000000000
 100
AcDbArc
  50
 270.00000000000
  51
0.0
   0
POINT
   5
533
 100
AcDbEntity
   8
LEVEL001
 100
AcDbPoint
  62
7
  10
 267.22196837274
  20
 92.712024937583
  30
0.0
   0
LINE
   5
534
 100
AcDbEntity
   8
LEVEL001
 100
AcDbLine
   6
CONTINUOUS
  62
7
  10
 252.22196837274
  20
 92.712024937583
  30
0.0
  11
 255.84696837274
  21
 92.712024937583
  31
0.0
   0
ARC
   5
535
 100
AcDbEntity
   8
LEVEL001
   6
CONTINUOUS
  62
7
 100
AcDbCircle
  10
 255.84696837274
  20
 90.712024937583
  30
0.0
  40
 2.0000000000000
 100
AcDbArc
  50
 0.12213329976820E-10
  51
 90.000000000000
   0
POINT
   5
536
 100
AcDbEntity
   8
LEVEL001
 100
AcDbPoint
  62
7
  10
 257.84696837274
  20
 92.712024937583
  30
0.0
   0
LINE
   5
537
 100
AcDbEntity
   8
LEVEL001
 100
AcDbLine
   6
CONTINUOUS
  62
7
  10
 257.84696837274
  20
 90.712024937583
  30
0.0
  11
 257.84696837274
  21
 70.030747763613
  31
0.0
   0
LINE
   5
538
 100
AcDbEntity
   8
LEVEL001
 100
AcDbLine
   6
CONTINUOUS
  62
7
  10
 260.59696837274
  20
 90.712024937583
  30
0.0
  11
 260.59696837274
  21
 70.030747763613
  31
0.0
   0
ARC
   5
539
 100
AcDbEntity
   8
LEVEL001
   6
CONTINUOUS
  62
7
 100
AcDbCircle
  10
 262.59696837274
  20
 90.712024937583
  30
0.0
  40
 2.0000000000000
 100
AcDbArc
  50
 89.999999999998
  51
 180.00000000000
   0
POINT
   5
53A
 100
AcDbEntity
   8
LEVEL001
 100
AcDbPoint
  62
7
  10
 260.59696837274
  20
 92.712024937583
  30
0.0
   0
LINE
   5
53B
 100
AcDbEntity
   8
LEVEL001
 100
AcDbLine
   6
CONTINUOUS
  62
7
  10
 262.59696837274
  20
 92.712024937583
  30
0.0
  11
 266.22196837274
  21
 92.712024937583
  31
0.0
   0
LINE
   5
53C
 100
AcDbEntity
   8
LEVEL001
 100
AcDbLine
   6
DOT
  62
2
  10
 258.22196837274
  20
 93.962024937583
  30
0.0
  11
 258.22196837274
  21
 87.962024937583
  31
0.0
   0
LINE
   5
53D
 100
AcDbEntity
   8
LEVEL001
 100
AcDbLine
   6
DOT
  62
2
  10
 258.39696837274
  20
 93.962024937583
  30
0.0
  11
 258.39696837274
  21
 87.212024937583
  31
0.0
   0
LINE
   5
53E
 100
AcDbEntity
   8
LEVEL001
 100
AcDbLine
   6
DOT
  62
2
  10
 260.04696837274
  20
 93.962024937583
  30
0.0
  11
 260.04696837274
  21
 87.212024937583
  31
0.0
   0
LINE
   5
53F
 100
AcDbEntity
   8
LEVEL001
 100
AcDbLine
   6
DOT
  62
2
  10
 260.22196837274
  20
 93.962024937583
  30
0.0
  11
 260.22196837274
  21
 87.962024937583
  31
0.0
   0
LINE
   5
540
 100
AcDbEntity
   8
LEVEL001
 100
AcDbLine
   6
DOT
  62
2
  10
 258.22196837274
  20
 87.962024937583
  30
0.0
  11
 260.22196837274
  21
 87.962024937583
  31
0.0
   0
ARC
   5
541
 100
AcDbEntity
   8
LEVEL001
   6
CONTINUOUS
  62
7
 100
AcDbCircle
  10
 264.09696837274
  20
 70.030747763613
  30
0.0
  40
 3.5000000000000
 100
AcDbArc
  50
 180.00000000000
  51
 232.99735778624
   0
ARC
   5
542
 100
AcDbEntity
   8
LEVEL001
   6
CONTINUOUS
  62
7
 100
AcDbCircle
  10
 259.22196837274
  20
 63.562024937583
  30
0.0
  40
 4.6000000000000
 100
AcDbArc
  50
 0.35400956454550E-12
  51
 52.997357786247
   0
ARC
   5
543
 100
AcDbEntity
   8
LEVEL001
   6
CONTINUOUS
  62
7
 100
AcDbCircle
  10
 254.34696837274
  20
 70.030747763613
  30
0.0
  40
 3.5000000000000
 100
AcDbArc
  50
 307.00264221375
  51
0.0
   0
ARC
   5
544
 100
AcDbEntity
   8
LEVEL001
   6
CONTINUOUS
  62
7
 100
AcDbCircle
  10
 259.22196837274
  20
 63.562024937583
  30
0.0
  40
 4.6000000000000
 100
AcDbArc
  50
 127.00264221375
  51
 180.00000000000
   0
LINE
   5
545
 100
AcDbEntity
   8
LEVEL001
 100
AcDbLine
   6
CONTINUOUS
  62
7
  10
 254.62196837274
  20
 63.562024937583
  30
0.0
  11
 254.62196837274
  21
 56.062024937583
  31
0.0
   0
LINE
   5
546
 100
AcDbEntity
   8
LEVEL001
 100
AcDbLine
   6
CONTINUOUS
  62
7
  10
 263.82196837274
  20
 63.562024937583
  30
0.0
  11
 263.82196837274
  21
 56.062024937583
  31
0.0
   0
LINE
   5
547
 100
AcDbEntity
   8
LEVEL001
 100
AcDbLine
   6
DASHDOT
  62
2
  10
 252.05193342629
  20
 59.812024937583
  30
0.0
  11
 266.58878448447
  21
 59.812024937583
  31
0.0
   0
ARC
   5
548
 100
AcDbEntity
   8
LEVEL001
   6
CONTINUOUS
  62
7
 100
AcDbCircle
  10
 259.22196837274
  20
 56.062024937583
  30
0.0
  40
 4.6000000000000
 100
AcDbArc
  50
 180.00000000000
  51
 270.00000000000
   0
ARC
   5
549
 100
AcDbEntity
   8
LEVEL001
   6
CONTINUOUS
  62
7
 100
AcDbCircle
  10
 259.22196837274
  20
 56.062024937583
  30
0.0
  40
 4.6000000000000
 100
AcDbArc
  50
 270.00000000000
  51
0.0
   0
LINE
   5
54A
 100
AcDbEntity
   8
LEVEL001
 100
AcDbLine
   6
DIVIDE
  62
3
  10
 240.18270081972
  20
 93.962024937583
  30
0.0
  11
 251.22196837274
  21
 93.962024937583
  31
0.0
   0
LINE
   5
54B
 100
AcDbEntity
   8
LEVEL001
 100
AcDbLine
   6
DIVIDE
  62
3
  10
 267.22196837274
  20
 93.962024937583
  30
0.0
  11
 294.56364695760
  21
 93.962024937583
  31
0.0
   0
LINE
   5
54C
 100
AcDbEntity
   8
LEVEL001
 100
AcDbLine
   6
CONTINUOUS
  62
7
  10
 251.22196837274
  20
 93.962024937583
  30
0.0
  11
 267.22196837274
  21
 93.962024937583
  31
0.0
   0
ARC
   5
54D
 100
AcDbEntity
   8
LEVEL001
   6
CONTINUOUS
  62
7
 100
AcDbCircle
  10
 263.47196837274
  20
 98.962024937583
  30
0.0
  40
 0.75000000000000
 100
AcDbArc
  50
0.0
  51
 90.000000000000
   0
POINT
   5
54E
 100
AcDbEntity
   8
LEVEL001
 100
AcDbPoint
  62
7
  10
 264.22196837274
  20
 99.712024937583
  30
0.0
   0
ARC
   5
54F
 100
AcDbEntity
   8
LEVEL001
   6
CONTINUOUS
  62
7
 100
AcDbCircle
  10
 254.97196837274
  20
 98.962024937583
  30
0.0
  40
 0.75000000000000
 100
AcDbArc
  50
 90.000000000000
  51
 180.00000000000
   0
POINT
   5
550
 100
AcDbEntity
   8
LEVEL001
 100
AcDbPoint
  62
7
  10
 254.22196837274
  20
 99.712024937583
  30
0.0
   0
LINE
   5
551
 100
AcDbEntity
   8
LEVEL001
 100
AcDbLine
   6
DOT
  62
2
  10
 260.57196837274
  20
 99.012024937582
  30
0.0
  11
 259.22196837274
  21
 99.012024937582
  31
0.0
   0
LINE
   5
552
 100
AcDbEntity
   8
LEVEL001
 100
AcDbLine
   6
DOT
  62
2
  10
 260.57196837274
  20
 99.012024937582
  30
0.0
  11
 261.27196837274
  21
 99.712024937582
  31
0.0
   0
LINE
   5
553
 100
AcDbEntity
   8
LEVEL001
 100
AcDbLine
   6
DOT
  62
2
  10
 260.57196837274
  20
 98.962024937583
  30
0.0
  11
 260.57196837274
  21
 99.012024937582
  31
0.0
   0
LINE
   5
554
 100
AcDbEntity
   8
LEVEL001
 100
AcDbLine
   6
DOT
  62
2
  10
 257.87196837274
  20
 99.012024937582
  30
0.0
  11
 259.22196837274
  21
 99.012024937582
  31
0.0
   0
LINE
   5
555
 100
AcDbEntity
   8
LEVEL001
 100
AcDbLine
   6
DOT
  62
2
  10
 257.87196837274
  20
 99.012024937582
  30
0.0
  11
 257.17196837274
  21
 99.712024937582
  31
0.0
   0
LINE
   5
556
 100
AcDbEntity
   8
LEVEL001
 100
AcDbLine
   6
DOT
  62
2
  10
 257.87196837274
  20
 98.962024937583
  30
0.0
  11
 257.87196837274
  21
 99.012024937582
  31
0.0
   0
LINE
   5
557
 100
AcDbEntity
   8
LEVEL001
 100
AcDbLine
   6
CONTINUOUS
  62
7
  10
 254.97196837274
  20
 99.712024937583
  30
0.0
  11
 263.47196837274
  21
 99.712024937583
  31
0.0
   0
LINE
   5
558
 100
AcDbEntity
   8
LEVEL001
 100
AcDbLine
   6
DOT
  62
2
  10
 258.17196837274
  20
 98.962024937583
  30
0.0
  11
 258.17196837274
  21
 93.962024937583
  31
0.0
   0
LINE
   5
559
 100
AcDbEntity
   8
LEVEL001
 100
AcDbLine
   6
DOT
  62
2
  10
 260.27196837274
  20
 98.962024937583
  30
0.0
  11
 260.27196837274
  21
 93.962024937583
  31
0.0
   0
LINE
   5
55A
 100
AcDbEntity
   8
LEVEL001
 100
AcDbLine
   6
DIVIDE
  62
3
  10
 240.18270081972
  20
 98.962024937583
  30
0.0
  11
 254.22196837274
  21
 98.962024937583
  31
0.0
   0
LINE
   5
55B
 100
AcDbEntity
   8
LEVEL001
 100
AcDbLine
   6
DIVIDE
  62
3
  10
 264.22196837274
  20
 98.962024937583
  30
0.0
  11
 294.56364695760
  21
 98.962024937583
  31
0.0
   0
LINE
   5
55C
 100
AcDbEntity
   8
LEVEL001
 100
AcDbLine
   6
CONTINUOUS
  62
7
  10
 254.22196837274
  20
 98.962024937583
  30
0.0
  11
 264.22196837274
  21
 98.962024937583
  31
0.0
   0
LINE
   5
55D
 100
AcDbEntity
   8
LEVEL001
 100
AcDbLine
   6
CONTINUOUS
  62
7
  10
 258.22196837274
  20
 110.65828714500
  30
0.0
  11
 260.22196837274
  21
 110.65828714500
  31
0.0
   0
LINE
   5
55E
 100
AcDbEntity
   8
LEVEL001
 100
AcDbLine
   6
CONTINUOUS
  62
7
  10
 257.22196837274
  20
 111.65828714500
  30
0.0
  11
 258.22196837274
  21
 110.65828714500
  31
0.0
   0
LINE
   5
55F
 100
AcDbEntity
   8
LEVEL001
 100
AcDbLine
   6
CONTINUOUS
  62
7
  10
 261.22196837274
  20
 111.65828714500
  30
0.0
  11
 260.22196837274
  21
 110.65828714500
  31
0.0
   0
LINE
   5
560
 100
AcDbEntity
   8
LEVEL001
 100
AcDbLine
   6
CONTINUOUS
  62
7
  10
 257.22196837274
  20
 111.65828714500
  30
0.0
  11
 261.22196837274
  21
 111.65828714500
  31
0.0
   0
LINE
   5
561
 100
AcDbEntity
   8
LEVEL001
 100
AcDbLine
   6
CONTINUOUS
  62
15
  10
 258.47196837274
  20
 110.65828714500
  30
0.0
  11
 258.47196837274
  21
 101.65828714500
  31
0.0
   0
LINE
   5
562
 100
AcDbEntity
   8
LEVEL001
 100
AcDbLine
   6
CONTINUOUS
  62
15
  10
 259.97196837274
  20
 101.65828714500
  30
0.0
  11
 259.97196837274
  21
 110.65828714500
  31
0.0
   0
LINE
   5
563
 100
AcDbEntity
   8
LEVEL001
 100
AcDbLine
   6
CONTINUOUS
  62
7
  10
 258.22196837274
  20
 101.90828714500
  30
0.0
  11
 258.22196837274
  21
 110.65828714500
  31
0.0
   0
LINE
   5
564
 100
AcDbEntity
   8
LEVEL001
 100
AcDbLine
   6
CONTINUOUS
  62
7
  10
 258.22196837274
  20
 101.90828714500
  30
0.0
  11
 258.47196837274
  21
 101.65828714500
  31
0.0
   0
POINT
   5
565
 100
AcDbEntity
   8
LEVEL001
 100
AcDbPoint
  62
7
  10
 258.22196837274
  20
 101.65828714500
  30
0.0
   0
LINE
   5
566
 100
AcDbEntity
   8
LEVEL001
 100
AcDbLine
   6
CONTINUOUS
  62
7
  10
 258.47196837274
  20
 101.65828714500
  30
0.0
  11
 259.97196837274
  21
 101.65828714500
  31
0.0
   0
LINE
   5
567
 100
AcDbEntity
   8
LEVEL001
 100
AcDbLine
   6
CONTINUOUS
  62
7
  10
 259.97196837274
  20
 101.65828714500
  30
0.0
  11
 260.22196837274
  21
 101.90828714500
  31
0.0
   0
POINT
   5
568
 100
AcDbEntity
   8
LEVEL001
 100
AcDbPoint
  62
7
  10
 260.22196837274
  20
 101.65828714500
  30
0.0
   0
LINE
   5
569
 100
AcDbEntity
   8
LEVEL001
 100
AcDbLine
   6
CONTINUOUS
  62
7
  10
 260.22196837274
  20
 101.90828714500
  30
0.0
  11
 260.22196837274
  21
 110.65828714500
  31
0.0
   0
LINE
   5
56A
 100
AcDbEntity
   8
LEVEL001
 100
AcDbLine
   6
DASHDOT
  62
2
  10
 259.22196837274
  20
 50.261401281582
  30
0.0
  11
 259.22196837274
  21
 113.15428132259
  31
0.0
   0
LINE
   5
56B
 100
AcDbEntity
   8
LEVEL001
 100
AcDbLine
   6
DIVIDE
  62
3
  10
 294.56364695760
  20
 109.34844618756
  30
0.0
  11
 294.56364695760
  21
 55.496991188219
  31
0.0
   0
INSERT
   5
56C
 100
AcDbEntity
   8
LEVEL001
 100
AcDbBlockReference
   2
HATCH003
  10
0.0
  20
0.0
  30
0.0
   0
DIMENSION
   5
56D
 100
AcDbEntity
   8
LEVEL001
   6
CONTINUOUS
  62
2
 100
AcDbDimension
   2
*D10
  10
 195.38291321502
  20
 38.789627568091
  30
0.0
  11
 123.10861067215
  21
 38.789627568091
  31
0.0
  70
0
   1
\A1;パイプ長
   3
GMM004
 100
AcDbAlignedDimension
  13
 50.834308129278
  23
 52.212024937583
  33
0.0
  14
 195.38291321502
  24
 52.212024937583
  34
0.0
 100
AcDbRotatedDimension
   0
DIMENSION
   5
56E
 100
AcDbEntity
   8
LEVEL001
   6
CONTINUOUS
  62
2
 100
AcDbDimension
   2
*D11
  10
 50.084308129278
  20
 29.911751461897
  30
0.0
  11
 123.10861067215
  21
 29.911751461897
  31
0.0
  70
0
   1
\A1;パイプ長 +3
   3
GMM005
 100
AcDbAlignedDimension
  13
 196.13291321502
  23
 51.462024937583
  33
0.0
  14
 50.084308129278
  24
 51.462024937583
  34
0.0
  50
 180.00000000000
 100
AcDbRotatedDimension
   0
TEXT
   5
56F
 100
AcDbEntity
   8
LEVEL001
  62
7
 100
AcDbText
  10
 137.62867621160
  20
 20.627141592790
  30
0.0
  40
 4.0000000000000
   1
参考施工例（ｓ＝１／２）
   7
STANDARD
 100
AcDbText
   0
LINE
   5
570
 100
AcDbEntity
   8
LEVEL001
 100
AcDbLine
   6
CONTINUOUS
  62
7
  10
 136.59990391795
  20
 19.089009631451
  30
0.0
  11
 184.64186879725
  21
 19.089009631451
  31
0.0
   0
CIRCLE
   5
571
 100
AcDbEntity
   8
LEVEL001
 100
AcDbCircle
   6
CONTINUOUS
  62
2
  10
 59.957776543270
  20
 259.57854016560
  30
0.0
  40
 1.6500000000000
   0
CIRCLE
   5
572
 100
AcDbEntity
   8
LEVEL001
 100
AcDbCircle
   6
CONTINUOUS
  62
7
  10
 46.207776543270
  20
 259.57854016560
  30
0.0
  40
 0.75000000000000
   0
CIRCLE
   5
573
 100
AcDbEntity
   8
LEVEL001
 100
AcDbCircle
   6
CONTINUOUS
  62
7
  10
 73.707776543270
  20
 259.57854016560
  30
0.0
  40
 0.75000000000000
   0
LINE
   5
574
 100
AcDbEntity
   8
LEVEL001
 100
AcDbLine
   6
DASHDOT
  62
2
  10
 46.207776543270
  20
 257.52190595565
  30
0.0
  11
 46.207776543270
  21
 261.60607508052
  31
0.0
   0
LINE
   5
575
 100
AcDbEntity
   8
LEVEL001
 100
AcDbLine
   6
DASHDOT
  62
2
  10
 73.707776543270
  20
 257.52190595565
  30
0.0
  11
 73.707776543270
  21
 261.60607508052
  31
0.0
   0
LINE
   5
576
 100
AcDbEntity
   8
LEVEL001
 100
AcDbLine
   6
DASHDOT
  62
2
  10
 41.202851444466
  20
 259.57854016560
  30
0.0
  11
 78.168043184879
  21
 259.57854016560
  31
0.0
   0
CIRCLE
   5
577
 100
AcDbEntity
   8
LEVEL001
 100
AcDbCircle
   6
CONTINUOUS
  62
7
  10
 59.957776543270
  20
 259.57854016560
  30
0.0
  40
 2.0000000000000
   0
ARC
   5
578
 100
AcDbEntity
   8
LEVEL001
   6
CONTINUOUS
  62
7
 100
AcDbCircle
  10
 48.957776543271
  20
 257.82854016560
  30
0.0
  40
 5.0000000000000
 100
AcDbArc
  50
 180.00000000000
  51
 269.99999999999
   0
POINT
   5
579
 100
AcDbEntity
   8
LEVEL001
 100
AcDbPoint
  62
7
  10
 43.957776543270
  20
 252.82854016560
  30
0.0
   0
LINE
   5
57A
 100
AcDbEntity
   8
LEVEL001
 100
AcDbLine
   6
CONTINUOUS
  62
7
  10
 43.957776543270
  20
 261.32854016560
  30
0.0
  11
 43.957776543270
  21
 257.82854016560
  31
0.0
   0
ARC
   5
57B
 100
AcDbEntity
   8
LEVEL001
   6
CONTINUOUS
  62
7
 100
AcDbCircle
  10
 48.957776543270
  20
 261.32854016560
  30
0.0
  40
 5.0000000000000
 100
AcDbArc
  50
 90.000000000003
  51
 180.00000000000
   0
POINT
   5
57C
 100
AcDbEntity
   8
LEVEL001
 100
AcDbPoint
  62
7
  10
 43.957776543270
  20
 266.32854016560
  30
0.0
   0
LINE
   5
57D
 100
AcDbEntity
   8
LEVEL001
 100
AcDbLine
   6
CONTINUOUS
  62
7
  10
 59.957776543270
  20
 266.32854016560
  30
0.0
  11
 48.957776543270
  21
 266.32854016560
  31
0.0
   0
LINE
   5
57E
 100
AcDbEntity
   8
LEVEL001
 100
AcDbLine
   6
CONTINUOUS
  62
7
  10
 59.957776543270
  20
 266.32854016560
  30
0.0
  11
 70.957776543270
  21
 266.32854016560
  31
0.0
   0
ARC
   5
57F
 100
AcDbEntity
   8
LEVEL001
   6
CONTINUOUS
  62
7
 100
AcDbCircle
  10
 70.957776543270
  20
 261.32854016561
  30
0.0
  40
 5.0000000000000
 100
AcDbArc
  50
0.0
  51
 90.000000000000
   0
POINT
   5
580
 100
AcDbEntity
   8
LEVEL001
 100
AcDbPoint
  62
7
  10
 75.957776543270
  20
 266.32854016560
  30
0.0
   0
LINE
   5
581
 100
AcDbEntity
   8
LEVEL001
 100
AcDbLine
   6
CONTINUOUS
  62
7
  10
 75.957776543270
  20
 261.32854016560
  30
0.0
  11
 75.957776543270
  21
 257.82854016560
  31
0.0
   0
ARC
   5
582
 100
AcDbEntity
   8
LEVEL001
   6
CONTINUOUS
  62
7
 100
AcDbCircle
  10
 70.957776543269
  20
 257.82854016560
  30
0.0
  40
 5.0000000000000
 100
AcDbArc
  50
 270.00000000001
  51
0.0
   0
POINT
   5
583
 100
AcDbEntity
   8
LEVEL001
 100
AcDbPoint
  62
7
  10
 75.957776543270
  20
 252.82854016560
  30
0.0
   0
LINE
   5
584
 100
AcDbEntity
   8
LEVEL001
 100
AcDbLine
   6
CONTINUOUS
  62
7
  10
 70.957776543270
  20
 252.82854016560
  30
0.0
  11
 48.957776543270
  21
 252.82854016560
  31
0.0
   0
LINE
   5
585
 100
AcDbEntity
   8
LEVEL001
 100
AcDbLine
   6
DASHDOT
  62
2
  10
 59.957776543270
  20
 249.14888273552
  30
0.0
  11
 59.957776543270
  21
 269.54943791238
  31
0.0
   0
DIMENSION
   5
586
 100
AcDbEntity
   8
LEVEL001
   6
CONTINUOUS
  62
2
 100
AcDbDimension
   2
*D12
  10
 90.407623633922
  20
 252.82854016560
  30
0.0
  11
 90.407623633922
  21
 259.57854016560
  31
0.0
  70
0
   3
GMM001
 100
AcDbAlignedDimension
  13
 75.957776543270
  23
 266.32854016560
  33
0.0
  14
 75.957776543270
  24
 252.82854016560
  34
0.0
  50
 270.00000000000
 100
AcDbRotatedDimension
   0
DIMENSION
   5
587
 100
AcDbEntity
   8
LEVEL001
   6
CONTINUOUS
  62
2
 100
AcDbDimension
   2
*D13
  10
 48.957776543270
  20
 261.32854016560
  30
0.0
  11
 42.456246757418
  21
 267.20560947255
  31
0.0
  70
132
   3
GMM006
 100
AcDbRadialDimension
  15
 45.248603029848
  25
 264.68145409938
  35
0.0
  40
 4.1361080027316
   0
CIRCLE
   5
588
 100
AcDbEntity
   8
LEVEL001
 100
AcDbCircle
   6
CONTINUOUS
  62
2
  10
 180.43740782819
  20
 259.57854016560
  30
0.0
  40
 1.6500000000000
   0
CIRCLE
   5
589
 100
AcDbEntity
   8
LEVEL001
 100
AcDbCircle
   6
CONTINUOUS
  62
7
  10
 194.18740782819
  20
 259.57854016560
  30
0.0
  40
 0.75000000000000
   0
CIRCLE
   5
58A
 100
AcDbEntity
   8
LEVEL001
 100
AcDbCircle
   6
CONTINUOUS
  62
7
  10
 166.68740782819
  20
 259.57854016560
  30
0.0
  40
 0.75000000000000
   0
ARC
   5
58B
 100
AcDbEntity
   8
LEVEL001
   6
CONTINUOUS
  62
7
 100
AcDbCircle
  10
 168.43740782819
  20
 260.57854016560
  30
0.0
  40
 4.0000000000000
 100
AcDbArc
  50
 90.000000000027
  51
 180.00000000000
   0
POINT
   5
58C
 100
AcDbEntity
   8
LEVEL001
 100
AcDbPoint
  62
7
  10
 164.43740782819
  20
 264.57854016560
  30
0.0
   0
LINE
   5
58D
 100
AcDbEntity
   8
LEVEL001
 100
AcDbLine
   6
CONTINUOUS
  62
7
  10
 164.43740782819
  20
 260.57854016560
  30
0.0
  11
 164.43740782819
  21
 258.57854016560
  31
0.0
   0
ARC
   5
58E
 100
AcDbEntity
   8
LEVEL001
   6
CONTINUOUS
  62
7
 100
AcDbCircle
  10
 168.43740782819
  20
 258.57854016560
  30
0.0
  40
 4.0000000000000
 100
AcDbArc
  50
 180.00000000000
  51
 270.00000000000
   0
POINT
   5
58F
 100
AcDbEntity
   8
LEVEL001
 100
AcDbPoint
  62
7
  10
 164.43740782819
  20
 254.57854016560
  30
0.0
   0
LINE
   5
590
 100
AcDbEntity
   8
LEVEL001
 100
AcDbLine
   6
CONTINUOUS
  62
7
  10
 168.43740782819
  20
 264.57854016560
  30
0.0
  11
 192.43740782819
  21
 264.57854016560
  31
0.0
   0
ARC
   5
591
 100
AcDbEntity
   8
LEVEL001
   6
CONTINUOUS
  62
7
 100
AcDbCircle
  10
 192.43740782819
  20
 260.57854016561
  30
0.0
  40
 4.0000000000000
 100
AcDbArc
  50
0.0
  51
 90.000000000000
   0
POINT
   5
592
 100
AcDbEntity
   8
LEVEL001
 100
AcDbPoint
  62
7
  10
 196.43740782819
  20
 264.57854016560
  30
0.0
   0
LINE
   5
593
 100
AcDbEntity
   8
LEVEL001
 100
AcDbLine
   6
CONTINUOUS
  62
7
  10
 196.43740782819
  20
 260.57854016560
  30
0.0
  11
 196.43740782819
  21
 258.57854016560
  31
0.0
   0
ARC
   5
594
 100
AcDbEntity
   8
LEVEL001
   6
CONTINUOUS
  62
7
 100
AcDbCircle
  10
 192.43740782819
  20
 258.57854016560
  30
0.0
  40
 4.0000000000000
 100
AcDbArc
  50
 270.00000000000
  51
0.0
   0
POINT
   5
595
 100
AcDbEntity
   8
LEVEL001
 100
AcDbPoint
  62
7
  10
 196.43740782819
  20
 254.57854016560
  30
0.0
   0
LINE
   5
596
 100
AcDbEntity
   8
LEVEL001
 100
AcDbLine
   6
CONTINUOUS
  62
7
  10
 168.43740782819
  20
 254.57854016560
  30
0.0
  11
 192.43740782819
  21
 254.57854016560
  31
0.0
   0
LINE
   5
597
 100
AcDbEntity
   8
LEVEL001
 100
AcDbLine
   6
DASHDOT
  62
2
  10
 162.32310081443
  20
 259.57854016560
  30
0.0
  11
 198.31916767776
  21
 259.57854016560
  31
0.0
   0
LINE
   5
598
 100
AcDbEntity
   8
LEVEL001
 100
AcDbLine
   6
DASHDOT
  62
2
  10
 166.68740782819
  20
 257.52190595565
  30
0.0
  11
 166.68740782819
  21
 261.60607508052
  31
0.0
   0
LINE
   5
599
 100
AcDbEntity
   8
LEVEL001
 100
AcDbLine
   6
DASHDOT
  62
2
  10
 194.18740782819
  20
 257.52190595565
  30
0.0
  11
 194.18740782819
  21
 261.60607508052
  31
0.0
   0
LINE
   5
59A
 100
AcDbEntity
   8
LEVEL001
 100
AcDbLine
   6
DASHDOT
  62
2
  10
 180.43740782819
  20
 251.33683339296
  30
0.0
  11
 180.43740782819
  21
 267.74273309798
  31
0.0
   0
DIMENSION
   5
59B
 100
AcDbEntity
   8
LEVEL001
   6
CONTINUOUS
  62
2
 100
AcDbDimension
   2
*D14
  10
 168.43740782819
  20
 260.57854016560
  30
0.0
  11
 162.49831822579
  21
 265.39560892391
  31
0.0
  70
132
   3
GMM006
 100
AcDbRadialDimension
  15
 165.33079192136
  25
 263.09824999164
  35
0.0
  40
 4.0298313624788
   0
DIMENSION
   5
59C
 100
AcDbEntity
   8
LEVEL001
   6
CONTINUOUS
  62
2
 100
AcDbDimension
   2
*D15
  10
 209.69123857977
  20
 254.57854016560
  30
0.0
  11
 209.69123857977
  21
 259.57854016560
  31
0.0
  70
0
   3
GMM001
 100
AcDbAlignedDimension
  13
 196.43740782819
  23
 264.57854016560
  33
0.0
  14
 196.43740782819
  24
 254.57854016560
  34
0.0
  50
 270.00000000000
 100
AcDbRotatedDimension
   0
INSERT
   5
59D
 100
AcDbEntity
   8
LEVEL001
 100
AcDbBlockReference
   2
*D16
  10
0.0
  20
0.0
  30
0.0
   0
INSERT
   5
59E
 100
AcDbEntity
   8
LEVEL001
 100
AcDbBlockReference
   2
*D17
  10
0.0
  20
0.0
  30
0.0
   0
DIMENSION
   5
59F
 100
AcDbEntity
   8
LEVEL001
   6
CONTINUOUS
  62
2
 100
AcDbDimension
   2
*D18
  10
 75.957776543270
  20
 242.51574766080
  30
0.0
  11
 59.957776543270
  21
 242.51574766080
  31
0.0
  70
0
   3
GMM001
 100
AcDbAlignedDimension
  13
 43.957776543270
  23
 252.82854016560
  33
0.0
  14
 75.957776543270
  24
 252.82854016560
  34
0.0
 100
AcDbRotatedDimension
   0
DIMENSION
   5
5A0
 100
AcDbEntity
   8
LEVEL001
   6
CONTINUOUS
  62
2
 100
AcDbDimension
   2
*D19
  10
 196.43740782819
  20
 242.51574766080
  30
0.0
  11
 180.43740782819
  21
 242.51574766080
  31
0.0
  70
0
   3
GMM001
 100
AcDbAlignedDimension
  13
 164.43740782819
  23
 254.57854016560
  33
0.0
  14
 196.43740782819
  24
 254.57854016560
  34
0.0
 100
AcDbRotatedDimension
   0
ARC
   5
5A1
 100
AcDbEntity
   8
LEVEL001
   6
CONTINUOUS
  62
7
 100
AcDbCircle
  10
 59.957776543270
  20
 156.02383742156
  30
0.0
  40
 7.7000000000000
 100
AcDbArc
  50
 180.00000000000
  51
 270.00000000000
   0
ARC
   5
5A2
 100
AcDbEntity
   8
LEVEL001
   6
CONTINUOUS
  62
7
 100
AcDbCircle
  10
 59.957776543270
  20
 171.02383742156
  30
0.0
  40
 7.7000000000000
 100
AcDbArc
  50
 89.999999999999
  51
 180.00000000000
   0
LINE
   5
5A3
 100
AcDbEntity
   8
LEVEL001
 100
AcDbLine
   6
DASHDOT
  62
2
  10
 45.617706650373
  20
 163.52383742156
  30
0.0
  11
 74.691408766738
  21
 163.52383742156
  31
0.0
   0
ARC
   5
5A4
 100
AcDbEntity
   8
LEVEL001
   6
CONTINUOUS
  62
7
 100
AcDbCircle
  10
 59.957776543270
  20
 156.02383742156
  30
0.0
  40
 7.7000000000000
 100
AcDbArc
  50
 270.00000000000
  51
0.0
   0
ARC
   5
5A5
 100
AcDbEntity
   8
LEVEL001
   6
CONTINUOUS
  62
7
 100
AcDbCircle
  10
 59.957776543270
  20
 171.02383742156
  30
0.0
  40
 7.7000000000000
 100
AcDbArc
  50
 0.12689174001891E-11
  51
 90.000000000000
   0
ARC
   5
5A6
 100
AcDbEntity
   8
LEVEL001
   6
CONTINUOUS
  62
7
 100
AcDbCircle
  10
 59.957776543270
  20
 156.02383742156
  30
0.0
  40
 9.2000000000000
 100
AcDbArc
  50
 270.00000000000
  51
0.0
   0
ARC
   5
5A7
 100
AcDbEntity
   8
LEVEL001
   6
CONTINUOUS
  62
7
 100
AcDbCircle
  10
 59.957776543270
  20
 156.02383742156
  30
0.0
  40
 9.2000000000000
 100
AcDbArc
  50
 180.00000000000
  51
 270.00000000000
   0
ARC
   5
5A8
 100
AcDbEntity
   8
LEVEL001
   6
CONTINUOUS
  62
7
 100
AcDbCircle
  10
 69.707776543270
  20
 183.96128307362
  30
0.0
  40
 7.0000000000000
 100
AcDbArc
  50
 180.00000000000
  51
 232.99735778624
   0
ARC
   5
5A9
 100
AcDbEntity
   8
LEVEL001
   6
CONTINUOUS
  62
7
 100
AcDbCircle
  10
 59.957776543270
  20
 171.02383742156
  30
0.0
  40
 9.2000000000000
 100
AcDbArc
  50
 0.17700478227275E-12
  51
 52.997357786247
   0
ARC
   5
5AA
 100
AcDbEntity
   8
LEVEL001
   6
CONTINUOUS
  62
7
 100
AcDbCircle
  10
 50.207776543270
  20
 183.96128307362
  30
0.0
  40
 7.0000000000000
 100
AcDbArc
  50
 307.00264221375
  51
0.0
   0
ARC
   5
5AB
 100
AcDbEntity
   8
LEVEL001
   6
CONTINUOUS
  62
7
 100
AcDbCircle
  10
 59.957776543270
  20
 171.02383742156
  30
0.0
  40
 9.2000000000000
 100
AcDbArc
  50
 127.00264221375
  51
 180.00000000000
   0
LINE
   5
5AC
 100
AcDbEntity
   8
LEVEL001
 100
AcDbLine
   6
CONTINUOUS
  62
7
  10
 46.957776543270
  20
 231.82383742156
  30
0.0
  11
 46.207776543270
  21
 233.32383742156
  31
0.0
   0
LINE
   5
5AD
 100
AcDbEntity
   8
LEVEL001
 100
AcDbLine
   6
CONTINUOUS
  62
7
  10
 45.457776543270
  20
 231.82383742156
  30
0.0
  11
 46.207776543270
  21
 233.32383742156
  31
0.0
   0
LINE
   5
5AE
 100
AcDbEntity
   8
LEVEL001
 100
AcDbLine
   6
CONTINUOUS
  62
7
  10
 72.957776543270
  20
 231.82383742156
  30
0.0
  11
 73.707776543270
  21
 233.32383742156
  31
0.0
   0
LINE
   5
5AF
 100
AcDbEntity
   8
LEVEL001
 100
AcDbLine
   6
CONTINUOUS
  62
7
  10
 74.457776543270
  20
 231.82383742156
  30
0.0
  11
 73.707776543270
  21
 233.32383742156
  31
0.0
   0
LINE
   5
5B0
 100
AcDbEntity
   8
LEVEL001
 100
AcDbLine
   6
DOT
  62
2
  10
 59.957776543270
  20
 217.37120947734
  30
0.0
  11
 58.307776543270
  21
 218.32383742150
  31
0.0
   0
LINE
   5
5B1
 100
AcDbEntity
   8
LEVEL001
 100
AcDbLine
   6
DOT
  62
2
  10
 59.957776543270
  20
 218.32383742156
  30
0.0
  11
 58.307776543270
  21
 218.32383742156
  31
0.0
   0
LINE
   5
5B2
 100
AcDbEntity
   8
LEVEL001
 100
AcDbLine
   6
DOT
  62
2
  10
 59.957776543270
  20
 217.37120947734
  30
0.0
  11
 61.607776543270
  21
 218.32383742150
  31
0.0
   0
LINE
   5
5B3
 100
AcDbEntity
   8
LEVEL001
 100
AcDbLine
   6
DOT
  62
2
  10
 59.957776543270
  20
 218.32383742156
  30
0.0
  11
 61.607776543270
  21
 218.32383742156
  31
0.0
   0
LINE
   5
5B4
 100
AcDbEntity
   8
LEVEL001
 100
AcDbLine
   6
CONTINUOUS
  62
7
  10
 43.957776543270
  20
 231.82383742156
  30
0.0
  11
 75.957776543270
  21
 231.82383742156
  31
0.0
   0
LINE
   5
5B5
 100
AcDbEntity
   8
LEVEL001
 100
AcDbLine
   6
DASHDOT
  62
2
  10
 46.207776543270
  20
 230.46182756315
  30
0.0
  11
 46.207776543270
  21
 234.46139054797
  31
0.0
   0
LINE
   5
5B6
 100
AcDbEntity
   8
LEVEL001
 100
AcDbLine
   6
DASHDOT
  62
2
  10
 73.707776543270
  20
 230.46182756315
  30
0.0
  11
 73.707776543270
  21
 234.46139054797
  31
0.0
   0
LINE
   5
5B7
 100
AcDbEntity
   8
LEVEL001
 100
AcDbLine
   6
CONTINUOUS
  62
7
  10
 43.957776543270
  20
 231.82383742156
  30
0.0
  11
 43.957776543270
  21
 231.32383742156
  31
0.0
   0
ARC
   5
5B8
 100
AcDbEntity
   8
LEVEL001
   6
CONTINUOUS
  62
7
 100
AcDbCircle
  10
 45.957776543269
  20
 231.32383742156
  30
0.0
  40
 2.0000000000000
 100
AcDbArc
  50
 180.00000000000
  51
 270.00000000003
   0
POINT
   5
5B9
 100
AcDbEntity
   8
LEVEL001
 100
AcDbPoint
  62
7
  10
 43.957776543270
  20
 229.32383742156
  30
0.0
   0
LINE
   5
5BA
 100
AcDbEntity
   8
LEVEL001
 100
AcDbLine
   6
CONTINUOUS
  62
7
  10
 75.957776543270
  20
 231.82383742156
  30
0.0
  11
 75.957776543270
  21
 231.32383742156
  31
0.0
   0
ARC
   5
5BB
 100
AcDbEntity
   8
LEVEL001
   6
CONTINUOUS
  62
7
 100
AcDbCircle
  10
 73.957776543270
  20
 231.32383742156
  30
0.0
  40
 2.0000000000000
 100
AcDbArc
  50
 270.00000000000
  51
0.0
   0
POINT
   5
5BC
 100
AcDbEntity
   8
LEVEL001
 100
AcDbPoint
  62
7
  10
 75.957776543270
  20
 229.32383742156
  30
0.0
   0
LINE
   5
5BD
 100
AcDbEntity
   8
LEVEL001
 100
AcDbLine
   6
CONTINUOUS
  62
7
  10
 45.957776543270
  20
 229.32383742156
  30
0.0
  11
 53.207776543270
  21
 229.32383742156
  31
0.0
   0
ARC
   5
5BE
 100
AcDbEntity
   8
LEVEL001
   6
CONTINUOUS
  62
7
 100
AcDbCircle
  10
 53.207776543270
  20
 225.32383742156
  30
0.0
  40
 4.0000000000000
 100
AcDbArc
  50
 0.12213329976820E-10
  51
 90.000000000000
   0
POINT
   5
5BF
 100
AcDbEntity
   8
LEVEL001
 100
AcDbPoint
  62
7
  10
 57.207776543270
  20
 229.32383742156
  30
0.0
   0
LINE
   5
5C0
 100
AcDbEntity
   8
LEVEL001
 100
AcDbLine
   6
CONTINUOUS
  62
7
  10
 57.207776543270
  20
 225.32383742156
  30
0.0
  11
 57.207776543270
  21
 183.96128307362
  31
0.0
   0
LINE
   5
5C1
 100
AcDbEntity
   8
LEVEL001
 100
AcDbLine
   6
CONTINUOUS
  62
7
  10
 62.707776543270
  20
 225.32383742156
  30
0.0
  11
 62.707776543270
  21
 183.96128307362
  31
0.0
   0
ARC
   5
5C2
 100
AcDbEntity
   8
LEVEL001
   6
CONTINUOUS
  62
7
 100
AcDbCircle
  10
 66.707776543270
  20
 225.32383742156
  30
0.0
  40
 4.0000000000000
 100
AcDbArc
  50
 89.999999999999
  51
 180.00000000000
   0
POINT
   5
5C3
 100
AcDbEntity
   8
LEVEL001
 100
AcDbPoint
  62
7
  10
 62.707776543270
  20
 229.32383742156
  30
0.0
   0
LINE
   5
5C4
 100
AcDbEntity
   8
LEVEL001
 100
AcDbLine
   6
CONTINUOUS
  62
7
  10
 66.707776543270
  20
 229.32383742156
  30
0.0
  11
 73.957776543270
  21
 229.32383742156
  31
0.0
   0
LINE
   5
5C5
 100
AcDbEntity
   8
LEVEL001
 100
AcDbLine
   6
DOT
  62
2
  10
 57.957776543270
  20
 231.82383742156
  30
0.0
  11
 57.957776543270
  21
 219.82383742156
  31
0.0
   0
LINE
   5
5C6
 100
AcDbEntity
   8
LEVEL001
 100
AcDbLine
   6
DOT
  62
2
  10
 58.307776543270
  20
 231.82383742156
  30
0.0
  11
 58.307776543270
  21
 218.32383742156
  31
0.0
   0
LINE
   5
5C7
 100
AcDbEntity
   8
LEVEL001
 100
AcDbLine
   6
DOT
  62
2
  10
 61.607776543270
  20
 231.82383742156
  30
0.0
  11
 61.607776543270
  21
 218.32383742156
  31
0.0
   0
LINE
   5
5C8
 100
AcDbEntity
   8
LEVEL001
 100
AcDbLine
   6
DOT
  62
2
  10
 61.957776543270
  20
 231.82383742156
  30
0.0
  11
 61.957776543270
  21
 219.82383742156
  31
0.0
   0
LINE
   5
5C9
 100
AcDbEntity
   8
LEVEL001
 100
AcDbLine
   6
DOT
  62
2
  10
 57.957776543270
  20
 219.82383742156
  30
0.0
  11
 61.957776543270
  21
 219.82383742156
  31
0.0
   0
LINE
   5
5CA
 100
AcDbEntity
   8
LEVEL001
 100
AcDbLine
   6
CONTINUOUS
  62
7
  10
 50.757776543270
  20
 171.02383742156
  30
0.0
  11
 50.757776543270
  21
 156.02383742156
  31
0.0
   0
LINE
   5
5CB
 100
AcDbEntity
   8
LEVEL001
 100
AcDbLine
   6
CONTINUOUS
  62
7
  10
 69.157776543270
  20
 171.02383742156
  30
0.0
  11
 69.157776543270
  21
 156.02383742156
  31
0.0
   0
LINE
   5
5CC
 100
AcDbEntity
   8
LEVEL001
 100
AcDbLine
   6
CONTINUOUS
  62
7
  10
 52.257776543270
  20
 171.02383742156
  30
0.0
  11
 52.257776543270
  21
 156.02383742156
  31
0.0
   0
LINE
   5
5CD
 100
AcDbEntity
   8
LEVEL001
 100
AcDbLine
   6
CONTINUOUS
  62
7
  10
 67.657776543270
  20
 171.02383742156
  30
0.0
  11
 67.657776543270
  21
 156.02383742156
  31
0.0
   0
LINE
   5
5CE
 100
AcDbEntity
   8
LEVEL001
 100
AcDbLine
   6
DASHDOT
  62
2
  10
 59.957776543270
  20
 143.13766089359
  30
0.0
  11
 59.957776543270
  21
 238.18502214416
  31
0.0
   0
LINE
   5
5CF
 100
AcDbEntity
   8
LEVEL001
 100
AcDbLine
   6
DASHDOT
  62
2
  10
 48.796543280641
  20
 171.02383742156
  30
0.0
  11
 71.397919878478
  21
 171.02383742156
  31
0.0
   0
LINE
   5
5D0
 100
AcDbEntity
   8
LEVEL001
 100
AcDbLine
   6
DASHDOT
  62
2
  10
 48.796543280641
  20
 156.02383742156
  30
0.0
  11
 71.397919878478
  21
 156.02383742156
  31
0.0
   0
DIMENSION
   5
5D1
 100
AcDbEntity
   8
LEVEL001
   6
CONTINUOUS
  62
2
 100
AcDbDimension
   2
*D20
  10
 69.157776543270
  20
 134.52409124712
  30
0.0
  11
 59.957776543270
  21
 134.52409124712
  31
0.0
  70
0
   3
GMM001
 100
AcDbAlignedDimension
  13
 50.757776543270
  23
 152.28578432422
  33
0.0
  14
 69.157776543270
  24
 152.28578432422
  34
0.0
 100
AcDbRotatedDimension
   0
LINE
   5
5D2
 100
AcDbEntity
   8
LEVEL001
 100
AcDbLine
   6
CONTINUOUS
  62
7
  10
 167.93740782819
  20
 231.82383742156
  30
0.0
  11
 165.93740782819
  21
 231.82383742156
  31
0.0
   0
LINE
   5
5D3
 100
AcDbEntity
   8
LEVEL001
 100
AcDbLine
   6
CONTINUOUS
  62
7
  10
 177.93740782819
  20
 231.82383742156
  30
0.0
  11
 167.93740782819
  21
 231.82383742156
  31
0.0
   0
LINE
   5
5D4
 100
AcDbEntity
   8
LEVEL001
 100
AcDbLine
   6
CONTINUOUS
  62
7
  10
 167.43740782819
  20
 231.82383742156
  30
0.0
  11
 166.68740782819
  21
 233.32383742156
  31
0.0
   0
LINE
   5
5D5
 100
AcDbEntity
   8
LEVEL001
 100
AcDbLine
   6
CONTINUOUS
  62
7
  10
 165.93740782819
  20
 231.82383742156
  30
0.0
  11
 166.68740782819
  21
 233.32383742156
  31
0.0
   0
LINE
   5
5D6
 100
AcDbEntity
   8
LEVEL001
 100
AcDbLine
   6
CONTINUOUS
  62
7
  10
 165.93740782819
  20
 231.82383742156
  30
0.0
  11
 164.43740782819
  21
 231.82383742156
  31
0.0
   0
LINE
   5
5D7
 100
AcDbEntity
   8
LEVEL001
 100
AcDbLine
   6
CONTINUOUS
  62
7
  10
 192.93740782819
  20
 231.82383742156
  30
0.0
  11
 194.93740782819
  21
 231.82383742156
  31
0.0
   0
LINE
   5
5D8
 100
AcDbEntity
   8
LEVEL001
 100
AcDbLine
   6
CONTINUOUS
  62
7
  10
 182.93740782819
  20
 231.82383742156
  30
0.0
  11
 192.93740782819
  21
 231.82383742156
  31
0.0
   0
LINE
   5
5D9
 100
AcDbEntity
   8
LEVEL001
 100
AcDbLine
   6
CONTINUOUS
  62
7
  10
 193.43740782819
  20
 231.82383742156
  30
0.0
  11
 194.18740782819
  21
 233.32383742156
  31
0.0
   0
LINE
   5
5DA
 100
AcDbEntity
   8
LEVEL001
 100
AcDbLine
   6
CONTINUOUS
  62
7
  10
 194.93740782819
  20
 231.82383742156
  30
0.0
  11
 194.18740782819
  21
 233.32383742156
  31
0.0
   0
LINE
   5
5DB
 100
AcDbEntity
   8
LEVEL001
 100
AcDbLine
   6
CONTINUOUS
  62
7
  10
 194.93740782819
  20
 231.82383742156
  30
0.0
  11
 196.43740782819
  21
 231.82383742156
  31
0.0
   0
LINE
   5
5DC
 100
AcDbEntity
   8
LEVEL001
 100
AcDbLine
   6
DOT
  62
2
  10
 180.43740782819
  20
 217.37120947734
  30
0.0
  11
 178.78740782819
  21
 218.32383742150
  31
0.0
   0
LINE
   5
5DD
 100
AcDbEntity
   8
LEVEL001
 100
AcDbLine
   6
DOT
  62
2
  10
 180.43740782819
  20
 217.37120947734
  30
0.0
  11
 182.08740782819
  21
 218.32383742150
  31
0.0
   0
LINE
   5
5DE
 100
AcDbEntity
   8
LEVEL001
 100
AcDbLine
   6
CONTINUOUS
  62
7
  10
 180.43740782819
  20
 231.82383742156
  30
0.0
  11
 177.93740782819
  21
 231.82383742156
  31
0.0
   0
LINE
   5
5DF
 100
AcDbEntity
   8
LEVEL001
 100
AcDbLine
   6
CONTINUOUS
  62
7
  10
 180.43740782819
  20
 231.82383742156
  30
0.0
  11
 182.93740782819
  21
 231.82383742156
  31
0.0
   0
ARC
   5
5E0
 100
AcDbEntity
   8
LEVEL001
   6
CONTINUOUS
  62
7
 100
AcDbCircle
  10
 172.78650544810
  20
 156.57383742157
  30
0.0
  40
 0.30000000000000
 100
AcDbArc
  50
 333.35975124519
  51
 26.640248753959
   0
ARC
   5
5E1
 100
AcDbEntity
   8
LEVEL001
   6
CONTINUOUS
  62
7
 100
AcDbCircle
  10
 175.55740782819
  20
 157.96383742156
  30
0.0
  40
 2.8000000000000
 100
AcDbArc
  50
 153.35975124551
  51
 206.64024875447
   0
ARC
   5
5E2
 100
AcDbEntity
   8
LEVEL001
   6
CONTINUOUS
  62
7
 100
AcDbCircle
  10
 172.78650544810
  20
 159.35383742157
  30
0.0
  40
 0.30000000000000
 100
AcDbArc
  50
 333.35975124527
  51
 26.640248754073
   0
ARC
   5
5E3
 100
AcDbEntity
   8
LEVEL001
   6
CONTINUOUS
  62
7
 100
AcDbCircle
  10
 175.55740782819
  20
 160.74383742156
  30
0.0
  40
 2.8000000000000
 100
AcDbArc
  50
 180.00000000001
  51
 206.64024875451
   0
ARC
   5
5E4
 100
AcDbEntity
   8
LEVEL001
   6
CONTINUOUS
  62
7
 100
AcDbCircle
  10
 175.55740782819
  20
 160.74383742156
  30
0.0
  40
 2.8000000000000
 100
AcDbArc
  50
 153.35975124549
  51
 179.99999999998
   0
ARC
   5
5E5
 100
AcDbEntity
   8
LEVEL001
   6
CONTINUOUS
  62
7
 100
AcDbCircle
  10
 172.78650544810
  20
 162.13383742157
  30
0.0
  40
 0.30000000000000
 100
AcDbArc
  50
 333.35975124482
  51
 26.640248753328
   0
ARC
   5
5E6
 100
AcDbEntity
   8
LEVEL001
   6
CONTINUOUS
  62
7
 100
AcDbCircle
  10
 175.55740782819
  20
 163.52383742156
  30
0.0
  40
 2.8000000000000
 100
AcDbArc
  50
 179.99999999998
  51
 206.64024875446
   0
ARC
   5
5E7
 100
AcDbEntity
   8
LEVEL001
   6
CONTINUOUS
  62
7
 100
AcDbCircle
  10
 180.43740782819
  20
 156.02383742156
  30
0.0
  40
 7.7000000000000
 100
AcDbArc
  50
 184.79230001278
  51
 270.00000000000
   0
ARC
   5
5E8
 100
AcDbEntity
   8
LEVEL001
   6
CONTINUOUS
  62
7
 100
AcDbCircle
  10
 175.55740782819
  20
 155.18383742156
  30
0.0
  40
 2.8000000000000
 100
AcDbArc
  50
 162.54239687628
  51
 175.97141169634
   0
ARC
   5
5E9
 100
AcDbEntity
   8
LEVEL001
   6
CONTINUOUS
  62
7
 100
AcDbCircle
  10
 175.55740782819
  20
 155.18383742156
  30
0.0
  40
 2.8000000000000
 100
AcDbArc
  50
 153.35975124546
  51
 162.54239687623
   0
ARC
   5
5EA
 100
AcDbEntity
   8
LEVEL001
   6
CONTINUOUS
  62
7
 100
AcDbCircle
  10
 180.43740782819
  20
 156.02383742156
  30
0.0
  40
 7.7000000000000
 100
AcDbArc
  50
 270.00000000000
  51
 355.20769998723
   0
ARC
   5
5EB
 100
AcDbEntity
   8
LEVEL001
   6
CONTINUOUS
  62
7
 100
AcDbCircle
  10
 188.08831020829
  20
 156.57383742157
  30
0.0
  40
 0.30000000000000
 100
AcDbArc
  50
 153.35975124628
  51
 206.64024875495
   0
ARC
   5
5EC
 100
AcDbEntity
   8
LEVEL001
   6
CONTINUOUS
  62
7
 100
AcDbCircle
  10
 185.31740782819
  20
 157.96383742156
  30
0.0
  40
 2.8000000000000
 100
AcDbArc
  50
 333.35975124552
  51
 26.640248754488
   0
ARC
   5
5ED
 100
AcDbEntity
   8
LEVEL001
   6
CONTINUOUS
  62
7
 100
AcDbCircle
  10
 188.08831020828
  20
 159.35383742156
  30
0.0
  40
 0.30000000000000
 100
AcDbArc
  50
 153.35975124464
  51
 206.64024875396
   0
ARC
   5
5EE
 100
AcDbEntity
   8
LEVEL001
   6
CONTINUOUS
  62
7
 100
AcDbCircle
  10
 185.31740782819
  20
 155.18383742156
  30
0.0
  40
 2.8000000000000
 100
AcDbArc
  50
 4.0285883037127
  51
 17.457603123773
   0
ARC
   5
5EF
 100
AcDbEntity
   8
LEVEL001
   6
CONTINUOUS
  62
7
 100
AcDbCircle
  10
 185.31740782819
  20
 155.18383742157
  30
0.0
  40
 2.8000000000000
 100
AcDbArc
  50
 17.457603123675
  51
 26.640248754445
   0
ARC
   5
5F0
 100
AcDbEntity
   8
LEVEL001
   6
CONTINUOUS
  62
7
 100
AcDbCircle
  10
 185.31740782819
  20
 160.74383742156
  30
0.0
  40
 2.8000000000000
 100
AcDbArc
  50
0.0
  51
 26.640248754489
   0
ARC
   5
5F1
 100
AcDbEntity
   8
LEVEL001
   6
CONTINUOUS
  62
7
 100
AcDbCircle
  10
 185.31740782819
  20
 160.74383742156
  30
0.0
  40
 2.8000000000000
 100
AcDbArc
  50
 333.35975124550
  51
0.0
   0
ARC
   5
5F2
 100
AcDbEntity
   8
LEVEL001
   6
CONTINUOUS
  62
7
 100
AcDbCircle
  10
 185.31740782819
  20
 163.52383742157
  30
0.0
  40
 2.8000000000000
 100
AcDbArc
  50
0.0
  51
 26.640248754463
   0
ARC
   5
5F3
 100
AcDbEntity
   8
LEVEL001
   6
CONTINUOUS
  62
7
 100
AcDbCircle
  10
 188.08831020829
  20
 164.91383742157
  30
0.0
  40
 0.30000000000000
 100
AcDbArc
  50
 153.35975124621
  51
 206.64024875490
   0
ARC
   5
5F4
 100
AcDbEntity
   8
LEVEL001
   6
CONTINUOUS
  62
7
 100
AcDbCircle
  10
 185.31740782819
  20
 166.30383742156
  30
0.0
  40
 2.8000000000000
 100
AcDbArc
  50
 333.35975124552
  51
 26.640248754484
   0
ARC
   5
5F5
 100
AcDbEntity
   8
LEVEL001
   6
CONTINUOUS
  62
7
 100
AcDbCircle
  10
 188.08831020828
  20
 167.69383742156
  30
0.0
  40
 0.30000000000000
 100
AcDbArc
  50
 153.35975124528
  51
 206.64024875435
   0
ARC
   5
5F6
 100
AcDbEntity
   8
LEVEL001
   6
CONTINUOUS
  62
7
 100
AcDbCircle
  10
 185.31740782819
  20
 169.08383742156
  30
0.0
  40
 2.8000000000000
 100
AcDbArc
  50
 333.35975124550
  51
 26.640248754490
   0
ARC
   5
5F7
 100
AcDbEntity
   8
LEVEL001
   6
CONTINUOUS
  62
7
 100
AcDbCircle
  10
 185.31740782819
  20
 163.52383742156
  30
0.0
  40
 2.8000000000000
 100
AcDbArc
  50
 333.35975124557
  51
 0.45363797056742E-10
   0
ARC
   5
5F8
 100
AcDbEntity
   8
LEVEL001
   6
CONTINUOUS
  62
7
 100
AcDbCircle
  10
 188.08831020829
  20
 162.13383742157
  30
0.0
  40
 0.30000000000000
 100
AcDbArc
  50
 153.35975124692
  51
 206.64024875532
   0
ARC
   5
5F9
 100
AcDbEntity
   8
LEVEL001
   6
CONTINUOUS
  62
7
 100
AcDbCircle
  10
 180.43740782819
  20
 171.02383742156
  30
0.0
  40
 7.7000000000000
 100
AcDbArc
  50
 4.7923000127711
  51
 89.999999999997
   0
ARC
   5
5FA
 100
AcDbEntity
   8
LEVEL001
   6
CONTINUOUS
  62
7
 100
AcDbCircle
  10
 185.31740782819
  20
 171.86383742157
  30
0.0
  40
 2.8000000000000
 100
AcDbArc
  50
 342.54239687617
  51
 355.97141169622
   0
ARC
   5
5FB
 100
AcDbEntity
   8
LEVEL001
   6
CONTINUOUS
  62
7
 100
AcDbCircle
  10
 185.31740782819
  20
 171.86383742156
  30
0.0
  40
 2.8000000000000
 100
AcDbArc
  50
 333.35975124559
  51
 342.54239687635
   0
ARC
   5
5FC
 100
AcDbEntity
   8
LEVEL001
   6
CONTINUOUS
  62
7
 100
AcDbCircle
  10
 188.08831020828
  20
 170.47383742156
  30
0.0
  40
 0.30000000000000
 100
AcDbArc
  50
 153.35975124513
  51
 206.64024875426
   0
ARC
   5
5FD
 100
AcDbEntity
   8
LEVEL001
   6
CONTINUOUS
  62
7
 100
AcDbCircle
  10
 175.55740782819
  20
 163.52383742156
  30
0.0
  40
 2.8000000000000
 100
AcDbArc
  50
 153.35975124552
  51
 180.00000000001
   0
ARC
   5
5FE
 100
AcDbEntity
   8
LEVEL001
   6
CONTINUOUS
  62
7
 100
AcDbCircle
  10
 172.78650544810
  20
 164.91383742157
  30
0.0
  40
 0.30000000000000
 100
AcDbArc
  50
 333.35975124525
  51
 26.640248754044
   0
ARC
   5
5FF
 100
AcDbEntity
   8
LEVEL001
   6
CONTINUOUS
  62
7
 100
AcDbCircle
  10
 175.55740782819
  20
 166.30383742156
  30
0.0
  40
 2.8000000000000
 100
AcDbArc
  50
 153.35975124552
  51
 206.64024875448
   0
ARC
   5
600
 100
AcDbEntity
   8
LEVEL001
   6
CONTINUOUS
  62
7
 100
AcDbCircle
  10
 172.78650544810
  20
 167.69383742157
  30
0.0
  40
 0.30000000000000
 100
AcDbArc
  50
 333.35975124512
  51
 26.640248753830
   0
ARC
   5
601
 100
AcDbEntity
   8
LEVEL001
   6
CONTINUOUS
  62
7
 100
AcDbCircle
  10
 175.55740782819
  20
 169.08383742156
  30
0.0
  40
 2.8000000000000
 100
AcDbArc
  50
 153.35975124551
  51
 206.64024875449
   0
ARC
   5
602
 100
AcDbEntity
   8
LEVEL001
   6
CONTINUOUS
  62
7
 100
AcDbCircle
  10
 172.78650544810
  20
 170.47383742156
  30
0.0
  40
 0.30000000000000
 100
AcDbArc
  50
 333.35975124612
  51
 26.640248755513
   0
ARC
   5
603
 100
AcDbEntity
   8
LEVEL001
   6
CONTINUOUS
  62
7
 100
AcDbCircle
  10
 175.55740782819
  20
 171.86383742157
  30
0.0
  40
 2.8000000000000
 100
AcDbArc
  50
 197.45760312378
  51
 206.64024875454
   0
ARC
   5
604
 100
AcDbEntity
   8
LEVEL001
   6
CONTINUOUS
  62
7
 100
AcDbCircle
  10
 175.55740782819
  20
 171.86383742157
  30
0.0
  40
 2.8000000000000
 100
AcDbArc
  50
 184.02858830373
  51
 197.45760312378
   0
ARC
   5
605
 100
AcDbEntity
   8
LEVEL001
   6
CONTINUOUS
  62
7
 100
AcDbCircle
  10
 180.43740782819
  20
 171.02383742156
  30
0.0
  40
 7.7000000000000
 100
AcDbArc
  50
 90.000000000017
  51
 175.20769998732
   0
ARC
   5
606
 100
AcDbEntity
   8
LEVEL001
   6
CONTINUOUS
  62
7
 100
AcDbCircle
  10
 190.18740782819
  20
 184.58213746250
  30
0.0
  40
 7.0000000000000
 100
AcDbArc
  50
 180.00000000000
  51
 234.27945737876
   0
ARC
   5
607
 100
AcDbEntity
   8
LEVEL001
   6
CONTINUOUS
  62
7
 100
AcDbCircle
  10
 170.68740782819
  20
 184.58213746250
  30
0.0
  40
 7.0000000000000
 100
AcDbArc
  50
 305.72054262124
  51
 0.16284439969093E-11
   0
LINE
   5
608
 100
AcDbEntity
   8
LEVEL001
 100
AcDbLine
   6
DASHDOT
  62
2
  10
 166.09733793530
  20
 163.52383742156
  30
0.0
  11
 195.17104005166
  21
 163.52383742156
  31
0.0
   0
ARC
   5
609
 100
AcDbEntity
   8
LEVEL001
   6
CONTINUOUS
  62
7
 100
AcDbCircle
  10
 173.53740051574
  20
 169.08383742156
  30
0.0
  40
 2.8000000000000
 100
AcDbArc
  50
 153.35975124550
  51
 206.64024875449
   0
ARC
   5
60A
 100
AcDbEntity
   8
LEVEL001
   6
CONTINUOUS
  62
7
 100
AcDbCircle
  10
 170.76649813565
  20
 170.47383742156
  30
0.0
  40
 0.30000000000000
 100
AcDbArc
  50
 333.35975124623
  51
 26.640248755695
   0
ARC
   5
60B
 100
AcDbEntity
   8
LEVEL001
   6
CONTINUOUS
  62
7
 100
AcDbCircle
  10
 173.53740051574
  20
 171.86383742157
  30
0.0
  40
 2.8000000000000
 100
AcDbArc
  50
 197.45760312379
  51
 206.64024875456
   0
ARC
   5
60C
 100
AcDbEntity
   8
LEVEL001
   6
CONTINUOUS
  62
7
 100
AcDbCircle
  10
 173.53740051574
  20
 163.52383742156
  30
0.0
  40
 2.8000000000000
 100
AcDbArc
  50
 153.35975124551
  51
 180.00000000000
   0
ARC
   5
60D
 100
AcDbEntity
   8
LEVEL001
   6
CONTINUOUS
  62
7
 100
AcDbCircle
  10
 170.76649813565
  20
 164.91383742156
  30
0.0
  40
 0.30000000000000
 100
AcDbArc
  50
 333.35975124541
  51
 26.640248754316
   0
ARC
   5
60E
 100
AcDbEntity
   8
LEVEL001
   6
CONTINUOUS
  62
7
 100
AcDbCircle
  10
 173.53740051574
  20
 166.30383742156
  30
0.0
  40
 2.8000000000000
 100
AcDbArc
  50
 153.35975124552
  51
 206.64024875448
   0
ARC
   5
60F
 100
AcDbEntity
   8
LEVEL001
   6
CONTINUOUS
  62
7
 100
AcDbCircle
  10
 170.76649813565
  20
 167.69383742157
  30
0.0
  40
 0.30000000000000
 100
AcDbArc
  50
 333.35975124485
  51
 26.640248753376
   0
ARC
   5
610
 100
AcDbEntity
   8
LEVEL001
   6
CONTINUOUS
  62
7
 100
AcDbCircle
  10
 173.53740051574
  20
 163.52383742156
  30
0.0
  40
 2.8000000000000
 100
AcDbArc
  50
 179.99999999999
  51
 206.64024875448
   0
ARC
   5
611
 100
AcDbEntity
   8
LEVEL001
   6
CONTINUOUS
  62
7
 100
AcDbCircle
  10
 173.53740051574
  20
 160.74383742156
  30
0.0
  40
 2.8000000000000
 100
AcDbArc
  50
 153.35975124548
  51
 179.99999999997
   0
ARC
   5
612
 100
AcDbEntity
   8
LEVEL001
   6
CONTINUOUS
  62
7
 100
AcDbCircle
  10
 170.76649813565
  20
 162.13383742157
  30
0.0
  40
 0.30000000000000
 100
AcDbArc
  50
 333.35975124498
  51
 26.640248753600
   0
ARC
   5
613
 100
AcDbEntity
   8
LEVEL001
   6
CONTINUOUS
  62
7
 100
AcDbCircle
  10
 173.53740051574
  20
 157.96383742156
  30
0.0
  40
 2.8000000000000
 100
AcDbArc
  50
 153.35975124551
  51
 206.64024875447
   0
ARC
   5
614
 100
AcDbEntity
   8
LEVEL001
   6
CONTINUOUS
  62
7
 100
AcDbCircle
  10
 170.76649813565
  20
 159.35383742157
  30
0.0
  40
 0.30000000000000
 100
AcDbArc
  50
 333.35975124505
  51
 26.640248753709
   0
ARC
   5
615
 100
AcDbEntity
   8
LEVEL001
   6
CONTINUOUS
  62
7
 100
AcDbCircle
  10
 173.53740051574
  20
 160.74383742156
  30
0.0
  40
 2.8000000000000
 100
AcDbArc
  50
 180.00000000002
  51
 206.64024875452
   0
ARC
   5
616
 100
AcDbEntity
   8
LEVEL001
   6
CONTINUOUS
  62
7
 100
AcDbCircle
  10
 170.76649813565
  20
 156.57383742157
  30
0.0
  40
 0.30000000000000
 100
AcDbArc
  50
 333.35975124536
  51
 26.640248754231
   0
ARC
   5
617
 100
AcDbEntity
   8
LEVEL001
   6
CONTINUOUS
  62
7
 100
AcDbCircle
  10
 173.53740051574
  20
 155.18383742156
  30
0.0
  40
 2.8000000000000
 100
AcDbArc
  50
 153.35975124546
  51
 162.54239687623
   0
ARC
   5
618
 100
AcDbEntity
   8
LEVEL001
   6
CONTINUOUS
  62
7
 100
AcDbCircle
  10
 190.10831020829
  20
 156.57383742157
  30
0.0
  40
 0.30000000000000
 100
AcDbArc
  50
 153.35975124601
  51
 206.64024875479
   0
ARC
   5
619
 100
AcDbEntity
   8
LEVEL001
   6
CONTINUOUS
  62
7
 100
AcDbCircle
  10
 187.33740782819
  20
 157.96383742156
  30
0.0
  40
 2.8000000000000
 100
AcDbArc
  50
 333.35975124552
  51
 26.640248754488
   0
ARC
   5
61A
 100
AcDbEntity
   8
LEVEL001
   6
CONTINUOUS
  62
7
 100
AcDbCircle
  10
 190.10831020828
  20
 159.35383742156
  30
0.0
  40
 0.30000000000000
 100
AcDbArc
  50
 153.35975124500
  51
 206.64024875418
   0
ARC
   5
61B
 100
AcDbEntity
   8
LEVEL001
   6
CONTINUOUS
  62
7
 100
AcDbCircle
  10
 187.33740782819
  20
 160.74383742157
  30
0.0
  40
 2.8000000000000
 100
AcDbArc
  50
 333.35975124545
  51
0.0
   0
ARC
   5
61C
 100
AcDbEntity
   8
LEVEL001
   6
CONTINUOUS
  62
7
 100
AcDbCircle
  10
 187.33740782819
  20
 155.18383742156
  30
0.0
  40
 2.8000000000000
 100
AcDbArc
  50
 17.457603123845
  51
 26.640248754613
   0
ARC
   5
61D
 100
AcDbEntity
   8
LEVEL001
   6
CONTINUOUS
  62
7
 100
AcDbCircle
  10
 187.33740782819
  20
 160.74383742156
  30
0.0
  40
 2.8000000000000
 100
AcDbArc
  50
 0.47108558482019E-10
  51
 26.640248754533
   0
ARC
   5
61E
 100
AcDbEntity
   8
LEVEL001
   6
CONTINUOUS
  62
7
 100
AcDbCircle
  10
 187.33740782819
  20
 163.52383742156
  30
0.0
  40
 2.8000000000000
 100
AcDbArc
  50
 333.35975124551
  51
0.0
   0
ARC
   5
61F
 100
AcDbEntity
   8
LEVEL001
   6
CONTINUOUS
  62
7
 100
AcDbCircle
  10
 190.10831020829
  20
 162.13383742157
  30
0.0
  40
 0.30000000000000
 100
AcDbArc
  50
 153.35975124664
  51
 206.64024875516
   0
ARC
   5
620
 100
AcDbEntity
   8
LEVEL001
   6
CONTINUOUS
  62
7
 100
AcDbCircle
  10
 187.33740782819
  20
 166.30383742156
  30
0.0
  40
 2.8000000000000
 100
AcDbArc
  50
 333.35975124552
  51
 26.640248754484
   0
ARC
   5
621
 100
AcDbEntity
   8
LEVEL001
   6
CONTINUOUS
  62
7
 100
AcDbCircle
  10
 190.10831020829
  20
 164.91383742157
  30
0.0
  40
 0.30000000000000
 100
AcDbArc
  50
 153.35975124593
  51
 206.64024875474
   0
ARC
   5
622
 100
AcDbEntity
   8
LEVEL001
   6
CONTINUOUS
  62
7
 100
AcDbCircle
  10
 187.33740782819
  20
 163.52383742156
  30
0.0
  40
 2.8000000000000
 100
AcDbArc
  50
 0.18610788536106E-10
  51
 26.640248754508
   0
ARC
   5
623
 100
AcDbEntity
   8
LEVEL001
   6
CONTINUOUS
  62
7
 100
AcDbCircle
  10
 187.33740782819
  20
 169.08383742156
  30
0.0
  40
 2.8000000000000
 100
AcDbArc
  50
 333.35975124550
  51
 26.640248754492
   0
ARC
   5
624
 100
AcDbEntity
   8
LEVEL001
   6
CONTINUOUS
  62
7
 100
AcDbCircle
  10
 190.10831020828
  20
 167.69383742156
  30
0.0
  40
 0.30000000000000
 100
AcDbArc
  50
 153.35975124573
  51
 206.64024875462
   0
ARC
   5
625
 100
AcDbEntity
   8
LEVEL001
   6
CONTINUOUS
  62
7
 100
AcDbCircle
  10
 187.33740782819
  20
 171.86383742157
  30
0.0
  40
 2.8000000000000
 100
AcDbArc
  50
 333.35975124541
  51
 342.54239687617
   0
ARC
   5
626
 100
AcDbEntity
   8
LEVEL001
   6
CONTINUOUS
  62
7
 100
AcDbCircle
  10
 190.10831020828
  20
 170.47383742156
  30
0.0
  40
 0.30000000000000
 100
AcDbArc
  50
 153.35975124494
  51
 206.64024875416
   0
ARC
   5
627
 100
AcDbEntity
   8
LEVEL001
   6
CONTINUOUS
  62
7
 100
AcDbCircle
  10
 187.33740782819
  20
 171.86383742156
  30
0.0
  40
 2.8000000000000
 100
AcDbArc
  50
 342.54239687627
  51
 353.98538942075
   0
ARC
   5
628
 100
AcDbEntity
   8
LEVEL001
   6
CONTINUOUS
  62
7
 100
AcDbCircle
  10
 180.43740782819
  20
 171.02383742156
  30
0.0
  40
 9.7000000000000
 100
AcDbArc
  50
 3.2304182935226
  51
 54.279457378759
   0
ARC
   5
629
 100
AcDbEntity
   8
LEVEL001
   6
CONTINUOUS
  62
7
 100
AcDbCircle
  10
 180.43740782819
  20
 171.02383742156
  30
0.0
  40
 9.7000000000000
 100
AcDbArc
  50
 125.72054262124
  51
 176.76984906948
   0
ARC
   5
62A
 100
AcDbEntity
   8
LEVEL001
   6
CONTINUOUS
  62
7
 100
AcDbCircle
  10
 173.53740051574
  20
 171.86383742157
  30
0.0
  40
 2.8000000000000
 100
AcDbArc
  50
 186.01554044899
  51
 197.45760312378
   0
ARC
   5
62B
 100
AcDbEntity
   8
LEVEL001
   6
CONTINUOUS
  62
7
 100
AcDbCircle
  10
 187.33740782819
  20
 155.18383742157
  30
0.0
  40
 2.8000000000000
 100
AcDbArc
  50
 340.10342256342
  51
 17.457603123699
   0
ARC
   5
62C
 100
AcDbEntity
   8
LEVEL001
   6
CONTINUOUS
  62
7
 100
AcDbCircle
  10
 180.43740782819
  20
 156.02383742156
  30
0.0
  40
 9.7000000000000
 100
AcDbArc
  50
 270.00000000000
  51
 349.34845143608
   0
ARC
   5
62D
 100
AcDbEntity
   8
LEVEL001
   6
CONTINUOUS
  62
7
 100
AcDbCircle
  10
 173.53740051574
  20
 155.18383742156
  30
0.0
  40
 2.8000000000000
 100
AcDbArc
  50
 162.54239687628
  51
 199.89749273802
   0
ARC
   5
62E
 100
AcDbEntity
   8
LEVEL001
   6
CONTINUOUS
  62
7
 100
AcDbCircle
  10
 180.43740782819
  20
 156.02383742156
  30
0.0
  40
 9.7000000000000
 100
AcDbArc
  50
 190.65180135868
  51
 270.00000000000
   0
LINE
   5
62F
 100
AcDbEntity
   8
LEVEL001
 100
AcDbLine
   6
CONTINUOUS
  62
7
  10
 164.43740782819
  20
 231.82383742156
  30
0.0
  11
 164.43740782819
  21
 231.32383742156
  31
0.0
   0
ARC
   5
630
 100
AcDbEntity
   8
LEVEL001
   6
CONTINUOUS
  62
7
 100
AcDbCircle
  10
 166.43740782819
  20
 231.32383742156
  30
0.0
  40
 2.0000000000000
 100
AcDbArc
  50
 180.00000000000
  51
 269.99999999999
   0
POINT
   5
631
 100
AcDbEntity
   8
LEVEL001
 100
AcDbPoint
  62
7
  10
 164.43740782819
  20
 229.32383742156
  30
0.0
   0
ARC
   5
632
 100
AcDbEntity
   8
LEVEL001
   6
CONTINUOUS
  62
7
 100
AcDbCircle
  10
 194.43740782819
  20
 231.32383742156
  30
0.0
  40
 2.0000000000000
 100
AcDbArc
  50
 270.00000000000
  51
 0.19541327962912E-10
   0
POINT
   5
633
 100
AcDbEntity
   8
LEVEL001
 100
AcDbPoint
  62
7
  10
 196.43740782819
  20
 229.32383742156
  30
0.0
   0
LINE
   5
634
 100
AcDbEntity
   8
LEVEL001
 100
AcDbLine
   6
CONTINUOUS
  62
7
  10
 196.43740782819
  20
 231.82383742156
  30
0.0
  11
 196.43740782819
  21
 231.32383742156
  31
0.0
   0
LINE
   5
635
 100
AcDbEntity
   8
LEVEL001
 100
AcDbLine
   6
DASHDOT
  62
2
  10
 166.68740782819
  20
 230.46182756315
  30
0.0
  11
 166.68740782819
  21
 234.46139054797
  31
0.0
   0
LINE
   5
636
 100
AcDbEntity
   8
LEVEL001
 100
AcDbLine
   6
DASHDOT
  62
2
  10
 194.18740782819
  20
 230.46182756315
  30
0.0
  11
 194.18740782819
  21
 234.46139054797
  31
0.0
   0
LINE
   5
637
 100
AcDbEntity
   8
LEVEL001
 100
AcDbLine
   6
DOT
  62
2
  10
 178.43740782819
  20
 231.82383742156
  30
0.0
  11
 178.43740782819
  21
 219.82383742156
  31
0.0
   0
LINE
   5
638
 100
AcDbEntity
   8
LEVEL001
 100
AcDbLine
   6
DOT
  62
2
  10
 178.78740782819
  20
 231.82383742156
  30
0.0
  11
 178.78740782819
  21
 218.32383742150
  31
0.0
   0
LINE
   5
639
 100
AcDbEntity
   8
LEVEL001
 100
AcDbLine
   6
DOT
  62
2
  10
 182.08740782819
  20
 231.82383742156
  30
0.0
  11
 182.08740782819
  21
 218.32383742156
  31
0.0
   0
LINE
   5
63A
 100
AcDbEntity
   8
LEVEL001
 100
AcDbLine
   6
DOT
  62
2
  10
 178.78740782819
  20
 218.32383742156
  30
0.0
  11
 182.08740782819
  21
 218.32383742156
  31
0.0
   0
LINE
   5
63B
 100
AcDbEntity
   8
LEVEL001
 100
AcDbLine
   6
DOT
  62
2
  10
 182.43740782819
  20
 231.82383742156
  30
0.0
  11
 182.43740782819
  21
 219.82383742156
  31
0.0
   0
LINE
   5
63C
 100
AcDbEntity
   8
LEVEL001
 100
AcDbLine
   6
DOT
  62
2
  10
 178.43740782819
  20
 219.82383742156
  30
0.0
  11
 182.43740782819
  21
 219.82383742156
  31
0.0
   0
LINE
   5
63D
 100
AcDbEntity
   8
LEVEL001
 100
AcDbLine
   6
CONTINUOUS
  62
7
  10
 177.68740782819
  20
 225.32383742156
  30
0.0
  11
 177.68740782819
  21
 184.58213746250
  31
0.0
   0
ARC
   5
63E
 100
AcDbEntity
   8
LEVEL001
   6
CONTINUOUS
  62
7
 100
AcDbCircle
  10
 173.68740782819
  20
 225.32383742156
  30
0.0
  40
 4.0000000000000
 100
AcDbArc
  50
0.0
  51
 90.000000000003
   0
POINT
   5
63F
 100
AcDbEntity
   8
LEVEL001
 100
AcDbPoint
  62
7
  10
 177.68740782819
  20
 229.32383742156
  30
0.0
   0
LINE
   5
640
 100
AcDbEntity
   8
LEVEL001
 100
AcDbLine
   6
CONTINUOUS
  62
7
  10
 166.43740782819
  20
 229.32383742156
  30
0.0
  11
 173.68740782819
  21
 229.32383742156
  31
0.0
   0
LINE
   5
641
 100
AcDbEntity
   8
LEVEL001
 100
AcDbLine
   6
CONTINUOUS
  62
7
  10
 183.18740782819
  20
 225.32383742156
  30
0.0
  11
 183.18740782819
  21
 184.58213746250
  31
0.0
   0
ARC
   5
642
 100
AcDbEntity
   8
LEVEL001
   6
CONTINUOUS
  62
7
 100
AcDbCircle
  10
 187.18740782819
  20
 225.32383742156
  30
0.0
  40
 4.0000000000000
 100
AcDbArc
  50
 90.000000000003
  51
 180.00000000000
   0
POINT
   5
643
 100
AcDbEntity
   8
LEVEL001
 100
AcDbPoint
  62
7
  10
 183.18740782819
  20
 229.32383742156
  30
0.0
   0
LINE
   5
644
 100
AcDbEntity
   8
LEVEL001
 100
AcDbLine
   6
CONTINUOUS
  62
7
  10
 187.18740782819
  20
 229.32383742156
  30
0.0
  11
 194.43740782819
  21
 229.32383742156
  31
0.0
   0
LINE
   5
645
 100
AcDbEntity
   8
LEVEL001
 100
AcDbLine
   6
DASHDOT
  62
2
  10
 180.43740782819
  20
 143.13766089359
  30
0.0
  11
 180.43740782819
  21
 238.18502214416
  31
0.0
   0
LINE
   5
646
 100
AcDbEntity
   8
LEVEL001
 100
AcDbLine
   6
DASHDOT
  62
2
  10
 169.07148833013
  20
 171.02383742156
  30
0.0
  11
 192.33048538028
  21
 171.02383742156
  31
0.0
   0
LINE
   5
647
 100
AcDbEntity
   8
LEVEL001
 100
AcDbLine
   6
DASHDOT
  62
2
  10
 169.07148833013
  20
 156.02383742156
  30
0.0
  11
 192.33048538028
  21
 156.02383742156
  31
0.0
   0
DIMENSION
   5
648
 100
AcDbEntity
   8
LEVEL001
   6
CONTINUOUS
  62
2
 100
AcDbDimension
   2
*D21
  10
 190.13740782819
  20
 134.52409124712
  30
0.0
  11
 180.43740417197
  21
 134.52409124712
  31
0.0
  70
0
   1
\A1;19.4
   3
GMM007
 100
AcDbAlignedDimension
  13
 170.73740051574
  23
 152.46543034192
  33
0.0
  14
 190.13740782819
  24
 152.46543034192
  34
0.0
 100
AcDbRotatedDimension
   0
DIMENSION
   5
649
 100
AcDbEntity
   8
LEVEL001
   6
CONTINUOUS
  62
2
 100
AcDbDimension
   2
*D22
  10
 156.43066604564
  20
 229.32383742156
  30
0.0
  11
 156.43066604564
  21
 239.45171352776
  31
0.0
  70
128
   3
GMM008
 100
AcDbAlignedDimension
  13
 164.43740782819
  23
 231.82383742156
  33
0.0
  14
 164.43740782819
  24
 229.32383742156
  34
0.0
  50
 270.00000000000
 100
AcDbRotatedDimension
   0
DIMENSION
   5
64A
 100
AcDbEntity
   8
LEVEL001
   6
CONTINUOUS
  62
2
 100
AcDbDimension
   2
*D23
  10
 94.439551431329
  20
 163.52383742156
  30
0.0
  11
 94.439551431329
  21
 197.67383742156
  31
0.0
  70
0
   3
GMM001
 100
AcDbAlignedDimension
  13
 86.726811571696
  23
 231.82383742156
  33
0.0
  14
 74.691408766738
  24
 163.52383742156
  34
0.0
  50
 270.00000000000
 100
AcDbRotatedDimension
   0
LINE
   5
64B
 100
AcDbEntity
   8
LEVEL001
 100
AcDbLine
   6
CONTINUOUS
  62
7
  10
 106.85978076279
  20
 180.72383742156
  30
0.0
  11
 119.35978076279
  21
 180.72383742156
  31
0.0
   0
ARC
   5
64C
 100
AcDbEntity
   8
LEVEL001
   6
CONTINUOUS
  62
7
 100
AcDbCircle
  10
 119.35978076279
  20
 179.72383742156
  30
0.0
  40
 1.0000000000000
 100
AcDbArc
  50
 0.16284439969093E-10
  51
 90.000000000000
   0
LINE
   5
64D
 100
AcDbEntity
   8
LEVEL001
 100
AcDbLine
   6
CONTINUOUS
  62
7
  10
 106.85978076279
  20
 231.82383742156
  30
0.0
  11
 120.35978076279
  21
 231.82383742156
  31
0.0
   0
LINE
   5
64E
 100
AcDbEntity
   8
LEVEL001
 100
AcDbLine
   6
CONTINUOUS
  62
7
  10
 112.85978076279
  20
 231.82383742156
  30
0.0
  11
 113.60978076279
  21
 233.32383742156
  31
0.0
   0
LINE
   5
64F
 100
AcDbEntity
   8
LEVEL001
 100
AcDbLine
   6
CONTINUOUS
  62
7
  10
 114.35978076279
  20
 231.82383742156
  30
0.0
  11
 113.60978076279
  21
 233.32383742156
  31
0.0
   0
LINE
   5
650
 100
AcDbEntity
   8
LEVEL001
 100
AcDbLine
   6
DOT
  62
2
  10
 113.60978076279
  20
 217.37120947734
  30
0.0
  11
 115.25978076279
  21
 218.32383742150
  31
0.0
   0
LINE
   5
651
 100
AcDbEntity
   8
LEVEL001
 100
AcDbLine
   6
DOT
  62
2
  10
 113.60978076279
  20
 218.32383742156
  30
0.0
  11
 115.25978076279
  21
 218.32383742156
  31
0.0
   0
LINE
   5
652
 100
AcDbEntity
   8
LEVEL001
 100
AcDbLine
   6
DOT
  62
2
  10
 115.60978076279
  20
 231.82383742156
  30
0.0
  11
 115.60978076279
  21
 219.82383742156
  31
0.0
   0
LINE
   5
653
 100
AcDbEntity
   8
LEVEL001
 100
AcDbLine
   6
DOT
  62
2
  10
 115.25978076279
  20
 231.82383742156
  30
0.0
  11
 115.25978076279
  21
 218.32383742156
  31
0.0
   0
LINE
   5
654
 100
AcDbEntity
   8
LEVEL001
 100
AcDbLine
   6
DOT
  62
2
  10
 115.60978076279
  20
 219.82383742156
  30
0.0
  11
 111.60978076279
  21
 219.82383742156
  31
0.0
   0
LINE
   5
655
 100
AcDbEntity
   8
LEVEL001
 100
AcDbLine
   6
DOT
  62
2
  10
 113.60978076279
  20
 217.37120947734
  30
0.0
  11
 111.95978076279
  21
 218.32383742150
  31
0.0
   0
LINE
   5
656
 100
AcDbEntity
   8
LEVEL001
 100
AcDbLine
   6
DOT
  62
2
  10
 113.60978076279
  20
 218.32383742156
  30
0.0
  11
 111.95978076279
  21
 218.32383742156
  31
0.0
   0
LINE
   5
657
 100
AcDbEntity
   8
LEVEL001
 100
AcDbLine
   6
DOT
  62
2
  10
 111.95978076279
  20
 231.82383742156
  30
0.0
  11
 111.95978076279
  21
 218.32383742156
  31
0.0
   0
LINE
   5
658
 100
AcDbEntity
   8
LEVEL001
 100
AcDbLine
   6
DOT
  62
2
  10
 111.60978076279
  20
 231.82383742156
  30
0.0
  11
 111.60978076279
  21
 219.82383742156
  31
0.0
   0
LINE
   5
659
 100
AcDbEntity
   8
LEVEL001
 100
AcDbLine
   6
DASHDOT
  62
2
  10
 113.60978076279
  20
 215.01972354922
  30
0.0
  11
 113.60978076279
  21
 238.18502214416
  31
0.0
   0
LINE
   5
65A
 100
AcDbEntity
   8
LEVEL001
 100
AcDbLine
   6
CONTINUOUS
  62
7
  10
 120.35978076279
  20
 231.32383742156
  30
0.0
  11
 120.35978076279
  21
 231.82383742156
  31
0.0
   0
ARC
   5
65B
 100
AcDbEntity
   8
LEVEL001
   6
CONTINUOUS
  62
7
 100
AcDbCircle
  10
 118.35978076279
  20
 231.32383742156
  30
0.0
  40
 2.0000000000000
 100
AcDbArc
  50
 269.99999999998
  51
0.0
   0
POINT
   5
65C
 100
AcDbEntity
   8
LEVEL001
 100
AcDbPoint
  62
7
  10
 120.35978076279
  20
 229.32383742156
  30
0.0
   0
ARC
   5
65D
 100
AcDbEntity
   8
LEVEL001
   6
CONTINUOUS
  62
7
 100
AcDbCircle
  10
 108.85978076279
  20
 231.32383742156
  30
0.0
  40
 2.0000000000000
 100
AcDbArc
  50
 180.00000000000
  51
 270.00000000000
   0
POINT
   5
65E
 100
AcDbEntity
   8
LEVEL001
 100
AcDbPoint
  62
7
  10
 106.85978076279
  20
 229.32383742156
  30
0.0
   0
LINE
   5
65F
 100
AcDbEntity
   8
LEVEL001
 100
AcDbLine
   6
CONTINUOUS
  62
7
  10
 108.85978076279
  20
 229.32383742156
  30
0.0
  11
 118.35978076279
  21
 229.32383742156
  31
0.0
   0
LINE
   5
660
 100
AcDbEntity
   8
LEVEL001
 100
AcDbLine
   6
DOT
  62
2
  10
 107.35978076279
  20
 178.72383742156
  30
0.0
  11
 118.85978076279
  21
 178.72383742156
  31
0.0
   0
ARC
   5
661
 100
AcDbEntity
   8
LEVEL001
   6
DOT
  62
2
 100
AcDbCircle
  10
 107.35978076279
  20
 179.22383742157
  30
0.0
  40
 0.50000000000000
 100
AcDbArc
  50
 180.00000000018
  51
 270.00000000000
   0
LINE
   5
662
 100
AcDbEntity
   8
LEVEL001
 100
AcDbLine
   6
DOT
  62
2
  10
 107.35978076279
  20
 178.72383742156
  30
0.0
  11
 107.35978076279
  21
 148.32383742156
  31
0.0
   0
LINE
   5
663
 100
AcDbEntity
   8
LEVEL001
 100
AcDbLine
   6
DOT
  62
2
  10
 118.85978076279
  20
 178.72383742156
  30
0.0
  11
 118.85978076279
  21
 148.32383742156
  31
0.0
   0
LINE
   5
664
 100
AcDbEntity
   8
LEVEL001
 100
AcDbLine
   6
DOT
  62
2
  10
 107.35978076279
  20
 148.32383742156
  30
0.0
  11
 118.85978076279
  21
 148.32383742156
  31
0.0
   0
ARC
   5
665
 100
AcDbEntity
   8
LEVEL001
   6
CONTINUOUS
  62
7
 100
AcDbCircle
  10
 119.35978076279
  20
 180.53125501800
  30
0.0
  40
 1.0000000000000
 100
AcDbArc
  50
0.0
  51
 21.801409486115
   0
POINT
   5
666
 100
AcDbEntity
   8
LEVEL001
 100
AcDbPoint
  62
7
  10
 120.35978076279
  20
 180.72383742156
  30
0.0
   0
LINE
   5
667
 100
AcDbEntity
   8
LEVEL001
 100
AcDbLine
   6
CONTINUOUS
  62
7
  10
 116.50376227784
  20
 192.18170345659
  30
0.0
  11
 120.35009764289
  21
 231.12727008757
  31
0.0
   0
ARC
   5
668
 100
AcDbEntity
   8
LEVEL001
   6
CONTINUOUS
  62
7
 100
AcDbCircle
  10
 122.47471291814
  20
 191.59200145460
  30
0.0
  40
 6.0000000000000
 100
AcDbArc
  50
 174.35965505511
  51
 201.80140948636
   0
POINT
   5
669
 100
AcDbEntity
   8
LEVEL001
 100
AcDbPoint
  62
7
  10
 116.35978076279
  20
 190.72383742156
  30
0.0
   0
LINE
   5
66A
 100
AcDbEntity
   8
LEVEL001
 100
AcDbLine
   6
CONTINUOUS
  62
7
  10
 120.28825745368
  20
 180.90264569435
  30
0.0
  11
 116.90385277283
  21
 189.36365739648
  31
0.0
   0
LINE
   5
66B
 100
AcDbEntity
   8
LEVEL001
 100
AcDbLine
   6
DASHDOT
  62
2
  10
 124.55820184654
  20
 163.52383742156
  30
0.0
  11
 101.19797243235
  21
 163.52383742156
  31
0.0
   0
ARC
   5
66C
 100
AcDbEntity
   8
LEVEL001
   6
CONTINUOUS
  62
7
 100
AcDbCircle
  10
 107.85978076279
  20
 147.82383742156
  30
0.0
  40
 1.0000000000000
 100
AcDbArc
  50
 180.00000000000
  51
 270.00000000001
   0
POINT
   5
66D
 100
AcDbEntity
   8
LEVEL001
 100
AcDbPoint
  62
7
  10
 106.85978076279
  20
 146.82383742156
  30
0.0
   0
LINE
   5
66E
 100
AcDbEntity
   8
LEVEL001
 100
AcDbLine
   6
CONTINUOUS
  62
7
  10
 107.85978076279
  20
 146.82383742156
  30
0.0
  11
 119.35978076279
  21
 146.82383742156
  31
0.0
   0
ARC
   5
66F
 100
AcDbEntity
   8
LEVEL001
   6
CONTINUOUS
  62
7
 100
AcDbCircle
  10
 119.35978076279
  20
 147.82383742156
  30
0.0
  40
 1.0000000000000
 100
AcDbArc
  50
 269.99999999995
  51
0.0
   0
POINT
   5
670
 100
AcDbEntity
   8
LEVEL001
 100
AcDbPoint
  62
7
  10
 120.35978076279
  20
 146.82383742156
  30
0.0
   0
LINE
   5
671
 100
AcDbEntity
   8
LEVEL001
 100
AcDbLine
   6
CONTINUOUS
  62
7
  10
 120.35978076279
  20
 147.82383742156
  30
0.0
  11
 120.35978076279
  21
 180.53125501800
  31
0.0
   0
LINE
   5
672
 100
AcDbEntity
   8
LEVEL001
 100
AcDbLine
   6
CONTINUOUS
  62
7
  10
 106.85978076279
  20
 147.82383742156
  30
0.0
  11
 106.85978076279
  21
 231.82383742156
  31
0.0
   0
ARC
   5
673
 100
AcDbEntity
   8
LEVEL001
   6
DOT
  62
2
 100
AcDbCircle
  10
 107.35978076279
  20
 147.82383742156
  30
0.0
  40
 0.50000000000000
 100
AcDbArc
  50
 90.000000000098
  51
 180.00000000000
   0
DIMENSION
   5
674
 100
AcDbEntity
   8
LEVEL001
   6
CONTINUOUS
  62
2
 100
AcDbDimension
   2
*D24
  10
 120.35978076279
  20
 134.52409124712
  30
0.0
  11
 113.60978076279
  21
 134.52409124712
  31
0.0
  70
0
   3
GMM001
 100
AcDbAlignedDimension
  13
 106.85978076279
  23
 146.82383742156
  33
0.0
  14
 120.35978076279
  24
 146.82383742156
  34
0.0
 100
AcDbRotatedDimension
   0
DIMENSION
   5
675
 100
AcDbEntity
   8
LEVEL001
   6
CONTINUOUS
  62
2
 100
AcDbDimension
   2
*D25
  10
 136.77710150120
  20
 231.82383742156
  30
0.0
  11
 136.77710150120
  21
 189.32383742156
  31
0.0
  70
0
   3
GMM001
 100
AcDbAlignedDimension
  13
 120.35978076279
  23
 146.82383742156
  33
0.0
  14
 120.35978076279
  24
 231.82383742156
  34
0.0
  50
 90.000000000000
 100
AcDbRotatedDimension
   0
LINE
   5
676
 100
AcDbEntity
   8
LEVEL001
 100
AcDbLine
   6
CONTINUOUS
  62
7
  10
 232.38539308268
  20
 231.82383742156
  30
0.0
  11
 233.13539308268
  21
 233.32383742156
  31
0.0
   0
LINE
   5
677
 100
AcDbEntity
   8
LEVEL001
 100
AcDbLine
   6
CONTINUOUS
  62
7
  10
 233.88539308268
  20
 231.82383742156
  30
0.0
  11
 233.13539308268
  21
 233.32383742156
  31
0.0
   0
LINE
   5
678
 100
AcDbEntity
   8
LEVEL001
 100
AcDbLine
   6
CONTINUOUS
  62
7
  10
 228.13539308268
  20
 231.82383742156
  30
0.0
  11
 238.13539308268
  21
 231.82383742156
  31
0.0
   0
LINE
   5
679
 100
AcDbEntity
   8
LEVEL001
 100
AcDbLine
   6
CONTINUOUS
  62
7
  10
 228.13539308268
  20
 180.72383742156
  30
0.0
  11
 238.13539308268
  21
 180.72383742156
  31
0.0
   0
LINE
   5
67A
 100
AcDbEntity
   8
LEVEL001
 100
AcDbLine
   6
DASHDOT
  62
2
  10
 221.41439129344
  20
 163.52383742156
  30
0.0
  11
 244.77722315184
  21
 163.52383742156
  31
0.0
   0
LINE
   5
67B
 100
AcDbEntity
   8
LEVEL001
 100
AcDbLine
   6
DASHDOT
  62
2
  10
 233.13539308268
  20
 141.36782082966
  30
0.0
  11
 233.13539308268
  21
 238.18502214416
  31
0.0
   0
ARC
   5
67C
 100
AcDbEntity
   8
LEVEL001
   6
CONTINUOUS
  62
7
 100
AcDbCircle
  10
 236.13539308268
  20
 231.32383742156
  30
0.0
  40
 2.0000000000000
 100
AcDbArc
  50
 270.00000000002
  51
0.0
   0
POINT
   5
67D
 100
AcDbEntity
   8
LEVEL001
 100
AcDbPoint
  62
7
  10
 238.13539308268
  20
 229.32383742156
  30
0.0
   0
LINE
   5
67E
 100
AcDbEntity
   8
LEVEL001
 100
AcDbLine
   6
CONTINUOUS
  62
7
  10
 230.13539308268
  20
 229.32383742156
  30
0.0
  11
 236.13539308268
  21
 229.32383742156
  31
0.0
   0
ARC
   5
67F
 100
AcDbEntity
   8
LEVEL001
   6
CONTINUOUS
  62
7
 100
AcDbCircle
  10
 230.13539308268
  20
 231.32383742157
  30
0.0
  40
 2.0000000000000
 100
AcDbArc
  50
 180.00000000005
  51
 270.00000000000
   0
POINT
   5
680
 100
AcDbEntity
   8
LEVEL001
 100
AcDbPoint
  62
7
  10
 228.13539308268
  20
 229.32383742156
  30
0.0
   0
LINE
   5
681
 100
AcDbEntity
   8
LEVEL001
 100
AcDbLine
   6
DOT
  62
2
  10
 233.13539308268
  20
 217.37120947734
  30
0.0
  11
 234.78539308268
  21
 218.32383742150
  31
0.0
   0
LINE
   5
682
 100
AcDbEntity
   8
LEVEL001
 100
AcDbLine
   6
DOT
  62
2
  10
 235.13539308268
  20
 231.82383742156
  30
0.0
  11
 235.13539308268
  21
 219.82383742156
  31
0.0
   0
LINE
   5
683
 100
AcDbEntity
   8
LEVEL001
 100
AcDbLine
   6
DOT
  62
2
  10
 234.78539308268
  20
 231.82383742156
  30
0.0
  11
 234.78539308268
  21
 218.32383742150
  31
0.0
   0
LINE
   5
684
 100
AcDbEntity
   8
LEVEL001
 100
AcDbLine
   6
DOT
  62
2
  10
 234.78539308268
  20
 218.32383742156
  30
0.0
  11
 231.48539308268
  21
 218.32383742156
  31
0.0
   0
LINE
   5
685
 100
AcDbEntity
   8
LEVEL001
 100
AcDbLine
   6
DOT
  62
2
  10
 235.13539308268
  20
 219.82383742156
  30
0.0
  11
 231.13539308268
  21
 219.82383742156
  31
0.0
   0
LINE
   5
686
 100
AcDbEntity
   8
LEVEL001
 100
AcDbLine
   6
DOT
  62
2
  10
 233.13539308268
  20
 217.37120947734
  30
0.0
  11
 231.48539308268
  21
 218.32383742150
  31
0.0
   0
LINE
   5
687
 100
AcDbEntity
   8
LEVEL001
 100
AcDbLine
   6
DOT
  62
2
  10
 231.48539308268
  20
 231.82383742156
  30
0.0
  11
 231.48539308268
  21
 218.32383742156
  31
0.0
   0
LINE
   5
688
 100
AcDbEntity
   8
LEVEL001
 100
AcDbLine
   6
DOT
  62
2
  10
 231.13539308268
  20
 231.82383742156
  30
0.0
  11
 231.13539308268
  21
 219.82383742156
  31
0.0
   0
LINE
   5
689
 100
AcDbEntity
   8
LEVEL001
 100
AcDbLine
   6
CONTINUOUS
  62
7
  10
 238.13539308268
  20
 146.82383742156
  30
0.0
  11
 238.13539308268
  21
 231.82383742156
  31
0.0
   0
ARC
   5
68A
 100
AcDbEntity
   8
LEVEL001
   6
CONTINUOUS
  62
7
 100
AcDbCircle
  10
 237.63539308268
  20
 146.82383742156
  30
0.0
  40
 0.50000000000000
 100
AcDbArc
  50
 270.00000000009
  51
0.0
   0
POINT
   5
68B
 100
AcDbEntity
   8
LEVEL001
 100
AcDbPoint
  62
7
  10
 238.13539308268
  20
 146.32383742156
  30
0.0
   0
LINE
   5
68C
 100
AcDbEntity
   8
LEVEL001
 100
AcDbLine
   6
CONTINUOUS
  62
7
  10
 228.63539308268
  20
 146.32383742156
  30
0.0
  11
 237.63539308268
  21
 146.32383742156
  31
0.0
   0
ARC
   5
68D
 100
AcDbEntity
   8
LEVEL001
   6
CONTINUOUS
  62
7
 100
AcDbCircle
  10
 228.63539308268
  20
 146.82383742156
  30
0.0
  40
 0.50000000000000
 100
AcDbArc
  50
 179.99999999979
  51
 270.00000000000
   0
POINT
   5
68E
 100
AcDbEntity
   8
LEVEL001
 100
AcDbPoint
  62
7
  10
 228.13539308268
  20
 146.32383742156
  30
0.0
   0
LINE
   5
68F
 100
AcDbEntity
   8
LEVEL001
 100
AcDbLine
   6
CONTINUOUS
  62
7
  10
 228.13539308268
  20
 146.82383742156
  30
0.0
  11
 228.13539308268
  21
 231.82383742156
  31
0.0
   0
LINE
   5
690
 100
AcDbEntity
   8
LEVEL001
 100
AcDbLine
   6
DOT
  62
2
  10
 228.63539308268
  20
 148.32383742156
  30
0.0
  11
 237.63539308268
  21
 148.32383742156
  31
0.0
   0
ARC
   5
691
 100
AcDbEntity
   8
LEVEL001
   6
DOT
  62
2
 100
AcDbCircle
  10
 237.63539308268
  20
 147.82383742156
  30
0.0
  40
 0.50000000000000
 100
AcDbArc
  50
0.0
  51
 90.000000000215
   0
ARC
   5
692
 100
AcDbEntity
   8
LEVEL001
   6
DOT
  62
2
 100
AcDbCircle
  10
 228.63539308268
  20
 147.82383742156
  30
0.0
  40
 0.50000000000000
 100
AcDbArc
  50
 89.999999999909
  51
 180.00000000000
   0
LINE
   5
693
 100
AcDbEntity
   8
LEVEL001
 100
AcDbLine
   6
DOT
  62
2
  10
 228.63539308268
  20
 178.72383742156
  30
0.0
  11
 237.63539308268
  21
 178.72383742156
  31
0.0
   0
ARC
   5
694
 100
AcDbEntity
   8
LEVEL001
   6
DOT
  62
2
 100
AcDbCircle
  10
 237.63539308268
  20
 179.22383742156
  30
0.0
  40
 0.50000000000000
 100
AcDbArc
  50
 270.00000000000
  51
0.0
   0
LINE
   5
695
 100
AcDbEntity
   8
LEVEL001
 100
AcDbLine
   6
DOT
  62
2
  10
 237.63539308268
  20
 178.72383742156
  30
0.0
  11
 237.63539308268
  21
 148.32383742156
  31
0.0
   0
ARC
   5
696
 100
AcDbEntity
   8
LEVEL001
   6
DOT
  62
2
 100
AcDbCircle
  10
 228.63539308268
  20
 179.22383742156
  30
0.0
  40
 0.50000000000000
 100
AcDbArc
  50
 179.99999999995
  51
 270.00000000000
   0
LINE
   5
697
 100
AcDbEntity
   8
LEVEL001
 100
AcDbLine
   6
DOT
  62
2
  10
 228.63539308268
  20
 178.72383742156
  30
0.0
  11
 228.63539308268
  21
 148.32383742156
  31
0.0
   0
LINE
   5
698
 100
AcDbEntity
   8
LEVEL001
 100
AcDbLine
   6
CONTINUOUS
  62
2
  10
 228.13539308268
  20
 164.91383742156
  30
0.0
  11
 238.13539308268
  21
 164.91383742156
  31
0.0
   0
LINE
   5
699
 100
AcDbEntity
   8
LEVEL001
 100
AcDbLine
   6
CONTINUOUS
  62
2
  10
 228.13539308268
  20
 167.69383742156
  30
0.0
  11
 238.13539308268
  21
 167.69383742156
  31
0.0
   0
LINE
   5
69A
 100
AcDbEntity
   8
LEVEL001
 100
AcDbLine
   6
CONTINUOUS
  62
2
  10
 228.13539308268
  20
 170.47383742156
  30
0.0
  11
 238.13539308268
  21
 170.47383742156
  31
0.0
   0
LINE
   5
69B
 100
AcDbEntity
   8
LEVEL001
 100
AcDbLine
   6
CONTINUOUS
  62
2
  10
 228.13539308268
  20
 156.57383742156
  30
0.0
  11
 238.13539308268
  21
 156.57383742156
  31
0.0
   0
LINE
   5
69C
 100
AcDbEntity
   8
LEVEL001
 100
AcDbLine
   6
CONTINUOUS
  62
2
  10
 228.13539308268
  20
 159.35383742156
  30
0.0
  11
 238.13539308268
  21
 159.35383742156
  31
0.0
   0
LINE
   5
69D
 100
AcDbEntity
   8
LEVEL001
 100
AcDbLine
   6
CONTINUOUS
  62
2
  10
 228.13539308268
  20
 162.13383742156
  30
0.0
  11
 238.13539308268
  21
 162.13383742156
  31
0.0
   0
DIMENSION
   5
69E
 100
AcDbEntity
   8
LEVEL001
   6
CONTINUOUS
  62
2
 100
AcDbDimension
   2
*D26
  10
 238.13539308268
  20
 134.52409124712
  30
0.0
  11
 233.13539308268
  21
 134.52409124712
  31
0.0
  70
0
   3
GMM001
 100
AcDbAlignedDimension
  13
 228.13539308268
  23
 146.32383742156
  33
0.0
  14
 238.13539308268
  24
 146.32383742156
  34
0.0
 100
AcDbRotatedDimension
   0
DIMENSION
   5
69F
 100
AcDbEntity
   8
LEVEL001
   6
CONTINUOUS
  62
2
 100
AcDbDimension
   2
*D27
  10
 257.90506108703
  20
 231.82383742156
  30
0.0
  11
 257.90506108703
  21
 189.07383742156
  31
0.0
  70
0
   3
GMM001
 100
AcDbAlignedDimension
  13
 238.13539308268
  23
 146.32383742156
  33
0.0
  14
 238.13539308268
  24
 231.82383742156
  34
0.0
  50
 90.000000000000
 100
AcDbRotatedDimension
   0
DIMENSION
   5
6A0
 100
AcDbEntity
   8
LEVEL001
   6
CONTINUOUS
  62
2
 100
AcDbDimension
   2
*D28
  10
 214.91918271625
  20
 163.52383742156
  30
0.0
  11
 214.91918271625
  21
 197.67383742156
  31
0.0
  70
0
   3
GMM001
 100
AcDbAlignedDimension
  13
 207.20644285662
  23
 231.82383742156
  33
0.0
  14
 195.17104005166
  24
 163.52383742156
  34
0.0
  50
 270.00000000000
 100
AcDbRotatedDimension
   0
DIMENSION
   5
6A1
 100
AcDbEntity
   8
LEVEL001
   6
CONTINUOUS
  62
2
 100
AcDbDimension
   2
*D29
  10
 85.226811571696
  20
 229.32383742156
  30
0.0
  11
 85.226811571696
  21
 239.29596131537
  31
0.0
  70
128
   3
GMM009
 100
AcDbAlignedDimension
  13
 75.957776543270
  23
 231.82383742156
  33
0.0
  14
 75.957776543270
  24
 229.32383742156
  34
0.0
  50
 270.00000000000
 100
AcDbRotatedDimension
   0
DIMENSION
   5
6A2
 100
AcDbEntity
   8
LEVEL001
   6
CONTINUOUS
  62
2
 100
AcDbDimension
   2
*D30
  10
 205.70644285662
  20
 229.32383742156
  30
0.0
  11
 205.70644285662
  21
 239.08829169885
  31
0.0
  70
128
   3
GMM008
 100
AcDbAlignedDimension
  13
 196.43740782819
  23
 231.82383742156
  33
0.0
  14
 196.43740782819
  24
 229.32383742156
  34
0.0
  50
 270.00000000000
 100
AcDbRotatedDimension
   0
CIRCLE
   5
6A3
 100
AcDbEntity
   8
LEVEL001
 100
AcDbCircle
   6
CONTINUOUS
  62
7
  10
 180.43740782819
  20
 259.57854016560
  30
0.0
  40
 2.0000000000000
   0
TEXT
   5
6A4
 100
AcDbEntity
   8
LEVEL001
  62
7
 100
AcDbText
  10
 98.842349577391
  20
 249.79425565934
  30
0.0
  40
 4.0000000000000
   1
エンドブラケット
   7
STANDARD
 100
AcDbText
   0
LINE
   5
6A5
 100
AcDbEntity
   8
LEVEL001
 100
AcDbLine
   6
CONTINUOUS
  62
7
  10
 97.813577283746
  20
 248.25612369800
  30
0.0
  11
 131.79919994659
  21
 248.25612369800
  31
0.0
   0
LINE
   5
6A6
 100
AcDbEntity
   8
LEVEL001
 100
AcDbLine
   6
CONTINUOUS
  62
7
  10
 220.91233431416
  20
 248.25612369800
  30
0.0
  11
 250.68914754703
  21
 248.25612369800
  31
0.0
   0
TEXT
   5
6A7
 100
AcDbEntity
   8
LEVEL001
  62
7
 100
AcDbText
  10
 221.94110660780
  20
 249.79425565934
  30
0.0
  40
 4.0000000000000
   1
中間ブラケット
   7
STANDARD
 100
AcDbText
   0
DIMENSION
   5
6A8
 100
AcDbEntity
   8
LEVEL001
   6
CONTINUOUS
  62
2
 100
AcDbDimension
   2
*D31
  10
 294.56364695760
  20
 118.97359859934
  30
0.0
  11
 276.89280766517
  21
 118.97359859934
  31
0.0
  70
0
   1
\A1;約300
   3
GMM010
 100
AcDbAlignedDimension
  13
 259.22196837274
  23
 113.15428132259
  33
0.0
  14
 294.56364695760
  24
 109.34844618756
  34
0.0
 100
AcDbRotatedDimension
   0
ENDSEC
  0
SECTION
  2
OBJECTS
  0
DICTIONARY
  5
C
100
AcDbDictionary
  3
ACAD_GROUP
350
D
  3
ACAD_MLINESTYLE
350
1B
  0
DICTIONARY
  5
D
102
{ACAD_REACTORS
330
C
102
}
100
AcDbDictionary
  0
DICTIONARY
  5
1B
102
{ACAD_REACTORS
330
C
102
}
100
AcDbDictionary
  3
STANDARD
350
1C
  0
MLINESTYLE
  5
1C
102
{ACAD_REACTORS
330
1B
102
}
100
AcDbMlineStyle
  2
STANDARD
 70
     0
  3

 62
   256
 51
90.0
 52
90.0
 71
     2
 49
0.5
 62
   256
  6
BYLAYER
 49
-0.5
 62
   256
  6
BYLAYER
  0
ENDSEC
   0
EOF
