   0
SECTION
   2
HEADER
   9
$ACADVER
   1
AC1015
   9
$LIMMIN
  10
0.0
  20
0.0
   9
$LIMMAX
  10
 420.00000000000
  20
 297.00000000000
   9
$EXTMIN
  10
0.0
  20
0.0
  30
0.0
   9
$EXTMAX
  10
 420.00000000000
  20
 297.00000000000
  30
0.0
   9
$LTSCALE
  40
 8.4000000000000
   9
$HANDSEED
   5
219
   0
ENDSEC
   0
SECTION
   2
TABLES
  0
TABLE
  2
VPORT
  5
8
100
AcDbSymbolTable
 70
     1
  0
VPORT
  5
218
100
AcDbSymbolTableRecord
100
AcDbViewportTableRecord
  2
*ACTIVE
 70
     0
 10
0.0
 20
0.0
 11
1.0
 21
1.0
  12
 210.00000000000
  22
 148.50000000000
 13
0.0
 23
0.0
 14
1.0
 24
1.0
 15
0.0
 25
0.0
 16
0.0
 26
0.0
 36
1.0
 17
0.0
 27
0.0
 37
0.0
  40
 420.00000000000
  41
 1.4787878787879
 42
50.0
 43
0.0
 44
0.0
 50
0.0
 51
0.0
 71
     0
 72
   100
 73
     1
 74
     1
 75
     0
 76
     0
 77
     0
 78
     0
  0
ENDTAB
  0
TABLE
  2
LTYPE
  5
5
100
AcDbSymbolTable
 70
    25
  0
LTYPE
  5
12
100
AcDbSymbolTableRecord
100
AcDbLinetypeTableRecord
  2
BYBLOCK
 70
     0
  3

 72
    65
 73
     0
 40
0.0
  0
LTYPE
  5
13
100
AcDbSymbolTableRecord
100
AcDbLinetypeTableRecord
  2
BYLAYER
 70
     0
  3

 72
    65
 73
     0
 40
0.0
  0
LTYPE
  5
14
100
AcDbSymbolTableRecord
100
AcDbLinetypeTableRecord
  2
CONTINUOUS
 70
     0
  3
Solid line
 72
    65
 73
     0
 40
0.0
  0
LTYPE
  5
20
100
AcDbSymbolTableRecord
100
AcDbLinetypeTableRecord
  2
BORDER
 70
     0
  3
__ __ . __ __ . __ __ . __ __ . __ __ . __ __ .
 72
    65
 73
     6
 40
1.75
 49
0.5
 74
     0
 49
-0.25
 74
     0
 49
0.5
 74
     0
 49
-0.25
 74
     0
 49
0.0
 74
     0
 49
-0.25
 74
     0
  0
LTYPE
  5
21
100
AcDbSymbolTableRecord
100
AcDbLinetypeTableRecord
  2
BORDER2
 70
     0
  3
__.__.__.__.__.__.__.__.__.__.__.__.__.__.__.__
 72
    65
 73
     6
 40
0.875
 49
0.25
 74
     0
 49
-0.125
 74
     0
 49
0.25
 74
     0
 49
-0.125
 74
     0
 49
0.0
 74
     0
 49
-0.125
 74
     0
  0
LTYPE
  5
22
100
AcDbSymbolTableRecord
100
AcDbLinetypeTableRecord
  2
BORDERX2
 70
     0
  3
____  ____  .  ____  ____  .  ____  ____  .  __
 72
    65
 73
     6
 40
3.5
 49
1.0
 74
     0
 49
-0.5
 74
     0
 49
1.0
 74
     0
 49
-0.5
 74
     0
 49
0.0
 74
     0
 49
-0.5
 74
     0
  0
LTYPE
  5
23
100
AcDbSymbolTableRecord
100
AcDbLinetypeTableRecord
  2
CENTER
 70
     0
  3
____ _ ____ _ ____ _ ____ _ ____ _ ____ _ ____ 
 72
    65
 73
     4
 40
2.0
 49
1.25
 74
     0
 49
-0.25
 74
     0
 49
0.25
 74
     0
 49
-0.25
 74
     0
  0
LTYPE
  5
24
100
AcDbSymbolTableRecord
100
AcDbLinetypeTableRecord
  2
CENTER2
 70
     0
  3
___ _ ___ _ ___ _ ___ _ ___ _ ___ _ ___ _ ___ _
 72
    65
 73
     4
 40
1.125
 49
0.75
 74
     0
 49
-0.125
 74
     0
 49
0.125
 74
     0
 49
-0.125
 74
     0
  0
LTYPE
  5
25
100
AcDbSymbolTableRecord
100
AcDbLinetypeTableRecord
  2
CENTERX2
 70
     0
  3
________  __  ________  __  ________  __  _____
 72
    65
 73
     4
 40
4.0
 49
2.5
 74
     0
 49
-0.5
 74
     0
 49
0.5
 74
     0
 49
-0.5
 74
     0
  0
LTYPE
  5
26
100
AcDbSymbolTableRecord
100
AcDbLinetypeTableRecord
  2
DASHDOT
 70
     0
  3
__ . __ . __ . __ . __ . __ . __ . __ . __ . __
 72
    65
 73
     4
 40
1.0
 49
0.5
 74
     0
 49
-0.25
 74
     0
 49
0.0
 74
     0
 49
-0.25
 74
     0
  0
LTYPE
  5
27
100
AcDbSymbolTableRecord
100
AcDbLinetypeTableRecord
  2
DASHDOT2
 70
     0
  3
_._._._._._._._._._._._._._._._._._._._._._._._
 72
    65
 73
     4
 40
0.5
 49
0.25
 74
     0
 49
-0.125
 74
     0
 49
0.0
 74
     0
 49
-0.125
 74
     0
  0
LTYPE
  5
28
100
AcDbSymbolTableRecord
100
AcDbLinetypeTableRecord
  2
DASHDOTX2
 70
     0
  3
____  .  ____  .  ____  .  ____  .  ____  .  __
 72
    65
 73
     4
 40
2.0
 49
1.0
 74
     0
 49
-0.5
 74
     0
 49
0.0
 74
     0
 49
-0.5
 74
     0
  0
LTYPE
  5
29
100
AcDbSymbolTableRecord
100
AcDbLinetypeTableRecord
  2
DASHED
 70
     0
  3
__ __ __ __ __ __ __ __ __ __ __ __ __ __ __ __
 72
    65
 73
     2
 40
0.75
 49
0.5
 74
     0
 49
-0.25
 74
     0
  0
LTYPE
  5
2A
100
AcDbSymbolTableRecord
100
AcDbLinetypeTableRecord
  2
DASHED2
 70
     0
  3
_ _ _ _ _ _ _ _ _ _ _ _ _ _ _ _ _ _ _ _ _ _ _ _
 72
    65
 73
     2
 40
0.375
 49
0.25
 74
     0
 49
-0.125
 74
     0
  0
LTYPE
  5
2B
100
AcDbSymbolTableRecord
100
AcDbLinetypeTableRecord
  2
DASHEDX2
 70
     0
  3
____  ____  ____  ____  ____  ____  ____  ____ 
 72
    65
 73
     2
 40
1.5
 49
1.0
 74
     0
 49
-0.5
 74
     0
  0
LTYPE
  5
2C
100
AcDbSymbolTableRecord
100
AcDbLinetypeTableRecord
  2
DIVIDE
 70
     0
  3
____ . . ____ . . ____ . . ____ . . ____ . . __
 72
    65
 73
     6
 40
1.25
 49
0.5
 74
     0
 49
-0.25
 74
     0
 49
0.0
 74
     0
 49
-0.25
 74
     0
 49
0.0
 74
     0
 49
-0.25
 74
     0
  0
LTYPE
  5
2D
100
AcDbSymbolTableRecord
100
AcDbLinetypeTableRecord
  2
DIVIDE2
 70
     0
  3
__..__..__..__..__..__..__..__..__..__..__..__.
 72
    65
 73
     6
 40
0.625
 49
0.25
 74
     0
 49
-0.125
 74
     0
 49
0.0
 74
     0
 49
-0.125
 74
     0
 49
0.0
 74
     0
 49
-0.125
 74
     0
  0
LTYPE
  5
2E
100
AcDbSymbolTableRecord
100
AcDbLinetypeTableRecord
  2
DIVIDEX2
 70
     0
  3
________  .  .  ________  .  .  ________  .  . 
 72
    65
 73
     6
 40
2.5
 49
1.0
 74
     0
 49
-0.5
 74
     0
 49
0.0
 74
     0
 49
-0.5
 74
     0
 49
0.0
 74
     0
 49
-0.5
 74
     0
  0
LTYPE
  5
2F
100
AcDbSymbolTableRecord
100
AcDbLinetypeTableRecord
  2
DOT
 70
     0
  3
. . . . . . . . . . . . . . . . . . . . . . . .
 72
    65
 73
     2
 40
0.25
 49
0.0
 74
     0
 49
-0.25
 74
     0
  0
LTYPE
  5
30
100
AcDbSymbolTableRecord
100
AcDbLinetypeTableRecord
  2
DOT2
 70
     0
  3
...............................................
 72
    65
 73
     2
 40
0.125
 49
0.0
 74
     0
 49
-0.125
 74
     0
  0
LTYPE
  5
31
100
AcDbSymbolTableRecord
100
AcDbLinetypeTableRecord
  2
DOTX2
 70
     0
  3
.  .  .  .  .  .  .  .  .  .  .  .  .  .  .  . 
 72
    65
 73
     2
 40
0.5
 49
0.0
 74
     0
 49
-0.5
 74
     0
  0
LTYPE
  5
32
100
AcDbSymbolTableRecord
100
AcDbLinetypeTableRecord
  2
HIDDEN
 70
     0
  3
__ __ __ __ __ __ __ __ __ __ __ __ __ __ __ __
 72
    65
 73
     2
 40
0.375
 49
0.25
 74
     0
 49
-0.125
 74
     0
  0
LTYPE
  5
33
100
AcDbSymbolTableRecord
100
AcDbLinetypeTableRecord
  2
HIDDEN2
 70
     0
  3
_ _ _ _ _ _ _ _ _ _ _ _ _ _ _ _ _ _ _ _ _ _ _ _
 72
    65
 73
     2
 40
0.1875
 49
0.125
 74
     0
 49
-0.0625
 74
     0
  0
LTYPE
  5
34
100
AcDbSymbolTableRecord
100
AcDbLinetypeTableRecord
  2
HIDDENX2
 70
     0
  3
____ ____ ____ ____ ____ ____ ____ ____ ____ __
 72
    65
 73
     2
 40
0.75
 49
0.5
 74
     0
 49
-0.25
 74
     0
  0
LTYPE
  5
35
100
AcDbSymbolTableRecord
100
AcDbLinetypeTableRecord
  2
PHANTOM
 70
     0
  3
______  __  __  ______  __  __  ______  __  __ 
 72
    65
 73
     6
 40
2.5
 49
1.25
 74
     0
 49
-0.25
 74
     0
 49
0.25
 74
     0
 49
-0.25
 74
     0
 49
0.25
 74
     0
 49
-0.25
 74
     0
  0
LTYPE
  5
36
100
AcDbSymbolTableRecord
100
AcDbLinetypeTableRecord
  2
PHANTOM2
 70
     0
  3
___ _ _ ___ _ _ ___ _ _ ___ _ _ ___ _ _ ___ _ _
 72
    65
 73
     6
 40
1.25
 49
0.625
 74
     0
 49
-0.125
 74
     0
 49
0.125
 74
     0
 49
-0.125
 74
     0
 49
0.125
 74
     0
 49
-0.125
 74
     0
  0
LTYPE
  5
37
100
AcDbSymbolTableRecord
100
AcDbLinetypeTableRecord
  2
PHANTOMX2
 70
     0
  3
____________    ____    ____    ____________   
 72
    65
 73
     6
 40
5.0
 49
2.5
 74
     0
 49
-0.5
 74
     0
 49
0.5
 74
     0
 49
-0.5
 74
     0
 49
0.5
 74
     0
 49
-0.5
 74
     0
  0
ENDTAB
   0
TABLE
   2
LAYER
   5
2
 100
AcDbSymbolTable
  70
2
   0
LAYER
   5
E
 100
AcDbSymbolTableRecord
 100
AcDbLayerTableRecord
   2
0
  70
0
  62
7
   6
CONTINUOUS
 390
30
   0
LAYER
   5
39
 100
AcDbSymbolTableRecord
 100
AcDbLayerTableRecord
   2
LEVEL001
  70
0
  62
7
   6
CONTINUOUS
 390
30
   0
ENDTAB
  0
TABLE
  2
STYLE
  5
3
100
AcDbSymbolTable
  70
3
  0
STYLE
  5
F
100
AcDbSymbolTableRecord
100
AcDbTextStyleTableRecord
  2
STANDARD
 70
     0
 40
0.0
 41
1.0
 50
0.0
 71
     0
 42
0.2
  3
TXT
  4
BIGFONT
  0
STYLE
  5
38
100
AcDbSymbolTableRecord
100
AcDbTextStyleTableRecord
  2
STANDARD1
 70
     4
 40
0.0
 41
1.0
 50
0.0
 71
     0
 42
0.2
  3
TXT
  4
BIGFONT
   0
STYLE
   5
3A
 100
AcDbSymbolTableRecord
 100
AcDbTextStyleTableRecord
   2
GMM001
  70
0
  40
0.0
  41
 1.0000000000000
  50
0.0
  71
     0
  42
1.0
   3
txt.shx
   4
bigfont.shx
   0
ENDTAB
  0
TABLE
  2
VIEW
  5
6
100
AcDbSymbolTable
 70
     0
  0
ENDTAB
  0
TABLE
  2
UCS
  5
7
100
AcDbSymbolTable
 70
     0
  0
ENDTAB
  0
TABLE
  2
APPID
  5
9
100
AcDbSymbolTable
 70
     1
  0
APPID
  5
10
100
AcDbSymbolTableRecord
100
AcDbRegAppTableRecord
  2
ACAD
 70
     0
  0
ENDTAB
   0
TABLE
   2
DIMSTYLE
   5
A
 100
AcDbSymbolTable
  70
7
 100
AcDbDimStyleTable
  0
DIMSTYLE
105
1D
100
AcDbSymbolTableRecord
100
AcDbDimStyleTableRecord
  2
STANDARD
 70
     0
  3

  4

  5

  6

  7

 40
1.0
 41
0.18
 42
0.0625
 43
0.38
 44
0.18
 45
0.0
 46
0.0
 47
0.0
 48
0.0
140
0.18
141
0.09
142
0.0
143
25.4
144
1.0
145
0.0
146
1.0
147
0.09
 71
     0
 72
     0
 73
     1
 74
     1
 75
     0
 76
     0
 77
     0
 78
     0
170
     0
171
     2
172
     0
173
     0
174
     0
175
     0
176
     0
177
     0
178
     0
270
     2
271
     4
272
     4
273
     2
274
     2
340
F
275
     0
280
     0
281
     0
282
     0
283
     1
284
     0
285
     0
286
     0
287
     3
288
     0
   0
DIMSTYLE
 105
3B
 100
AcDbSymbolTableRecord
 100
AcDbDimStyleTableRecord
   2
GMM001
  70
0
   3
%%c<>
   4

   5

   6
_OPEN30
   7
_OPEN30
  40
 1.0000000000000
  41
 3.0000000000000
  42
0.0
  43
 8.0000000000000
  44
 2.0000000000000
  45
0.0
  46
0.0
  47
0.0
  48
0.0
 140
 4.0000000000000
 141
 1.0000000000000
 142
0.0
 143
 0.39400000000000E-1
 144
 1.0000000000000
 145
0.0
 146
 0.62500000000000
 147
 1.7142857142857
  71
0
  72
0
  73
0
  74
0
  75
0
  76
0
  77
3
  78
8
 170
0
 171
2
 172
1
 173
1
 174
0
 175
0
 176
2
 177
2
 178
2
 270
2
 271
6
 272
0
 273
2
 274
2
 340
3A
 275
1
 280
0
 281
0
 282
0
 283
1
 284
0
 285
0
 286
0
 287
3
 288
1
   0
DIMSTYLE
 105
3C
 100
AcDbSymbolTableRecord
 100
AcDbDimStyleTableRecord
   2
GMM002
  70
0
   3

   4

   5

   6
_OPEN30
   7
_OPEN30
  40
 1.0000000000000
  41
 3.0000000000000
  42
0.0
  43
 8.0000000000000
  44
 2.0000000000000
  45
0.0
  46
0.0
  47
0.0
  48
0.0
 140
 4.0000000000000
 141
 1.0000000000000
 142
0.0
 143
 0.39400000000000E-1
 144
 1.0000000000000
 145
0.0
 146
 0.62500000000000
 147
 1.7142857142857
  71
0
  72
0
  73
0
  74
0
  75
0
  76
0
  77
3
  78
8
 170
0
 171
2
 172
1
 173
1
 174
0
 175
0
 176
2
 177
2
 178
2
 270
2
 271
6
 272
0
 273
2
 274
2
 340
3A
 275
1
 280
0
 281
0
 282
0
 283
1
 284
0
 285
0
 286
0
 287
3
 288
0
   0
DIMSTYLE
 105
3D
 100
AcDbSymbolTableRecord
 100
AcDbDimStyleTableRecord
   2
GMM003
  70
0
   3

   4

   5

   6
_OPEN30
   7
_OPEN30
  40
 1.0000000000000
  41
 3.0000000000000
  42
0.0
  43
 8.0000000000000
  44
 2.0000000000000
  45
0.0
  46
0.0
  47
0.0
  48
0.0
 140
 4.0000000000000
 141
 1.0000000000000
 142
0.0
 143
 0.39400000000000E-1
 144
 1.0000000000000
 145
0.0
 146
 0.62500000000000
 147
 1.7142857142857
  71
0
  72
0
  73
0
  74
0
  75
0
  76
0
  77
3
  78
8
 170
0
 171
2
 172
1
 173
1
 174
0
 175
0
 176
2
 177
2
 178
2
 270
2
 271
6
 272
0
 273
2
 274
2
 340
3A
 275
1
 280
0
 281
0
 282
0
 283
1
 284
0
 285
0
 286
0
 287
3
 288
1
   0
DIMSTYLE
 105
3E
 100
AcDbSymbolTableRecord
 100
AcDbDimStyleTableRecord
   2
GMM004
  70
0
   3

   4

   5

   6
_OPEN30
   7
_OPEN30
  40
 1.0000000000000
  41
 3.0000000000000
  42
0.0
  43
 8.0000000000000
  44
 2.0000000000000
  45
0.0
  46
0.0
  47
0.0
  48
0.0
 140
 4.0000000000000
 141
 1.0000000000000
 142
0.0
 143
 0.39400000000000E-1
 144
 1.0000000000000
 145
0.0
 146
 0.62500000000000
 147
 1.7142857142857
  71
0
  72
0
  73
0
  74
0
  75
0
  76
0
  77
3
  78
8
 170
0
 171
2
 172
1
 173
1
 174
0
 175
0
 176
2
 177
2
 178
2
 270
2
 271
6
 272
0
 273
2
 274
2
 340
3A
 275
1
 280
0
 281
0
 282
0
 283
1
 284
0
 285
0
 286
0
 287
3
 288
1
   0
DIMSTYLE
 105
3F
 100
AcDbSymbolTableRecord
 100
AcDbDimStyleTableRecord
   2
GMM005
  70
0
   3
R<>
   4

   5

   6
_NONE
   7
_OPEN30
  40
 1.0000000000000
  41
 3.0000000000000
  42
0.0
  43
 8.0000000000000
  44
 2.0000000000000
  45
0.0
  46
0.0
  47
0.0
  48
0.0
 140
 4.0000000000000
 141
 1.0000000000000
 142
0.0
 143
 0.39400000000000E-1
 144
 1.0000000000000
 145
0.0
 146
 0.62500000000000
 147
 1.7142857142857
  71
0
  72
0
  73
0
  74
0
  75
0
  76
0
  77
3
  78
8
 170
0
 171
2
 172
1
 173
1
 174
0
 175
0
 176
2
 177
2
 178
2
 270
2
 271
6
 272
0
 273
2
 274
2
 340
3A
 275
1
 280
0
 281
0
 282
0
 283
1
 284
0
 285
0
 286
0
 287
3
 288
1
   0
ENDTAB
  0
TABLE
  2
BLOCK_RECORD
  5
1
100
AcDbSymbolTable
 70
     0
  0
BLOCK_RECORD
  5
18
100
AcDbSymbolTableRecord
100
AcDbBlockTableRecord
  2
*MODEL_SPACE
  0
BLOCK_RECORD
  5
15
100
AcDbSymbolTableRecord
100
AcDbBlockTableRecord
  2
*PAPER_SPACE
   0
BLOCK_RECORD
   5
40
 100
AcDbSymbolTableRecord
 100
AcDbBlockTableRecord
   2
*D1
   0
BLOCK_RECORD
   5
41
 100
AcDbSymbolTableRecord
 100
AcDbBlockTableRecord
   2
*D2
   0
BLOCK_RECORD
   5
42
 100
AcDbSymbolTableRecord
 100
AcDbBlockTableRecord
   2
*D3
   0
BLOCK_RECORD
   5
43
 100
AcDbSymbolTableRecord
 100
AcDbBlockTableRecord
   2
*D4
   0
BLOCK_RECORD
   5
44
 100
AcDbSymbolTableRecord
 100
AcDbBlockTableRecord
   2
*D5
   0
BLOCK_RECORD
   5
45
 100
AcDbSymbolTableRecord
 100
AcDbBlockTableRecord
   2
*D6
   0
BLOCK_RECORD
   5
46
 100
AcDbSymbolTableRecord
 100
AcDbBlockTableRecord
   2
*D7
   0
BLOCK_RECORD
   5
47
 100
AcDbSymbolTableRecord
 100
AcDbBlockTableRecord
   2
*D8
   0
BLOCK_RECORD
   5
48
 100
AcDbSymbolTableRecord
 100
AcDbBlockTableRecord
   2
*D9
   0
BLOCK_RECORD
   5
49
 100
AcDbSymbolTableRecord
 100
AcDbBlockTableRecord
   2
*D10
   0
BLOCK_RECORD
   5
4A
 100
AcDbSymbolTableRecord
 100
AcDbBlockTableRecord
   2
*D11
   0
BLOCK_RECORD
   5
4B
 100
AcDbSymbolTableRecord
 100
AcDbBlockTableRecord
   2
*D12
   0
BLOCK_RECORD
   5
4C
 100
AcDbSymbolTableRecord
 100
AcDbBlockTableRecord
   2
*D13
   0
BLOCK_RECORD
   5
4D
 100
AcDbSymbolTableRecord
 100
AcDbBlockTableRecord
   2
*D14
   0
BLOCK_RECORD
   5
4E
 100
AcDbSymbolTableRecord
 100
AcDbBlockTableRecord
   2
*D15
   0
BLOCK_RECORD
   5
4F
 100
AcDbSymbolTableRecord
 100
AcDbBlockTableRecord
   2
*D16
   0
BLOCK_RECORD
   5
50
 100
AcDbSymbolTableRecord
 100
AcDbBlockTableRecord
   2
*D17
   0
BLOCK_RECORD
   5
51
 100
AcDbSymbolTableRecord
 100
AcDbBlockTableRecord
   2
*D18
   0
BLOCK_RECORD
   5
52
 100
AcDbSymbolTableRecord
 100
AcDbBlockTableRecord
   2
*D19
   0
BLOCK_RECORD
   5
53
 100
AcDbSymbolTableRecord
 100
AcDbBlockTableRecord
   2
*D20
   0
BLOCK_RECORD
   5
54
 100
AcDbSymbolTableRecord
 100
AcDbBlockTableRecord
   2
*D21
   0
BLOCK_RECORD
   5
55
 100
AcDbSymbolTableRecord
 100
AcDbBlockTableRecord
   2
*D22
   0
BLOCK_RECORD
   5
56
 100
AcDbSymbolTableRecord
 100
AcDbBlockTableRecord
   2
*D23
   0
BLOCK_RECORD
   5
57
 100
AcDbSymbolTableRecord
 100
AcDbBlockTableRecord
   2
_ARCHTICK
   0
BLOCK_RECORD
   5
58
 100
AcDbSymbolTableRecord
 100
AcDbBlockTableRecord
   2
_BOXBLANK
   0
BLOCK_RECORD
   5
59
 100
AcDbSymbolTableRecord
 100
AcDbBlockTableRecord
   2
_BOXFILLED
   0
BLOCK_RECORD
   5
5A
 100
AcDbSymbolTableRecord
 100
AcDbBlockTableRecord
   2
_CLOSED
   0
BLOCK_RECORD
   5
5B
 100
AcDbSymbolTableRecord
 100
AcDbBlockTableRecord
   2
_CLOSEDBLANK
   0
BLOCK_RECORD
   5
5C
 100
AcDbSymbolTableRecord
 100
AcDbBlockTableRecord
   2
_DATUMBLANK
   0
BLOCK_RECORD
   5
5D
 100
AcDbSymbolTableRecord
 100
AcDbBlockTableRecord
   2
_DATUMFILLED
   0
BLOCK_RECORD
   5
5E
 100
AcDbSymbolTableRecord
 100
AcDbBlockTableRecord
   2
_DOT
   0
BLOCK_RECORD
   5
5F
 100
AcDbSymbolTableRecord
 100
AcDbBlockTableRecord
   2
_DOTBLANK
   0
BLOCK_RECORD
   5
60
 100
AcDbSymbolTableRecord
 100
AcDbBlockTableRecord
   2
_DOTSMALL
   0
BLOCK_RECORD
   5
61
 100
AcDbSymbolTableRecord
 100
AcDbBlockTableRecord
   2
_INTEGRAL
   0
BLOCK_RECORD
   5
62
 100
AcDbSymbolTableRecord
 100
AcDbBlockTableRecord
   2
_NONE
   0
BLOCK_RECORD
   5
63
 100
AcDbSymbolTableRecord
 100
AcDbBlockTableRecord
   2
_OBLIQUE
   0
BLOCK_RECORD
   5
64
 100
AcDbSymbolTableRecord
 100
AcDbBlockTableRecord
   2
_OPEN
   0
BLOCK_RECORD
   5
65
 100
AcDbSymbolTableRecord
 100
AcDbBlockTableRecord
   2
_OPEN30
   0
BLOCK_RECORD
   5
66
 100
AcDbSymbolTableRecord
 100
AcDbBlockTableRecord
   2
_OPEN90
   0
BLOCK_RECORD
   5
67
 100
AcDbSymbolTableRecord
 100
AcDbBlockTableRecord
   2
_ORIGIN
   0
ENDTAB
   0
ENDSEC
  0
SECTION
  2
BLOCKS
  0
BLOCK
  5
19
100
AcDbEntity
  8
0
100
AcDbBlockBegin
  2
*MODEL_SPACE
 70
     0
 10
0.0
 20
0.0
 30
0.0
  3
*MODEL_SPACE
  1

  0
ENDBLK
  5
1A
100
AcDbEntity
  8
0
100
AcDbBlockEnd
  0
BLOCK
  5
16
100
AcDbEntity
 67
     1
  8
0
100
AcDbBlockBegin
  2
*PAPER_SPACE
 70
     0
 10
0.0
 20
0.0
 30
0.0
  3
*PAPER_SPACE
  1

  0
ENDBLK
  5
17
100
AcDbEntity
 67
     1
  8
0
100
AcDbBlockEnd
   0
BLOCK
   5
68
 100
AcDbEntity
   8
0
 100
AcDbBlockBegin
   2
_ARCHTICK
  70
0
  10
0.0
  20
0.0
  30
0.0
   3
_ARCHTICK
   0
POLYLINE
   5
69
 100
AcDbEntity
   8
0
   6
BYBLOCK
  62
0
 100
AcDb2dPolyline
  66
1
  10
0.0
  20
0.0
  30
0.0
  70
1
  40
 0.15000000000000
  41
 0.15000000000000
   0
VERTEX
   5
6A
 100
AcDbEntity
   8
0
   6
BYBLOCK
  62
0
 100
AcDbVertex
 100
AcDb2dVertex
  10
-0.50000000000000
  20
-0.50000000000000
  30
0.0
  40
 0.15000000000000
  41
 0.15000000000000
   0
VERTEX
   5
6B
 100
AcDbEntity
   8
0
   6
BYBLOCK
  62
0
 100
AcDbVertex
 100
AcDb2dVertex
  10
 0.50000000000000
  20
 0.50000000000000
  30
0.0
  40
 0.15000000000000
  41
 0.15000000000000
   0
SEQEND
   5
6C
 100
AcDbEntity
   8
0
   6
BYBLOCK
  62
0
   0
ENDBLK
   5
6D
 100
AcDbEntity
   8
0
 100
AcDbBlockEnd
   0
BLOCK
   5
6E
 100
AcDbEntity
   8
0
 100
AcDbBlockBegin
   2
_OBLIQUE
  70
0
  10
0.0
  20
0.0
  30
0.0
   3
_OBLIQUE
   0
LINE
   5
6F
 100
AcDbEntity
   8
0
 100
AcDbLine
   6
BYBLOCK
  62
0
  10
-0.50000000000000
  20
-0.50000000000000
  30
0.0
  11
 0.50000000000000
  21
 0.50000000000000
  31
0.0
   0
ENDBLK
   5
70
 100
AcDbEntity
   8
0
 100
AcDbBlockEnd
   0
BLOCK
   5
71
 100
AcDbEntity
   8
0
 100
AcDbBlockBegin
   2
_BOXBLANK
  70
0
  10
0.0
  20
0.0
  30
0.0
   3
_BOXBLANK
   0
LINE
   5
72
 100
AcDbEntity
   8
0
 100
AcDbLine
   6
BYBLOCK
  62
0
  10
-0.50000000000000
  20
-0.50000000000000
  30
0.0
  11
 0.50000000000000
  21
-0.50000000000000
  31
0.0
   0
LINE
   5
73
 100
AcDbEntity
   8
0
 100
AcDbLine
   6
BYBLOCK
  62
0
  10
 0.50000000000000
  20
-0.50000000000000
  30
0.0
  11
 0.50000000000000
  21
 0.50000000000000
  31
0.0
   0
LINE
   5
74
 100
AcDbEntity
   8
0
 100
AcDbLine
   6
BYBLOCK
  62
0
  10
 0.50000000000000
  20
 0.50000000000000
  30
0.0
  11
-0.50000000000000
  21
 0.50000000000000
  31
0.0
   0
LINE
   5
75
 100
AcDbEntity
   8
0
 100
AcDbLine
   6
BYBLOCK
  62
0
  10
-0.50000000000000
  20
 0.50000000000000
  30
0.0
  11
-0.50000000000000
  21
-0.50000000000000
  31
0.0
   0
LINE
   5
76
 100
AcDbEntity
   8
0
 100
AcDbLine
   6
BYBLOCK
  62
0
  10
-0.50000000000000
  20
0.0
  30
0.0
  11
-1.0000000000000
  21
0.0
  31
0.0
   0
ENDBLK
   5
77
 100
AcDbEntity
   8
0
 100
AcDbBlockEnd
   0
BLOCK
   5
78
 100
AcDbEntity
   8
0
 100
AcDbBlockBegin
   2
_BOXFILLED
  70
0
  10
0.0
  20
0.0
  30
0.0
   3
_BOXFILLED
   0
SOLID
   5
79
 100
AcDbEntity
   8
0
 100
AcDbTrace
   6
BYBLOCK
  62
0
  10
-0.50000000000000
  20
 0.50000000000000
  30
0.0
  11
 0.50000000000000
  21
 0.50000000000000
  31
0.0
  12
-0.50000000000000
  22
-0.50000000000000
  32
0.0
  13
 0.50000000000000
  23
-0.50000000000000
  33
0.0
   0
LINE
   5
7A
 100
AcDbEntity
   8
0
 100
AcDbLine
   6
BYBLOCK
  62
0
  10
-0.50000000000000
  20
0.0
  30
0.0
  11
-1.0000000000000
  21
0.0
  31
0.0
   0
ENDBLK
   5
7B
 100
AcDbEntity
   8
0
 100
AcDbBlockEnd
   0
BLOCK
   5
7C
 100
AcDbEntity
   8
0
 100
AcDbBlockBegin
   2
_CLOSED
  70
0
  10
0.0
  20
0.0
  30
0.0
   3
_CLOSED
   0
LINE
   5
7D
 100
AcDbEntity
   8
0
 100
AcDbLine
   6
BYBLOCK
  62
0
  10
-1.0000000000000
  20
 0.16666666666667
  30
0.0
  11
0.0
  21
0.0
  31
0.0
   0
LINE
   5
7E
 100
AcDbEntity
   8
0
 100
AcDbLine
   6
BYBLOCK
  62
0
  10
0.0
  20
0.0
  30
0.0
  11
-1.0000000000000
  21
-0.16666666666667
  31
0.0
   0
LINE
   5
7F
 100
AcDbEntity
   8
0
 100
AcDbLine
   6
BYBLOCK
  62
0
  10
-1.0000000000000
  20
 0.16666666666667
  30
0.0
  11
-1.0000000000000
  21
-0.16666666666667
  31
0.0
   0
LINE
   5
80
 100
AcDbEntity
   8
0
 100
AcDbLine
   6
BYBLOCK
  62
0
  10
0.0
  20
0.0
  30
0.0
  11
-1.0000000000000
  21
0.0
  31
0.0
   0
ENDBLK
   5
81
 100
AcDbEntity
   8
0
 100
AcDbBlockEnd
   0
BLOCK
   5
82
 100
AcDbEntity
   8
0
 100
AcDbBlockBegin
   2
_OPEN
  70
0
  10
0.0
  20
0.0
  30
0.0
   3
_OPEN
   0
LINE
   5
83
 100
AcDbEntity
   8
0
 100
AcDbLine
   6
BYBLOCK
  62
0
  10
-1.0000000000000
  20
 0.16666666666667
  30
0.0
  11
0.0
  21
0.0
  31
0.0
   0
LINE
   5
84
 100
AcDbEntity
   8
0
 100
AcDbLine
   6
BYBLOCK
  62
0
  10
0.0
  20
0.0
  30
0.0
  11
-1.0000000000000
  21
-0.16666666666667
  31
0.0
   0
LINE
   5
85
 100
AcDbEntity
   8
0
 100
AcDbLine
   6
BYBLOCK
  62
0
  10
0.0
  20
0.0
  30
0.0
  11
-1.0000000000000
  21
0.0
  31
0.0
   0
ENDBLK
   5
86
 100
AcDbEntity
   8
0
 100
AcDbBlockEnd
   0
BLOCK
   5
87
 100
AcDbEntity
   8
0
 100
AcDbBlockBegin
   2
_OPEN30
  70
0
  10
0.0
  20
0.0
  30
0.0
   3
_OPEN30
   0
LINE
   5
88
 100
AcDbEntity
   8
0
 100
AcDbLine
   6
BYBLOCK
  62
0
  10
-1.0000000000000
  20
 0.26794919243110
  30
0.0
  11
0.0
  21
0.0
  31
0.0
   0
LINE
   5
89
 100
AcDbEntity
   8
0
 100
AcDbLine
   6
BYBLOCK
  62
0
  10
0.0
  20
0.0
  30
0.0
  11
-1.0000000000000
  21
-0.26794919243110
  31
0.0
   0
LINE
   5
8A
 100
AcDbEntity
   8
0
 100
AcDbLine
   6
BYBLOCK
  62
0
  10
0.0
  20
0.0
  30
0.0
  11
-1.0000000000000
  21
0.0
  31
0.0
   0
ENDBLK
   5
8B
 100
AcDbEntity
   8
0
 100
AcDbBlockEnd
   0
BLOCK
   5
8C
 100
AcDbEntity
   8
0
 100
AcDbBlockBegin
   2
_OPEN90
  70
0
  10
0.0
  20
0.0
  30
0.0
   3
_OPEN90
   0
LINE
   5
8D
 100
AcDbEntity
   8
0
 100
AcDbLine
   6
BYBLOCK
  62
0
  10
-0.50000000000000
  20
 0.50000000000000
  30
0.0
  11
0.0
  21
0.0
  31
0.0
   0
LINE
   5
8E
 100
AcDbEntity
   8
0
 100
AcDbLine
   6
BYBLOCK
  62
0
  10
0.0
  20
0.0
  30
0.0
  11
-0.50000000000000
  21
-0.50000000000000
  31
0.0
   0
LINE
   5
8F
 100
AcDbEntity
   8
0
 100
AcDbLine
   6
BYBLOCK
  62
0
  10
0.0
  20
0.0
  30
0.0
  11
-1.0000000000000
  21
0.0
  31
0.0
   0
ENDBLK
   5
90
 100
AcDbEntity
   8
0
 100
AcDbBlockEnd
   0
BLOCK
   5
91
 100
AcDbEntity
   8
0
 100
AcDbBlockBegin
   2
_CLOSEDBLANK
  70
0
  10
0.0
  20
0.0
  30
0.0
   3
_CLOSEDBLANK
   0
LINE
   5
92
 100
AcDbEntity
   8
0
 100
AcDbLine
   6
BYBLOCK
  62
0
  10
-1.0000000000000
  20
 0.16666666666667
  30
0.0
  11
0.0
  21
0.0
  31
0.0
   0
LINE
   5
93
 100
AcDbEntity
   8
0
 100
AcDbLine
   6
BYBLOCK
  62
0
  10
0.0
  20
0.0
  30
0.0
  11
-1.0000000000000
  21
-0.16666666666667
  31
0.0
   0
LINE
   5
94
 100
AcDbEntity
   8
0
 100
AcDbLine
   6
BYBLOCK
  62
0
  10
-1.0000000000000
  20
 0.16666666666667
  30
0.0
  11
-1.0000000000000
  21
-0.16666666666667
  31
0.0
   0
ENDBLK
   5
95
 100
AcDbEntity
   8
0
 100
AcDbBlockEnd
   0
BLOCK
   5
96
 100
AcDbEntity
   8
0
 100
AcDbBlockBegin
   2
_DOT
  70
0
  10
0.0
  20
0.0
  30
0.0
   3
_DOT
   0
POLYLINE
   5
97
 100
AcDbEntity
   8
0
   6
BYBLOCK
  62
0
 100
AcDb2dPolyline
  66
1
  10
0.0
  20
0.0
  30
0.0
  70
1
  40
 0.50000000000000
  41
 0.50000000000000
   0
VERTEX
   5
98
 100
AcDbEntity
   8
0
   6
BYBLOCK
  62
0
 100
AcDbVertex
 100
AcDb2dVertex
  10
-0.25000000000000
  20
0.0
  30
0.0
  42
 1.0000000000000
  40
 0.50000000000000
  41
 0.50000000000000
   0
VERTEX
   5
99
 100
AcDbEntity
   8
0
   6
BYBLOCK
  62
0
 100
AcDbVertex
 100
AcDb2dVertex
  10
 0.25000000000000
  20
0.0
  30
0.0
  42
 1.0000000000000
  40
 0.50000000000000
  41
 0.50000000000000
   0
SEQEND
   5
9A
 100
AcDbEntity
   8
0
   6
BYBLOCK
  62
0
   0
LINE
   5
9B
 100
AcDbEntity
   8
0
 100
AcDbLine
   6
BYBLOCK
  62
0
  10
-0.50000000000000
  20
0.0
  30
0.0
  11
-1.0000000000000
  21
0.0
  31
0.0
   0
ENDBLK
   5
9C
 100
AcDbEntity
   8
0
 100
AcDbBlockEnd
   0
BLOCK
   5
9D
 100
AcDbEntity
   8
0
 100
AcDbBlockBegin
   2
_DOTSMALL
  70
0
  10
0.0
  20
0.0
  30
0.0
   3
_DOTSMALL
   0
POLYLINE
   5
9E
 100
AcDbEntity
   8
0
   6
BYBLOCK
  62
0
 100
AcDb2dPolyline
  66
1
  10
0.0
  20
0.0
  30
0.0
  70
1
  40
 0.50000000000000
  41
 0.50000000000000
   0
VERTEX
   5
9F
 100
AcDbEntity
   8
0
   6
BYBLOCK
  62
0
 100
AcDbVertex
 100
AcDb2dVertex
  10
-0.62500000000000E-1
  20
0.0
  30
0.0
  42
 1.0000000000000
  40
 0.50000000000000
  41
 0.50000000000000
   0
VERTEX
   5
A0
 100
AcDbEntity
   8
0
   6
BYBLOCK
  62
0
 100
AcDbVertex
 100
AcDb2dVertex
  10
 0.62500000000000E-1
  20
0.0
  30
0.0
  42
 1.0000000000000
  40
 0.50000000000000
  41
 0.50000000000000
   0
SEQEND
   5
A1
 100
AcDbEntity
   8
0
   6
BYBLOCK
  62
0
   0
ENDBLK
   5
A2
 100
AcDbEntity
   8
0
 100
AcDbBlockEnd
   0
BLOCK
   5
A3
 100
AcDbEntity
   8
0
 100
AcDbBlockBegin
   2
_DATUMBLANK
  70
0
  10
0.0
  20
0.0
  30
0.0
   3
_DATUMBLANK
   0
LINE
   5
A4
 100
AcDbEntity
   8
0
 100
AcDbLine
   6
BYBLOCK
  62
0
  10
0.0
  20
 0.57735027000000
  30
0.0
  11
-1.0000000000000
  21
0.0
  31
0.0
   0
LINE
   5
A5
 100
AcDbEntity
   8
0
 100
AcDbLine
   6
BYBLOCK
  62
0
  10
-1.0000000000000
  20
0.0
  30
0.0
  11
0.0
  21
-0.57735027000000
  31
0.0
   0
LINE
   5
A6
 100
AcDbEntity
   8
0
 100
AcDbLine
   6
BYBLOCK
  62
0
  10
0.0
  20
-0.57735027000000
  30
0.0
  11
0.0
  21
 0.57735027000000
  31
0.0
   0
ENDBLK
   5
A7
 100
AcDbEntity
   8
0
 100
AcDbBlockEnd
   0
BLOCK
   5
A8
 100
AcDbEntity
   8
0
 100
AcDbBlockBegin
   2
_DATUMFILLED
  70
0
  10
0.0
  20
0.0
  30
0.0
   3
_DATUMFILLED
   0
SOLID
   5
A9
 100
AcDbEntity
   8
0
 100
AcDbTrace
   6
BYBLOCK
  62
0
  10
0.0
  20
 0.57735027000000
  30
0.0
  11
-1.0000000000000
  21
0.0
  31
0.0
  12
0.0
  22
-0.57735027000000
  32
0.0
  13
0.0
  23
-0.57735027000000
  33
0.0
   0
ENDBLK
   5
AA
 100
AcDbEntity
   8
0
 100
AcDbBlockEnd
   0
BLOCK
   5
AB
 100
AcDbEntity
   8
0
 100
AcDbBlockBegin
   2
_ORIGIN
  70
0
  10
0.0
  20
0.0
  30
0.0
   3
_ORIGIN
   0
CIRCLE
   5
AC
 100
AcDbEntity
   8
0
 100
AcDbCircle
   6
BYBLOCK
  62
0
  10
0.0
  20
0.0
  30
0.0
  40
 0.50000000000000
   0
LINE
   5
AD
 100
AcDbEntity
   8
0
 100
AcDbLine
   6
BYBLOCK
  62
0
  10
0.0
  20
0.0
  30
0.0
  11
-1.0000000000000
  21
0.0
  31
0.0
   0
ENDBLK
   5
AE
 100
AcDbEntity
   8
0
 100
AcDbBlockEnd
   0
BLOCK
   5
AF
 100
AcDbEntity
   8
0
 100
AcDbBlockBegin
   2
_NONE
  70
0
  10
0.0
  20
0.0
  30
0.0
   3
_NONE
   0
CIRCLE
   5
B0
 100
AcDbEntity
   8
0
 100
AcDbCircle
   6
BYBLOCK
  62
0
  10
0.0
  20
0.0
  30
0.0
  40
 0.25000000000000
   0
ENDBLK
   5
B1
 100
AcDbEntity
   8
0
 100
AcDbBlockEnd
   0
BLOCK
   5
B2
 100
AcDbEntity
   8
0
 100
AcDbBlockBegin
   2
_DOTBLANK
  70
0
  10
0.0
  20
0.0
  30
0.0
   3
_DOTBLANK
   0
CIRCLE
   5
B3
 100
AcDbEntity
   8
0
 100
AcDbCircle
   6
BYBLOCK
  62
0
  10
0.0
  20
0.0
  30
0.0
  40
 0.50000000000000
   0
LINE
   5
B4
 100
AcDbEntity
   8
0
 100
AcDbLine
   6
BYBLOCK
  62
0
  10
-0.50000000000000
  20
0.0
  30
0.0
  11
-1.0000000000000
  21
0.0
  31
0.0
   0
ENDBLK
   5
B5
 100
AcDbEntity
   8
0
 100
AcDbBlockEnd
   0
BLOCK
   5
B6
 100
AcDbEntity
   8
0
 100
AcDbBlockBegin
   2
_INTEGRAL
  70
0
  10
0.0
  20
0.0
  30
0.0
   3
_INTEGRAL
   0
ARC
   5
B7
 100
AcDbEntity
   8
0
   6
BYBLOCK
  62
0
 100
AcDbCircle
  10
 0.44488800000000
  20
-0.91335000000000E-1
  30
0.0
  40
 0.45416700000000
 100
AcDbArc
  50
 102.00000000000
  51
 168.00000000000
   0
ARC
   5
B8
 100
AcDbEntity
   8
0
   6
BYBLOCK
  62
0
 100
AcDbCircle
  10
-0.44488800000000
  20
 0.91335000000000E-1
  30
0.0
  40
 0.45416700000000
 100
AcDbArc
  50
 282.00000000000
  51
 348.00000000000
   0
ENDBLK
   5
B9
 100
AcDbEntity
   8
0
 100
AcDbBlockEnd
   0
BLOCK
   5
BA
 100
AcDbEntity
   8
0
 100
AcDbBlockBegin
   2
*D1
  70
65
  10
0.0
  20
0.0
  30
0.0
   3
*D1
   0
LINE
   5
BB
 100
AcDbEntity
   8
LEVEL001
 100
AcDbLine
   6
CONTINUOUS
  62
2
  10
 117.65722357921
  20
 134.53622783611
  30
0.0
  11
 117.65722357921
  21
 117.79633143580
  31
0.0
   0
LINE
   5
BC
 100
AcDbEntity
   8
LEVEL001
 100
AcDbLine
   6
CONTINUOUS
  62
2
  10
 131.15722357921
  20
 134.53622783611
  30
0.0
  11
 131.15722357921
  21
 117.79633143580
  31
0.0
   0
LINE
   5
BD
 100
AcDbEntity
   8
LEVEL001
 100
AcDbLine
   6
CONTINUOUS
  62
2
  10
 113.90722357921
  20
 119.79633143580
  30
0.0
  11
 124.40722357921
  21
 119.79633143580
  31
0.0
   0
LINE
   5
BE
 100
AcDbEntity
   8
LEVEL001
 100
AcDbLine
   6
CONTINUOUS
  62
2
  10
 151.88666696947
  20
 119.79633143580
  30
0.0
  11
 124.40722357921
  21
 119.79633143580
  31
0.0
   0
INSERT
   5
BF
 100
AcDbEntity
   8
LEVEL001
   6
CONTINUOUS
  62
2
 100
AcDbBlockReference
   2
_OPEN30
  10
 117.65722357921
  20
 119.79633143580
  30
0.0
  41
 3.0000000000000
  42
 3.0000000000000
  43
 3.0000000000000
  50
0.0
   0
INSERT
   5
C0
 100
AcDbEntity
   8
LEVEL001
   6
CONTINUOUS
  62
2
 100
AcDbBlockReference
   2
_OPEN30
  10
 131.15722357921
  20
 119.79633143580
  30
0.0
  41
 3.0000000000000
  42
 3.0000000000000
  43
 3.0000000000000
  50
 180.00000000000
   0
MTEXT
   5
C1
 100
AcDbEntity
   8
LEVEL001
  62
2
 100
AcDbMText
  10
 142.88666696947
  20
 121.51061715009
  30
0.0
  40
 4.0000000000000
  41
0.0
  71
8
  72
1
   1
\A1;%%c13.5
   7
GMM001
   0
ENDBLK
   5
C2
 100
AcDbEntity
   8
0
 100
AcDbBlockEnd
   0
BLOCK
   5
C3
 100
AcDbEntity
   8
0
 100
AcDbBlockBegin
   2
*D2
  70
65
  10
0.0
  20
0.0
  30
0.0
   3
*D2
   0
LINE
   5
C4
 100
AcDbEntity
   8
LEVEL001
 100
AcDbLine
   6
CONTINUOUS
  62
2
  10
 96.407223579206
  20
 139.02037544312
  30
0.0
  11
 96.407223579206
  21
 117.79633143580
  31
0.0
   0
LINE
   5
C5
 100
AcDbEntity
   8
LEVEL001
 100
AcDbLine
   6
CONTINUOUS
  62
2
  10
 80.407223579206
  20
 139.02037544312
  30
0.0
  11
 80.407223579206
  21
 117.79633143580
  31
0.0
   0
LINE
   5
C6
 100
AcDbEntity
   8
LEVEL001
 100
AcDbLine
   6
CONTINUOUS
  62
2
  10
 96.407223579206
  20
 119.79633143580
  30
0.0
  11
 88.407223579206
  21
 119.79633143580
  31
0.0
   0
LINE
   5
C7
 100
AcDbEntity
   8
LEVEL001
 100
AcDbLine
   6
CONTINUOUS
  62
2
  10
 80.407223579206
  20
 119.79633143580
  30
0.0
  11
 88.407223579206
  21
 119.79633143580
  31
0.0
   0
INSERT
   5
C8
 100
AcDbEntity
   8
LEVEL001
   6
CONTINUOUS
  62
2
 100
AcDbBlockReference
   2
_OPEN30
  10
 96.407223579206
  20
 119.79633143580
  30
0.0
  41
 3.0000000000000
  42
 3.0000000000000
  43
 3.0000000000000
  50
0.0
   0
INSERT
   5
C9
 100
AcDbEntity
   8
LEVEL001
   6
CONTINUOUS
  62
2
 100
AcDbBlockReference
   2
_OPEN30
  10
 80.407223579206
  20
 119.79633143580
  30
0.0
  41
 3.0000000000000
  42
 3.0000000000000
  43
 3.0000000000000
  50
 180.00000000000
   0
MTEXT
   5
CA
 100
AcDbEntity
   8
LEVEL001
  62
2
 100
AcDbMText
  10
 88.407223579206
  20
 121.51061715009
  30
0.0
  40
 4.0000000000000
  41
0.0
  71
8
  72
1
   1
\A1;16
   7
GMM001
   0
ENDBLK
   5
CB
 100
AcDbEntity
   8
0
 100
AcDbBlockEnd
   0
BLOCK
   5
CC
 100
AcDbEntity
   8
0
 100
AcDbBlockBegin
   2
*D3
  70
65
  10
0.0
  20
0.0
  30
0.0
   3
*D3
   0
LINE
   5
CD
 100
AcDbEntity
   8
LEVEL001
 100
AcDbLine
   6
CONTINUOUS
  62
2
  10
 73.407223579206
  20
 138.03622783611
  30
0.0
  11
 73.407223579206
  21
 117.79633143580
  31
0.0
   0
LINE
   5
CE
 100
AcDbEntity
   8
LEVEL001
 100
AcDbLine
   6
CONTINUOUS
  62
2
  10
 73.407223579206
  20
 119.79633143580
  30
0.0
  11
 76.907223579206
  21
 119.79633143580
  31
0.0
   0
LINE
   5
CF
 100
AcDbEntity
   8
LEVEL001
 100
AcDbLine
   6
CONTINUOUS
  62
2
  10
 80.407223579206
  20
 119.79633143580
  30
0.0
  11
 76.907223579206
  21
 119.79633143580
  31
0.0
   0
INSERT
   5
D0
 100
AcDbEntity
   8
LEVEL001
   6
CONTINUOUS
  62
2
 100
AcDbBlockReference
   2
_OPEN30
  10
 73.407223579206
  20
 119.79633143580
  30
0.0
  41
 3.0000000000000
  42
 3.0000000000000
  43
 3.0000000000000
  50
 180.00000000000
   0
INSERT
   5
D1
 100
AcDbEntity
   8
LEVEL001
   6
CONTINUOUS
  62
2
 100
AcDbBlockReference
   2
_OPEN30
  10
 80.407223579206
  20
 119.79633143580
  30
0.0
  41
 3.0000000000000
  42
 3.0000000000000
  43
 3.0000000000000
  50
0.0
   0
MTEXT
   5
D2
 100
AcDbEntity
   8
LEVEL001
  62
2
 100
AcDbMText
  10
 76.907223579206
  20
 121.51061715009
  30
0.0
  40
 4.0000000000000
  41
0.0
  71
8
  72
1
   1
\A1;7
   7
GMM001
   0
ENDBLK
   5
D3
 100
AcDbEntity
   8
0
 100
AcDbBlockEnd
   0
BLOCK
   5
D4
 100
AcDbEntity
   8
0
 100
AcDbBlockBegin
   2
*D4
  70
65
  10
0.0
  20
0.0
  30
0.0
   3
*D4
   0
LINE
   5
D5
 100
AcDbEntity
   8
LEVEL001
 100
AcDbLine
   6
CONTINUOUS
  62
2
  10
 103.81381061144
  20
 188.03622783611
  30
0.0
  11
 110.21327463926
  21
 188.03622783611
  31
0.0
   0
LINE
   5
D6
 100
AcDbEntity
   8
LEVEL001
 100
AcDbLine
   6
CONTINUOUS
  62
2
  10
 117.65722357921
  20
 191.03622783611
  30
0.0
  11
 106.21327463926
  21
 191.03622783611
  31
0.0
   0
LINE
   5
D7
 100
AcDbEntity
   8
LEVEL001
 100
AcDbLine
   6
CONTINUOUS
  62
2
  10
 108.21327463926
  20
 184.28622783611
  30
0.0
  11
 108.21327463926
  21
 189.53622783611
  31
0.0
   0
LINE
   5
D8
 100
AcDbEntity
   8
LEVEL001
 100
AcDbLine
   6
CONTINUOUS
  62
2
  10
 108.21327463926
  20
 198.71649349076
  30
0.0
  11
 108.21327463926
  21
 189.53622783611
  31
0.0
   0
INSERT
   5
D9
 100
AcDbEntity
   8
LEVEL001
   6
CONTINUOUS
  62
2
 100
AcDbBlockReference
   2
_OPEN30
  10
 108.21327463926
  20
 188.03622783611
  30
0.0
  41
 3.0000000000000
  42
 3.0000000000000
  43
 3.0000000000000
  50
 90.000000000000
   0
INSERT
   5
DA
 100
AcDbEntity
   8
LEVEL001
   6
CONTINUOUS
  62
2
 100
AcDbBlockReference
   2
_OPEN30
  10
 108.21327463926
  20
 191.03622783611
  30
0.0
  41
 3.0000000000000
  42
 3.0000000000000
  43
 3.0000000000000
  50
 270.00000000000
   0
MTEXT
   5
DB
 100
AcDbEntity
   8
LEVEL001
  62
2
 100
AcDbMText
  10
 106.49898892497
  20
 196.71649349076
  30
0.0
  40
 4.0000000000000
  41
0.0
  71
8
  72
1
   1
\A1;3
   7
GMM001
  11
0.0
  21
 1.0000000000000
  31
0.0
   0
ENDBLK
   5
DC
 100
AcDbEntity
   8
0
 100
AcDbBlockEnd
   0
BLOCK
   5
DD
 100
AcDbEntity
   8
0
 100
AcDbBlockBegin
   2
*D5
  70
65
  10
0.0
  20
0.0
  30
0.0
   3
*D5
   0
LINE
   5
DE
 100
AcDbEntity
   8
LEVEL001
 100
AcDbLine
   6
CONTINUOUS
  62
2
  10
 124.40722357921
  20
 248.85876534748
  30
0.0
  11
 124.40722357921
  21
 257.08386042589
  31
0.0
   0
LINE
   5
DF
 100
AcDbEntity
   8
LEVEL001
 100
AcDbLine
   6
CONTINUOUS
  62
2
  10
 152.40722357921
  20
 240.05709544024
  30
0.0
  11
 152.40722357921
  21
 257.08386042589
  31
0.0
   0
LINE
   5
E0
 100
AcDbEntity
   8
LEVEL001
 100
AcDbLine
   6
CONTINUOUS
  62
2
  10
 124.40722357921
  20
 255.08386042589
  30
0.0
  11
 138.40722357921
  21
 255.08386042589
  31
0.0
   0
LINE
   5
E1
 100
AcDbEntity
   8
LEVEL001
 100
AcDbLine
   6
CONTINUOUS
  62
2
  10
 152.40722357921
  20
 255.08386042589
  30
0.0
  11
 138.40722357921
  21
 255.08386042589
  31
0.0
   0
INSERT
   5
E2
 100
AcDbEntity
   8
LEVEL001
   6
CONTINUOUS
  62
2
 100
AcDbBlockReference
   2
_OPEN30
  10
 124.40722357921
  20
 255.08386042589
  30
0.0
  41
 3.0000000000000
  42
 3.0000000000000
  43
 3.0000000000000
  50
 180.00000000000
   0
INSERT
   5
E3
 100
AcDbEntity
   8
LEVEL001
   6
CONTINUOUS
  62
2
 100
AcDbBlockReference
   2
_OPEN30
  10
 152.40722357921
  20
 255.08386042589
  30
0.0
  41
 3.0000000000000
  42
 3.0000000000000
  43
 3.0000000000000
  50
0.0
   0
MTEXT
   5
E4
 100
AcDbEntity
   8
LEVEL001
  62
2
 100
AcDbMText
  10
 138.40722357921
  20
 256.79814614018
  30
0.0
  40
 4.0000000000000
  41
0.0
  71
8
  72
1
   1
\A1;28
   7
GMM001
   0
ENDBLK
   5
E5
 100
AcDbEntity
   8
0
 100
AcDbBlockEnd
   0
BLOCK
   5
E6
 100
AcDbEntity
   8
0
 100
AcDbBlockBegin
   2
*D6
  70
65
  10
0.0
  20
0.0
  30
0.0
   3
*D6
   0
LINE
   5
E7
 100
AcDbEntity
   8
LEVEL001
 100
AcDbLine
   6
CONTINUOUS
  62
2
  10
 168.40722357921
  20
 240.05709544024
  30
0.0
  11
 168.40722357921
  21
 257.08386042589
  31
0.0
   0
LINE
   5
E8
 100
AcDbEntity
   8
LEVEL001
 100
AcDbLine
   6
CONTINUOUS
  62
2
  10
 152.40722357921
  20
 255.08386042589
  30
0.0
  11
 160.40722357921
  21
 255.08386042589
  31
0.0
   0
LINE
   5
E9
 100
AcDbEntity
   8
LEVEL001
 100
AcDbLine
   6
CONTINUOUS
  62
2
  10
 168.40722357921
  20
 255.08386042589
  30
0.0
  11
 160.40722357921
  21
 255.08386042589
  31
0.0
   0
INSERT
   5
EA
 100
AcDbEntity
   8
LEVEL001
   6
CONTINUOUS
  62
2
 100
AcDbBlockReference
   2
_OPEN30
  10
 152.40722357921
  20
 255.08386042589
  30
0.0
  41
 3.0000000000000
  42
 3.0000000000000
  43
 3.0000000000000
  50
 180.00000000000
   0
INSERT
   5
EB
 100
AcDbEntity
   8
LEVEL001
   6
CONTINUOUS
  62
2
 100
AcDbBlockReference
   2
_OPEN30
  10
 168.40722357921
  20
 255.08386042589
  30
0.0
  41
 3.0000000000000
  42
 3.0000000000000
  43
 3.0000000000000
  50
0.0
   0
MTEXT
   5
EC
 100
AcDbEntity
   8
LEVEL001
  62
2
 100
AcDbMText
  10
 160.40722357921
  20
 256.79814614018
  30
0.0
  40
 4.0000000000000
  41
0.0
  71
8
  72
1
   1
\A1;16
   7
GMM001
   0
ENDBLK
   5
ED
 100
AcDbEntity
   8
0
 100
AcDbBlockEnd
   0
BLOCK
   5
EE
 100
AcDbEntity
   8
0
 100
AcDbBlockBegin
   2
*D7
  70
65
  10
0.0
  20
0.0
  30
0.0
   3
*D7
   0
LINE
   5
EF
 100
AcDbEntity
   8
LEVEL001
 100
AcDbLine
   6
CONTINUOUS
  62
2
  10
 175.40722357921
  20
 241.03622783611
  30
0.0
  11
 175.40722357921
  21
 257.08386042589
  31
0.0
   0
LINE
   5
F0
 100
AcDbEntity
   8
LEVEL001
 100
AcDbLine
   6
CONTINUOUS
  62
2
  10
 168.40722357921
  20
 255.08386042589
  30
0.0
  11
 171.90722357921
  21
 255.08386042589
  31
0.0
   0
LINE
   5
F1
 100
AcDbEntity
   8
LEVEL001
 100
AcDbLine
   6
CONTINUOUS
  62
2
  10
 175.40722357921
  20
 255.08386042589
  30
0.0
  11
 171.90722357921
  21
 255.08386042589
  31
0.0
   0
INSERT
   5
F2
 100
AcDbEntity
   8
LEVEL001
   6
CONTINUOUS
  62
2
 100
AcDbBlockReference
   2
_OPEN30
  10
 168.40722357921
  20
 255.08386042589
  30
0.0
  41
 3.0000000000000
  42
 3.0000000000000
  43
 3.0000000000000
  50
 180.00000000000
   0
INSERT
   5
F3
 100
AcDbEntity
   8
LEVEL001
   6
CONTINUOUS
  62
2
 100
AcDbBlockReference
   2
_OPEN30
  10
 175.40722357921
  20
 255.08386042589
  30
0.0
  41
 3.0000000000000
  42
 3.0000000000000
  43
 3.0000000000000
  50
0.0
   0
MTEXT
   5
F4
 100
AcDbEntity
   8
LEVEL001
  62
2
 100
AcDbMText
  10
 171.90722357921
  20
 256.79814614018
  30
0.0
  40
 4.0000000000000
  41
0.0
  71
8
  72
1
   1
\A1;7
   7
GMM001
   0
ENDBLK
   5
F5
 100
AcDbEntity
   8
0
 100
AcDbBlockEnd
   0
BLOCK
   5
F6
 100
AcDbEntity
   8
0
 100
AcDbBlockBegin
   2
*D8
  70
65
  10
0.0
  20
0.0
  30
0.0
   3
*D8
   0
POLYLINE
   5
F7
 100
AcDbEntity
   8
LEVEL001
   6
CONTINUOUS
  62
2
 100
AcDb2dPolyline
  66
1
  10
0.0
  20
0.0
  30
0.0
  70
0
   0
VERTEX
   5
F8
 100
AcDbEntity
   8
LEVEL001
   6
CONTINUOUS
  62
2
 100
AcDbVertex
 100
AcDb2dVertex
  10
 168.40722357921
  20
 234.53622783611
  30
0.0
   0
VERTEX
   5
F9
 100
AcDbEntity
   8
LEVEL001
   6
CONTINUOUS
  62
2
 100
AcDbVertex
 100
AcDb2dVertex
  10
 185.55411015214
  20
 258.82670815222
  30
0.0
   0
VERTEX
   5
FA
 100
AcDbEntity
   8
LEVEL001
   6
CONTINUOUS
  62
2
 100
AcDbVertex
 100
AcDb2dVertex
  10
 231.55411015214
  20
 258.82670815222
  30
0.0
   0
SEQEND
   5
FB
 100
AcDbEntity
   8
LEVEL001
   6
CONTINUOUS
  62
2
   0
INSERT
   5
FC
 100
AcDbEntity
   8
LEVEL001
   6
CONTINUOUS
  62
2
 100
AcDbBlockReference
   2
_OPEN30
  10
 168.40722357921
  20
 234.53622783611
  30
0.0
  41
 3.0000000000000
  42
 3.0000000000000
  43
 3.0000000000000
  50
 234.78135984130
   0
MTEXT
   5
FD
 100
AcDbEntity
   8
LEVEL001
  62
2
 100
AcDbMText
  10
 185.55411015214
  20
 260.54099386651
  30
0.0
  40
 4.0000000000000
  41
0.0
  71
7
  72
1
   1
\A1;８－%%c４.８穴 %%c８.２皿
   7
GMM001
   0
ENDBLK
   5
FE
 100
AcDbEntity
   8
0
 100
AcDbBlockEnd
   0
BLOCK
   5
FF
 100
AcDbEntity
   8
0
 100
AcDbBlockBegin
   2
*D9
  70
65
  10
0.0
  20
0.0
  30
0.0
   3
*D9
   0
LINE
   5
100
 100
AcDbEntity
   8
LEVEL001
 100
AcDbLine
   6
CONTINUOUS
  62
2
  10
 73.407223579206
  20
 87.843886600288
  30
0.0
  11
 73.407223579206
  21
 67.271383766893
  31
0.0
   0
LINE
   5
101
 100
AcDbEntity
   8
LEVEL001
 100
AcDbLine
   6
CONTINUOUS
  62
2
  10
 175.40722357921
  20
 87.843886600288
  30
0.0
  11
 175.40722357921
  21
 67.271383766893
  31
0.0
   0
LINE
   5
102
 100
AcDbEntity
   8
LEVEL001
 100
AcDbLine
   6
CONTINUOUS
  62
2
  10
 73.407223579206
  20
 69.271383766893
  30
0.0
  11
 124.40722357921
  21
 69.271383766893
  31
0.0
   0
LINE
   5
103
 100
AcDbEntity
   8
LEVEL001
 100
AcDbLine
   6
CONTINUOUS
  62
2
  10
 175.40722357921
  20
 69.271383766893
  30
0.0
  11
 124.40722357921
  21
 69.271383766893
  31
0.0
   0
INSERT
   5
104
 100
AcDbEntity
   8
LEVEL001
   6
CONTINUOUS
  62
2
 100
AcDbBlockReference
   2
_OPEN30
  10
 73.407223579206
  20
 69.271383766893
  30
0.0
  41
 3.0000000000000
  42
 3.0000000000000
  43
 3.0000000000000
  50
 180.00000000000
   0
INSERT
   5
105
 100
AcDbEntity
   8
LEVEL001
   6
CONTINUOUS
  62
2
 100
AcDbBlockReference
   2
_OPEN30
  10
 175.40722357921
  20
 69.271383766893
  30
0.0
  41
 3.0000000000000
  42
 3.0000000000000
  43
 3.0000000000000
  50
0.0
   0
MTEXT
   5
106
 100
AcDbEntity
   8
LEVEL001
  62
2
 100
AcDbMText
  10
 124.40722357921
  20
 70.985669481178
  30
0.0
  40
 4.0000000000000
  41
0.0
  71
8
  72
1
   1
\A1;102
   7
GMM001
   0
ENDBLK
   5
107
 100
AcDbEntity
   8
0
 100
AcDbBlockEnd
   0
BLOCK
   5
108
 100
AcDbEntity
   8
0
 100
AcDbBlockBegin
   2
*D10
  70
65
  10
0.0
  20
0.0
  30
0.0
   3
*D10
   0
LINE
   5
109
 100
AcDbEntity
   8
LEVEL001
 100
AcDbLine
   6
CONTINUOUS
  62
2
  10
 175.40722357921
  20
 90.343886600288
  30
0.0
  11
 191.00063976035
  21
 90.343886600288
  31
0.0
   0
LINE
   5
10A
 100
AcDbEntity
   8
LEVEL001
 100
AcDbLine
   6
CONTINUOUS
  62
2
  10
 175.40722357921
  20
 87.843886600288
  30
0.0
  11
 191.00063976035
  21
 87.843886600288
  31
0.0
   0
LINE
   5
10B
 100
AcDbEntity
   8
LEVEL001
 100
AcDbLine
   6
CONTINUOUS
  62
2
  10
 189.00063976035
  20
 94.093886600288
  30
0.0
  11
 189.00063976035
  21
 89.093886600288
  31
0.0
   0
LINE
   5
10C
 100
AcDbEntity
   8
LEVEL001
 100
AcDbLine
   6
CONTINUOUS
  62
2
  10
 189.00063976035
  20
 74.909825879225
  30
0.0
  11
 189.00063976035
  21
 89.093886600288
  31
0.0
   0
INSERT
   5
10D
 100
AcDbEntity
   8
LEVEL001
   6
CONTINUOUS
  62
2
 100
AcDbBlockReference
   2
_OPEN30
  10
 189.00063976035
  20
 90.343886600288
  30
0.0
  41
 3.0000000000000
  42
 3.0000000000000
  43
 3.0000000000000
  50
 270.00000000000
   0
INSERT
   5
10E
 100
AcDbEntity
   8
LEVEL001
   6
CONTINUOUS
  62
2
 100
AcDbBlockReference
   2
_OPEN30
  10
 189.00063976035
  20
 87.843886600288
  30
0.0
  41
 3.0000000000000
  42
 3.0000000000000
  43
 3.0000000000000
  50
 90.000000000000
   0
MTEXT
   5
10F
 100
AcDbEntity
   8
LEVEL001
  62
2
 100
AcDbMText
  10
 187.28635404606
  20
 79.909825879225
  30
0.0
  40
 4.0000000000000
  41
0.0
  71
8
  72
1
   1
\A1;2.5
   7
GMM001
  11
0.0
  21
 1.0000000000000
  31
0.0
   0
ENDBLK
   5
110
 100
AcDbEntity
   8
0
 100
AcDbBlockEnd
   0
BLOCK
   5
111
 100
AcDbEntity
   8
0
 100
AcDbBlockBegin
   2
*D11
  70
65
  10
0.0
  20
0.0
  30
0.0
   3
*D11
   0
LINE
   5
112
 100
AcDbEntity
   8
LEVEL001
 100
AcDbLine
   6
CONTINUOUS
  62
2
  10
 230.50418033461
  20
 78.052233236393
  30
0.0
  11
 230.50418033461
  21
 67.271383766893
  31
0.0
   0
LINE
   5
113
 100
AcDbEntity
   8
LEVEL001
 100
AcDbLine
   6
CONTINUOUS
  62
2
  10
 281.50418033461
  20
 87.843886600288
  30
0.0
  11
 281.50418033461
  21
 67.271383766893
  31
0.0
   0
LINE
   5
114
 100
AcDbEntity
   8
LEVEL001
 100
AcDbLine
   6
CONTINUOUS
  62
2
  10
 230.50418033461
  20
 69.271383766893
  30
0.0
  11
 256.00418033461
  21
 69.271383766893
  31
0.0
   0
LINE
   5
115
 100
AcDbEntity
   8
LEVEL001
 100
AcDbLine
   6
CONTINUOUS
  62
2
  10
 281.50418033461
  20
 69.271383766893
  30
0.0
  11
 256.00418033461
  21
 69.271383766893
  31
0.0
   0
INSERT
   5
116
 100
AcDbEntity
   8
LEVEL001
   6
CONTINUOUS
  62
2
 100
AcDbBlockReference
   2
_OPEN30
  10
 230.50418033461
  20
 69.271383766893
  30
0.0
  41
 3.0000000000000
  42
 3.0000000000000
  43
 3.0000000000000
  50
 180.00000000000
   0
INSERT
   5
117
 100
AcDbEntity
   8
LEVEL001
   6
CONTINUOUS
  62
2
 100
AcDbBlockReference
   2
_OPEN30
  10
 281.50418033461
  20
 69.271383766893
  30
0.0
  41
 3.0000000000000
  42
 3.0000000000000
  43
 3.0000000000000
  50
0.0
   0
MTEXT
   5
118
 100
AcDbEntity
   8
LEVEL001
  62
2
 100
AcDbMText
  10
 256.00418033461
  20
 70.985669481178
  30
0.0
  40
 4.0000000000000
  41
0.0
  71
8
  72
1
   1
\A1;51
   7
GMM001
   0
ENDBLK
   5
119
 100
AcDbEntity
   8
0
 100
AcDbBlockEnd
   0
BLOCK
   5
11A
 100
AcDbEntity
   8
0
 100
AcDbBlockBegin
   2
*D12
  70
65
  10
0.0
  20
0.0
  30
0.0
   3
*D12
   0
LINE
   5
11B
 100
AcDbEntity
   8
LEVEL001
 100
AcDbLine
   6
CONTINUOUS
  62
2
  10
 281.50418033461
  20
 87.843886600288
  30
0.0
  11
 294.24108361844
  21
 87.843886600288
  31
0.0
   0
LINE
   5
11C
 100
AcDbEntity
   8
LEVEL001
 100
AcDbLine
   6
CONTINUOUS
  62
2
  10
 281.50418033461
  20
 91.843886600288
  30
0.0
  11
 294.24108361844
  21
 91.843886600288
  31
0.0
   0
LINE
   5
11D
 100
AcDbEntity
   8
LEVEL001
 100
AcDbLine
   6
CONTINUOUS
  62
2
  10
 292.24108361844
  20
 80.883906485945
  30
0.0
  11
 292.24108361844
  21
 89.843886600288
  31
0.0
   0
LINE
   5
11E
 100
AcDbEntity
   8
LEVEL001
 100
AcDbLine
   6
CONTINUOUS
  62
2
  10
 292.24108361844
  20
 95.593886600288
  30
0.0
  11
 292.24108361844
  21
 89.843886600288
  31
0.0
   0
INSERT
   5
11F
 100
AcDbEntity
   8
LEVEL001
   6
CONTINUOUS
  62
2
 100
AcDbBlockReference
   2
_OPEN30
  10
 292.24108361844
  20
 87.843886600288
  30
0.0
  41
 3.0000000000000
  42
 3.0000000000000
  43
 3.0000000000000
  50
 90.000000000000
   0
INSERT
   5
120
 100
AcDbEntity
   8
LEVEL001
   6
CONTINUOUS
  62
2
 100
AcDbBlockReference
   2
_OPEN30
  10
 292.24108361844
  20
 91.843886600288
  30
0.0
  41
 3.0000000000000
  42
 3.0000000000000
  43
 3.0000000000000
  50
 270.00000000000
   0
MTEXT
   5
121
 100
AcDbEntity
   8
LEVEL001
  62
2
 100
AcDbMText
  10
 290.52679790415
  20
 82.883906485945
  30
0.0
  40
 4.0000000000000
  41
0.0
  71
8
  72
1
   1
\A1;4
   7
GMM001
  11
0.0
  21
 1.0000000000000
  31
0.0
   0
ENDBLK
   5
122
 100
AcDbEntity
   8
0
 100
AcDbBlockEnd
   0
BLOCK
   5
123
 100
AcDbEntity
   8
0
 100
AcDbBlockBegin
   2
*D13
  70
65
  10
0.0
  20
0.0
  30
0.0
   3
*D13
   0
LINE
   5
124
 100
AcDbEntity
   8
LEVEL001
 100
AcDbLine
   6
CONTINUOUS
  62
2
  10
 194.75902902209
  20
 241.03622783611
  30
0.0
  11
 204.74276172736
  21
 241.03622783611
  31
0.0
   0
LINE
   5
125
 100
AcDbEntity
   8
LEVEL001
 100
AcDbLine
   6
CONTINUOUS
  62
2
  10
 194.75902902209
  20
 191.03622783611
  30
0.0
  11
 204.74276172736
  21
 191.03622783611
  31
0.0
   0
LINE
   5
126
 100
AcDbEntity
   8
LEVEL001
 100
AcDbLine
   6
CONTINUOUS
  62
2
  10
 202.74276172736
  20
 241.03622783611
  30
0.0
  11
 202.74276172736
  21
 216.03622783611
  31
0.0
   0
LINE
   5
127
 100
AcDbEntity
   8
LEVEL001
 100
AcDbLine
   6
CONTINUOUS
  62
2
  10
 202.74276172736
  20
 191.03622783611
  30
0.0
  11
 202.74276172736
  21
 216.03622783611
  31
0.0
   0
INSERT
   5
128
 100
AcDbEntity
   8
LEVEL001
   6
CONTINUOUS
  62
2
 100
AcDbBlockReference
   2
_OPEN30
  10
 202.74276172736
  20
 241.03622783611
  30
0.0
  41
 3.0000000000000
  42
 3.0000000000000
  43
 3.0000000000000
  50
 90.000000000000
   0
INSERT
   5
129
 100
AcDbEntity
   8
LEVEL001
   6
CONTINUOUS
  62
2
 100
AcDbBlockReference
   2
_OPEN30
  10
 202.74276172736
  20
 191.03622783611
  30
0.0
  41
 3.0000000000000
  42
 3.0000000000000
  43
 3.0000000000000
  50
 270.00000000000
   0
MTEXT
   5
12A
 100
AcDbEntity
   8
LEVEL001
  62
2
 100
AcDbMText
  10
 201.02847601308
  20
 216.03622783611
  30
0.0
  40
 4.0000000000000
  41
0.0
  71
8
  72
1
   1
\A1;50
   7
GMM001
  11
0.0
  21
 1.0000000000000
  31
0.0
   0
ENDBLK
   5
12B
 100
AcDbEntity
   8
0
 100
AcDbBlockEnd
   0
BLOCK
   5
12C
 100
AcDbEntity
   8
0
 100
AcDbBlockBegin
   2
*D14
  70
65
  10
0.0
  20
0.0
  30
0.0
   3
*D14
   0
LINE
   5
12D
 100
AcDbEntity
   8
LEVEL001
 100
AcDbLine
   6
CONTINUOUS
  62
2
  10
 175.40722357921
  20
 191.03622783611
  30
0.0
  11
 194.75902902209
  21
 191.03622783611
  31
0.0
   0
LINE
   5
12E
 100
AcDbEntity
   8
LEVEL001
 100
AcDbLine
   6
CONTINUOUS
  62
2
  10
 192.75902902209
  20
 178.93328665964
  30
0.0
  11
 192.75902902209
  21
 194.28622783611
  31
0.0
   0
LINE
   5
12F
 100
AcDbEntity
   8
LEVEL001
 100
AcDbLine
   6
CONTINUOUS
  62
2
  10
 192.75902902209
  20
 201.28622783611
  30
0.0
  11
 192.75902902209
  21
 194.28622783611
  31
0.0
   0
INSERT
   5
130
 100
AcDbEntity
   8
LEVEL001
   6
CONTINUOUS
  62
2
 100
AcDbBlockReference
   2
_OPEN30
  10
 192.75902902209
  20
 191.03622783611
  30
0.0
  41
 3.0000000000000
  42
 3.0000000000000
  43
 3.0000000000000
  50
 90.000000000000
   0
INSERT
   5
131
 100
AcDbEntity
   8
LEVEL001
   6
CONTINUOUS
  62
2
 100
AcDbBlockReference
   2
_OPEN30
  10
 192.75902902209
  20
 197.53622783611
  30
0.0
  41
 3.0000000000000
  42
 3.0000000000000
  43
 3.0000000000000
  50
 270.00000000000
   0
MTEXT
   5
132
 100
AcDbEntity
   8
LEVEL001
  62
2
 100
AcDbMText
  10
 191.04474330781
  20
 183.93328665964
  30
0.0
  40
 4.0000000000000
  41
0.0
  71
8
  72
1
   1
\A1;6.5
   7
GMM001
  11
0.0
  21
 1.0000000000000
  31
0.0
   0
ENDBLK
   5
133
 100
AcDbEntity
   8
0
 100
AcDbBlockEnd
   0
BLOCK
   5
134
 100
AcDbEntity
   8
0
 100
AcDbBlockBegin
   2
*D15
  70
65
  10
0.0
  20
0.0
  30
0.0
   3
*D15
   0
LINE
   5
135
 100
AcDbEntity
   8
LEVEL001
 100
AcDbLine
   6
CONTINUOUS
  62
2
  10
 131.15722357921
  20
 138.03622783611
  30
0.0
  11
 217.24102788421
  21
 138.03622783611
  31
0.0
   0
LINE
   5
136
 100
AcDbEntity
   8
LEVEL001
 100
AcDbLine
   6
CONTINUOUS
  62
2
  10
 204.74276172736
  20
 241.03622783611
  30
0.0
  11
 217.24102788421
  21
 241.03622783611
  31
0.0
   0
LINE
   5
137
 100
AcDbEntity
   8
LEVEL001
 100
AcDbLine
   6
CONTINUOUS
  62
2
  10
 215.24102788421
  20
 138.03622783611
  30
0.0
  11
 215.24102788421
  21
 189.53622783611
  31
0.0
   0
LINE
   5
138
 100
AcDbEntity
   8
LEVEL001
 100
AcDbLine
   6
CONTINUOUS
  62
2
  10
 215.24102788421
  20
 241.03622783611
  30
0.0
  11
 215.24102788421
  21
 189.53622783611
  31
0.0
   0
INSERT
   5
139
 100
AcDbEntity
   8
LEVEL001
   6
CONTINUOUS
  62
2
 100
AcDbBlockReference
   2
_OPEN30
  10
 215.24102788421
  20
 138.03622783611
  30
0.0
  41
 3.0000000000000
  42
 3.0000000000000
  43
 3.0000000000000
  50
 270.00000000000
   0
INSERT
   5
13A
 100
AcDbEntity
   8
LEVEL001
   6
CONTINUOUS
  62
2
 100
AcDbBlockReference
   2
_OPEN30
  10
 215.24102788421
  20
 241.03622783611
  30
0.0
  41
 3.0000000000000
  42
 3.0000000000000
  43
 3.0000000000000
  50
 90.000000000000
   0
MTEXT
   5
13B
 100
AcDbEntity
   8
LEVEL001
  62
2
 100
AcDbMText
  10
 213.52674216992
  20
 189.53622783611
  30
0.0
  40
 4.0000000000000
  41
0.0
  71
8
  72
1
   1
\A1;103
   7
GMM001
  11
0.0
  21
 1.0000000000000
  31
0.0
   0
ENDBLK
   5
13C
 100
AcDbEntity
   8
0
 100
AcDbBlockEnd
   0
BLOCK
   5
13D
 100
AcDbEntity
   8
0
 100
AcDbBlockBegin
   2
*D16
  70
65
  10
0.0
  20
0.0
  30
0.0
   3
*D16
   0
LINE
   5
13E
 100
AcDbEntity
   8
LEVEL001
 100
AcDbLine
   6
CONTINUOUS
  62
2
  10
 174.09733586682
  20
 197.53622783611
  30
0.0
  11
 194.75902902209
  21
 197.53622783611
  31
0.0
   0
LINE
   5
13F
 100
AcDbEntity
   8
LEVEL001
 100
AcDbLine
   6
CONTINUOUS
  62
2
  10
 174.09733586682
  20
 234.53622783611
  30
0.0
  11
 194.75902902209
  21
 234.53622783611
  31
0.0
   0
LINE
   5
140
 100
AcDbEntity
   8
LEVEL001
 100
AcDbLine
   6
CONTINUOUS
  62
2
  10
 192.75902902209
  20
 197.53622783611
  30
0.0
  11
 192.75902902209
  21
 216.03622783611
  31
0.0
   0
LINE
   5
141
 100
AcDbEntity
   8
LEVEL001
 100
AcDbLine
   6
CONTINUOUS
  62
2
  10
 192.75902902209
  20
 234.53622783611
  30
0.0
  11
 192.75902902209
  21
 216.03622783611
  31
0.0
   0
INSERT
   5
142
 100
AcDbEntity
   8
LEVEL001
   6
CONTINUOUS
  62
2
 100
AcDbBlockReference
   2
_OPEN30
  10
 192.75902902209
  20
 197.53622783611
  30
0.0
  41
 3.0000000000000
  42
 3.0000000000000
  43
 3.0000000000000
  50
 270.00000000000
   0
INSERT
   5
143
 100
AcDbEntity
   8
LEVEL001
   6
CONTINUOUS
  62
2
 100
AcDbBlockReference
   2
_OPEN30
  10
 192.75902902209
  20
 234.53622783611
  30
0.0
  41
 3.0000000000000
  42
 3.0000000000000
  43
 3.0000000000000
  50
 90.000000000000
   0
MTEXT
   5
144
 100
AcDbEntity
   8
LEVEL001
  62
2
 100
AcDbMText
  10
 191.04474330781
  20
 216.03622783611
  30
0.0
  40
 4.0000000000000
  41
0.0
  71
8
  72
1
   1
\A1;37
   7
GMM001
  11
0.0
  21
 1.0000000000000
  31
0.0
   0
ENDBLK
   5
145
 100
AcDbEntity
   8
0
 100
AcDbBlockEnd
   0
BLOCK
   5
146
 100
AcDbEntity
   8
0
 100
AcDbBlockBegin
   2
*D17
  70
65
  10
0.0
  20
0.0
  30
0.0
   3
*D17
   0
LINE
   5
147
 100
AcDbEntity
   8
LEVEL001
 100
AcDbLine
   6
CONTINUOUS
  62
2
  10
 175.40722357921
  20
 241.03622783611
  30
0.0
  11
 194.75902902209
  21
 241.03622783611
  31
0.0
   0
LINE
   5
148
 100
AcDbEntity
   8
LEVEL001
 100
AcDbLine
   6
CONTINUOUS
  62
2
  10
 174.09733586682
  20
 234.53622783611
  30
0.0
  11
 194.75902902209
  21
 234.53622783611
  31
0.0
   0
LINE
   5
149
 100
AcDbEntity
   8
LEVEL001
 100
AcDbLine
   6
CONTINUOUS
  62
2
  10
 192.75902902209
  20
 252.80520316818
  30
0.0
  11
 192.75902902209
  21
 237.78622783611
  31
0.0
   0
LINE
   5
14A
 100
AcDbEntity
   8
LEVEL001
 100
AcDbLine
   6
CONTINUOUS
  62
2
  10
 192.75902902209
  20
 230.78622783611
  30
0.0
  11
 192.75902902209
  21
 237.78622783611
  31
0.0
   0
INSERT
   5
14B
 100
AcDbEntity
   8
LEVEL001
   6
CONTINUOUS
  62
2
 100
AcDbBlockReference
   2
_OPEN30
  10
 192.75902902209
  20
 241.03622783611
  30
0.0
  41
 3.0000000000000
  42
 3.0000000000000
  43
 3.0000000000000
  50
 270.00000000000
   0
INSERT
   5
14C
 100
AcDbEntity
   8
LEVEL001
   6
CONTINUOUS
  62
2
 100
AcDbBlockReference
   2
_OPEN30
  10
 192.75902902209
  20
 234.53622783611
  30
0.0
  41
 3.0000000000000
  42
 3.0000000000000
  43
 3.0000000000000
  50
 90.000000000000
   0
MTEXT
   5
14D
 100
AcDbEntity
   8
LEVEL001
  62
2
 100
AcDbMText
  10
 191.04474330781
  20
 247.80520316818
  30
0.0
  40
 4.0000000000000
  41
0.0
  71
8
  72
1
   1
\A1;6.5
   7
GMM001
  11
0.0
  21
 1.0000000000000
  31
0.0
   0
ENDBLK
   5
14E
 100
AcDbEntity
   8
0
 100
AcDbBlockEnd
   0
BLOCK
   5
14F
 100
AcDbEntity
   8
0
 100
AcDbBlockBegin
   2
*D18
  70
65
  10
0.0
  20
0.0
  30
0.0
   3
*D18
   0
LINE
   5
150
 100
AcDbEntity
   8
LEVEL001
 100
AcDbLine
   6
CONTINUOUS
  62
2
  10
 169.40722357921
  20
 197.03622783611
  30
0.0
  11
 171.14040537698
  21
 194.58753821595
  31
0.0
   0
LINE
   5
151
 100
AcDbEntity
   8
LEVEL001
 100
AcDbLine
   6
CONTINUOUS
  62
2
  10
 171.14040537698
  20
 194.58753821595
  30
0.0
  11
 180.92572143712
  21
 180.76255926839
  31
0.0
   0
INSERT
   5
152
 100
AcDbEntity
   8
LEVEL001
   6
CONTINUOUS
  62
2
 100
AcDbBlockReference
   2
_OPEN30
  10
 172.87358717475
  20
 192.13884859579
  30
0.0
  41
 3.0000000000000
  42
 3.0000000000000
  43
 3.0000000000000
  50
 125.29084888698
   0
MTEXT
   5
153
 100
AcDbEntity
   8
LEVEL001
  62
2
 100
AcDbMText
  10
 177.70315452126
  20
 188.28278785421
  30
0.0
  40
 4.0000000000000
  41
0.0
  71
7
  72
1
   1
\A1;R6
   7
GMM001
  11
 0.57772726592339
  21
-0.81622987338659
  31
0.0
   0
ENDBLK
   5
154
 100
AcDbEntity
   8
0
 100
AcDbBlockEnd
   0
BLOCK
   5
155
 100
AcDbEntity
   8
0
 100
AcDbBlockBegin
   2
*D19
  70
65
  10
0.0
  20
0.0
  30
0.0
   3
*D19
   0
LINE
   5
156
 100
AcDbEntity
   8
LEVEL001
 100
AcDbLine
   6
CONTINUOUS
  62
2
  10
 74.980253881801
  20
 181.53622783611
  30
0.0
  11
 56.245290331739
  21
 181.53622783611
  31
0.0
   0
LINE
   5
157
 100
AcDbEntity
   8
LEVEL001
 100
AcDbLine
   6
CONTINUOUS
  62
2
  10
 58.245290331739
  20
 144.53622783611
  30
0.0
  11
 58.245290331739
  21
 163.03622783611
  31
0.0
   0
LINE
   5
158
 100
AcDbEntity
   8
LEVEL001
 100
AcDbLine
   6
CONTINUOUS
  62
2
  10
 58.245290331739
  20
 181.53622783611
  30
0.0
  11
 58.245290331739
  21
 163.03622783611
  31
0.0
   0
INSERT
   5
159
 100
AcDbEntity
   8
LEVEL001
   6
CONTINUOUS
  62
2
 100
AcDbBlockReference
   2
_OPEN30
  10
 58.245290331739
  20
 144.53622783611
  30
0.0
  41
 3.0000000000000
  42
 3.0000000000000
  43
 3.0000000000000
  50
 270.00000000000
   0
INSERT
   5
15A
 100
AcDbEntity
   8
LEVEL001
   6
CONTINUOUS
  62
2
 100
AcDbBlockReference
   2
_OPEN30
  10
 58.245290331739
  20
 181.53622783611
  30
0.0
  41
 3.0000000000000
  42
 3.0000000000000
  43
 3.0000000000000
  50
 90.000000000000
   0
MTEXT
   5
15B
 100
AcDbEntity
   8
LEVEL001
  62
2
 100
AcDbMText
  10
 56.531004617453
  20
 163.03622783611
  30
0.0
  40
 4.0000000000000
  41
0.0
  71
8
  72
1
   1
\A1;37
   7
GMM001
  11
0.0
  21
 1.0000000000000
  31
0.0
   0
ENDBLK
   5
15C
 100
AcDbEntity
   8
0
 100
AcDbBlockEnd
   0
BLOCK
   5
15D
 100
AcDbEntity
   8
0
 100
AcDbBlockBegin
   2
*D20
  70
65
  10
0.0
  20
0.0
  30
0.0
   3
*D20
   0
LINE
   5
15E
 100
AcDbEntity
   8
LEVEL001
 100
AcDbLine
   6
CONTINUOUS
  62
2
  10
 56.245290331739
  20
 188.03622783611
  30
0.0
  11
 46.770897494688
  21
 188.03622783611
  31
0.0
   0
LINE
   5
15F
 100
AcDbEntity
   8
LEVEL001
 100
AcDbLine
   6
CONTINUOUS
  62
2
  10
 56.245290331739
  20
 138.03622783611
  30
0.0
  11
 46.770897494688
  21
 138.03622783611
  31
0.0
   0
LINE
   5
160
 100
AcDbEntity
   8
LEVEL001
 100
AcDbLine
   6
CONTINUOUS
  62
2
  10
 48.770897494688
  20
 188.03622783611
  30
0.0
  11
 48.770897494688
  21
 163.03622783611
  31
0.0
   0
LINE
   5
161
 100
AcDbEntity
   8
LEVEL001
 100
AcDbLine
   6
CONTINUOUS
  62
2
  10
 48.770897494688
  20
 138.03622783611
  30
0.0
  11
 48.770897494688
  21
 163.03622783611
  31
0.0
   0
INSERT
   5
162
 100
AcDbEntity
   8
LEVEL001
   6
CONTINUOUS
  62
2
 100
AcDbBlockReference
   2
_OPEN30
  10
 48.770897494688
  20
 188.03622783611
  30
0.0
  41
 3.0000000000000
  42
 3.0000000000000
  43
 3.0000000000000
  50
 90.000000000000
   0
INSERT
   5
163
 100
AcDbEntity
   8
LEVEL001
   6
CONTINUOUS
  62
2
 100
AcDbBlockReference
   2
_OPEN30
  10
 48.770897494688
  20
 138.03622783611
  30
0.0
  41
 3.0000000000000
  42
 3.0000000000000
  43
 3.0000000000000
  50
 270.00000000000
   0
MTEXT
   5
164
 100
AcDbEntity
   8
LEVEL001
  62
2
 100
AcDbMText
  10
 47.056611780402
  20
 163.03622783611
  30
0.0
  40
 4.0000000000000
  41
0.0
  71
8
  72
1
   1
\A1;50
   7
GMM001
  11
0.0
  21
 1.0000000000000
  31
0.0
   0
ENDBLK
   5
165
 100
AcDbEntity
   8
0
 100
AcDbBlockEnd
   0
BLOCK
   5
166
 100
AcDbEntity
   8
0
 100
AcDbBlockBegin
   2
*D21
  70
65
  10
0.0
  20
0.0
  30
0.0
   3
*D21
   0
LINE
   5
167
 100
AcDbEntity
   8
LEVEL001
 100
AcDbLine
   6
CONTINUOUS
  62
2
  10
 73.407223579206
  20
 188.03622783611
  30
0.0
  11
 56.245290331739
  21
 188.03622783611
  31
0.0
   0
LINE
   5
168
 100
AcDbEntity
   8
LEVEL001
 100
AcDbLine
   6
CONTINUOUS
  62
2
  10
 58.245290331739
  20
 199.55472878488
  30
0.0
  11
 58.245290331739
  21
 184.78622783611
  31
0.0
   0
LINE
   5
169
 100
AcDbEntity
   8
LEVEL001
 100
AcDbLine
   6
CONTINUOUS
  62
2
  10
 58.245290331739
  20
 177.78622783611
  30
0.0
  11
 58.245290331739
  21
 184.78622783611
  31
0.0
   0
INSERT
   5
16A
 100
AcDbEntity
   8
LEVEL001
   6
CONTINUOUS
  62
2
 100
AcDbBlockReference
   2
_OPEN30
  10
 58.245290331739
  20
 188.03622783611
  30
0.0
  41
 3.0000000000000
  42
 3.0000000000000
  43
 3.0000000000000
  50
 270.00000000000
   0
INSERT
   5
16B
 100
AcDbEntity
   8
LEVEL001
   6
CONTINUOUS
  62
2
 100
AcDbBlockReference
   2
_OPEN30
  10
 58.245290331739
  20
 181.53622783611
  30
0.0
  41
 3.0000000000000
  42
 3.0000000000000
  43
 3.0000000000000
  50
 90.000000000000
   0
MTEXT
   5
16C
 100
AcDbEntity
   8
LEVEL001
  62
2
 100
AcDbMText
  10
 56.531004617453
  20
 194.55472878488
  30
0.0
  40
 4.0000000000000
  41
0.0
  71
8
  72
1
   1
\A1;6.5
   7
GMM001
  11
0.0
  21
 1.0000000000000
  31
0.0
   0
ENDBLK
   5
16D
 100
AcDbEntity
   8
0
 100
AcDbBlockEnd
   0
BLOCK
   5
16E
 100
AcDbEntity
   8
0
 100
AcDbBlockBegin
   2
*D22
  70
65
  10
0.0
  20
0.0
  30
0.0
   3
*D22
   0
LINE
   5
16F
 100
AcDbEntity
   8
LEVEL001
 100
AcDbLine
   6
CONTINUOUS
  62
2
  10
 73.407223579206
  20
 138.03622783611
  30
0.0
  11
 56.245290331739
  21
 138.03622783611
  31
0.0
   0
LINE
   5
170
 100
AcDbEntity
   8
LEVEL001
 100
AcDbLine
   6
CONTINUOUS
  62
2
  10
 74.980253881801
  20
 144.53622783611
  30
0.0
  11
 56.245290331739
  21
 144.53622783611
  31
0.0
   0
LINE
   5
171
 100
AcDbEntity
   8
LEVEL001
 100
AcDbLine
   6
CONTINUOUS
  62
2
  10
 58.245290331739
  20
 126.01677812074
  30
0.0
  11
 58.245290331739
  21
 141.28622783611
  31
0.0
   0
LINE
   5
172
 100
AcDbEntity
   8
LEVEL001
 100
AcDbLine
   6
CONTINUOUS
  62
2
  10
 58.245290331739
  20
 148.28622783611
  30
0.0
  11
 58.245290331739
  21
 141.28622783611
  31
0.0
   0
INSERT
   5
173
 100
AcDbEntity
   8
LEVEL001
   6
CONTINUOUS
  62
2
 100
AcDbBlockReference
   2
_OPEN30
  10
 58.245290331739
  20
 138.03622783611
  30
0.0
  41
 3.0000000000000
  42
 3.0000000000000
  43
 3.0000000000000
  50
 90.000000000000
   0
INSERT
   5
174
 100
AcDbEntity
   8
LEVEL001
   6
CONTINUOUS
  62
2
 100
AcDbBlockReference
   2
_OPEN30
  10
 58.245290331739
  20
 144.53622783611
  30
0.0
  41
 3.0000000000000
  42
 3.0000000000000
  43
 3.0000000000000
  50
 270.00000000000
   0
MTEXT
   5
175
 100
AcDbEntity
   8
LEVEL001
  62
2
 100
AcDbMText
  10
 56.531004617453
  20
 131.01677812074
  30
0.0
  40
 4.0000000000000
  41
0.0
  71
8
  72
1
   1
\A1;6.5
   7
GMM001
  11
0.0
  21
 1.0000000000000
  31
0.0
   0
ENDBLK
   5
176
 100
AcDbEntity
   8
0
 100
AcDbBlockEnd
   0
BLOCK
   5
177
 100
AcDbEntity
   8
0
 100
AcDbBlockBegin
   2
*D23
  70
65
  10
0.0
  20
0.0
  30
0.0
   3
*D23
   0
LINE
   5
178
 100
AcDbEntity
   8
LEVEL001
 100
AcDbLine
   6
CONTINUOUS
  62
2
  10
 79.407223579206
  20
 144.03622783611
  30
0.0
  11
 77.699988645315
  21
 141.56937784462
  31
0.0
   0
LINE
   5
179
 100
AcDbEntity
   8
LEVEL001
 100
AcDbLine
   6
CONTINUOUS
  62
2
  10
 77.699988645315
  20
 141.56937784462
  30
0.0
  11
 67.788060289284
  21
 127.24724801041
  31
0.0
   0
INSERT
   5
17A
 100
AcDbEntity
   8
LEVEL001
   6
CONTINUOUS
  62
2
 100
AcDbBlockReference
   2
_OPEN30
  10
 75.992753711424
  20
 139.10252785314
  30
0.0
  41
 3.0000000000000
  42
 3.0000000000000
  43
 3.0000000000000
  50
 55.314021423138
   0
MTEXT
   5
17B
 100
AcDbEntity
   8
LEVEL001
  62
2
 100
AcDbMText
  10
 70.931058213096
  20
 134.80107747374
  30
0.0
  40
 4.0000000000000
  41
0.0
  71
9
  72
1
   1
\A1;R6
   7
GMM001
  11
 0.56907831129701
  21
 0.82228333049584
  31
0.0
   0
ENDBLK
   5
17C
 100
AcDbEntity
   8
0
 100
AcDbBlockEnd
   0
ENDSEC
   0
SECTION
   2
ENTITIES
   0
LINE
   5
17D
 100
AcDbEntity
   8
LEVEL001
 100
AcDbLine
   6
CONTINUOUS
  62
7
  10
 117.65722357921
  20
 244.03622783611
  30
0.0
  11
 118.15722357921
  21
 244.53622783611
  31
0.0
   0
POINT
   5
17E
 100
AcDbEntity
   8
LEVEL001
 100
AcDbPoint
  62
7
  10
 117.65722357921
  20
 244.53622783611
  30
0.0
   0
LINE
   5
17F
 100
AcDbEntity
   8
LEVEL001
 100
AcDbLine
   6
CONTINUOUS
  62
7
  10
 118.15722357921
  20
 244.53622783611
  30
0.0
  11
 130.65722357921
  21
 244.53622783611
  31
0.0
   0
LINE
   5
180
 100
AcDbEntity
   8
LEVEL001
 100
AcDbLine
   6
CONTINUOUS
  62
7
  10
 130.65722357921
  20
 244.53622783611
  30
0.0
  11
 131.15722357921
  21
 244.03622783611
  31
0.0
   0
POINT
   5
181
 100
AcDbEntity
   8
LEVEL001
 100
AcDbPoint
  62
7
  10
 131.15722357921
  20
 244.53622783611
  30
0.0
   0
LINE
   5
182
 100
AcDbEntity
   8
LEVEL001
 100
AcDbLine
   6
CONTINUOUS
  62
7
  10
 118.15722357921
  20
 134.53622783611
  30
0.0
  11
 130.65722357921
  21
 134.53622783611
  31
0.0
   0
LINE
   5
183
 100
AcDbEntity
   8
LEVEL001
 100
AcDbLine
   6
CONTINUOUS
  62
7
  10
 130.65722357921
  20
 134.53622783611
  30
0.0
  11
 131.15722357921
  21
 135.03622783611
  31
0.0
   0
POINT
   5
184
 100
AcDbEntity
   8
LEVEL001
 100
AcDbPoint
  62
7
  10
 131.15722357921
  20
 134.53622783611
  30
0.0
   0
LINE
   5
185
 100
AcDbEntity
   8
LEVEL001
 100
AcDbLine
   6
CONTINUOUS
  62
7
  10
 117.65722357921
  20
 135.03622783611
  30
0.0
  11
 118.15722357921
  21
 134.53622783611
  31
0.0
   0
POINT
   5
186
 100
AcDbEntity
   8
LEVEL001
 100
AcDbPoint
  62
7
  10
 117.65722357921
  20
 134.53622783611
  30
0.0
   0
CIRCLE
   5
187
 100
AcDbEntity
   8
LEVEL001
 100
AcDbCircle
   6
CONTINUOUS
  62
7
  10
 124.40722357921
  20
 89.843886600288
  30
0.0
  40
 6.7500000000000
   0
LINE
   5
188
 100
AcDbEntity
   8
LEVEL001
 100
AcDbLine
   6
CONTINUOUS
  62
7
  10
 131.15722357921
  20
 135.03622783611
  30
0.0
  11
 131.15722357921
  21
 138.03622783611
  31
0.0
   0
LINE
   5
189
 100
AcDbEntity
   8
LEVEL001
 100
AcDbLine
   6
CONTINUOUS
  62
7
  10
 117.65722357921
  20
 135.03622783611
  30
0.0
  11
 117.65722357921
  21
 138.03622783611
  31
0.0
   0
LINE
   5
18A
 100
AcDbEntity
   8
LEVEL001
 100
AcDbLine
   6
CONTINUOUS
  62
7
  10
 117.65722357921
  20
 138.03622783611
  30
0.0
  11
 117.65722357921
  21
 188.03622783611
  31
0.0
   0
LINE
   5
18B
 100
AcDbEntity
   8
LEVEL001
 100
AcDbLine
   6
CONTINUOUS
  62
7
  10
 131.15722357921
  20
 138.03622783611
  30
0.0
  11
 131.15722357921
  21
 188.03622783611
  31
0.0
   0
LINE
   5
18C
 100
AcDbEntity
   8
LEVEL001
 100
AcDbLine
   6
CONTINUOUS
  62
7
  10
 117.65722357921
  20
 244.03622783611
  30
0.0
  11
 117.65722357921
  21
 241.03622783611
  31
0.0
   0
LINE
   5
18D
 100
AcDbEntity
   8
LEVEL001
 100
AcDbLine
   6
CONTINUOUS
  62
7
  10
 131.15722357921
  20
 244.03622783611
  30
0.0
  11
 131.15722357921
  21
 241.03622783611
  31
0.0
   0
LINE
   5
18E
 100
AcDbEntity
   8
LEVEL001
 100
AcDbLine
   6
CONTINUOUS
  62
7
  10
 117.65722357921
  20
 241.03622783611
  30
0.0
  11
 117.65722357921
  21
 191.03622783611
  31
0.0
   0
LINE
   5
18F
 100
AcDbEntity
   8
LEVEL001
 100
AcDbLine
   6
CONTINUOUS
  62
7
  10
 131.15722357921
  20
 241.03622783611
  30
0.0
  11
 131.15722357921
  21
 191.03622783611
  31
0.0
   0
LINE
   5
190
 100
AcDbEntity
   8
LEVEL001
 100
AcDbLine
   6
CONTINUOUS
  62
7
  10
 117.65722357921
  20
 191.03622783611
  30
0.0
  11
 117.65722357921
  21
 188.03622783611
  31
0.0
   0
LINE
   5
191
 100
AcDbEntity
   8
LEVEL001
 100
AcDbLine
   6
CONTINUOUS
  62
7
  10
 131.15722357921
  20
 191.03622783611
  30
0.0
  11
 131.15722357921
  21
 188.03622783611
  31
0.0
   0
LINE
   5
192
 100
AcDbEntity
   8
LEVEL001
 100
AcDbLine
   6
DASHDOT
  62
2
  10
 124.40722357921
  20
 248.85876534748
  30
0.0
  11
 124.40722357921
  21
 128.53984819734
  31
0.0
   0
DIMENSION
   5
193
 100
AcDbEntity
   8
LEVEL001
   6
CONTINUOUS
  62
2
 100
AcDbDimension
   2
*D1
  10
 131.15722357921
  20
 119.79633143580
  30
0.0
  11
 142.88666696947
  21
 119.79633143580
  31
0.0
  70
128
   3
GMM001
 100
AcDbAlignedDimension
  13
 117.65722357921
  23
 134.53622783611
  33
0.0
  14
 131.15722357921
  24
 134.53622783611
  34
0.0
 100
AcDbRotatedDimension
   0
LINE
   5
194
 100
AcDbEntity
   8
LEVEL001
 100
AcDbLine
   6
DASHDOT
  62
2
  10
 124.40722357921
  20
 101.20739547828
  30
0.0
  11
 124.40722357921
  21
 78.052233236393
  31
0.0
   0
LINE
   5
195
 100
AcDbEntity
   8
LEVEL001
 100
AcDbLine
   6
DASHDOT
  62
2
  10
 114.52388765922
  20
 89.843886600288
  30
0.0
  11
 134.02166846248
  21
 89.843886600288
  31
0.0
   0
ARC
   5
196
 100
AcDbEntity
   8
LEVEL001
   6
CONTINUOUS
  62
7
 100
AcDbCircle
  10
 79.407223579206
  20
 144.03622783611
  30
0.0
  40
 6.0000000000000
 100
AcDbArc
  50
 180.00000000000
  51
 270.00000000000
   0
POINT
   5
197
 100
AcDbEntity
   8
LEVEL001
 100
AcDbPoint
  62
7
  10
 73.407223579206
  20
 138.03622783611
  30
0.0
   0
LINE
   5
198
 100
AcDbEntity
   8
LEVEL001
 100
AcDbLine
   6
CONTINUOUS
  62
7
  10
 73.407223579206
  20
 144.03622783611
  30
0.0
  11
 73.407223579206
  21
 182.03622783611
  31
0.0
   0
ARC
   5
199
 100
AcDbEntity
   8
LEVEL001
   6
CONTINUOUS
  62
7
 100
AcDbCircle
  10
 79.407223579206
  20
 182.03622783611
  30
0.0
  40
 6.0000000000000
 100
AcDbArc
  50
 90.000000000001
  51
 180.00000000000
   0
POINT
   5
19A
 100
AcDbEntity
   8
LEVEL001
 100
AcDbPoint
  62
7
  10
 73.407223579206
  20
 188.03622783611
  30
0.0
   0
LINE
   5
19B
 100
AcDbEntity
   8
LEVEL001
 100
AcDbLine
   6
DASHDOT
  62
2
  10
 102.63564247702
  20
 144.53622783611
  30
0.0
  11
 74.980253881801
  21
 144.53622783611
  31
0.0
   0
LINE
   5
19C
 100
AcDbEntity
   8
LEVEL001
 100
AcDbLine
   6
DASHDOT
  62
2
  10
 102.63564247702
  20
 181.53622783611
  30
0.0
  11
 74.980253881801
  21
 181.53622783611
  31
0.0
   0
LINE
   5
19D
 100
AcDbEntity
   8
LEVEL001
 100
AcDbLine
   6
DASHDOT
  62
2
  10
 80.407223579206
  20
 139.02037544312
  30
0.0
  11
 80.407223579206
  21
 186.93332050903
  31
0.0
   0
LINE
   5
19E
 100
AcDbEntity
   8
LEVEL001
 100
AcDbLine
   6
DASHDOT
  62
2
  10
 96.407223579206
  20
 139.02037544312
  30
0.0
  11
 96.407223579206
  21
 186.93332050903
  31
0.0
   0
LINE
   5
19F
 100
AcDbEntity
   8
LEVEL001
 100
AcDbLine
   6
CONTINUOUS
  62
7
  10
 131.15722357921
  20
 138.03622783611
  30
0.0
  11
 79.407223579206
  21
 138.03622783611
  31
0.0
   0
LINE
   5
1A0
 100
AcDbEntity
   8
LEVEL001
 100
AcDbLine
   6
CONTINUOUS
  62
7
  10
 131.15722357921
  20
 188.03622783611
  30
0.0
  11
 79.407223579206
  21
 188.03622783611
  31
0.0
   0
DIMENSION
   5
1A1
 100
AcDbEntity
   8
LEVEL001
   6
CONTINUOUS
  62
2
 100
AcDbDimension
   2
*D2
  10
 80.407223579206
  20
 119.79633143580
  30
0.0
  11
 88.407223579206
  21
 119.79633143580
  31
0.0
  70
0
   3
GMM002
 100
AcDbAlignedDimension
  13
 96.407223579206
  23
 139.02037544312
  33
0.0
  14
 80.407223579206
  24
 139.02037544312
  34
0.0
  50
 180.00000000000
 100
AcDbRotatedDimension
   0
DIMENSION
   5
1A2
 100
AcDbEntity
   8
LEVEL001
   6
CONTINUOUS
  62
2
 100
AcDbDimension
   2
*D3
  10
 80.407223579206
  20
 119.79633143580
  30
0.0
  11
 76.907223579206
  21
 119.79633143580
  31
0.0
  70
0
   3
GMM002
 100
AcDbAlignedDimension
  13
 73.407223579206
  23
 138.03622783611
  33
0.0
  14
 80.407223579206
  24
 119.79633143580
  34
0.0
 100
AcDbRotatedDimension
   0
CIRCLE
   5
1A3
 100
AcDbEntity
   8
LEVEL001
 100
AcDbCircle
   6
CONTINUOUS
  62
7
  10
 80.407223579206
  20
 181.53622783611
  30
0.0
  40
 4.1000000000000
   0
CIRCLE
   5
1A4
 100
AcDbEntity
   8
LEVEL001
 100
AcDbCircle
   6
CONTINUOUS
  62
7
  10
 80.407223579206
  20
 181.53622783611
  30
0.0
  40
 2.4000000000000
   0
CIRCLE
   5
1A5
 100
AcDbEntity
   8
LEVEL001
 100
AcDbCircle
   6
CONTINUOUS
  62
7
  10
 96.407223579206
  20
 181.53622783611
  30
0.0
  40
 4.1000000000000
   0
CIRCLE
   5
1A6
 100
AcDbEntity
   8
LEVEL001
 100
AcDbCircle
   6
CONTINUOUS
  62
7
  10
 96.407223579206
  20
 181.53622783611
  30
0.0
  40
 2.4000000000000
   0
CIRCLE
   5
1A7
 100
AcDbEntity
   8
LEVEL001
 100
AcDbCircle
   6
CONTINUOUS
  62
7
  10
 80.407223579206
  20
 144.53622783611
  30
0.0
  40
 4.1000000000000
   0
CIRCLE
   5
1A8
 100
AcDbEntity
   8
LEVEL001
 100
AcDbCircle
   6
CONTINUOUS
  62
7
  10
 80.407223579206
  20
 144.53622783611
  30
0.0
  40
 2.4000000000000
   0
CIRCLE
   5
1A9
 100
AcDbEntity
   8
LEVEL001
 100
AcDbCircle
   6
CONTINUOUS
  62
7
  10
 96.407223579206
  20
 144.53622783611
  30
0.0
  40
 4.1000000000000
   0
CIRCLE
   5
1AA
 100
AcDbEntity
   8
LEVEL001
 100
AcDbCircle
   6
CONTINUOUS
  62
7
  10
 96.407223579206
  20
 144.53622783611
  30
0.0
  40
 2.4000000000000
   0
LINE
   5
1AB
 100
AcDbEntity
   8
LEVEL001
 100
AcDbLine
   6
CONTINUOUS
  62
7
  10
 73.407223579206
  20
 90.343886600288
  30
0.0
  11
 73.407223579206
  21
 87.843886600288
  31
0.0
   0
LINE
   5
1AC
 100
AcDbEntity
   8
LEVEL001
 100
AcDbLine
   6
DOT
  62
1
  10
 78.007223579206
  20
 88.643886600143
  30
0.0
  11
 76.307223579206
  21
 90.343886600143
  31
0.0
   0
LINE
   5
1AD
 100
AcDbEntity
   8
LEVEL001
 100
AcDbLine
   6
DOT
  62
1
  10
 78.007223579206
  20
 87.843886600288
  30
0.0
  11
 78.007223579206
  21
 88.643886600143
  31
0.0
   0
LINE
   5
1AE
 100
AcDbEntity
   8
LEVEL001
 100
AcDbLine
   6
DOT
  62
1
  10
 82.807223579206
  20
 88.643886600143
  30
0.0
  11
 84.507223579206
  21
 90.343886600143
  31
0.0
   0
LINE
   5
1AF
 100
AcDbEntity
   8
LEVEL001
 100
AcDbLine
   6
DOT
  62
1
  10
 82.807223579206
  20
 87.843886600288
  30
0.0
  11
 82.807223579206
  21
 88.643886600143
  31
0.0
   0
LINE
   5
1B0
 100
AcDbEntity
   8
LEVEL001
 100
AcDbLine
   6
DOT
  62
1
  10
 78.007223579206
  20
 88.643886600143
  30
0.0
  11
 82.807223579206
  21
 88.643886600143
  31
0.0
   0
LINE
   5
1B1
 100
AcDbEntity
   8
LEVEL001
 100
AcDbLine
   6
DOT
  62
1
  10
 98.807223579206
  20
 88.643886600143
  30
0.0
  11
 100.50722357921
  21
 90.343886600143
  31
0.0
   0
LINE
   5
1B2
 100
AcDbEntity
   8
LEVEL001
 100
AcDbLine
   6
DOT
  62
1
  10
 98.807223579206
  20
 87.843886600288
  30
0.0
  11
 98.807223579206
  21
 88.643886600143
  31
0.0
   0
LINE
   5
1B3
 100
AcDbEntity
   8
LEVEL001
 100
AcDbLine
   6
DOT
  62
1
  10
 94.007223579206
  20
 88.643886600143
  30
0.0
  11
 98.807223579206
  21
 88.643886600143
  31
0.0
   0
LINE
   5
1B4
 100
AcDbEntity
   8
LEVEL001
 100
AcDbLine
   6
DOT
  62
1
  10
 94.007223579206
  20
 88.643886600143
  30
0.0
  11
 92.307223579206
  21
 90.343886600143
  31
0.0
   0
LINE
   5
1B5
 100
AcDbEntity
   8
LEVEL001
 100
AcDbLine
   6
DOT
  62
1
  10
 94.007223579206
  20
 87.843886600288
  30
0.0
  11
 94.007223579206
  21
 88.643886600143
  31
0.0
   0
LINE
   5
1B6
 100
AcDbEntity
   8
LEVEL001
 100
AcDbLine
   6
DASHDOT
  62
2
  10
 80.407223579206
  20
 92.895006097751
  30
0.0
  11
 80.407223579206
  21
 85.055478074152
  31
0.0
   0
LINE
   5
1B7
 100
AcDbEntity
   8
LEVEL001
 100
AcDbLine
   6
DASHDOT
  62
2
  10
 96.407223579206
  20
 92.895006097751
  30
0.0
  11
 96.407223579206
  21
 85.055478074152
  31
0.0
   0
LINE
   5
1B8
 100
AcDbEntity
   8
LEVEL001
 100
AcDbLine
   6
CONTINUOUS
  62
7
  10
 73.407223579206
  20
 90.343886600288
  30
0.0
  11
 117.67576757029
  21
 90.343886600288
  31
0.0
   0
DIMENSION
   5
1B9
 100
AcDbEntity
   8
LEVEL001
   6
CONTINUOUS
  62
2
 100
AcDbDimension
   2
*D4
  10
 108.21327463926
  20
 191.03622783611
  30
0.0
  11
 108.21327463926
  21
 196.71649349076
  31
0.0
  70
128
   3
GMM003
 100
AcDbAlignedDimension
  13
 103.81381061144
  23
 188.03622783611
  33
0.0
  14
 117.65722357921
  24
 191.03622783611
  34
0.0
  50
 90.000000000000
 100
AcDbRotatedDimension
   0
ARC
   5
1BA
 100
AcDbEntity
   8
LEVEL001
   6
CONTINUOUS
  62
7
 100
AcDbCircle
  10
 169.40722357921
  20
 235.03622783611
  30
0.0
  40
 6.0000000000000
 100
AcDbArc
  50
 0.27140733281822E-11
  51
 90.000000000000
   0
POINT
   5
1BB
 100
AcDbEntity
   8
LEVEL001
 100
AcDbPoint
  62
7
  10
 175.40722357921
  20
 241.03622783611
  30
0.0
   0
LINE
   5
1BC
 100
AcDbEntity
   8
LEVEL001
 100
AcDbLine
   6
CONTINUOUS
  62
7
  10
 175.40722357921
  20
 235.03622783611
  30
0.0
  11
 175.40722357921
  21
 197.03622783611
  31
0.0
   0
ARC
   5
1BD
 100
AcDbEntity
   8
LEVEL001
   6
CONTINUOUS
  62
7
 100
AcDbCircle
  10
 169.40722357921
  20
 197.03622783611
  30
0.0
  40
 6.0000000000000
 100
AcDbArc
  50
 269.99999999999
  51
0.0
   0
POINT
   5
1BE
 100
AcDbEntity
   8
LEVEL001
 100
AcDbPoint
  62
7
  10
 175.40722357921
  20
 191.03622783611
  30
0.0
   0
LINE
   5
1BF
 100
AcDbEntity
   8
LEVEL001
 100
AcDbLine
   6
DASHDOT
  62
2
  10
 146.65834311350
  20
 234.53622783611
  30
0.0
  11
 174.09733586682
  21
 234.53622783611
  31
0.0
   0
LINE
   5
1C0
 100
AcDbEntity
   8
LEVEL001
 100
AcDbLine
   6
DASHDOT
  62
2
  10
 146.65834311350
  20
 197.53622783611
  30
0.0
  11
 174.09733586682
  21
 197.53622783611
  31
0.0
   0
LINE
   5
1C1
 100
AcDbEntity
   8
LEVEL001
 100
AcDbLine
   6
DASHDOT
  62
2
  10
 152.40722357921
  20
 240.05709544024
  30
0.0
  11
 152.40722357921
  21
 191.88738103259
  31
0.0
   0
LINE
   5
1C2
 100
AcDbEntity
   8
LEVEL001
 100
AcDbLine
   6
DASHDOT
  62
2
  10
 168.40722357921
  20
 240.05709544024
  30
0.0
  11
 168.40722357921
  21
 191.88738103259
  31
0.0
   0
LINE
   5
1C3
 100
AcDbEntity
   8
LEVEL001
 100
AcDbLine
   6
CONTINUOUS
  62
7
  10
 117.65722357921
  20
 241.03622783611
  30
0.0
  11
 169.40722357921
  21
 241.03622783611
  31
0.0
   0
LINE
   5
1C4
 100
AcDbEntity
   8
LEVEL001
 100
AcDbLine
   6
CONTINUOUS
  62
7
  10
 117.65722357921
  20
 191.03622783611
  30
0.0
  11
 169.40722357921
  21
 191.03622783611
  31
0.0
   0
DIMENSION
   5
1C5
 100
AcDbEntity
   8
LEVEL001
   6
CONTINUOUS
  62
2
 100
AcDbDimension
   2
*D5
  10
 152.40722357921
  20
 255.08386042589
  30
0.0
  11
 138.40722357921
  21
 255.08386042589
  31
0.0
  70
0
   3
GMM002
 100
AcDbAlignedDimension
  13
 124.40722357921
  23
 248.85876534748
  33
0.0
  14
 152.40722357921
  24
 240.05709544024
  34
0.0
 100
AcDbRotatedDimension
   0
DIMENSION
   5
1C6
 100
AcDbEntity
   8
LEVEL001
   6
CONTINUOUS
  62
2
 100
AcDbDimension
   2
*D6
  10
 168.40722357921
  20
 255.08386042589
  30
0.0
  11
 160.40722357921
  21
 255.08386042589
  31
0.0
  70
0
   3
GMM002
 100
AcDbAlignedDimension
  13
 152.40722357921
  23
 255.08386042589
  33
0.0
  14
 168.40722357921
  24
 240.05709544024
  34
0.0
 100
AcDbRotatedDimension
   0
DIMENSION
   5
1C7
 100
AcDbEntity
   8
LEVEL001
   6
CONTINUOUS
  62
2
 100
AcDbDimension
   2
*D7
  10
 175.40722357921
  20
 255.08386042589
  30
0.0
  11
 171.90722357921
  21
 255.08386042589
  31
0.0
  70
0
   3
GMM002
 100
AcDbAlignedDimension
  13
 168.40722357921
  23
 255.08386042589
  33
0.0
  14
 175.40722357921
  24
 241.03622783611
  34
0.0
 100
AcDbRotatedDimension
   0
INSERT
   5
1C8
 100
AcDbEntity
   8
LEVEL001
 100
AcDbBlockReference
   2
*D8
  10
0.0
  20
0.0
  30
0.0
   0
CIRCLE
   5
1C9
 100
AcDbEntity
   8
LEVEL001
 100
AcDbCircle
   6
CONTINUOUS
  62
7
  10
 152.40722357921
  20
 234.53622783611
  30
0.0
  40
 2.4000000000000
   0
CIRCLE
   5
1CA
 100
AcDbEntity
   8
LEVEL001
 100
AcDbCircle
   6
CONTINUOUS
  62
7
  10
 152.40722357921
  20
 234.53622783611
  30
0.0
  40
 4.1000000000000
   0
CIRCLE
   5
1CB
 100
AcDbEntity
   8
LEVEL001
 100
AcDbCircle
   6
CONTINUOUS
  62
7
  10
 152.40722357921
  20
 197.53622783611
  30
0.0
  40
 2.4000000000000
   0
CIRCLE
   5
1CC
 100
AcDbEntity
   8
LEVEL001
 100
AcDbCircle
   6
CONTINUOUS
  62
7
  10
 152.40722357921
  20
 197.53622783611
  30
0.0
  40
 4.1000000000000
   0
CIRCLE
   5
1CD
 100
AcDbEntity
   8
LEVEL001
 100
AcDbCircle
   6
CONTINUOUS
  62
7
  10
 168.40722357921
  20
 197.53622783611
  30
0.0
  40
 2.4000000000000
   0
CIRCLE
   5
1CE
 100
AcDbEntity
   8
LEVEL001
 100
AcDbCircle
   6
CONTINUOUS
  62
7
  10
 168.40722357921
  20
 197.53622783611
  30
0.0
  40
 4.1000000000000
   0
CIRCLE
   5
1CF
 100
AcDbEntity
   8
LEVEL001
 100
AcDbCircle
   6
CONTINUOUS
  62
7
  10
 168.40722357921
  20
 234.53622783611
  30
0.0
  40
 2.4000000000000
   0
CIRCLE
   5
1D0
 100
AcDbEntity
   8
LEVEL001
 100
AcDbCircle
   6
CONTINUOUS
  62
7
  10
 168.40722357921
  20
 234.53622783611
  30
0.0
  40
 4.1000000000000
   0
LINE
   5
1D1
 100
AcDbEntity
   8
LEVEL001
 100
AcDbLine
   6
CONTINUOUS
  62
7
  10
 175.40722357921
  20
 90.343886600288
  30
0.0
  11
 175.40722357921
  21
 87.843886600288
  31
0.0
   0
LINE
   5
1D2
 100
AcDbEntity
   8
LEVEL001
 100
AcDbLine
   6
DOT
  62
1
  10
 154.80722357921
  20
 88.643886600143
  30
0.0
  11
 156.50722357921
  21
 90.343886600143
  31
0.0
   0
LINE
   5
1D3
 100
AcDbEntity
   8
LEVEL001
 100
AcDbLine
   6
DOT
  62
1
  10
 154.80722357921
  20
 87.843886600288
  30
0.0
  11
 154.80722357921
  21
 88.643886600143
  31
0.0
   0
LINE
   5
1D4
 100
AcDbEntity
   8
LEVEL001
 100
AcDbLine
   6
DOT
  62
1
  10
 150.00722357921
  20
 88.643886600143
  30
0.0
  11
 154.80722357921
  21
 88.643886600143
  31
0.0
   0
LINE
   5
1D5
 100
AcDbEntity
   8
LEVEL001
 100
AcDbLine
   6
DOT
  62
1
  10
 150.00722357921
  20
 88.643886600143
  30
0.0
  11
 148.30722357921
  21
 90.343886600143
  31
0.0
   0
LINE
   5
1D6
 100
AcDbEntity
   8
LEVEL001
 100
AcDbLine
   6
DOT
  62
1
  10
 150.00722357921
  20
 87.843886600288
  30
0.0
  11
 150.00722357921
  21
 88.643886600143
  31
0.0
   0
LINE
   5
1D7
 100
AcDbEntity
   8
LEVEL001
 100
AcDbLine
   6
DOT
  62
1
  10
 170.80722357921
  20
 88.643886600143
  30
0.0
  11
 172.50722357921
  21
 90.343886600143
  31
0.0
   0
LINE
   5
1D8
 100
AcDbEntity
   8
LEVEL001
 100
AcDbLine
   6
DOT
  62
1
  10
 170.80722357921
  20
 87.843886600288
  30
0.0
  11
 170.80722357921
  21
 88.643886600143
  31
0.0
   0
LINE
   5
1D9
 100
AcDbEntity
   8
LEVEL001
 100
AcDbLine
   6
DOT
  62
1
  10
 166.00722357921
  20
 88.643886600143
  30
0.0
  11
 170.80722357921
  21
 88.643886600143
  31
0.0
   0
LINE
   5
1DA
 100
AcDbEntity
   8
LEVEL001
 100
AcDbLine
   6
DOT
  62
1
  10
 166.00722357921
  20
 88.643886600143
  30
0.0
  11
 164.30722357921
  21
 90.343886600143
  31
0.0
   0
LINE
   5
1DB
 100
AcDbEntity
   8
LEVEL001
 100
AcDbLine
   6
DOT
  62
1
  10
 166.00722357921
  20
 87.843886600288
  30
0.0
  11
 166.00722357921
  21
 88.643886600143
  31
0.0
   0
LINE
   5
1DC
 100
AcDbEntity
   8
LEVEL001
 100
AcDbLine
   6
DASHDOT
  62
2
  10
 152.40722357921
  20
 92.895006097751
  30
0.0
  11
 152.40722357921
  21
 85.055478074152
  31
0.0
   0
LINE
   5
1DD
 100
AcDbEntity
   8
LEVEL001
 100
AcDbLine
   6
DASHDOT
  62
2
  10
 168.40722357921
  20
 92.895006097751
  30
0.0
  11
 168.40722357921
  21
 85.055478074152
  31
0.0
   0
LINE
   5
1DE
 100
AcDbEntity
   8
LEVEL001
 100
AcDbLine
   6
CONTINUOUS
  62
7
  10
 175.40722357921
  20
 90.343886600288
  30
0.0
  11
 131.13867958812
  21
 90.343886600288
  31
0.0
   0
DIMENSION
   5
1DF
 100
AcDbEntity
   8
LEVEL001
   6
CONTINUOUS
  62
2
 100
AcDbDimension
   2
*D9
  10
 175.40722357921
  20
 69.271383766893
  30
0.0
  11
 124.40722357921
  21
 69.271383766893
  31
0.0
  70
0
   3
GMM002
 100
AcDbAlignedDimension
  13
 73.407223579206
  23
 87.843886600288
  33
0.0
  14
 175.40722357921
  24
 87.843886600288
  34
0.0
 100
AcDbRotatedDimension
   0
LINE
   5
1E0
 100
AcDbEntity
   8
LEVEL001
 100
AcDbLine
   6
DASHDOT
  62
2
  10
 111.17256667466
  20
 189.53622783611
  30
0.0
  11
 136.51092932738
  21
 189.53622783611
  31
0.0
   0
DIMENSION
   5
1E1
 100
AcDbEntity
   8
LEVEL001
   6
CONTINUOUS
  62
2
 100
AcDbDimension
   2
*D10
  10
 189.00063976035
  20
 87.843886600288
  30
0.0
  11
 189.00063976035
  21
 79.909825879225
  31
0.0
  70
128
   3
GMM004
 100
AcDbAlignedDimension
  13
 175.40722357921
  23
 90.343886600288
  33
0.0
  14
 175.40722357921
  24
 87.843886600288
  34
0.0
  50
 270.00000000000
 100
AcDbRotatedDimension
   0
LINE
   5
1E2
 100
AcDbEntity
   8
LEVEL001
 100
AcDbLine
   6
CONTINUOUS
  62
7
  10
 73.407223579206
  20
 87.843886600288
  30
0.0
  11
 117.26142061523
  21
 87.843886600288
  31
0.0
   0
ARC
   5
1E3
 100
AcDbEntity
   8
LEVEL001
   6
CONTINUOUS
  62
7
 100
AcDbCircle
  10
 117.26142061523
  20
 86.843886600288
  30
0.0
  40
 1.0000000000000
 100
AcDbArc
  50
 22.773972400660
  51
 90.000000000000
   0
LINE
   5
1E4
 100
AcDbEntity
   8
LEVEL001
 100
AcDbLine
   6
CONTINUOUS
  62
7
  10
 175.40722357921
  20
 87.843886600288
  30
0.0
  11
 131.55302654318
  21
 87.843886600288
  31
0.0
   0
ARC
   5
1E5
 100
AcDbEntity
   8
LEVEL001
   6
CONTINUOUS
  62
7
 100
AcDbCircle
  10
 131.55302654318
  20
 86.843886600288
  30
0.0
  40
 1.0000000000000
 100
AcDbArc
  50
 90.000000000000
  51
 157.22602759934
   0
CIRCLE
   5
1E6
 100
AcDbEntity
   8
LEVEL001
 100
AcDbCircle
   6
CONTINUOUS
  62
7
  10
 124.40722357921
  20
 89.843886600288
  30
0.0
  40
 6.2500000000000
   0
LINE
   5
1E7
 100
AcDbEntity
   8
LEVEL001
 100
AcDbLine
   6
CONTINUOUS
  62
7
  10
 117.65722357921
  20
 135.03622783611
  30
0.0
  11
 131.15722357921
  21
 135.03622783611
  31
0.0
   0
LINE
   5
1E8
 100
AcDbEntity
   8
LEVEL001
 100
AcDbLine
   6
CONTINUOUS
  62
7
  10
 117.65722357921
  20
 244.03622783611
  30
0.0
  11
 131.15722357921
  21
 244.03622783611
  31
0.0
   0
CIRCLE
   5
1E9
 100
AcDbEntity
   8
LEVEL001
 100
AcDbCircle
   6
CONTINUOUS
  62
7
  10
 230.50418033461
  20
 89.843886600288
  30
0.0
  40
 6.7500000000000
   0
LINE
   5
1EA
 100
AcDbEntity
   8
LEVEL001
 100
AcDbLine
   6
DASHDOT
  62
2
  10
 230.50418033461
  20
 101.20739547828
  30
0.0
  11
 230.50418033461
  21
 78.052233236393
  31
0.0
   0
LINE
   5
1EB
 100
AcDbEntity
   8
LEVEL001
 100
AcDbLine
   6
DASHDOT
  62
2
  10
 220.62084441462
  20
 89.843886600288
  30
0.0
  11
 240.11862521789
  21
 89.843886600288
  31
0.0
   0
LINE
   5
1EC
 100
AcDbEntity
   8
LEVEL001
 100
AcDbLine
   6
DOT
  62
1
  10
 260.90418033461
  20
 88.643886600143
  30
0.0
  11
 262.60418033461
  21
 90.343886600143
  31
0.0
   0
LINE
   5
1ED
 100
AcDbEntity
   8
LEVEL001
 100
AcDbLine
   6
DOT
  62
1
  10
 260.90418033461
  20
 87.843886600288
  30
0.0
  11
 260.90418033461
  21
 88.643886600143
  31
0.0
   0
LINE
   5
1EE
 100
AcDbEntity
   8
LEVEL001
 100
AcDbLine
   6
DOT
  62
1
  10
 256.10418033461
  20
 88.643886600143
  30
0.0
  11
 260.90418033461
  21
 88.643886600143
  31
0.0
   0
LINE
   5
1EF
 100
AcDbEntity
   8
LEVEL001
 100
AcDbLine
   6
DOT
  62
1
  10
 256.10418033461
  20
 88.643886600143
  30
0.0
  11
 254.40418033461
  21
 90.343886600143
  31
0.0
   0
LINE
   5
1F0
 100
AcDbEntity
   8
LEVEL001
 100
AcDbLine
   6
DOT
  62
1
  10
 256.10418033461
  20
 87.843886600288
  30
0.0
  11
 256.10418033461
  21
 88.643886600143
  31
0.0
   0
LINE
   5
1F1
 100
AcDbEntity
   8
LEVEL001
 100
AcDbLine
   6
DOT
  62
1
  10
 276.90418033461
  20
 88.643886600143
  30
0.0
  11
 278.60418033461
  21
 90.343886600143
  31
0.0
   0
LINE
   5
1F2
 100
AcDbEntity
   8
LEVEL001
 100
AcDbLine
   6
DOT
  62
1
  10
 276.90418033461
  20
 87.843886600288
  30
0.0
  11
 276.90418033461
  21
 88.643886600143
  31
0.0
   0
LINE
   5
1F3
 100
AcDbEntity
   8
LEVEL001
 100
AcDbLine
   6
DOT
  62
1
  10
 272.10418033461
  20
 88.643886600143
  30
0.0
  11
 276.90418033461
  21
 88.643886600143
  31
0.0
   0
LINE
   5
1F4
 100
AcDbEntity
   8
LEVEL001
 100
AcDbLine
   6
DOT
  62
1
  10
 272.10418033461
  20
 88.643886600143
  30
0.0
  11
 270.40418033461
  21
 90.343886600143
  31
0.0
   0
LINE
   5
1F5
 100
AcDbEntity
   8
LEVEL001
 100
AcDbLine
   6
DOT
  62
1
  10
 272.10418033461
  20
 87.843886600288
  30
0.0
  11
 272.10418033461
  21
 88.643886600143
  31
0.0
   0
LINE
   5
1F6
 100
AcDbEntity
   8
LEVEL001
 100
AcDbLine
   6
CONTINUOUS
  62
7
  10
 281.50418033461
  20
 87.843886600288
  30
0.0
  11
 237.64998329859
  21
 87.843886600288
  31
0.0
   0
ARC
   5
1F7
 100
AcDbEntity
   8
LEVEL001
   6
CONTINUOUS
  62
7
 100
AcDbCircle
  10
 237.64998329859
  20
 86.843886600288
  30
0.0
  40
 1.0000000000000
 100
AcDbArc
  50
 90.000000000000
  51
 157.22602759934
   0
CIRCLE
   5
1F8
 100
AcDbEntity
   8
LEVEL001
 100
AcDbCircle
   6
CONTINUOUS
  62
7
  10
 230.50418033461
  20
 89.843886600288
  30
0.0
  40
 6.2500000000000
   0
LINE
   5
1F9
 100
AcDbEntity
   8
LEVEL001
 100
AcDbLine
   6
DOT
  62
1
  10
 276.90418033461
  20
 91.043886600433
  30
0.0
  11
 278.60418033461
  21
 89.343886600433
  31
0.0
   0
LINE
   5
1FA
 100
AcDbEntity
   8
LEVEL001
 100
AcDbLine
   6
DOT
  62
1
  10
 276.90418033461
  20
 91.843886600288
  30
0.0
  11
 276.90418033461
  21
 91.043886600433
  31
0.0
   0
LINE
   5
1FB
 100
AcDbEntity
   8
LEVEL001
 100
AcDbLine
   6
DOT
  62
1
  10
 272.10418033461
  20
 91.043886600433
  30
0.0
  11
 270.40418033461
  21
 89.343886600433
  31
0.0
   0
LINE
   5
1FC
 100
AcDbEntity
   8
LEVEL001
 100
AcDbLine
   6
DOT
  62
1
  10
 272.10418033461
  20
 91.843886600288
  30
0.0
  11
 272.10418033461
  21
 91.043886600433
  31
0.0
   0
LINE
   5
1FD
 100
AcDbEntity
   8
LEVEL001
 100
AcDbLine
   6
DOT
  62
1
  10
 276.90418033461
  20
 91.043886600433
  30
0.0
  11
 272.10418033461
  21
 91.043886600433
  31
0.0
   0
LINE
   5
1FE
 100
AcDbEntity
   8
LEVEL001
 100
AcDbLine
   6
DOT
  62
1
  10
 256.10418033461
  20
 91.043886600433
  30
0.0
  11
 254.40418033461
  21
 89.343886600433
  31
0.0
   0
LINE
   5
1FF
 100
AcDbEntity
   8
LEVEL001
 100
AcDbLine
   6
DOT
  62
1
  10
 256.10418033461
  20
 91.843886600288
  30
0.0
  11
 256.10418033461
  21
 91.043886600433
  31
0.0
   0
LINE
   5
200
 100
AcDbEntity
   8
LEVEL001
 100
AcDbLine
   6
DOT
  62
1
  10
 260.90418033461
  20
 91.043886600433
  30
0.0
  11
 256.10418033461
  21
 91.043886600433
  31
0.0
   0
LINE
   5
201
 100
AcDbEntity
   8
LEVEL001
 100
AcDbLine
   6
DOT
  62
1
  10
 260.90418033461
  20
 91.043886600433
  30
0.0
  11
 262.60418033461
  21
 89.343886600433
  31
0.0
   0
LINE
   5
202
 100
AcDbEntity
   8
LEVEL001
 100
AcDbLine
   6
DOT
  62
1
  10
 260.90418033461
  20
 91.843886600288
  30
0.0
  11
 260.90418033461
  21
 91.043886600433
  31
0.0
   0
LINE
   5
203
 100
AcDbEntity
   8
LEVEL001
 100
AcDbLine
   6
CONTINUOUS
  62
7
  10
 281.50418033461
  20
 89.343886600288
  30
0.0
  11
 237.23563634353
  21
 89.343886600288
  31
0.0
   0
LINE
   5
204
 100
AcDbEntity
   8
LEVEL001
 100
AcDbLine
   6
CONTINUOUS
  62
7
  10
 281.50418033461
  20
 91.843886600288
  30
0.0
  11
 237.64998329859
  21
 91.843886600288
  31
0.0
   0
ARC
   5
205
 100
AcDbEntity
   8
LEVEL001
   6
CONTINUOUS
  62
7
 100
AcDbCircle
  10
 237.64998329859
  20
 92.843886600288
  30
0.0
  40
 1.0000000000000
 100
AcDbArc
  50
 202.77397240066
  51
 270.00000000000
   0
LINE
   5
206
 100
AcDbEntity
   8
LEVEL001
 100
AcDbLine
   6
DOT
  62
1
  10
 281.50418033461
  20
 90.343886600288
  30
0.0
  11
 237.23563634353
  21
 90.343886600288
  31
0.0
   0
LINE
   5
207
 100
AcDbEntity
   8
LEVEL001
 100
AcDbLine
   6
CONTINUOUS
  62
7
  10
 281.50418033461
  20
 89.343886600288
  30
0.0
  11
 281.50418033461
  21
 91.843886600288
  31
0.0
   0
LINE
   5
208
 100
AcDbEntity
   8
LEVEL001
 100
AcDbLine
   6
CONTINUOUS
  62
7
  10
 281.50418033461
  20
 89.343886600288
  30
0.0
  11
 281.50418033461
  21
 87.843886600288
  31
0.0
   0
LINE
   5
209
 100
AcDbEntity
   8
LEVEL001
 100
AcDbLine
   6
DASHDOT
  62
2
  10
 274.50418033461
  20
 84.992963759659
  30
0.0
  11
 274.50418033461
  21
 94.632295126424
  31
0.0
   0
LINE
   5
20A
 100
AcDbEntity
   8
LEVEL001
 100
AcDbLine
   6
DASHDOT
  62
2
  10
 258.50418033461
  20
 84.992963759659
  30
0.0
  11
 258.50418033461
  21
 94.632295126424
  31
0.0
   0
DIMENSION
   5
20B
 100
AcDbEntity
   8
LEVEL001
   6
CONTINUOUS
  62
2
 100
AcDbDimension
   2
*D11
  10
 281.50418033461
  20
 69.271383766893
  30
0.0
  11
 256.00418033461
  21
 69.271383766893
  31
0.0
  70
0
   3
GMM002
 100
AcDbAlignedDimension
  13
 230.50418033461
  23
 78.052233236393
  33
0.0
  14
 281.50418033461
  24
 87.843886600288
  34
0.0
 100
AcDbRotatedDimension
   0
DIMENSION
   5
20C
 100
AcDbEntity
   8
LEVEL001
   6
CONTINUOUS
  62
2
 100
AcDbDimension
   2
*D12
  10
 292.24108361844
  20
 91.843886600288
  30
0.0
  11
 292.24108361844
  21
 82.883906485945
  31
0.0
  70
128
   3
GMM004
 100
AcDbAlignedDimension
  13
 281.50418033461
  23
 87.843886600288
  33
0.0
  14
 281.50418033461
  24
 91.843886600288
  34
0.0
  50
 90.000000000000
 100
AcDbRotatedDimension
   0
DIMENSION
   5
20D
 100
AcDbEntity
   8
LEVEL001
   6
CONTINUOUS
  62
2
 100
AcDbDimension
   2
*D13
  10
 202.74276172736
  20
 191.03622783611
  30
0.0
  11
 202.74276172736
  21
 216.03622783611
  31
0.0
  70
0
   3
GMM002
 100
AcDbAlignedDimension
  13
 194.75902902209
  23
 241.03622783611
  33
0.0
  14
 194.75902902209
  24
 191.03622783611
  34
0.0
  50
 270.00000000000
 100
AcDbRotatedDimension
   0
DIMENSION
   5
20E
 100
AcDbEntity
   8
LEVEL001
   6
CONTINUOUS
  62
2
 100
AcDbDimension
   2
*D14
  10
 192.75902902209
  20
 197.53622783611
  30
0.0
  11
 192.75902902209
  21
 183.93328665964
  31
0.0
  70
128
   3
GMM004
 100
AcDbAlignedDimension
  13
 175.40722357921
  23
 191.03622783611
  33
0.0
  14
 192.75902902209
  24
 197.53622783611
  34
0.0
  50
 90.000000000000
 100
AcDbRotatedDimension
   0
DIMENSION
   5
20F
 100
AcDbEntity
   8
LEVEL001
   6
CONTINUOUS
  62
2
 100
AcDbDimension
   2
*D15
  10
 215.24102788421
  20
 241.03622783611
  30
0.0
  11
 215.24102788421
  21
 189.53622783611
  31
0.0
  70
0
   3
GMM002
 100
AcDbAlignedDimension
  13
 131.15722357921
  23
 138.03622783611
  33
0.0
  14
 204.74276172736
  24
 241.03622783611
  34
0.0
  50
 90.000000000000
 100
AcDbRotatedDimension
   0
DIMENSION
   5
210
 100
AcDbEntity
   8
LEVEL001
   6
CONTINUOUS
  62
2
 100
AcDbDimension
   2
*D16
  10
 192.75902902209
  20
 234.53622783611
  30
0.0
  11
 192.75902902209
  21
 216.03622783611
  31
0.0
  70
0
   3
GMM002
 100
AcDbAlignedDimension
  13
 174.09733586682
  23
 197.53622783611
  33
0.0
  14
 174.09733586682
  24
 234.53622783611
  34
0.0
  50
 90.000000000000
 100
AcDbRotatedDimension
   0
DIMENSION
   5
211
 100
AcDbEntity
   8
LEVEL001
   6
CONTINUOUS
  62
2
 100
AcDbDimension
   2
*D17
  10
 192.75902902209
  20
 234.53622783611
  30
0.0
  11
 192.75902902209
  21
 247.80520316818
  31
0.0
  70
128
   3
GMM004
 100
AcDbAlignedDimension
  13
 175.40722357921
  23
 241.03622783611
  33
0.0
  14
 174.09733586682
  24
 234.53622783611
  34
0.0
  50
 270.00000000000
 100
AcDbRotatedDimension
   0
DIMENSION
   5
212
 100
AcDbEntity
   8
LEVEL001
   6
CONTINUOUS
  62
2
 100
AcDbDimension
   2
*D18
  10
 169.40722357921
  20
 197.03622783611
  30
0.0
  11
 176.30390330974
  21
 187.29239825549
  31
0.0
  70
132
   3
GMM005
 100
AcDbRadialDimension
  15
 172.87358717475
  25
 192.13884859579
  35
0.0
  40
 6.1801233966035
   0
DIMENSION
   5
213
 100
AcDbEntity
   8
LEVEL001
   6
CONTINUOUS
  62
2
 100
AcDbDimension
   2
*D19
  10
 58.245290331739
  20
 181.53622783611
  30
0.0
  11
 58.245290331739
  21
 163.03622783611
  31
0.0
  70
0
   3
GMM002
 100
AcDbAlignedDimension
  13
 58.245290331739
  23
 144.53622783611
  33
0.0
  14
 74.980253881801
  24
 181.53622783611
  34
0.0
  50
 90.000000000000
 100
AcDbRotatedDimension
   0
DIMENSION
   5
214
 100
AcDbEntity
   8
LEVEL001
   6
CONTINUOUS
  62
2
 100
AcDbDimension
   2
*D20
  10
 48.770897494688
  20
 138.03622783611
  30
0.0
  11
 48.770897494688
  21
 163.03622783611
  31
0.0
  70
0
   3
GMM002
 100
AcDbAlignedDimension
  13
 56.245290331739
  23
 188.03622783611
  33
0.0
  14
 56.245290331739
  24
 138.03622783611
  34
0.0
  50
 270.00000000000
 100
AcDbRotatedDimension
   0
DIMENSION
   5
215
 100
AcDbEntity
   8
LEVEL001
   6
CONTINUOUS
  62
2
 100
AcDbDimension
   2
*D21
  10
 58.245290331739
  20
 181.53622783611
  30
0.0
  11
 58.245290331739
  21
 194.55472878488
  31
0.0
  70
128
   3
GMM003
 100
AcDbAlignedDimension
  13
 73.407223579206
  23
 188.03622783611
  33
0.0
  14
 58.245290331739
  24
 181.53622783611
  34
0.0
  50
 270.00000000000
 100
AcDbRotatedDimension
   0
DIMENSION
   5
216
 100
AcDbEntity
   8
LEVEL001
   6
CONTINUOUS
  62
2
 100
AcDbDimension
   2
*D22
  10
 58.245290331739
  20
 144.53622783611
  30
0.0
  11
 58.245290331739
  21
 131.01677812074
  31
0.0
  70
128
   3
GMM003
 100
AcDbAlignedDimension
  13
 73.407223579206
  23
 138.03622783611
  33
0.0
  14
 74.980253881801
  24
 144.53622783611
  34
0.0
  50
 90.000000000000
 100
AcDbRotatedDimension
   0
DIMENSION
   5
217
 100
AcDbEntity
   8
LEVEL001
   6
CONTINUOUS
  62
2
 100
AcDbDimension
   2
*D23
  10
 79.407223579206
  20
 144.03622783611
  30
0.0
  11
 72.340686779660
  21
 133.82551465437
  31
0.0
  70
132
   3
GMM005
 100
AcDbRadialDimension
  15
 75.992753711424
  25
 139.10252785314
  35
0.0
  40
 6.6425323999373
   0
ENDSEC
  0
SECTION
  2
OBJECTS
  0
DICTIONARY
  5
C
100
AcDbDictionary
  3
ACAD_GROUP
350
D
  3
ACAD_MLINESTYLE
350
1B
  0
DICTIONARY
  5
D
102
{ACAD_REACTORS
330
C
102
}
100
AcDbDictionary
  0
DICTIONARY
  5
1B
102
{ACAD_REACTORS
330
C
102
}
100
AcDbDictionary
  3
STANDARD
350
1C
  0
MLINESTYLE
  5
1C
102
{ACAD_REACTORS
330
1B
102
}
100
AcDbMlineStyle
  2
STANDARD
 70
     0
  3

 62
   256
 51
90.0
 52
90.0
 71
     2
 49
0.5
 62
   256
  6
BYLAYER
 49
-0.5
 62
   256
  6
BYLAYER
  0
ENDSEC
   0
EOF
