   0
SECTION
   2
HEADER
   9
$ACADVER
   1
AC1015
   9
$LIMMIN
  10
0.0
  20
0.0
   9
$LIMMAX
  10
 420.00000000000
  20
 297.00000000000
   9
$EXTMIN
  10
0.0
  20
0.0
  30
0.0
   9
$EXTMAX
  10
 420.00000000000
  20
 297.00000000000
  30
0.0
   9
$LTSCALE
  40
 8.4000000000000
   9
$HANDSEED
   5
49F
   0
ENDSEC
   0
SECTION
   2
TABLES
  0
TABLE
  2
VPORT
  5
8
100
AcDbSymbolTable
 70
     1
  0
VPORT
  5
49E
100
AcDbSymbolTableRecord
100
AcDbViewportTableRecord
  2
*ACTIVE
 70
     0
 10
0.0
 20
0.0
 11
1.0
 21
1.0
  12
 210.00000000000
  22
 148.50000000000
 13
0.0
 23
0.0
 14
1.0
 24
1.0
 15
0.0
 25
0.0
 16
0.0
 26
0.0
 36
1.0
 17
0.0
 27
0.0
 37
0.0
  40
 420.00000000000
  41
 1.4787878787879
 42
50.0
 43
0.0
 44
0.0
 50
0.0
 51
0.0
 71
     0
 72
   100
 73
     1
 74
     1
 75
     0
 76
     0
 77
     0
 78
     0
  0
ENDTAB
  0
TABLE
  2
LTYPE
  5
5
100
AcDbSymbolTable
 70
    25
  0
LTYPE
  5
12
100
AcDbSymbolTableRecord
100
AcDbLinetypeTableRecord
  2
BYBLOCK
 70
     0
  3

 72
    65
 73
     0
 40
0.0
  0
LTYPE
  5
13
100
AcDbSymbolTableRecord
100
AcDbLinetypeTableRecord
  2
BYLAYER
 70
     0
  3

 72
    65
 73
     0
 40
0.0
  0
LTYPE
  5
14
100
AcDbSymbolTableRecord
100
AcDbLinetypeTableRecord
  2
CONTINUOUS
 70
     0
  3
Solid line
 72
    65
 73
     0
 40
0.0
  0
LTYPE
  5
20
100
AcDbSymbolTableRecord
100
AcDbLinetypeTableRecord
  2
BORDER
 70
     0
  3
__ __ . __ __ . __ __ . __ __ . __ __ . __ __ .
 72
    65
 73
     6
 40
1.75
 49
0.5
 74
     0
 49
-0.25
 74
     0
 49
0.5
 74
     0
 49
-0.25
 74
     0
 49
0.0
 74
     0
 49
-0.25
 74
     0
  0
LTYPE
  5
21
100
AcDbSymbolTableRecord
100
AcDbLinetypeTableRecord
  2
BORDER2
 70
     0
  3
__.__.__.__.__.__.__.__.__.__.__.__.__.__.__.__
 72
    65
 73
     6
 40
0.875
 49
0.25
 74
     0
 49
-0.125
 74
     0
 49
0.25
 74
     0
 49
-0.125
 74
     0
 49
0.0
 74
     0
 49
-0.125
 74
     0
  0
LTYPE
  5
22
100
AcDbSymbolTableRecord
100
AcDbLinetypeTableRecord
  2
BORDERX2
 70
     0
  3
____  ____  .  ____  ____  .  ____  ____  .  __
 72
    65
 73
     6
 40
3.5
 49
1.0
 74
     0
 49
-0.5
 74
     0
 49
1.0
 74
     0
 49
-0.5
 74
     0
 49
0.0
 74
     0
 49
-0.5
 74
     0
  0
LTYPE
  5
23
100
AcDbSymbolTableRecord
100
AcDbLinetypeTableRecord
  2
CENTER
 70
     0
  3
____ _ ____ _ ____ _ ____ _ ____ _ ____ _ ____ 
 72
    65
 73
     4
 40
2.0
 49
1.25
 74
     0
 49
-0.25
 74
     0
 49
0.25
 74
     0
 49
-0.25
 74
     0
  0
LTYPE
  5
24
100
AcDbSymbolTableRecord
100
AcDbLinetypeTableRecord
  2
CENTER2
 70
     0
  3
___ _ ___ _ ___ _ ___ _ ___ _ ___ _ ___ _ ___ _
 72
    65
 73
     4
 40
1.125
 49
0.75
 74
     0
 49
-0.125
 74
     0
 49
0.125
 74
     0
 49
-0.125
 74
     0
  0
LTYPE
  5
25
100
AcDbSymbolTableRecord
100
AcDbLinetypeTableRecord
  2
CENTERX2
 70
     0
  3
________  __  ________  __  ________  __  _____
 72
    65
 73
     4
 40
4.0
 49
2.5
 74
     0
 49
-0.5
 74
     0
 49
0.5
 74
     0
 49
-0.5
 74
     0
  0
LTYPE
  5
26
100
AcDbSymbolTableRecord
100
AcDbLinetypeTableRecord
  2
DASHDOT
 70
     0
  3
__ . __ . __ . __ . __ . __ . __ . __ . __ . __
 72
    65
 73
     4
 40
1.0
 49
0.5
 74
     0
 49
-0.25
 74
     0
 49
0.0
 74
     0
 49
-0.25
 74
     0
  0
LTYPE
  5
27
100
AcDbSymbolTableRecord
100
AcDbLinetypeTableRecord
  2
DASHDOT2
 70
     0
  3
_._._._._._._._._._._._._._._._._._._._._._._._
 72
    65
 73
     4
 40
0.5
 49
0.25
 74
     0
 49
-0.125
 74
     0
 49
0.0
 74
     0
 49
-0.125
 74
     0
  0
LTYPE
  5
28
100
AcDbSymbolTableRecord
100
AcDbLinetypeTableRecord
  2
DASHDOTX2
 70
     0
  3
____  .  ____  .  ____  .  ____  .  ____  .  __
 72
    65
 73
     4
 40
2.0
 49
1.0
 74
     0
 49
-0.5
 74
     0
 49
0.0
 74
     0
 49
-0.5
 74
     0
  0
LTYPE
  5
29
100
AcDbSymbolTableRecord
100
AcDbLinetypeTableRecord
  2
DASHED
 70
     0
  3
__ __ __ __ __ __ __ __ __ __ __ __ __ __ __ __
 72
    65
 73
     2
 40
0.75
 49
0.5
 74
     0
 49
-0.25
 74
     0
  0
LTYPE
  5
2A
100
AcDbSymbolTableRecord
100
AcDbLinetypeTableRecord
  2
DASHED2
 70
     0
  3
_ _ _ _ _ _ _ _ _ _ _ _ _ _ _ _ _ _ _ _ _ _ _ _
 72
    65
 73
     2
 40
0.375
 49
0.25
 74
     0
 49
-0.125
 74
     0
  0
LTYPE
  5
2B
100
AcDbSymbolTableRecord
100
AcDbLinetypeTableRecord
  2
DASHEDX2
 70
     0
  3
____  ____  ____  ____  ____  ____  ____  ____ 
 72
    65
 73
     2
 40
1.5
 49
1.0
 74
     0
 49
-0.5
 74
     0
  0
LTYPE
  5
2C
100
AcDbSymbolTableRecord
100
AcDbLinetypeTableRecord
  2
DIVIDE
 70
     0
  3
____ . . ____ . . ____ . . ____ . . ____ . . __
 72
    65
 73
     6
 40
1.25
 49
0.5
 74
     0
 49
-0.25
 74
     0
 49
0.0
 74
     0
 49
-0.25
 74
     0
 49
0.0
 74
     0
 49
-0.25
 74
     0
  0
LTYPE
  5
2D
100
AcDbSymbolTableRecord
100
AcDbLinetypeTableRecord
  2
DIVIDE2
 70
     0
  3
__..__..__..__..__..__..__..__..__..__..__..__.
 72
    65
 73
     6
 40
0.625
 49
0.25
 74
     0
 49
-0.125
 74
     0
 49
0.0
 74
     0
 49
-0.125
 74
     0
 49
0.0
 74
     0
 49
-0.125
 74
     0
  0
LTYPE
  5
2E
100
AcDbSymbolTableRecord
100
AcDbLinetypeTableRecord
  2
DIVIDEX2
 70
     0
  3
________  .  .  ________  .  .  ________  .  . 
 72
    65
 73
     6
 40
2.5
 49
1.0
 74
     0
 49
-0.5
 74
     0
 49
0.0
 74
     0
 49
-0.5
 74
     0
 49
0.0
 74
     0
 49
-0.5
 74
     0
  0
LTYPE
  5
2F
100
AcDbSymbolTableRecord
100
AcDbLinetypeTableRecord
  2
DOT
 70
     0
  3
. . . . . . . . . . . . . . . . . . . . . . . .
 72
    65
 73
     2
 40
0.25
 49
0.0
 74
     0
 49
-0.25
 74
     0
  0
LTYPE
  5
30
100
AcDbSymbolTableRecord
100
AcDbLinetypeTableRecord
  2
DOT2
 70
     0
  3
...............................................
 72
    65
 73
     2
 40
0.125
 49
0.0
 74
     0
 49
-0.125
 74
     0
  0
LTYPE
  5
31
100
AcDbSymbolTableRecord
100
AcDbLinetypeTableRecord
  2
DOTX2
 70
     0
  3
.  .  .  .  .  .  .  .  .  .  .  .  .  .  .  . 
 72
    65
 73
     2
 40
0.5
 49
0.0
 74
     0
 49
-0.5
 74
     0
  0
LTYPE
  5
32
100
AcDbSymbolTableRecord
100
AcDbLinetypeTableRecord
  2
HIDDEN
 70
     0
  3
__ __ __ __ __ __ __ __ __ __ __ __ __ __ __ __
 72
    65
 73
     2
 40
0.375
 49
0.25
 74
     0
 49
-0.125
 74
     0
  0
LTYPE
  5
33
100
AcDbSymbolTableRecord
100
AcDbLinetypeTableRecord
  2
HIDDEN2
 70
     0
  3
_ _ _ _ _ _ _ _ _ _ _ _ _ _ _ _ _ _ _ _ _ _ _ _
 72
    65
 73
     2
 40
0.1875
 49
0.125
 74
     0
 49
-0.0625
 74
     0
  0
LTYPE
  5
34
100
AcDbSymbolTableRecord
100
AcDbLinetypeTableRecord
  2
HIDDENX2
 70
     0
  3
____ ____ ____ ____ ____ ____ ____ ____ ____ __
 72
    65
 73
     2
 40
0.75
 49
0.5
 74
     0
 49
-0.25
 74
     0
  0
LTYPE
  5
35
100
AcDbSymbolTableRecord
100
AcDbLinetypeTableRecord
  2
PHANTOM
 70
     0
  3
______  __  __  ______  __  __  ______  __  __ 
 72
    65
 73
     6
 40
2.5
 49
1.25
 74
     0
 49
-0.25
 74
     0
 49
0.25
 74
     0
 49
-0.25
 74
     0
 49
0.25
 74
     0
 49
-0.25
 74
     0
  0
LTYPE
  5
36
100
AcDbSymbolTableRecord
100
AcDbLinetypeTableRecord
  2
PHANTOM2
 70
     0
  3
___ _ _ ___ _ _ ___ _ _ ___ _ _ ___ _ _ ___ _ _
 72
    65
 73
     6
 40
1.25
 49
0.625
 74
     0
 49
-0.125
 74
     0
 49
0.125
 74
     0
 49
-0.125
 74
     0
 49
0.125
 74
     0
 49
-0.125
 74
     0
  0
LTYPE
  5
37
100
AcDbSymbolTableRecord
100
AcDbLinetypeTableRecord
  2
PHANTOMX2
 70
     0
  3
____________    ____    ____    ____________   
 72
    65
 73
     6
 40
5.0
 49
2.5
 74
     0
 49
-0.5
 74
     0
 49
0.5
 74
     0
 49
-0.5
 74
     0
 49
0.5
 74
     0
 49
-0.5
 74
     0
  0
ENDTAB
   0
TABLE
   2
LAYER
   5
2
 100
AcDbSymbolTable
  70
2
   0
LAYER
   5
E
 100
AcDbSymbolTableRecord
 100
AcDbLayerTableRecord
   2
0
  70
0
  62
7
   6
CONTINUOUS
 390
30
   0
LAYER
   5
39
 100
AcDbSymbolTableRecord
 100
AcDbLayerTableRecord
   2
LEVEL001
  70
0
  62
7
   6
CONTINUOUS
 390
30
   0
ENDTAB
  0
TABLE
  2
STYLE
  5
3
100
AcDbSymbolTable
  70
3
  0
STYLE
  5
F
100
AcDbSymbolTableRecord
100
AcDbTextStyleTableRecord
  2
STANDARD
 70
     0
 40
0.0
 41
1.0
 50
0.0
 71
     0
 42
0.2
  3
TXT
  4
BIGFONT
  0
STYLE
  5
38
100
AcDbSymbolTableRecord
100
AcDbTextStyleTableRecord
  2
STANDARD1
 70
     4
 40
0.0
 41
1.0
 50
0.0
 71
     0
 42
0.2
  3
TXT
  4
BIGFONT
   0
STYLE
   5
3A
 100
AcDbSymbolTableRecord
 100
AcDbTextStyleTableRecord
   2
GMM001
  70
0
  40
0.0
  41
 1.0000000000000
  50
0.0
  71
     0
  42
1.0
   3
txt.shx
   4
bigfont.shx
   0
ENDTAB
  0
TABLE
  2
VIEW
  5
6
100
AcDbSymbolTable
 70
     0
  0
ENDTAB
  0
TABLE
  2
UCS
  5
7
100
AcDbSymbolTable
 70
     0
  0
ENDTAB
  0
TABLE
  2
APPID
  5
9
100
AcDbSymbolTable
 70
     1
  0
APPID
  5
10
100
AcDbSymbolTableRecord
100
AcDbRegAppTableRecord
  2
ACAD
 70
     0
  0
ENDTAB
   0
TABLE
   2
DIMSTYLE
   5
A
 100
AcDbSymbolTable
  70
6
 100
AcDbDimStyleTable
  0
DIMSTYLE
105
1D
100
AcDbSymbolTableRecord
100
AcDbDimStyleTableRecord
  2
STANDARD
 70
     0
  3

  4

  5

  6

  7

 40
1.0
 41
0.18
 42
0.0625
 43
0.38
 44
0.18
 45
0.0
 46
0.0
 47
0.0
 48
0.0
140
0.18
141
0.09
142
0.0
143
25.4
144
1.0
145
0.0
146
1.0
147
0.09
 71
     0
 72
     0
 73
     1
 74
     1
 75
     0
 76
     0
 77
     0
 78
     0
170
     0
171
     2
172
     0
173
     0
174
     0
175
     0
176
     0
177
     0
178
     0
270
     2
271
     4
272
     4
273
     2
274
     2
340
F
275
     0
280
     0
281
     0
282
     0
283
     1
284
     0
285
     0
286
     0
287
     3
288
     0
   0
DIMSTYLE
 105
3B
 100
AcDbSymbolTableRecord
 100
AcDbDimStyleTableRecord
   2
GMM001
  70
0
   3

   4

   5

   6
_OPEN30
   7
_OPEN30
  40
 1.0000000000000
  41
 3.0000000000000
  42
 0.50000000000000
  43
 8.0000000000000
  44
 1.0000000000000
  45
0.0
  46
0.0
  47
0.0
  48
0.0
 140
 4.0000000000000
 141
 1.0000000000000
 142
0.0
 143
 0.39400000000000E-1
 144
 1.0000000000000
 145
0.0
 146
 0.62500000000000
 147
 1.7142857142857
  71
0
  72
0
  73
0
  74
0
  75
0
  76
0
  77
3
  78
8
 170
0
 171
2
 172
1
 173
1
 174
0
 175
0
 176
3
 177
3
 178
3
 270
2
 271
6
 272
0
 273
2
 274
2
 340
3A
 275
0
 280
0
 281
0
 282
0
 283
1
 284
0
 285
0
 286
0
 287
3
 288
0
   0
DIMSTYLE
 105
3C
 100
AcDbSymbolTableRecord
 100
AcDbDimStyleTableRecord
   2
GMM002
  70
0
   3
R<>
   4

   5

   6
_NONE
   7
_OPEN30
  40
 1.0000000000000
  41
 3.0000000000000
  42
 0.50000000000000
  43
 8.0000000000000
  44
 1.0000000000000
  45
0.0
  46
0.0
  47
0.0
  48
0.0
 140
 4.0000000000000
 141
 1.0000000000000
 142
0.0
 143
 0.39400000000000E-1
 144
 1.0000000000000
 145
0.0
 146
 0.62500000000000
 147
 1.7142857142857
  71
0
  72
0
  73
0
  74
0
  75
0
  76
0
  77
3
  78
8
 170
0
 171
2
 172
1
 173
1
 174
0
 175
0
 176
3
 177
3
 178
3
 270
2
 271
6
 272
0
 273
2
 274
2
 340
3A
 275
0
 280
0
 281
0
 282
0
 283
1
 284
0
 285
0
 286
0
 287
3
 288
1
   0
DIMSTYLE
 105
3D
 100
AcDbSymbolTableRecord
 100
AcDbDimStyleTableRecord
   2
GMM003
  70
0
   3
t<>
   4

   5

   6
_OPEN30
   7
_OPEN30
  40
 1.0000000000000
  41
 3.0000000000000
  42
 0.50000000000000
  43
 8.0000000000000
  44
 1.0000000000000
  45
0.0
  46
0.0
  47
0.0
  48
0.0
 140
 4.0000000000000
 141
 1.0000000000000
 142
0.0
 143
 0.39400000000000E-1
 144
 1.0000000000000
 145
0.0
 146
 0.62500000000000
 147
 1.9526983101231
  71
0
  72
0
  73
0
  74
0
  75
0
  76
0
  77
3
  78
8
 170
0
 171
2
 172
1
 173
1
 174
0
 175
0
 176
3
 177
3
 178
3
 270
2
 271
6
 272
0
 273
2
 274
2
 340
3A
 275
0
 280
0
 281
0
 282
0
 283
1
 284
0
 285
0
 286
0
 287
3
 288
1
   0
DIMSTYLE
 105
3E
 100
AcDbSymbolTableRecord
 100
AcDbDimStyleTableRecord
   2
GMM004
  70
0
   3
%%c<>
   4

   5

   6
_OPEN30
   7
_OPEN30
  40
 1.0000000000000
  41
 3.0000000000000
  42
 0.50000000000000
  43
 8.0000000000000
  44
 1.0000000000000
  45
0.0
  46
0.0
  47
0.0
  48
0.0
 140
 4.0000000000000
 141
 1.0000000000000
 142
0.0
 143
 0.39400000000000E-1
 144
 1.0000000000000
 145
0.0
 146
 0.62500000000000
 147
 1.7142857142857
  71
0
  72
0
  73
0
  74
0
  75
0
  76
0
  77
3
  78
8
 170
0
 171
2
 172
1
 173
1
 174
0
 175
0
 176
3
 177
3
 178
3
 270
2
 271
6
 272
0
 273
2
 274
2
 340
3A
 275
0
 280
0
 281
0
 282
0
 283
1
 284
0
 285
0
 286
0
 287
3
 288
0
   0
ENDTAB
  0
TABLE
  2
BLOCK_RECORD
  5
1
100
AcDbSymbolTable
 70
     0
  0
BLOCK_RECORD
  5
18
100
AcDbSymbolTableRecord
100
AcDbBlockTableRecord
  2
*MODEL_SPACE
  0
BLOCK_RECORD
  5
15
100
AcDbSymbolTableRecord
100
AcDbBlockTableRecord
  2
*PAPER_SPACE
   0
BLOCK_RECORD
   5
3F
 100
AcDbSymbolTableRecord
 100
AcDbBlockTableRecord
   2
*D1
   0
BLOCK_RECORD
   5
40
 100
AcDbSymbolTableRecord
 100
AcDbBlockTableRecord
   2
*D2
   0
BLOCK_RECORD
   5
41
 100
AcDbSymbolTableRecord
 100
AcDbBlockTableRecord
   2
*D3
   0
BLOCK_RECORD
   5
42
 100
AcDbSymbolTableRecord
 100
AcDbBlockTableRecord
   2
*D4
   0
BLOCK_RECORD
   5
43
 100
AcDbSymbolTableRecord
 100
AcDbBlockTableRecord
   2
*D5
   0
BLOCK_RECORD
   5
44
 100
AcDbSymbolTableRecord
 100
AcDbBlockTableRecord
   2
*D6
   0
BLOCK_RECORD
   5
45
 100
AcDbSymbolTableRecord
 100
AcDbBlockTableRecord
   2
*D7
   0
BLOCK_RECORD
   5
46
 100
AcDbSymbolTableRecord
 100
AcDbBlockTableRecord
   2
*D8
   0
BLOCK_RECORD
   5
47
 100
AcDbSymbolTableRecord
 100
AcDbBlockTableRecord
   2
*D9
   0
BLOCK_RECORD
   5
48
 100
AcDbSymbolTableRecord
 100
AcDbBlockTableRecord
   2
*D10
   0
BLOCK_RECORD
   5
49
 100
AcDbSymbolTableRecord
 100
AcDbBlockTableRecord
   2
*D11
   0
BLOCK_RECORD
   5
4A
 100
AcDbSymbolTableRecord
 100
AcDbBlockTableRecord
   2
*D12
   0
BLOCK_RECORD
   5
4B
 100
AcDbSymbolTableRecord
 100
AcDbBlockTableRecord
   2
*D13
   0
BLOCK_RECORD
   5
4C
 100
AcDbSymbolTableRecord
 100
AcDbBlockTableRecord
   2
*D14
   0
BLOCK_RECORD
   5
4D
 100
AcDbSymbolTableRecord
 100
AcDbBlockTableRecord
   2
*D15
   0
BLOCK_RECORD
   5
4E
 100
AcDbSymbolTableRecord
 100
AcDbBlockTableRecord
   2
*D16
   0
BLOCK_RECORD
   5
4F
 100
AcDbSymbolTableRecord
 100
AcDbBlockTableRecord
   2
*D17
   0
BLOCK_RECORD
   5
50
 100
AcDbSymbolTableRecord
 100
AcDbBlockTableRecord
   2
*D18
   0
BLOCK_RECORD
   5
51
 100
AcDbSymbolTableRecord
 100
AcDbBlockTableRecord
   2
*D19
   0
BLOCK_RECORD
   5
52
 100
AcDbSymbolTableRecord
 100
AcDbBlockTableRecord
   2
BLOCK001
   0
BLOCK_RECORD
   5
53
 100
AcDbSymbolTableRecord
 100
AcDbBlockTableRecord
   2
*D20
   0
BLOCK_RECORD
   5
54
 100
AcDbSymbolTableRecord
 100
AcDbBlockTableRecord
   2
_ARCHTICK
   0
BLOCK_RECORD
   5
55
 100
AcDbSymbolTableRecord
 100
AcDbBlockTableRecord
   2
_BOXBLANK
   0
BLOCK_RECORD
   5
56
 100
AcDbSymbolTableRecord
 100
AcDbBlockTableRecord
   2
_BOXFILLED
   0
BLOCK_RECORD
   5
57
 100
AcDbSymbolTableRecord
 100
AcDbBlockTableRecord
   2
_CLOSED
   0
BLOCK_RECORD
   5
58
 100
AcDbSymbolTableRecord
 100
AcDbBlockTableRecord
   2
_CLOSEDBLANK
   0
BLOCK_RECORD
   5
59
 100
AcDbSymbolTableRecord
 100
AcDbBlockTableRecord
   2
_DATUMBLANK
   0
BLOCK_RECORD
   5
5A
 100
AcDbSymbolTableRecord
 100
AcDbBlockTableRecord
   2
_DATUMFILLED
   0
BLOCK_RECORD
   5
5B
 100
AcDbSymbolTableRecord
 100
AcDbBlockTableRecord
   2
_DOT
   0
BLOCK_RECORD
   5
5C
 100
AcDbSymbolTableRecord
 100
AcDbBlockTableRecord
   2
_DOTBLANK
   0
BLOCK_RECORD
   5
5D
 100
AcDbSymbolTableRecord
 100
AcDbBlockTableRecord
   2
_DOTSMALL
   0
BLOCK_RECORD
   5
5E
 100
AcDbSymbolTableRecord
 100
AcDbBlockTableRecord
   2
_INTEGRAL
   0
BLOCK_RECORD
   5
5F
 100
AcDbSymbolTableRecord
 100
AcDbBlockTableRecord
   2
_NONE
   0
BLOCK_RECORD
   5
60
 100
AcDbSymbolTableRecord
 100
AcDbBlockTableRecord
   2
_OBLIQUE
   0
BLOCK_RECORD
   5
61
 100
AcDbSymbolTableRecord
 100
AcDbBlockTableRecord
   2
_OPEN
   0
BLOCK_RECORD
   5
62
 100
AcDbSymbolTableRecord
 100
AcDbBlockTableRecord
   2
_OPEN30
   0
BLOCK_RECORD
   5
63
 100
AcDbSymbolTableRecord
 100
AcDbBlockTableRecord
   2
_OPEN90
   0
BLOCK_RECORD
   5
64
 100
AcDbSymbolTableRecord
 100
AcDbBlockTableRecord
   2
_ORIGIN
   0
ENDTAB
   0
ENDSEC
  0
SECTION
  2
BLOCKS
  0
BLOCK
  5
19
100
AcDbEntity
  8
0
100
AcDbBlockBegin
  2
*MODEL_SPACE
 70
     0
 10
0.0
 20
0.0
 30
0.0
  3
*MODEL_SPACE
  1

  0
ENDBLK
  5
1A
100
AcDbEntity
  8
0
100
AcDbBlockEnd
  0
BLOCK
  5
16
100
AcDbEntity
 67
     1
  8
0
100
AcDbBlockBegin
  2
*PAPER_SPACE
 70
     0
 10
0.0
 20
0.0
 30
0.0
  3
*PAPER_SPACE
  1

  0
ENDBLK
  5
17
100
AcDbEntity
 67
     1
  8
0
100
AcDbBlockEnd
   0
BLOCK
   5
65
 100
AcDbEntity
   8
0
 100
AcDbBlockBegin
   2
_ARCHTICK
  70
0
  10
0.0
  20
0.0
  30
0.0
   3
_ARCHTICK
   0
POLYLINE
   5
66
 100
AcDbEntity
   8
0
   6
BYBLOCK
  62
0
 100
AcDb2dPolyline
  66
1
  10
0.0
  20
0.0
  30
0.0
  70
1
  40
 0.15000000000000
  41
 0.15000000000000
   0
VERTEX
   5
67
 100
AcDbEntity
   8
0
   6
BYBLOCK
  62
0
 100
AcDbVertex
 100
AcDb2dVertex
  10
-0.50000000000000
  20
-0.50000000000000
  30
0.0
  40
 0.15000000000000
  41
 0.15000000000000
   0
VERTEX
   5
68
 100
AcDbEntity
   8
0
   6
BYBLOCK
  62
0
 100
AcDbVertex
 100
AcDb2dVertex
  10
 0.50000000000000
  20
 0.50000000000000
  30
0.0
  40
 0.15000000000000
  41
 0.15000000000000
   0
SEQEND
   5
69
 100
AcDbEntity
   8
0
   6
BYBLOCK
  62
0
   0
ENDBLK
   5
6A
 100
AcDbEntity
   8
0
 100
AcDbBlockEnd
   0
BLOCK
   5
6B
 100
AcDbEntity
   8
0
 100
AcDbBlockBegin
   2
_OBLIQUE
  70
0
  10
0.0
  20
0.0
  30
0.0
   3
_OBLIQUE
   0
LINE
   5
6C
 100
AcDbEntity
   8
0
 100
AcDbLine
   6
BYBLOCK
  62
0
  10
-0.50000000000000
  20
-0.50000000000000
  30
0.0
  11
 0.50000000000000
  21
 0.50000000000000
  31
0.0
   0
ENDBLK
   5
6D
 100
AcDbEntity
   8
0
 100
AcDbBlockEnd
   0
BLOCK
   5
6E
 100
AcDbEntity
   8
0
 100
AcDbBlockBegin
   2
_BOXBLANK
  70
0
  10
0.0
  20
0.0
  30
0.0
   3
_BOXBLANK
   0
LINE
   5
6F
 100
AcDbEntity
   8
0
 100
AcDbLine
   6
BYBLOCK
  62
0
  10
-0.50000000000000
  20
-0.50000000000000
  30
0.0
  11
 0.50000000000000
  21
-0.50000000000000
  31
0.0
   0
LINE
   5
70
 100
AcDbEntity
   8
0
 100
AcDbLine
   6
BYBLOCK
  62
0
  10
 0.50000000000000
  20
-0.50000000000000
  30
0.0
  11
 0.50000000000000
  21
 0.50000000000000
  31
0.0
   0
LINE
   5
71
 100
AcDbEntity
   8
0
 100
AcDbLine
   6
BYBLOCK
  62
0
  10
 0.50000000000000
  20
 0.50000000000000
  30
0.0
  11
-0.50000000000000
  21
 0.50000000000000
  31
0.0
   0
LINE
   5
72
 100
AcDbEntity
   8
0
 100
AcDbLine
   6
BYBLOCK
  62
0
  10
-0.50000000000000
  20
 0.50000000000000
  30
0.0
  11
-0.50000000000000
  21
-0.50000000000000
  31
0.0
   0
LINE
   5
73
 100
AcDbEntity
   8
0
 100
AcDbLine
   6
BYBLOCK
  62
0
  10
-0.50000000000000
  20
0.0
  30
0.0
  11
-1.0000000000000
  21
0.0
  31
0.0
   0
ENDBLK
   5
74
 100
AcDbEntity
   8
0
 100
AcDbBlockEnd
   0
BLOCK
   5
75
 100
AcDbEntity
   8
0
 100
AcDbBlockBegin
   2
_BOXFILLED
  70
0
  10
0.0
  20
0.0
  30
0.0
   3
_BOXFILLED
   0
SOLID
   5
76
 100
AcDbEntity
   8
0
 100
AcDbTrace
   6
BYBLOCK
  62
0
  10
-0.50000000000000
  20
 0.50000000000000
  30
0.0
  11
 0.50000000000000
  21
 0.50000000000000
  31
0.0
  12
-0.50000000000000
  22
-0.50000000000000
  32
0.0
  13
 0.50000000000000
  23
-0.50000000000000
  33
0.0
   0
LINE
   5
77
 100
AcDbEntity
   8
0
 100
AcDbLine
   6
BYBLOCK
  62
0
  10
-0.50000000000000
  20
0.0
  30
0.0
  11
-1.0000000000000
  21
0.0
  31
0.0
   0
ENDBLK
   5
78
 100
AcDbEntity
   8
0
 100
AcDbBlockEnd
   0
BLOCK
   5
79
 100
AcDbEntity
   8
0
 100
AcDbBlockBegin
   2
_CLOSED
  70
0
  10
0.0
  20
0.0
  30
0.0
   3
_CLOSED
   0
LINE
   5
7A
 100
AcDbEntity
   8
0
 100
AcDbLine
   6
BYBLOCK
  62
0
  10
-1.0000000000000
  20
 0.16666666666667
  30
0.0
  11
0.0
  21
0.0
  31
0.0
   0
LINE
   5
7B
 100
AcDbEntity
   8
0
 100
AcDbLine
   6
BYBLOCK
  62
0
  10
0.0
  20
0.0
  30
0.0
  11
-1.0000000000000
  21
-0.16666666666667
  31
0.0
   0
LINE
   5
7C
 100
AcDbEntity
   8
0
 100
AcDbLine
   6
BYBLOCK
  62
0
  10
-1.0000000000000
  20
 0.16666666666667
  30
0.0
  11
-1.0000000000000
  21
-0.16666666666667
  31
0.0
   0
LINE
   5
7D
 100
AcDbEntity
   8
0
 100
AcDbLine
   6
BYBLOCK
  62
0
  10
0.0
  20
0.0
  30
0.0
  11
-1.0000000000000
  21
0.0
  31
0.0
   0
ENDBLK
   5
7E
 100
AcDbEntity
   8
0
 100
AcDbBlockEnd
   0
BLOCK
   5
7F
 100
AcDbEntity
   8
0
 100
AcDbBlockBegin
   2
_OPEN
  70
0
  10
0.0
  20
0.0
  30
0.0
   3
_OPEN
   0
LINE
   5
80
 100
AcDbEntity
   8
0
 100
AcDbLine
   6
BYBLOCK
  62
0
  10
-1.0000000000000
  20
 0.16666666666667
  30
0.0
  11
0.0
  21
0.0
  31
0.0
   0
LINE
   5
81
 100
AcDbEntity
   8
0
 100
AcDbLine
   6
BYBLOCK
  62
0
  10
0.0
  20
0.0
  30
0.0
  11
-1.0000000000000
  21
-0.16666666666667
  31
0.0
   0
LINE
   5
82
 100
AcDbEntity
   8
0
 100
AcDbLine
   6
BYBLOCK
  62
0
  10
0.0
  20
0.0
  30
0.0
  11
-1.0000000000000
  21
0.0
  31
0.0
   0
ENDBLK
   5
83
 100
AcDbEntity
   8
0
 100
AcDbBlockEnd
   0
BLOCK
   5
84
 100
AcDbEntity
   8
0
 100
AcDbBlockBegin
   2
_OPEN30
  70
0
  10
0.0
  20
0.0
  30
0.0
   3
_OPEN30
   0
LINE
   5
85
 100
AcDbEntity
   8
0
 100
AcDbLine
   6
BYBLOCK
  62
0
  10
-1.0000000000000
  20
 0.26794919243110
  30
0.0
  11
0.0
  21
0.0
  31
0.0
   0
LINE
   5
86
 100
AcDbEntity
   8
0
 100
AcDbLine
   6
BYBLOCK
  62
0
  10
0.0
  20
0.0
  30
0.0
  11
-1.0000000000000
  21
-0.26794919243110
  31
0.0
   0
LINE
   5
87
 100
AcDbEntity
   8
0
 100
AcDbLine
   6
BYBLOCK
  62
0
  10
0.0
  20
0.0
  30
0.0
  11
-1.0000000000000
  21
0.0
  31
0.0
   0
ENDBLK
   5
88
 100
AcDbEntity
   8
0
 100
AcDbBlockEnd
   0
BLOCK
   5
89
 100
AcDbEntity
   8
0
 100
AcDbBlockBegin
   2
_OPEN90
  70
0
  10
0.0
  20
0.0
  30
0.0
   3
_OPEN90
   0
LINE
   5
8A
 100
AcDbEntity
   8
0
 100
AcDbLine
   6
BYBLOCK
  62
0
  10
-0.50000000000000
  20
 0.50000000000000
  30
0.0
  11
0.0
  21
0.0
  31
0.0
   0
LINE
   5
8B
 100
AcDbEntity
   8
0
 100
AcDbLine
   6
BYBLOCK
  62
0
  10
0.0
  20
0.0
  30
0.0
  11
-0.50000000000000
  21
-0.50000000000000
  31
0.0
   0
LINE
   5
8C
 100
AcDbEntity
   8
0
 100
AcDbLine
   6
BYBLOCK
  62
0
  10
0.0
  20
0.0
  30
0.0
  11
-1.0000000000000
  21
0.0
  31
0.0
   0
ENDBLK
   5
8D
 100
AcDbEntity
   8
0
 100
AcDbBlockEnd
   0
BLOCK
   5
8E
 100
AcDbEntity
   8
0
 100
AcDbBlockBegin
   2
_CLOSEDBLANK
  70
0
  10
0.0
  20
0.0
  30
0.0
   3
_CLOSEDBLANK
   0
LINE
   5
8F
 100
AcDbEntity
   8
0
 100
AcDbLine
   6
BYBLOCK
  62
0
  10
-1.0000000000000
  20
 0.16666666666667
  30
0.0
  11
0.0
  21
0.0
  31
0.0
   0
LINE
   5
90
 100
AcDbEntity
   8
0
 100
AcDbLine
   6
BYBLOCK
  62
0
  10
0.0
  20
0.0
  30
0.0
  11
-1.0000000000000
  21
-0.16666666666667
  31
0.0
   0
LINE
   5
91
 100
AcDbEntity
   8
0
 100
AcDbLine
   6
BYBLOCK
  62
0
  10
-1.0000000000000
  20
 0.16666666666667
  30
0.0
  11
-1.0000000000000
  21
-0.16666666666667
  31
0.0
   0
ENDBLK
   5
92
 100
AcDbEntity
   8
0
 100
AcDbBlockEnd
   0
BLOCK
   5
93
 100
AcDbEntity
   8
0
 100
AcDbBlockBegin
   2
_DOT
  70
0
  10
0.0
  20
0.0
  30
0.0
   3
_DOT
   0
POLYLINE
   5
94
 100
AcDbEntity
   8
0
   6
BYBLOCK
  62
0
 100
AcDb2dPolyline
  66
1
  10
0.0
  20
0.0
  30
0.0
  70
1
  40
 0.50000000000000
  41
 0.50000000000000
   0
VERTEX
   5
95
 100
AcDbEntity
   8
0
   6
BYBLOCK
  62
0
 100
AcDbVertex
 100
AcDb2dVertex
  10
-0.25000000000000
  20
0.0
  30
0.0
  42
 1.0000000000000
  40
 0.50000000000000
  41
 0.50000000000000
   0
VERTEX
   5
96
 100
AcDbEntity
   8
0
   6
BYBLOCK
  62
0
 100
AcDbVertex
 100
AcDb2dVertex
  10
 0.25000000000000
  20
0.0
  30
0.0
  42
 1.0000000000000
  40
 0.50000000000000
  41
 0.50000000000000
   0
SEQEND
   5
97
 100
AcDbEntity
   8
0
   6
BYBLOCK
  62
0
   0
LINE
   5
98
 100
AcDbEntity
   8
0
 100
AcDbLine
   6
BYBLOCK
  62
0
  10
-0.50000000000000
  20
0.0
  30
0.0
  11
-1.0000000000000
  21
0.0
  31
0.0
   0
ENDBLK
   5
99
 100
AcDbEntity
   8
0
 100
AcDbBlockEnd
   0
BLOCK
   5
9A
 100
AcDbEntity
   8
0
 100
AcDbBlockBegin
   2
_DOTSMALL
  70
0
  10
0.0
  20
0.0
  30
0.0
   3
_DOTSMALL
   0
POLYLINE
   5
9B
 100
AcDbEntity
   8
0
   6
BYBLOCK
  62
0
 100
AcDb2dPolyline
  66
1
  10
0.0
  20
0.0
  30
0.0
  70
1
  40
 0.50000000000000
  41
 0.50000000000000
   0
VERTEX
   5
9C
 100
AcDbEntity
   8
0
   6
BYBLOCK
  62
0
 100
AcDbVertex
 100
AcDb2dVertex
  10
-0.62500000000000E-1
  20
0.0
  30
0.0
  42
 1.0000000000000
  40
 0.50000000000000
  41
 0.50000000000000
   0
VERTEX
   5
9D
 100
AcDbEntity
   8
0
   6
BYBLOCK
  62
0
 100
AcDbVertex
 100
AcDb2dVertex
  10
 0.62500000000000E-1
  20
0.0
  30
0.0
  42
 1.0000000000000
  40
 0.50000000000000
  41
 0.50000000000000
   0
SEQEND
   5
9E
 100
AcDbEntity
   8
0
   6
BYBLOCK
  62
0
   0
ENDBLK
   5
9F
 100
AcDbEntity
   8
0
 100
AcDbBlockEnd
   0
BLOCK
   5
A0
 100
AcDbEntity
   8
0
 100
AcDbBlockBegin
   2
_DATUMBLANK
  70
0
  10
0.0
  20
0.0
  30
0.0
   3
_DATUMBLANK
   0
LINE
   5
A1
 100
AcDbEntity
   8
0
 100
AcDbLine
   6
BYBLOCK
  62
0
  10
0.0
  20
 0.57735027000000
  30
0.0
  11
-1.0000000000000
  21
0.0
  31
0.0
   0
LINE
   5
A2
 100
AcDbEntity
   8
0
 100
AcDbLine
   6
BYBLOCK
  62
0
  10
-1.0000000000000
  20
0.0
  30
0.0
  11
0.0
  21
-0.57735027000000
  31
0.0
   0
LINE
   5
A3
 100
AcDbEntity
   8
0
 100
AcDbLine
   6
BYBLOCK
  62
0
  10
0.0
  20
-0.57735027000000
  30
0.0
  11
0.0
  21
 0.57735027000000
  31
0.0
   0
ENDBLK
   5
A4
 100
AcDbEntity
   8
0
 100
AcDbBlockEnd
   0
BLOCK
   5
A5
 100
AcDbEntity
   8
0
 100
AcDbBlockBegin
   2
_DATUMFILLED
  70
0
  10
0.0
  20
0.0
  30
0.0
   3
_DATUMFILLED
   0
SOLID
   5
A6
 100
AcDbEntity
   8
0
 100
AcDbTrace
   6
BYBLOCK
  62
0
  10
0.0
  20
 0.57735027000000
  30
0.0
  11
-1.0000000000000
  21
0.0
  31
0.0
  12
0.0
  22
-0.57735027000000
  32
0.0
  13
0.0
  23
-0.57735027000000
  33
0.0
   0
ENDBLK
   5
A7
 100
AcDbEntity
   8
0
 100
AcDbBlockEnd
   0
BLOCK
   5
A8
 100
AcDbEntity
   8
0
 100
AcDbBlockBegin
   2
_ORIGIN
  70
0
  10
0.0
  20
0.0
  30
0.0
   3
_ORIGIN
   0
CIRCLE
   5
A9
 100
AcDbEntity
   8
0
 100
AcDbCircle
   6
BYBLOCK
  62
0
  10
0.0
  20
0.0
  30
0.0
  40
 0.50000000000000
   0
LINE
   5
AA
 100
AcDbEntity
   8
0
 100
AcDbLine
   6
BYBLOCK
  62
0
  10
0.0
  20
0.0
  30
0.0
  11
-1.0000000000000
  21
0.0
  31
0.0
   0
ENDBLK
   5
AB
 100
AcDbEntity
   8
0
 100
AcDbBlockEnd
   0
BLOCK
   5
AC
 100
AcDbEntity
   8
0
 100
AcDbBlockBegin
   2
_NONE
  70
0
  10
0.0
  20
0.0
  30
0.0
   3
_NONE
   0
CIRCLE
   5
AD
 100
AcDbEntity
   8
0
 100
AcDbCircle
   6
BYBLOCK
  62
0
  10
0.0
  20
0.0
  30
0.0
  40
 0.25000000000000
   0
ENDBLK
   5
AE
 100
AcDbEntity
   8
0
 100
AcDbBlockEnd
   0
BLOCK
   5
AF
 100
AcDbEntity
   8
0
 100
AcDbBlockBegin
   2
_DOTBLANK
  70
0
  10
0.0
  20
0.0
  30
0.0
   3
_DOTBLANK
   0
CIRCLE
   5
B0
 100
AcDbEntity
   8
0
 100
AcDbCircle
   6
BYBLOCK
  62
0
  10
0.0
  20
0.0
  30
0.0
  40
 0.50000000000000
   0
LINE
   5
B1
 100
AcDbEntity
   8
0
 100
AcDbLine
   6
BYBLOCK
  62
0
  10
-0.50000000000000
  20
0.0
  30
0.0
  11
-1.0000000000000
  21
0.0
  31
0.0
   0
ENDBLK
   5
B2
 100
AcDbEntity
   8
0
 100
AcDbBlockEnd
   0
BLOCK
   5
B3
 100
AcDbEntity
   8
0
 100
AcDbBlockBegin
   2
_INTEGRAL
  70
0
  10
0.0
  20
0.0
  30
0.0
   3
_INTEGRAL
   0
ARC
   5
B4
 100
AcDbEntity
   8
0
   6
BYBLOCK
  62
0
 100
AcDbCircle
  10
 0.44488800000000
  20
-0.91335000000000E-1
  30
0.0
  40
 0.45416700000000
 100
AcDbArc
  50
 102.00000000000
  51
 168.00000000000
   0
ARC
   5
B5
 100
AcDbEntity
   8
0
   6
BYBLOCK
  62
0
 100
AcDbCircle
  10
-0.44488800000000
  20
 0.91335000000000E-1
  30
0.0
  40
 0.45416700000000
 100
AcDbArc
  50
 282.00000000000
  51
 348.00000000000
   0
ENDBLK
   5
B6
 100
AcDbEntity
   8
0
 100
AcDbBlockEnd
   0
BLOCK
   5
B7
 100
AcDbEntity
   8
0
 100
AcDbBlockBegin
   2
*D1
  70
65
  10
0.0
  20
0.0
  30
0.0
   3
*D1
   0
LINE
   5
B8
 100
AcDbEntity
   8
LEVEL001
 100
AcDbLine
   6
CONTINUOUS
  62
3
  10
 74.239283377665
  20
 188.29490635211
  30
0.0
  11
 59.358460865501
  21
 188.29490635211
  31
0.0
   0
LINE
   5
B9
 100
AcDbEntity
   8
LEVEL001
 100
AcDbLine
   6
CONTINUOUS
  62
3
  10
 74.239283377671
  20
 214.79490635211
  30
0.0
  11
 59.358460865501
  21
 214.79490635211
  31
0.0
   0
LINE
   5
BA
 100
AcDbEntity
   8
LEVEL001
 100
AcDbLine
   6
CONTINUOUS
  62
3
  10
 60.358460865501
  20
 188.29490635211
  30
0.0
  11
 60.358460865501
  21
 201.54490635211
  31
0.0
   0
LINE
   5
BB
 100
AcDbEntity
   8
LEVEL001
 100
AcDbLine
   6
CONTINUOUS
  62
3
  10
 60.358460865501
  20
 214.79490635211
  30
0.0
  11
 60.358460865501
  21
 201.54490635211
  31
0.0
   0
INSERT
   5
BC
 100
AcDbEntity
   8
LEVEL001
   6
CONTINUOUS
  62
3
 100
AcDbBlockReference
   2
_OPEN30
  10
 60.358460865501
  20
 188.29490635211
  30
0.0
  41
 3.0000000000000
  42
 3.0000000000000
  43
 3.0000000000000
  50
 270.00000000000
   0
INSERT
   5
BD
 100
AcDbEntity
   8
LEVEL001
   6
CONTINUOUS
  62
3
 100
AcDbBlockReference
   2
_OPEN30
  10
 60.358460865501
  20
 214.79490635211
  30
0.0
  41
 3.0000000000000
  42
 3.0000000000000
  43
 3.0000000000000
  50
 90.000000000000
   0
MTEXT
   5
BE
 100
AcDbEntity
   8
LEVEL001
  62
3
 100
AcDbMText
  10
 58.644175151216
  20
 201.54490635211
  30
0.0
  40
 4.0000000000000
  41
0.0
  71
8
  72
1
   1
\A1;26.5
   7
GMM001
  11
0.0
  21
 1.0000000000000
  31
0.0
   0
ENDBLK
   5
BF
 100
AcDbEntity
   8
0
 100
AcDbBlockEnd
   0
BLOCK
   5
C0
 100
AcDbEntity
   8
0
 100
AcDbBlockBegin
   2
*D2
  70
65
  10
0.0
  20
0.0
  30
0.0
   3
*D2
   0
LINE
   5
C1
 100
AcDbEntity
   8
LEVEL001
 100
AcDbLine
   6
CONTINUOUS
  62
3
  10
 100.73928337767
  20
 190.29490635211
  30
0.0
  11
 101.48014185413
  21
 189.62324518913
  31
0.0
   0
LINE
   5
C2
 100
AcDbEntity
   8
LEVEL001
 100
AcDbLine
   6
CONTINUOUS
  62
3
  10
 101.48014185413
  20
 189.62324518913
  30
0.0
  11
 110.03167503731
  21
 181.87043826907
  31
0.0
   0
INSERT
   5
C3
 100
AcDbEntity
   8
LEVEL001
   6
CONTINUOUS
  62
3
 100
AcDbBlockReference
   2
_OPEN30
  10
 102.22100033059
  20
 188.95158402615
  30
0.0
  41
 3.0000000000000
  42
 3.0000000000000
  43
 3.0000000000000
  50
 137.80459602277
   0
MTEXT
   5
C4
 100
AcDbEntity
   8
LEVEL001
  62
3
 100
AcDbMText
  10
 105.25622636216
  20
 188.51377067542
  30
0.0
  40
 4.0000000000000
  41
0.0
  71
7
  72
1
   1
\A1;R2
   7
GMM001
  11
 0.74085847646064
  21
-0.67166116298057
  31
0.0
   0
ENDBLK
   5
C5
 100
AcDbEntity
   8
0
 100
AcDbBlockEnd
   0
BLOCK
   5
C6
 100
AcDbEntity
   8
0
 100
AcDbBlockBegin
   2
*D3
  70
65
  10
0.0
  20
0.0
  30
0.0
   3
*D3
   0
LINE
   5
C7
 100
AcDbEntity
   8
LEVEL001
 100
AcDbLine
   6
CONTINUOUS
  62
3
  10
 100.73928337767
  20
 212.79490635211
  30
0.0
  11
 101.48365453193
  21
 213.46267246738
  31
0.0
   0
LINE
   5
C8
 100
AcDbEntity
   8
LEVEL001
 100
AcDbLine
   6
CONTINUOUS
  62
3
  10
 101.48365453193
  20
 213.46267246738
  30
0.0
  11
 110.89531771102
  21
 221.90575858550
  31
0.0
   0
INSERT
   5
C9
 100
AcDbEntity
   8
LEVEL001
   6
CONTINUOUS
  62
3
 100
AcDbBlockReference
   2
_OPEN30
  10
 102.22802568619
  20
 214.13043858264
  30
0.0
  41
 3.0000000000000
  42
 3.0000000000000
  43
 3.0000000000000
  50
 221.89488575602
   0
MTEXT
   5
CA
 100
AcDbEntity
   8
LEVEL001
  62
3
 100
AcDbMText
  10
 103.79560656502
  20
 217.83969449925
  30
0.0
  40
 4.0000000000000
  41
0.0
  71
7
  72
1
   1
\A1;R2
   7
GMM001
  11
 0.74437115426443
  21
 0.66776611526720
  31
0.0
   0
ENDBLK
   5
CB
 100
AcDbEntity
   8
0
 100
AcDbBlockEnd
   0
BLOCK
   5
CC
 100
AcDbEntity
   8
0
 100
AcDbBlockBegin
   2
*D4
  70
65
  10
0.0
  20
0.0
  30
0.0
   3
*D4
   0
LINE
   5
CD
 100
AcDbEntity
   8
LEVEL001
 100
AcDbLine
   6
CONTINUOUS
  62
3
  10
 237.23928337767
  20
 211.79490635211
  30
0.0
  11
 248.92334210513
  21
 211.79490635211
  31
0.0
   0
LINE
   5
CE
 100
AcDbEntity
   8
LEVEL001
 100
AcDbLine
   6
CONTINUOUS
  62
3
  10
 237.23928337767
  20
 209.79490635211
  30
0.0
  11
 248.92334210513
  21
 209.79490635211
  31
0.0
   0
LINE
   5
CF
 100
AcDbEntity
   8
LEVEL001
 100
AcDbLine
   6
CONTINUOUS
  62
3
  10
 247.92334210513
  20
 215.54490635211
  30
0.0
  11
 247.92334210513
  21
 210.79490635211
  31
0.0
   0
LINE
   5
D0
 100
AcDbEntity
   8
LEVEL001
 100
AcDbLine
   6
CONTINUOUS
  62
3
  10
 247.92334210513
  20
 200.63642836012
  30
0.0
  11
 247.92334210513
  21
 210.79490635211
  31
0.0
   0
INSERT
   5
D1
 100
AcDbEntity
   8
LEVEL001
   6
CONTINUOUS
  62
3
 100
AcDbBlockReference
   2
_OPEN30
  10
 247.92334210513
  20
 211.79490635211
  30
0.0
  41
 3.0000000000000
  42
 3.0000000000000
  43
 3.0000000000000
  50
 270.00000000000
   0
INSERT
   5
D2
 100
AcDbEntity
   8
LEVEL001
   6
CONTINUOUS
  62
3
 100
AcDbBlockReference
   2
_OPEN30
  10
 247.92334210513
  20
 209.79490635211
  30
0.0
  41
 3.0000000000000
  42
 3.0000000000000
  43
 3.0000000000000
  50
 90.000000000000
   0
MTEXT
   5
D3
 100
AcDbEntity
   8
LEVEL001
  62
3
 100
AcDbMText
  10
 245.97064379501
  20
 208.63642836012
  30
0.0
  40
 4.0000000000000
  41
0.0
  71
9
  72
1
   1
\A1;t2
   7
GMM001
  11
0.0
  21
 1.0000000000000
  31
0.0
   0
ENDBLK
   5
D4
 100
AcDbEntity
   8
0
 100
AcDbBlockEnd
   0
BLOCK
   5
D5
 100
AcDbEntity
   8
0
 100
AcDbBlockBegin
   2
*D5
  70
65
  10
0.0
  20
0.0
  30
0.0
   3
*D5
   0
LINE
   5
D6
 100
AcDbEntity
   8
LEVEL001
 100
AcDbLine
   6
CONTINUOUS
  62
3
  10
 236.73928337767
  20
 212.29490635211
  30
0.0
  11
 236.73928337767
  21
 232.39800124520
  31
0.0
   0
LINE
   5
D7
 100
AcDbEntity
   8
LEVEL001
 100
AcDbLine
   6
CONTINUOUS
  62
3
  10
 88.739283377665
  20
 231.39800124520
  30
0.0
  11
 162.73928337767
  21
 231.39800124520
  31
0.0
   0
LINE
   5
D8
 100
AcDbEntity
   8
LEVEL001
 100
AcDbLine
   6
CONTINUOUS
  62
3
  10
 236.73928337767
  20
 231.39800124520
  30
0.0
  11
 162.73928337767
  21
 231.39800124520
  31
0.0
   0
INSERT
   5
D9
 100
AcDbEntity
   8
LEVEL001
   6
CONTINUOUS
  62
3
 100
AcDbBlockReference
   2
_OPEN30
  10
 88.739283377665
  20
 231.39800124520
  30
0.0
  41
 3.0000000000000
  42
 3.0000000000000
  43
 3.0000000000000
  50
 180.00000000000
   0
INSERT
   5
DA
 100
AcDbEntity
   8
LEVEL001
   6
CONTINUOUS
  62
3
 100
AcDbBlockReference
   2
_OPEN30
  10
 236.73928337767
  20
 231.39800124520
  30
0.0
  41
 3.0000000000000
  42
 3.0000000000000
  43
 3.0000000000000
  50
0.0
   0
MTEXT
   5
DB
 100
AcDbEntity
   8
LEVEL001
  62
3
 100
AcDbMText
  10
 162.73928337767
  20
 233.11228695948
  30
0.0
  40
 4.0000000000000
  41
0.0
  71
8
  72
1
   1
\A1;148
   7
GMM001
   0
ENDBLK
   5
DC
 100
AcDbEntity
   8
0
 100
AcDbBlockEnd
   0
BLOCK
   5
DD
 100
AcDbEntity
   8
0
 100
AcDbBlockBegin
   2
*D6
  70
65
  10
0.0
  20
0.0
  30
0.0
   3
*D6
   0
LINE
   5
DE
 100
AcDbEntity
   8
LEVEL001
 100
AcDbLine
   6
CONTINUOUS
  62
3
  10
 74.739283377671
  20
 215.29490635211
  30
0.0
  11
 74.739283377671
  21
 232.39800124520
  31
0.0
   0
LINE
   5
DF
 100
AcDbEntity
   8
LEVEL001
 100
AcDbLine
   6
CONTINUOUS
  62
3
  10
 88.739283377665
  20
 223.63217528812
  30
0.0
  11
 88.739283377665
  21
 232.39800124520
  31
0.0
   0
LINE
   5
E0
 100
AcDbEntity
   8
LEVEL001
 100
AcDbLine
   6
CONTINUOUS
  62
3
  10
 74.739283377671
  20
 231.39800124520
  30
0.0
  11
 81.739283377668
  21
 231.39800124520
  31
0.0
   0
LINE
   5
E1
 100
AcDbEntity
   8
LEVEL001
 100
AcDbLine
   6
CONTINUOUS
  62
3
  10
 88.739283377665
  20
 231.39800124520
  30
0.0
  11
 81.739283377668
  21
 231.39800124520
  31
0.0
   0
INSERT
   5
E2
 100
AcDbEntity
   8
LEVEL001
   6
CONTINUOUS
  62
3
 100
AcDbBlockReference
   2
_OPEN30
  10
 74.739283377671
  20
 231.39800124520
  30
0.0
  41
 3.0000000000000
  42
 3.0000000000000
  43
 3.0000000000000
  50
 180.00000000000
   0
INSERT
   5
E3
 100
AcDbEntity
   8
LEVEL001
   6
CONTINUOUS
  62
3
 100
AcDbBlockReference
   2
_OPEN30
  10
 88.739283377665
  20
 231.39800124520
  30
0.0
  41
 3.0000000000000
  42
 3.0000000000000
  43
 3.0000000000000
  50
0.0
   0
MTEXT
   5
E4
 100
AcDbEntity
   8
LEVEL001
  62
3
 100
AcDbMText
  10
 81.739283377668
  20
 233.11228695948
  30
0.0
  40
 4.0000000000000
  41
0.0
  71
8
  72
1
   1
\A1;14
   7
GMM001
   0
ENDBLK
   5
E5
 100
AcDbEntity
   8
0
 100
AcDbBlockEnd
   0
BLOCK
   5
E6
 100
AcDbEntity
   8
0
 100
AcDbBlockBegin
   2
*D7
  70
65
  10
0.0
  20
0.0
  30
0.0
   3
*D7
   0
LINE
   5
E7
 100
AcDbEntity
   8
LEVEL001
 100
AcDbLine
   6
CONTINUOUS
  62
3
  10
 74.739283377671
  20
 232.89800124520
  30
0.0
  11
 74.739283377671
  21
 240.88284580604
  31
0.0
   0
LINE
   5
E8
 100
AcDbEntity
   8
LEVEL001
 100
AcDbLine
   6
CONTINUOUS
  62
3
  10
 236.73928337767
  20
 232.89800124520
  30
0.0
  11
 236.73928337767
  21
 240.88284580604
  31
0.0
   0
LINE
   5
E9
 100
AcDbEntity
   8
LEVEL001
 100
AcDbLine
   6
CONTINUOUS
  62
3
  10
 74.739283377671
  20
 239.88284580604
  30
0.0
  11
 155.73928337767
  21
 239.88284580604
  31
0.0
   0
LINE
   5
EA
 100
AcDbEntity
   8
LEVEL001
 100
AcDbLine
   6
CONTINUOUS
  62
3
  10
 236.73928337767
  20
 239.88284580604
  30
0.0
  11
 155.73928337767
  21
 239.88284580604
  31
0.0
   0
INSERT
   5
EB
 100
AcDbEntity
   8
LEVEL001
   6
CONTINUOUS
  62
3
 100
AcDbBlockReference
   2
_OPEN30
  10
 74.739283377671
  20
 239.88284580604
  30
0.0
  41
 3.0000000000000
  42
 3.0000000000000
  43
 3.0000000000000
  50
 180.00000000000
   0
INSERT
   5
EC
 100
AcDbEntity
   8
LEVEL001
   6
CONTINUOUS
  62
3
 100
AcDbBlockReference
   2
_OPEN30
  10
 236.73928337767
  20
 239.88284580604
  30
0.0
  41
 3.0000000000000
  42
 3.0000000000000
  43
 3.0000000000000
  50
0.0
   0
MTEXT
   5
ED
 100
AcDbEntity
   8
LEVEL001
  62
3
 100
AcDbMText
  10
 155.73928337767
  20
 241.59713152033
  30
0.0
  40
 4.0000000000000
  41
0.0
  71
8
  72
1
   1
\A1;162
   7
GMM001
   0
ENDBLK
   5
EE
 100
AcDbEntity
   8
0
 100
AcDbBlockEnd
   0
BLOCK
   5
EF
 100
AcDbEntity
   8
0
 100
AcDbBlockBegin
   2
*D8
  70
65
  10
0.0
  20
0.0
  30
0.0
   3
*D8
   0
LINE
   5
F0
 100
AcDbEntity
   8
LEVEL001
 100
AcDbLine
   6
CONTINUOUS
  62
3
  10
 74.739283377665
  20
 187.79490635211
  30
0.0
  11
 74.739283377665
  21
 172.15190015869
  31
0.0
   0
LINE
   5
F1
 100
AcDbEntity
   8
LEVEL001
 100
AcDbLine
   6
CONTINUOUS
  62
3
  10
 102.73928337767
  20
 187.79490635211
  30
0.0
  11
 102.73928337767
  21
 172.15190015869
  31
0.0
   0
LINE
   5
F2
 100
AcDbEntity
   8
LEVEL001
 100
AcDbLine
   6
CONTINUOUS
  62
3
  10
 74.739283377665
  20
 173.15190015869
  30
0.0
  11
 88.739283377665
  21
 173.15190015869
  31
0.0
   0
LINE
   5
F3
 100
AcDbEntity
   8
LEVEL001
 100
AcDbLine
   6
CONTINUOUS
  62
3
  10
 102.73928337767
  20
 173.15190015869
  30
0.0
  11
 88.739283377665
  21
 173.15190015869
  31
0.0
   0
INSERT
   5
F4
 100
AcDbEntity
   8
LEVEL001
   6
CONTINUOUS
  62
3
 100
AcDbBlockReference
   2
_OPEN30
  10
 74.739283377665
  20
 173.15190015869
  30
0.0
  41
 3.0000000000000
  42
 3.0000000000000
  43
 3.0000000000000
  50
 180.00000000000
   0
INSERT
   5
F5
 100
AcDbEntity
   8
LEVEL001
   6
CONTINUOUS
  62
3
 100
AcDbBlockReference
   2
_OPEN30
  10
 102.73928337767
  20
 173.15190015869
  30
0.0
  41
 3.0000000000000
  42
 3.0000000000000
  43
 3.0000000000000
  50
0.0
   0
MTEXT
   5
F6
 100
AcDbEntity
   8
LEVEL001
  62
3
 100
AcDbMText
  10
 88.739283377665
  20
 174.86618587297
  30
0.0
  40
 4.0000000000000
  41
0.0
  71
8
  72
1
   1
\A1;%%c28
   7
GMM001
   0
ENDBLK
   5
F7
 100
AcDbEntity
   8
0
 100
AcDbBlockEnd
   0
BLOCK
   5
F8
 100
AcDbEntity
   8
0
 100
AcDbBlockBegin
   2
*D9
  70
65
  10
0.0
  20
0.0
  30
0.0
   3
*D9
   0
LINE
   5
F9
 100
AcDbEntity
   8
LEVEL001
 100
AcDbLine
   6
CONTINUOUS
  62
3
  10
 220.47386337449
  20
 135.25342318257
  30
0.0
  11
 248.92334210513
  21
 135.25342318257
  31
0.0
   0
LINE
   5
FA
 100
AcDbEntity
   8
LEVEL001
 100
AcDbLine
   6
CONTINUOUS
  62
3
  10
 244.09781748889
  20
 123.25342318257
  30
0.0
  11
 248.92334210513
  21
 123.25342318257
  31
0.0
   0
LINE
   5
FB
 100
AcDbEntity
   8
LEVEL001
 100
AcDbLine
   6
CONTINUOUS
  62
3
  10
 247.92334210513
  20
 135.25342318257
  30
0.0
  11
 247.92334210513
  21
 129.25342318257
  31
0.0
   0
LINE
   5
FC
 100
AcDbEntity
   8
LEVEL001
 100
AcDbLine
   6
CONTINUOUS
  62
3
  10
 247.92334210513
  20
 123.25342318257
  30
0.0
  11
 247.92334210513
  21
 129.25342318257
  31
0.0
   0
INSERT
   5
FD
 100
AcDbEntity
   8
LEVEL001
   6
CONTINUOUS
  62
3
 100
AcDbBlockReference
   2
_OPEN30
  10
 247.92334210513
  20
 135.25342318257
  30
0.0
  41
 3.0000000000000
  42
 3.0000000000000
  43
 3.0000000000000
  50
 90.000000000000
   0
INSERT
   5
FE
 100
AcDbEntity
   8
LEVEL001
   6
CONTINUOUS
  62
3
 100
AcDbBlockReference
   2
_OPEN30
  10
 247.92334210513
  20
 123.25342318257
  30
0.0
  41
 3.0000000000000
  42
 3.0000000000000
  43
 3.0000000000000
  50
 270.00000000000
   0
MTEXT
   5
FF
 100
AcDbEntity
   8
LEVEL001
  62
3
 100
AcDbMText
  10
 246.20905639085
  20
 129.25342318257
  30
0.0
  40
 4.0000000000000
  41
0.0
  71
8
  72
1
   1
\A1;12
   7
GMM001
  11
0.0
  21
 1.0000000000000
  31
0.0
   0
ENDBLK
   5
100
 100
AcDbEntity
   8
0
 100
AcDbBlockEnd
   0
BLOCK
   5
101
 100
AcDbEntity
   8
0
 100
AcDbBlockBegin
   2
*D10
  70
65
  10
0.0
  20
0.0
  30
0.0
   3
*D10
   0
LINE
   5
102
 100
AcDbEntity
   8
LEVEL001
 100
AcDbLine
   6
CONTINUOUS
  62
3
  10
 220.62738362171
  20
 111.25342318257
  30
0.0
  11
 248.92334210513
  21
 111.25342318257
  31
0.0
   0
LINE
   5
103
 100
AcDbEntity
   8
LEVEL001
 100
AcDbLine
   6
CONTINUOUS
  62
3
  10
 247.92334210513
  20
 123.25342318257
  30
0.0
  11
 247.92334210513
  21
 117.25342318257
  31
0.0
   0
LINE
   5
104
 100
AcDbEntity
   8
LEVEL001
 100
AcDbLine
   6
CONTINUOUS
  62
3
  10
 247.92334210513
  20
 111.25342318257
  30
0.0
  11
 247.92334210513
  21
 117.25342318257
  31
0.0
   0
INSERT
   5
105
 100
AcDbEntity
   8
LEVEL001
   6
CONTINUOUS
  62
3
 100
AcDbBlockReference
   2
_OPEN30
  10
 247.92334210513
  20
 123.25342318257
  30
0.0
  41
 3.0000000000000
  42
 3.0000000000000
  43
 3.0000000000000
  50
 90.000000000000
   0
INSERT
   5
106
 100
AcDbEntity
   8
LEVEL001
   6
CONTINUOUS
  62
3
 100
AcDbBlockReference
   2
_OPEN30
  10
 247.92334210513
  20
 111.25342318257
  30
0.0
  41
 3.0000000000000
  42
 3.0000000000000
  43
 3.0000000000000
  50
 270.00000000000
   0
MTEXT
   5
107
 100
AcDbEntity
   8
LEVEL001
  62
3
 100
AcDbMText
  10
 246.20905639085
  20
 117.25342318257
  30
0.0
  40
 4.0000000000000
  41
0.0
  71
8
  72
1
   1
\A1;12
   7
GMM001
  11
0.0
  21
 1.0000000000000
  31
0.0
   0
ENDBLK
   5
108
 100
AcDbEntity
   8
0
 100
AcDbBlockEnd
   0
BLOCK
   5
109
 100
AcDbEntity
   8
0
 100
AcDbBlockBegin
   2
*D11
  70
65
  10
0.0
  20
0.0
  30
0.0
   3
*D11
   0
LINE
   5
10A
 100
AcDbEntity
   8
LEVEL001
 100
AcDbLine
   6
CONTINUOUS
  62
3
  10
 219.23928337767
  20
 141.25342318257
  30
0.0
  11
 258.74760861393
  21
 141.25342318257
  31
0.0
   0
LINE
   5
10B
 100
AcDbEntity
   8
LEVEL001
 100
AcDbLine
   6
CONTINUOUS
  62
3
  10
 219.23928337767
  20
 105.25342318257
  30
0.0
  11
 258.74760861393
  21
 105.25342318257
  31
0.0
   0
LINE
   5
10C
 100
AcDbEntity
   8
LEVEL001
 100
AcDbLine
   6
CONTINUOUS
  62
3
  10
 257.74760861393
  20
 141.25342318257
  30
0.0
  11
 257.74760861393
  21
 123.25342318257
  31
0.0
   0
LINE
   5
10D
 100
AcDbEntity
   8
LEVEL001
 100
AcDbLine
   6
CONTINUOUS
  62
3
  10
 257.74760861393
  20
 105.25342318257
  30
0.0
  11
 257.74760861393
  21
 123.25342318257
  31
0.0
   0
INSERT
   5
10E
 100
AcDbEntity
   8
LEVEL001
   6
CONTINUOUS
  62
3
 100
AcDbBlockReference
   2
_OPEN30
  10
 257.74760861393
  20
 141.25342318257
  30
0.0
  41
 3.0000000000000
  42
 3.0000000000000
  43
 3.0000000000000
  50
 90.000000000000
   0
INSERT
   5
10F
 100
AcDbEntity
   8
LEVEL001
   6
CONTINUOUS
  62
3
 100
AcDbBlockReference
   2
_OPEN30
  10
 257.74760861393
  20
 105.25342318257
  30
0.0
  41
 3.0000000000000
  42
 3.0000000000000
  43
 3.0000000000000
  50
 270.00000000000
   0
MTEXT
   5
110
 100
AcDbEntity
   8
LEVEL001
  62
3
 100
AcDbMText
  10
 256.03332289964
  20
 123.25342318257
  30
0.0
  40
 4.0000000000000
  41
0.0
  71
8
  72
1
   1
\A1;36
   7
GMM001
  11
0.0
  21
 1.0000000000000
  31
0.0
   0
ENDBLK
   5
111
 100
AcDbEntity
   8
0
 100
AcDbBlockEnd
   0
BLOCK
   5
112
 100
AcDbEntity
   8
0
 100
AcDbBlockBegin
   2
*D12
  70
65
  10
0.0
  20
0.0
  30
0.0
   3
*D12
   0
LINE
   5
113
 100
AcDbEntity
   8
LEVEL001
 100
AcDbLine
   6
CONTINUOUS
  62
3
  10
 236.73928337767
  20
 123.75342318257
  30
0.0
  11
 236.73928337767
  21
 154.47743595350
  31
0.0
   0
LINE
   5
114
 100
AcDbEntity
   8
LEVEL001
 100
AcDbLine
   6
CONTINUOUS
  62
3
  10
 226.73928337767
  20
 128.54460673184
  30
0.0
  11
 226.73928337767
  21
 154.47743595350
  31
0.0
   0
LINE
   5
115
 100
AcDbEntity
   8
LEVEL001
 100
AcDbLine
   6
CONTINUOUS
  62
3
  10
 236.73928337767
  20
 153.47743595350
  30
0.0
  11
 231.73928337767
  21
 153.47743595350
  31
0.0
   0
LINE
   5
116
 100
AcDbEntity
   8
LEVEL001
 100
AcDbLine
   6
CONTINUOUS
  62
3
  10
 226.73928337767
  20
 153.47743595350
  30
0.0
  11
 231.73928337767
  21
 153.47743595350
  31
0.0
   0
INSERT
   5
117
 100
AcDbEntity
   8
LEVEL001
   6
CONTINUOUS
  62
3
 100
AcDbBlockReference
   2
_OPEN30
  10
 236.73928337767
  20
 153.47743595350
  30
0.0
  41
 3.0000000000000
  42
 3.0000000000000
  43
 3.0000000000000
  50
0.0
   0
INSERT
   5
118
 100
AcDbEntity
   8
LEVEL001
   6
CONTINUOUS
  62
3
 100
AcDbBlockReference
   2
_OPEN30
  10
 226.73928337767
  20
 153.47743595350
  30
0.0
  41
 3.0000000000000
  42
 3.0000000000000
  43
 3.0000000000000
  50
 180.00000000000
   0
MTEXT
   5
119
 100
AcDbEntity
   8
LEVEL001
  62
3
 100
AcDbMText
  10
 231.73928337767
  20
 155.19172166778
  30
0.0
  40
 4.0000000000000
  41
0.0
  71
8
  72
1
   1
\A1;10
   7
GMM001
   0
ENDBLK
   5
11A
 100
AcDbEntity
   8
0
 100
AcDbBlockEnd
   0
BLOCK
   5
11B
 100
AcDbEntity
   8
0
 100
AcDbBlockBegin
   2
*D13
  70
65
  10
0.0
  20
0.0
  30
0.0
   3
*D13
   0
LINE
   5
11C
 100
AcDbEntity
   8
LEVEL001
 100
AcDbLine
   6
CONTINUOUS
  62
3
  10
 214.73928337767
  20
 144.01177163951
  30
0.0
  11
 214.73928337767
  21
 154.47743595350
  31
0.0
   0
LINE
   5
11D
 100
AcDbEntity
   8
LEVEL001
 100
AcDbLine
   6
CONTINUOUS
  62
3
  10
 226.73928337767
  20
 153.47743595350
  30
0.0
  11
 220.73928337767
  21
 153.47743595350
  31
0.0
   0
LINE
   5
11E
 100
AcDbEntity
   8
LEVEL001
 100
AcDbLine
   6
CONTINUOUS
  62
3
  10
 214.73928337767
  20
 153.47743595350
  30
0.0
  11
 220.73928337767
  21
 153.47743595350
  31
0.0
   0
INSERT
   5
11F
 100
AcDbEntity
   8
LEVEL001
   6
CONTINUOUS
  62
3
 100
AcDbBlockReference
   2
_OPEN30
  10
 226.73928337767
  20
 153.47743595350
  30
0.0
  41
 3.0000000000000
  42
 3.0000000000000
  43
 3.0000000000000
  50
0.0
   0
INSERT
   5
120
 100
AcDbEntity
   8
LEVEL001
   6
CONTINUOUS
  62
3
 100
AcDbBlockReference
   2
_OPEN30
  10
 214.73928337767
  20
 153.47743595350
  30
0.0
  41
 3.0000000000000
  42
 3.0000000000000
  43
 3.0000000000000
  50
 180.00000000000
   0
MTEXT
   5
121
 100
AcDbEntity
   8
LEVEL001
  62
3
 100
AcDbMText
  10
 220.73928337767
  20
 155.19172166778
  30
0.0
  40
 4.0000000000000
  41
0.0
  71
8
  72
1
   1
\A1;12
   7
GMM001
   0
ENDBLK
   5
122
 100
AcDbEntity
   8
0
 100
AcDbBlockEnd
   0
BLOCK
   5
123
 100
AcDbEntity
   8
0
 100
AcDbBlockBegin
   2
*D14
  70
65
  10
0.0
  20
0.0
  30
0.0
   3
*D14
   0
LINE
   5
124
 100
AcDbEntity
   8
LEVEL001
 100
AcDbLine
   6
CONTINUOUS
  62
3
  10
 202.73928337767
  20
 128.67619551517
  30
0.0
  11
 202.73928337767
  21
 154.47743595350
  31
0.0
   0
LINE
   5
125
 100
AcDbEntity
   8
LEVEL001
 100
AcDbLine
   6
CONTINUOUS
  62
3
  10
 214.73928337767
  20
 153.47743595350
  30
0.0
  11
 208.73928337767
  21
 153.47743595350
  31
0.0
   0
LINE
   5
126
 100
AcDbEntity
   8
LEVEL001
 100
AcDbLine
   6
CONTINUOUS
  62
3
  10
 202.73928337767
  20
 153.47743595350
  30
0.0
  11
 208.73928337767
  21
 153.47743595350
  31
0.0
   0
INSERT
   5
127
 100
AcDbEntity
   8
LEVEL001
   6
CONTINUOUS
  62
3
 100
AcDbBlockReference
   2
_OPEN30
  10
 214.73928337767
  20
 153.47743595350
  30
0.0
  41
 3.0000000000000
  42
 3.0000000000000
  43
 3.0000000000000
  50
0.0
   0
INSERT
   5
128
 100
AcDbEntity
   8
LEVEL001
   6
CONTINUOUS
  62
3
 100
AcDbBlockReference
   2
_OPEN30
  10
 202.73928337767
  20
 153.47743595350
  30
0.0
  41
 3.0000000000000
  42
 3.0000000000000
  43
 3.0000000000000
  50
 180.00000000000
   0
MTEXT
   5
129
 100
AcDbEntity
   8
LEVEL001
  62
3
 100
AcDbMText
  10
 208.73928337767
  20
 155.19172166778
  30
0.0
  40
 4.0000000000000
  41
0.0
  71
8
  72
1
   1
\A1;12
   7
GMM001
   0
ENDBLK
   5
12A
 100
AcDbEntity
   8
0
 100
AcDbBlockEnd
   0
BLOCK
   5
12B
 100
AcDbEntity
   8
0
 100
AcDbBlockBegin
   2
*D15
  70
65
  10
0.0
  20
0.0
  30
0.0
   3
*D15
   0
LINE
   5
12C
 100
AcDbEntity
   8
LEVEL001
 100
AcDbLine
   6
CONTINUOUS
  62
3
  10
 88.739283377665
  20
 100.29442055482
  30
0.0
  11
 88.739283377665
  21
 86.808954146256
  31
0.0
   0
LINE
   5
12D
 100
AcDbEntity
   8
LEVEL001
 100
AcDbLine
   6
CONTINUOUS
  62
3
  10
 218.73928337767
  20
 104.75342318257
  30
0.0
  11
 218.73928337767
  21
 86.808954146256
  31
0.0
   0
LINE
   5
12E
 100
AcDbEntity
   8
LEVEL001
 100
AcDbLine
   6
CONTINUOUS
  62
3
  10
 88.739283377665
  20
 87.808954146256
  30
0.0
  11
 153.73928337767
  21
 87.808954146256
  31
0.0
   0
LINE
   5
12F
 100
AcDbEntity
   8
LEVEL001
 100
AcDbLine
   6
CONTINUOUS
  62
3
  10
 218.73928337767
  20
 87.808954146256
  30
0.0
  11
 153.73928337767
  21
 87.808954146256
  31
0.0
   0
INSERT
   5
130
 100
AcDbEntity
   8
LEVEL001
   6
CONTINUOUS
  62
3
 100
AcDbBlockReference
   2
_OPEN30
  10
 88.739283377665
  20
 87.808954146256
  30
0.0
  41
 3.0000000000000
  42
 3.0000000000000
  43
 3.0000000000000
  50
 180.00000000000
   0
INSERT
   5
131
 100
AcDbEntity
   8
LEVEL001
   6
CONTINUOUS
  62
3
 100
AcDbBlockReference
   2
_OPEN30
  10
 218.73928337767
  20
 87.808954146256
  30
0.0
  41
 3.0000000000000
  42
 3.0000000000000
  43
 3.0000000000000
  50
0.0
   0
MTEXT
   5
132
 100
AcDbEntity
   8
LEVEL001
  62
3
 100
AcDbMText
  10
 153.73928337767
  20
 89.523239860542
  30
0.0
  40
 4.0000000000000
  41
0.0
  71
8
  72
1
   1
\A1;130
   7
GMM001
   0
ENDBLK
   5
133
 100
AcDbEntity
   8
0
 100
AcDbBlockEnd
   0
BLOCK
   5
134
 100
AcDbEntity
   8
0
 100
AcDbBlockBegin
   2
*D16
  70
65
  10
0.0
  20
0.0
  30
0.0
   3
*D16
   0
LINE
   5
135
 100
AcDbEntity
   8
LEVEL001
 100
AcDbLine
   6
CONTINUOUS
  62
3
  10
 88.739283377665
  20
 154.97743595350
  30
0.0
  11
 88.739283377665
  21
 163.98373603166
  31
0.0
   0
LINE
   5
136
 100
AcDbEntity
   8
LEVEL001
 100
AcDbLine
   6
CONTINUOUS
  62
3
  10
 236.73928337767
  20
 154.97743595350
  30
0.0
  11
 236.73928337767
  21
 163.98373603166
  31
0.0
   0
LINE
   5
137
 100
AcDbEntity
   8
LEVEL001
 100
AcDbLine
   6
CONTINUOUS
  62
3
  10
 88.739283377665
  20
 162.98373603166
  30
0.0
  11
 162.73928337767
  21
 162.98373603166
  31
0.0
   0
LINE
   5
138
 100
AcDbEntity
   8
LEVEL001
 100
AcDbLine
   6
CONTINUOUS
  62
3
  10
 236.73928337767
  20
 162.98373603166
  30
0.0
  11
 162.73928337767
  21
 162.98373603166
  31
0.0
   0
INSERT
   5
139
 100
AcDbEntity
   8
LEVEL001
   6
CONTINUOUS
  62
3
 100
AcDbBlockReference
   2
_OPEN30
  10
 88.739283377665
  20
 162.98373603166
  30
0.0
  41
 3.0000000000000
  42
 3.0000000000000
  43
 3.0000000000000
  50
 180.00000000000
   0
INSERT
   5
13A
 100
AcDbEntity
   8
LEVEL001
   6
CONTINUOUS
  62
3
 100
AcDbBlockReference
   2
_OPEN30
  10
 236.73928337767
  20
 162.98373603166
  30
0.0
  41
 3.0000000000000
  42
 3.0000000000000
  43
 3.0000000000000
  50
0.0
   0
MTEXT
   5
13B
 100
AcDbEntity
   8
LEVEL001
  62
3
 100
AcDbMText
  10
 162.73928337767
  20
 164.69802174594
  30
0.0
  40
 4.0000000000000
  41
0.0
  71
8
  72
1
   1
\A1;148
   7
GMM001
   0
ENDBLK
   5
13C
 100
AcDbEntity
   8
0
 100
AcDbBlockEnd
   0
BLOCK
   5
13D
 100
AcDbEntity
   8
0
 100
AcDbBlockBegin
   2
*D17
  70
65
  10
0.0
  20
0.0
  30
0.0
   3
*D17
   0
LINE
   5
13E
 100
AcDbEntity
   8
LEVEL001
 100
AcDbLine
   6
CONTINUOUS
  62
3
  10
 88.739283377665
  20
 144.60011601400
  30
0.0
  11
 88.739283377665
  21
 154.47743595350
  31
0.0
   0
LINE
   5
13F
 100
AcDbEntity
   8
LEVEL001
 100
AcDbLine
   6
CONTINUOUS
  62
3
  10
 96.739283377665
  20
 128.71327056952
  30
0.0
  11
 96.739283377665
  21
 154.47743595350
  31
0.0
   0
LINE
   5
140
 100
AcDbEntity
   8
LEVEL001
 100
AcDbLine
   6
CONTINUOUS
  62
3
  10
 88.739283377665
  20
 153.47743595350
  30
0.0
  11
 92.739283377665
  21
 153.47743595350
  31
0.0
   0
LINE
   5
141
 100
AcDbEntity
   8
LEVEL001
 100
AcDbLine
   6
CONTINUOUS
  62
3
  10
 96.739283377665
  20
 153.47743595350
  30
0.0
  11
 92.739283377665
  21
 153.47743595350
  31
0.0
   0
INSERT
   5
142
 100
AcDbEntity
   8
LEVEL001
   6
CONTINUOUS
  62
3
 100
AcDbBlockReference
   2
_OPEN30
  10
 88.739283377665
  20
 153.47743595350
  30
0.0
  41
 3.0000000000000
  42
 3.0000000000000
  43
 3.0000000000000
  50
 180.00000000000
   0
INSERT
   5
143
 100
AcDbEntity
   8
LEVEL001
   6
CONTINUOUS
  62
3
 100
AcDbBlockReference
   2
_OPEN30
  10
 96.739283377665
  20
 153.47743595350
  30
0.0
  41
 3.0000000000000
  42
 3.0000000000000
  43
 3.0000000000000
  50
0.0
   0
MTEXT
   5
144
 100
AcDbEntity
   8
LEVEL001
  62
3
 100
AcDbMText
  10
 92.739283377665
  20
 155.19172166778
  30
0.0
  40
 4.0000000000000
  41
0.0
  71
8
  72
1
   1
\A1;8
   7
GMM001
   0
ENDBLK
   5
145
 100
AcDbEntity
   8
0
 100
AcDbBlockEnd
   0
BLOCK
   5
146
 100
AcDbEntity
   8
0
 100
AcDbBlockBegin
   2
*D18
  70
65
  10
0.0
  20
0.0
  30
0.0
   3
*D18
   0
LINE
   5
147
 100
AcDbEntity
   8
LEVEL001
 100
AcDbLine
   6
CONTINUOUS
  62
3
  10
 158.23928337767
  20
 133.61798366931
  30
0.0
  11
 158.23928337767
  21
 154.47743595350
  31
0.0
   0
LINE
   5
148
 100
AcDbEntity
   8
LEVEL001
 100
AcDbLine
   6
CONTINUOUS
  62
3
  10
 158.23928337767
  20
 153.47743595350
  30
0.0
  11
 127.48928337767
  21
 153.47743595350
  31
0.0
   0
LINE
   5
149
 100
AcDbEntity
   8
LEVEL001
 100
AcDbLine
   6
CONTINUOUS
  62
3
  10
 96.739283377665
  20
 153.47743595350
  30
0.0
  11
 127.48928337767
  21
 153.47743595350
  31
0.0
   0
INSERT
   5
14A
 100
AcDbEntity
   8
LEVEL001
   6
CONTINUOUS
  62
3
 100
AcDbBlockReference
   2
_OPEN30
  10
 158.23928337767
  20
 153.47743595350
  30
0.0
  41
 3.0000000000000
  42
 3.0000000000000
  43
 3.0000000000000
  50
0.0
   0
INSERT
   5
14B
 100
AcDbEntity
   8
LEVEL001
   6
CONTINUOUS
  62
3
 100
AcDbBlockReference
   2
_OPEN30
  10
 96.739283377665
  20
 153.47743595350
  30
0.0
  41
 3.0000000000000
  42
 3.0000000000000
  43
 3.0000000000000
  50
 180.00000000000
   0
MTEXT
   5
14C
 100
AcDbEntity
   8
LEVEL001
  62
3
 100
AcDbMText
  10
 127.48928337767
  20
 155.19172166778
  30
0.0
  40
 4.0000000000000
  41
0.0
  71
8
  72
1
   1
\A1;61.5
   7
GMM001
   0
ENDBLK
   5
14D
 100
AcDbEntity
   8
0
 100
AcDbBlockEnd
   0
BLOCK
   5
14E
 100
AcDbEntity
   8
0
 100
AcDbBlockBegin
   2
*D19
  70
65
  10
0.0
  20
0.0
  30
0.0
   3
*D19
   0
LINE
   5
14F
 100
AcDbEntity
   8
LEVEL001
 100
AcDbLine
   6
CONTINUOUS
  62
3
  10
 158.23928337767
  20
 153.47743595350
  30
0.0
  11
 180.48928337767
  21
 153.47743595350
  31
0.0
   0
LINE
   5
150
 100
AcDbEntity
   8
LEVEL001
 100
AcDbLine
   6
CONTINUOUS
  62
3
  10
 202.73928337767
  20
 153.47743595350
  30
0.0
  11
 180.48928337767
  21
 153.47743595350
  31
0.0
   0
INSERT
   5
151
 100
AcDbEntity
   8
LEVEL001
   6
CONTINUOUS
  62
3
 100
AcDbBlockReference
   2
_OPEN30
  10
 158.23928337767
  20
 153.47743595350
  30
0.0
  41
 3.0000000000000
  42
 3.0000000000000
  43
 3.0000000000000
  50
 180.00000000000
   0
INSERT
   5
152
 100
AcDbEntity
   8
LEVEL001
   6
CONTINUOUS
  62
3
 100
AcDbBlockReference
   2
_OPEN30
  10
 202.73928337767
  20
 153.47743595350
  30
0.0
  41
 3.0000000000000
  42
 3.0000000000000
  43
 3.0000000000000
  50
0.0
   0
MTEXT
   5
153
 100
AcDbEntity
   8
LEVEL001
  62
3
 100
AcDbMText
  10
 180.48928337767
  20
 155.19172166778
  30
0.0
  40
 4.0000000000000
  41
0.0
  71
8
  72
1
   1
\A1;44.5
   7
GMM001
   0
ENDBLK
   5
154
 100
AcDbEntity
   8
0
 100
AcDbBlockEnd
   0
BLOCK
   5
155
 100
AcDbEntity
   8
0
 100
AcDbBlockBegin
   2
BLOCK001
  70
64
  10
0.0
  20
0.0
  30
0.0
   3
BLOCK001
   0
LINE
   5
156
 100
AcDbEntity
   8
LEVEL001
 100
AcDbLine
   6
CONTINUOUS
  62
15
  10
 384.58211393678
  20
 164.12966572871
  30
0.0
  11
 384.66748375840
  21
 165.11898922658
  31
0.0
   0
LINE
   5
157
 100
AcDbEntity
   8
LEVEL001
 100
AcDbLine
   6
CONTINUOUS
  62
15
  10
 320.32887270897
  20
 230.21877495201
  30
0.0
  11
 320.35394643155
  21
 230.47481229175
  31
0.0
   0
LINE
   5
158
 100
AcDbEntity
   8
LEVEL001
 100
AcDbLine
   6
CONTINUOUS
  62
15
  10
 320.35394643155
  20
 230.47481229175
  30
0.0
  11
 320.34476096834
  21
 231.14069715791
  31
0.0
   0
LINE
   5
159
 100
AcDbEntity
   8
LEVEL001
 100
AcDbLine
   6
CONTINUOUS
  62
15
  10
 320.34476096834
  20
 231.14069715791
  30
0.0
  11
 320.26209436252
  21
 231.80390321383
  31
0.0
   0
LINE
   5
15A
 100
AcDbEntity
   8
LEVEL001
 100
AcDbLine
   6
CONTINUOUS
  62
15
  10
 320.26209436252
  20
 231.80390321383
  30
0.0
  11
 320.10686092360
  21
 232.46032080943
  31
0.0
   0
LINE
   5
15B
 100
AcDbEntity
   8
LEVEL001
 100
AcDbLine
   6
CONTINUOUS
  62
15
  10
 320.10686092360
  20
 232.46032080943
  30
0.0
  11
 319.88006395869
  21
 233.10600392639
  31
0.0
   0
LINE
   5
15C
 100
AcDbEntity
   8
LEVEL001
 100
AcDbLine
   6
CONTINUOUS
  62
15
  10
 319.88006395869
  20
 233.10600392639
  30
0.0
  11
 319.58288129692
  21
 233.73693484305
  31
0.0
   0
LINE
   5
15D
 100
AcDbEntity
   8
LEVEL001
 100
AcDbLine
   6
CONTINUOUS
  62
15
  10
 319.58288129692
  20
 233.73693484305
  30
0.0
  11
 319.21683360220
  21
 234.34891387982
  31
0.0
   0
LINE
   5
15E
 100
AcDbEntity
   8
LEVEL001
 100
AcDbLine
   6
CONTINUOUS
  62
15
  10
 319.21683360220
  20
 234.34891387982
  30
0.0
  11
 318.78398060395
  21
 234.93753825938
  31
0.0
   0
LINE
   5
15F
 100
AcDbEntity
   8
LEVEL001
 100
AcDbLine
   6
CONTINUOUS
  62
15
  10
 318.78398060395
  20
 234.93753825938
  30
0.0
  11
 318.28708092715
  21
 235.49828024855
  31
0.0
   0
LINE
   5
160
 100
AcDbEntity
   8
LEVEL001
 100
AcDbLine
   6
CONTINUOUS
  62
15
  10
 318.28708092715
  20
 235.49828024855
  30
0.0
  11
 317.72966284756
  21
 236.02664079587
  31
0.0
   0
LINE
   5
161
 100
AcDbEntity
   8
LEVEL001
 100
AcDbLine
   6
CONTINUOUS
  62
15
  10
 317.72966284756
  20
 236.02664079587
  30
0.0
  11
 317.11598862083
  21
 236.51832866404
  31
0.0
   0
LINE
   5
162
 100
AcDbEntity
   8
LEVEL001
 100
AcDbLine
   6
CONTINUOUS
  62
15
  10
 317.11598862083
  20
 236.51832866404
  30
0.0
  11
 316.45093588041
  21
 236.96941239767
  31
0.0
   0
LINE
   5
163
 100
AcDbEntity
   8
LEVEL001
 100
AcDbLine
   6
CONTINUOUS
  62
15
  10
 316.45093588041
  20
 236.96941239767
  30
0.0
  11
 315.73984296405
  21
 237.37641345847
  31
0.0
   0
LINE
   5
164
 100
AcDbEntity
   8
LEVEL001
 100
AcDbLine
   6
CONTINUOUS
  62
15
  10
 315.73984296405
  20
 237.37641345847
  30
0.0
  11
 314.98836217703
  21
 237.73633773405
  31
0.0
   0
LINE
   5
165
 100
AcDbEntity
   8
LEVEL001
 100
AcDbLine
   6
CONTINUOUS
  62
15
  10
 314.98836217703
  20
 237.73633773405
  30
0.0
  11
 314.20240008220
  21
 238.04664321107
  31
0.0
   0
LINE
   5
166
 100
AcDbEntity
   8
LEVEL001
 100
AcDbLine
   6
CONTINUOUS
  62
15
  10
 314.20240008220
  20
 238.04664321107
  30
0.0
  11
 313.38795121401
  21
 238.30525024082
  31
0.0
   0
LINE
   5
167
 100
AcDbEntity
   8
LEVEL001
 100
AcDbLine
   6
CONTINUOUS
  62
15
  10
 313.38795121401
  20
 238.30525024082
  30
0.0
  11
 312.55101464644
  21
 238.51049489860
  31
0.0
   0
LINE
   5
168
 100
AcDbEntity
   8
LEVEL001
 100
AcDbLine
   6
CONTINUOUS
  62
15
  10
 312.55101464644
  20
 238.51049489860
  30
0.0
  11
 311.69764369187
  21
 238.66105949695
  31
0.0
   0
LINE
   5
169
 100
AcDbEntity
   8
LEVEL001
 100
AcDbLine
   6
CONTINUOUS
  62
15
  10
 311.69764369187
  20
 238.66105949695
  30
0.0
  11
 310.83392834431
  21
 238.75595052736
  31
0.0
   0
LINE
   5
16A
 100
AcDbEntity
   8
LEVEL001
 100
AcDbLine
   6
CONTINUOUS
  62
15
  10
 310.83392834431
  20
 238.75595052736
  30
0.0
  11
 309.96597999556
  21
 238.79448414170
  31
0.0
   0
LINE
   5
16B
 100
AcDbEntity
   8
LEVEL001
 100
AcDbLine
   6
CONTINUOUS
  62
15
  10
 309.96597999556
  20
 238.79448414170
  30
0.0
  11
 309.09995821771
  21
 238.77627965371
  31
0.0
   0
LINE
   5
16C
 100
AcDbEntity
   8
LEVEL001
 100
AcDbLine
   6
CONTINUOUS
  62
15
  10
 309.09995821771
  20
 238.77627965371
  30
0.0
  11
 308.24199060026
  21
 238.70126126762
  31
0.0
   0
LINE
   5
16D
 100
AcDbEntity
   8
LEVEL001
 100
AcDbLine
   6
CONTINUOUS
  62
15
  10
 308.24199060026
  20
 238.70126126762
  30
0.0
  11
 307.39815291434
  21
 238.56964931279
  31
0.0
   0
LINE
   5
16E
 100
AcDbEntity
   8
LEVEL001
 100
AcDbLine
   6
CONTINUOUS
  62
15
  10
 307.39815291434
  20
 238.56964931279
  30
0.0
  11
 306.57448691380
  21
 238.38196264694
  31
0.0
   0
LINE
   5
16F
 100
AcDbEntity
   8
LEVEL001
 100
AcDbLine
   6
CONTINUOUS
  62
15
  10
 306.57448691380
  20
 238.38196264694
  30
0.0
  11
 305.77700001081
  21
 238.13903311053
  31
0.0
   0
LINE
   5
170
 100
AcDbEntity
   8
LEVEL001
 100
AcDbLine
   6
CONTINUOUS
  62
15
  10
 305.77700001081
  20
 238.13903311053
  30
0.0
  11
 305.01166856587
  21
 237.84203542123
  31
0.0
   0
LINE
   5
171
 100
AcDbEntity
   8
LEVEL001
 100
AcDbLine
   6
CONTINUOUS
  62
15
  10
 305.01166856587
  20
 237.84203542123
  30
0.0
  11
 304.28456052520
  21
 237.49260266272
  31
0.0
   0
LINE
   5
172
 100
AcDbEntity
   8
LEVEL001
 100
AcDbLine
   6
CONTINUOUS
  62
15
  10
 304.28456052520
  20
 237.49260266272
  30
0.0
  11
 303.60164637412
  21
 237.09285648479
  31
0.0
   0
LINE
   5
173
 100
AcDbEntity
   8
LEVEL001
 100
AcDbLine
   6
CONTINUOUS
  62
15
  10
 303.60164637412
  20
 237.09285648479
  30
0.0
  11
 302.96876263300
  21
 236.64549714405
  31
0.0
   0
LINE
   5
174
 100
AcDbEntity
   8
LEVEL001
 100
AcDbLine
   6
CONTINUOUS
  62
15
  10
 302.96876263300
  20
 236.64549714405
  30
0.0
  11
 302.39151794467
  21
 236.15389779470
  31
0.0
   0
LINE
   5
175
 100
AcDbEntity
   8
LEVEL001
 100
AcDbLine
   6
CONTINUOUS
  62
15
  10
 302.39151794467
  20
 236.15389779470
  30
0.0
  11
 301.87511370568
  21
 235.62214962931
  31
0.0
   0
LINE
   5
176
 100
AcDbEntity
   8
LEVEL001
 100
AcDbLine
   6
CONTINUOUS
  62
15
  10
 301.87511370568
  20
 235.62214962931
  30
0.0
  11
 301.42411976872
  21
 235.05502447559
  31
0.0
   0
LINE
   5
177
 100
AcDbEntity
   8
LEVEL001
 100
AcDbLine
   6
CONTINUOUS
  62
15
  10
 301.42411976872
  20
 235.05502447559
  30
0.0
  11
 301.04225698312
  21
 234.45783081631
  31
0.0
   0
LINE
   5
178
 100
AcDbEntity
   8
LEVEL001
 100
AcDbLine
   6
CONTINUOUS
  62
15
  10
 301.04225698312
  20
 234.45783081631
  30
0.0
  11
 300.73225612082
  21
 233.83617860524
  31
0.0
   0
LINE
   5
179
 100
AcDbEntity
   8
LEVEL001
 100
AcDbLine
   6
CONTINUOUS
  62
15
  10
 300.73225612082
  20
 233.83617860524
  30
0.0
  11
 300.49584511672
  21
 233.19570961235
  31
0.0
   0
LINE
   5
17A
 100
AcDbEntity
   8
LEVEL001
 100
AcDbLine
   6
CONTINUOUS
  62
15
  10
 300.49584511672
  20
 233.19570961235
  30
0.0
  11
 300.33386841045
  21
 232.54186507982
  31
0.0
   0
LINE
   5
17B
 100
AcDbEntity
   8
LEVEL001
 100
AcDbLine
   6
CONTINUOUS
  62
15
  10
 300.33386841045
  20
 232.54186507982
  30
0.0
  11
 300.26529882590
  21
 232.02224708318
  31
0.0
   0
LINE
   5
17C
 100
AcDbEntity
   8
LEVEL001
 100
AcDbLine
   6
CONTINUOUS
  62
15
  10
 319.44930900854
  20
 219.92307240885
  30
0.0
  11
 320.33704269131
  21
 230.21073349780
  31
0.0
   0
LINE
   5
17D
 100
AcDbEntity
   8
LEVEL001
 100
AcDbLine
   6
CONTINUOUS
  62
15
  10
 300.25168335655
  20
 231.94392142627
  30
0.0
  11
 299.35530022946
  21
 221.55602469880
  31
0.0
   0
LINE
   5
17E
 100
AcDbEntity
   8
LEVEL001
 100
AcDbLine
   6
CONTINUOUS
  62
15
  10
 299.36312003743
  20
 221.55783476584
  30
0.0
  11
 299.33333152401
  21
 221.08505536451
  31
0.0
   0
LINE
   5
17F
 100
AcDbEntity
   8
LEVEL001
 100
AcDbLine
   6
CONTINUOUS
  62
15
  10
 299.33333152401
  20
 221.08505536451
  30
0.0
  11
 299.36543972659
  21
 220.41950940508
  31
0.0
   0
LINE
   5
180
 100
AcDbEntity
   8
LEVEL001
 100
AcDbLine
   6
CONTINUOUS
  62
15
  10
 299.36543972659
  20
 220.41950940508
  30
0.0
  11
 299.47075512580
  21
 219.75798800236
  31
0.0
   0
LINE
   5
181
 100
AcDbEntity
   8
LEVEL001
 100
AcDbLine
   6
CONTINUOUS
  62
15
  10
 299.47075512580
  20
 219.75798800236
  30
0.0
  11
 299.64833699925
  21
 219.10448272943
  31
0.0
   0
LINE
   5
182
 100
AcDbEntity
   8
LEVEL001
 100
AcDbLine
   6
CONTINUOUS
  62
15
  10
 299.64833699925
  20
 219.10448272943
  30
0.0
  11
 299.89714180615
  21
 218.46294598670
  31
0.0
   0
LINE
   5
183
 100
AcDbEntity
   8
LEVEL001
 100
AcDbLine
   6
CONTINUOUS
  62
15
  10
 299.89714180615
  20
 218.46294598670
  30
0.0
  11
 300.21590574143
  21
 217.83744386695
  31
0.0
   0
LINE
   5
184
 100
AcDbEntity
   8
LEVEL001
 100
AcDbLine
   6
CONTINUOUS
  62
15
  10
 300.21590574143
  20
 217.83744386695
  30
0.0
  11
 300.60296123774
  21
 217.23224163275
  31
0.0
   0
LINE
   5
185
 100
AcDbEntity
   8
LEVEL001
 100
AcDbLine
   6
CONTINUOUS
  62
15
  10
 300.60296123774
  20
 217.23224163275
  30
0.0
  11
 301.05604515383
  21
 216.65179356650
  31
0.0
   0
LINE
   5
186
 100
AcDbEntity
   8
LEVEL001
 100
AcDbLine
   6
CONTINUOUS
  62
15
  10
 301.05604515383
  20
 216.65179356650
  30
0.0
  11
 301.57216226762
  21
 216.10063726190
  31
0.0
   0
LINE
   5
187
 100
AcDbEntity
   8
LEVEL001
 100
AcDbLine
   6
CONTINUOUS
  62
15
  10
 301.57216226762
  20
 216.10063726190
  30
0.0
  11
 302.14754776375
  21
 215.58322603646
  31
0.0
   0
LINE
   5
188
 100
AcDbEntity
   8
LEVEL001
 100
AcDbLine
   6
CONTINUOUS
  62
15
  10
 302.14754776375
  20
 215.58322603646
  30
0.0
  11
 302.77773279331
  21
 215.10375321568
  31
0.0
   0
LINE
   5
189
 100
AcDbEntity
   8
LEVEL001
 100
AcDbLine
   6
CONTINUOUS
  62
15
  10
 302.77773279331
  20
 215.10375321568
  30
0.0
  11
 303.45767965763
  21
 214.66601643273
  31
0.0
   0
LINE
   5
18A
 100
AcDbEntity
   8
LEVEL001
 100
AcDbLine
   6
CONTINUOUS
  62
15
  10
 303.45767965763
  20
 214.66601643273
  30
0.0
  11
 304.18193799813
  21
 214.27334455907
  31
0.0
   0
LINE
   5
18B
 100
AcDbEntity
   8
LEVEL001
 100
AcDbLine
   6
CONTINUOUS
  62
15
  10
 304.18193799813
  20
 214.27334455907
  30
0.0
  11
 304.94478299594
  21
 213.92858237527
  31
0.0
   0
LINE
   5
18C
 100
AcDbEntity
   8
LEVEL001
 100
AcDbLine
   6
CONTINUOUS
  62
15
  10
 304.94478299594
  20
 213.92858237527
  30
0.0
  11
 305.74023468933
  21
 213.63414026239
  31
0.0
   0
LINE
   5
18D
 100
AcDbEntity
   8
LEVEL001
 100
AcDbLine
   6
CONTINUOUS
  62
15
  10
 305.74023468933
  20
 213.63414026239
  30
0.0
  11
 306.56231621135
  21
 213.39195236457
  31
0.0
   0
LINE
   5
18E
 100
AcDbEntity
   8
LEVEL001
 100
AcDbLine
   6
CONTINUOUS
  62
15
  10
 306.56231621135
  20
 213.39195236457
  30
0.0
  11
 307.40500947599
  21
 213.20357214424
  31
0.0
   0
LINE
   5
18F
 100
AcDbEntity
   8
LEVEL001
 100
AcDbLine
   6
CONTINUOUS
  62
15
  10
 307.40500947599
  20
 213.20357214424
  30
0.0
  11
 308.26224805456
  21
 213.07021458671
  31
0.0
   0
LINE
   5
190
 100
AcDbEntity
   8
LEVEL001
 100
AcDbLine
   6
CONTINUOUS
  62
15
  10
 308.26224805456
  20
 213.07021458671
  30
0.0
  11
 309.12793371547
  21
 212.99277573199
  31
0.0
   0
LINE
   5
191
 100
AcDbEntity
   8
LEVEL001
 100
AcDbLine
   6
CONTINUOUS
  62
15
  10
 309.12793371547
  20
 212.99277573199
  30
0.0
  11
 309.99595138905
  21
 212.97184522003
  31
0.0
   0
LINE
   5
192
 100
AcDbEntity
   8
LEVEL001
 100
AcDbLine
   6
CONTINUOUS
  62
15
  10
 309.99595138905
  20
 212.97184522003
  30
0.0
  11
 310.86012307276
  21
 213.00770898415
  31
0.0
   0
LINE
   5
193
 100
AcDbEntity
   8
LEVEL001
 100
AcDbLine
   6
CONTINUOUS
  62
15
  10
 310.86012307276
  20
 213.00770898415
  30
0.0
  11
 311.45232371529
  21
 213.07193309207
  31
0.0
   0
LINE
   5
194
 100
AcDbEntity
   8
LEVEL001
 100
AcDbLine
   6
CONTINUOUS
  62
15
  10
 317.08064964434
  20
 217.03415303683
  30
0.0
  11
 351.05018562539
  21
 195.03764363755
  31
0.0
   0
LINE
   5
195
 100
AcDbEntity
   8
LEVEL001
 100
AcDbLine
   6
CONTINUOUS
  62
15
  10
 351.05018562539
  20
 195.03764363755
  30
0.0
  11
 351.32756158951
  21
 194.89860576760
  31
0.0
   0
LINE
   5
196
 100
AcDbEntity
   8
LEVEL001
 100
AcDbLine
   6
CONTINUOUS
  62
15
  10
 351.32756158951
  20
 194.89860576760
  30
0.0
  11
 351.64096375312
  21
 194.81462093056
  31
0.0
   0
LINE
   5
197
 100
AcDbEntity
   8
LEVEL001
 100
AcDbLine
   6
CONTINUOUS
  62
15
  10
 351.64096375312
  20
 194.81462093056
  30
0.0
  11
 351.96903427687
  21
 194.79141255424
  31
0.0
   0
LINE
   5
198
 100
AcDbEntity
   8
LEVEL001
 100
AcDbLine
   6
CONTINUOUS
  62
15
  10
 351.96903427687
  20
 194.79141255424
  30
0.0
  11
 352.28941569655
  21
 194.83056225112
  31
0.0
   0
LINE
   5
199
 100
AcDbEntity
   8
LEVEL001
 100
AcDbLine
   6
CONTINUOUS
  62
15
  10
 352.28941569655
  20
 194.83056225112
  30
0.0
  11
 352.58027454799
  21
 194.92940203413
  31
0.0
   0
LINE
   5
19A
 100
AcDbEntity
   8
LEVEL001
 100
AcDbLine
   6
CONTINUOUS
  62
15
  10
 352.58027454799
  20
 194.92940203413
  30
0.0
  11
 352.82178928108
  21
 195.08119613529
  31
0.0
   0
LINE
   5
19B
 100
AcDbEntity
   8
LEVEL001
 100
AcDbLine
   6
CONTINUOUS
  62
15
  10
 352.82178928108
  20
 195.08119613529
  30
0.0
  11
 352.99750106591
  21
 195.27560003747
  31
0.0
   0
LINE
   5
19C
 100
AcDbEntity
   8
LEVEL001
 100
AcDbLine
   6
CONTINUOUS
  62
15
  10
 352.99750106591
  20
 195.27560003747
  30
0.0
  11
 353.09543543474
  21
 195.49936543612
  31
0.0
   0
LINE
   5
19D
 100
AcDbEntity
   8
LEVEL001
 100
AcDbLine
   6
CONTINUOUS
  62
15
  10
 353.09543543474
  20
 195.49936543612
  30
0.0
  11
 353.10891832214
  21
 195.73724308900
  31
0.0
   0
LINE
   5
19E
 100
AcDbEntity
   8
LEVEL001
 100
AcDbLine
   6
CONTINUOUS
  62
15
  10
 353.10891832214
  20
 195.73724308900
  30
0.0
  11
 353.03703089155
  21
 195.97302202720
  31
0.0
   0
LINE
   5
19F
 100
AcDbEntity
   8
LEVEL001
 100
AcDbLine
   6
CONTINUOUS
  62
15
  10
 353.03703089155
  20
 195.97302202720
  30
0.0
  11
 352.88467215271
  21
 196.19063430571
  31
0.0
   0
LINE
   5
1A0
 100
AcDbEntity
   8
LEVEL001
 100
AcDbLine
   6
CONTINUOUS
  62
15
  10
 352.88467215271
  20
 196.19063430571
  30
0.0
  11
 352.66222510178
  21
 196.37525000747
  31
0.0
   0
LINE
   5
1A1
 100
AcDbEntity
   8
LEVEL001
 100
AcDbLine
   6
CONTINUOUS
  62
15
  10
 352.66222510178
  20
 196.37525000747
  30
0.0
  11
 318.49894841414
  21
 218.49721355704
  31
0.0
   0
ARC
   5
1A2
 100
AcDbEntity
   8
LEVEL001
   6
CONTINUOUS
  62
15
 100
AcDbCircle
  10
 313.71185594188
  20
 221.96743895560
  30
0.0
  40
 5.9125898432702
 100
AcDbArc
  50
 324.06115690998
  51
 340.79699561988
   0
LINE
   5
1A3
 100
AcDbEntity
   8
LEVEL001
 100
AcDbLine
   6
CONTINUOUS
  62
15
  10
 319.29546410913
  20
 220.02269257379
  30
0.0
  11
 384.29885404864
  21
 177.93063460199
  31
0.0
   0
ARC
   5
1A4
 100
AcDbEntity
   8
LEVEL001
   6
CONTINUOUS
  62
15
 100
AcDbCircle
  10
 383.92547394246
  20
 177.26637612288
  30
0.0
  40
 0.76200526958361
 100
AcDbArc
  50
 3.4728543627041
  51
 60.659631981955
   0
LINE
   5
1A5
 100
AcDbEntity
   8
LEVEL001
 100
AcDbLine
   6
CONTINUOUS
  62
15
  10
 384.68607987319
  20
 177.31253507642
  30
0.0
  11
 384.66958225132
  21
 165.16699892709
  31
0.0
   0
ARC
   5
1A6
 100
AcDbEntity
   8
LEVEL001
   6
CONTINUOUS
  62
15
 100
AcDbCircle
  10
 383.76123306537
  20
 165.33645638259
  30
0.0
  40
 0.92402060191037
 100
AcDbArc
  50
 259.34700012070
  51
 349.43263656310
   0
LINE
   5
1A7
 100
AcDbEntity
   8
LEVEL001
 100
AcDbLine
   6
CONTINUOUS
  62
15
  10
 383.59041814663
  20
 164.42836148870
  30
0.0
  11
 366.87761150104
  21
 165.12347003735
  31
0.0
   0
ARC
   5
1A8
 100
AcDbEntity
   8
LEVEL001
   6
CONTINUOUS
  62
15
 100
AcDbCircle
  10
 366.90701933448
  20
 166.44172435247
  30
0.0
  40
 1.3185822916854
 100
AcDbArc
  50
 229.44291067096
  51
 268.72204831907
   0
LINE
   5
1A9
 100
AcDbEntity
   8
LEVEL001
 100
AcDbLine
   6
CONTINUOUS
  62
15
  10
 366.04967001875
  20
 165.43992027439
  30
0.0
  11
 311.91662550823
  21
 214.97222210440
  31
0.0
   0
ARC
   5
1AA
 100
AcDbEntity
   8
LEVEL001
   6
CONTINUOUS
  62
15
 100
AcDbCircle
  10
 310.26951285602
  20
 227.17056781768
  30
0.0
  40
 12.309046194976
 100
AcDbArc
  50
 277.68999762469
  51
 287.94511951559
   0
LINE
   5
1AB
 100
AcDbEntity
   8
LEVEL001
 100
AcDbLine
   6
CONTINUOUS
  62
15
  10
 314.06200246295
  20
 215.46033123547
  30
0.0
  11
 342.51224450846
  21
 189.42806224192
  31
0.0
   0
LINE
   5
1AC
 100
AcDbEntity
   8
LEVEL001
 100
AcDbLine
   6
CONTINUOUS
  62
15
  10
 342.51224450846
  20
 189.42806224192
  30
0.0
  11
 342.75331960545
  21
 189.25619656792
  31
0.0
   0
LINE
   5
1AD
 100
AcDbEntity
   8
LEVEL001
 100
AcDbLine
   6
CONTINUOUS
  62
15
  10
 342.75331960545
  20
 189.25619656792
  30
0.0
  11
 343.04387709628
  21
 189.13317488191
  31
0.0
   0
LINE
   5
1AE
 100
AcDbEntity
   8
LEVEL001
 100
AcDbLine
   6
CONTINUOUS
  62
15
  10
 343.04387709628
  20
 189.13317488191
  30
0.0
  11
 343.36411596806
  21
 189.06738090851
  31
0.0
   0
LINE
   5
1AF
 100
AcDbEntity
   8
LEVEL001
 100
AcDbLine
   6
CONTINUOUS
  62
15
  10
 343.36411596806
  20
 189.06738090851
  30
0.0
  11
 343.69221247091
  21
 189.06329839835
  31
0.0
   0
LINE
   5
1B0
 100
AcDbEntity
   8
LEVEL001
 100
AcDbLine
   6
CONTINUOUS
  62
15
  10
 343.69221247091
  20
 189.06329839835
  30
0.0
  11
 344.00580737047
  21
 189.12120556763
  31
0.0
   0
LINE
   5
1B1
 100
AcDbEntity
   8
LEVEL001
 100
AcDbLine
   6
CONTINUOUS
  62
15
  10
 344.00580737047
  20
 189.12120556763
  30
0.0
  11
 344.28352969245
  21
 189.23715613862
  31
0.0
   0
LINE
   5
1B2
 100
AcDbEntity
   8
LEVEL001
 100
AcDbLine
   6
CONTINUOUS
  62
15
  10
 344.28352969245
  20
 189.23715613862
  30
0.0
  11
 344.50645311964
  21
 189.40324827136
  31
0.0
   0
LINE
   5
1B3
 100
AcDbEntity
   8
LEVEL001
 100
AcDbLine
   6
CONTINUOUS
  62
15
  10
 344.50645311964
  20
 189.40324827136
  30
0.0
  11
 344.65938578891
  21
 189.60816306151
  31
0.0
   0
LINE
   5
1B4
 100
AcDbEntity
   8
LEVEL001
 100
AcDbLine
   6
CONTINUOUS
  62
15
  10
 344.65938578891
  20
 189.60816306151
  30
0.0
  11
 344.73190559147
  21
 189.83793590486
  31
0.0
   0
LINE
   5
1B5
 100
AcDbEntity
   8
LEVEL001
 100
AcDbLine
   6
CONTINUOUS
  62
15
  10
 344.73190559147
  20
 189.83793590486
  30
0.0
  11
 344.71907042263
  21
 190.07690816179
  31
0.0
   0
LINE
   5
1B6
 100
AcDbEntity
   8
LEVEL001
 100
AcDbLine
   6
CONTINUOUS
  62
15
  10
 344.71907042263
  20
 190.07690816179
  30
0.0
  11
 344.62175497804
  21
 190.30879426792
  31
0.0
   0
LINE
   5
1B7
 100
AcDbEntity
   8
LEVEL001
 100
AcDbLine
   6
CONTINUOUS
  62
15
  10
 344.62175497804
  20
 190.30879426792
  30
0.0
  11
 344.44659114439
  21
 190.51779156830
  31
0.0
   0
LINE
   5
1B8
 100
AcDbEntity
   8
LEVEL001
 100
AcDbLine
   6
CONTINUOUS
  62
15
  10
 344.44659114439
  20
 190.51779156830
  30
0.0
  11
 316.15769105812
  21
 216.40243098187
  31
0.0
   0
ARC
   5
1B9
 100
AcDbEntity
   8
LEVEL001
   6
CONTINUOUS
  62
15
 100
AcDbCircle
  10
 311.69524668012
  20
 223.91224320108
  30
0.0
  40
 8.7355989717652
 100
AcDbArc
  50
 300.71942408218
  51
 308.06021260088
   0
LINE
   5
1BA
 100
AcDbEntity
   8
LEVEL001
 100
AcDbLine
   6
CONTINUOUS
  62
15
  10
 377.81079327619
  20
 167.06955481643
  30
0.0
  11
 378.16763641718
  21
 166.83918351095
  31
0.0
   0
LINE
   5
1BB
 100
AcDbEntity
   8
LEVEL001
 100
AcDbLine
   6
CONTINUOUS
  62
15
  10
 378.16763641718
  20
 166.83918351095
  30
0.0
  11
 378.57296150423
  21
 166.65815823650
  31
0.0
   0
LINE
   5
1BC
 100
AcDbEntity
   8
LEVEL001
 100
AcDbLine
   6
CONTINUOUS
  62
15
  10
 378.57296150423
  20
 166.65815823650
  30
0.0
  11
 379.01296567778
  21
 166.53264359181
  31
0.0
   0
LINE
   5
1BD
 100
AcDbEntity
   8
LEVEL001
 100
AcDbLine
   6
CONTINUOUS
  62
15
  10
 379.01296567778
  20
 166.53264359181
  30
0.0
  11
 379.47266512329
  21
 166.46691382737
  31
0.0
   0
LINE
   5
1BE
 100
AcDbEntity
   8
LEVEL001
 100
AcDbLine
   6
CONTINUOUS
  62
15
  10
 379.47266512329
  20
 166.46691382737
  30
0.0
  11
 379.93640532760
  21
 166.46320729171
  31
0.0
   0
LINE
   5
1BF
 100
AcDbEntity
   8
LEVEL001
 100
AcDbLine
   6
CONTINUOUS
  62
15
  10
 379.93640532760
  20
 166.46320729171
  30
0.0
  11
 380.38839417424
  21
 166.52165020622
  31
0.0
   0
LINE
   5
1C0
 100
AcDbEntity
   8
LEVEL001
 100
AcDbLine
   6
CONTINUOUS
  62
15
  10
 380.38839417424
  20
 166.52165020622
  30
0.0
  11
 380.81323972504
  21
 166.64025236771
  31
0.0
   0
LINE
   5
1C1
 100
AcDbEntity
   8
LEVEL001
 100
AcDbLine
   6
CONTINUOUS
  62
15
  10
 380.81323972504
  20
 166.64025236771
  30
0.0
  11
 381.19647437438
  21
 166.81497492179
  31
0.0
   0
LINE
   5
1C2
 100
AcDbEntity
   8
LEVEL001
 100
AcDbLine
   6
CONTINUOUS
  62
15
  10
 381.19647437438
  20
 166.81497492179
  30
0.0
  11
 381.52504752595
  21
 167.03986790143
  31
0.0
   0
LINE
   5
1C3
 100
AcDbEntity
   8
LEVEL001
 100
AcDbLine
   6
CONTINUOUS
  62
15
  10
 381.52504752595
  20
 167.03986790143
  30
0.0
  11
 381.78777001507
  21
 167.30727284582
  31
0.0
   0
LINE
   5
1C4
 100
AcDbEntity
   8
LEVEL001
 100
AcDbLine
   6
CONTINUOUS
  62
15
  10
 381.78777001507
  20
 167.30727284582
  30
0.0
  11
 381.97569514255
  21
 167.60808360047
  31
0.0
   0
LINE
   5
1C5
 100
AcDbEntity
   8
LEVEL001
 100
AcDbLine
   6
CONTINUOUS
  62
15
  10
 381.97569514255
  20
 167.60808360047
  30
0.0
  11
 382.08242334355
  21
 167.93205641587
  31
0.0
   0
LINE
   5
1C6
 100
AcDbEntity
   8
LEVEL001
 100
AcDbLine
   6
CONTINUOUS
  62
15
  10
 382.08242334355
  20
 167.93205641587
  30
0.0
  11
 382.10432011711
  21
 168.26815878621
  31
0.0
   0
LINE
   5
1C7
 100
AcDbEntity
   8
LEVEL001
 100
AcDbLine
   6
CONTINUOUS
  62
15
  10
 382.10432011711
  20
 168.26815878621
  30
0.0
  11
 382.04063979501
  21
 168.60494514856
  31
0.0
   0
LINE
   5
1C8
 100
AcDbEntity
   8
LEVEL001
 100
AcDbLine
   6
CONTINUOUS
  62
15
  10
 382.04063979501
  20
 168.60494514856
  30
0.0
  11
 381.89355093410
  21
 168.93094664726
  31
0.0
   0
LINE
   5
1C9
 100
AcDbEntity
   8
LEVEL001
 100
AcDbLine
   6
CONTINUOUS
  62
15
  10
 381.89355093410
  20
 168.93094664726
  30
0.0
  11
 381.66806246925
  21
 169.23506169215
  31
0.0
   0
LINE
   5
1CA
 100
AcDbEntity
   8
LEVEL001
 100
AcDbLine
   6
CONTINUOUS
  62
15
  10
 381.66806246925
  20
 169.23506169215
  30
0.0
  11
 381.37185313963
  21
 169.50693401025
  31
0.0
   0
LINE
   5
1CB
 100
AcDbEntity
   8
LEVEL001
 100
AcDbLine
   6
CONTINUOUS
  62
15
  10
 381.37185313963
  20
 169.50693401025
  30
0.0
  11
 381.01500999863
  21
 169.73730531573
  31
0.0
   0
LINE
   5
1CC
 100
AcDbEntity
   8
LEVEL001
 100
AcDbLine
   6
CONTINUOUS
  62
15
  10
 381.01500999863
  20
 169.73730531573
  30
0.0
  11
 380.60968491158
  21
 169.91833059011
  31
0.0
   0
LINE
   5
1CD
 100
AcDbEntity
   8
LEVEL001
 100
AcDbLine
   6
CONTINUOUS
  62
15
  10
 380.60968491158
  20
 169.91833059011
  30
0.0
  11
 380.16968073803
  21
 170.04384523487
  31
0.0
   0
LINE
   5
1CE
 100
AcDbEntity
   8
LEVEL001
 100
AcDbLine
   6
CONTINUOUS
  62
15
  10
 380.16968073803
  20
 170.04384523487
  30
0.0
  11
 379.70998129245
  21
 170.10957499924
  31
0.0
   0
LINE
   5
1CF
 100
AcDbEntity
   8
LEVEL001
 100
AcDbLine
   6
CONTINUOUS
  62
15
  10
 379.70998129245
  20
 170.10957499924
  30
0.0
  11
 379.24624108814
  21
 170.11328153498
  31
0.0
   0
LINE
   5
1D0
 100
AcDbEntity
   8
LEVEL001
 100
AcDbLine
   6
CONTINUOUS
  62
15
  10
 379.24624108814
  20
 170.11328153498
  30
0.0
  11
 378.79425224157
  21
 170.05483862039
  31
0.0
   0
LINE
   5
1D1
 100
AcDbEntity
   8
LEVEL001
 100
AcDbLine
   6
CONTINUOUS
  62
15
  10
 378.79425224157
  20
 170.05483862039
  30
0.0
  11
 378.36940669077
  21
 169.93623645890
  31
0.0
   0
LINE
   5
1D2
 100
AcDbEntity
   8
LEVEL001
 100
AcDbLine
   6
CONTINUOUS
  62
15
  10
 378.36940669077
  20
 169.93623645890
  30
0.0
  11
 377.98617204136
  21
 169.76151390489
  31
0.0
   0
LINE
   5
1D3
 100
AcDbEntity
   8
LEVEL001
 100
AcDbLine
   6
CONTINUOUS
  62
15
  10
 377.98617204136
  20
 169.76151390489
  30
0.0
  11
 377.65759888987
  21
 169.53662092526
  31
0.0
   0
LINE
   5
1D4
 100
AcDbEntity
   8
LEVEL001
 100
AcDbLine
   6
CONTINUOUS
  62
15
  10
 377.65759888987
  20
 169.53662092526
  30
0.0
  11
 377.39487640067
  21
 169.26921598079
  31
0.0
   0
LINE
   5
1D5
 100
AcDbEntity
   8
LEVEL001
 100
AcDbLine
   6
CONTINUOUS
  62
15
  10
 377.39487640067
  20
 169.26921598079
  30
0.0
  11
 377.20695127327
  21
 168.96840522621
  31
0.0
   0
LINE
   5
1D6
 100
AcDbEntity
   8
LEVEL001
 100
AcDbLine
   6
CONTINUOUS
  62
15
  10
 377.20695127327
  20
 168.96840522621
  30
0.0
  11
 377.10022307227
  21
 168.64443241082
  31
0.0
   0
LINE
   5
1D7
 100
AcDbEntity
   8
LEVEL001
 100
AcDbLine
   6
CONTINUOUS
  62
15
  10
 377.10022307227
  20
 168.64443241082
  30
0.0
  11
 377.07832629863
  21
 168.30833004040
  31
0.0
   0
LINE
   5
1D8
 100
AcDbEntity
   8
LEVEL001
 100
AcDbLine
   6
CONTINUOUS
  62
15
  10
 377.07832629863
  20
 168.30833004040
  30
0.0
  11
 377.14200662080
  21
 167.97154367805
  31
0.0
   0
LINE
   5
1D9
 100
AcDbEntity
   8
LEVEL001
 100
AcDbLine
   6
CONTINUOUS
  62
15
  10
 377.14200662080
  20
 167.97154367805
  30
0.0
  11
 377.28909548164
  21
 167.64554217943
  31
0.0
   0
LINE
   5
1DA
 100
AcDbEntity
   8
LEVEL001
 100
AcDbLine
   6
CONTINUOUS
  62
15
  10
 377.28909548164
  20
 167.64554217943
  30
0.0
  11
 377.51458394656
  21
 167.34142713453
  31
0.0
   0
LINE
   5
1DB
 100
AcDbEntity
   8
LEVEL001
 100
AcDbLine
   6
CONTINUOUS
  62
15
  10
 377.51458394656
  20
 167.34142713453
  30
0.0
  11
 377.81079327619
  21
 167.06955481643
  31
0.0
   0
LINE
   5
1DC
 100
AcDbEntity
   8
LEVEL001
 100
AcDbLine
   6
CONTINUOUS
  62
15
  10
 365.61348543520
  20
 167.57685757718
  30
0.0
  11
 365.97032857619
  21
 167.34648627170
  31
0.0
   0
LINE
   5
1DD
 100
AcDbEntity
   8
LEVEL001
 100
AcDbLine
   6
CONTINUOUS
  62
15
  10
 365.97032857619
  20
 167.34648627170
  30
0.0
  11
 366.37565366325
  21
 167.16546099724
  31
0.0
   0
LINE
   5
1DE
 100
AcDbEntity
   8
LEVEL001
 100
AcDbLine
   6
CONTINUOUS
  62
15
  10
 366.37565366325
  20
 167.16546099724
  30
0.0
  11
 366.81565783679
  21
 167.03994635248
  31
0.0
   0
LINE
   5
1DF
 100
AcDbEntity
   8
LEVEL001
 100
AcDbLine
   6
CONTINUOUS
  62
15
  10
 366.81565783679
  20
 167.03994635248
  30
0.0
  11
 367.27535728231
  21
 166.97421658811
  31
0.0
   0
LINE
   5
1E0
 100
AcDbEntity
   8
LEVEL001
 100
AcDbLine
   6
CONTINUOUS
  62
15
  10
 367.27535728231
  20
 166.97421658811
  30
0.0
  11
 367.73909748662
  21
 166.97051005238
  31
0.0
   0
LINE
   5
1E1
 100
AcDbEntity
   8
LEVEL001
 100
AcDbLine
   6
CONTINUOUS
  62
15
  10
 367.73909748662
  20
 166.97051005238
  30
0.0
  11
 368.19108633326
  21
 167.02895296696
  31
0.0
   0
LINE
   5
1E2
 100
AcDbEntity
   8
LEVEL001
 100
AcDbLine
   6
CONTINUOUS
  62
15
  10
 368.19108633326
  20
 167.02895296696
  30
0.0
  11
 368.61593188406
  21
 167.14755512846
  31
0.0
   0
LINE
   5
1E3
 100
AcDbEntity
   8
LEVEL001
 100
AcDbLine
   6
CONTINUOUS
  62
15
  10
 368.61593188406
  20
 167.14755512846
  30
0.0
  11
 368.99916653339
  21
 167.32227768254
  31
0.0
   0
LINE
   5
1E4
 100
AcDbEntity
   8
LEVEL001
 100
AcDbLine
   6
CONTINUOUS
  62
15
  10
 368.99916653339
  20
 167.32227768254
  30
0.0
  11
 369.32773968496
  21
 167.54717066210
  31
0.0
   0
LINE
   5
1E5
 100
AcDbEntity
   8
LEVEL001
 100
AcDbLine
   6
CONTINUOUS
  62
15
  10
 369.32773968496
  20
 167.54717066210
  30
0.0
  11
 369.59046217408
  21
 167.81457560656
  31
0.0
   0
LINE
   5
1E6
 100
AcDbEntity
   8
LEVEL001
 100
AcDbLine
   6
CONTINUOUS
  62
15
  10
 369.59046217408
  20
 167.81457560656
  30
0.0
  11
 369.77838730156
  21
 168.11538636122
  31
0.0
   0
LINE
   5
1E7
 100
AcDbEntity
   8
LEVEL001
 100
AcDbLine
   6
CONTINUOUS
  62
15
  10
 369.77838730156
  20
 168.11538636122
  30
0.0
  11
 369.88511550256
  21
 168.43935917654
  31
0.0
   0
LINE
   5
1E8
 100
AcDbEntity
   8
LEVEL001
 100
AcDbLine
   6
CONTINUOUS
  62
15
  10
 369.88511550256
  20
 168.43935917654
  30
0.0
  11
 369.90701227612
  21
 168.77546154695
  31
0.0
   0
LINE
   5
1E9
 100
AcDbEntity
   8
LEVEL001
 100
AcDbLine
   6
CONTINUOUS
  62
15
  10
 369.90701227612
  20
 168.77546154695
  30
0.0
  11
 369.84333195403
  21
 169.11224790931
  31
0.0
   0
LINE
   5
1EA
 100
AcDbEntity
   8
LEVEL001
 100
AcDbLine
   6
CONTINUOUS
  62
15
  10
 369.84333195403
  20
 169.11224790931
  30
0.0
  11
 369.69624309311
  21
 169.43824940793
  31
0.0
   0
LINE
   5
1EB
 100
AcDbEntity
   8
LEVEL001
 100
AcDbLine
   6
CONTINUOUS
  62
15
  10
 369.69624309311
  20
 169.43824940793
  30
0.0
  11
 369.47075462827
  21
 169.74236445290
  31
0.0
   0
LINE
   5
1EC
 100
AcDbEntity
   8
LEVEL001
 100
AcDbLine
   6
CONTINUOUS
  62
15
  10
 369.47075462827
  20
 169.74236445290
  30
0.0
  11
 369.17454529857
  21
 170.01423677092
  31
0.0
   0
LINE
   5
1ED
 100
AcDbEntity
   8
LEVEL001
 100
AcDbLine
   6
CONTINUOUS
  62
15
  10
 369.17454529857
  20
 170.01423677092
  30
0.0
  11
 368.81770215765
  21
 170.24460807640
  31
0.0
   0
LINE
   5
1EE
 100
AcDbEntity
   8
LEVEL001
 100
AcDbLine
   6
CONTINUOUS
  62
15
  10
 368.81770215765
  20
 170.24460807640
  30
0.0
  11
 368.41237707052
  21
 170.42563335086
  31
0.0
   0
LINE
   5
1EF
 100
AcDbEntity
   8
LEVEL001
 100
AcDbLine
   6
CONTINUOUS
  62
15
  10
 368.41237707052
  20
 170.42563335086
  30
0.0
  11
 367.97237289705
  21
 170.55114799562
  31
0.0
   0
LINE
   5
1F0
 100
AcDbEntity
   8
LEVEL001
 100
AcDbLine
   6
CONTINUOUS
  62
15
  10
 367.97237289705
  20
 170.55114799562
  30
0.0
  11
 367.51267345147
  21
 170.61687775999
  31
0.0
   0
LINE
   5
1F1
 100
AcDbEntity
   8
LEVEL001
 100
AcDbLine
   6
CONTINUOUS
  62
15
  10
 367.51267345147
  20
 170.61687775999
  30
0.0
  11
 367.04893324715
  21
 170.62058429572
  31
0.0
   0
LINE
   5
1F2
 100
AcDbEntity
   8
LEVEL001
 100
AcDbLine
   6
CONTINUOUS
  62
15
  10
 367.04893324715
  20
 170.62058429572
  30
0.0
  11
 366.59694440059
  21
 170.56214138114
  31
0.0
   0
LINE
   5
1F3
 100
AcDbEntity
   8
LEVEL001
 100
AcDbLine
   6
CONTINUOUS
  62
15
  10
 366.59694440059
  20
 170.56214138114
  30
0.0
  11
 366.17209884979
  21
 170.44353921964
  31
0.0
   0
LINE
   5
1F4
 100
AcDbEntity
   8
LEVEL001
 100
AcDbLine
   6
CONTINUOUS
  62
15
  10
 366.17209884979
  20
 170.44353921964
  30
0.0
  11
 365.78886420038
  21
 170.26881666556
  31
0.0
   0
LINE
   5
1F5
 100
AcDbEntity
   8
LEVEL001
 100
AcDbLine
   6
CONTINUOUS
  62
15
  10
 365.78886420038
  20
 170.26881666556
  30
0.0
  11
 365.46029104888
  21
 170.04392368600
  31
0.0
   0
LINE
   5
1F6
 100
AcDbEntity
   8
LEVEL001
 100
AcDbLine
   6
CONTINUOUS
  62
15
  10
 365.46029104888
  20
 170.04392368600
  30
0.0
  11
 365.19756855969
  21
 169.77651874154
  31
0.0
   0
LINE
   5
1F7
 100
AcDbEntity
   8
LEVEL001
 100
AcDbLine
   6
CONTINUOUS
  62
15
  10
 365.19756855969
  20
 169.77651874154
  30
0.0
  11
 365.00964343221
  21
 169.47570798688
  31
0.0
   0
LINE
   5
1F8
 100
AcDbEntity
   8
LEVEL001
 100
AcDbLine
   6
CONTINUOUS
  62
15
  10
 365.00964343221
  20
 169.47570798688
  30
0.0
  11
 364.90291523128
  21
 169.15173517156
  31
0.0
   0
LINE
   5
1F9
 100
AcDbEntity
   8
LEVEL001
 100
AcDbLine
   6
CONTINUOUS
  62
15
  10
 364.90291523128
  20
 169.15173517156
  30
0.0
  11
 364.88101845765
  21
 168.81563280115
  31
0.0
   0
LINE
   5
1FA
 100
AcDbEntity
   8
LEVEL001
 100
AcDbLine
   6
CONTINUOUS
  62
15
  10
 364.88101845765
  20
 168.81563280115
  30
0.0
  11
 364.94469877982
  21
 168.47884643879
  31
0.0
   0
LINE
   5
1FB
 100
AcDbEntity
   8
LEVEL001
 100
AcDbLine
   6
CONTINUOUS
  62
15
  10
 364.94469877982
  20
 168.47884643879
  30
0.0
  11
 365.09178764066
  21
 168.15284494017
  31
0.0
   0
LINE
   5
1FC
 100
AcDbEntity
   8
LEVEL001
 100
AcDbLine
   6
CONTINUOUS
  62
15
  10
 365.09178764066
  20
 168.15284494017
  30
0.0
  11
 365.31727610558
  21
 167.84872989520
  31
0.0
   0
LINE
   5
1FD
 100
AcDbEntity
   8
LEVEL001
 100
AcDbLine
   6
CONTINUOUS
  62
15
  10
 365.31727610558
  20
 167.84872989520
  30
0.0
  11
 365.61348543520
  21
 167.57685757718
  31
0.0
   0
LINE
   5
1FE
 100
AcDbEntity
   8
LEVEL001
 100
AcDbLine
   6
CONTINUOUS
  62
15
  10
 365.62552569734
  20
 176.44088900222
  30
0.0
  11
 365.98236883826
  21
 176.21051769667
  31
0.0
   0
LINE
   5
1FF
 100
AcDbEntity
   8
LEVEL001
 100
AcDbLine
   6
CONTINUOUS
  62
15
  10
 365.98236883826
  20
 176.21051769667
  30
0.0
  11
 366.38769392539
  21
 176.02949242228
  31
0.0
   0
LINE
   5
200
 100
AcDbEntity
   8
LEVEL001
 100
AcDbLine
   6
CONTINUOUS
  62
15
  10
 366.38769392539
  20
 176.02949242228
  30
0.0
  11
 366.82769809886
  21
 175.90397777752
  31
0.0
   0
LINE
   5
201
 100
AcDbEntity
   8
LEVEL001
 100
AcDbLine
   6
CONTINUOUS
  62
15
  10
 366.82769809886
  20
 175.90397777752
  30
0.0
  11
 367.28739754444
  21
 175.83824801315
  31
0.0
   0
LINE
   5
202
 100
AcDbEntity
   8
LEVEL001
 100
AcDbLine
   6
CONTINUOUS
  62
15
  10
 367.28739754444
  20
 175.83824801315
  30
0.0
  11
 367.75113774875
  21
 175.83454147742
  31
0.0
   0
LINE
   5
203
 100
AcDbEntity
   8
LEVEL001
 100
AcDbLine
   6
CONTINUOUS
  62
15
  10
 367.75113774875
  20
 175.83454147742
  30
0.0
  11
 368.20312659532
  21
 175.89298439200
  31
0.0
   0
LINE
   5
204
 100
AcDbEntity
   8
LEVEL001
 100
AcDbLine
   6
CONTINUOUS
  62
15
  10
 368.20312659532
  20
 175.89298439200
  30
0.0
  11
 368.62797214612
  21
 176.01158655350
  31
0.0
   0
LINE
   5
205
 100
AcDbEntity
   8
LEVEL001
 100
AcDbLine
   6
CONTINUOUS
  62
15
  10
 368.62797214612
  20
 176.01158655350
  30
0.0
  11
 369.01120679553
  21
 176.18630910751
  31
0.0
   0
LINE
   5
206
 100
AcDbEntity
   8
LEVEL001
 100
AcDbLine
   6
CONTINUOUS
  62
15
  10
 369.01120679553
  20
 176.18630910751
  30
0.0
  11
 369.33977994703
  21
 176.41120208714
  31
0.0
   0
LINE
   5
207
 100
AcDbEntity
   8
LEVEL001
 100
AcDbLine
   6
CONTINUOUS
  62
15
  10
 369.33977994703
  20
 176.41120208714
  30
0.0
  11
 369.60250243622
  21
 176.67860703160
  31
0.0
   0
LINE
   5
208
 100
AcDbEntity
   8
LEVEL001
 100
AcDbLine
   6
CONTINUOUS
  62
15
  10
 369.60250243622
  20
 176.67860703160
  30
0.0
  11
 369.79042756370
  21
 176.97941778626
  31
0.0
   0
LINE
   5
209
 100
AcDbEntity
   8
LEVEL001
 100
AcDbLine
   6
CONTINUOUS
  62
15
  10
 369.79042756370
  20
 176.97941778626
  30
0.0
  11
 369.89715576463
  21
 177.30339060158
  31
0.0
   0
LINE
   5
20A
 100
AcDbEntity
   8
LEVEL001
 100
AcDbLine
   6
CONTINUOUS
  62
15
  10
 369.89715576463
  20
 177.30339060158
  30
0.0
  11
 369.91905253826
  21
 177.63949297199
  31
0.0
   0
LINE
   5
20B
 100
AcDbEntity
   8
LEVEL001
 100
AcDbLine
   6
CONTINUOUS
  62
15
  10
 369.91905253826
  20
 177.63949297199
  30
0.0
  11
 369.85537221609
  21
 177.97627933435
  31
0.0
   0
LINE
   5
20C
 100
AcDbEntity
   8
LEVEL001
 100
AcDbLine
   6
CONTINUOUS
  62
15
  10
 369.85537221609
  20
 177.97627933435
  30
0.0
  11
 369.70828335525
  21
 178.30228083297
  31
0.0
   0
LINE
   5
20D
 100
AcDbEntity
   8
LEVEL001
 100
AcDbLine
   6
CONTINUOUS
  62
15
  10
 369.70828335525
  20
 178.30228083297
  30
0.0
  11
 369.48279489033
  21
 178.60639587787
  31
0.0
   0
LINE
   5
20E
 100
AcDbEntity
   8
LEVEL001
 100
AcDbLine
   6
CONTINUOUS
  62
15
  10
 369.48279489033
  20
 178.60639587787
  30
0.0
  11
 369.18658556071
  21
 178.87826819596
  31
0.0
   0
LINE
   5
20F
 100
AcDbEntity
   8
LEVEL001
 100
AcDbLine
   6
CONTINUOUS
  62
15
  10
 369.18658556071
  20
 178.87826819596
  30
0.0
  11
 368.82974241971
  21
 179.10863950144
  31
0.0
   0
LINE
   5
210
 100
AcDbEntity
   8
LEVEL001
 100
AcDbLine
   6
CONTINUOUS
  62
15
  10
 368.82974241971
  20
 179.10863950144
  30
0.0
  11
 368.42441733266
  21
 179.28966477590
  31
0.0
   0
LINE
   5
211
 100
AcDbEntity
   8
LEVEL001
 100
AcDbLine
   6
CONTINUOUS
  62
15
  10
 368.42441733266
  20
 179.28966477590
  30
0.0
  11
 367.98441315911
  21
 179.41517942066
  31
0.0
   0
LINE
   5
212
 100
AcDbEntity
   8
LEVEL001
 100
AcDbLine
   6
CONTINUOUS
  62
15
  10
 367.98441315911
  20
 179.41517942066
  30
0.0
  11
 367.52471371360
  21
 179.48090918503
  31
0.0
   0
LINE
   5
213
 100
AcDbEntity
   8
LEVEL001
 100
AcDbLine
   6
CONTINUOUS
  62
15
  10
 367.52471371360
  20
 179.48090918503
  30
0.0
  11
 367.06097350929
  21
 179.48461572076
  31
0.0
   0
LINE
   5
214
 100
AcDbEntity
   8
LEVEL001
 100
AcDbLine
   6
CONTINUOUS
  62
15
  10
 367.06097350929
  20
 179.48461572076
  30
0.0
  11
 366.60898466265
  21
 179.42617280618
  31
0.0
   0
LINE
   5
215
 100
AcDbEntity
   8
LEVEL001
 100
AcDbLine
   6
CONTINUOUS
  62
15
  10
 366.60898466265
  20
 179.42617280618
  30
0.0
  11
 366.18413911185
  21
 179.30757064468
  31
0.0
   0
LINE
   5
216
 100
AcDbEntity
   8
LEVEL001
 100
AcDbLine
   6
CONTINUOUS
  62
15
  10
 366.18413911185
  20
 179.30757064468
  30
0.0
  11
 365.80090446251
  21
 179.13284809060
  31
0.0
   0
LINE
   5
217
 100
AcDbEntity
   8
LEVEL001
 100
AcDbLine
   6
CONTINUOUS
  62
15
  10
 365.80090446251
  20
 179.13284809060
  30
0.0
  11
 365.47233131095
  21
 178.90795511104
  31
0.0
   0
LINE
   5
218
 100
AcDbEntity
   8
LEVEL001
 100
AcDbLine
   6
CONTINUOUS
  62
15
  10
 365.47233131095
  20
 178.90795511104
  30
0.0
  11
 365.20960882183
  21
 178.64055016658
  31
0.0
   0
LINE
   5
219
 100
AcDbEntity
   8
LEVEL001
 100
AcDbLine
   6
CONTINUOUS
  62
15
  10
 365.20960882183
  20
 178.64055016658
  30
0.0
  11
 365.02168369435
  21
 178.33973941192
  31
0.0
   0
LINE
   5
21A
 100
AcDbEntity
   8
LEVEL001
 100
AcDbLine
   6
CONTINUOUS
  62
15
  10
 365.02168369435
  20
 178.33973941192
  30
0.0
  11
 364.91495549335
  21
 178.01576659660
  31
0.0
   0
LINE
   5
21B
 100
AcDbEntity
   8
LEVEL001
 100
AcDbLine
   6
CONTINUOUS
  62
15
  10
 364.91495549335
  20
 178.01576659660
  30
0.0
  11
 364.89305871979
  21
 177.67966422619
  31
0.0
   0
LINE
   5
21C
 100
AcDbEntity
   8
LEVEL001
 100
AcDbLine
   6
CONTINUOUS
  62
15
  10
 364.89305871979
  20
 177.67966422619
  30
0.0
  11
 364.95673904188
  21
 177.34287786383
  31
0.0
   0
LINE
   5
21D
 100
AcDbEntity
   8
LEVEL001
 100
AcDbLine
   6
CONTINUOUS
  62
15
  10
 364.95673904188
  20
 177.34287786383
  30
0.0
  11
 365.10382790279
  21
 177.01687636521
  31
0.0
   0
LINE
   5
21E
 100
AcDbEntity
   8
LEVEL001
 100
AcDbLine
   6
CONTINUOUS
  62
15
  10
 365.10382790279
  20
 177.01687636521
  30
0.0
  11
 365.32931636764
  21
 176.71276132024
  31
0.0
   0
LINE
   5
21F
 100
AcDbEntity
   8
LEVEL001
 100
AcDbLine
   6
CONTINUOUS
  62
15
  10
 365.32931636764
  20
 176.71276132024
  30
0.0
  11
 365.62552569734
  21
 176.44088900222
  31
0.0
   0
LINE
   5
220
 100
AcDbEntity
   8
LEVEL001
 100
AcDbLine
   6
CONTINUOUS
  62
15
  10
 377.82283353832
  20
 175.93358624147
  30
0.0
  11
 378.17967667924
  21
 175.70321493599
  31
0.0
   0
LINE
   5
221
 100
AcDbEntity
   8
LEVEL001
 100
AcDbLine
   6
CONTINUOUS
  62
15
  10
 378.17967667924
  20
 175.70321493599
  30
0.0
  11
 378.58500176637
  21
 175.52218966154
  31
0.0
   0
LINE
   5
222
 100
AcDbEntity
   8
LEVEL001
 100
AcDbLine
   6
CONTINUOUS
  62
15
  10
 378.58500176637
  20
 175.52218966154
  30
0.0
  11
 379.02500593991
  21
 175.39667501685
  31
0.0
   0
LINE
   5
223
 100
AcDbEntity
   8
LEVEL001
 100
AcDbLine
   6
CONTINUOUS
  62
15
  10
 379.02500593991
  20
 175.39667501685
  30
0.0
  11
 379.48470538543
  21
 175.33094525241
  31
0.0
   0
LINE
   5
224
 100
AcDbEntity
   8
LEVEL001
 100
AcDbLine
   6
CONTINUOUS
  62
15
  10
 379.48470538543
  20
 175.33094525241
  30
0.0
  11
 379.94844558974
  21
 175.32723871675
  31
0.0
   0
LINE
   5
225
 100
AcDbEntity
   8
LEVEL001
 100
AcDbLine
   6
CONTINUOUS
  62
15
  10
 379.94844558974
  20
 175.32723871675
  30
0.0
  11
 380.40043443631
  21
 175.38568163126
  31
0.0
   0
LINE
   5
226
 100
AcDbEntity
   8
LEVEL001
 100
AcDbLine
   6
CONTINUOUS
  62
15
  10
 380.40043443631
  20
 175.38568163126
  30
0.0
  11
 380.82527998718
  21
 175.50428379275
  31
0.0
   0
LINE
   5
227
 100
AcDbEntity
   8
LEVEL001
 100
AcDbLine
   6
CONTINUOUS
  62
15
  10
 380.82527998718
  20
 175.50428379275
  30
0.0
  11
 381.20851463651
  21
 175.67900634683
  31
0.0
   0
LINE
   5
228
 100
AcDbEntity
   8
LEVEL001
 100
AcDbLine
   6
CONTINUOUS
  62
15
  10
 381.20851463651
  20
 175.67900634683
  30
0.0
  11
 381.53708778808
  21
 175.90389932639
  31
0.0
   0
LINE
   5
229
 100
AcDbEntity
   8
LEVEL001
 100
AcDbLine
   6
CONTINUOUS
  62
15
  10
 381.53708778808
  20
 175.90389932639
  30
0.0
  11
 381.79981027720
  21
 176.17130427086
  31
0.0
   0
LINE
   5
22A
 100
AcDbEntity
   8
LEVEL001
 100
AcDbLine
   6
CONTINUOUS
  62
15
  10
 381.79981027720
  20
 176.17130427086
  30
0.0
  11
 381.98773540468
  21
 176.47211502551
  31
0.0
   0
LINE
   5
22B
 100
AcDbEntity
   8
LEVEL001
 100
AcDbLine
   6
CONTINUOUS
  62
15
  10
 381.98773540468
  20
 176.47211502551
  30
0.0
  11
 382.09446360561
  21
 176.79608784083
  31
0.0
   0
LINE
   5
22C
 100
AcDbEntity
   8
LEVEL001
 100
AcDbLine
   6
CONTINUOUS
  62
15
  10
 382.09446360561
  20
 176.79608784083
  30
0.0
  11
 382.11636037924
  21
 177.13219021125
  31
0.0
   0
LINE
   5
22D
 100
AcDbEntity
   8
LEVEL001
 100
AcDbLine
   6
CONTINUOUS
  62
15
  10
 382.11636037924
  20
 177.13219021125
  30
0.0
  11
 382.05268005707
  21
 177.46897657360
  31
0.0
   0
LINE
   5
22E
 100
AcDbEntity
   8
LEVEL001
 100
AcDbLine
   6
CONTINUOUS
  62
15
  10
 382.05268005707
  20
 177.46897657360
  30
0.0
  11
 381.90559119623
  21
 177.79497807230
  31
0.0
   0
LINE
   5
22F
 100
AcDbEntity
   8
LEVEL001
 100
AcDbLine
   6
CONTINUOUS
  62
15
  10
 381.90559119623
  20
 177.79497807230
  30
0.0
  11
 381.68010273139
  21
 178.09909311719
  31
0.0
   0
LINE
   5
230
 100
AcDbEntity
   8
LEVEL001
 100
AcDbLine
   6
CONTINUOUS
  62
15
  10
 381.68010273139
  20
 178.09909311719
  30
0.0
  11
 381.38389340169
  21
 178.37096543522
  31
0.0
   0
LINE
   5
231
 100
AcDbEntity
   8
LEVEL001
 100
AcDbLine
   6
CONTINUOUS
  62
15
  10
 381.38389340169
  20
 178.37096543522
  30
0.0
  11
 381.02705026077
  21
 178.60133674077
  31
0.0
   0
LINE
   5
232
 100
AcDbEntity
   8
LEVEL001
 100
AcDbLine
   6
CONTINUOUS
  62
15
  10
 381.02705026077
  20
 178.60133674077
  30
0.0
  11
 380.62172517364
  21
 178.78236201515
  31
0.0
   0
LINE
   5
233
 100
AcDbEntity
   8
LEVEL001
 100
AcDbLine
   6
CONTINUOUS
  62
15
  10
 380.62172517364
  20
 178.78236201515
  30
0.0
  11
 380.18172100010
  21
 178.90787665991
  31
0.0
   0
LINE
   5
234
 100
AcDbEntity
   8
LEVEL001
 100
AcDbLine
   6
CONTINUOUS
  62
15
  10
 380.18172100010
  20
 178.90787665991
  30
0.0
  11
 379.72202155459
  21
 178.97360642428
  31
0.0
   0
LINE
   5
235
 100
AcDbEntity
   8
LEVEL001
 100
AcDbLine
   6
CONTINUOUS
  62
15
  10
 379.72202155459
  20
 178.97360642428
  30
0.0
  11
 379.25828135027
  21
 178.97731296002
  31
0.0
   0
LINE
   5
236
 100
AcDbEntity
   8
LEVEL001
 100
AcDbLine
   6
CONTINUOUS
  62
15
  10
 379.25828135027
  20
 178.97731296002
  30
0.0
  11
 378.80629250371
  21
 178.91887004543
  31
0.0
   0
LINE
   5
237
 100
AcDbEntity
   8
LEVEL001
 100
AcDbLine
   6
CONTINUOUS
  62
15
  10
 378.80629250371
  20
 178.91887004543
  30
0.0
  11
 378.38144695283
  21
 178.80026788394
  31
0.0
   0
LINE
   5
238
 100
AcDbEntity
   8
LEVEL001
 100
AcDbLine
   6
CONTINUOUS
  62
15
  10
 378.38144695283
  20
 178.80026788394
  30
0.0
  11
 377.99821230350
  21
 178.62554532993
  31
0.0
   0
LINE
   5
239
 100
AcDbEntity
   8
LEVEL001
 100
AcDbLine
   6
CONTINUOUS
  62
15
  10
 377.99821230350
  20
 178.62554532993
  30
0.0
  11
 377.66963915193
  21
 178.40065235030
  31
0.0
   0
LINE
   5
23A
 100
AcDbEntity
   8
LEVEL001
 100
AcDbLine
   6
CONTINUOUS
  62
15
  10
 377.66963915193
  20
 178.40065235030
  30
0.0
  11
 377.40691666281
  21
 178.13324740583
  31
0.0
   0
LINE
   5
23B
 100
AcDbEntity
   8
LEVEL001
 100
AcDbLine
   6
CONTINUOUS
  62
15
  10
 377.40691666281
  20
 178.13324740583
  30
0.0
  11
 377.21899153533
  21
 177.83243665125
  31
0.0
   0
LINE
   5
23C
 100
AcDbEntity
   8
LEVEL001
 100
AcDbLine
   6
CONTINUOUS
  62
15
  10
 377.21899153533
  20
 177.83243665125
  30
0.0
  11
 377.11226333433
  21
 177.50846383586
  31
0.0
   0
LINE
   5
23D
 100
AcDbEntity
   8
LEVEL001
 100
AcDbLine
   6
CONTINUOUS
  62
15
  10
 377.11226333433
  20
 177.50846383586
  30
0.0
  11
 377.09036656077
  21
 177.17236146544
  31
0.0
   0
LINE
   5
23E
 100
AcDbEntity
   8
LEVEL001
 100
AcDbLine
   6
CONTINUOUS
  62
15
  10
 377.09036656077
  20
 177.17236146544
  30
0.0
  11
 377.15404688287
  21
 176.83557510309
  31
0.0
   0
LINE
   5
23F
 100
AcDbEntity
   8
LEVEL001
 100
AcDbLine
   6
CONTINUOUS
  62
15
  10
 377.15404688287
  20
 176.83557510309
  30
0.0
  11
 377.30113574378
  21
 176.50957360447
  31
0.0
   0
LINE
   5
240
 100
AcDbEntity
   8
LEVEL001
 100
AcDbLine
   6
CONTINUOUS
  62
15
  10
 377.30113574378
  20
 176.50957360447
  30
0.0
  11
 377.52662420863
  21
 176.20545855957
  31
0.0
   0
LINE
   5
241
 100
AcDbEntity
   8
LEVEL001
 100
AcDbLine
   6
CONTINUOUS
  62
15
  10
 377.52662420863
  20
 176.20545855957
  30
0.0
  11
 377.82283353832
  21
 175.93358624147
  31
0.0
   0
LINE
   5
242
 100
AcDbEntity
   8
LEVEL001
 100
AcDbLine
   6
CONTINUOUS
  62
15
  10
 383.50504832500
  20
 163.43903799083
  30
0.0
  11
 366.79224167935
  21
 164.13414653949
  31
0.0
   0
ARC
   5
243
 100
AcDbEntity
   8
LEVEL001
   6
CONTINUOUS
  62
15
 100
AcDbCircle
  10
 366.82164951277
  20
 165.45240085461
  30
0.0
  40
 1.3185822916854
 100
AcDbArc
  50
 229.44291067168
  51
 268.72204831999
   0
LINE
   5
244
 100
AcDbEntity
   8
LEVEL001
 100
AcDbLine
   6
CONTINUOUS
  62
15
  10
 311.83125568660
  20
 213.98289860654
  30
0.0
  11
 311.91662550823
  21
 214.97222210440
  31
0.0
   0
LINE
   5
245
 100
AcDbEntity
   8
LEVEL001
 100
AcDbLine
   6
CONTINUOUS
  62
15
  10
 365.96430019713
  20
 164.45059677652
  30
0.0
  11
 311.83125568660
  21
 213.98289860654
  31
0.0
   0
ARC
   5
246
 100
AcDbEntity
   8
LEVEL001
   6
CONTINUOUS
  62
15
 100
AcDbCircle
  10
 383.67154729821
  20
 164.36455567392
  30
0.0
  40
 0.94037486657668
 100
AcDbArc
  50
 259.80167556296
  51
 345.53531013904
   0
LINE
   5
247
 100
AcDbEntity
   8
LEVEL001
 100
AcDbLine
   6
CONTINUOUS
  62
15
  10
 366.19603284369
  20
 167.39377667558
  30
0.0
  11
 365.96343801232
  21
 167.61750496586
  31
0.0
   0
LINE
   5
248
 100
AcDbEntity
   8
LEVEL001
 100
AcDbLine
   6
CONTINUOUS
  62
15
  10
 365.96343801232
  20
 167.61750496586
  30
0.0
  11
 365.80508953322
  21
 167.87140763779
  31
0.0
   0
LINE
   5
249
 100
AcDbEntity
   8
LEVEL001
 100
AcDbLine
   6
CONTINUOUS
  62
15
  10
 365.80508953322
  20
 167.87140763779
  30
0.0
  11
 365.72952401380
  21
 168.14179673270
  31
0.0
   0
LINE
   5
24A
 100
AcDbEntity
   8
LEVEL001
 100
AcDbLine
   6
CONTINUOUS
  62
15
  10
 365.72952401380
  20
 168.14179673270
  30
0.0
  11
 365.74081521083
  21
 168.41409550449
  31
0.0
   0
LINE
   5
24B
 100
AcDbEntity
   8
LEVEL001
 100
AcDbLine
   6
CONTINUOUS
  62
15
  10
 365.74081521083
  20
 168.41409550449
  30
0.0
  11
 365.83835441299
  21
 168.67362425584
  31
0.0
   0
LINE
   5
24C
 100
AcDbEntity
   8
LEVEL001
 100
AcDbLine
   6
CONTINUOUS
  62
15
  10
 365.83835441299
  20
 168.67362425584
  30
0.0
  11
 366.01688325657
  21
 168.90639172463
  31
0.0
   0
LINE
   5
24D
 100
AcDbEntity
   8
LEVEL001
 100
AcDbLine
   6
CONTINUOUS
  62
15
  10
 366.01688325657
  20
 168.90639172463
  30
0.0
  11
 366.26677720545
  21
 169.09984935631
  31
0.0
   0
LINE
   5
24E
 100
AcDbEntity
   8
LEVEL001
 100
AcDbLine
   6
CONTINUOUS
  62
15
  10
 366.26677720545
  20
 169.09984935631
  30
0.0
  11
 366.57456441213
  21
 169.24356779995
  31
0.0
   0
LINE
   5
24F
 100
AcDbEntity
   8
LEVEL001
 100
AcDbLine
   6
CONTINUOUS
  62
15
  10
 366.57456441213
  20
 169.24356779995
  30
0.0
  11
 366.92365198867
  21
 169.32979915708
  31
0.0
   0
LINE
   5
250
 100
AcDbEntity
   8
LEVEL001
 100
AcDbLine
   6
CONTINUOUS
  62
15
  10
 366.92365198867
  20
 169.32979915708
  30
0.0
  11
 367.29522053344
  21
 169.35389467276
  31
0.0
   0
LINE
   5
251
 100
AcDbEntity
   8
LEVEL001
 100
AcDbLine
   6
CONTINUOUS
  62
15
  10
 367.29522053344
  20
 169.35389467276
  30
0.0
  11
 367.66923869001
  21
 169.31455535171
  31
0.0
   0
LINE
   5
252
 100
AcDbEntity
   8
LEVEL001
 100
AcDbLine
   6
CONTINUOUS
  62
15
  10
 367.66923869001
  20
 169.31455535171
  30
0.0
  11
 368.02554304276
  21
 169.21390198677
  31
0.0
   0
LINE
   5
253
 100
AcDbEntity
   8
LEVEL001
 100
AcDbLine
   6
CONTINUOUS
  62
15
  10
 368.02554304276
  20
 169.21390198677
  30
0.0
  11
 368.34492513182
  21
 169.05736082690
  31
0.0
   0
LINE
   5
254
 100
AcDbEntity
   8
LEVEL001
 100
AcDbLine
   6
CONTINUOUS
  62
15
  10
 368.34492513182
  20
 169.05736082690
  30
0.0
  11
 368.61016698604
  21
 168.85337104660
  31
0.0
   0
LINE
   5
255
 100
AcDbEntity
   8
LEVEL001
 100
AcDbLine
   6
CONTINUOUS
  62
15
  10
 368.61016698604
  20
 168.85337104660
  30
0.0
  11
 368.80696934848
  21
 168.61292978771
  31
0.0
   0
LINE
   5
256
 100
AcDbEntity
   8
LEVEL001
 100
AcDbLine
   6
CONTINUOUS
  62
15
  10
 368.80696934848
  20
 168.61292978771
  30
0.0
  11
 368.92472255279
  21
 168.34899930074
  31
0.0
   0
LINE
   5
257
 100
AcDbEntity
   8
LEVEL001
 100
AcDbLine
   6
CONTINUOUS
  62
15
  10
 368.92472255279
  20
 168.34899930074
  30
0.0
  11
 368.95707849326
  21
 168.07580814662
  31
0.0
   0
LINE
   5
258
 100
AcDbEntity
   8
LEVEL001
 100
AcDbLine
   6
CONTINUOUS
  62
15
  10
 368.95707849326
  20
 168.07580814662
  30
0.0
  11
 368.90229285280
  21
 167.80808413099
  31
0.0
   0
LINE
   5
259
 100
AcDbEntity
   8
LEVEL001
 100
AcDbLine
   6
CONTINUOUS
  62
15
  10
 368.90229285280
  20
 167.80808413099
  30
0.0
  11
 368.76331913939
  21
 167.56026032503
  31
0.0
   0
LINE
   5
25A
 100
AcDbEntity
   8
LEVEL001
 100
AcDbLine
   6
CONTINUOUS
  62
15
  10
 368.76331913939
  20
 167.56026032503
  30
0.0
  11
 368.54764946193
  21
 167.34569697415
  31
0.0
   0
LINE
   5
25B
 100
AcDbEntity
   8
LEVEL001
 100
AcDbLine
   6
CONTINUOUS
  62
15
  10
 368.54764946193
  20
 167.34569697415
  30
0.0
  11
 368.26691062859
  21
 167.17596124418
  31
0.0
   0
LINE
   5
25C
 100
AcDbEntity
   8
LEVEL001
 100
AcDbLine
   6
CONTINUOUS
  62
15
  10
 368.26691062859
  20
 167.17596124418
  30
0.0
  11
 367.93623734251
  21
 167.06020363226
  31
0.0
   0
LINE
   5
25D
 100
AcDbEntity
   8
LEVEL001
 100
AcDbLine
   6
CONTINUOUS
  62
15
  10
 367.93623734251
  20
 167.06020363226
  30
0.0
  11
 367.57345628613
  21
 167.00466466120
  31
0.0
   0
LINE
   5
25E
 100
AcDbEntity
   8
LEVEL001
 100
AcDbLine
   6
CONTINUOUS
  62
15
  10
 367.57345628613
  20
 167.00466466120
  30
0.0
  11
 367.19812508011
  21
 167.01233845130
  31
0.0
   0
LINE
   5
25F
 100
AcDbEntity
   8
LEVEL001
 100
AcDbLine
   6
CONTINUOUS
  62
15
  10
 367.19812508011
  20
 167.01233845130
  30
0.0
  11
 366.83047792691
  21
 167.08281130660
  31
0.0
   0
LINE
   5
260
 100
AcDbEntity
   8
LEVEL001
 100
AcDbLine
   6
CONTINUOUS
  62
15
  10
 366.83047792691
  20
 167.08281130660
  30
0.0
  11
 366.49033477977
  21
 167.21228401708
  31
0.0
   0
LINE
   5
261
 100
AcDbEntity
   8
LEVEL001
 100
AcDbLine
   6
CONTINUOUS
  62
15
  10
 366.49033477977
  20
 167.21228401708
  30
0.0
  11
 366.19603284369
  21
 167.39377667558
  31
0.0
   0
LINE
   5
262
 100
AcDbEntity
   8
LEVEL001
 100
AcDbLine
   6
CONTINUOUS
  62
15
  10
 378.39334068475
  20
 166.88647391491
  30
0.0
  11
 378.16074585331
  21
 167.11020220511
  31
0.0
   0
LINE
   5
263
 100
AcDbEntity
   8
LEVEL001
 100
AcDbLine
   6
CONTINUOUS
  62
15
  10
 378.16074585331
  20
 167.11020220511
  30
0.0
  11
 378.00239737420
  21
 167.36410487711
  31
0.0
   0
LINE
   5
264
 100
AcDbEntity
   8
LEVEL001
 100
AcDbLine
   6
CONTINUOUS
  62
15
  10
 378.00239737420
  20
 167.36410487711
  30
0.0
  11
 377.92683185479
  21
 167.63449397203
  31
0.0
   0
LINE
   5
265
 100
AcDbEntity
   8
LEVEL001
 100
AcDbLine
   6
CONTINUOUS
  62
15
  10
 377.92683185479
  20
 167.63449397203
  30
0.0
  11
 377.93812305182
  21
 167.90679274375
  31
0.0
   0
LINE
   5
266
 100
AcDbEntity
   8
LEVEL001
 100
AcDbLine
   6
CONTINUOUS
  62
15
  10
 377.93812305182
  20
 167.90679274375
  30
0.0
  11
 378.03566225397
  21
 168.16632149510
  31
0.0
   0
LINE
   5
267
 100
AcDbEntity
   8
LEVEL001
 100
AcDbLine
   6
CONTINUOUS
  62
15
  10
 378.03566225397
  20
 168.16632149510
  30
0.0
  11
 378.21419109755
  21
 168.39908896389
  31
0.0
   0
LINE
   5
268
 100
AcDbEntity
   8
LEVEL001
 100
AcDbLine
   6
CONTINUOUS
  62
15
  10
 378.21419109755
  20
 168.39908896389
  30
0.0
  11
 378.46408504643
  21
 168.59254659563
  31
0.0
   0
LINE
   5
269
 100
AcDbEntity
   8
LEVEL001
 100
AcDbLine
   6
CONTINUOUS
  62
15
  10
 378.46408504643
  20
 168.59254659563
  30
0.0
  11
 378.77187225311
  21
 168.73626503927
  31
0.0
   0
LINE
   5
26A
 100
AcDbEntity
   8
LEVEL001
 100
AcDbLine
   6
CONTINUOUS
  62
15
  10
 378.77187225311
  20
 168.73626503927
  30
0.0
  11
 379.12095982965
  21
 168.82249639634
  31
0.0
   0
LINE
   5
26B
 100
AcDbEntity
   8
LEVEL001
 100
AcDbLine
   6
CONTINUOUS
  62
15
  10
 379.12095982965
  20
 168.82249639634
  30
0.0
  11
 379.49252837443
  21
 168.84659191209
  31
0.0
   0
LINE
   5
26C
 100
AcDbEntity
   8
LEVEL001
 100
AcDbLine
   6
CONTINUOUS
  62
15
  10
 379.49252837443
  20
 168.84659191209
  30
0.0
  11
 379.86654653099
  21
 168.80725259097
  31
0.0
   0
LINE
   5
26D
 100
AcDbEntity
   8
LEVEL001
 100
AcDbLine
   6
CONTINUOUS
  62
15
  10
 379.86654653099
  20
 168.80725259097
  30
0.0
  11
 380.22285088375
  21
 168.70659922603
  31
0.0
   0
LINE
   5
26E
 100
AcDbEntity
   8
LEVEL001
 100
AcDbLine
   6
CONTINUOUS
  62
15
  10
 380.22285088375
  20
 168.70659922603
  30
0.0
  11
 380.54223297280
  21
 168.55005806623
  31
0.0
   0
LINE
   5
26F
 100
AcDbEntity
   8
LEVEL001
 100
AcDbLine
   6
CONTINUOUS
  62
15
  10
 380.54223297280
  20
 168.55005806623
  30
0.0
  11
 380.80747482703
  21
 168.34606828593
  31
0.0
   0
LINE
   5
270
 100
AcDbEntity
   8
LEVEL001
 100
AcDbLine
   6
CONTINUOUS
  62
15
  10
 380.80747482703
  20
 168.34606828593
  30
0.0
  11
 381.00427718947
  21
 168.10562702704
  31
0.0
   0
LINE
   5
271
 100
AcDbEntity
   8
LEVEL001
 100
AcDbLine
   6
CONTINUOUS
  62
15
  10
 381.00427718947
  20
 168.10562702704
  30
0.0
  11
 381.12203039378
  21
 167.84169654007
  31
0.0
   0
LINE
   5
272
 100
AcDbEntity
   8
LEVEL001
 100
AcDbLine
   6
CONTINUOUS
  62
15
  10
 381.12203039378
  20
 167.84169654007
  30
0.0
  11
 381.15438633424
  21
 167.56850538587
  31
0.0
   0
LINE
   5
273
 100
AcDbEntity
   8
LEVEL001
 100
AcDbLine
   6
CONTINUOUS
  62
15
  10
 381.15438633424
  20
 167.56850538587
  30
0.0
  11
 381.09960069379
  21
 167.30078137031
  31
0.0
   0
LINE
   5
274
 100
AcDbEntity
   8
LEVEL001
 100
AcDbLine
   6
CONTINUOUS
  62
15
  10
 381.09960069379
  20
 167.30078137031
  30
0.0
  11
 380.96062698038
  21
 167.05295756428
  31
0.0
   0
LINE
   5
275
 100
AcDbEntity
   8
LEVEL001
 100
AcDbLine
   6
CONTINUOUS
  62
15
  10
 380.96062698038
  20
 167.05295756428
  30
0.0
  11
 380.74495730291
  21
 166.83839421347
  31
0.0
   0
LINE
   5
276
 100
AcDbEntity
   8
LEVEL001
 100
AcDbLine
   6
CONTINUOUS
  62
15
  10
 380.74495730291
  20
 166.83839421347
  30
0.0
  11
 380.46421846958
  21
 166.66865848351
  31
0.0
   0
LINE
   5
277
 100
AcDbEntity
   8
LEVEL001
 100
AcDbLine
   6
CONTINUOUS
  62
15
  10
 380.46421846958
  20
 166.66865848351
  30
0.0
  11
 380.13354518349
  21
 166.55290087159
  31
0.0
   0
LINE
   5
278
 100
AcDbEntity
   8
LEVEL001
 100
AcDbLine
   6
CONTINUOUS
  62
15
  10
 380.13354518349
  20
 166.55290087159
  30
0.0
  11
 379.77076412711
  21
 166.49736190053
  31
0.0
   0
LINE
   5
279
 100
AcDbEntity
   8
LEVEL001
 100
AcDbLine
   6
CONTINUOUS
  62
15
  10
 379.77076412711
  20
 166.49736190053
  30
0.0
  11
 379.39543292109
  21
 166.50503569063
  31
0.0
   0
LINE
   5
27A
 100
AcDbEntity
   8
LEVEL001
 100
AcDbLine
   6
CONTINUOUS
  62
15
  10
 379.39543292109
  20
 166.50503569063
  30
0.0
  11
 379.02778576797
  21
 166.57550854586
  31
0.0
   0
LINE
   5
27B
 100
AcDbEntity
   8
LEVEL001
 100
AcDbLine
   6
CONTINUOUS
  62
15
  10
 379.02778576797
  20
 166.57550854586
  30
0.0
  11
 378.68764262075
  21
 166.70498125641
  31
0.0
   0
LINE
   5
27C
 100
AcDbEntity
   8
LEVEL001
 100
AcDbLine
   6
CONTINUOUS
  62
15
  10
 378.68764262075
  20
 166.70498125641
  30
0.0
  11
 378.39334068475
  21
 166.88647391491
  31
0.0
   0
ARC
   5
27D
 100
AcDbEntity
   8
LEVEL001
   6
CONTINUOUS
  62
15
 100
AcDbCircle
  10
 367.79642036014
  20
 167.65974556535
  30
0.0
  40
 1.1385112375382
 100
AcDbArc
  50
 9.8348226063495
  51
 54.764462901394
   0
LINE
   5
27E
 100
AcDbEntity
   8
LEVEL001
 100
AcDbLine
   6
CONTINUOUS
  62
15
  10
 365.73110443159
  20
 168.12923085206
  30
0.0
  11
 365.74701192086
  21
 168.17535953306
  31
0.0
   0
LINE
   5
27F
 100
AcDbEntity
   8
LEVEL001
 100
AcDbLine
   6
CONTINUOUS
  62
15
  10
 365.74701192086
  20
 168.17535953306
  30
0.0
  11
 365.88598563427
  21
 168.42318333909
  31
0.0
   0
LINE
   5
280
 100
AcDbEntity
   8
LEVEL001
 100
AcDbLine
   6
CONTINUOUS
  62
15
  10
 365.88598563427
  20
 168.42318333909
  30
0.0
  11
 366.10165531173
  21
 168.63774668990
  31
0.0
   0
LINE
   5
281
 100
AcDbEntity
   8
LEVEL001
 100
AcDbLine
   6
CONTINUOUS
  62
15
  10
 366.10165531173
  20
 168.63774668990
  30
0.0
  11
 366.38239414507
  21
 168.80748241987
  31
0.0
   0
LINE
   5
282
 100
AcDbEntity
   8
LEVEL001
 100
AcDbLine
   6
CONTINUOUS
  62
15
  10
 366.38239414507
  20
 168.80748241987
  30
0.0
  11
 366.71306743115
  21
 168.92324003179
  31
0.0
   0
LINE
   5
283
 100
AcDbEntity
   8
LEVEL001
 100
AcDbLine
   6
CONTINUOUS
  62
15
  10
 366.71306743115
  20
 168.92324003179
  30
0.0
  11
 367.07584848753
  21
 168.97877900284
  31
0.0
   0
LINE
   5
284
 100
AcDbEntity
   8
LEVEL001
 100
AcDbLine
   6
CONTINUOUS
  62
15
  10
 367.07584848753
  20
 168.97877900284
  30
0.0
  11
 367.45117969355
  21
 168.97110521275
  31
0.0
   0
LINE
   5
285
 100
AcDbEntity
   8
LEVEL001
 100
AcDbLine
   6
CONTINUOUS
  62
15
  10
 367.45117969355
  20
 168.97110521275
  30
0.0
  11
 367.81882684675
  21
 168.90063235751
  31
0.0
   0
LINE
   5
286
 100
AcDbEntity
   8
LEVEL001
 100
AcDbLine
   6
CONTINUOUS
  62
15
  10
 367.81882684675
  20
 168.90063235751
  30
0.0
  11
 368.15896999389
  21
 168.77115964696
  31
0.0
   0
LINE
   5
287
 100
AcDbEntity
   8
LEVEL001
 100
AcDbLine
   6
CONTINUOUS
  62
15
  10
 368.15896999389
  20
 168.77115964696
  30
0.0
  11
 368.45327192997
  21
 168.58966698847
  31
0.0
   0
ARC
   5
288
 100
AcDbEntity
   8
LEVEL001
   6
CONTINUOUS
  62
15
 100
AcDbCircle
  10
 379.99372820111
  20
 167.15244280461
  30
0.0
  40
 1.1385112375383
 100
AcDbArc
  50
 9.8348226059571
  51
 54.764462900839
   0
LINE
   5
289
 100
AcDbEntity
   8
LEVEL001
 100
AcDbLine
   6
CONTINUOUS
  62
15
  10
 377.92841227257
  20
 167.62192809139
  30
0.0
  11
 377.94431976191
  21
 167.66805677239
  31
0.0
   0
LINE
   5
28A
 100
AcDbEntity
   8
LEVEL001
 100
AcDbLine
   6
CONTINUOUS
  62
15
  10
 377.94431976191
  20
 167.66805677239
  30
0.0
  11
 378.08329347525
  21
 167.91588057835
  31
0.0
   0
LINE
   5
28B
 100
AcDbEntity
   8
LEVEL001
 100
AcDbLine
   6
CONTINUOUS
  62
15
  10
 378.08329347525
  20
 167.91588057835
  30
0.0
  11
 378.29896315271
  21
 168.13044392923
  31
0.0
   0
LINE
   5
28C
 100
AcDbEntity
   8
LEVEL001
 100
AcDbLine
   6
CONTINUOUS
  62
15
  10
 378.29896315271
  20
 168.13044392923
  30
0.0
  11
 378.57970198605
  21
 168.30017965919
  31
0.0
   0
LINE
   5
28D
 100
AcDbEntity
   8
LEVEL001
 100
AcDbLine
   6
CONTINUOUS
  62
15
  10
 378.57970198605
  20
 168.30017965919
  30
0.0
  11
 378.91037527214
  21
 168.41593727111
  31
0.0
   0
LINE
   5
28E
 100
AcDbEntity
   8
LEVEL001
 100
AcDbLine
   6
CONTINUOUS
  62
15
  10
 378.91037527214
  20
 168.41593727111
  30
0.0
  11
 379.27315632851
  21
 168.47147624217
  31
0.0
   0
LINE
   5
28F
 100
AcDbEntity
   8
LEVEL001
 100
AcDbLine
   6
CONTINUOUS
  62
15
  10
 379.27315632851
  20
 168.47147624217
  30
0.0
  11
 379.64848753454
  21
 168.46380245207
  31
0.0
   0
LINE
   5
290
 100
AcDbEntity
   8
LEVEL001
 100
AcDbLine
   6
CONTINUOUS
  62
15
  10
 379.64848753454
  20
 168.46380245207
  30
0.0
  11
 380.01613468773
  21
 168.39332959677
  31
0.0
   0
LINE
   5
291
 100
AcDbEntity
   8
LEVEL001
 100
AcDbLine
   6
CONTINUOUS
  62
15
  10
 380.01613468773
  20
 168.39332959677
  30
0.0
  11
 380.35627783487
  21
 168.26385688629
  31
0.0
   0
LINE
   5
292
 100
AcDbEntity
   8
LEVEL001
 100
AcDbLine
   6
CONTINUOUS
  62
15
  10
 380.35627783487
  20
 168.26385688629
  30
0.0
  11
 380.65057977095
  21
 168.08236422779
  31
0.0
   0
LINE
   5
293
 100
AcDbEntity
   8
LEVEL001
 100
AcDbLine
   6
CONTINUOUS
  62
15
  10
 366.20807310583
  20
 176.25780810062
  30
0.0
  11
 365.97547827446
  21
 176.48153639090
  31
0.0
   0
LINE
   5
294
 100
AcDbEntity
   8
LEVEL001
 100
AcDbLine
   6
CONTINUOUS
  62
15
  10
 365.97547827446
  20
 176.48153639090
  30
0.0
  11
 365.81712979528
  21
 176.73543906283
  31
0.0
   0
LINE
   5
295
 100
AcDbEntity
   8
LEVEL001
 100
AcDbLine
   6
CONTINUOUS
  62
15
  10
 365.81712979528
  20
 176.73543906283
  30
0.0
  11
 365.74156427587
  21
 177.00582815774
  31
0.0
   0
LINE
   5
296
 100
AcDbEntity
   8
LEVEL001
 100
AcDbLine
   6
CONTINUOUS
  62
15
  10
 365.74156427587
  20
 177.00582815774
  30
0.0
  11
 365.75285547297
  21
 177.27812692953
  31
0.0
   0
LINE
   5
297
 100
AcDbEntity
   8
LEVEL001
 100
AcDbLine
   6
CONTINUOUS
  62
15
  10
 365.75285547297
  20
 177.27812692953
  30
0.0
  11
 365.85039467505
  21
 177.53765568088
  31
0.0
   0
LINE
   5
298
 100
AcDbEntity
   8
LEVEL001
 100
AcDbLine
   6
CONTINUOUS
  62
15
  10
 365.85039467505
  20
 177.53765568088
  30
0.0
  11
 366.02892351863
  21
 177.77042314967
  31
0.0
   0
LINE
   5
299
 100
AcDbEntity
   8
LEVEL001
 100
AcDbLine
   6
CONTINUOUS
  62
15
  10
 366.02892351863
  20
 177.77042314967
  30
0.0
  11
 366.27881746751
  21
 177.96388078135
  31
0.0
   0
LINE
   5
29A
 100
AcDbEntity
   8
LEVEL001
 100
AcDbLine
   6
CONTINUOUS
  62
15
  10
 366.27881746751
  20
 177.96388078135
  30
0.0
  11
 366.58660467419
  21
 178.10759922499
  31
0.0
   0
LINE
   5
29B
 100
AcDbEntity
   8
LEVEL001
 100
AcDbLine
   6
CONTINUOUS
  62
15
  10
 366.58660467419
  20
 178.10759922499
  30
0.0
  11
 366.93569225073
  21
 178.19383058205
  31
0.0
   0
LINE
   5
29C
 100
AcDbEntity
   8
LEVEL001
 100
AcDbLine
   6
CONTINUOUS
  62
15
  10
 366.93569225073
  20
 178.19383058205
  30
0.0
  11
 367.30726079551
  21
 178.21792609780
  31
0.0
   0
LINE
   5
29D
 100
AcDbEntity
   8
LEVEL001
 100
AcDbLine
   6
CONTINUOUS
  62
15
  10
 367.30726079551
  20
 178.21792609780
  30
0.0
  11
 367.68127895207
  21
 178.17858677675
  31
0.0
   0
LINE
   5
29E
 100
AcDbEntity
   8
LEVEL001
 100
AcDbLine
   6
CONTINUOUS
  62
15
  10
 367.68127895207
  20
 178.17858677675
  30
0.0
  11
 368.03758330483
  21
 178.07793341181
  31
0.0
   0
LINE
   5
29F
 100
AcDbEntity
   8
LEVEL001
 100
AcDbLine
   6
CONTINUOUS
  62
15
  10
 368.03758330483
  20
 178.07793341181
  30
0.0
  11
 368.35696539388
  21
 177.92139225194
  31
0.0
   0
LINE
   5
2A0
 100
AcDbEntity
   8
LEVEL001
 100
AcDbLine
   6
CONTINUOUS
  62
15
  10
 368.35696539388
  20
 177.92139225194
  30
0.0
  11
 368.62220724811
  21
 177.71740247164
  31
0.0
   0
LINE
   5
2A1
 100
AcDbEntity
   8
LEVEL001
 100
AcDbLine
   6
CONTINUOUS
  62
15
  10
 368.62220724811
  20
 177.71740247164
  30
0.0
  11
 368.81900961055
  21
 177.47696121275
  31
0.0
   0
LINE
   5
2A2
 100
AcDbEntity
   8
LEVEL001
 100
AcDbLine
   6
CONTINUOUS
  62
15
  10
 368.81900961055
  20
 177.47696121275
  30
0.0
  11
 368.93676281486
  21
 177.21303072578
  31
0.0
   0
LINE
   5
2A3
 100
AcDbEntity
   8
LEVEL001
 100
AcDbLine
   6
CONTINUOUS
  62
15
  10
 368.93676281486
  20
 177.21303072578
  30
0.0
  11
 368.96911875539
  21
 176.93983957159
  31
0.0
   0
LINE
   5
2A4
 100
AcDbEntity
   8
LEVEL001
 100
AcDbLine
   6
CONTINUOUS
  62
15
  10
 368.96911875539
  20
 176.93983957159
  30
0.0
  11
 368.91433311487
  21
 176.67211555603
  31
0.0
   0
LINE
   5
2A5
 100
AcDbEntity
   8
LEVEL001
 100
AcDbLine
   6
CONTINUOUS
  62
15
  10
 368.91433311487
  20
 176.67211555603
  30
0.0
  11
 368.77535940146
  21
 176.42429175007
  31
0.0
   0
LINE
   5
2A6
 100
AcDbEntity
   8
LEVEL001
 100
AcDbLine
   6
CONTINUOUS
  62
15
  10
 368.77535940146
  20
 176.42429175007
  30
0.0
  11
 368.55968972407
  21
 176.20972839919
  31
0.0
   0
LINE
   5
2A7
 100
AcDbEntity
   8
LEVEL001
 100
AcDbLine
   6
CONTINUOUS
  62
15
  10
 368.55968972407
  20
 176.20972839919
  30
0.0
  11
 368.27895089073
  21
 176.03999266922
  31
0.0
   0
LINE
   5
2A8
 100
AcDbEntity
   8
LEVEL001
 100
AcDbLine
   6
CONTINUOUS
  62
15
  10
 368.27895089073
  20
 176.03999266922
  30
0.0
  11
 367.94827760464
  21
 175.92423505730
  31
0.0
   0
LINE
   5
2A9
 100
AcDbEntity
   8
LEVEL001
 100
AcDbLine
   6
CONTINUOUS
  62
15
  10
 367.94827760464
  20
 175.92423505730
  30
0.0
  11
 367.58549654827
  21
 175.86869608624
  31
0.0
   0
LINE
   5
2AA
 100
AcDbEntity
   8
LEVEL001
 100
AcDbLine
   6
CONTINUOUS
  62
15
  10
 367.58549654827
  20
 175.86869608624
  30
0.0
  11
 367.21016534224
  21
 175.87636987634
  31
0.0
   0
LINE
   5
2AB
 100
AcDbEntity
   8
LEVEL001
 100
AcDbLine
   6
CONTINUOUS
  62
15
  10
 367.21016534224
  20
 175.87636987634
  30
0.0
  11
 366.84251818905
  21
 175.94684273164
  31
0.0
   0
LINE
   5
2AC
 100
AcDbEntity
   8
LEVEL001
 100
AcDbLine
   6
CONTINUOUS
  62
15
  10
 366.84251818905
  20
 175.94684273164
  30
0.0
  11
 366.50237504183
  21
 176.07631544212
  31
0.0
   0
LINE
   5
2AD
 100
AcDbEntity
   8
LEVEL001
 100
AcDbLine
   6
CONTINUOUS
  62
15
  10
 366.50237504183
  20
 176.07631544212
  30
0.0
  11
 366.20807310583
  21
 176.25780810062
  31
0.0
   0
LINE
   5
2AE
 100
AcDbEntity
   8
LEVEL001
 100
AcDbLine
   6
CONTINUOUS
  62
15
  10
 378.40538094681
  20
 175.75050533995
  30
0.0
  11
 378.17278611544
  21
 175.97423363015
  31
0.0
   0
LINE
   5
2AF
 100
AcDbEntity
   8
LEVEL001
 100
AcDbLine
   6
CONTINUOUS
  62
15
  10
 378.17278611544
  20
 175.97423363015
  30
0.0
  11
 378.01443763627
  21
 176.22813630215
  31
0.0
   0
LINE
   5
2B0
 100
AcDbEntity
   8
LEVEL001
 100
AcDbLine
   6
CONTINUOUS
  62
15
  10
 378.01443763627
  20
 176.22813630215
  30
0.0
  11
 377.93887211692
  21
 176.49852539707
  31
0.0
   0
LINE
   5
2B1
 100
AcDbEntity
   8
LEVEL001
 100
AcDbLine
   6
CONTINUOUS
  62
15
  10
 377.93887211692
  20
 176.49852539707
  30
0.0
  11
 377.95016331395
  21
 176.77082416879
  31
0.0
   0
LINE
   5
2B2
 100
AcDbEntity
   8
LEVEL001
 100
AcDbLine
   6
CONTINUOUS
  62
15
  10
 377.95016331395
  20
 176.77082416879
  30
0.0
  11
 378.04770251603
  21
 177.03035292014
  31
0.0
   0
LINE
   5
2B3
 100
AcDbEntity
   8
LEVEL001
 100
AcDbLine
   6
CONTINUOUS
  62
15
  10
 378.04770251603
  20
 177.03035292014
  30
0.0
  11
 378.22623135969
  21
 177.26312038893
  31
0.0
   0
LINE
   5
2B4
 100
AcDbEntity
   8
LEVEL001
 100
AcDbLine
   6
CONTINUOUS
  62
15
  10
 378.22623135969
  20
 177.26312038893
  30
0.0
  11
 378.47612530850
  21
 177.45657802067
  31
0.0
   0
LINE
   5
2B5
 100
AcDbEntity
   8
LEVEL001
 100
AcDbLine
   6
CONTINUOUS
  62
15
  10
 378.47612530850
  20
 177.45657802067
  30
0.0
  11
 378.78391251525
  21
 177.60029646431
  31
0.0
   0
LINE
   5
2B6
 100
AcDbEntity
   8
LEVEL001
 100
AcDbLine
   6
CONTINUOUS
  62
15
  10
 378.78391251525
  20
 177.60029646431
  30
0.0
  11
 379.13300009179
  21
 177.68652782138
  31
0.0
   0
LINE
   5
2B7
 100
AcDbEntity
   8
LEVEL001
 100
AcDbLine
   6
CONTINUOUS
  62
15
  10
 379.13300009179
  20
 177.68652782138
  30
0.0
  11
 379.50456863656
  21
 177.71062333713
  31
0.0
   0
LINE
   5
2B8
 100
AcDbEntity
   8
LEVEL001
 100
AcDbLine
   6
CONTINUOUS
  62
15
  10
 379.50456863656
  20
 177.71062333713
  30
0.0
  11
 379.87858679313
  21
 177.67128401601
  31
0.0
   0
LINE
   5
2B9
 100
AcDbEntity
   8
LEVEL001
 100
AcDbLine
   6
CONTINUOUS
  62
15
  10
 379.87858679313
  20
 177.67128401601
  30
0.0
  11
 380.23489114588
  21
 177.57063065107
  31
0.0
   0
LINE
   5
2BA
 100
AcDbEntity
   8
LEVEL001
 100
AcDbLine
   6
CONTINUOUS
  62
15
  10
 380.23489114588
  20
 177.57063065107
  30
0.0
  11
 380.55427323487
  21
 177.41408949119
  31
0.0
   0
LINE
   5
2BB
 100
AcDbEntity
   8
LEVEL001
 100
AcDbLine
   6
CONTINUOUS
  62
15
  10
 380.55427323487
  20
 177.41408949119
  30
0.0
  11
 380.81951508916
  21
 177.21009971097
  31
0.0
   0
LINE
   5
2BC
 100
AcDbEntity
   8
LEVEL001
 100
AcDbLine
   6
CONTINUOUS
  62
15
  10
 380.81951508916
  20
 177.21009971097
  30
0.0
  11
 381.01631745153
  21
 176.96965845208
  31
0.0
   0
LINE
   5
2BD
 100
AcDbEntity
   8
LEVEL001
 100
AcDbLine
   6
CONTINUOUS
  62
15
  10
 381.01631745153
  20
 176.96965845208
  30
0.0
  11
 381.13407065591
  21
 176.70572796511
  31
0.0
   0
LINE
   5
2BE
 100
AcDbEntity
   8
LEVEL001
 100
AcDbLine
   6
CONTINUOUS
  62
15
  10
 381.13407065591
  20
 176.70572796511
  30
0.0
  11
 381.16642659638
  21
 176.43253681091
  31
0.0
   0
LINE
   5
2BF
 100
AcDbEntity
   8
LEVEL001
 100
AcDbLine
   6
CONTINUOUS
  62
15
  10
 381.16642659638
  20
 176.43253681091
  30
0.0
  11
 381.11164095585
  21
 176.16481279535
  31
0.0
   0
LINE
   5
2C0
 100
AcDbEntity
   8
LEVEL001
 100
AcDbLine
   6
CONTINUOUS
  62
15
  10
 381.11164095585
  20
 176.16481279535
  30
0.0
  11
 380.97266724244
  21
 175.91698898932
  31
0.0
   0
LINE
   5
2C1
 100
AcDbEntity
   8
LEVEL001
 100
AcDbLine
   6
CONTINUOUS
  62
15
  10
 380.97266724244
  20
 175.91698898932
  30
0.0
  11
 380.75699756505
  21
 175.70242563851
  31
0.0
   0
LINE
   5
2C2
 100
AcDbEntity
   8
LEVEL001
 100
AcDbLine
   6
CONTINUOUS
  62
15
  10
 380.75699756505
  20
 175.70242563851
  30
0.0
  11
 380.47625873171
  21
 175.53268990855
  31
0.0
   0
LINE
   5
2C3
 100
AcDbEntity
   8
LEVEL001
 100
AcDbLine
   6
CONTINUOUS
  62
15
  10
 380.47625873171
  20
 175.53268990855
  30
0.0
  11
 380.14558544563
  21
 175.41693229663
  31
0.0
   0
LINE
   5
2C4
 100
AcDbEntity
   8
LEVEL001
 100
AcDbLine
   6
CONTINUOUS
  62
15
  10
 380.14558544563
  20
 175.41693229663
  30
0.0
  11
 379.78280438925
  21
 175.36139332557
  31
0.0
   0
LINE
   5
2C5
 100
AcDbEntity
   8
LEVEL001
 100
AcDbLine
   6
CONTINUOUS
  62
15
  10
 379.78280438925
  20
 175.36139332557
  30
0.0
  11
 379.40747318323
  21
 175.36906711567
  31
0.0
   0
LINE
   5
2C6
 100
AcDbEntity
   8
LEVEL001
 100
AcDbLine
   6
CONTINUOUS
  62
15
  10
 379.40747318323
  20
 175.36906711567
  30
0.0
  11
 379.03982603003
  21
 175.43953997090
  31
0.0
   0
LINE
   5
2C7
 100
AcDbEntity
   8
LEVEL001
 100
AcDbLine
   6
CONTINUOUS
  62
15
  10
 379.03982603003
  20
 175.43953997090
  30
0.0
  11
 378.69968288289
  21
 175.56901268145
  31
0.0
   0
LINE
   5
2C8
 100
AcDbEntity
   8
LEVEL001
 100
AcDbLine
   6
CONTINUOUS
  62
15
  10
 378.69968288289
  20
 175.56901268145
  30
0.0
  11
 378.40538094681
  21
 175.75050533995
  31
0.0
   0
ARC
   5
2C9
 100
AcDbEntity
   8
LEVEL001
   6
CONTINUOUS
  62
15
 100
AcDbCircle
  10
 367.80846062218
  20
 176.52377699040
  30
0.0
  40
 1.1385112375382
 100
AcDbArc
  50
 9.8348226054643
  51
 54.764462900143
   0
LINE
   5
2CA
 100
AcDbEntity
   8
LEVEL001
 100
AcDbLine
   6
CONTINUOUS
  62
15
  10
 365.74314469365
  20
 176.99326227710
  30
0.0
  11
 365.75905218299
  21
 177.03939095810
  31
0.0
   0
LINE
   5
2CB
 100
AcDbEntity
   8
LEVEL001
 100
AcDbLine
   6
CONTINUOUS
  62
15
  10
 365.75905218299
  20
 177.03939095810
  30
0.0
  11
 365.89802589640
  21
 177.28721476406
  31
0.0
   0
LINE
   5
2CC
 100
AcDbEntity
   8
LEVEL001
 100
AcDbLine
   6
CONTINUOUS
  62
15
  10
 365.89802589640
  20
 177.28721476406
  30
0.0
  11
 366.11369557379
  21
 177.50177811494
  31
0.0
   0
LINE
   5
2CD
 100
AcDbEntity
   8
LEVEL001
 100
AcDbLine
   6
CONTINUOUS
  62
15
  10
 366.11369557379
  20
 177.50177811494
  30
0.0
  11
 366.39443440713
  21
 177.67151384491
  31
0.0
   0
LINE
   5
2CE
 100
AcDbEntity
   8
LEVEL001
 100
AcDbLine
   6
CONTINUOUS
  62
15
  10
 366.39443440713
  20
 177.67151384491
  30
0.0
  11
 366.72510769322
  21
 177.78727145683
  31
0.0
   0
LINE
   5
2CF
 100
AcDbEntity
   8
LEVEL001
 100
AcDbLine
   6
CONTINUOUS
  62
15
  10
 366.72510769322
  20
 177.78727145683
  30
0.0
  11
 367.08788874959
  21
 177.84281042788
  31
0.0
   0
LINE
   5
2D0
 100
AcDbEntity
   8
LEVEL001
 100
AcDbLine
   6
CONTINUOUS
  62
15
  10
 367.08788874959
  20
 177.84281042788
  30
0.0
  11
 367.46321995562
  21
 177.83513663779
  31
0.0
   0
LINE
   5
2D1
 100
AcDbEntity
   8
LEVEL001
 100
AcDbLine
   6
CONTINUOUS
  62
15
  10
 367.46321995562
  20
 177.83513663779
  30
0.0
  11
 367.83086710881
  21
 177.76466378255
  31
0.0
   0
LINE
   5
2D2
 100
AcDbEntity
   8
LEVEL001
 100
AcDbLine
   6
CONTINUOUS
  62
15
  10
 367.83086710881
  20
 177.76466378255
  30
0.0
  11
 368.17101025603
  21
 177.63519107200
  31
0.0
   0
LINE
   5
2D3
 100
AcDbEntity
   8
LEVEL001
 100
AcDbLine
   6
CONTINUOUS
  62
15
  10
 368.17101025603
  20
 177.63519107200
  30
0.0
  11
 368.46531219203
  21
 177.45369841351
  31
0.0
   0
ARC
   5
2D4
 100
AcDbEntity
   8
LEVEL001
   6
CONTINUOUS
  62
15
 100
AcDbCircle
  10
 380.00576846317
  20
 176.01647422965
  30
0.0
  40
 1.1385112375379
 100
AcDbArc
  50
 9.8348226057963
  51
 54.764462900612
   0
LINE
   5
2D5
 100
AcDbEntity
   8
LEVEL001
 100
AcDbLine
   6
CONTINUOUS
  62
15
  10
 377.94045253471
  20
 176.48595951643
  30
0.0
  11
 377.95636002398
  21
 176.53208819743
  31
0.0
   0
LINE
   5
2D6
 100
AcDbEntity
   8
LEVEL001
 100
AcDbLine
   6
CONTINUOUS
  62
15
  10
 377.95636002398
  20
 176.53208819743
  30
0.0
  11
 378.09533373739
  21
 176.77991200339
  31
0.0
   0
LINE
   5
2D7
 100
AcDbEntity
   8
LEVEL001
 100
AcDbLine
   6
CONTINUOUS
  62
15
  10
 378.09533373739
  20
 176.77991200339
  30
0.0
  11
 378.31100341478
  21
 176.99447535427
  31
0.0
   0
LINE
   5
2D8
 100
AcDbEntity
   8
LEVEL001
 100
AcDbLine
   6
CONTINUOUS
  62
15
  10
 378.31100341478
  20
 176.99447535427
  30
0.0
  11
 378.59174224819
  21
 177.16421108423
  31
0.0
   0
LINE
   5
2D9
 100
AcDbEntity
   8
LEVEL001
 100
AcDbLine
   6
CONTINUOUS
  62
15
  10
 378.59174224819
  20
 177.16421108423
  30
0.0
  11
 378.92241553427
  21
 177.27996869615
  31
0.0
   0
LINE
   5
2DA
 100
AcDbEntity
   8
LEVEL001
 100
AcDbLine
   6
CONTINUOUS
  62
15
  10
 378.92241553427
  20
 177.27996869615
  30
0.0
  11
 379.28519659058
  21
 177.33550766721
  31
0.0
   0
LINE
   5
2DB
 100
AcDbEntity
   8
LEVEL001
 100
AcDbLine
   6
CONTINUOUS
  62
15
  10
 379.28519659058
  20
 177.33550766721
  30
0.0
  11
 379.66052779660
  21
 177.32783387711
  31
0.0
   0
LINE
   5
2DC
 100
AcDbEntity
   8
LEVEL001
 100
AcDbLine
   6
CONTINUOUS
  62
15
  10
 379.66052779660
  20
 177.32783387711
  30
0.0
  11
 380.02817494979
  21
 177.25736102181
  31
0.0
   0
LINE
   5
2DD
 100
AcDbEntity
   8
LEVEL001
 100
AcDbLine
   6
CONTINUOUS
  62
15
  10
 380.02817494979
  20
 177.25736102181
  30
0.0
  11
 380.36831809701
  21
 177.12788831126
  31
0.0
   0
LINE
   5
2DE
 100
AcDbEntity
   8
LEVEL001
 100
AcDbLine
   6
CONTINUOUS
  62
15
  10
 380.36831809701
  20
 177.12788831126
  30
0.0
  11
 380.66262003302
  21
 176.94639565283
  31
0.0
   0
LINE
   5
2DF
 100
AcDbEntity
   8
LEVEL001
 100
AcDbLine
   6
CONTINUOUS
  62
15
  10
 314.40189481156
  20
 215.14932618203
  30
0.0
  11
 314.51241109622
  21
 215.15287327082
  31
0.0
   0
LINE
   5
2E0
 100
AcDbEntity
   8
LEVEL001
 100
AcDbLine
   6
CONTINUOUS
  62
15
  10
 314.51241109622
  20
 215.15287327082
  30
0.0
  11
 314.66015504625
  21
 215.19634697119
  31
0.0
   0
ARC
   5
2E1
 100
AcDbEntity
   8
LEVEL001
   6
CONTINUOUS
  62
15
 100
AcDbCircle
  10
 310.85024154256
  20
 224.85751822055
  30
0.0
  40
 10.385262192827
 100
AcDbArc
  50
 291.52195413979
  51
 296.95544404059
   0
ARC
   5
2E2
 100
AcDbEntity
   8
LEVEL001
   6
CONTINUOUS
  62
15
 100
AcDbCircle
  10
 315.06625417183
  20
 216.59353612161
  30
0.0
  40
 1.1080413580568
 100
AcDbArc
  50
 296.33803298547
  51
 350.06847331335
   0
LINE
   5
2E3
 100
AcDbEntity
   8
LEVEL001
 100
AcDbLine
   6
CONTINUOUS
  62
15
  10
 317.37771809956
  20
 216.84179041312
  30
0.0
  11
 317.39751032882
  21
 216.85026987335
  31
0.0
   0
LINE
   5
2E4
 100
AcDbEntity
   8
LEVEL001
 100
AcDbLine
   6
CONTINUOUS
  62
15
  10
 317.39751032882
  20
 216.85026987335
  30
0.0
  11
 317.49316658503
  21
 216.92514883634
  31
0.0
   0
ARC
   5
2E5
 100
AcDbEntity
   8
LEVEL001
   6
CONTINUOUS
  62
15
 100
AcDbCircle
  10
 312.60161995300
  20
 222.28259922350
  30
0.0
  40
 7.2546194320800
 100
AcDbArc
  50
 312.39721322460
  51
 319.29947220430
   0
ARC
   5
2E6
 100
AcDbEntity
   8
LEVEL001
   6
CONTINUOUS
  62
15
 100
AcDbCircle
  10
 316.64504073909
  20
 218.72028724319
  30
0.0
  40
 1.8672802513462
 100
AcDbArc
  50
 321.26219974889
  51
 353.13880210653
   0
LINE
   5
2E7
 100
AcDbEntity
   8
LEVEL001
 100
AcDbLine
   6
CONTINUOUS
  62
15
  10
 300.25168335655
  20
 231.94392142627
  30
0.0
  11
 300.25819543629
  21
 232.01394690835
  31
0.0
   0
LINE
   5
2E8
 100
AcDbEntity
   8
LEVEL001
 100
AcDbLine
   6
CONTINUOUS
  62
15
  10
 311.78857077583
  20
 213.48823685764
  30
0.0
  11
 311.83125568660
  21
 213.98289860654
  31
0.0
   0
LINE
   5
2E9
 100
AcDbEntity
   8
LEVEL001
 100
AcDbLine
   6
CONTINUOUS
  62
15
  10
 307.58175723859
  20
 230.15156730765
  30
0.0
  11
 308.01815925717
  21
 229.85928295744
  31
0.0
   0
LINE
   5
2EA
 100
AcDbEntity
   8
LEVEL001
 100
AcDbLine
   6
CONTINUOUS
  62
15
  10
 308.01815925717
  20
 229.85928295744
  30
0.0
  11
 308.50489411675
  21
 229.61404482383
  31
0.0
   0
LINE
   5
2EB
 100
AcDbEntity
   8
LEVEL001
 100
AcDbLine
   6
CONTINUOUS
  62
15
  10
 308.50489411675
  20
 229.61404482383
  30
0.0
  11
 309.03158790885
  21
 229.42107973192
  31
0.0
   0
LINE
   5
2EC
 100
AcDbEntity
   8
LEVEL001
 100
AcDbLine
   6
CONTINUOUS
  62
15
  10
 309.03158790885
  20
 229.42107973192
  30
0.0
  11
 309.58701506963
  21
 229.28450039767
  31
0.0
   0
LINE
   5
2ED
 100
AcDbEntity
   8
LEVEL001
 100
AcDbLine
   6
CONTINUOUS
  62
15
  10
 309.58701506963
  20
 229.28450039767
  30
0.0
  11
 310.15933763356
  21
 229.20721777243
  31
0.0
   0
LINE
   5
2EE
 100
AcDbEntity
   8
LEVEL001
 100
AcDbLine
   6
CONTINUOUS
  62
15
  10
 310.15933763356
  20
 229.20721777243
  30
0.0
  11
 310.73635753883
  21
 229.19087900114
  31
0.0
   0
LINE
   5
2EF
 100
AcDbEntity
   8
LEVEL001
 100
AcDbLine
   6
CONTINUOUS
  62
15
  10
 310.73635753883
  20
 229.19087900114
  30
0.0
  11
 311.30577660787
  21
 229.23583231634
  31
0.0
   0
LINE
   5
2F0
 100
AcDbEntity
   8
LEVEL001
 100
AcDbLine
   6
CONTINUOUS
  62
15
  10
 311.30577660787
  20
 229.23583231634
  30
0.0
  11
 311.85545866185
  21
 229.34111961626
  31
0.0
   0
LINE
   5
2F1
 100
AcDbEntity
   8
LEVEL001
 100
AcDbLine
   6
CONTINUOUS
  62
15
  10
 311.85545866185
  20
 229.34111961626
  30
0.0
  11
 312.37368818219
  21
 229.50449688482
  31
0.0
   0
LINE
   5
2F2
 100
AcDbEntity
   8
LEVEL001
 100
AcDbLine
   6
CONTINUOUS
  62
15
  10
 312.37368818219
  20
 229.50449688482
  30
0.0
  11
 312.84942000631
  21
 229.72248201921
  31
0.0
   0
LINE
   5
2F3
 100
AcDbEntity
   8
LEVEL001
 100
AcDbLine
   6
CONTINUOUS
  62
15
  10
 312.84942000631
  20
 229.72248201921
  30
0.0
  11
 313.27251473635
  21
 229.99042904476
  31
0.0
   0
LINE
   5
2F4
 100
AcDbEntity
   8
LEVEL001
 100
AcDbLine
   6
CONTINUOUS
  62
15
  10
 313.27251473635
  20
 229.99042904476
  30
0.0
  11
 313.63395484269
  21
 230.30262713575
  31
0.0
   0
LINE
   5
2F5
 100
AcDbEntity
   8
LEVEL001
 100
AcDbLine
   6
CONTINUOUS
  62
15
  10
 313.63395484269
  20
 230.30262713575
  30
0.0
  11
 313.92603685699
  21
 230.65242233195
  31
0.0
   0
LINE
   5
2F6
 100
AcDbEntity
   8
LEVEL001
 100
AcDbLine
   6
CONTINUOUS
  62
15
  10
 313.92603685699
  20
 230.65242233195
  30
0.0
  11
 314.14253555822
  21
 231.03235935609
  31
0.0
   0
LINE
   5
2F7
 100
AcDbEntity
   8
LEVEL001
 100
AcDbLine
   6
CONTINUOUS
  62
15
  10
 314.14253555822
  20
 231.03235935609
  30
0.0
  11
 314.27883665236
  21
 231.43434051007
  31
0.0
   0
LINE
   5
2F8
 100
AcDbEntity
   8
LEVEL001
 100
AcDbLine
   6
CONTINUOUS
  62
15
  10
 314.27883665236
  20
 231.43434051007
  30
0.0
  11
 314.33203511834
  21
 231.84979826347
  31
0.0
   0
LINE
   5
2F9
 100
AcDbEntity
   8
LEVEL001
 100
AcDbLine
   6
CONTINUOUS
  62
15
  10
 314.33203511834
  20
 231.84979826347
  30
0.0
  11
 314.30099712311
  21
 232.26987785563
  31
0.0
   0
LINE
   5
2FA
 100
AcDbEntity
   8
LEVEL001
 100
AcDbLine
   6
CONTINUOUS
  62
15
  10
 314.30099712311
  20
 232.26987785563
  30
0.0
  11
 314.18638418779
  21
 232.68562601930
  31
0.0
   0
LINE
   5
2FB
 100
AcDbEntity
   8
LEVEL001
 100
AcDbLine
   6
CONTINUOUS
  62
15
  10
 314.18638418779
  20
 232.68562601930
  30
0.0
  11
 313.99063908796
  21
 233.08818180427
  31
0.0
   0
LINE
   5
2FC
 100
AcDbEntity
   8
LEVEL001
 100
AcDbLine
   6
CONTINUOUS
  62
15
  10
 313.99063908796
  20
 233.08818180427
  30
0.0
  11
 313.71793379071
  21
 233.46896543277
  31
0.0
   0
LINE
   5
2FD
 100
AcDbEntity
   8
LEVEL001
 100
AcDbLine
   6
CONTINUOUS
  62
15
  10
 313.71793379071
  20
 233.46896543277
  30
0.0
  11
 313.37408053591
  21
 233.81986116295
  31
0.0
   0
LINE
   5
2FE
 100
AcDbEntity
   8
LEVEL001
 100
AcDbLine
   6
CONTINUOUS
  62
15
  10
 313.37408053591
  20
 233.81986116295
  30
0.0
  11
 312.96640795869
  21
 234.13339026141
  31
0.0
   0
LINE
   5
2FF
 100
AcDbEntity
   8
LEVEL001
 100
AcDbLine
   6
CONTINUOUS
  62
15
  10
 312.96640795869
  20
 234.13339026141
  30
0.0
  11
 312.50360489234
  21
 234.40287039995
  31
0.0
   0
LINE
   5
300
 100
AcDbEntity
   8
LEVEL001
 100
AcDbLine
   6
CONTINUOUS
  62
15
  10
 312.50360489234
  20
 234.40287039995
  30
0.0
  11
 311.99553518061
  21
 234.62255807709
  31
0.0
   0
LINE
   5
301
 100
AcDbEntity
   8
LEVEL001
 100
AcDbLine
   6
CONTINUOUS
  62
15
  10
 311.99553518061
  20
 234.62255807709
  30
0.0
  11
 311.45302744747
  21
 234.78777103144
  31
0.0
   0
LINE
   5
302
 100
AcDbEntity
   8
LEVEL001
 100
AcDbLine
   6
CONTINUOUS
  62
15
  10
 311.45302744747
  20
 234.78777103144
  30
0.0
  11
 310.88764430323
  21
 234.89498803576
  31
0.0
   0
LINE
   5
303
 100
AcDbEntity
   8
LEVEL001
 100
AcDbLine
   6
CONTINUOUS
  62
15
  10
 310.88764430323
  20
 234.89498803576
  30
0.0
  11
 310.31143590808
  21
 234.94192394577
  31
0.0
   0
LINE
   5
304
 100
AcDbEntity
   8
LEVEL001
 100
AcDbLine
   6
CONTINUOUS
  62
15
  10
 310.31143590808
  20
 234.94192394577
  30
0.0
  11
 309.73668314363
  21
 234.92757840391
  31
0.0
   0
LINE
   5
305
 100
AcDbEntity
   8
LEVEL001
 100
AcDbLine
   6
CONTINUOUS
  62
15
  10
 309.73668314363
  20
 234.92757840391
  30
0.0
  11
 309.17563586711
  21
 234.85225716062
  31
0.0
   0
LINE
   5
306
 100
AcDbEntity
   8
LEVEL001
 100
AcDbLine
   6
CONTINUOUS
  62
15
  10
 309.17563586711
  20
 234.85225716062
  30
0.0
  11
 308.64025182715
  21
 234.71756555743
  31
0.0
   0
LINE
   5
307
 100
AcDbEntity
   8
LEVEL001
 100
AcDbLine
   6
CONTINUOUS
  62
15
  10
 308.64025182715
  20
 234.71756555743
  30
0.0
  11
 308.14194180513
  21
 234.52637431195
  31
0.0
   0
LINE
   5
308
 100
AcDbEntity
   8
LEVEL001
 100
AcDbLine
   6
CONTINUOUS
  62
15
  10
 308.14194180513
  20
 234.52637431195
  30
0.0
  11
 307.69132641407
  21
 234.28275833366
  31
0.0
   0
LINE
   5
309
 100
AcDbEntity
   8
LEVEL001
 100
AcDbLine
   6
CONTINUOUS
  62
15
  10
 307.69132641407
  20
 234.28275833366
  30
0.0
  11
 307.29800973851
  21
 233.99190987419
  31
0.0
   0
LINE
   5
30A
 100
AcDbEntity
   8
LEVEL001
 100
AcDbLine
   6
CONTINUOUS
  62
15
  10
 307.29800973851
  20
 233.99190987419
  30
0.0
  11
 306.97037464067
  21
 233.66002786348
  31
0.0
   0
LINE
   5
30B
 100
AcDbEntity
   8
LEVEL001
 100
AcDbLine
   6
CONTINUOUS
  62
15
  10
 306.97037464067
  20
 233.66002786348
  30
0.0
  11
 306.71540409383
  21
 233.29418579047
  31
0.0
   0
LINE
   5
30C
 100
AcDbEntity
   8
LEVEL001
 100
AcDbLine
   6
CONTINUOUS
  62
15
  10
 306.71540409383
  20
 233.29418579047
  30
0.0
  11
 306.53853235257
  21
 232.90218094367
  31
0.0
   0
LINE
   5
30D
 100
AcDbEntity
   8
LEVEL001
 100
AcDbLine
   6
CONTINUOUS
  62
15
  10
 306.53853235257
  20
 232.90218094367
  30
0.0
  11
 306.44352913082
  21
 232.49236822593
  31
0.0
   0
LINE
   5
30E
 100
AcDbEntity
   8
LEVEL001
 100
AcDbLine
   6
CONTINUOUS
  62
15
  10
 306.44352913082
  20
 232.49236822593
  30
0.0
  11
 306.43241925743
  21
 232.07348208374
  31
0.0
   0
LINE
   5
30F
 100
AcDbEntity
   8
LEVEL001
 100
AcDbLine
   6
CONTINUOUS
  62
15
  10
 306.43241925743
  20
 232.07348208374
  30
0.0
  11
 306.50543952004
  21
 231.65445034804
  31
0.0
   0
LINE
   5
310
 100
AcDbEntity
   8
LEVEL001
 100
AcDbLine
   6
CONTINUOUS
  62
15
  10
 306.50543952004
  20
 231.65445034804
  30
0.0
  11
 306.66103361855
  21
 231.24420395270
  31
0.0
   0
LINE
   5
311
 100
AcDbEntity
   8
LEVEL001
 100
AcDbLine
   6
CONTINUOUS
  62
15
  10
 306.66103361855
  20
 231.24420395270
  30
0.0
  11
 306.89588533485
  21
 230.85148658743
  31
0.0
   0
LINE
   5
312
 100
AcDbEntity
   8
LEVEL001
 100
AcDbLine
   6
CONTINUOUS
  62
15
  10
 306.89588533485
  20
 230.85148658743
  30
0.0
  11
 307.20498921237
  21
 230.48466834107
  31
0.0
   0
LINE
   5
313
 100
AcDbEntity
   8
LEVEL001
 100
AcDbLine
   6
CONTINUOUS
  62
15
  10
 307.20498921237
  20
 230.48466834107
  30
0.0
  11
 307.58175723859
  21
 230.15156730765
  31
0.0
   0
ARC
   5
314
 100
AcDbEntity
   8
LEVEL001
   6
CONTINUOUS
  62
15
 100
AcDbCircle
  10
 309.96648514029
  20
 227.27765576834
  30
0.0
  40
 4.7387624976582
 100
AcDbArc
  50
 39.497782890501
  51
 130.63841845229
   0
LINE
   5
315
 100
AcDbEntity
   8
LEVEL001
 100
AcDbLine
   6
CONTINUOUS
  62
15
  10
 311.78857077583
  20
 213.48823685764
  30
0.0
  11
 311.71368835180
  21
 213.23095865954
  31
0.0
   0
LINE
   5
316
 100
AcDbEntity
   8
LEVEL001
 100
AcDbLine
   6
CONTINUOUS
  62
15
  10
 311.71368835180
  20
 213.23095865954
  30
0.0
  11
 311.55246119908
  21
 213.08984026449
  31
0.0
   0
LINE
   5
317
 100
AcDbEntity
   8
LEVEL001
 100
AcDbLine
   6
CONTINUOUS
  62
15
  10
 311.55246119908
  20
 213.08984026449
  30
0.0
  11
 311.45124281731
  21
 213.08217256617
  31
0.0
   0
LINE
   5
318
 100
AcDbEntity
   8
LEVEL001
 100
AcDbLine
   6
CONTINUOUS
  62
15
  10
 383.50504832500
  20
 163.43903799083
  30
0.0
  11
 383.59041814663
  21
 164.42836148870
  31
0.0
   0
LINE
   5
319
 100
AcDbEntity
   8
LEVEL001
 100
AcDbLine
   6
CONTINUOUS
  62
15
  10
 366.79224167935
  20
 164.13414653949
  30
0.0
  11
 366.87761150104
  21
 165.12347003735
  31
0.0
   0
LINE
   5
31A
 100
AcDbEntity
   8
LEVEL001
 100
AcDbLine
   6
CONTINUOUS
  62
15
  10
 365.96430019713
  20
 164.45059677652
  30
0.0
  11
 366.04967001875
  21
 165.43992027439
  31
0.0
   0
LINE
   5
31B
 100
AcDbEntity
   8
LEVEL001
 100
AcDbLine
   6
CONTINUOUS
  62
15
  10
 343.02223006509
  20
 189.24475172915
  30
0.0
  11
 343.18566233963
  21
 189.14185518794
  31
0.0
   0
LINE
   5
31C
 100
AcDbEntity
   8
LEVEL001
 100
AcDbLine
   6
CONTINUOUS
  62
15
  10
 343.18566233963
  20
 189.14185518794
  30
0.0
  11
 343.38731783342
  21
 189.09017401483
  31
0.0
   0
LINE
   5
31D
 100
AcDbEntity
   8
LEVEL001
 100
AcDbLine
   6
CONTINUOUS
  62
15
  10
 343.38731783342
  20
 189.09017401483
  30
0.0
  11
 343.59649632554
  21
 189.09757619990
  31
0.0
   0
LINE
   5
31E
 100
AcDbEntity
   8
LEVEL001
 100
AcDbLine
   6
CONTINUOUS
  62
15
  10
 343.59649632554
  20
 189.09757619990
  30
0.0
  11
 343.78135228677
  21
 189.16293482767
  31
0.0
   0
LINE
   5
31F
 100
AcDbEntity
   8
LEVEL001
 100
AcDbLine
   6
CONTINUOUS
  62
15
  10
 343.78135228677
  20
 189.16293482767
  30
0.0
  11
 343.91374307272
  21
 189.27629963947
  31
0.0
   0
LINE
   5
320
 100
AcDbEntity
   8
LEVEL001
 100
AcDbLine
   6
CONTINUOUS
  62
15
  10
 343.91374307272
  20
 189.27629963947
  30
0.0
  11
 343.97351338636
  21
 189.42041187040
  31
0.0
   0
LINE
   5
321
 100
AcDbEntity
   8
LEVEL001
 100
AcDbLine
   6
CONTINUOUS
  62
15
  10
 343.97351338636
  20
 189.42041187040
  30
0.0
  11
 343.95156373924
  21
 189.57333173959
  31
0.0
   0
LINE
   5
322
 100
AcDbEntity
   8
LEVEL001
 100
AcDbLine
   6
CONTINUOUS
  62
15
  10
 343.95156373924
  20
 189.57333173959
  30
0.0
  11
 343.85123576613
  21
 189.71177858327
  31
0.0
   0
ARC
   5
323
 100
AcDbEntity
   8
LEVEL001
   6
CONTINUOUS
  62
15
 100
AcDbCircle
  10
 343.27676560528
  20
 190.75899047044
  30
0.0
  40
 1.1944323766054
 100
AcDbArc
  50
 298.74789914847
  51
 348.34980579885
   0
LINE
   5
324
 100
AcDbEntity
   8
LEVEL001
 100
AcDbLine
   6
CONTINUOUS
  62
15
  10
 343.02223006509
  20
 189.24475172915
  30
0.0
  11
 342.91522958421
  21
 189.19351490303
  31
0.0
   0
LINE
   5
325
 100
AcDbEntity
   8
LEVEL001
 100
AcDbLine
   6
CONTINUOUS
  62
15
  10
 342.91522958421
  20
 189.19351490303
  30
0.0
  11
 342.89682281438
  21
 189.18660441367
  31
0.0
   0
LINE
   5
326
 100
AcDbEntity
   8
LEVEL001
 100
AcDbLine
   6
CONTINUOUS
  62
15
  10
 314.66015504625
  20
 215.19634697119
  30
0.0
  11
 343.02223006509
  21
 189.24475172915
  31
0.0
   0
LINE
   5
327
 100
AcDbEntity
   8
LEVEL001
 100
AcDbLine
   6
CONTINUOUS
  62
15
  10
 343.85123576613
  20
 189.71177858327
  30
0.0
  11
 315.55785465021
  21
 215.60051818581
  31
0.0
   0
LINE
   5
328
 100
AcDbEntity
   8
LEVEL001
 100
AcDbLine
   6
CONTINUOUS
  62
15
  10
 317.49316658503
  20
 216.92514883634
  30
0.0
  11
 351.46808342215
  21
 194.92515513717
  31
0.0
   0
LINE
   5
329
 100
AcDbEntity
   8
LEVEL001
 100
AcDbLine
   6
CONTINUOUS
  62
15
  10
 351.46808342215
  20
 194.92515513717
  30
0.0
  11
 351.39945525933
  21
 194.87340973034
  31
0.0
   0
LINE
   5
32A
 100
AcDbEntity
   8
LEVEL001
 100
AcDbLine
   6
CONTINUOUS
  62
15
  10
 352.15895748347
  20
 195.49841500999
  30
0.0
  11
 318.10155246187
  21
 217.55182280714
  31
0.0
   0
LINE
   5
32B
 100
AcDbEntity
   8
LEVEL001
 100
AcDbLine
   6
CONTINUOUS
  62
15
  10
 351.46808342215
  20
 194.92515513717
  30
0.0
  11
 351.65274095087
  21
 194.84442793660
  31
0.0
   0
LINE
   5
32C
 100
AcDbEntity
   8
LEVEL001
 100
AcDbLine
   6
CONTINUOUS
  62
15
  10
 351.65274095087
  20
 194.84442793660
  30
0.0
  11
 351.86187570134
  21
 194.81962753005
  31
0.0
   0
LINE
   5
32D
 100
AcDbEntity
   8
LEVEL001
 100
AcDbLine
   6
CONTINUOUS
  62
15
  10
 351.86187570134
  20
 194.81962753005
  30
0.0
  11
 352.06364880352
  21
 194.85452955453
  31
0.0
   0
LINE
   5
32E
 100
AcDbEntity
   8
LEVEL001
 100
AcDbLine
   6
CONTINUOUS
  62
15
  10
 352.06364880352
  20
 194.85452955453
  30
0.0
  11
 352.22734213171
  21
 194.94382049335
  31
0.0
   0
LINE
   5
32F
 100
AcDbEntity
   8
LEVEL001
 100
AcDbLine
   6
CONTINUOUS
  62
15
  10
 352.22734213171
  20
 194.94382049335
  30
0.0
  11
 352.32803486063
  21
 195.07390661035
  31
0.0
   0
LINE
   5
330
 100
AcDbEntity
   8
LEVEL001
 100
AcDbLine
   6
CONTINUOUS
  62
15
  10
 352.32803486063
  20
 195.07390661035
  30
0.0
  11
 352.35039743503
  21
 195.22498347350
  31
0.0
   0
LINE
   5
331
 100
AcDbEntity
   8
LEVEL001
 100
AcDbLine
   6
CONTINUOUS
  62
15
  10
 352.35039743503
  20
 195.22498347350
  30
0.0
  11
 352.29102535569
  21
 195.37405099989
  31
0.0
   0
LINE
   5
332
 100
AcDbEntity
   8
LEVEL001
 100
AcDbLine
   6
CONTINUOUS
  62
15
  10
 352.29102535569
  20
 195.37405099989
  30
0.0
  11
 352.15895748347
  21
 195.49841500999
  31
0.0
   0
ARC
   5
333
 100
AcDbEntity
   8
LEVEL001
   6
CONTINUOUS
  62
15
 100
AcDbCircle
  10
 351.20317973371
  20
 196.62983762527
  30
0.0
  40
 1.4810902204819
 100
AcDbArc
  50
 310.18970303176
  51
 350.10215555075
   0
LINE
   5
334
 100
AcDbEntity
   8
LEVEL001
 100
AcDbLine
   6
CONTINUOUS
  62
15
  10
 304.27505879399
  20
 227.88828662771
  30
0.0
  11
 304.90163700926
  21
 227.44913090505
  31
0.0
   0
LINE
   5
335
 100
AcDbEntity
   8
LEVEL001
 100
AcDbLine
   6
CONTINUOUS
  62
15
  10
 304.90163700926
  20
 227.44913090505
  30
0.0
  11
 305.58097228204
  21
 227.05444442474
  31
0.0
   0
LINE
   5
336
 100
AcDbEntity
   8
LEVEL001
 100
AcDbLine
   6
CONTINUOUS
  62
15
  10
 305.58097228204
  20
 227.05444442474
  30
0.0
  11
 306.30652224235
  21
 226.70802823331
  31
0.0
   0
LINE
   5
337
 100
AcDbEntity
   8
LEVEL001
 100
AcDbLine
   6
CONTINUOUS
  62
15
  10
 306.30652224235
  20
 226.70802823331
  30
0.0
  11
 307.07129944735
  21
 226.41321850802
  31
0.0
   0
LINE
   5
338
 100
AcDbEntity
   8
LEVEL001
 100
AcDbLine
   6
CONTINUOUS
  62
15
  10
 307.07129944735
  20
 226.41321850802
  30
0.0
  11
 307.86793867461
  21
 226.17285442773
  31
0.0
   0
LINE
   5
339
 100
AcDbEntity
   8
LEVEL001
 100
AcDbLine
   6
CONTINUOUS
  62
15
  10
 307.86793867461
  20
 226.17285442773
  30
0.0
  11
 308.68876785283
  21
 225.98925082989
  31
0.0
   0
LINE
   5
33A
 100
AcDbEntity
   8
LEVEL001
 100
AcDbLine
   6
CONTINUOUS
  62
15
  10
 308.68876785283
  20
 225.98925082989
  30
0.0
  11
 309.52588194820
  21
 225.86417591764
  31
0.0
   0
LINE
   5
33B
 100
AcDbEntity
   8
LEVEL001
 100
AcDbLine
   6
CONTINUOUS
  62
15
  10
 309.52588194820
  20
 225.86417591764
  30
0.0
  11
 310.37121909460
  21
 225.79883423061
  31
0.0
   0
LINE
   5
33C
 100
AcDbEntity
   8
LEVEL001
 100
AcDbLine
   6
CONTINUOUS
  62
15
  10
 310.37121909460
  20
 225.79883423061
  30
0.0
  11
 311.21663823302
  21
 225.79385504498
  31
0.0
   0
LINE
   5
33D
 100
AcDbEntity
   8
LEVEL001
 100
AcDbLine
   6
CONTINUOUS
  62
15
  10
 311.21663823302
  20
 225.79385504498
  30
0.0
  11
 312.05399751503
  21
 225.84928631311
  31
0.0
   0
LINE
   5
33E
 100
AcDbEntity
   8
LEVEL001
 100
AcDbLine
   6
CONTINUOUS
  62
15
  10
 312.05399751503
  20
 225.84928631311
  30
0.0
  11
 312.87523271306
  21
 225.96459420158
  31
0.0
   0
LINE
   5
33F
 100
AcDbEntity
   8
LEVEL001
 100
AcDbLine
   6
CONTINUOUS
  62
15
  10
 312.87523271306
  20
 225.96459420158
  30
0.0
  11
 313.67243488319
  21
 226.13866823229
  31
0.0
   0
LINE
   5
340
 100
AcDbEntity
   8
LEVEL001
 100
AcDbLine
   6
CONTINUOUS
  62
15
  10
 313.67243488319
  20
 226.13866823229
  30
0.0
  11
 314.43792653275
  21
 226.36983197726
  31
0.0
   0
LINE
   5
341
 100
AcDbEntity
   8
LEVEL001
 100
AcDbLine
   6
CONTINUOUS
  62
15
  10
 314.43792653275
  20
 226.36983197726
  30
0.0
  11
 315.16433555860
  21
 226.65585920325
  31
0.0
   0
LINE
   5
342
 100
AcDbEntity
   8
LEVEL001
 100
AcDbLine
   6
CONTINUOUS
  62
15
  10
 315.16433555860
  20
 226.65585920325
  30
0.0
  11
 315.84466624485
  21
 226.99399531173
  31
0.0
   0
LINE
   5
343
 100
AcDbEntity
   8
LEVEL001
 100
AcDbLine
   6
CONTINUOUS
  62
15
  10
 315.84466624485
  20
 226.99399531173
  30
0.0
  11
 316.47236663498
  21
 227.38098386704
  31
0.0
   0
LINE
   5
344
 100
AcDbEntity
   8
LEVEL001
 100
AcDbLine
   6
CONTINUOUS
  62
15
  10
 316.47236663498
  20
 227.38098386704
  30
0.0
  11
 317.04139163123
  21
 227.81309795788
  31
0.0
   0
LINE
   5
345
 100
AcDbEntity
   8
LEVEL001
 100
AcDbLine
   6
CONTINUOUS
  62
15
  10
 317.04139163123
  20
 227.81309795788
  30
0.0
  11
 317.54626121167
  21
 228.28617608937
  31
0.0
   0
LINE
   5
346
 100
AcDbEntity
   8
LEVEL001
 100
AcDbLine
   6
CONTINUOUS
  62
15
  10
 317.54626121167
  20
 228.28617608937
  30
0.0
  11
 317.98211320634
  21
 228.79566226048
  31
0.0
   0
LINE
   5
347
 100
AcDbEntity
   8
LEVEL001
 100
AcDbLine
   6
CONTINUOUS
  62
15
  10
 317.98211320634
  20
 228.79566226048
  30
0.0
  11
 318.34475012224
  21
 229.33664984092
  31
0.0
   0
LINE
   5
348
 100
AcDbEntity
   8
LEVEL001
 100
AcDbLine
   6
CONTINUOUS
  62
15
  10
 318.34475012224
  20
 229.33664984092
  30
0.0
  11
 318.63067956763
  21
 229.90392882451
  31
0.0
   0
LINE
   5
349
 100
AcDbEntity
   8
LEVEL001
 100
AcDbLine
   6
CONTINUOUS
  62
15
  10
 318.63067956763
  20
 229.90392882451
  30
0.0
  11
 318.83714788571
  21
 230.49203600445
  31
0.0
   0
LINE
   5
34A
 100
AcDbEntity
   8
LEVEL001
 100
AcDbLine
   6
CONTINUOUS
  62
15
  10
 318.83714788571
  20
 230.49203600445
  30
0.0
  11
 318.96216667360
  21
 231.09530758723
  31
0.0
   0
LINE
   5
34B
 100
AcDbEntity
   8
LEVEL001
 100
AcDbLine
   6
CONTINUOUS
  62
15
  10
 318.96216667360
  20
 231.09530758723
  30
0.0
  11
 319.00453193217
  21
 231.70793373767
  31
0.0
   0
LINE
   5
34C
 100
AcDbEntity
   8
LEVEL001
 100
AcDbLine
   6
CONTINUOUS
  62
15
  10
 319.00453193217
  20
 231.70793373767
  30
0.0
  11
 318.96383566067
  21
 232.32401453107
  31
0.0
   0
LINE
   5
34D
 100
AcDbEntity
   8
LEVEL001
 100
AcDbLine
   6
CONTINUOUS
  62
15
  10
 318.96383566067
  20
 232.32401453107
  30
0.0
  11
 318.84046978658
  21
 232.93761677255
  31
0.0
   0
LINE
   5
34E
 100
AcDbEntity
   8
LEVEL001
 100
AcDbLine
   6
CONTINUOUS
  62
15
  10
 318.84046978658
  20
 232.93761677255
  30
0.0
  11
 318.63562239059
  21
 233.54283113716
  31
0.0
   0
LINE
   5
34F
 100
AcDbEntity
   8
LEVEL001
 100
AcDbLine
   6
CONTINUOUS
  62
15
  10
 318.63562239059
  20
 233.54283113716
  30
0.0
  11
 318.35126626516
  21
 234.13382907974
  31
0.0
   0
LINE
   5
350
 100
AcDbEntity
   8
LEVEL001
 100
AcDbLine
   6
CONTINUOUS
  62
15
  10
 318.35126626516
  20
 234.13382907974
  30
0.0
  11
 317.99013991516
  21
 234.70491896695
  31
0.0
   0
LINE
   5
351
 100
AcDbEntity
   8
LEVEL001
 100
AcDbLine
   6
CONTINUOUS
  62
15
  10
 317.99013991516
  20
 234.70491896695
  30
0.0
  11
 317.55572118489
  21
 235.25060089101
  31
0.0
   0
LINE
   5
352
 100
AcDbEntity
   8
LEVEL001
 100
AcDbLine
   6
CONTINUOUS
  62
15
  10
 317.55572118489
  20
 235.25060089101
  30
0.0
  11
 317.05219376409
  21
 235.76561963673
  31
0.0
   0
LINE
   5
353
 100
AcDbEntity
   8
LEVEL001
 100
AcDbLine
   6
CONTINUOUS
  62
15
  10
 317.05219376409
  20
 235.76561963673
  30
0.0
  11
 316.48440689711
  21
 236.24501529208
  31
0.0
   0
LINE
   5
354
 100
AcDbEntity
   8
LEVEL001
 100
AcDbLine
   6
CONTINUOUS
  62
15
  10
 316.48440689711
  20
 236.24501529208
  30
0.0
  11
 315.85782868185
  21
 236.68417101467
  31
0.0
   0
LINE
   5
355
 100
AcDbEntity
   8
LEVEL001
 100
AcDbLine
   6
CONTINUOUS
  62
15
  10
 315.85782868185
  20
 236.68417101467
  30
0.0
  11
 315.17849340907
  21
 237.07885749506
  31
0.0
   0
LINE
   5
356
 100
AcDbEntity
   8
LEVEL001
 100
AcDbLine
   6
CONTINUOUS
  62
15
  10
 315.17849340907
  20
 237.07885749506
  30
0.0
  11
 314.45294344876
  21
 237.42527368648
  31
0.0
   0
LINE
   5
357
 100
AcDbEntity
   8
LEVEL001
 100
AcDbLine
   6
CONTINUOUS
  62
15
  10
 314.45294344876
  20
 237.42527368648
  30
0.0
  11
 313.68816624376
  21
 237.72008341178
  31
0.0
   0
LINE
   5
358
 100
AcDbEntity
   8
LEVEL001
 100
AcDbLine
   6
CONTINUOUS
  62
15
  10
 313.68816624376
  20
 237.72008341178
  30
0.0
  11
 312.89152701650
  21
 237.96044749207
  31
0.0
   0
LINE
   5
359
 100
AcDbEntity
   8
LEVEL001
 100
AcDbLine
   6
CONTINUOUS
  62
15
  10
 312.89152701650
  20
 237.96044749207
  30
0.0
  11
 312.07069783835
  21
 238.14405108983
  31
0.0
   0
LINE
   5
35A
 100
AcDbEntity
   8
LEVEL001
 100
AcDbLine
   6
CONTINUOUS
  62
15
  10
 312.07069783835
  20
 238.14405108983
  30
0.0
  11
 311.23358374291
  21
 238.26912600215
  31
0.0
   0
LINE
   5
35B
 100
AcDbEntity
   8
LEVEL001
 100
AcDbLine
   6
CONTINUOUS
  62
15
  10
 311.23358374291
  20
 238.26912600215
  30
0.0
  11
 310.38824659658
  21
 238.33446768919
  31
0.0
   0
LINE
   5
35C
 100
AcDbEntity
   8
LEVEL001
 100
AcDbLine
   6
CONTINUOUS
  62
15
  10
 310.38824659658
  20
 238.33446768919
  30
0.0
  11
 309.54282745809
  21
 238.33944687475
  31
0.0
   0
LINE
   5
35D
 100
AcDbEntity
   8
LEVEL001
 100
AcDbLine
   6
CONTINUOUS
  62
15
  10
 309.54282745809
  20
 238.33944687475
  30
0.0
  11
 308.70546817607
  21
 238.28401560662
  31
0.0
   0
LINE
   5
35E
 100
AcDbEntity
   8
LEVEL001
 100
AcDbLine
   6
CONTINUOUS
  62
15
  10
 308.70546817607
  20
 238.28401560662
  30
0.0
  11
 307.88423297805
  21
 238.16870771822
  31
0.0
   0
LINE
   5
35F
 100
AcDbEntity
   8
LEVEL001
 100
AcDbLine
   6
CONTINUOUS
  62
15
  10
 307.88423297805
  20
 238.16870771822
  30
0.0
  11
 307.08703080791
  21
 237.99463368743
  31
0.0
   0
LINE
   5
360
 100
AcDbEntity
   8
LEVEL001
 100
AcDbLine
   6
CONTINUOUS
  62
15
  10
 307.08703080791
  20
 237.99463368743
  30
0.0
  11
 306.32153915836
  21
 237.76346994247
  31
0.0
   0
LINE
   5
361
 100
AcDbEntity
   8
LEVEL001
 100
AcDbLine
   6
CONTINUOUS
  62
15
  10
 306.32153915836
  20
 237.76346994247
  30
0.0
  11
 305.59513013251
  21
 237.47744271647
  31
0.0
   0
LINE
   5
362
 100
AcDbEntity
   8
LEVEL001
 100
AcDbLine
   6
CONTINUOUS
  62
15
  10
 305.59513013251
  20
 237.47744271647
  30
0.0
  11
 304.91479944626
  21
 237.13930660807
  31
0.0
   0
LINE
   5
363
 100
AcDbEntity
   8
LEVEL001
 100
AcDbLine
   6
CONTINUOUS
  62
15
  10
 304.91479944626
  20
 237.13930660807
  30
0.0
  11
 304.28709905613
  21
 236.75231805275
  31
0.0
   0
LINE
   5
364
 100
AcDbEntity
   8
LEVEL001
 100
AcDbLine
   6
CONTINUOUS
  62
15
  10
 304.28709905613
  20
 236.75231805275
  30
0.0
  11
 303.71807405995
  21
 236.32020396191
  31
0.0
   0
LINE
   5
365
 100
AcDbEntity
   8
LEVEL001
 100
AcDbLine
   6
CONTINUOUS
  62
15
  10
 303.71807405995
  20
 236.32020396191
  30
0.0
  11
 303.21320447944
  21
 235.84712583035
  31
0.0
   0
LINE
   5
366
 100
AcDbEntity
   8
LEVEL001
 100
AcDbLine
   6
CONTINUOUS
  62
15
  10
 303.21320447944
  20
 235.84712583035
  30
0.0
  11
 302.77735248477
  21
 235.33763965924
  31
0.0
   0
LINE
   5
367
 100
AcDbEntity
   8
LEVEL001
 100
AcDbLine
   6
CONTINUOUS
  62
15
  10
 302.77735248477
  20
 235.33763965924
  30
0.0
  11
 302.41471556887
  21
 234.79665207887
  31
0.0
   0
LINE
   5
368
 100
AcDbEntity
   8
LEVEL001
 100
AcDbLine
   6
CONTINUOUS
  62
15
  10
 302.41471556887
  20
 234.79665207887
  30
0.0
  11
 302.12878612348
  21
 234.22937309529
  31
0.0
   0
LINE
   5
369
 100
AcDbEntity
   8
LEVEL001
 100
AcDbLine
   6
CONTINUOUS
  62
15
  10
 302.12878612348
  20
 234.22937309529
  30
0.0
  11
 301.92231780539
  21
 233.64126591535
  31
0.0
   0
LINE
   5
36A
 100
AcDbEntity
   8
LEVEL001
 100
AcDbLine
   6
CONTINUOUS
  62
15
  10
 301.92231780539
  20
 233.64126591535
  30
0.0
  11
 301.79729901751
  21
 233.03799433257
  31
0.0
   0
LINE
   5
36B
 100
AcDbEntity
   8
LEVEL001
 100
AcDbLine
   6
CONTINUOUS
  62
15
  10
 301.79729901751
  20
 233.03799433257
  30
0.0
  11
 301.75493375901
  21
 232.42536818212
  31
0.0
   0
LINE
   5
36C
 100
AcDbEntity
   8
LEVEL001
 100
AcDbLine
   6
CONTINUOUS
  62
15
  10
 301.75493375901
  20
 232.42536818212
  30
0.0
  11
 301.79563003043
  21
 231.80928738873
  31
0.0
   0
LINE
   5
36D
 100
AcDbEntity
   8
LEVEL001
 100
AcDbLine
   6
CONTINUOUS
  62
15
  10
 301.79563003043
  20
 231.80928738873
  30
0.0
  11
 301.91899590460
  21
 231.19568514717
  31
0.0
   0
LINE
   5
36E
 100
AcDbEntity
   8
LEVEL001
 100
AcDbLine
   6
CONTINUOUS
  62
15
  10
 301.91899590460
  20
 231.19568514717
  30
0.0
  11
 302.12384330059
  21
 230.59047078256
  31
0.0
   0
LINE
   5
36F
 100
AcDbEntity
   8
LEVEL001
 100
AcDbLine
   6
CONTINUOUS
  62
15
  10
 302.12384330059
  20
 230.59047078256
  30
0.0
  11
 302.40819942602
  21
 229.99947284006
  31
0.0
   0
LINE
   5
370
 100
AcDbEntity
   8
LEVEL001
 100
AcDbLine
   6
CONTINUOUS
  62
15
  10
 302.40819942602
  20
 229.99947284006
  30
0.0
  11
 302.76932577595
  21
 229.42838295285
  31
0.0
   0
LINE
   5
371
 100
AcDbEntity
   8
LEVEL001
 100
AcDbLine
   6
CONTINUOUS
  62
15
  10
 302.76932577595
  20
 229.42838295285
  30
0.0
  11
 303.20374450622
  21
 228.88270102871
  31
0.0
   0
LINE
   5
372
 100
AcDbEntity
   8
LEVEL001
 100
AcDbLine
   6
CONTINUOUS
  62
15
  10
 303.20374450622
  20
 228.88270102871
  30
0.0
  11
 303.70727192702
  21
 228.36768228299
  31
0.0
   0
LINE
   5
373
 100
AcDbEntity
   8
LEVEL001
 100
AcDbLine
   6
CONTINUOUS
  62
15
  10
 303.70727192702
  20
 228.36768228299
  30
0.0
  11
 304.27505879399
  21
 227.88828662771
  31
0.0
   0
ARC
   5
374
 100
AcDbEntity
   8
LEVEL001
   6
CONTINUOUS
  62
15
 100
AcDbCircle
  10
 306.88178606258
  20
 231.70307464538
  30
0.0
  40
 6.6344757942150
 100
AcDbArc
  50
 177.91957386800
  51
 236.00426061400
   0
LINE
   5
375
 100
AcDbEntity
   8
LEVEL001
 100
AcDbLine
   6
CONTINUOUS
  62
15
  10
 320.33757102659
  20
 230.21689832284
  30
0.0
  11
 320.32391431017
  21
 230.07812592215
  31
0.0
   0
LINE
   5
376
 100
AcDbEntity
   8
LEVEL001
 100
AcDbLine
   6
CONTINUOUS
  62
15
  10
 320.32391431017
  20
 230.07812592215
  30
0.0
  11
 320.20863075979
  21
 229.42244759836
  31
0.0
   0
LINE
   5
377
 100
AcDbEntity
   8
LEVEL001
 100
AcDbLine
   6
CONTINUOUS
  62
15
  10
 320.20863075979
  20
 229.42244759836
  30
0.0
  11
 320.01119446456
  21
 228.78048213033
  31
0.0
   0
LINE
   5
378
 100
AcDbEntity
   8
LEVEL001
 100
AcDbLine
   6
CONTINUOUS
  62
15
  10
 320.01119446456
  20
 228.78048213033
  30
0.0
  11
 319.73324144385
  21
 228.15754904611
  31
0.0
   0
LINE
   5
379
 100
AcDbEntity
   8
LEVEL001
 100
AcDbLine
   6
CONTINUOUS
  62
15
  10
 319.73324144385
  20
 228.15754904611
  30
0.0
  11
 319.37707490392
  21
 227.55881016530
  31
0.0
   0
LINE
   5
37A
 100
AcDbEntity
   8
LEVEL001
 100
AcDbLine
   6
CONTINUOUS
  62
15
  10
 319.37707490392
  20
 227.55881016530
  30
0.0
  11
 318.94564615279
  21
 226.98922682697
  31
0.0
   0
LINE
   5
37B
 100
AcDbEntity
   8
LEVEL001
 100
AcDbLine
   6
CONTINUOUS
  62
15
  10
 318.94564615279
  20
 226.98922682697
  30
0.0
  11
 318.44253014510
  21
 226.45351877800
  31
0.0
   0
LINE
   5
37C
 100
AcDbEntity
   8
LEVEL001
 100
AcDbLine
   6
CONTINUOUS
  62
15
  10
 318.44253014510
  20
 226.45351877800
  30
0.0
  11
 317.87189585848
  21
 225.95612506399
  31
0.0
   0
LINE
   5
37D
 100
AcDbEntity
   8
LEVEL001
 100
AcDbLine
   6
CONTINUOUS
  62
15
  10
 317.87189585848
  20
 225.95612506399
  30
0.0
  11
 317.23847174836
  21
 225.50116724594
  31
0.0
   0
LINE
   5
37E
 100
AcDbEntity
   8
LEVEL001
 100
AcDbLine
   6
CONTINUOUS
  62
15
  10
 317.23847174836
  20
 225.50116724594
  30
0.0
  11
 316.54750656643
  21
 225.09241524753
  31
0.0
   0
LINE
   5
37F
 100
AcDbEntity
   8
LEVEL001
 100
AcDbLine
   6
CONTINUOUS
  62
15
  10
 316.54750656643
  20
 225.09241524753
  30
0.0
  11
 315.80472586773
  21
 224.73325611667
  31
0.0
   0
LINE
   5
380
 100
AcDbEntity
   8
LEVEL001
 100
AcDbLine
   6
CONTINUOUS
  62
15
  10
 315.80472586773
  20
 224.73325611667
  30
0.0
  11
 315.01628456709
  21
 224.42666595887
  31
0.0
   0
LINE
   5
381
 100
AcDbEntity
   8
LEVEL001
 100
AcDbLine
   6
CONTINUOUS
  62
15
  10
 315.01628456709
  20
 224.42666595887
  30
0.0
  11
 314.18871593738
  21
 224.17518527687
  31
0.0
   0
LINE
   5
382
 100
AcDbEntity
   8
LEVEL001
 100
AcDbLine
   6
CONTINUOUS
  62
15
  10
 314.18871593738
  20
 224.17518527687
  30
0.0
  11
 313.32887747301
  21
 223.98089791871
  31
0.0
   0
LINE
   5
383
 100
AcDbEntity
   8
LEVEL001
 100
AcDbLine
   6
CONTINUOUS
  62
15
  10
 313.32887747301
  20
 223.98089791871
  30
0.0
  11
 312.44389406625
  21
 223.84541381073
  31
0.0
   0
LINE
   5
384
 100
AcDbEntity
   8
LEVEL001
 100
AcDbLine
   6
CONTINUOUS
  62
15
  10
 312.44389406625
  20
 223.84541381073
  30
0.0
  11
 311.54109896829
  21
 223.76985561688
  31
0.0
   0
LINE
   5
385
 100
AcDbEntity
   8
LEVEL001
 100
AcDbLine
   6
CONTINUOUS
  62
15
  10
 311.54109896829
  20
 223.76985561688
  30
0.0
  11
 310.62797302363
  21
 223.75484943607
  31
0.0
   0
LINE
   5
386
 100
AcDbEntity
   8
LEVEL001
 100
AcDbLine
   6
CONTINUOUS
  62
15
  10
 310.62797302363
  20
 223.75484943607
  30
0.0
  11
 309.71208268144
  21
 223.80051961430
  31
0.0
   0
LINE
   5
387
 100
AcDbEntity
   8
LEVEL001
 100
AcDbLine
   6
CONTINUOUS
  62
15
  10
 309.71208268144
  20
 223.80051961430
  30
0.0
  11
 308.80101729758
  21
 223.90648771418
  31
0.0
   0
LINE
   5
388
 100
AcDbEntity
   8
LEVEL001
 100
AcDbLine
   6
CONTINUOUS
  62
15
  10
 308.80101729758
  20
 223.90648771418
  30
0.0
  11
 307.90232624671
  21
 224.07187565049
  31
0.0
   0
LINE
   5
389
 100
AcDbEntity
   8
LEVEL001
 100
AcDbLine
   6
CONTINUOUS
  62
15
  10
 307.90232624671
  20
 224.07187565049
  30
0.0
  11
 307.02345636592
  21
 224.29531296681
  31
0.0
   0
LINE
   5
38A
 100
AcDbEntity
   8
LEVEL001
 100
AcDbLine
   6
CONTINUOUS
  62
15
  10
 307.02345636592
  20
 224.29531296681
  30
0.0
  11
 306.17169024779
  21
 224.57494819113
  31
0.0
   0
LINE
   5
38B
 100
AcDbEntity
   8
LEVEL001
 100
AcDbLine
   6
CONTINUOUS
  62
15
  10
 306.17169024779
  20
 224.57494819113
  30
0.0
  11
 305.35408589471
  21
 224.90846417798
  31
0.0
   0
LINE
   5
38C
 100
AcDbEntity
   8
LEVEL001
 100
AcDbLine
   6
CONTINUOUS
  62
15
  10
 305.35408589471
  20
 224.90846417798
  30
0.0
  11
 304.57741823380
  21
 225.29309730873
  31
0.0
   0
LINE
   5
38D
 100
AcDbEntity
   8
LEVEL001
 100
AcDbLine
   6
CONTINUOUS
  62
15
  10
 304.57741823380
  20
 225.29309730873
  30
0.0
  11
 303.84812297786
  21
 225.72566039222
  31
0.0
   0
LINE
   5
38E
 100
AcDbEntity
   8
LEVEL001
 100
AcDbLine
   6
CONTINUOUS
  62
15
  10
 303.84812297786
  20
 225.72566039222
  30
0.0
  11
 303.17224329712
  21
 226.20256907455
  31
0.0
   0
LINE
   5
38F
 100
AcDbEntity
   8
LEVEL001
 100
AcDbLine
   6
CONTINUOUS
  62
15
  10
 299.35530022946
  20
 221.55602469880
  30
0.0
  11
 299.33641289383
  21
 221.18715960167
  31
0.0
   0
LINE
   5
390
 100
AcDbEntity
   8
LEVEL001
 100
AcDbLine
   6
CONTINUOUS
  62
15
  10
 299.33641289383
  20
 221.18715960167
  30
0.0
  11
 299.36733083927
  21
 220.52012280398
  31
0.0
   0
LINE
   5
391
 100
AcDbEntity
   8
LEVEL001
 100
AcDbLine
   6
CONTINUOUS
  62
15
  10
 299.36733083927
  20
 220.52012280398
  30
0.0
  11
 299.48148284443
  21
 219.85449091895
  31
0.0
   0
LINE
   5
392
 100
AcDbEntity
   8
LEVEL001
 100
AcDbLine
   6
CONTINUOUS
  62
15
  10
 299.48148284443
  20
 219.85449091895
  30
0.0
  11
 299.67792167894
  21
 219.19578734229
  31
0.0
   0
LINE
   5
393
 100
AcDbEntity
   8
LEVEL001
 100
AcDbLine
   6
CONTINUOUS
  62
15
  10
 299.67792167894
  20
 219.19578734229
  30
0.0
  11
 299.95501729867
  21
 218.54947797897
  31
0.0
   0
LINE
   5
394
 100
AcDbEntity
   8
LEVEL001
 100
AcDbLine
   6
CONTINUOUS
  62
15
  10
 299.95501729867
  20
 218.54947797897
  30
0.0
  11
 300.31047037137
  21
 217.92092588673
  31
0.0
   0
LINE
   5
395
 100
AcDbEntity
   8
LEVEL001
 100
AcDbLine
   6
CONTINUOUS
  62
15
  10
 300.31047037137
  20
 217.92092588673
  30
0.0
  11
 300.74133135700
  21
 217.31534677430
  31
0.0
   0
LINE
   5
396
 100
AcDbEntity
   8
LEVEL001
 100
AcDbLine
   6
CONTINUOUS
  62
15
  10
 300.74133135700
  20
 217.31534677430
  30
0.0
  11
 301.24402498245
  21
 216.73776572104
  31
0.0
   0
LINE
   5
397
 100
AcDbEntity
   8
LEVEL001
 100
AcDbLine
   6
CONTINUOUS
  62
15
  10
 301.24402498245
  20
 216.73776572104
  30
0.0
  11
 301.81437990943
  21
 216.19297547918
  31
0.0
   0
LINE
   5
398
 100
AcDbEntity
   8
LEVEL001
 100
AcDbLine
   6
CONTINUOUS
  62
15
  10
 301.81437990943
  20
 216.19297547918
  30
0.0
  11
 302.44766334789
  21
 215.68549670378
  31
0.0
   0
LINE
   5
399
 100
AcDbEntity
   8
LEVEL001
 100
AcDbLine
   6
CONTINUOUS
  62
15
  10
 302.44766334789
  20
 215.68549670378
  30
0.0
  11
 303.13862032859
  21
 215.21954044012
  31
0.0
   0
LINE
   5
39A
 100
AcDbEntity
   8
LEVEL001
 100
AcDbLine
   6
CONTINUOUS
  62
15
  10
 303.13862032859
  20
 215.21954044012
  30
0.0
  11
 303.88151730887
  21
 214.79897318095
  31
0.0
   0
LINE
   5
39B
 100
AcDbEntity
   8
LEVEL001
 100
AcDbLine
   6
CONTINUOUS
  62
15
  10
 303.88151730887
  20
 214.79897318095
  30
0.0
  11
 304.67018974939
  21
 214.42728478223
  31
0.0
   0
LINE
   5
39C
 100
AcDbEntity
   8
LEVEL001
 100
AcDbLine
   6
CONTINUOUS
  62
15
  10
 304.67018974939
  20
 214.42728478223
  30
0.0
  11
 305.49809326701
  21
 214.10755950453
  31
0.0
   0
LINE
   5
39D
 100
AcDbEntity
   8
LEVEL001
 100
AcDbLine
   6
CONTINUOUS
  62
15
  10
 305.49809326701
  20
 214.10755950453
  30
0.0
  11
 306.35835794042
  21
 213.84245041953
  31
0.0
   0
LINE
   5
39E
 100
AcDbEntity
   8
LEVEL001
 100
AcDbLine
   6
CONTINUOUS
  62
15
  10
 306.35835794042
  20
 213.84245041953
  30
0.0
  11
 307.24384531615
  21
 213.63415739558
  31
0.0
   0
LINE
   5
39F
 100
AcDbEntity
   8
LEVEL001
 100
AcDbLine
   6
CONTINUOUS
  62
15
  10
 307.24384531615
  20
 213.63415739558
  30
0.0
  11
 308.14720764350
  21
 213.48440884250
  31
0.0
   0
LINE
   5
3A0
 100
AcDbEntity
   8
LEVEL001
 100
AcDbLine
   6
CONTINUOUS
  62
15
  10
 308.14720764350
  20
 213.48440884250
  30
0.0
  11
 309.06094884580
  21
 213.39444736991
  31
0.0
   0
LINE
   5
3A1
 100
AcDbEntity
   8
LEVEL001
 100
AcDbLine
   6
CONTINUOUS
  62
15
  10
 309.06094884580
  20
 213.39444736991
  30
0.0
  11
 309.97748672279
  21
 213.36501947570
  31
0.0
   0
LINE
   5
3A2
 100
AcDbEntity
   8
LEVEL001
 100
AcDbLine
   6
CONTINUOUS
  62
15
  10
 309.97748672279
  20
 213.36501947570
  30
0.0
  11
 310.88921586760
  21
 213.39636935174
  31
0.0
   0
LINE
   5
3A3
 100
AcDbEntity
   8
LEVEL001
 100
AcDbLine
   6
CONTINUOUS
  62
15
  10
 310.88921586760
  20
 213.39636935174
  30
0.0
  11
 311.78857077583
  21
 213.48823685764
  31
0.0
   0
ENDBLK
   5
3A4
 100
AcDbEntity
   8
0
 100
AcDbBlockEnd
   0
BLOCK
   5
3A5
 100
AcDbEntity
   8
0
 100
AcDbBlockBegin
   2
*D20
  70
65
  10
0.0
  20
0.0
  30
0.0
   3
*D20
   0
POLYLINE
   5
3A6
 100
AcDbEntity
   8
LEVEL001
   6
CONTINUOUS
  62
3
 100
AcDb2dPolyline
  66
1
  10
0.0
  20
0.0
  30
0.0
  70
0
   0
VERTEX
   5
3A7
 100
AcDbEntity
   8
LEVEL001
   6
CONTINUOUS
  62
3
 100
AcDbVertex
 100
AcDb2dVertex
  10
 226.73928337767
  20
 123.25342318257
  30
0.0
   0
VERTEX
   5
3A8
 100
AcDbEntity
   8
LEVEL001
   6
CONTINUOUS
  62
3
 100
AcDbVertex
 100
AcDb2dVertex
  10
 248.58231798856
  20
 154.49253525007
  30
0.0
   0
VERTEX
   5
3A9
 100
AcDbEntity
   8
LEVEL001
   6
CONTINUOUS
  62
3
 100
AcDbVertex
 100
AcDb2dVertex
  10
 294.58231798856
  20
 154.49253525007
  30
0.0
   0
SEQEND
   5
3AA
 100
AcDbEntity
   8
LEVEL001
   6
CONTINUOUS
  62
3
   0
INSERT
   5
3AB
 100
AcDbEntity
   8
LEVEL001
   6
CONTINUOUS
  62
3
 100
AcDbBlockReference
   2
_OPEN30
  10
 226.73928337767
  20
 123.25342318257
  30
0.0
  41
 3.0000000000000
  42
 3.0000000000000
  43
 3.0000000000000
  50
 235.03795663030
   0
MTEXT
   5
3AC
 100
AcDbEntity
   8
LEVEL001
  62
3
 100
AcDbMText
  10
 248.58231798856
  20
 156.20682096435
  30
0.0
  40
 4.0000000000000
  41
0.0
  71
7
  72
1
   1
\A1;４－%%c４.５穴 %%c７.２皿
   7
GMM001
   0
ENDBLK
   5
3AD
 100
AcDbEntity
   8
0
 100
AcDbBlockEnd
   0
ENDSEC
   0
SECTION
   2
ENTITIES
   0
LINE
   5
3AE
 100
AcDbEntity
   8
LEVEL001
 100
AcDbLine
   6
CONTINUOUS
  62
7
  10
 76.739283377671
  20
 214.79490635211
  30
0.0
  11
 100.73928337767
  21
 214.79490635211
  31
0.0
   0
ARC
   5
3AF
 100
AcDbEntity
   8
LEVEL001
   6
CONTINUOUS
  62
7
 100
AcDbCircle
  10
 100.73928337767
  20
 212.79490635211
  30
0.0
  40
 2.0000000000000
 100
AcDbArc
  50
0.0
  51
 90.000000000001
   0
POINT
   5
3B0
 100
AcDbEntity
   8
LEVEL001
 100
AcDbPoint
  62
7
  10
 102.73928337767
  20
 214.79490635211
  30
0.0
   0
LINE
   5
3B1
 100
AcDbEntity
   8
LEVEL001
 100
AcDbLine
   6
CONTINUOUS
  62
7
  10
 76.739283377665
  20
 188.29490635211
  30
0.0
  11
 100.73928337767
  21
 188.29490635211
  31
0.0
   0
ARC
   5
3B2
 100
AcDbEntity
   8
LEVEL001
   6
CONTINUOUS
  62
7
 100
AcDbCircle
  10
 100.73928337767
  20
 190.29490635211
  30
0.0
  40
 2.0000000000000
 100
AcDbArc
  50
 270.00000000000
  51
0.0
   0
POINT
   5
3B3
 100
AcDbEntity
   8
LEVEL001
 100
AcDbPoint
  62
7
  10
 102.73928337767
  20
 188.29490635211
  30
0.0
   0
LINE
   5
3B4
 100
AcDbEntity
   8
LEVEL001
 100
AcDbLine
   6
CONTINUOUS
  62
7
  10
 102.73928337767
  20
 190.29490635211
  30
0.0
  11
 102.73928337767
  21
 212.79490635211
  31
0.0
   0
LINE
   5
3B5
 100
AcDbEntity
   8
LEVEL001
 100
AcDbLine
   6
DOT
  62
1
  10
 102.73928337767
  20
 209.79490635211
  30
0.0
  11
 78.739283377665
  21
 209.79490635211
  31
0.0
   0
LINE
   5
3B6
 100
AcDbEntity
   8
LEVEL001
 100
AcDbLine
   6
DOT
  62
1
  10
 94.739283377665
  20
 194.29490635211
  30
0.0
  11
 94.739283377665
  21
 188.29490635211
  31
0.0
   0
LINE
   5
3B7
 100
AcDbEntity
   8
LEVEL001
 100
AcDbLine
   6
DOT
  62
1
  10
 82.739283377665
  20
 194.29490635211
  30
0.0
  11
 94.739283377665
  21
 194.29490635211
  31
0.0
   0
ARC
   5
3B8
 100
AcDbEntity
   8
LEVEL001
   6
CONTINUOUS
  62
7
 100
AcDbCircle
  10
 76.739283377666
  20
 190.29490635211
  30
0.0
  40
 2.0000000000000
 100
AcDbArc
  50
 179.99999999999
  51
 269.99999999997
   0
POINT
   5
3B9
 100
AcDbEntity
   8
LEVEL001
 100
AcDbPoint
  62
7
  10
 74.739283377665
  20
 188.29490635211
  30
0.0
   0
LINE
   5
3BA
 100
AcDbEntity
   8
LEVEL001
 100
AcDbLine
   6
CONTINUOUS
  62
7
  10
 74.739283377671
  20
 212.79490635211
  30
0.0
  11
 74.739283377665
  21
 190.29490635211
  31
0.0
   0
ARC
   5
3BB
 100
AcDbEntity
   8
LEVEL001
   6
CONTINUOUS
  62
7
 100
AcDbCircle
  10
 76.739283377672
  20
 212.79490635211
  30
0.0
  40
 2.0000000000000
 100
AcDbArc
  50
 90.000000000031
  51
 179.99999999999
   0
POINT
   5
3BC
 100
AcDbEntity
   8
LEVEL001
 100
AcDbPoint
  62
7
  10
 74.739283377671
  20
 214.79490635211
  30
0.0
   0
LINE
   5
3BD
 100
AcDbEntity
   8
LEVEL001
 100
AcDbLine
   6
DOT
  62
1
  10
 78.739283377665
  20
 214.79490635211
  30
0.0
  11
 78.739283377665
  21
 209.79490635211
  31
0.0
   0
LINE
   5
3BE
 100
AcDbEntity
   8
LEVEL001
 100
AcDbLine
   6
DOT
  62
1
  10
 82.739283377665
  20
 194.29490635211
  30
0.0
  11
 82.739283377665
  21
 188.29490635211
  31
0.0
   0
LINE
   5
3BF
 100
AcDbEntity
   8
LEVEL001
 100
AcDbLine
   6
CONTINUOUS
  62
7
  10
 236.73928337767
  20
 209.79490635211
  30
0.0
  11
 102.73928337767
  21
 209.79490635211
  31
0.0
   0
ARC
   5
3C0
 100
AcDbEntity
   8
LEVEL001
   6
DOT
  62
1
 100
AcDbCircle
  10
 84.239283377676
  20
 191.79490635211
  30
0.0
  40
 0.50000000000000
 100
AcDbArc
  50
 180.00000000000
  51
 269.99999999882
   0
POINT
   5
3C1
 100
AcDbEntity
   8
LEVEL001
 100
AcDbPoint
  62
1
  10
 83.739283377665
  20
 191.29490635211
  30
0.0
   0
LINE
   5
3C2
 100
AcDbEntity
   8
LEVEL001
 100
AcDbLine
   6
DOT
  62
1
  10
 84.239283377665
  20
 191.29490635211
  30
0.0
  11
 93.239283377665
  21
 191.29490635211
  31
0.0
   0
LINE
   5
3C3
 100
AcDbEntity
   8
LEVEL001
 100
AcDbLine
   6
DOT
  62
1
  10
 84.739283377665
  20
 194.29490635211
  30
0.0
  11
 84.739283377665
  21
 209.79490635211
  31
0.0
   0
ARC
   5
3C4
 100
AcDbEntity
   8
LEVEL001
   6
DOT
  62
1
 100
AcDbCircle
  10
 93.239283377665
  20
 191.79490635210
  30
0.0
  40
 0.50000000000000
 100
AcDbArc
  50
 270.00000000000
  51
 0.12767000935769E-8
   0
POINT
   5
3C5
 100
AcDbEntity
   8
LEVEL001
 100
AcDbPoint
  62
1
  10
 93.739283377665
  20
 191.29490635211
  30
0.0
   0
LINE
   5
3C6
 100
AcDbEntity
   8
LEVEL001
 100
AcDbLine
   6
DOT
  62
1
  10
 92.739283377665
  20
 209.79490635211
  30
0.0
  11
 92.739283377665
  21
 194.29490635211
  31
0.0
   0
LINE
   5
3C7
 100
AcDbEntity
   8
LEVEL001
 100
AcDbLine
   6
DOT
  62
1
  10
 83.739283377665
  20
 191.79490635211
  30
0.0
  11
 83.739283377665
  21
 194.29490635211
  31
0.0
   0
LINE
   5
3C8
 100
AcDbEntity
   8
LEVEL001
 100
AcDbLine
   6
DOT
  62
1
  10
 93.739283377665
  20
 191.79490635211
  30
0.0
  11
 93.739283377665
  21
 194.29490635211
  31
0.0
   0
DIMENSION
   5
3C9
 100
AcDbEntity
   8
LEVEL001
   6
CONTINUOUS
  62
3
 100
AcDbDimension
   2
*D1
  10
 60.358460865501
  20
 214.79490635211
  30
0.0
  11
 60.358460865501
  21
 201.54490635211
  31
0.0
  70
0
   3
GMM001
 100
AcDbAlignedDimension
  13
 74.739283377665
  23
 188.29490635211
  33
0.0
  14
 74.739283377671
  24
 214.79490635211
  34
0.0
  50
 90.000000000000
 100
AcDbRotatedDimension
   0
DIMENSION
   5
3CA
 100
AcDbEntity
   8
LEVEL001
   6
CONTINUOUS
  62
3
 100
AcDbDimension
   2
*D2
  10
 100.73928337767
  20
 190.29490635211
  30
0.0
  11
 104.10480722562
  21
 187.24372757292
  31
0.0
  70
132
   3
GMM002
 100
AcDbRadialDimension
  15
 102.22100033059
  25
 188.95158402615
  35
0.0
  40
 3.0666394624778
   0
DIMENSION
   5
3CB
 100
AcDbEntity
   8
LEVEL001
   6
CONTINUOUS
  62
3
 100
AcDbDimension
   2
*D3
  10
 100.73928337767
  20
 212.79490635211
  30
0.0
  11
 104.94034847691
  21
 216.56362966337
  31
0.0
  70
132
   3
GMM002
 100
AcDbRadialDimension
  15
 102.22802568619
  25
 214.13043858264
  35
0.0
  40
 4.0268957357416
   0
LINE
   5
3CC
 100
AcDbEntity
   8
LEVEL001
 100
AcDbLine
   6
DOT
  62
1
  10
 85.439283377665
  20
 209.79490635211
  30
0.0
  11
 85.439283377665
  21
 211.79490635211
  31
0.0
   0
LINE
   5
3CD
 100
AcDbEntity
   8
LEVEL001
 100
AcDbLine
   6
DOT
  62
1
  10
 92.039283377665
  20
 209.79490635211
  30
0.0
  11
 92.039283377665
  21
 211.79490635211
  31
0.0
   0
ARC
   5
3CE
 100
AcDbEntity
   8
LEVEL001
   6
CONTINUOUS
  62
15
 100
AcDbCircle
  10
 157.63926238483
  20
 211.79490635210
  30
0.0
  40
 0.60000000000000
 100
AcDbArc
  50
 0.30669028608459E-9
  51
 90.000000000000
   0
POINT
   5
3CF
 100
AcDbEntity
   8
LEVEL001
 100
AcDbPoint
  62
15
  10
 158.23926238483
  20
 212.39490635211
  30
0.0
   0
LINE
   5
3D0
 100
AcDbEntity
   8
LEVEL001
 100
AcDbLine
   6
CONTINUOUS
  62
7
  10
 236.73928337767
  20
 211.79490635211
  30
0.0
  11
 102.73928337767
  21
 211.79490635211
  31
0.0
   0
LINE
   5
3D1
 100
AcDbEntity
   8
LEVEL001
 100
AcDbLine
   6
CONTINUOUS
  62
15
  10
 102.73928337767
  20
 212.39490635211
  30
0.0
  11
 157.63926238483
  21
 212.39490635211
  31
0.0
   0
POINT
   5
3D2
 100
AcDbEntity
   8
LEVEL001
 100
AcDbPoint
  62
1
  10
 96.739262384832
  20
 212.39490635211
  30
0.0
   0
ARC
   5
3D3
 100
AcDbEntity
   8
LEVEL001
   6
DOT
  62
1
 100
AcDbCircle
  10
 97.339262384827
  20
 211.79490635211
  30
0.0
  40
 0.60000000000000
 100
AcDbArc
  50
 89.999999999573
  51
 180.00000000000
   0
LINE
   5
3D4
 100
AcDbEntity
   8
LEVEL001
 100
AcDbLine
   6
DOT
  62
1
  10
 97.339262384832
  20
 212.39490635211
  30
0.0
  11
 102.73928337767
  21
 212.39490635211
  31
0.0
   0
LINE
   5
3D5
 100
AcDbEntity
   8
LEVEL001
 100
AcDbLine
   6
DOT
  62
1
  10
 102.73928337767
  20
 211.79490635211
  30
0.0
  11
 78.739283377665
  21
 211.79490635211
  31
0.0
   0
LINE
   5
3D6
 100
AcDbEntity
   8
LEVEL001
 100
AcDbLine
   6
DOT
  62
1
  10
 84.239283377665
  20
 211.79490635211
  30
0.0
  11
 84.239283377665
  21
 212.29490635211
  31
0.0
   0
ARC
   5
3D7
 100
AcDbEntity
   8
LEVEL001
   6
DOT
  62
1
 100
AcDbCircle
  10
 85.239283377665
  20
 212.29490635211
  30
0.0
  40
 1.0000000000000
 100
AcDbArc
  50
 89.999999999985
  51
 180.00000000000
   0
POINT
   5
3D8
 100
AcDbEntity
   8
LEVEL001
 100
AcDbPoint
  62
1
  10
 84.239283377665
  20
 213.29490635211
  30
0.0
   0
LINE
   5
3D9
 100
AcDbEntity
   8
LEVEL001
 100
AcDbLine
   6
DOT
  62
1
  10
 85.239283377665
  20
 213.29490635211
  30
0.0
  11
 92.239283377665
  21
 213.29490635211
  31
0.0
   0
ARC
   5
3DA
 100
AcDbEntity
   8
LEVEL001
   6
DOT
  62
1
 100
AcDbCircle
  10
 92.239283377665
  20
 212.29490635211
  30
0.0
  40
 1.0000000000000
 100
AcDbArc
  50
0.0
  51
 90.000000000000
   0
POINT
   5
3DB
 100
AcDbEntity
   8
LEVEL001
 100
AcDbPoint
  62
1
  10
 93.239283377665
  20
 213.29490635211
  30
0.0
   0
LINE
   5
3DC
 100
AcDbEntity
   8
LEVEL001
 100
AcDbLine
   6
DOT
  62
1
  10
 93.239283377665
  20
 212.29490635211
  30
0.0
  11
 93.239283377665
  21
 211.79490635211
  31
0.0
   0
LINE
   5
3DD
 100
AcDbEntity
   8
LEVEL001
 100
AcDbLine
   6
CONTINUOUS
  62
7
  10
 236.73928337767
  20
 209.79490635211
  30
0.0
  11
 236.73928337767
  21
 211.79490635211
  31
0.0
   0
DIMENSION
   5
3DE
 100
AcDbEntity
   8
LEVEL001
   6
CONTINUOUS
  62
3
 100
AcDbDimension
   2
*D4
  10
 247.92334210513
  20
 209.79490635211
  30
0.0
  11
 247.92334210513
  21
 208.63642836012
  31
0.0
  70
128
   3
GMM003
 100
AcDbAlignedDimension
  13
 236.73928337767
  23
 211.79490635211
  33
0.0
  14
 236.73928337767
  24
 209.79490635211
  34
0.0
  50
 270.00000000000
 100
AcDbRotatedDimension
   0
DIMENSION
   5
3DF
 100
AcDbEntity
   8
LEVEL001
   6
CONTINUOUS
  62
3
 100
AcDbDimension
   2
*D5
  10
 236.73928337767
  20
 231.39800124520
  30
0.0
  11
 162.73928337767
  21
 231.39800124520
  31
0.0
  70
0
   3
GMM001
 100
AcDbAlignedDimension
  13
 88.739283377665
  23
 231.39800124520
  33
0.0
  14
 236.73928337767
  24
 211.79490635211
  34
0.0
 100
AcDbRotatedDimension
   0
DIMENSION
   5
3E0
 100
AcDbEntity
   8
LEVEL001
   6
CONTINUOUS
  62
3
 100
AcDbDimension
   2
*D6
  10
 88.739283377665
  20
 231.39800124520
  30
0.0
  11
 81.739283377668
  21
 231.39800124520
  31
0.0
  70
0
   3
GMM001
 100
AcDbAlignedDimension
  13
 74.739283377671
  23
 214.79490635211
  33
0.0
  14
 88.739283377665
  24
 223.13217528812
  34
0.0
 100
AcDbRotatedDimension
   0
DIMENSION
   5
3E1
 100
AcDbEntity
   8
LEVEL001
   6
CONTINUOUS
  62
3
 100
AcDbDimension
   2
*D7
  10
 236.73928337767
  20
 239.88284580604
  30
0.0
  11
 155.73928337767
  21
 239.88284580604
  31
0.0
  70
0
   3
GMM001
 100
AcDbAlignedDimension
  13
 74.739283377671
  23
 232.39800124520
  33
0.0
  14
 236.73928337767
  24
 232.39800124520
  34
0.0
 100
AcDbRotatedDimension
   0
DIMENSION
   5
3E2
 100
AcDbEntity
   8
LEVEL001
   6
CONTINUOUS
  62
3
 100
AcDbDimension
   2
*D8
  10
 102.73928337767
  20
 173.15190015869
  30
0.0
  11
 88.739283377665
  21
 173.15190015869
  31
0.0
  70
0
   3
GMM004
 100
AcDbAlignedDimension
  13
 74.739283377665
  23
 188.29490635211
  33
0.0
  14
 102.73928337767
  24
 188.29490635211
  34
0.0
 100
AcDbRotatedDimension
   0
LINE
   5
3E3
 100
AcDbEntity
   8
LEVEL001
 100
AcDbLine
   6
DASHDOT
  62
3
  10
 88.739283377665
  20
 223.13217528812
  30
0.0
  11
 88.739283377665
  21
 182.49339416919
  31
0.0
   0
LINE
   5
3E4
 100
AcDbEntity
   8
LEVEL001
 100
AcDbLine
   6
CONTINUOUS
  62
15
  10
 209.17131248280
  20
 120.65082318257
  30
0.0
  11
 211.00006248280
  21
 119.49698544672
  31
0.0
   0
LINE
   5
3E5
 100
AcDbEntity
   8
LEVEL001
 100
AcDbLine
   6
CONTINUOUS
  62
15
  10
 213.04826248280
  20
 119.91932318257
  30
0.0
  11
 211.93176248280
  21
 119.68910148446
  31
0.0
   0
LINE
   5
3E6
 100
AcDbEntity
   8
LEVEL001
 100
AcDbLine
   6
CONTINUOUS
  62
15
  10
 211.80856248280
  20
 119.66369771087
  30
0.0
  11
 211.00006248280
  21
 119.49698544672
  31
0.0
   0
LINE
   5
3E7
 100
AcDbEntity
   8
LEVEL001
 100
AcDbLine
   6
CONTINUOUS
  62
15
  10
 209.17131248280
  20
 119.77302318257
  30
0.0
  11
 211.80856248280
  21
 119.37494771087
  31
0.0
   0
LINE
   5
3E8
 100
AcDbEntity
   8
LEVEL001
 100
AcDbLine
   6
CONTINUOUS
  62
15
  10
 211.93176248280
  20
 119.35635148446
  30
0.0
  11
 213.04826248280
  21
 119.18782318257
  31
0.0
   0
LINE
   5
3E9
 100
AcDbEntity
   8
LEVEL001
 100
AcDbLine
   6
CONTINUOUS
  62
15
  10
 209.17131248280
  20
 118.60262318257
  30
0.0
  11
 211.80856248280
  21
 118.20454771087
  31
0.0
   0
LINE
   5
3EA
 100
AcDbEntity
   8
LEVEL001
 100
AcDbLine
   6
CONTINUOUS
  62
15
  10
 211.80856248280
  20
 119.66369771087
  30
0.0
  11
 211.80856248280
  21
 119.37494771087
  31
0.0
   0
LINE
   5
3EB
 100
AcDbEntity
   8
LEVEL001
 100
AcDbLine
   6
CONTINUOUS
  62
15
  10
 209.17131248280
  20
 121.82122318257
  30
0.0
  11
 211.00006248280
  21
 120.66738544672
  31
0.0
   0
LINE
   5
3EC
 100
AcDbEntity
   8
LEVEL001
 100
AcDbLine
   6
CONTINUOUS
  62
15
  10
 209.76806248280
  20
 122.41066670113
  30
0.0
  11
 209.76806248280
  21
 121.79466670113
  31
0.0
   0
LINE
   5
3ED
 100
AcDbEntity
   8
LEVEL001
 100
AcDbLine
   6
CONTINUOUS
  62
15
  10
 209.76806248280
  20
 121.79466670113
  30
0.0
  11
 211.10523094922
  21
 121.59282995148
  31
0.0
   0
ARC
   5
3EE
 100
AcDbEntity
   8
LEVEL001
   6
CONTINUOUS
  62
15
 100
AcDbCircle
  10
 211.19009459478
  20
 122.20816850497
  30
0.0
  40
 0.62116292046587
 100
AcDbArc
  50
 262.14765871030
  51
 354.66082673576
   0
ARC
   5
3EF
 100
AcDbEntity
   8
LEVEL001
   6
CONTINUOUS
  62
15
 100
AcDbCircle
  10
 210.94601980786
  20
 122.16887659795
  30
0.0
  40
 0.86274122266668
 100
AcDbArc
  50
 358.77075588816
  51
 80.949600929611
   0
ARC
   5
3F0
 100
AcDbEntity
   8
LEVEL001
   6
CONTINUOUS
  62
15
 100
AcDbCircle
  10
 211.11764636644
  20
 122.28272328316
  30
0.0
  40
 0.74924813368673E-1
 100
AcDbArc
  50
 260.68405351060
  51
 359.12700072793
   0
LINE
   5
3F1
 100
AcDbEntity
   8
LEVEL001
 100
AcDbLine
   6
CONTINUOUS
  62
15
  10
 211.00006248280
  20
 120.66738544672
  30
0.0
  11
 211.80856248280
  21
 120.89184771087
  31
0.0
   0
LINE
   5
3F2
 100
AcDbEntity
   8
LEVEL001
 100
AcDbLine
   6
CONTINUOUS
  62
15
  10
 211.93176248280
  20
 120.92605148446
  30
0.0
  11
 213.04826248280
  21
 121.23602318257
  31
0.0
   0
LINE
   5
3F3
 100
AcDbEntity
   8
LEVEL001
 100
AcDbLine
   6
CONTINUOUS
  62
15
  10
 209.17131248280
  20
 119.77302318257
  30
0.0
  11
 209.17131248280
  21
 118.60262318257
  31
0.0
   0
LINE
   5
3F4
 100
AcDbEntity
   8
LEVEL001
 100
AcDbLine
   6
CONTINUOUS
  62
15
  10
 209.17131248280
  20
 121.82122318257
  30
0.0
  11
 209.17131248280
  21
 120.65082318257
  31
0.0
   0
LINE
   5
3F5
 100
AcDbEntity
   8
LEVEL001
 100
AcDbLine
   6
CONTINUOUS
  62
15
  10
 213.04826248280
  20
 119.18782318257
  30
0.0
  11
 213.04826248280
  21
 118.01742318257
  31
0.0
   0
LINE
   5
3F6
 100
AcDbEntity
   8
LEVEL001
 100
AcDbLine
   6
CONTINUOUS
  62
15
  10
 213.04826248280
  20
 119.91932318257
  30
0.0
  11
 213.04826248280
  21
 121.23602318257
  31
0.0
   0
LINE
   5
3F7
 100
AcDbEntity
   8
LEVEL001
 100
AcDbLine
   6
CONTINUOUS
  62
15
  10
 211.80856248280
  20
 128.87442318257
  30
0.0
  11
 211.80856248280
  21
 120.89184771087
  31
0.0
   0
LINE
   5
3F8
 100
AcDbEntity
   8
LEVEL001
 100
AcDbLine
   6
CONTINUOUS
  62
15
  10
 211.80856248280
  20
 119.37494771087
  30
0.0
  11
 211.93176248280
  21
 119.35635148446
  31
0.0
   0
LINE
   5
3F9
 100
AcDbEntity
   8
LEVEL001
 100
AcDbLine
   6
CONTINUOUS
  62
15
  10
 211.80856248280
  20
 119.66369771087
  30
0.0
  11
 211.93176248280
  21
 119.68910148446
  31
0.0
   0
LINE
   5
3FA
 100
AcDbEntity
   8
LEVEL001
 100
AcDbLine
   6
CONTINUOUS
  62
15
  10
 211.80856248280
  20
 120.89184771087
  30
0.0
  11
 211.93176248280
  21
 120.92605148446
  31
0.0
   0
LINE
   5
3FB
 100
AcDbEntity
   8
LEVEL001
 100
AcDbLine
   6
CONTINUOUS
  62
15
  10
 211.93176248280
  20
 118.18595148446
  30
0.0
  11
 213.04826248280
  21
 118.01742318257
  31
0.0
   0
LINE
   5
3FC
 100
AcDbEntity
   8
LEVEL001
 100
AcDbLine
   6
CONTINUOUS
  62
15
  10
 211.80856248280
  20
 118.20454771087
  30
0.0
  11
 211.93176248280
  21
 118.18595148446
  31
0.0
   0
LINE
   5
3FD
 100
AcDbEntity
   8
LEVEL001
 100
AcDbLine
   6
CONTINUOUS
  62
15
  10
 209.76806248280
  20
 123.21916670113
  30
0.0
  11
 209.76806248280
  21
 122.60316670113
  31
0.0
   0
LINE
   5
3FE
 100
AcDbEntity
   8
LEVEL001
 100
AcDbLine
   6
CONTINUOUS
  62
15
  10
 209.76806248280
  20
 122.60316670113
  30
0.0
  11
 211.10598114771
  21
 122.40121671397
  31
0.0
   0
LINE
   5
3FF
 100
AcDbEntity
   8
LEVEL001
 100
AcDbLine
   6
CONTINUOUS
  62
15
  10
 209.76806248280
  20
 122.41066670113
  30
0.0
  11
 211.10741144761
  21
 122.20850081965
  31
0.0
   0
ARC
   5
400
 100
AcDbEntity
   8
LEVEL001
   6
CONTINUOUS
  62
15
 100
AcDbCircle
  10
 211.08439069222
  20
 122.29444394016
  30
0.0
  40
 0.10893380097419
 100
AcDbArc
  50
 353.21905471467
  51
 78.568400494571
   0
LINE
   5
401
 100
AcDbEntity
   8
LEVEL001
 100
AcDbLine
   6
CONTINUOUS
  62
15
  10
 209.76806248280
  20
 128.45516670113
  30
0.0
  11
 209.76806248280
  21
 127.83916670113
  31
0.0
   0
LINE
   5
402
 100
AcDbEntity
   8
LEVEL001
 100
AcDbLine
   6
CONTINUOUS
  62
15
  10
 209.76806248280
  20
 128.45516670113
  30
0.0
  11
 211.80856248280
  21
 128.14716670113
  31
0.0
   0
LINE
   5
403
 100
AcDbEntity
   8
LEVEL001
 100
AcDbLine
   6
CONTINUOUS
  62
15
  10
 209.76806248280
  20
 127.83916670113
  30
0.0
  11
 211.80856248280
  21
 127.53116670113
  31
0.0
   0
LINE
   5
404
 100
AcDbEntity
   8
LEVEL001
 100
AcDbLine
   6
CONTINUOUS
  62
15
  10
 211.80856248280
  20
 128.14716670113
  30
0.0
  11
 211.80856248280
  21
 127.53116670113
  31
0.0
   0
LINE
   5
405
 100
AcDbEntity
   8
LEVEL001
 100
AcDbLine
   6
CONTINUOUS
  62
15
  10
 209.76806248280
  20
 126.64566670113
  30
0.0
  11
 209.76806248280
  21
 126.02966670113
  31
0.0
   0
LINE
   5
406
 100
AcDbEntity
   8
LEVEL001
 100
AcDbLine
   6
CONTINUOUS
  62
15
  10
 209.76806248280
  20
 126.64566670113
  30
0.0
  11
 211.80856248280
  21
 126.33766670113
  31
0.0
   0
LINE
   5
407
 100
AcDbEntity
   8
LEVEL001
 100
AcDbLine
   6
CONTINUOUS
  62
15
  10
 209.76806248280
  20
 126.02966670113
  30
0.0
  11
 211.80856248280
  21
 125.72166670113
  31
0.0
   0
LINE
   5
408
 100
AcDbEntity
   8
LEVEL001
 100
AcDbLine
   6
CONTINUOUS
  62
15
  10
 211.80856248280
  20
 126.33766670113
  30
0.0
  11
 211.80856248280
  21
 125.72166670113
  31
0.0
   0
LINE
   5
409
 100
AcDbEntity
   8
LEVEL001
 100
AcDbLine
   6
CONTINUOUS
  62
15
  10
 209.76806248280
  20
 125.79866670113
  30
0.0
  11
 209.76806248280
  21
 125.18266670113
  31
0.0
   0
LINE
   5
40A
 100
AcDbEntity
   8
LEVEL001
 100
AcDbLine
   6
CONTINUOUS
  62
15
  10
 209.76806248280
  20
 125.79866670113
  30
0.0
  11
 211.80856248280
  21
 125.49066670113
  31
0.0
   0
LINE
   5
40B
 100
AcDbEntity
   8
LEVEL001
 100
AcDbLine
   6
CONTINUOUS
  62
15
  10
 209.76806248280
  20
 125.18266670113
  30
0.0
  11
 211.80856248280
  21
 124.87466670113
  31
0.0
   0
LINE
   5
40C
 100
AcDbEntity
   8
LEVEL001
 100
AcDbLine
   6
CONTINUOUS
  62
15
  10
 211.80856248280
  20
 125.49066670113
  30
0.0
  11
 211.80856248280
  21
 124.87466670113
  31
0.0
   0
LINE
   5
40D
 100
AcDbEntity
   8
LEVEL001
 100
AcDbLine
   6
CONTINUOUS
  62
15
  10
 209.76806248280
  20
 127.72366670113
  30
0.0
  11
 209.76806248280
  21
 127.10766670113
  31
0.0
   0
LINE
   5
40E
 100
AcDbEntity
   8
LEVEL001
 100
AcDbLine
   6
CONTINUOUS
  62
15
  10
 209.76806248280
  20
 127.10766670113
  30
0.0
  11
 210.73056248280
  21
 126.50038368226
  31
0.0
   0
LINE
   5
40F
 100
AcDbEntity
   8
LEVEL001
 100
AcDbLine
   6
CONTINUOUS
  62
15
  10
 211.80856248280
  20
 126.72266670113
  30
0.0
  11
 211.80856248280
  21
 127.41566670113
  31
0.0
   0
LINE
   5
410
 100
AcDbEntity
   8
LEVEL001
 100
AcDbLine
   6
CONTINUOUS
  62
15
  10
 211.80856248280
  20
 126.72266670113
  30
0.0
  11
 210.73056248280
  21
 126.50038368226
  31
0.0
   0
LINE
   5
411
 100
AcDbEntity
   8
LEVEL001
 100
AcDbLine
   6
CONTINUOUS
  62
15
  10
 209.76806248280
  20
 127.72366670113
  30
0.0
  11
 210.73056248280
  21
 127.11638368226
  31
0.0
   0
LINE
   5
412
 100
AcDbEntity
   8
LEVEL001
 100
AcDbLine
   6
CONTINUOUS
  62
15
  10
 210.73056248280
  20
 127.11638368226
  30
0.0
  11
 211.80856248280
  21
 127.41566670113
  31
0.0
   0
LINE
   5
413
 100
AcDbEntity
   8
LEVEL001
 100
AcDbLine
   6
CONTINUOUS
  62
15
  10
 211.80856248280
  20
 124.06616670113
  30
0.0
  11
 211.80856248280
  21
 124.75916670113
  31
0.0
   0
LINE
   5
414
 100
AcDbEntity
   8
LEVEL001
 100
AcDbLine
   6
CONTINUOUS
  62
15
  10
 209.76806248280
  20
 123.45016670113
  30
0.0
  11
 211.80856248280
  21
 123.14216670113
  31
0.0
   0
LINE
   5
415
 100
AcDbEntity
   8
LEVEL001
 100
AcDbLine
   6
CONTINUOUS
  62
15
  10
 211.80856248280
  20
 123.75816670113
  30
0.0
  11
 211.80856248280
  21
 123.14216670113
  31
0.0
   0
LINE
   5
416
 100
AcDbEntity
   8
LEVEL001
 100
AcDbLine
   6
CONTINUOUS
  62
15
  10
 211.80856248280
  20
 124.06616670113
  30
0.0
  11
 211.19256248280
  21
 123.93914783320
  31
0.0
   0
LINE
   5
417
 100
AcDbEntity
   8
LEVEL001
 100
AcDbLine
   6
CONTINUOUS
  62
15
  10
 211.00006248280
  20
 124.53470443698
  30
0.0
  11
 211.80856248280
  21
 124.75916670113
  31
0.0
   0
LINE
   5
418
 100
AcDbEntity
   8
LEVEL001
 100
AcDbLine
   6
CONTINUOUS
  62
15
  10
 210.34395405986
  20
 123.97923967063
  30
0.0
  11
 211.80856248280
  21
 123.75816670113
  31
0.0
   0
LINE
   5
419
 100
AcDbEntity
   8
LEVEL001
 100
AcDbLine
   6
CONTINUOUS
  62
15
  10
 211.19256248280
  20
 123.93914783320
  30
0.0
  11
 210.61489551738
  21
 124.02821833679
  31
0.0
   0
LINE
   5
41A
 100
AcDbEntity
   8
LEVEL001
 100
AcDbLine
   6
CONTINUOUS
  62
15
  10
 209.76806248280
  20
 123.21916670113
  30
0.0
  11
 211.08173176677
  21
 123.02087699789
  31
0.0
   0
ARC
   5
41B
 100
AcDbEntity
   8
LEVEL001
   6
CONTINUOUS
  62
15
 100
AcDbCircle
  10
 210.37715049644
  20
 124.28224124998
  30
0.0
  40
 0.60908801363241
 100
AcDbArc
  50
 81.416378519891
  51
 179.99999999998
   0
LINE
   5
41C
 100
AcDbEntity
   8
LEVEL001
 100
AcDbLine
   6
CONTINUOUS
  62
15
  10
 209.76806248280
  20
 124.28224124998
  30
0.0
  11
 209.76806248280
  21
 123.45016670113
  31
0.0
   0
LINE
   5
41D
 100
AcDbEntity
   8
LEVEL001
 100
AcDbLine
   6
CONTINUOUS
  62
15
  10
 210.34556248280
  20
 123.97899688981
  30
0.0
  11
 210.34556248280
  21
 124.13228573126
  31
0.0
   0
ARC
   5
41E
 100
AcDbEntity
   8
LEVEL001
   6
CONTINUOUS
  62
15
 100
AcDbCircle
  10
 210.39161565888
  20
 124.18879173109
  30
0.0
  40
 0.69990223434348
 100
AcDbArc
  50
 29.618990792308
  51
 83.729683814361
   0
ARC
   5
41F
 100
AcDbEntity
   8
LEVEL001
   6
CONTINUOUS
  62
15
 100
AcDbCircle
  10
 210.47944852147
  20
 124.13228573123
  30
0.0
  40
 0.13388603866322
 100
AcDbArc
  50
 90.000000000000
  51
 179.99999998911
   0
ARC
   5
420
 100
AcDbEntity
   8
LEVEL001
   6
CONTINUOUS
  62
15
 100
AcDbCircle
  10
 210.45076259564
  20
 124.10434354841
  30
0.0
  40
 0.16435101343319
 100
AcDbArc
  50
 2.9520182033311
  51
 79.948074545586
   0
LINE
   5
421
 100
AcDbEntity
   8
LEVEL001
 100
AcDbLine
   6
CONTINUOUS
  62
15
  10
 210.61489551738
  20
 124.11280756731
  30
0.0
  11
 210.61489551738
  21
 124.02821833679
  31
0.0
   0
LINE
   5
422
 100
AcDbEntity
   8
LEVEL001
 100
AcDbLine
   6
CONTINUOUS
  62
15
  10
 211.80856248280
  20
 118.20454771087
  30
0.0
  11
 211.80856248280
  21
 117.63242318257
  31
0.0
   0
LINE
   5
423
 100
AcDbEntity
   8
LEVEL001
 100
AcDbLine
   6
DASHDOT
  62
3
  10
 226.73928337767
  20
 128.04460673184
  30
0.0
  11
 226.73928337767
  21
 118.08772212626
  31
0.0
   0
CIRCLE
   5
424
 100
AcDbEntity
   8
LEVEL001
 100
AcDbCircle
   6
CONTINUOUS
  62
15
  10
 226.73928337767
  20
 123.25342318257
  30
0.0
  40
 2.2500000000000
   0
LINE
   5
425
 100
AcDbEntity
   8
LEVEL001
 100
AcDbLine
   6
DASHDOT
  62
3
  10
 214.73928337767
  20
 103.00653076526
  30
0.0
  11
 214.73928337767
  21
 143.51177163951
  31
0.0
   0
LINE
   5
426
 100
AcDbEntity
   8
LEVEL001
 100
AcDbLine
   6
DASHDOT
  62
3
  10
 209.62221241891
  20
 135.25342318257
  30
0.0
  11
 219.97386337449
  21
 135.25342318257
  31
0.0
   0
CIRCLE
   5
427
 100
AcDbEntity
   8
LEVEL001
 100
AcDbCircle
   6
CONTINUOUS
  62
15
  10
 214.73928337767
  20
 135.25342318257
  30
0.0
  40
 2.2500000000000
   0
LINE
   5
428
 100
AcDbEntity
   8
LEVEL001
 100
AcDbLine
   6
DASHDOT
  62
3
  10
 209.13972021335
  20
 111.25342318257
  30
0.0
  11
 220.12738362171
  21
 111.25342318257
  31
0.0
   0
CIRCLE
   5
429
 100
AcDbEntity
   8
LEVEL001
 100
AcDbCircle
   6
CONTINUOUS
  62
15
  10
 214.73928337767
  20
 111.25342318257
  30
0.0
  40
 2.2500000000000
   0
LINE
   5
42A
 100
AcDbEntity
   8
LEVEL001
 100
AcDbLine
   6
DASHDOT
  62
3
  10
 202.73928337767
  20
 128.17619551517
  30
0.0
  11
 202.73928337767
  21
 118.17544798182
  31
0.0
   0
CIRCLE
   5
42B
 100
AcDbEntity
   8
LEVEL001
 100
AcDbCircle
   6
CONTINUOUS
  62
15
  10
 202.73928337767
  20
 123.25342318257
  30
0.0
  40
 2.2500000000000
   0
ARC
   5
42C
 100
AcDbEntity
   8
LEVEL001
   6
CONTINUOUS
  62
7
 100
AcDbCircle
  10
 233.91085625292
  20
 123.25342318257
  30
0.0
  40
 2.0000000000000
 100
AcDbArc
  50
 315.00000000003
  51
 45.000000000001
   0
POINT
   5
42D
 100
AcDbEntity
   8
LEVEL001
 100
AcDbPoint
  62
7
  10
 236.73928337767
  20
 123.25342318257
  30
0.0
   0
LINE
   5
42E
 100
AcDbEntity
   8
LEVEL001
 100
AcDbLine
   6
DASHDOT
  62
3
  10
 243.59781748889
  20
 123.25342318257
  30
0.0
  11
 212.58729481137
  21
 123.25342318257
  31
0.0
   0
DIMENSION
   5
42F
 100
AcDbEntity
   8
LEVEL001
   6
CONTINUOUS
  62
3
 100
AcDbDimension
   2
*D9
  10
 247.92334210513
  20
 123.25342318257
  30
0.0
  11
 247.92334210513
  21
 129.25342318257
  31
0.0
  70
0
   3
GMM001
 100
AcDbAlignedDimension
  13
 219.97386337449
  23
 135.25342318257
  33
0.0
  14
 243.59781748889
  24
 123.25342318257
  34
0.0
  50
 270.00000000000
 100
AcDbRotatedDimension
   0
DIMENSION
   5
430
 100
AcDbEntity
   8
LEVEL001
   6
CONTINUOUS
  62
3
 100
AcDbDimension
   2
*D10
  10
 247.92334210513
  20
 111.25342318257
  30
0.0
  11
 247.92334210513
  21
 117.25342318257
  31
0.0
  70
0
   3
GMM001
 100
AcDbAlignedDimension
  13
 247.92334210513
  23
 123.25342318257
  33
0.0
  14
 220.12738362171
  24
 111.25342318257
  34
0.0
  50
 270.00000000000
 100
AcDbRotatedDimension
   0
DIMENSION
   5
431
 100
AcDbEntity
   8
LEVEL001
   6
CONTINUOUS
  62
3
 100
AcDbDimension
   2
*D11
  10
 257.74760861393
  20
 105.25342318257
  30
0.0
  11
 257.74760861393
  21
 123.25342318257
  31
0.0
  70
0
   3
GMM001
 100
AcDbAlignedDimension
  13
 218.73928337767
  23
 141.25342318257
  33
0.0
  14
 218.73928337767
  24
 105.25342318257
  34
0.0
  50
 270.00000000000
 100
AcDbRotatedDimension
   0
DIMENSION
   5
432
 100
AcDbEntity
   8
LEVEL001
   6
CONTINUOUS
  62
3
 100
AcDbDimension
   2
*D12
  10
 226.73928337767
  20
 153.47743595350
  30
0.0
  11
 231.73928337767
  21
 153.47743595350
  31
0.0
  70
0
   3
GMM001
 100
AcDbAlignedDimension
  13
 236.73928337767
  23
 123.25342318257
  33
0.0
  14
 226.73928337767
  24
 128.04460673184
  34
0.0
  50
 180.00000000000
 100
AcDbRotatedDimension
   0
DIMENSION
   5
433
 100
AcDbEntity
   8
LEVEL001
   6
CONTINUOUS
  62
3
 100
AcDbDimension
   2
*D13
  10
 214.73928337767
  20
 153.47743595350
  30
0.0
  11
 220.73928337767
  21
 153.47743595350
  31
0.0
  70
0
   3
GMM001
 100
AcDbAlignedDimension
  13
 226.73928337767
  23
 153.47743595350
  33
0.0
  14
 214.73928337767
  24
 143.51177163951
  34
0.0
  50
 180.00000000000
 100
AcDbRotatedDimension
   0
DIMENSION
   5
434
 100
AcDbEntity
   8
LEVEL001
   6
CONTINUOUS
  62
3
 100
AcDbDimension
   2
*D14
  10
 202.73928337767
  20
 153.47743595350
  30
0.0
  11
 208.73928337767
  21
 153.47743595350
  31
0.0
  70
0
   3
GMM001
 100
AcDbAlignedDimension
  13
 214.73928337767
  23
 153.47743595350
  33
0.0
  14
 202.73928337767
  24
 128.17619551517
  34
0.0
  50
 180.00000000000
 100
AcDbRotatedDimension
   0
LINE
   5
435
 100
AcDbEntity
   8
LEVEL001
 100
AcDbLine
   6
DASHDOT
  62
3
  10
 208.40662487751
  20
 123.25342318257
  30
0.0
  11
 68.208150355359
  21
 123.25342318257
  31
0.0
   0
LINE
   5
436
 100
AcDbEntity
   8
LEVEL001
 100
AcDbLine
   6
DASHDOT
  62
3
  10
 88.739283377665
  20
 144.10011601400
  30
0.0
  11
 88.739283377665
  21
 100.79442055482
  31
0.0
   0
CIRCLE
   5
437
 100
AcDbEntity
   8
LEVEL001
 100
AcDbCircle
   6
CONTINUOUS
  62
7
  10
 88.739283377665
  20
 123.25342318257
  30
0.0
  40
 5.0000000000000
   0
CIRCLE
   5
438
 100
AcDbEntity
   8
LEVEL001
 100
AcDbCircle
   6
CONTINUOUS
  62
7
  10
 88.739283377665
  20
 123.25342318257
  30
0.0
  40
 14.000000000000
   0
CIRCLE
   5
439
 100
AcDbEntity
   8
LEVEL001
 100
AcDbCircle
   6
CONTINUOUS
  62
7
  10
 88.739283377665
  20
 123.25342318257
  30
0.0
  40
 6.0000000000000
   0
CIRCLE
   5
43A
 100
AcDbEntity
   8
LEVEL001
 100
AcDbCircle
   6
DOT
  62
1
  10
 88.739283377665
  20
 123.25342318257
  30
0.0
  40
 4.0000000000000
   0
LINE
   5
43B
 100
AcDbEntity
   8
LEVEL001
 100
AcDbLine
   6
DOT
  62
1
  10
 94.603582142224
  20
 131.35342318257
  30
0.0
  11
 99.863581108309
  21
 131.75342318257
  31
0.0
   0
ARC
   5
43C
 100
AcDbEntity
   8
LEVEL001
   6
CONTINUOUS
  62
7
 100
AcDbCircle
  10
 218.35860459814
  20
 140.21988839972
  30
0.0
  40
 1.0000000000000
 100
AcDbArc
  50
 45.000000000281
  51
 94.559769681356
   0
POINT
   5
43D
 100
AcDbEntity
   8
LEVEL001
 100
AcDbPoint
  62
7
  10
 218.73928337767
  20
 141.25342318257
  30
0.0
   0
LINE
   5
43E
 100
AcDbEntity
   8
LEVEL001
 100
AcDbLine
   6
CONTINUOUS
  62
7
  10
 219.06571137932
  20
 140.92699518091
  30
0.0
  11
 235.32506981529
  21
 124.66763674494
  31
0.0
   0
LINE
   5
43F
 100
AcDbEntity
   8
LEVEL001
 100
AcDbLine
   6
CONTINUOUS
  62
7
  10
 99.862036382200
  20
 131.77279244103
  30
0.0
  11
 218.27910558333
  21
 141.21672334426
  31
0.0
   0
LINE
   5
440
 100
AcDbEntity
   8
LEVEL001
 100
AcDbLine
   6
DOT
  62
1
  10
 94.603582142224
  20
 115.15342318257
  30
0.0
  11
 99.863581108309
  21
 114.75342318257
  31
0.0
   0
ARC
   5
441
 100
AcDbEntity
   8
LEVEL001
   6
DOT
  62
1
 100
AcDbCircle
  10
 88.739283377665
  20
 123.25342318257
  30
0.0
  40
 10.000000000000
 100
AcDbArc
  50
 54.095931416683
  51
 305.90406858332
   0
ARC
   5
442
 100
AcDbEntity
   8
LEVEL001
   6
CONTINUOUS
  62
7
 100
AcDbCircle
  10
 218.35860459814
  20
 106.28695796542
  30
0.0
  40
 1.0000000000000
 100
AcDbArc
  50
 265.44023031872
  51
 314.99999999984
   0
POINT
   5
443
 100
AcDbEntity
   8
LEVEL001
 100
AcDbPoint
  62
7
  10
 218.73928337767
  20
 105.25342318257
  30
0.0
   0
LINE
   5
444
 100
AcDbEntity
   8
LEVEL001
 100
AcDbLine
   6
CONTINUOUS
  62
7
  10
 99.862036382200
  20
 114.73405392411
  30
0.0
  11
 218.27910558333
  21
 105.29012302088
  31
0.0
   0
LINE
   5
445
 100
AcDbEntity
   8
LEVEL001
 100
AcDbLine
   6
CONTINUOUS
  62
7
  10
 219.06571137932
  20
 105.57985118423
  30
0.0
  11
 235.32506981529
  21
 121.83920962020
  31
0.0
   0
ARC
   5
446
 100
AcDbEntity
   8
LEVEL001
   6
CONTINUOUS
  62
7
 100
AcDbCircle
  10
 156.73928337767
  20
 131.49597519189
  30
0.0
  40
 0.75000000000000
 100
AcDbArc
  50
0.0
  51
 94.559769681171
   0
POINT
   5
447
 100
AcDbEntity
   8
LEVEL001
 100
AcDbPoint
  62
7
  10
 157.48928337767
  20
 132.30817009492
  30
0.0
   0
ARC
   5
448
 100
AcDbEntity
   8
LEVEL001
   6
CONTINUOUS
  62
7
 100
AcDbCircle
  10
 156.73928337767
  20
 131.00073784917
  30
0.0
  40
 0.75000000000000
 100
AcDbArc
  50
 274.55976968118
  51
 0.54281466563644E-10
   0
POINT
   5
449
 100
AcDbEntity
   8
LEVEL001
 100
AcDbPoint
  62
7
  10
 157.48928337767
  20
 130.30817009492
  30
0.0
   0
LINE
   5
44A
 100
AcDbEntity
   8
LEVEL001
 100
AcDbLine
   6
CONTINUOUS
  62
7
  10
 157.48928337767
  20
 131.49597519189
  30
0.0
  11
 157.48928337767
  21
 131.00073784917
  31
0.0
   0
LINE
   5
44B
 100
AcDbEntity
   8
LEVEL001
 100
AcDbLine
   6
DOT
  62
1
  10
 98.120034855451
  20
 128.32338747783
  30
0.0
  11
 156.62003485545
  21
 132.98884628006
  31
0.0
   0
ARC
   5
44C
 100
AcDbEntity
   8
LEVEL001
   6
DOT
  62
1
 100
AcDbCircle
  10
 156.73928337767
  20
 131.49359386326
  30
0.0
  40
 1.5000000000000
 100
AcDbArc
  50
0.0
  51
 94.559769681171
   0
POINT
   5
44D
 100
AcDbEntity
   8
LEVEL001
 100
AcDbPoint
  62
1
  10
 158.23928337767
  20
 133.11798366931
  30
0.0
   0
ARC
   5
44E
 100
AcDbEntity
   8
LEVEL001
   6
DOT
  62
1
 100
AcDbCircle
  10
 156.73928337767
  20
 131.00311917780
  30
0.0
  40
 1.5000000000000
 100
AcDbArc
  50
 274.55976968117
  51
0.0
   0
POINT
   5
44F
 100
AcDbEntity
   8
LEVEL001
 100
AcDbPoint
  62
1
  10
 158.23928337767
  20
 129.61798366931
  30
0.0
   0
LINE
   5
450
 100
AcDbEntity
   8
LEVEL001
 100
AcDbLine
   6
DOT
  62
1
  10
 158.23928337767
  20
 131.49359386326
  30
0.0
  11
 158.23928337767
  21
 131.00311917780
  31
0.0
   0
LINE
   5
451
 100
AcDbEntity
   8
LEVEL001
 100
AcDbLine
   6
DOT
  62
1
  10
 98.358531899879
  20
 124.84240795877
  30
0.0
  11
 156.85853189988
  21
 129.50786676100
  31
0.0
   0
ARC
   5
452
 100
AcDbEntity
   8
LEVEL001
   6
DOT
  62
1
 100
AcDbCircle
  10
 98.239283377665
  20
 126.82813506103
  30
0.0
  40
 1.5000000000000
 100
AcDbArc
  50
 94.559769681176
  51
 180.00000000000
   0
POINT
   5
453
 100
AcDbEntity
   8
LEVEL001
 100
AcDbPoint
  62
1
  10
 96.739283377665
  20
 128.21327056952
  30
0.0
   0
POINT
   5
454
 100
AcDbEntity
   8
LEVEL001
 100
AcDbPoint
  62
1
  10
 96.739283377665
  20
 124.71327056952
  30
0.0
   0
LINE
   5
455
 100
AcDbEntity
   8
LEVEL001
 100
AcDbLine
   6
DOT
  62
1
  10
 96.739283377665
  20
 126.82813506103
  30
0.0
  11
 96.739283377665
  21
 126.33766037557
  31
0.0
   0
ARC
   5
456
 100
AcDbEntity
   8
LEVEL001
   6
DOT
  62
1
 100
AcDbCircle
  10
 98.239283377665
  20
 126.83051638966
  30
0.0
  40
 0.75000000000000
 100
AcDbArc
  50
 94.559769681170
  51
 180.00000000000
   0
POINT
   5
457
 100
AcDbEntity
   8
LEVEL001
 100
AcDbPoint
  62
1
  10
 97.489283377665
  20
 127.52308414391
  30
0.0
   0
LINE
   5
458
 100
AcDbEntity
   8
LEVEL001
 100
AcDbLine
   6
DOT
  62
1
  10
 97.489283377665
  20
 126.83051638966
  30
0.0
  11
 97.489283377665
  21
 126.33527904694
  31
0.0
   0
LINE
   5
459
 100
AcDbEntity
   8
LEVEL001
 100
AcDbLine
   6
CONTINUOUS
  62
7
  10
 101.95303926364
  20
 127.87907507022
  30
0.0
  11
 156.67965911656
  21
 132.24360140029
  31
0.0
   0
LINE
   5
45A
 100
AcDbEntity
   8
LEVEL001
 100
AcDbLine
   6
CONTINUOUS
  62
7
  10
 102.48273030927
  20
 125.92131868990
  30
0.0
  11
 156.79890763877
  21
 130.25311164077
  31
0.0
   0
LINE
   5
45B
 100
AcDbEntity
   8
LEVEL001
 100
AcDbLine
   6
DOT
  62
1
  10
 98.179659116558
  20
 127.57814259806
  30
0.0
  11
 101.95303926364
  21
 127.87907507022
  31
0.0
   0
LINE
   5
45C
 100
AcDbEntity
   8
LEVEL001
 100
AcDbLine
   6
DOT
  62
1
  10
 98.298907638772
  20
 125.58765283854
  30
0.0
  11
 102.48273030927
  21
 125.92131868990
  31
0.0
   0
POINT
   5
45D
 100
AcDbEntity
   8
LEVEL001
 100
AcDbPoint
  62
1
  10
 97.489283377665
  20
 125.52308414391
  30
0.0
   0
ARC
   5
45E
 100
AcDbEntity
   8
LEVEL001
   6
DOT
  62
1
 100
AcDbCircle
  10
 98.239283377665
  20
 126.33766037557
  30
0.0
  40
 1.5000000000000
 100
AcDbArc
  50
 179.99999999998
  51
 274.55976968117
   0
ARC
   5
45F
 100
AcDbEntity
   8
LEVEL001
   6
DOT
  62
1
 100
AcDbCircle
  10
 98.239283377666
  20
 126.33527904694
  30
0.0
  40
 0.75000000000000
 100
AcDbArc
  50
 180.00000000000
  51
 274.55976968115
   0
LINE
   5
460
 100
AcDbEntity
   8
LEVEL001
 100
AcDbLine
   6
DOT
  62
1
  10
 98.120034855451
  20
 118.18345888732
  30
0.0
  11
 156.62003485545
  21
 113.51800008508
  31
0.0
   0
LINE
   5
461
 100
AcDbEntity
   8
LEVEL001
 100
AcDbLine
   6
DOT
  62
1
  10
 98.358531899879
  20
 121.66443840637
  30
0.0
  11
 156.85853189988
  21
 116.99897960414
  31
0.0
   0
ARC
   5
462
 100
AcDbEntity
   8
LEVEL001
   6
DOT
  62
1
 100
AcDbCircle
  10
 98.239283377666
  20
 119.67871130412
  30
0.0
  40
 1.5000000000000
 100
AcDbArc
  50
 180.00000000000
  51
 265.44023031881
   0
POINT
   5
463
 100
AcDbEntity
   8
LEVEL001
 100
AcDbPoint
  62
1
  10
 96.739283377665
  20
 118.29357579562
  30
0.0
   0
POINT
   5
464
 100
AcDbEntity
   8
LEVEL001
 100
AcDbPoint
  62
1
  10
 96.739283377665
  20
 121.79357579562
  30
0.0
   0
LINE
   5
465
 100
AcDbEntity
   8
LEVEL001
 100
AcDbLine
   6
DOT
  62
1
  10
 96.739283377665
  20
 119.67871130412
  30
0.0
  11
 96.739283377665
  21
 120.16918598957
  31
0.0
   0
ARC
   5
466
 100
AcDbEntity
   8
LEVEL001
   6
DOT
  62
1
 100
AcDbCircle
  10
 98.239283377665
  20
 119.67632997548
  30
0.0
  40
 0.75000000000000
 100
AcDbArc
  50
 180.00000000002
  51
 265.44023031883
   0
POINT
   5
467
 100
AcDbEntity
   8
LEVEL001
 100
AcDbPoint
  62
1
  10
 97.489283377665
  20
 118.98376222123
  30
0.0
   0
LINE
   5
468
 100
AcDbEntity
   8
LEVEL001
 100
AcDbLine
   6
DOT
  62
1
  10
 97.489283377665
  20
 119.67632997548
  30
0.0
  11
 97.489283377665
  21
 120.17156731821
  31
0.0
   0
LINE
   5
469
 100
AcDbEntity
   8
LEVEL001
 100
AcDbLine
   6
DOT
  62
1
  10
 98.179659116558
  20
 118.92870376708
  30
0.0
  11
 101.95303926364
  21
 118.62777129492
  31
0.0
   0
LINE
   5
46A
 100
AcDbEntity
   8
LEVEL001
 100
AcDbLine
   6
DOT
  62
1
  10
 98.298907638772
  20
 120.91919352661
  30
0.0
  11
 102.48273030927
  21
 120.58552767524
  31
0.0
   0
POINT
   5
46B
 100
AcDbEntity
   8
LEVEL001
 100
AcDbPoint
  62
1
  10
 97.489283377665
  20
 120.98376222123
  30
0.0
   0
ARC
   5
46C
 100
AcDbEntity
   8
LEVEL001
   6
DOT
  62
1
 100
AcDbCircle
  10
 98.239283377665
  20
 120.16918598957
  30
0.0
  40
 1.5000000000000
 100
AcDbArc
  50
 85.440230318828
  51
 180.00000000000
   0
ARC
   5
46D
 100
AcDbEntity
   8
LEVEL001
   6
DOT
  62
1
 100
AcDbCircle
  10
 98.239283377666
  20
 120.17156731821
  30
0.0
  40
 0.75000000000000
 100
AcDbArc
  50
 85.440230318869
  51
 180.00000000000
   0
LINE
   5
46E
 100
AcDbEntity
   8
LEVEL001
 100
AcDbLine
   6
CONTINUOUS
  62
7
  10
 101.95303926364
  20
 118.62777129492
  30
0.0
  11
 156.67965911656
  21
 114.26324496485
  31
0.0
   0
LINE
   5
46F
 100
AcDbEntity
   8
LEVEL001
 100
AcDbLine
   6
CONTINUOUS
  62
7
  10
 102.48273030927
  20
 120.58552767524
  30
0.0
  11
 156.79890763877
  21
 116.25373472438
  31
0.0
   0
ARC
   5
470
 100
AcDbEntity
   8
LEVEL001
   6
CONTINUOUS
  62
7
 100
AcDbCircle
  10
 156.73928337767
  20
 115.01087117325
  30
0.0
  40
 0.75000000000000
 100
AcDbArc
  50
 265.44023031882
  51
 0.84679087839285E-10
   0
POINT
   5
471
 100
AcDbEntity
   8
LEVEL001
 100
AcDbPoint
  62
7
  10
 157.48928337767
  20
 114.19867627022
  30
0.0
   0
ARC
   5
472
 100
AcDbEntity
   8
LEVEL001
   6
CONTINUOUS
  62
7
 100
AcDbCircle
  10
 156.73928337767
  20
 115.50610851598
  30
0.0
  40
 0.75000000000000
 100
AcDbArc
  50
 0.20626957294185E-10
  51
 85.440230318829
   0
POINT
   5
473
 100
AcDbEntity
   8
LEVEL001
 100
AcDbPoint
  62
7
  10
 157.48928337767
  20
 116.19867627022
  30
0.0
   0
LINE
   5
474
 100
AcDbEntity
   8
LEVEL001
 100
AcDbLine
   6
CONTINUOUS
  62
7
  10
 157.48928337767
  20
 115.01087117325
  30
0.0
  11
 157.48928337767
  21
 115.50610851598
  31
0.0
   0
ARC
   5
475
 100
AcDbEntity
   8
LEVEL001
   6
DOT
  62
1
 100
AcDbCircle
  10
 156.73928337767
  20
 115.01325250189
  30
0.0
  40
 1.5000000000000
 100
AcDbArc
  50
 265.44023031883
  51
 0.21169771959821E-10
   0
POINT
   5
476
 100
AcDbEntity
   8
LEVEL001
 100
AcDbPoint
  62
1
  10
 158.23928337767
  20
 113.38886269584
  30
0.0
   0
ARC
   5
477
 100
AcDbEntity
   8
LEVEL001
   6
DOT
  62
1
 100
AcDbCircle
  10
 156.73928337767
  20
 115.50372718734
  30
0.0
  40
 1.5000000000000
 100
AcDbArc
  50
0.0
  51
 85.440230318827
   0
POINT
   5
478
 100
AcDbEntity
   8
LEVEL001
 100
AcDbPoint
  62
1
  10
 158.23928337767
  20
 116.88886269584
  30
0.0
   0
LINE
   5
479
 100
AcDbEntity
   8
LEVEL001
 100
AcDbLine
   6
DOT
  62
1
  10
 158.23928337767
  20
 115.01325250189
  30
0.0
  11
 158.23928337767
  21
 115.50372718734
  31
0.0
   0
DIMENSION
   5
47A
 100
AcDbEntity
   8
LEVEL001
   6
CONTINUOUS
  62
3
 100
AcDbDimension
   2
*D15
  10
 218.73928337767
  20
 87.808954146256
  30
0.0
  11
 153.73928337767
  21
 87.808954146256
  31
0.0
  70
0
   3
GMM001
 100
AcDbAlignedDimension
  13
 88.739283377665
  23
 100.79442055482
  33
0.0
  14
 218.73928337767
  24
 105.25342318257
  34
0.0
 100
AcDbRotatedDimension
   0
DIMENSION
   5
47B
 100
AcDbEntity
   8
LEVEL001
   6
CONTINUOUS
  62
3
 100
AcDbDimension
   2
*D16
  10
 236.73928337767
  20
 162.98373603166
  30
0.0
  11
 162.73928337767
  21
 162.98373603166
  31
0.0
  70
0
   3
GMM001
 100
AcDbAlignedDimension
  13
 88.739283377665
  23
 154.47743595350
  33
0.0
  14
 236.73928337767
  24
 154.47743595350
  34
0.0
 100
AcDbRotatedDimension
   0
DIMENSION
   5
47C
 100
AcDbEntity
   8
LEVEL001
   6
CONTINUOUS
  62
3
 100
AcDbDimension
   2
*D17
  10
 96.739283377665
  20
 153.47743595350
  30
0.0
  11
 92.739283377665
  21
 153.47743595350
  31
0.0
  70
0
   3
GMM001
 100
AcDbAlignedDimension
  13
 88.739283377665
  23
 144.10011601400
  33
0.0
  14
 96.739283377665
  24
 128.21327056952
  34
0.0
 100
AcDbRotatedDimension
   0
DIMENSION
   5
47D
 100
AcDbEntity
   8
LEVEL001
   6
CONTINUOUS
  62
3
 100
AcDbDimension
   2
*D18
  10
 96.739283377665
  20
 153.47743595350
  30
0.0
  11
 127.48928337767
  21
 153.47743595350
  31
0.0
  70
0
   3
GMM001
 100
AcDbAlignedDimension
  13
 158.23928337767
  23
 133.11798366931
  33
0.0
  14
 96.739283377665
  24
 153.47743595350
  34
0.0
  50
 180.00000000000
 100
AcDbRotatedDimension
   0
DIMENSION
   5
47E
 100
AcDbEntity
   8
LEVEL001
   6
CONTINUOUS
  62
3
 100
AcDbDimension
   2
*D19
  10
 202.73928337767
  20
 153.47743595350
  30
0.0
  11
 180.48928337767
  21
 153.47743595350
  31
0.0
  70
0
   3
GMM001
 100
AcDbAlignedDimension
  13
 158.23928337767
  23
 153.47743595350
  33
0.0
  14
 202.73928337767
  24
 153.47743595350
  34
0.0
 100
AcDbRotatedDimension
   0
LINE
   5
47F
 100
AcDbEntity
   8
LEVEL001
 100
AcDbLine
   6
CONTINUOUS
  62
15
  10
 167.84160832441
  20
 125.36233569171
  30
0.0
  11
 184.95245249357
  21
 125.36233569171
  31
0.0
   0
LINE
   5
480
 100
AcDbEntity
   8
LEVEL001
 100
AcDbLine
   6
CONTINUOUS
  62
15
  10
 167.84160832441
  20
 126.36233569171
  30
0.0
  11
 184.95245249357
  21
 126.36233569171
  31
0.0
   0
LINE
   5
481
 100
AcDbEntity
   8
LEVEL001
 100
AcDbLine
   6
CONTINUOUS
  62
15
  10
 167.84160832441
  20
 127.36233569171
  30
0.0
  11
 184.95245249357
  21
 127.36233569171
  31
0.0
   0
LINE
   5
482
 100
AcDbEntity
   8
LEVEL001
 100
AcDbLine
   6
CONTINUOUS
  62
15
  10
 167.84160832441
  20
 128.36233569171
  30
0.0
  11
 184.95245249357
  21
 128.36233569171
  31
0.0
   0
LINE
   5
483
 100
AcDbEntity
   8
LEVEL001
 100
AcDbLine
   6
CONTINUOUS
  62
15
  10
 167.84160832441
  20
 129.36233569171
  30
0.0
  11
 184.95245249357
  21
 129.36233569171
  31
0.0
   0
LINE
   5
484
 100
AcDbEntity
   8
LEVEL001
 100
AcDbLine
   6
CONTINUOUS
  62
15
  10
 167.84160832441
  20
 130.36233569171
  30
0.0
  11
 184.95245249357
  21
 130.36233569171
  31
0.0
   0
TEXT
   5
485
 100
AcDbEntity
   8
LEVEL001
  62
3
 100
AcDbText
  10
 167.43732775403
  20
 131.67847926100
  30
0.0
  40
 4.0000000000000
   1
Ｈ･Ｌ方向
   7
STANDARD
 100
AcDbText
   0
INSERT
   5
486
 100
AcDbEntity
   8
0
 100
AcDbBlockReference
   2
BLOCK001
  10
0.0
  20
0.0
  30
0.0
   0
CIRCLE
   5
487
 100
AcDbEntity
   8
LEVEL001
 100
AcDbCircle
   6
CONTINUOUS
  62
7
  10
 214.73928337767
  20
 135.25342318257
  30
0.0
  40
 3.6000000000000
   0
CIRCLE
   5
488
 100
AcDbEntity
   8
LEVEL001
 100
AcDbCircle
   6
CONTINUOUS
  62
7
  10
 214.73928337767
  20
 111.25342318257
  30
0.0
  40
 3.6000000000000
   0
CIRCLE
   5
489
 100
AcDbEntity
   8
LEVEL001
 100
AcDbCircle
   6
CONTINUOUS
  62
7
  10
 202.73928337767
  20
 123.25342318257
  30
0.0
  40
 3.6000000000000
   0
CIRCLE
   5
48A
 100
AcDbEntity
   8
LEVEL001
 100
AcDbCircle
   6
CONTINUOUS
  62
7
  10
 226.73928337767
  20
 123.25342318257
  30
0.0
  40
 3.6000000000000
   0
LINE
   5
48B
 100
AcDbEntity
   8
LEVEL001
 100
AcDbLine
   6
DOT
  62
1
  10
 211.13928337767
  20
 209.79490635211
  30
0.0
  11
 212.48930437050
  21
 211.14492734494
  31
0.0
   0
LINE
   5
48C
 100
AcDbEntity
   8
LEVEL001
 100
AcDbLine
   6
DOT
  62
1
  10
 212.48930437050
  20
 211.14492734494
  30
0.0
  11
 212.48930437050
  21
 211.79490635211
  31
0.0
   0
LINE
   5
48D
 100
AcDbEntity
   8
LEVEL001
 100
AcDbLine
   6
DASHDOT
  62
3
  10
 214.73928337767
  20
 206.53990292630
  30
0.0
  11
 214.73928337767
  21
 215.71871252012
  31
0.0
   0
LINE
   5
48E
 100
AcDbEntity
   8
LEVEL001
 100
AcDbLine
   6
DOT
  62
1
  10
 218.33928337767
  20
 209.79490635211
  30
0.0
  11
 216.98926238483
  21
 211.14492734494
  31
0.0
   0
LINE
   5
48F
 100
AcDbEntity
   8
LEVEL001
 100
AcDbLine
   6
DOT
  62
1
  10
 216.98926238483
  20
 211.14492734494
  30
0.0
  11
 216.98926238483
  21
 211.79490635211
  31
0.0
   0
LINE
   5
490
 100
AcDbEntity
   8
LEVEL001
 100
AcDbLine
   6
DOT
  62
1
  10
 212.48930437050
  20
 211.14492734494
  30
0.0
  11
 216.98926238483
  21
 211.14492734494
  31
0.0
   0
LINE
   5
491
 100
AcDbEntity
   8
LEVEL001
 100
AcDbLine
   6
DASHDOT
  62
3
  10
 202.73928337767
  20
 215.71871252012
  30
0.0
  11
 202.73928337767
  21
 206.53990292630
  31
0.0
   0
LINE
   5
492
 100
AcDbEntity
   8
LEVEL001
 100
AcDbLine
   6
DASHDOT
  62
3
  10
 226.73928337767
  20
 215.71871252012
  30
0.0
  11
 226.73928337767
  21
 206.53990292630
  31
0.0
   0
LINE
   5
493
 100
AcDbEntity
   8
LEVEL001
 100
AcDbLine
   6
DOT
  62
1
  10
 199.13928337767
  20
 209.79490635211
  30
0.0
  11
 200.48930437050
  21
 211.14492734494
  31
0.0
   0
LINE
   5
494
 100
AcDbEntity
   8
LEVEL001
 100
AcDbLine
   6
DOT
  62
1
  10
 200.48930437050
  20
 211.14492734494
  30
0.0
  11
 200.48930437050
  21
 211.79490635211
  31
0.0
   0
LINE
   5
495
 100
AcDbEntity
   8
LEVEL001
 100
AcDbLine
   6
DOT
  62
1
  10
 200.48930437050
  20
 211.14492734494
  30
0.0
  11
 204.98926238483
  21
 211.14492734494
  31
0.0
   0
LINE
   5
496
 100
AcDbEntity
   8
LEVEL001
 100
AcDbLine
   6
DOT
  62
1
  10
 206.33928337767
  20
 209.79490635211
  30
0.0
  11
 204.98926238483
  21
 211.14492734494
  31
0.0
   0
LINE
   5
497
 100
AcDbEntity
   8
LEVEL001
 100
AcDbLine
   6
DOT
  62
1
  10
 204.98926238483
  20
 211.14492734494
  30
0.0
  11
 204.98926238483
  21
 211.79490635211
  31
0.0
   0
LINE
   5
498
 100
AcDbEntity
   8
LEVEL001
 100
AcDbLine
   6
DOT
  62
1
  10
 223.13928337767
  20
 209.79490635211
  30
0.0
  11
 224.48930437050
  21
 211.14492734494
  31
0.0
   0
LINE
   5
499
 100
AcDbEntity
   8
LEVEL001
 100
AcDbLine
   6
DOT
  62
1
  10
 224.48930437050
  20
 211.14492734494
  30
0.0
  11
 224.48930437050
  21
 211.79490635211
  31
0.0
   0
LINE
   5
49A
 100
AcDbEntity
   8
LEVEL001
 100
AcDbLine
   6
DOT
  62
1
  10
 224.48930437050
  20
 211.14492734494
  30
0.0
  11
 228.98926238483
  21
 211.14492734494
  31
0.0
   0
LINE
   5
49B
 100
AcDbEntity
   8
LEVEL001
 100
AcDbLine
   6
DOT
  62
1
  10
 230.33928337767
  20
 209.79490635211
  30
0.0
  11
 228.98926238483
  21
 211.14492734494
  31
0.0
   0
LINE
   5
49C
 100
AcDbEntity
   8
LEVEL001
 100
AcDbLine
   6
DOT
  62
1
  10
 228.98926238483
  20
 211.14492734494
  30
0.0
  11
 228.98926238483
  21
 211.79490635211
  31
0.0
   0
INSERT
   5
49D
 100
AcDbEntity
   8
LEVEL001
 100
AcDbBlockReference
   2
*D20
  10
0.0
  20
0.0
  30
0.0
   0
ENDSEC
  0
SECTION
  2
OBJECTS
  0
DICTIONARY
  5
C
100
AcDbDictionary
  3
ACAD_GROUP
350
D
  3
ACAD_MLINESTYLE
350
1B
  0
DICTIONARY
  5
D
102
{ACAD_REACTORS
330
C
102
}
100
AcDbDictionary
  0
DICTIONARY
  5
1B
102
{ACAD_REACTORS
330
C
102
}
100
AcDbDictionary
  3
STANDARD
350
1C
  0
MLINESTYLE
  5
1C
102
{ACAD_REACTORS
330
1B
102
}
100
AcDbMlineStyle
  2
STANDARD
 70
     0
  3

 62
   256
 51
90.0
 52
90.0
 71
     2
 49
0.5
 62
   256
  6
BYLAYER
 49
-0.5
 62
   256
  6
BYLAYER
  0
ENDSEC
   0
EOF
