   0
SECTION
   2
HEADER
   9
$ACADVER
   1
AC1015
   9
$LIMMIN
  10
0.0
  20
0.0
   9
$LIMMAX
  10
 420.00000000000
  20
 297.00000000000
   9
$EXTMIN
  10
0.0
  20
0.0
  30
0.0
   9
$EXTMAX
  10
 420.00000000000
  20
 297.00000000000
  30
0.0
   9
$LTSCALE
  40
 8.4000000000000
   9
$HANDSEED
   5
281
   0
ENDSEC
   0
SECTION
   2
TABLES
  0
TABLE
  2
VPORT
  5
8
100
AcDbSymbolTable
 70
     1
  0
VPORT
  5
280
100
AcDbSymbolTableRecord
100
AcDbViewportTableRecord
  2
*ACTIVE
 70
     0
 10
0.0
 20
0.0
 11
1.0
 21
1.0
  12
 210.00000000000
  22
 148.50000000000
 13
0.0
 23
0.0
 14
1.0
 24
1.0
 15
0.0
 25
0.0
 16
0.0
 26
0.0
 36
1.0
 17
0.0
 27
0.0
 37
0.0
  40
 420.00000000000
  41
 1.4787878787879
 42
50.0
 43
0.0
 44
0.0
 50
0.0
 51
0.0
 71
     0
 72
   100
 73
     1
 74
     1
 75
     0
 76
     0
 77
     0
 78
     0
  0
ENDTAB
  0
TABLE
  2
LTYPE
  5
5
100
AcDbSymbolTable
 70
    25
  0
LTYPE
  5
12
100
AcDbSymbolTableRecord
100
AcDbLinetypeTableRecord
  2
BYBLOCK
 70
     0
  3

 72
    65
 73
     0
 40
0.0
  0
LTYPE
  5
13
100
AcDbSymbolTableRecord
100
AcDbLinetypeTableRecord
  2
BYLAYER
 70
     0
  3

 72
    65
 73
     0
 40
0.0
  0
LTYPE
  5
14
100
AcDbSymbolTableRecord
100
AcDbLinetypeTableRecord
  2
CONTINUOUS
 70
     0
  3
Solid line
 72
    65
 73
     0
 40
0.0
  0
LTYPE
  5
20
100
AcDbSymbolTableRecord
100
AcDbLinetypeTableRecord
  2
BORDER
 70
     0
  3
__ __ . __ __ . __ __ . __ __ . __ __ . __ __ .
 72
    65
 73
     6
 40
1.75
 49
0.5
 74
     0
 49
-0.25
 74
     0
 49
0.5
 74
     0
 49
-0.25
 74
     0
 49
0.0
 74
     0
 49
-0.25
 74
     0
  0
LTYPE
  5
21
100
AcDbSymbolTableRecord
100
AcDbLinetypeTableRecord
  2
BORDER2
 70
     0
  3
__.__.__.__.__.__.__.__.__.__.__.__.__.__.__.__
 72
    65
 73
     6
 40
0.875
 49
0.25
 74
     0
 49
-0.125
 74
     0
 49
0.25
 74
     0
 49
-0.125
 74
     0
 49
0.0
 74
     0
 49
-0.125
 74
     0
  0
LTYPE
  5
22
100
AcDbSymbolTableRecord
100
AcDbLinetypeTableRecord
  2
BORDERX2
 70
     0
  3
____  ____  .  ____  ____  .  ____  ____  .  __
 72
    65
 73
     6
 40
3.5
 49
1.0
 74
     0
 49
-0.5
 74
     0
 49
1.0
 74
     0
 49
-0.5
 74
     0
 49
0.0
 74
     0
 49
-0.5
 74
     0
  0
LTYPE
  5
23
100
AcDbSymbolTableRecord
100
AcDbLinetypeTableRecord
  2
CENTER
 70
     0
  3
____ _ ____ _ ____ _ ____ _ ____ _ ____ _ ____ 
 72
    65
 73
     4
 40
2.0
 49
1.25
 74
     0
 49
-0.25
 74
     0
 49
0.25
 74
     0
 49
-0.25
 74
     0
  0
LTYPE
  5
24
100
AcDbSymbolTableRecord
100
AcDbLinetypeTableRecord
  2
CENTER2
 70
     0
  3
___ _ ___ _ ___ _ ___ _ ___ _ ___ _ ___ _ ___ _
 72
    65
 73
     4
 40
1.125
 49
0.75
 74
     0
 49
-0.125
 74
     0
 49
0.125
 74
     0
 49
-0.125
 74
     0
  0
LTYPE
  5
25
100
AcDbSymbolTableRecord
100
AcDbLinetypeTableRecord
  2
CENTERX2
 70
     0
  3
________  __  ________  __  ________  __  _____
 72
    65
 73
     4
 40
4.0
 49
2.5
 74
     0
 49
-0.5
 74
     0
 49
0.5
 74
     0
 49
-0.5
 74
     0
  0
LTYPE
  5
26
100
AcDbSymbolTableRecord
100
AcDbLinetypeTableRecord
  2
DASHDOT
 70
     0
  3
__ . __ . __ . __ . __ . __ . __ . __ . __ . __
 72
    65
 73
     4
 40
1.0
 49
0.5
 74
     0
 49
-0.25
 74
     0
 49
0.0
 74
     0
 49
-0.25
 74
     0
  0
LTYPE
  5
27
100
AcDbSymbolTableRecord
100
AcDbLinetypeTableRecord
  2
DASHDOT2
 70
     0
  3
_._._._._._._._._._._._._._._._._._._._._._._._
 72
    65
 73
     4
 40
0.5
 49
0.25
 74
     0
 49
-0.125
 74
     0
 49
0.0
 74
     0
 49
-0.125
 74
     0
  0
LTYPE
  5
28
100
AcDbSymbolTableRecord
100
AcDbLinetypeTableRecord
  2
DASHDOTX2
 70
     0
  3
____  .  ____  .  ____  .  ____  .  ____  .  __
 72
    65
 73
     4
 40
2.0
 49
1.0
 74
     0
 49
-0.5
 74
     0
 49
0.0
 74
     0
 49
-0.5
 74
     0
  0
LTYPE
  5
29
100
AcDbSymbolTableRecord
100
AcDbLinetypeTableRecord
  2
DASHED
 70
     0
  3
__ __ __ __ __ __ __ __ __ __ __ __ __ __ __ __
 72
    65
 73
     2
 40
0.75
 49
0.5
 74
     0
 49
-0.25
 74
     0
  0
LTYPE
  5
2A
100
AcDbSymbolTableRecord
100
AcDbLinetypeTableRecord
  2
DASHED2
 70
     0
  3
_ _ _ _ _ _ _ _ _ _ _ _ _ _ _ _ _ _ _ _ _ _ _ _
 72
    65
 73
     2
 40
0.375
 49
0.25
 74
     0
 49
-0.125
 74
     0
  0
LTYPE
  5
2B
100
AcDbSymbolTableRecord
100
AcDbLinetypeTableRecord
  2
DASHEDX2
 70
     0
  3
____  ____  ____  ____  ____  ____  ____  ____ 
 72
    65
 73
     2
 40
1.5
 49
1.0
 74
     0
 49
-0.5
 74
     0
  0
LTYPE
  5
2C
100
AcDbSymbolTableRecord
100
AcDbLinetypeTableRecord
  2
DIVIDE
 70
     0
  3
____ . . ____ . . ____ . . ____ . . ____ . . __
 72
    65
 73
     6
 40
1.25
 49
0.5
 74
     0
 49
-0.25
 74
     0
 49
0.0
 74
     0
 49
-0.25
 74
     0
 49
0.0
 74
     0
 49
-0.25
 74
     0
  0
LTYPE
  5
2D
100
AcDbSymbolTableRecord
100
AcDbLinetypeTableRecord
  2
DIVIDE2
 70
     0
  3
__..__..__..__..__..__..__..__..__..__..__..__.
 72
    65
 73
     6
 40
0.625
 49
0.25
 74
     0
 49
-0.125
 74
     0
 49
0.0
 74
     0
 49
-0.125
 74
     0
 49
0.0
 74
     0
 49
-0.125
 74
     0
  0
LTYPE
  5
2E
100
AcDbSymbolTableRecord
100
AcDbLinetypeTableRecord
  2
DIVIDEX2
 70
     0
  3
________  .  .  ________  .  .  ________  .  . 
 72
    65
 73
     6
 40
2.5
 49
1.0
 74
     0
 49
-0.5
 74
     0
 49
0.0
 74
     0
 49
-0.5
 74
     0
 49
0.0
 74
     0
 49
-0.5
 74
     0
  0
LTYPE
  5
2F
100
AcDbSymbolTableRecord
100
AcDbLinetypeTableRecord
  2
DOT
 70
     0
  3
. . . . . . . . . . . . . . . . . . . . . . . .
 72
    65
 73
     2
 40
0.25
 49
0.0
 74
     0
 49
-0.25
 74
     0
  0
LTYPE
  5
30
100
AcDbSymbolTableRecord
100
AcDbLinetypeTableRecord
  2
DOT2
 70
     0
  3
...............................................
 72
    65
 73
     2
 40
0.125
 49
0.0
 74
     0
 49
-0.125
 74
     0
  0
LTYPE
  5
31
100
AcDbSymbolTableRecord
100
AcDbLinetypeTableRecord
  2
DOTX2
 70
     0
  3
.  .  .  .  .  .  .  .  .  .  .  .  .  .  .  . 
 72
    65
 73
     2
 40
0.5
 49
0.0
 74
     0
 49
-0.5
 74
     0
  0
LTYPE
  5
32
100
AcDbSymbolTableRecord
100
AcDbLinetypeTableRecord
  2
HIDDEN
 70
     0
  3
__ __ __ __ __ __ __ __ __ __ __ __ __ __ __ __
 72
    65
 73
     2
 40
0.375
 49
0.25
 74
     0
 49
-0.125
 74
     0
  0
LTYPE
  5
33
100
AcDbSymbolTableRecord
100
AcDbLinetypeTableRecord
  2
HIDDEN2
 70
     0
  3
_ _ _ _ _ _ _ _ _ _ _ _ _ _ _ _ _ _ _ _ _ _ _ _
 72
    65
 73
     2
 40
0.1875
 49
0.125
 74
     0
 49
-0.0625
 74
     0
  0
LTYPE
  5
34
100
AcDbSymbolTableRecord
100
AcDbLinetypeTableRecord
  2
HIDDENX2
 70
     0
  3
____ ____ ____ ____ ____ ____ ____ ____ ____ __
 72
    65
 73
     2
 40
0.75
 49
0.5
 74
     0
 49
-0.25
 74
     0
  0
LTYPE
  5
35
100
AcDbSymbolTableRecord
100
AcDbLinetypeTableRecord
  2
PHANTOM
 70
     0
  3
______  __  __  ______  __  __  ______  __  __ 
 72
    65
 73
     6
 40
2.5
 49
1.25
 74
     0
 49
-0.25
 74
     0
 49
0.25
 74
     0
 49
-0.25
 74
     0
 49
0.25
 74
     0
 49
-0.25
 74
     0
  0
LTYPE
  5
36
100
AcDbSymbolTableRecord
100
AcDbLinetypeTableRecord
  2
PHANTOM2
 70
     0
  3
___ _ _ ___ _ _ ___ _ _ ___ _ _ ___ _ _ ___ _ _
 72
    65
 73
     6
 40
1.25
 49
0.625
 74
     0
 49
-0.125
 74
     0
 49
0.125
 74
     0
 49
-0.125
 74
     0
 49
0.125
 74
     0
 49
-0.125
 74
     0
  0
LTYPE
  5
37
100
AcDbSymbolTableRecord
100
AcDbLinetypeTableRecord
  2
PHANTOMX2
 70
     0
  3
____________    ____    ____    ____________   
 72
    65
 73
     6
 40
5.0
 49
2.5
 74
     0
 49
-0.5
 74
     0
 49
0.5
 74
     0
 49
-0.5
 74
     0
 49
0.5
 74
     0
 49
-0.5
 74
     0
  0
ENDTAB
   0
TABLE
   2
LAYER
   5
2
 100
AcDbSymbolTable
  70
2
   0
LAYER
   5
E
 100
AcDbSymbolTableRecord
 100
AcDbLayerTableRecord
   2
0
  70
0
  62
7
   6
CONTINUOUS
 390
30
   0
LAYER
   5
39
 100
AcDbSymbolTableRecord
 100
AcDbLayerTableRecord
   2
LEVEL001
  70
0
  62
7
   6
CONTINUOUS
 390
30
   0
ENDTAB
  0
TABLE
  2
STYLE
  5
3
100
AcDbSymbolTable
  70
3
  0
STYLE
  5
F
100
AcDbSymbolTableRecord
100
AcDbTextStyleTableRecord
  2
STANDARD
 70
     0
 40
0.0
 41
1.0
 50
0.0
 71
     0
 42
0.2
  3
TXT
  4
BIGFONT
  0
STYLE
  5
38
100
AcDbSymbolTableRecord
100
AcDbTextStyleTableRecord
  2
STANDARD1
 70
     4
 40
0.0
 41
1.0
 50
0.0
 71
     0
 42
0.2
  3
TXT
  4
BIGFONT
   0
STYLE
   5
3A
 100
AcDbSymbolTableRecord
 100
AcDbTextStyleTableRecord
   2
GMM001
  70
0
  40
0.0
  41
 1.0000000000000
  50
0.0
  71
     0
  42
1.0
   3
txt.shx
   4
bigfont.shx
   0
ENDTAB
  0
TABLE
  2
VIEW
  5
6
100
AcDbSymbolTable
 70
     0
  0
ENDTAB
  0
TABLE
  2
UCS
  5
7
100
AcDbSymbolTable
 70
     0
  0
ENDTAB
  0
TABLE
  2
APPID
  5
9
100
AcDbSymbolTable
 70
     1
  0
APPID
  5
10
100
AcDbSymbolTableRecord
100
AcDbRegAppTableRecord
  2
ACAD
 70
     0
  0
ENDTAB
   0
TABLE
   2
DIMSTYLE
   5
A
 100
AcDbSymbolTable
  70
5
 100
AcDbDimStyleTable
  0
DIMSTYLE
105
1D
100
AcDbSymbolTableRecord
100
AcDbDimStyleTableRecord
  2
STANDARD
 70
     0
  3

  4

  5

  6

  7

 40
1.0
 41
0.18
 42
0.0625
 43
0.38
 44
0.18
 45
0.0
 46
0.0
 47
0.0
 48
0.0
140
0.18
141
0.09
142
0.0
143
25.4
144
1.0
145
0.0
146
1.0
147
0.09
 71
     0
 72
     0
 73
     1
 74
     1
 75
     0
 76
     0
 77
     0
 78
     0
170
     0
171
     2
172
     0
173
     0
174
     0
175
     0
176
     0
177
     0
178
     0
270
     2
271
     4
272
     4
273
     2
274
     2
340
F
275
     0
280
     0
281
     0
282
     0
283
     1
284
     0
285
     0
286
     0
287
     3
288
     0
   0
DIMSTYLE
 105
3B
 100
AcDbSymbolTableRecord
 100
AcDbDimStyleTableRecord
   2
GMM001
  70
0
   3

   4

   5

   6
_OPEN30
   7
_OPEN30
  40
 1.0000000000000
  41
 3.0000000000000
  42
 0.50000000000000
  43
 8.0000000000000
  44
 1.0000000000000
  45
0.0
  46
0.0
  47
0.0
  48
0.0
 140
 4.0000000000000
 141
 1.0000000000000
 142
0.0
 143
 0.39400000000000E-1
 144
 1.0000000000000
 145
0.0
 146
 0.62500000000000
 147
 1.7142857142857
  71
0
  72
0
  73
0
  74
0
  75
0
  76
0
  77
3
  78
8
 170
0
 171
2
 172
1
 173
1
 174
0
 175
0
 176
3
 177
3
 178
3
 270
2
 271
6
 272
0
 273
2
 274
2
 340
3A
 275
0
 280
0
 281
0
 282
0
 283
1
 284
0
 285
0
 286
0
 287
3
 288
0
   0
DIMSTYLE
 105
3C
 100
AcDbSymbolTableRecord
 100
AcDbDimStyleTableRecord
   2
GMM002
  70
0
   3

   4

   5

   6
_OPEN30
   7
_OPEN30
  40
 1.0000000000000
  41
 3.0000000000000
  42
 0.50000000000000
  43
 8.0000000000000
  44
 1.0000000000000
  45
0.0
  46
0.0
  47
0.0
  48
0.0
 140
 4.0000000000000
 141
 1.0000000000000
 142
0.0
 143
 0.39400000000000E-1
 144
 1.0000000000000
 145
0.0
 146
 0.62500000000000
 147
 1.7142857142857
  71
0
  72
0
  73
0
  74
0
  75
0
  76
0
  77
3
  78
8
 170
0
 171
2
 172
1
 173
1
 174
0
 175
0
 176
3
 177
3
 178
3
 270
2
 271
6
 272
0
 273
2
 274
2
 340
3A
 275
0
 280
0
 281
0
 282
0
 283
1
 284
0
 285
0
 286
0
 287
3
 288
1
   0
DIMSTYLE
 105
3D
 100
AcDbSymbolTableRecord
 100
AcDbDimStyleTableRecord
   2
GMM003
  70
0
   3
%%c<>
   4

   5

   6
_OPEN30
   7
_OPEN30
  40
 1.0000000000000
  41
 3.0000000000000
  42
 0.50000000000000
  43
 8.0000000000000
  44
 1.0000000000000
  45
0.0
  46
0.0
  47
0.0
  48
0.0
 140
 4.0000000000000
 141
 1.0000000000000
 142
0.0
 143
 0.39400000000000E-1
 144
 1.0000000000000
 145
0.0
 146
 0.62500000000000
 147
 1.7142857142857
  71
0
  72
0
  73
0
  74
0
  75
0
  76
0
  77
3
  78
8
 170
0
 171
2
 172
1
 173
1
 174
0
 175
0
 176
3
 177
3
 178
3
 270
2
 271
6
 272
0
 273
2
 274
2
 340
3A
 275
0
 280
0
 281
0
 282
0
 283
1
 284
0
 285
0
 286
0
 287
3
 288
0
   0
ENDTAB
  0
TABLE
  2
BLOCK_RECORD
  5
1
100
AcDbSymbolTable
 70
     0
  0
BLOCK_RECORD
  5
18
100
AcDbSymbolTableRecord
100
AcDbBlockTableRecord
  2
*MODEL_SPACE
  0
BLOCK_RECORD
  5
15
100
AcDbSymbolTableRecord
100
AcDbBlockTableRecord
  2
*PAPER_SPACE
   0
BLOCK_RECORD
   5
3E
 100
AcDbSymbolTableRecord
 100
AcDbBlockTableRecord
   2
BLOCK001
   0
BLOCK_RECORD
   5
3F
 100
AcDbSymbolTableRecord
 100
AcDbBlockTableRecord
   2
*D1
   0
BLOCK_RECORD
   5
40
 100
AcDbSymbolTableRecord
 100
AcDbBlockTableRecord
   2
*D2
   0
BLOCK_RECORD
   5
41
 100
AcDbSymbolTableRecord
 100
AcDbBlockTableRecord
   2
*D3
   0
BLOCK_RECORD
   5
42
 100
AcDbSymbolTableRecord
 100
AcDbBlockTableRecord
   2
*D4
   0
BLOCK_RECORD
   5
43
 100
AcDbSymbolTableRecord
 100
AcDbBlockTableRecord
   2
*D5
   0
BLOCK_RECORD
   5
44
 100
AcDbSymbolTableRecord
 100
AcDbBlockTableRecord
   2
*D6
   0
BLOCK_RECORD
   5
45
 100
AcDbSymbolTableRecord
 100
AcDbBlockTableRecord
   2
*D7
   0
BLOCK_RECORD
   5
46
 100
AcDbSymbolTableRecord
 100
AcDbBlockTableRecord
   2
*D8
   0
BLOCK_RECORD
   5
47
 100
AcDbSymbolTableRecord
 100
AcDbBlockTableRecord
   2
*D9
   0
BLOCK_RECORD
   5
48
 100
AcDbSymbolTableRecord
 100
AcDbBlockTableRecord
   2
*D10
   0
BLOCK_RECORD
   5
49
 100
AcDbSymbolTableRecord
 100
AcDbBlockTableRecord
   2
*D11
   0
BLOCK_RECORD
   5
4A
 100
AcDbSymbolTableRecord
 100
AcDbBlockTableRecord
   2
*D12
   0
BLOCK_RECORD
   5
4B
 100
AcDbSymbolTableRecord
 100
AcDbBlockTableRecord
   2
*D13
   0
BLOCK_RECORD
   5
4C
 100
AcDbSymbolTableRecord
 100
AcDbBlockTableRecord
   2
*D14
   0
BLOCK_RECORD
   5
4D
 100
AcDbSymbolTableRecord
 100
AcDbBlockTableRecord
   2
*D15
   0
BLOCK_RECORD
   5
4E
 100
AcDbSymbolTableRecord
 100
AcDbBlockTableRecord
   2
*D16
   0
BLOCK_RECORD
   5
4F
 100
AcDbSymbolTableRecord
 100
AcDbBlockTableRecord
   2
_ARCHTICK
   0
BLOCK_RECORD
   5
50
 100
AcDbSymbolTableRecord
 100
AcDbBlockTableRecord
   2
_BOXBLANK
   0
BLOCK_RECORD
   5
51
 100
AcDbSymbolTableRecord
 100
AcDbBlockTableRecord
   2
_BOXFILLED
   0
BLOCK_RECORD
   5
52
 100
AcDbSymbolTableRecord
 100
AcDbBlockTableRecord
   2
_CLOSED
   0
BLOCK_RECORD
   5
53
 100
AcDbSymbolTableRecord
 100
AcDbBlockTableRecord
   2
_CLOSEDBLANK
   0
BLOCK_RECORD
   5
54
 100
AcDbSymbolTableRecord
 100
AcDbBlockTableRecord
   2
_DATUMBLANK
   0
BLOCK_RECORD
   5
55
 100
AcDbSymbolTableRecord
 100
AcDbBlockTableRecord
   2
_DATUMFILLED
   0
BLOCK_RECORD
   5
56
 100
AcDbSymbolTableRecord
 100
AcDbBlockTableRecord
   2
_DOT
   0
BLOCK_RECORD
   5
57
 100
AcDbSymbolTableRecord
 100
AcDbBlockTableRecord
   2
_DOTBLANK
   0
BLOCK_RECORD
   5
58
 100
AcDbSymbolTableRecord
 100
AcDbBlockTableRecord
   2
_DOTSMALL
   0
BLOCK_RECORD
   5
59
 100
AcDbSymbolTableRecord
 100
AcDbBlockTableRecord
   2
_INTEGRAL
   0
BLOCK_RECORD
   5
5A
 100
AcDbSymbolTableRecord
 100
AcDbBlockTableRecord
   2
_NONE
   0
BLOCK_RECORD
   5
5B
 100
AcDbSymbolTableRecord
 100
AcDbBlockTableRecord
   2
_OBLIQUE
   0
BLOCK_RECORD
   5
5C
 100
AcDbSymbolTableRecord
 100
AcDbBlockTableRecord
   2
_OPEN
   0
BLOCK_RECORD
   5
5D
 100
AcDbSymbolTableRecord
 100
AcDbBlockTableRecord
   2
_OPEN30
   0
BLOCK_RECORD
   5
5E
 100
AcDbSymbolTableRecord
 100
AcDbBlockTableRecord
   2
_OPEN90
   0
BLOCK_RECORD
   5
5F
 100
AcDbSymbolTableRecord
 100
AcDbBlockTableRecord
   2
_ORIGIN
   0
ENDTAB
   0
ENDSEC
  0
SECTION
  2
BLOCKS
  0
BLOCK
  5
19
100
AcDbEntity
  8
0
100
AcDbBlockBegin
  2
*MODEL_SPACE
 70
     0
 10
0.0
 20
0.0
 30
0.0
  3
*MODEL_SPACE
  1

  0
ENDBLK
  5
1A
100
AcDbEntity
  8
0
100
AcDbBlockEnd
  0
BLOCK
  5
16
100
AcDbEntity
 67
     1
  8
0
100
AcDbBlockBegin
  2
*PAPER_SPACE
 70
     0
 10
0.0
 20
0.0
 30
0.0
  3
*PAPER_SPACE
  1

  0
ENDBLK
  5
17
100
AcDbEntity
 67
     1
  8
0
100
AcDbBlockEnd
   0
BLOCK
   5
60
 100
AcDbEntity
   8
0
 100
AcDbBlockBegin
   2
_ARCHTICK
  70
0
  10
0.0
  20
0.0
  30
0.0
   3
_ARCHTICK
   0
POLYLINE
   5
61
 100
AcDbEntity
   8
0
   6
BYBLOCK
  62
0
 100
AcDb2dPolyline
  66
1
  10
0.0
  20
0.0
  30
0.0
  70
1
  40
 0.15000000000000
  41
 0.15000000000000
   0
VERTEX
   5
62
 100
AcDbEntity
   8
0
   6
BYBLOCK
  62
0
 100
AcDbVertex
 100
AcDb2dVertex
  10
-0.50000000000000
  20
-0.50000000000000
  30
0.0
  40
 0.15000000000000
  41
 0.15000000000000
   0
VERTEX
   5
63
 100
AcDbEntity
   8
0
   6
BYBLOCK
  62
0
 100
AcDbVertex
 100
AcDb2dVertex
  10
 0.50000000000000
  20
 0.50000000000000
  30
0.0
  40
 0.15000000000000
  41
 0.15000000000000
   0
SEQEND
   5
64
 100
AcDbEntity
   8
0
   6
BYBLOCK
  62
0
   0
ENDBLK
   5
65
 100
AcDbEntity
   8
0
 100
AcDbBlockEnd
   0
BLOCK
   5
66
 100
AcDbEntity
   8
0
 100
AcDbBlockBegin
   2
_OBLIQUE
  70
0
  10
0.0
  20
0.0
  30
0.0
   3
_OBLIQUE
   0
LINE
   5
67
 100
AcDbEntity
   8
0
 100
AcDbLine
   6
BYBLOCK
  62
0
  10
-0.50000000000000
  20
-0.50000000000000
  30
0.0
  11
 0.50000000000000
  21
 0.50000000000000
  31
0.0
   0
ENDBLK
   5
68
 100
AcDbEntity
   8
0
 100
AcDbBlockEnd
   0
BLOCK
   5
69
 100
AcDbEntity
   8
0
 100
AcDbBlockBegin
   2
_BOXBLANK
  70
0
  10
0.0
  20
0.0
  30
0.0
   3
_BOXBLANK
   0
LINE
   5
6A
 100
AcDbEntity
   8
0
 100
AcDbLine
   6
BYBLOCK
  62
0
  10
-0.50000000000000
  20
-0.50000000000000
  30
0.0
  11
 0.50000000000000
  21
-0.50000000000000
  31
0.0
   0
LINE
   5
6B
 100
AcDbEntity
   8
0
 100
AcDbLine
   6
BYBLOCK
  62
0
  10
 0.50000000000000
  20
-0.50000000000000
  30
0.0
  11
 0.50000000000000
  21
 0.50000000000000
  31
0.0
   0
LINE
   5
6C
 100
AcDbEntity
   8
0
 100
AcDbLine
   6
BYBLOCK
  62
0
  10
 0.50000000000000
  20
 0.50000000000000
  30
0.0
  11
-0.50000000000000
  21
 0.50000000000000
  31
0.0
   0
LINE
   5
6D
 100
AcDbEntity
   8
0
 100
AcDbLine
   6
BYBLOCK
  62
0
  10
-0.50000000000000
  20
 0.50000000000000
  30
0.0
  11
-0.50000000000000
  21
-0.50000000000000
  31
0.0
   0
LINE
   5
6E
 100
AcDbEntity
   8
0
 100
AcDbLine
   6
BYBLOCK
  62
0
  10
-0.50000000000000
  20
0.0
  30
0.0
  11
-1.0000000000000
  21
0.0
  31
0.0
   0
ENDBLK
   5
6F
 100
AcDbEntity
   8
0
 100
AcDbBlockEnd
   0
BLOCK
   5
70
 100
AcDbEntity
   8
0
 100
AcDbBlockBegin
   2
_BOXFILLED
  70
0
  10
0.0
  20
0.0
  30
0.0
   3
_BOXFILLED
   0
SOLID
   5
71
 100
AcDbEntity
   8
0
 100
AcDbTrace
   6
BYBLOCK
  62
0
  10
-0.50000000000000
  20
 0.50000000000000
  30
0.0
  11
 0.50000000000000
  21
 0.50000000000000
  31
0.0
  12
-0.50000000000000
  22
-0.50000000000000
  32
0.0
  13
 0.50000000000000
  23
-0.50000000000000
  33
0.0
   0
LINE
   5
72
 100
AcDbEntity
   8
0
 100
AcDbLine
   6
BYBLOCK
  62
0
  10
-0.50000000000000
  20
0.0
  30
0.0
  11
-1.0000000000000
  21
0.0
  31
0.0
   0
ENDBLK
   5
73
 100
AcDbEntity
   8
0
 100
AcDbBlockEnd
   0
BLOCK
   5
74
 100
AcDbEntity
   8
0
 100
AcDbBlockBegin
   2
_CLOSED
  70
0
  10
0.0
  20
0.0
  30
0.0
   3
_CLOSED
   0
LINE
   5
75
 100
AcDbEntity
   8
0
 100
AcDbLine
   6
BYBLOCK
  62
0
  10
-1.0000000000000
  20
 0.16666666666667
  30
0.0
  11
0.0
  21
0.0
  31
0.0
   0
LINE
   5
76
 100
AcDbEntity
   8
0
 100
AcDbLine
   6
BYBLOCK
  62
0
  10
0.0
  20
0.0
  30
0.0
  11
-1.0000000000000
  21
-0.16666666666667
  31
0.0
   0
LINE
   5
77
 100
AcDbEntity
   8
0
 100
AcDbLine
   6
BYBLOCK
  62
0
  10
-1.0000000000000
  20
 0.16666666666667
  30
0.0
  11
-1.0000000000000
  21
-0.16666666666667
  31
0.0
   0
LINE
   5
78
 100
AcDbEntity
   8
0
 100
AcDbLine
   6
BYBLOCK
  62
0
  10
0.0
  20
0.0
  30
0.0
  11
-1.0000000000000
  21
0.0
  31
0.0
   0
ENDBLK
   5
79
 100
AcDbEntity
   8
0
 100
AcDbBlockEnd
   0
BLOCK
   5
7A
 100
AcDbEntity
   8
0
 100
AcDbBlockBegin
   2
_OPEN
  70
0
  10
0.0
  20
0.0
  30
0.0
   3
_OPEN
   0
LINE
   5
7B
 100
AcDbEntity
   8
0
 100
AcDbLine
   6
BYBLOCK
  62
0
  10
-1.0000000000000
  20
 0.16666666666667
  30
0.0
  11
0.0
  21
0.0
  31
0.0
   0
LINE
   5
7C
 100
AcDbEntity
   8
0
 100
AcDbLine
   6
BYBLOCK
  62
0
  10
0.0
  20
0.0
  30
0.0
  11
-1.0000000000000
  21
-0.16666666666667
  31
0.0
   0
LINE
   5
7D
 100
AcDbEntity
   8
0
 100
AcDbLine
   6
BYBLOCK
  62
0
  10
0.0
  20
0.0
  30
0.0
  11
-1.0000000000000
  21
0.0
  31
0.0
   0
ENDBLK
   5
7E
 100
AcDbEntity
   8
0
 100
AcDbBlockEnd
   0
BLOCK
   5
7F
 100
AcDbEntity
   8
0
 100
AcDbBlockBegin
   2
_OPEN30
  70
0
  10
0.0
  20
0.0
  30
0.0
   3
_OPEN30
   0
LINE
   5
80
 100
AcDbEntity
   8
0
 100
AcDbLine
   6
BYBLOCK
  62
0
  10
-1.0000000000000
  20
 0.26794919243110
  30
0.0
  11
0.0
  21
0.0
  31
0.0
   0
LINE
   5
81
 100
AcDbEntity
   8
0
 100
AcDbLine
   6
BYBLOCK
  62
0
  10
0.0
  20
0.0
  30
0.0
  11
-1.0000000000000
  21
-0.26794919243110
  31
0.0
   0
LINE
   5
82
 100
AcDbEntity
   8
0
 100
AcDbLine
   6
BYBLOCK
  62
0
  10
0.0
  20
0.0
  30
0.0
  11
-1.0000000000000
  21
0.0
  31
0.0
   0
ENDBLK
   5
83
 100
AcDbEntity
   8
0
 100
AcDbBlockEnd
   0
BLOCK
   5
84
 100
AcDbEntity
   8
0
 100
AcDbBlockBegin
   2
_OPEN90
  70
0
  10
0.0
  20
0.0
  30
0.0
   3
_OPEN90
   0
LINE
   5
85
 100
AcDbEntity
   8
0
 100
AcDbLine
   6
BYBLOCK
  62
0
  10
-0.50000000000000
  20
 0.50000000000000
  30
0.0
  11
0.0
  21
0.0
  31
0.0
   0
LINE
   5
86
 100
AcDbEntity
   8
0
 100
AcDbLine
   6
BYBLOCK
  62
0
  10
0.0
  20
0.0
  30
0.0
  11
-0.50000000000000
  21
-0.50000000000000
  31
0.0
   0
LINE
   5
87
 100
AcDbEntity
   8
0
 100
AcDbLine
   6
BYBLOCK
  62
0
  10
0.0
  20
0.0
  30
0.0
  11
-1.0000000000000
  21
0.0
  31
0.0
   0
ENDBLK
   5
88
 100
AcDbEntity
   8
0
 100
AcDbBlockEnd
   0
BLOCK
   5
89
 100
AcDbEntity
   8
0
 100
AcDbBlockBegin
   2
_CLOSEDBLANK
  70
0
  10
0.0
  20
0.0
  30
0.0
   3
_CLOSEDBLANK
   0
LINE
   5
8A
 100
AcDbEntity
   8
0
 100
AcDbLine
   6
BYBLOCK
  62
0
  10
-1.0000000000000
  20
 0.16666666666667
  30
0.0
  11
0.0
  21
0.0
  31
0.0
   0
LINE
   5
8B
 100
AcDbEntity
   8
0
 100
AcDbLine
   6
BYBLOCK
  62
0
  10
0.0
  20
0.0
  30
0.0
  11
-1.0000000000000
  21
-0.16666666666667
  31
0.0
   0
LINE
   5
8C
 100
AcDbEntity
   8
0
 100
AcDbLine
   6
BYBLOCK
  62
0
  10
-1.0000000000000
  20
 0.16666666666667
  30
0.0
  11
-1.0000000000000
  21
-0.16666666666667
  31
0.0
   0
ENDBLK
   5
8D
 100
AcDbEntity
   8
0
 100
AcDbBlockEnd
   0
BLOCK
   5
8E
 100
AcDbEntity
   8
0
 100
AcDbBlockBegin
   2
_DOT
  70
0
  10
0.0
  20
0.0
  30
0.0
   3
_DOT
   0
POLYLINE
   5
8F
 100
AcDbEntity
   8
0
   6
BYBLOCK
  62
0
 100
AcDb2dPolyline
  66
1
  10
0.0
  20
0.0
  30
0.0
  70
1
  40
 0.50000000000000
  41
 0.50000000000000
   0
VERTEX
   5
90
 100
AcDbEntity
   8
0
   6
BYBLOCK
  62
0
 100
AcDbVertex
 100
AcDb2dVertex
  10
-0.25000000000000
  20
0.0
  30
0.0
  42
 1.0000000000000
  40
 0.50000000000000
  41
 0.50000000000000
   0
VERTEX
   5
91
 100
AcDbEntity
   8
0
   6
BYBLOCK
  62
0
 100
AcDbVertex
 100
AcDb2dVertex
  10
 0.25000000000000
  20
0.0
  30
0.0
  42
 1.0000000000000
  40
 0.50000000000000
  41
 0.50000000000000
   0
SEQEND
   5
92
 100
AcDbEntity
   8
0
   6
BYBLOCK
  62
0
   0
LINE
   5
93
 100
AcDbEntity
   8
0
 100
AcDbLine
   6
BYBLOCK
  62
0
  10
-0.50000000000000
  20
0.0
  30
0.0
  11
-1.0000000000000
  21
0.0
  31
0.0
   0
ENDBLK
   5
94
 100
AcDbEntity
   8
0
 100
AcDbBlockEnd
   0
BLOCK
   5
95
 100
AcDbEntity
   8
0
 100
AcDbBlockBegin
   2
_DOTSMALL
  70
0
  10
0.0
  20
0.0
  30
0.0
   3
_DOTSMALL
   0
POLYLINE
   5
96
 100
AcDbEntity
   8
0
   6
BYBLOCK
  62
0
 100
AcDb2dPolyline
  66
1
  10
0.0
  20
0.0
  30
0.0
  70
1
  40
 0.50000000000000
  41
 0.50000000000000
   0
VERTEX
   5
97
 100
AcDbEntity
   8
0
   6
BYBLOCK
  62
0
 100
AcDbVertex
 100
AcDb2dVertex
  10
-0.62500000000000E-1
  20
0.0
  30
0.0
  42
 1.0000000000000
  40
 0.50000000000000
  41
 0.50000000000000
   0
VERTEX
   5
98
 100
AcDbEntity
   8
0
   6
BYBLOCK
  62
0
 100
AcDbVertex
 100
AcDb2dVertex
  10
 0.62500000000000E-1
  20
0.0
  30
0.0
  42
 1.0000000000000
  40
 0.50000000000000
  41
 0.50000000000000
   0
SEQEND
   5
99
 100
AcDbEntity
   8
0
   6
BYBLOCK
  62
0
   0
ENDBLK
   5
9A
 100
AcDbEntity
   8
0
 100
AcDbBlockEnd
   0
BLOCK
   5
9B
 100
AcDbEntity
   8
0
 100
AcDbBlockBegin
   2
_DATUMBLANK
  70
0
  10
0.0
  20
0.0
  30
0.0
   3
_DATUMBLANK
   0
LINE
   5
9C
 100
AcDbEntity
   8
0
 100
AcDbLine
   6
BYBLOCK
  62
0
  10
0.0
  20
 0.57735027000000
  30
0.0
  11
-1.0000000000000
  21
0.0
  31
0.0
   0
LINE
   5
9D
 100
AcDbEntity
   8
0
 100
AcDbLine
   6
BYBLOCK
  62
0
  10
-1.0000000000000
  20
0.0
  30
0.0
  11
0.0
  21
-0.57735027000000
  31
0.0
   0
LINE
   5
9E
 100
AcDbEntity
   8
0
 100
AcDbLine
   6
BYBLOCK
  62
0
  10
0.0
  20
-0.57735027000000
  30
0.0
  11
0.0
  21
 0.57735027000000
  31
0.0
   0
ENDBLK
   5
9F
 100
AcDbEntity
   8
0
 100
AcDbBlockEnd
   0
BLOCK
   5
A0
 100
AcDbEntity
   8
0
 100
AcDbBlockBegin
   2
_DATUMFILLED
  70
0
  10
0.0
  20
0.0
  30
0.0
   3
_DATUMFILLED
   0
SOLID
   5
A1
 100
AcDbEntity
   8
0
 100
AcDbTrace
   6
BYBLOCK
  62
0
  10
0.0
  20
 0.57735027000000
  30
0.0
  11
-1.0000000000000
  21
0.0
  31
0.0
  12
0.0
  22
-0.57735027000000
  32
0.0
  13
0.0
  23
-0.57735027000000
  33
0.0
   0
ENDBLK
   5
A2
 100
AcDbEntity
   8
0
 100
AcDbBlockEnd
   0
BLOCK
   5
A3
 100
AcDbEntity
   8
0
 100
AcDbBlockBegin
   2
_ORIGIN
  70
0
  10
0.0
  20
0.0
  30
0.0
   3
_ORIGIN
   0
CIRCLE
   5
A4
 100
AcDbEntity
   8
0
 100
AcDbCircle
   6
BYBLOCK
  62
0
  10
0.0
  20
0.0
  30
0.0
  40
 0.50000000000000
   0
LINE
   5
A5
 100
AcDbEntity
   8
0
 100
AcDbLine
   6
BYBLOCK
  62
0
  10
0.0
  20
0.0
  30
0.0
  11
-1.0000000000000
  21
0.0
  31
0.0
   0
ENDBLK
   5
A6
 100
AcDbEntity
   8
0
 100
AcDbBlockEnd
   0
BLOCK
   5
A7
 100
AcDbEntity
   8
0
 100
AcDbBlockBegin
   2
_NONE
  70
0
  10
0.0
  20
0.0
  30
0.0
   3
_NONE
   0
CIRCLE
   5
A8
 100
AcDbEntity
   8
0
 100
AcDbCircle
   6
BYBLOCK
  62
0
  10
0.0
  20
0.0
  30
0.0
  40
 0.25000000000000
   0
ENDBLK
   5
A9
 100
AcDbEntity
   8
0
 100
AcDbBlockEnd
   0
BLOCK
   5
AA
 100
AcDbEntity
   8
0
 100
AcDbBlockBegin
   2
_DOTBLANK
  70
0
  10
0.0
  20
0.0
  30
0.0
   3
_DOTBLANK
   0
CIRCLE
   5
AB
 100
AcDbEntity
   8
0
 100
AcDbCircle
   6
BYBLOCK
  62
0
  10
0.0
  20
0.0
  30
0.0
  40
 0.50000000000000
   0
LINE
   5
AC
 100
AcDbEntity
   8
0
 100
AcDbLine
   6
BYBLOCK
  62
0
  10
-0.50000000000000
  20
0.0
  30
0.0
  11
-1.0000000000000
  21
0.0
  31
0.0
   0
ENDBLK
   5
AD
 100
AcDbEntity
   8
0
 100
AcDbBlockEnd
   0
BLOCK
   5
AE
 100
AcDbEntity
   8
0
 100
AcDbBlockBegin
   2
_INTEGRAL
  70
0
  10
0.0
  20
0.0
  30
0.0
   3
_INTEGRAL
   0
ARC
   5
AF
 100
AcDbEntity
   8
0
   6
BYBLOCK
  62
0
 100
AcDbCircle
  10
 0.44488800000000
  20
-0.91335000000000E-1
  30
0.0
  40
 0.45416700000000
 100
AcDbArc
  50
 102.00000000000
  51
 168.00000000000
   0
ARC
   5
B0
 100
AcDbEntity
   8
0
   6
BYBLOCK
  62
0
 100
AcDbCircle
  10
-0.44488800000000
  20
 0.91335000000000E-1
  30
0.0
  40
 0.45416700000000
 100
AcDbArc
  50
 282.00000000000
  51
 348.00000000000
   0
ENDBLK
   5
B1
 100
AcDbEntity
   8
0
 100
AcDbBlockEnd
   0
BLOCK
   5
B2
 100
AcDbEntity
   8
0
 100
AcDbBlockBegin
   2
BLOCK001
  70
64
  10
0.0
  20
0.0
  30
0.0
   3
BLOCK001
   0
POLYLINE
   5
B3
 100
AcDbEntity
   8
LEVEL001
   6
CONTINUOUS
  62
8
 100
AcDb2dPolyline
  66
1
  10
0.0
  20
0.0
  30
0.0
  70
0
   0
VERTEX
   5
B4
 100
AcDbEntity
   8
LEVEL001
   6
CONTINUOUS
  62
8
 100
AcDbVertex
 100
AcDb2dVertex
  10
 311.35514060924
  20
 22.336937074671
  30
0.0
   0
VERTEX
   5
B5
 100
AcDbEntity
   8
LEVEL001
   6
CONTINUOUS
  62
8
 100
AcDbVertex
 100
AcDb2dVertex
  10
 314.65181985452
  20
 27.561937074671
  30
0.0
   0
VERTEX
   5
B6
 100
AcDbEntity
   8
LEVEL001
   6
CONTINUOUS
  62
8
 100
AcDbVertex
 100
AcDb2dVertex
  10
 317.99581985452
  20
 27.561937074671
  30
0.0
   0
VERTEX
   5
B7
 100
AcDbEntity
   8
LEVEL001
   6
CONTINUOUS
  62
8
 100
AcDbVertex
 100
AcDb2dVertex
  10
 314.69914060924
  20
 22.336937074671
  30
0.0
   0
VERTEX
   5
B8
 100
AcDbEntity
   8
LEVEL001
   6
CONTINUOUS
  62
8
 100
AcDbVertex
 100
AcDb2dVertex
  10
 315.34046136396
  20
 20.026937074671
  30
0.0
   0
VERTEX
   5
B9
 100
AcDbEntity
   8
LEVEL001
   6
CONTINUOUS
  62
8
 100
AcDbVertex
 100
AcDb2dVertex
  10
 338.14781985452
  20
 20.026937074671
  30
0.0
   0
VERTEX
   5
BA
 100
AcDbEntity
   8
LEVEL001
   6
CONTINUOUS
  62
8
 100
AcDbVertex
 100
AcDb2dVertex
  10
 338.14781985452
  20
 19.674937074671
  30
0.0
   0
VERTEX
   5
BB
 100
AcDbEntity
   8
LEVEL001
   6
CONTINUOUS
  62
8
 100
AcDbVertex
 100
AcDb2dVertex
  10
 315.43818643134
  20
 19.674937074671
  30
0.0
   0
VERTEX
   5
BC
 100
AcDbEntity
   8
LEVEL001
   6
CONTINUOUS
  62
8
 100
AcDbVertex
 100
AcDb2dVertex
  10
 316.32381985452
  20
 16.484937074671
  30
0.0
   0
VERTEX
   5
BD
 100
AcDbEntity
   8
LEVEL001
   6
CONTINUOUS
  62
8
 100
AcDbVertex
 100
AcDb2dVertex
  10
 312.56181985452
  20
 16.484937074671
  30
0.0
   0
VERTEX
   5
BE
 100
AcDbEntity
   8
LEVEL001
   6
CONTINUOUS
  62
8
 100
AcDbVertex
 100
AcDb2dVertex
  10
 311.90404357420
  20
 19.674937074671
  30
0.0
   0
VERTEX
   5
BF
 100
AcDbEntity
   8
LEVEL001
   6
CONTINUOUS
  62
8
 100
AcDbVertex
 100
AcDb2dVertex
  10
 310.95332928849
  20
 19.674937074671
  30
0.0
   0
VERTEX
   5
C0
 100
AcDbEntity
   8
LEVEL001
   6
CONTINUOUS
  62
8
 100
AcDbVertex
 100
AcDb2dVertex
  10
 310.47181985452
  20
 16.484937074671
  30
0.0
   0
VERTEX
   5
C1
 100
AcDbEntity
   8
LEVEL001
   6
CONTINUOUS
  62
8
 100
AcDbVertex
 100
AcDb2dVertex
  10
 307.12781985452
  20
 16.484937074671
  30
0.0
   0
VERTEX
   5
C2
 100
AcDbEntity
   8
LEVEL001
   6
CONTINUOUS
  62
8
 100
AcDbVertex
 100
AcDb2dVertex
  10
 307.60932928849
  20
 19.674937074671
  30
0.0
   0
VERTEX
   5
C3
 100
AcDbEntity
   8
LEVEL001
   6
CONTINUOUS
  62
8
 100
AcDbVertex
 100
AcDb2dVertex
  10
 306.02781985452
  20
 19.674937074671
  30
0.0
   0
VERTEX
   5
C4
 100
AcDbEntity
   8
LEVEL001
   6
CONTINUOUS
  62
8
 100
AcDbVertex
 100
AcDb2dVertex
  10
 306.02781985452
  20
 20.026937074671
  30
0.0
   0
VERTEX
   5
C5
 100
AcDbEntity
   8
LEVEL001
   6
CONTINUOUS
  62
8
 100
AcDbVertex
 100
AcDb2dVertex
  10
 307.66246136396
  20
 20.026937074671
  30
0.0
   0
VERTEX
   5
C6
 100
AcDbEntity
   8
LEVEL001
   6
CONTINUOUS
  62
8
 100
AcDbVertex
 100
AcDb2dVertex
  10
 308.79981985452
  20
 27.561937074671
  30
0.0
   0
VERTEX
   5
C7
 100
AcDbEntity
   8
LEVEL001
   6
CONTINUOUS
  62
8
 100
AcDbVertex
 100
AcDb2dVertex
  10
 312.14381985452
  20
 27.561937074671
  30
0.0
   0
VERTEX
   5
C8
 100
AcDbEntity
   8
LEVEL001
   6
CONTINUOUS
  62
8
 100
AcDbVertex
 100
AcDb2dVertex
  10
 311.00646136396
  20
 20.026937074671
  30
0.0
   0
VERTEX
   5
C9
 100
AcDbEntity
   8
LEVEL001
   6
CONTINUOUS
  62
8
 100
AcDbVertex
 100
AcDb2dVertex
  10
 311.83146136396
  20
 20.026937074671
  30
0.0
   0
VERTEX
   5
CA
 100
AcDbEntity
   8
LEVEL001
   6
CONTINUOUS
  62
8
 100
AcDbVertex
 100
AcDb2dVertex
  10
 311.35514060924
  20
 22.336937074671
  30
0.0
   0
SEQEND
   5
CB
 100
AcDbEntity
   8
LEVEL001
   6
CONTINUOUS
  62
8
   0
ENDBLK
   5
CC
 100
AcDbEntity
   8
0
 100
AcDbBlockEnd
   0
BLOCK
   5
CD
 100
AcDbEntity
   8
0
 100
AcDbBlockBegin
   2
*D1
  70
65
  10
0.0
  20
0.0
  30
0.0
   3
*D1
   0
LINE
   5
CE
 100
AcDbEntity
   8
LEVEL001
 100
AcDbLine
   6
CONTINUOUS
  62
3
  10
 109.78601054155
  20
 206.57669095344
  30
0.0
  11
 103.96513677657
  21
 206.57669095344
  31
0.0
   0
LINE
   5
CF
 100
AcDbEntity
   8
LEVEL001
 100
AcDbLine
   6
CONTINUOUS
  62
3
  10
 115.17044637368
  20
 223.07669095344
  30
0.0
  11
 103.96513677657
  21
 223.07669095344
  31
0.0
   0
LINE
   5
D0
 100
AcDbEntity
   8
LEVEL001
 100
AcDbLine
   6
CONTINUOUS
  62
3
  10
 104.96513677657
  20
 206.57669095344
  30
0.0
  11
 104.96513677657
  21
 214.82669095344
  31
0.0
   0
LINE
   5
D1
 100
AcDbEntity
   8
LEVEL001
 100
AcDbLine
   6
CONTINUOUS
  62
3
  10
 104.96513677657
  20
 223.07669095344
  30
0.0
  11
 104.96513677657
  21
 214.82669095344
  31
0.0
   0
INSERT
   5
D2
 100
AcDbEntity
   8
LEVEL001
   6
CONTINUOUS
  62
3
 100
AcDbBlockReference
   2
_OPEN30
  10
 104.96513677657
  20
 206.57669095344
  30
0.0
  41
 3.0000000000000
  42
 3.0000000000000
  43
 3.0000000000000
  50
 270.00000000000
   0
INSERT
   5
D3
 100
AcDbEntity
   8
LEVEL001
   6
CONTINUOUS
  62
3
 100
AcDbBlockReference
   2
_OPEN30
  10
 104.96513677657
  20
 223.07669095344
  30
0.0
  41
 3.0000000000000
  42
 3.0000000000000
  43
 3.0000000000000
  50
 90.000000000000
   0
MTEXT
   5
D4
 100
AcDbEntity
   8
LEVEL001
  62
3
 100
AcDbMText
  10
 103.25085106228
  20
 214.82669095344
  30
0.0
  40
 4.0000000000000
  41
0.0
  71
8
  72
1
   1
\A1;16.5
   7
GMM001
  11
0.0
  21
 1.0000000000000
  31
0.0
   0
ENDBLK
   5
D5
 100
AcDbEntity
   8
0
 100
AcDbBlockEnd
   0
BLOCK
   5
D6
 100
AcDbEntity
   8
0
 100
AcDbBlockBegin
   2
*D2
  70
65
  10
0.0
  20
0.0
  30
0.0
   3
*D2
   0
LINE
   5
D7
 100
AcDbEntity
   8
LEVEL001
 100
AcDbLine
   6
CONTINUOUS
  62
3
  10
 126.17044637368
  20
 195.57669095344
  30
0.0
  11
 94.775756245595
  21
 195.57669095344
  31
0.0
   0
LINE
   5
D8
 100
AcDbEntity
   8
LEVEL001
 100
AcDbLine
   6
CONTINUOUS
  62
3
  10
 103.46513677657
  20
 223.07669095344
  30
0.0
  11
 94.775756245595
  21
 223.07669095344
  31
0.0
   0
LINE
   5
D9
 100
AcDbEntity
   8
LEVEL001
 100
AcDbLine
   6
CONTINUOUS
  62
3
  10
 95.775756245595
  20
 195.57669095344
  30
0.0
  11
 95.775756245595
  21
 209.32669095344
  31
0.0
   0
LINE
   5
DA
 100
AcDbEntity
   8
LEVEL001
 100
AcDbLine
   6
CONTINUOUS
  62
3
  10
 95.775756245595
  20
 223.07669095344
  30
0.0
  11
 95.775756245595
  21
 209.32669095344
  31
0.0
   0
INSERT
   5
DB
 100
AcDbEntity
   8
LEVEL001
   6
CONTINUOUS
  62
3
 100
AcDbBlockReference
   2
_OPEN30
  10
 95.775756245595
  20
 195.57669095344
  30
0.0
  41
 3.0000000000000
  42
 3.0000000000000
  43
 3.0000000000000
  50
 270.00000000000
   0
INSERT
   5
DC
 100
AcDbEntity
   8
LEVEL001
   6
CONTINUOUS
  62
3
 100
AcDbBlockReference
   2
_OPEN30
  10
 95.775756245595
  20
 223.07669095344
  30
0.0
  41
 3.0000000000000
  42
 3.0000000000000
  43
 3.0000000000000
  50
 90.000000000000
   0
MTEXT
   5
DD
 100
AcDbEntity
   8
LEVEL001
  62
3
 100
AcDbMText
  10
 94.061470531310
  20
 209.32669095344
  30
0.0
  40
 4.0000000000000
  41
0.0
  71
8
  72
1
   1
\A1;27.5
   7
GMM001
  11
0.0
  21
 1.0000000000000
  31
0.0
   0
ENDBLK
   5
DE
 100
AcDbEntity
   8
0
 100
AcDbBlockEnd
   0
BLOCK
   5
DF
 100
AcDbEntity
   8
0
 100
AcDbBlockBegin
   2
*D3
  70
65
  10
0.0
  20
0.0
  30
0.0
   3
*D3
   0
LINE
   5
E0
 100
AcDbEntity
   8
LEVEL001
 100
AcDbLine
   6
CONTINUOUS
  62
3
  10
 126.67044637368
  20
 229.45085893346
  30
0.0
  11
 126.67044637368
  21
 242.87091194665
  31
0.0
   0
LINE
   5
E1
 100
AcDbEntity
   8
LEVEL001
 100
AcDbLine
   6
CONTINUOUS
  62
3
  10
 241.67044637368
  20
 223.57669095344
  30
0.0
  11
 241.67044637368
  21
 242.87091194665
  31
0.0
   0
LINE
   5
E2
 100
AcDbEntity
   8
LEVEL001
 100
AcDbLine
   6
CONTINUOUS
  62
3
  10
 126.67044637368
  20
 241.87091194665
  30
0.0
  11
 184.17044637368
  21
 241.87091194665
  31
0.0
   0
LINE
   5
E3
 100
AcDbEntity
   8
LEVEL001
 100
AcDbLine
   6
CONTINUOUS
  62
3
  10
 241.67044637368
  20
 241.87091194665
  30
0.0
  11
 184.17044637368
  21
 241.87091194665
  31
0.0
   0
INSERT
   5
E4
 100
AcDbEntity
   8
LEVEL001
   6
CONTINUOUS
  62
3
 100
AcDbBlockReference
   2
_OPEN30
  10
 126.67044637368
  20
 241.87091194665
  30
0.0
  41
 3.0000000000000
  42
 3.0000000000000
  43
 3.0000000000000
  50
 180.00000000000
   0
INSERT
   5
E5
 100
AcDbEntity
   8
LEVEL001
   6
CONTINUOUS
  62
3
 100
AcDbBlockReference
   2
_OPEN30
  10
 241.67044637368
  20
 241.87091194665
  30
0.0
  41
 3.0000000000000
  42
 3.0000000000000
  43
 3.0000000000000
  50
0.0
   0
MTEXT
   5
E6
 100
AcDbEntity
   8
LEVEL001
  62
3
 100
AcDbMText
  10
 184.17044637368
  20
 243.58519766093
  30
0.0
  40
 4.0000000000000
  41
0.0
  71
8
  72
1
   1
\A1;115
   7
GMM001
   0
ENDBLK
   5
E7
 100
AcDbEntity
   8
0
 100
AcDbBlockEnd
   0
BLOCK
   5
E8
 100
AcDbEntity
   8
0
 100
AcDbBlockBegin
   2
*D4
  70
65
  10
0.0
  20
0.0
  30
0.0
   3
*D4
   0
LINE
   5
E9
 100
AcDbEntity
   8
LEVEL001
 100
AcDbLine
   6
CONTINUOUS
  62
3
  10
 242.17044637368
  20
 223.07669095344
  30
0.0
  11
 256.38658781741
  21
 223.07669095344
  31
0.0
   0
LINE
   5
EA
 100
AcDbEntity
   8
LEVEL001
 100
AcDbLine
   6
CONTINUOUS
  62
3
  10
 242.17044637368
  20
 221.07669095344
  30
0.0
  11
 256.38658781741
  21
 221.07669095344
  31
0.0
   0
LINE
   5
EB
 100
AcDbEntity
   8
LEVEL001
 100
AcDbLine
   6
CONTINUOUS
  62
3
  10
 255.38658781741
  20
 226.82669095344
  30
0.0
  11
 255.38658781741
  21
 222.07669095344
  31
0.0
   0
LINE
   5
EC
 100
AcDbEntity
   8
LEVEL001
 100
AcDbLine
   6
CONTINUOUS
  62
3
  10
 255.38658781741
  20
 214.05427207438
  30
0.0
  11
 255.38658781741
  21
 222.07669095344
  31
0.0
   0
INSERT
   5
ED
 100
AcDbEntity
   8
LEVEL001
   6
CONTINUOUS
  62
3
 100
AcDbBlockReference
   2
_OPEN30
  10
 255.38658781741
  20
 223.07669095344
  30
0.0
  41
 3.0000000000000
  42
 3.0000000000000
  43
 3.0000000000000
  50
 270.00000000000
   0
INSERT
   5
EE
 100
AcDbEntity
   8
LEVEL001
   6
CONTINUOUS
  62
3
 100
AcDbBlockReference
   2
_OPEN30
  10
 255.38658781741
  20
 221.07669095344
  30
0.0
  41
 3.0000000000000
  42
 3.0000000000000
  43
 3.0000000000000
  50
 90.000000000000
   0
MTEXT
   5
EF
 100
AcDbEntity
   8
LEVEL001
  62
3
 100
AcDbMText
  10
 253.67230210312
  20
 216.05427207438
  30
0.0
  40
 4.0000000000000
  41
0.0
  71
8
  72
1
   1
\A1;2
   7
GMM001
  11
0.0
  21
 1.0000000000000
  31
0.0
   0
ENDBLK
   5
F0
 100
AcDbEntity
   8
0
 100
AcDbBlockEnd
   0
BLOCK
   5
F1
 100
AcDbEntity
   8
0
 100
AcDbBlockBegin
   2
*D5
  70
65
  10
0.0
  20
0.0
  30
0.0
   3
*D5
   0
LINE
   5
F2
 100
AcDbEntity
   8
LEVEL001
 100
AcDbLine
   6
CONTINUOUS
  62
3
  10
 240.59525729210
  20
 148.06979312695
  30
0.0
  11
 256.38658781741
  21
 148.06979312695
  31
0.0
   0
LINE
   5
F3
 100
AcDbEntity
   8
LEVEL001
 100
AcDbLine
   6
CONTINUOUS
  62
3
  10
 240.59525729210
  20
 169.06979312695
  30
0.0
  11
 256.38658781741
  21
 169.06979312695
  31
0.0
   0
LINE
   5
F4
 100
AcDbEntity
   8
LEVEL001
 100
AcDbLine
   6
CONTINUOUS
  62
3
  10
 255.38658781741
  20
 148.06979312695
  30
0.0
  11
 255.38658781741
  21
 158.56979312695
  31
0.0
   0
LINE
   5
F5
 100
AcDbEntity
   8
LEVEL001
 100
AcDbLine
   6
CONTINUOUS
  62
3
  10
 255.38658781741
  20
 169.06979312695
  30
0.0
  11
 255.38658781741
  21
 158.56979312695
  31
0.0
   0
INSERT
   5
F6
 100
AcDbEntity
   8
LEVEL001
   6
CONTINUOUS
  62
3
 100
AcDbBlockReference
   2
_OPEN30
  10
 255.38658781741
  20
 148.06979312695
  30
0.0
  41
 3.0000000000000
  42
 3.0000000000000
  43
 3.0000000000000
  50
 270.00000000000
   0
INSERT
   5
F7
 100
AcDbEntity
   8
LEVEL001
   6
CONTINUOUS
  62
3
 100
AcDbBlockReference
   2
_OPEN30
  10
 255.38658781741
  20
 169.06979312695
  30
0.0
  41
 3.0000000000000
  42
 3.0000000000000
  43
 3.0000000000000
  50
 90.000000000000
   0
MTEXT
   5
F8
 100
AcDbEntity
   8
LEVEL001
  62
3
 100
AcDbMText
  10
 253.67230210312
  20
 158.56979312695
  30
0.0
  40
 4.0000000000000
  41
0.0
  71
8
  72
1
   1
\A1;21
   7
GMM001
  11
0.0
  21
 1.0000000000000
  31
0.0
   0
ENDBLK
   5
F9
 100
AcDbEntity
   8
0
 100
AcDbBlockEnd
   0
BLOCK
   5
FA
 100
AcDbEntity
   8
0
 100
AcDbBlockBegin
   2
*D6
  70
65
  10
0.0
  20
0.0
  30
0.0
   3
*D6
   0
LINE
   5
FB
 100
AcDbEntity
   8
LEVEL001
 100
AcDbLine
   6
CONTINUOUS
  62
3
  10
 218.67044637368
  20
 176.36352621984
  30
0.0
  11
 218.67044637368
  21
 189.81571634952
  31
0.0
   0
LINE
   5
FC
 100
AcDbEntity
   8
LEVEL001
 100
AcDbLine
   6
CONTINUOUS
  62
3
  10
 233.67044637368
  20
 176.36352621984
  30
0.0
  11
 233.67044637368
  21
 189.81571634952
  31
0.0
   0
LINE
   5
FD
 100
AcDbEntity
   8
LEVEL001
 100
AcDbLine
   6
CONTINUOUS
  62
3
  10
 218.67044637368
  20
 188.81571634952
  30
0.0
  11
 226.17044637368
  21
 188.81571634952
  31
0.0
   0
LINE
   5
FE
 100
AcDbEntity
   8
LEVEL001
 100
AcDbLine
   6
CONTINUOUS
  62
3
  10
 233.67044637368
  20
 188.81571634952
  30
0.0
  11
 226.17044637368
  21
 188.81571634952
  31
0.0
   0
INSERT
   5
FF
 100
AcDbEntity
   8
LEVEL001
   6
CONTINUOUS
  62
3
 100
AcDbBlockReference
   2
_OPEN30
  10
 218.67044637368
  20
 188.81571634952
  30
0.0
  41
 3.0000000000000
  42
 3.0000000000000
  43
 3.0000000000000
  50
 180.00000000000
   0
INSERT
   5
100
 100
AcDbEntity
   8
LEVEL001
   6
CONTINUOUS
  62
3
 100
AcDbBlockReference
   2
_OPEN30
  10
 233.67044637368
  20
 188.81571634952
  30
0.0
  41
 3.0000000000000
  42
 3.0000000000000
  43
 3.0000000000000
  50
0.0
   0
MTEXT
   5
101
 100
AcDbEntity
   8
LEVEL001
  62
3
 100
AcDbMText
  10
 226.17044637368
  20
 190.53000206381
  30
0.0
  40
 4.0000000000000
  41
0.0
  71
8
  72
1
   1
\A1;15
   7
GMM001
   0
ENDBLK
   5
102
 100
AcDbEntity
   8
0
 100
AcDbBlockEnd
   0
BLOCK
   5
103
 100
AcDbEntity
   8
0
 100
AcDbBlockBegin
   2
*D7
  70
65
  10
0.0
  20
0.0
  30
0.0
   3
*D7
   0
LINE
   5
104
 100
AcDbEntity
   8
LEVEL001
 100
AcDbLine
   6
CONTINUOUS
  62
3
  10
 242.17044637368
  20
 178.56979312695
  30
0.0
  11
 256.38658781741
  21
 178.56979312695
  31
0.0
   0
LINE
   5
105
 100
AcDbEntity
   8
LEVEL001
 100
AcDbLine
   6
CONTINUOUS
  62
3
  10
 255.38658781741
  20
 178.56979312695
  30
0.0
  11
 255.38658781741
  21
 173.81979312695
  31
0.0
   0
LINE
   5
106
 100
AcDbEntity
   8
LEVEL001
 100
AcDbLine
   6
CONTINUOUS
  62
3
  10
 255.38658781741
  20
 169.06979312695
  30
0.0
  11
 255.38658781741
  21
 173.81979312695
  31
0.0
   0
INSERT
   5
107
 100
AcDbEntity
   8
LEVEL001
   6
CONTINUOUS
  62
3
 100
AcDbBlockReference
   2
_OPEN30
  10
 255.38658781741
  20
 178.56979312695
  30
0.0
  41
 3.0000000000000
  42
 3.0000000000000
  43
 3.0000000000000
  50
 90.000000000000
   0
INSERT
   5
108
 100
AcDbEntity
   8
LEVEL001
   6
CONTINUOUS
  62
3
 100
AcDbBlockReference
   2
_OPEN30
  10
 255.38658781741
  20
 169.06979312695
  30
0.0
  41
 3.0000000000000
  42
 3.0000000000000
  43
 3.0000000000000
  50
 270.00000000000
   0
MTEXT
   5
109
 100
AcDbEntity
   8
LEVEL001
  62
3
 100
AcDbMText
  10
 253.67230210312
  20
 173.81979312695
  30
0.0
  40
 4.0000000000000
  41
0.0
  71
8
  72
1
   1
\A1;9.5
   7
GMM001
  11
0.0
  21
 1.0000000000000
  31
0.0
   0
ENDBLK
   5
10A
 100
AcDbEntity
   8
0
 100
AcDbBlockEnd
   0
BLOCK
   5
10B
 100
AcDbEntity
   8
0
 100
AcDbBlockBegin
   2
*D8
  70
65
  10
0.0
  20
0.0
  30
0.0
   3
*D8
   0
LINE
   5
10C
 100
AcDbEntity
   8
LEVEL001
 100
AcDbLine
   6
CONTINUOUS
  62
3
  10
 242.17044637368
  20
 138.56979312695
  30
0.0
  11
 256.38658781741
  21
 138.56979312695
  31
0.0
   0
LINE
   5
10D
 100
AcDbEntity
   8
LEVEL001
 100
AcDbLine
   6
CONTINUOUS
  62
3
  10
 255.38658781741
  20
 138.56979312695
  30
0.0
  11
 255.38658781741
  21
 143.31979312695
  31
0.0
   0
LINE
   5
10E
 100
AcDbEntity
   8
LEVEL001
 100
AcDbLine
   6
CONTINUOUS
  62
3
  10
 255.38658781741
  20
 148.06979312695
  30
0.0
  11
 255.38658781741
  21
 143.31979312695
  31
0.0
   0
INSERT
   5
10F
 100
AcDbEntity
   8
LEVEL001
   6
CONTINUOUS
  62
3
 100
AcDbBlockReference
   2
_OPEN30
  10
 255.38658781741
  20
 138.56979312695
  30
0.0
  41
 3.0000000000000
  42
 3.0000000000000
  43
 3.0000000000000
  50
 270.00000000000
   0
INSERT
   5
110
 100
AcDbEntity
   8
LEVEL001
   6
CONTINUOUS
  62
3
 100
AcDbBlockReference
   2
_OPEN30
  10
 255.38658781741
  20
 148.06979312695
  30
0.0
  41
 3.0000000000000
  42
 3.0000000000000
  43
 3.0000000000000
  50
 90.000000000000
   0
MTEXT
   5
111
 100
AcDbEntity
   8
LEVEL001
  62
3
 100
AcDbMText
  10
 253.67230210312
  20
 143.31979312695
  30
0.0
  40
 4.0000000000000
  41
0.0
  71
8
  72
1
   1
\A1;9.5
   7
GMM001
  11
0.0
  21
 1.0000000000000
  31
0.0
   0
ENDBLK
   5
112
 100
AcDbEntity
   8
0
 100
AcDbBlockEnd
   0
BLOCK
   5
113
 100
AcDbEntity
   8
0
 100
AcDbBlockBegin
   2
*D9
  70
65
  10
0.0
  20
0.0
  30
0.0
   3
*D9
   0
LINE
   5
114
 100
AcDbEntity
   8
LEVEL001
 100
AcDbLine
   6
CONTINUOUS
  62
3
  10
 256.88658781741
  20
 178.56979312695
  30
0.0
  11
 267.36834841359
  21
 178.56979312695
  31
0.0
   0
LINE
   5
115
 100
AcDbEntity
   8
LEVEL001
 100
AcDbLine
   6
CONTINUOUS
  62
3
  10
 256.88658781741
  20
 138.56979312695
  30
0.0
  11
 267.36834841359
  21
 138.56979312695
  31
0.0
   0
LINE
   5
116
 100
AcDbEntity
   8
LEVEL001
 100
AcDbLine
   6
CONTINUOUS
  62
3
  10
 266.36834841359
  20
 178.56979312695
  30
0.0
  11
 266.36834841359
  21
 158.56979312695
  31
0.0
   0
LINE
   5
117
 100
AcDbEntity
   8
LEVEL001
 100
AcDbLine
   6
CONTINUOUS
  62
3
  10
 266.36834841359
  20
 138.56979312695
  30
0.0
  11
 266.36834841359
  21
 158.56979312695
  31
0.0
   0
INSERT
   5
118
 100
AcDbEntity
   8
LEVEL001
   6
CONTINUOUS
  62
3
 100
AcDbBlockReference
   2
_OPEN30
  10
 266.36834841359
  20
 178.56979312695
  30
0.0
  41
 3.0000000000000
  42
 3.0000000000000
  43
 3.0000000000000
  50
 90.000000000000
   0
INSERT
   5
119
 100
AcDbEntity
   8
LEVEL001
   6
CONTINUOUS
  62
3
 100
AcDbBlockReference
   2
_OPEN30
  10
 266.36834841359
  20
 138.56979312695
  30
0.0
  41
 3.0000000000000
  42
 3.0000000000000
  43
 3.0000000000000
  50
 270.00000000000
   0
MTEXT
   5
11A
 100
AcDbEntity
   8
LEVEL001
  62
3
 100
AcDbMText
  10
 264.65406269931
  20
 158.56979312695
  30
0.0
  40
 4.0000000000000
  41
0.0
  71
8
  72
1
   1
\A1;40
   7
GMM001
  11
0.0
  21
 1.0000000000000
  31
0.0
   0
ENDBLK
   5
11B
 100
AcDbEntity
   8
0
 100
AcDbBlockEnd
   0
BLOCK
   5
11C
 100
AcDbEntity
   8
0
 100
AcDbBlockBegin
   2
*D10
  70
65
  10
0.0
  20
0.0
  30
0.0
   3
*D10
   0
LINE
   5
11D
 100
AcDbEntity
   8
LEVEL001
 100
AcDbLine
   6
CONTINUOUS
  62
3
  10
 241.67044637368
  20
 179.06979312695
  30
0.0
  11
 241.67044637368
  21
 189.81571634952
  31
0.0
   0
LINE
   5
11E
 100
AcDbEntity
   8
LEVEL001
 100
AcDbLine
   6
CONTINUOUS
  62
3
  10
 233.67044637368
  20
 188.81571634952
  30
0.0
  11
 237.67044637368
  21
 188.81571634952
  31
0.0
   0
LINE
   5
11F
 100
AcDbEntity
   8
LEVEL001
 100
AcDbLine
   6
CONTINUOUS
  62
3
  10
 241.67044637368
  20
 188.81571634952
  30
0.0
  11
 237.67044637368
  21
 188.81571634952
  31
0.0
   0
INSERT
   5
120
 100
AcDbEntity
   8
LEVEL001
   6
CONTINUOUS
  62
3
 100
AcDbBlockReference
   2
_OPEN30
  10
 233.67044637368
  20
 188.81571634952
  30
0.0
  41
 3.0000000000000
  42
 3.0000000000000
  43
 3.0000000000000
  50
 180.00000000000
   0
INSERT
   5
121
 100
AcDbEntity
   8
LEVEL001
   6
CONTINUOUS
  62
3
 100
AcDbBlockReference
   2
_OPEN30
  10
 241.67044637368
  20
 188.81571634952
  30
0.0
  41
 3.0000000000000
  42
 3.0000000000000
  43
 3.0000000000000
  50
0.0
   0
MTEXT
   5
122
 100
AcDbEntity
   8
LEVEL001
  62
3
 100
AcDbMText
  10
 237.67044637368
  20
 190.53000206381
  30
0.0
  40
 4.0000000000000
  41
0.0
  71
8
  72
1
   1
\A1;8
   7
GMM001
   0
ENDBLK
   5
123
 100
AcDbEntity
   8
0
 100
AcDbBlockEnd
   0
BLOCK
   5
124
 100
AcDbEntity
   8
0
 100
AcDbBlockBegin
   2
*D11
  70
65
  10
0.0
  20
0.0
  30
0.0
   3
*D11
   0
LINE
   5
125
 100
AcDbEntity
   8
LEVEL001
 100
AcDbLine
   6
CONTINUOUS
  62
3
  10
 216.67044637368
  20
 190.31571634952
  30
0.0
  11
 216.67044637368
  21
 199.64475415559
  31
0.0
   0
LINE
   5
126
 100
AcDbEntity
   8
LEVEL001
 100
AcDbLine
   6
CONTINUOUS
  62
3
  10
 241.67044637368
  20
 190.31571634952
  30
0.0
  11
 241.67044637368
  21
 199.64475415559
  31
0.0
   0
LINE
   5
127
 100
AcDbEntity
   8
LEVEL001
 100
AcDbLine
   6
CONTINUOUS
  62
3
  10
 216.67044637368
  20
 198.64475415559
  30
0.0
  11
 229.17044637368
  21
 198.64475415559
  31
0.0
   0
LINE
   5
128
 100
AcDbEntity
   8
LEVEL001
 100
AcDbLine
   6
CONTINUOUS
  62
3
  10
 241.67044637368
  20
 198.64475415559
  30
0.0
  11
 229.17044637368
  21
 198.64475415559
  31
0.0
   0
INSERT
   5
129
 100
AcDbEntity
   8
LEVEL001
   6
CONTINUOUS
  62
3
 100
AcDbBlockReference
   2
_OPEN30
  10
 216.67044637368
  20
 198.64475415559
  30
0.0
  41
 3.0000000000000
  42
 3.0000000000000
  43
 3.0000000000000
  50
 180.00000000000
   0
INSERT
   5
12A
 100
AcDbEntity
   8
LEVEL001
   6
CONTINUOUS
  62
3
 100
AcDbBlockReference
   2
_OPEN30
  10
 241.67044637368
  20
 198.64475415559
  30
0.0
  41
 3.0000000000000
  42
 3.0000000000000
  43
 3.0000000000000
  50
0.0
   0
MTEXT
   5
12B
 100
AcDbEntity
   8
LEVEL001
  62
3
 100
AcDbMText
  10
 229.17044637368
  20
 200.35903986987
  30
0.0
  40
 4.0000000000000
  41
0.0
  71
8
  72
1
   1
\A1;25
   7
GMM001
   0
ENDBLK
   5
12C
 100
AcDbEntity
   8
0
 100
AcDbBlockEnd
   0
BLOCK
   5
12D
 100
AcDbEntity
   8
0
 100
AcDbBlockBegin
   2
*D12
  70
65
  10
0.0
  20
0.0
  30
0.0
   3
*D12
   0
LINE
   5
12E
 100
AcDbEntity
   8
LEVEL001
 100
AcDbLine
   6
CONTINUOUS
  62
3
  10
 216.67044637368
  20
 179.06979312695
  30
0.0
  11
 216.67044637368
  21
 189.81571634952
  31
0.0
   0
LINE
   5
12F
 100
AcDbEntity
   8
LEVEL001
 100
AcDbLine
   6
CONTINUOUS
  62
3
  10
 207.41557911704
  20
 188.81571634952
  30
0.0
  11
 217.67044637368
  21
 188.81571634952
  31
0.0
   0
LINE
   5
130
 100
AcDbEntity
   8
LEVEL001
 100
AcDbLine
   6
CONTINUOUS
  62
3
  10
 222.42044637368
  20
 188.81571634952
  30
0.0
  11
 217.67044637368
  21
 188.81571634952
  31
0.0
   0
INSERT
   5
131
 100
AcDbEntity
   8
LEVEL001
   6
CONTINUOUS
  62
3
 100
AcDbBlockReference
   2
_OPEN30
  10
 216.67044637368
  20
 188.81571634952
  30
0.0
  41
 3.0000000000000
  42
 3.0000000000000
  43
 3.0000000000000
  50
0.0
   0
INSERT
   5
132
 100
AcDbEntity
   8
LEVEL001
   6
CONTINUOUS
  62
3
 100
AcDbBlockReference
   2
_OPEN30
  10
 218.67044637368
  20
 188.81571634952
  30
0.0
  41
 3.0000000000000
  42
 3.0000000000000
  43
 3.0000000000000
  50
 180.00000000000
   0
MTEXT
   5
133
 100
AcDbEntity
   8
LEVEL001
  62
3
 100
AcDbMText
  10
 209.41557911704
  20
 190.53000206381
  30
0.0
  40
 4.0000000000000
  41
0.0
  71
8
  72
1
   1
\A1;2
   7
GMM001
   0
ENDBLK
   5
134
 100
AcDbEntity
   8
0
 100
AcDbBlockEnd
   0
BLOCK
   5
135
 100
AcDbEntity
   8
0
 100
AcDbBlockBegin
   2
*D13
  70
65
  10
0.0
  20
0.0
  30
0.0
   3
*D13
   0
LINE
   5
136
 100
AcDbEntity
   8
LEVEL001
 100
AcDbLine
   6
CONTINUOUS
  62
3
  10
 138.17044637368
  20
 73.569793126952
  30
0.0
  11
 279.90548717609
  21
 73.569793126952
  31
0.0
   0
LINE
   5
137
 100
AcDbEntity
   8
LEVEL001
 100
AcDbLine
   6
CONTINUOUS
  62
3
  10
 267.86834841359
  20
 178.56979312695
  30
0.0
  11
 279.90548717609
  21
 178.56979312695
  31
0.0
   0
LINE
   5
138
 100
AcDbEntity
   8
LEVEL001
 100
AcDbLine
   6
CONTINUOUS
  62
3
  10
 278.90548717609
  20
 73.569793126952
  30
0.0
  11
 278.90548717609
  21
 126.06979312695
  31
0.0
   0
LINE
   5
139
 100
AcDbEntity
   8
LEVEL001
 100
AcDbLine
   6
CONTINUOUS
  62
3
  10
 278.90548717609
  20
 178.56979312695
  30
0.0
  11
 278.90548717609
  21
 126.06979312695
  31
0.0
   0
INSERT
   5
13A
 100
AcDbEntity
   8
LEVEL001
   6
CONTINUOUS
  62
3
 100
AcDbBlockReference
   2
_OPEN30
  10
 278.90548717609
  20
 73.569793126952
  30
0.0
  41
 3.0000000000000
  42
 3.0000000000000
  43
 3.0000000000000
  50
 270.00000000000
   0
INSERT
   5
13B
 100
AcDbEntity
   8
LEVEL001
   6
CONTINUOUS
  62
3
 100
AcDbBlockReference
   2
_OPEN30
  10
 278.90548717609
  20
 178.56979312695
  30
0.0
  41
 3.0000000000000
  42
 3.0000000000000
  43
 3.0000000000000
  50
 90.000000000000
   0
MTEXT
   5
13C
 100
AcDbEntity
   8
LEVEL001
  62
3
 100
AcDbMText
  10
 277.19120146180
  20
 126.06979312695
  30
0.0
  40
 4.0000000000000
  41
0.0
  71
8
  72
1
   1
\A1;105
   7
GMM001
  11
0.0
  21
 1.0000000000000
  31
0.0
   0
ENDBLK
   5
13D
 100
AcDbEntity
   8
0
 100
AcDbBlockEnd
   0
BLOCK
   5
13E
 100
AcDbEntity
   8
0
 100
AcDbBlockBegin
   2
*D14
  70
65
  10
0.0
  20
0.0
  30
0.0
   3
*D14
   0
LINE
   5
13F
 100
AcDbEntity
   8
LEVEL001
 100
AcDbLine
   6
CONTINUOUS
  62
3
  10
 115.17044637368
  20
 73.569793126952
  30
0.0
  11
 103.96513677657
  21
 73.569793126952
  31
0.0
   0
LINE
   5
140
 100
AcDbEntity
   8
LEVEL001
 100
AcDbLine
   6
CONTINUOUS
  62
3
  10
 117.17044637368
  20
 86.569793126952
  30
0.0
  11
 103.96513677657
  21
 86.569793126952
  31
0.0
   0
LINE
   5
141
 100
AcDbEntity
   8
LEVEL001
 100
AcDbLine
   6
CONTINUOUS
  62
3
  10
 104.96513677657
  20
 73.569793126952
  30
0.0
  11
 104.96513677657
  21
 80.069793126952
  31
0.0
   0
LINE
   5
142
 100
AcDbEntity
   8
LEVEL001
 100
AcDbLine
   6
CONTINUOUS
  62
3
  10
 104.96513677657
  20
 86.569793126952
  30
0.0
  11
 104.96513677657
  21
 80.069793126952
  31
0.0
   0
INSERT
   5
143
 100
AcDbEntity
   8
LEVEL001
   6
CONTINUOUS
  62
3
 100
AcDbBlockReference
   2
_OPEN30
  10
 104.96513677657
  20
 73.569793126952
  30
0.0
  41
 3.0000000000000
  42
 3.0000000000000
  43
 3.0000000000000
  50
 270.00000000000
   0
INSERT
   5
144
 100
AcDbEntity
   8
LEVEL001
   6
CONTINUOUS
  62
3
 100
AcDbBlockReference
   2
_OPEN30
  10
 104.96513677657
  20
 86.569793126952
  30
0.0
  41
 3.0000000000000
  42
 3.0000000000000
  43
 3.0000000000000
  50
 90.000000000000
   0
MTEXT
   5
145
 100
AcDbEntity
   8
LEVEL001
  62
3
 100
AcDbMText
  10
 103.25085106228
  20
 80.069793126952
  30
0.0
  40
 4.0000000000000
  41
0.0
  71
8
  72
1
   1
\A1;13
   7
GMM001
  11
0.0
  21
 1.0000000000000
  31
0.0
   0
ENDBLK
   5
146
 100
AcDbEntity
   8
0
 100
AcDbBlockEnd
   0
BLOCK
   5
147
 100
AcDbEntity
   8
0
 100
AcDbBlockBegin
   2
*D15
  70
65
  10
0.0
  20
0.0
  30
0.0
   3
*D15
   0
LINE
   5
148
 100
AcDbEntity
   8
LEVEL001
 100
AcDbLine
   6
CONTINUOUS
  62
3
  10
 115.67044637368
  20
 73.069793126952
  30
0.0
  11
 115.67044637368
  21
 57.254876423297
  31
0.0
   0
LINE
   5
149
 100
AcDbEntity
   8
LEVEL001
 100
AcDbLine
   6
CONTINUOUS
  62
3
  10
 137.67044637368
  20
 73.069793126952
  30
0.0
  11
 137.67044637368
  21
 57.254876423297
  31
0.0
   0
LINE
   5
14A
 100
AcDbEntity
   8
LEVEL001
 100
AcDbLine
   6
CONTINUOUS
  62
3
  10
 115.67044637368
  20
 58.254876423297
  30
0.0
  11
 126.67044637368
  21
 58.254876423297
  31
0.0
   0
LINE
   5
14B
 100
AcDbEntity
   8
LEVEL001
 100
AcDbLine
   6
CONTINUOUS
  62
3
  10
 137.67044637368
  20
 58.254876423297
  30
0.0
  11
 126.67044637368
  21
 58.254876423297
  31
0.0
   0
INSERT
   5
14C
 100
AcDbEntity
   8
LEVEL001
   6
CONTINUOUS
  62
3
 100
AcDbBlockReference
   2
_OPEN30
  10
 115.67044637368
  20
 58.254876423297
  30
0.0
  41
 3.0000000000000
  42
 3.0000000000000
  43
 3.0000000000000
  50
 180.00000000000
   0
INSERT
   5
14D
 100
AcDbEntity
   8
LEVEL001
   6
CONTINUOUS
  62
3
 100
AcDbBlockReference
   2
_OPEN30
  10
 137.67044637368
  20
 58.254876423297
  30
0.0
  41
 3.0000000000000
  42
 3.0000000000000
  43
 3.0000000000000
  50
0.0
   0
MTEXT
   5
14E
 100
AcDbEntity
   8
LEVEL001
  62
3
 100
AcDbMText
  10
 126.67044637368
  20
 59.969162137583
  30
0.0
  40
 4.0000000000000
  41
0.0
  71
8
  72
1
   1
\A1;%%c22
   7
GMM001
   0
ENDBLK
   5
14F
 100
AcDbEntity
   8
0
 100
AcDbBlockEnd
   0
BLOCK
   5
150
 100
AcDbEntity
   8
0
 100
AcDbBlockBegin
   2
*D16
  70
65
  10
0.0
  20
0.0
  30
0.0
   3
*D16
   0
POLYLINE
   5
151
 100
AcDbEntity
   8
LEVEL001
   6
CONTINUOUS
  62
3
 100
AcDb2dPolyline
  66
1
  10
0.0
  20
0.0
  30
0.0
  70
0
   0
VERTEX
   5
152
 100
AcDbEntity
   8
LEVEL001
   6
CONTINUOUS
  62
3
 100
AcDbVertex
 100
AcDb2dVertex
  10
 233.67044637368
  20
 169.06979312695
  30
0.0
   0
VERTEX
   5
153
 100
AcDbEntity
   8
LEVEL001
   6
CONTINUOUS
  62
3
 100
AcDbVertex
 100
AcDb2dVertex
  10
 247.92659283335
  20
 189.80289230875
  30
0.0
   0
VERTEX
   5
154
 100
AcDbEntity
   8
LEVEL001
   6
CONTINUOUS
  62
3
 100
AcDbVertex
 100
AcDb2dVertex
  10
 293.92659283335
  20
 189.80289230875
  30
0.0
   0
SEQEND
   5
155
 100
AcDbEntity
   8
LEVEL001
   6
CONTINUOUS
  62
3
   0
INSERT
   5
156
 100
AcDbEntity
   8
LEVEL001
   6
CONTINUOUS
  62
3
 100
AcDbBlockReference
   2
_OPEN30
  10
 233.67044637368
  20
 169.06979312695
  30
0.0
  41
 3.0000000000000
  42
 3.0000000000000
  43
 3.0000000000000
  50
 235.48745996877
   0
MTEXT
   5
157
 100
AcDbEntity
   8
LEVEL001
  62
3
 100
AcDbMText
  10
 247.92659283335
  20
 191.51717802303
  30
0.0
  40
 4.0000000000000
  41
0.0
  71
7
  72
1
   1
\A1;４－%%c４.５穴 %%c８.５皿
   7
GMM001
   0
ENDBLK
   5
158
 100
AcDbEntity
   8
0
 100
AcDbBlockEnd
   0
ENDSEC
   0
SECTION
   2
ENTITIES
   0
POLYLINE
   5
159
 100
AcDbEntity
   8
LEVEL001
   6
CONTINUOUS
  62
3
 100
AcDb2dPolyline
  66
1
  10
0.0
  20
0.0
  30
0.0
  70
0
   0
VERTEX
   5
15A
 100
AcDbEntity
   8
LEVEL001
   6
CONTINUOUS
  62
3
 100
AcDbVertex
 100
AcDb2dVertex
  10
 17.775807895679
  20
 14.458513339552
  30
0.0
   0
VERTEX
   5
15B
 100
AcDbEntity
   8
LEVEL001
   6
CONTINUOUS
  62
3
 100
AcDbVertex
 100
AcDb2dVertex
  10
 17.775807895679
  20
 281.33503067545
  30
0.0
   0
VERTEX
   5
15C
 100
AcDbEntity
   8
LEVEL001
   6
CONTINUOUS
  62
3
 100
AcDbVertex
 100
AcDb2dVertex
  10
 405.77580789568
  20
 281.33503067545
  30
0.0
   0
VERTEX
   5
15D
 100
AcDbEntity
   8
LEVEL001
   6
CONTINUOUS
  62
3
 100
AcDbVertex
 100
AcDb2dVertex
  10
 405.77580789568
  20
 14.458513339552
  30
0.0
   0
VERTEX
   5
15E
 100
AcDbEntity
   8
LEVEL001
   6
CONTINUOUS
  62
3
 100
AcDbVertex
 100
AcDb2dVertex
  10
 17.775807895679
  20
 14.458513339552
  30
0.0
   0
SEQEND
   5
15F
 100
AcDbEntity
   8
LEVEL001
   6
CONTINUOUS
  62
3
   0
LINE
   5
160
 100
AcDbEntity
   8
LEVEL001
 100
AcDbLine
   6
CONTINUOUS
  62
3
  10
 395.77580789568
  20
 24.458513339552
  30
0.0
  11
 405.77580789568
  21
 24.458513339552
  31
0.0
   0
LINE
   5
161
 100
AcDbEntity
   8
LEVEL001
 100
AcDbLine
   6
CONTINUOUS
  62
3
  10
 395.77580789568
  20
 19.458513339552
  30
0.0
  11
 405.77580789568
  21
 19.458513339552
  31
0.0
   0
LINE
   5
162
 100
AcDbEntity
   8
LEVEL001
 100
AcDbLine
   6
CONTINUOUS
  62
3
  10
 400.77580789568
  20
 24.458513339552
  30
0.0
  11
 400.77580789568
  21
 14.458513339552
  31
0.0
   0
LINE
   5
163
 100
AcDbEntity
   8
LEVEL001
 100
AcDbLine
   6
CONTINUOUS
  62
3
  10
 344.77580789568
  20
 14.458513339552
  30
0.0
  11
 344.77580789568
  21
 29.458513339552
  31
0.0
   0
LINE
   5
164
 100
AcDbEntity
   8
LEVEL001
 100
AcDbLine
   6
CONTINUOUS
  62
3
  10
 299.47276303634
  20
 29.458513339552
  30
0.0
  11
 299.47276303634
  21
 14.458513339552
  31
0.0
   0
LINE
   5
165
 100
AcDbEntity
   8
LEVEL001
 100
AcDbLine
   6
CONTINUOUS
  62
3
  10
 283.18779106903
  20
 29.458513339552
  30
0.0
  11
 283.18779106903
  21
 14.458513339552
  31
0.0
   0
POLYLINE
   5
166
 100
AcDbEntity
   8
LEVEL001
   6
CONTINUOUS
  62
3
 100
AcDb2dPolyline
  66
1
  10
0.0
  20
0.0
  30
0.0
  70
0
   0
VERTEX
   5
167
 100
AcDbEntity
   8
LEVEL001
   6
CONTINUOUS
  62
3
 100
AcDbVertex
 100
AcDb2dVertex
  10
 291.18595094752
  20
 20.826931982173
  30
0.0
   0
VERTEX
   5
168
 100
AcDbEntity
   8
LEVEL001
   6
CONTINUOUS
  62
3
 100
AcDbVertex
 100
AcDb2dVertex
  10
 291.18595094752
  20
 17.836333582052
  30
0.0
   0
VERTEX
   5
169
 100
AcDbEntity
   8
LEVEL001
   6
CONTINUOUS
  62
3
 100
AcDbVertex
 100
AcDb2dVertex
  10
 297.21429194575
  20
 17.038935617266
  30
0.0
   0
VERTEX
   5
16A
 100
AcDbEntity
   8
LEVEL001
   6
CONTINUOUS
  62
3
 100
AcDbVertex
 100
AcDb2dVertex
  10
 297.21429194575
  20
 21.624329946959
  30
0.0
   0
VERTEX
   5
16B
 100
AcDbEntity
   8
LEVEL001
   6
CONTINUOUS
  62
3
 100
AcDbVertex
 100
AcDb2dVertex
  10
 291.18595094752
  20
 20.826931982173
  30
0.0
   0
SEQEND
   5
16C
 100
AcDbEntity
   8
LEVEL001
   6
CONTINUOUS
  62
3
   0
CIRCLE
   5
16D
 100
AcDbEntity
   8
LEVEL001
 100
AcDbCircle
   6
CONTINUOUS
  62
3
  10
 287.63457693655
  20
 19.331632782112
  30
0.0
  40
 1.4952992000607
   0
CIRCLE
   5
16E
 100
AcDbEntity
   8
LEVEL001
 100
AcDbCircle
   6
CONTINUOUS
  62
3
  10
 287.63457693655
  20
 19.331632782112
  30
0.0
  40
 2.2926971648466
   0
LINE
   5
16F
 100
AcDbEntity
   8
LEVEL001
 100
AcDbLine
   6
DASHDOT
  62
3
  10
 287.63457693655
  20
 22.111850473346
  30
0.0
  11
 287.63457693655
  21
 16.574117314639
  31
0.0
   0
LINE
   5
170
 100
AcDbEntity
   8
LEVEL001
 100
AcDbLine
   6
DASHDOT
  62
3
  10
 284.84295662134
  20
 19.331632782112
  30
0.0
  11
 297.88752034310
  21
 19.331632782112
  31
0.0
   0
LINE
   5
171
 100
AcDbEntity
   8
LEVEL001
 100
AcDbLine
   6
CONTINUOUS
  62
3
  10
 231.18779106903
  20
 44.458513339552
  30
0.0
  11
 405.77580789568
  21
 44.458513339552
  31
0.0
   0
LINE
   5
172
 100
AcDbEntity
   8
LEVEL001
 100
AcDbLine
   6
CONTINUOUS
  62
3
  10
 283.18779106903
  20
 29.458513339552
  30
0.0
  11
 283.18779106903
  21
 44.458513339552
  31
0.0
   0
LINE
   5
173
 100
AcDbEntity
   8
LEVEL001
 100
AcDbLine
   6
CONTINUOUS
  62
3
  10
 395.77580789568
  20
 44.458513339552
  30
0.0
  11
 395.77580789568
  21
 14.458513339552
  31
0.0
   0
LINE
   5
174
 100
AcDbEntity
   8
LEVEL001
 100
AcDbLine
   6
CONTINUOUS
  62
3
  10
 344.77580789568
  20
 44.458513339552
  30
0.0
  11
 344.77580789568
  21
 29.458513339552
  31
0.0
   0
LINE
   5
175
 100
AcDbEntity
   8
LEVEL001
 100
AcDbLine
   6
CONTINUOUS
  62
3
  10
 344.77580789568
  20
 36.958513339552
  30
0.0
  11
 395.60235452134
  21
 36.958513339552
  31
0.0
   0
LINE
   5
176
 100
AcDbEntity
   8
LEVEL001
 100
AcDbLine
   6
CONTINUOUS
  62
3
  10
 403.35613237536
  20
 38.682197790889
  30
0.0
  11
 398.15511490334
  21
 31.667492174780
  31
0.0
   0
LINE
   5
177
 100
AcDbEntity
   8
LEVEL001
 100
AcDbLine
   6
CONTINUOUS
  62
3
  10
 283.18779106903
  20
 29.458513339552
  30
0.0
  11
 405.77580789568
  21
 29.458513339552
  31
0.0
   0
LINE
   5
178
 100
AcDbEntity
   8
LEVEL001
 100
AcDbLine
   6
CONTINUOUS
  62
3
  10
 265.85445773569
  20
 36.458513339552
  30
0.0
  11
 265.85445773569
  21
 14.458513339552
  31
0.0
   0
LINE
   5
179
 100
AcDbEntity
   8
LEVEL001
 100
AcDbLine
   6
CONTINUOUS
  62
3
  10
 283.18779106903
  20
 36.458513339552
  30
0.0
  11
 231.18779106903
  21
 36.458513339552
  31
0.0
   0
LINE
   5
17A
 100
AcDbEntity
   8
LEVEL001
 100
AcDbLine
   6
CONTINUOUS
  62
3
  10
 248.52112440236
  20
 36.458513339552
  30
0.0
  11
 248.52112440236
  21
 14.458513339552
  31
0.0
   0
LINE
   5
17B
 100
AcDbEntity
   8
LEVEL001
 100
AcDbLine
   6
CONTINUOUS
  62
8
  10
 314.65181985452
  20
 27.561937074671
  30
0.0
  11
 311.35514060924
  21
 22.336937074671
  31
0.0
   0
LINE
   5
17C
 100
AcDbEntity
   8
LEVEL001
 100
AcDbLine
   6
CONTINUOUS
  62
8
  10
 312.56181985452
  20
 16.484937074671
  30
0.0
  11
 311.90404357420
  21
 19.674937074671
  31
0.0
   0
LINE
   5
17D
 100
AcDbEntity
   8
LEVEL001
 100
AcDbLine
   6
CONTINUOUS
  62
8
  10
 311.83146136396
  20
 20.026937074671
  30
0.0
  11
 311.35514060924
  21
 22.336937074671
  31
0.0
   0
LINE
   5
17E
 100
AcDbEntity
   8
LEVEL001
 100
AcDbLine
   6
CONTINUOUS
  62
8
  10
 312.14381985452
  20
 27.561937074671
  30
0.0
  11
 311.00646136396
  21
 20.026937074671
  31
0.0
   0
LINE
   5
17F
 100
AcDbEntity
   8
LEVEL001
 100
AcDbLine
   6
CONTINUOUS
  62
8
  10
 310.95332928849
  20
 19.674937074671
  30
0.0
  11
 310.47181985452
  21
 16.484937074671
  31
0.0
   0
LINE
   5
180
 100
AcDbEntity
   8
LEVEL001
 100
AcDbLine
   6
CONTINUOUS
  62
8
  10
 308.79981985452
  20
 27.561937074671
  30
0.0
  11
 307.66246136396
  21
 20.026937074671
  31
0.0
   0
LINE
   5
181
 100
AcDbEntity
   8
LEVEL001
 100
AcDbLine
   6
CONTINUOUS
  62
8
  10
 307.60932928849
  20
 19.674937074671
  30
0.0
  11
 307.12781985452
  21
 16.484937074671
  31
0.0
   0
POLYLINE
   5
182
 100
AcDbEntity
   8
LEVEL001
   6
CONTINUOUS
  62
8
 100
AcDb2dPolyline
  66
1
  10
0.0
  20
0.0
  30
0.0
  70
0
   0
VERTEX
   5
183
 100
AcDbEntity
   8
LEVEL001
   6
CONTINUOUS
  62
8
 100
AcDbVertex
 100
AcDb2dVertex
  10
 307.66246136396
  20
 20.026937074671
  30
0.0
   0
VERTEX
   5
184
 100
AcDbEntity
   8
LEVEL001
   6
CONTINUOUS
  62
8
 100
AcDbVertex
 100
AcDb2dVertex
  10
 306.02781985452
  20
 20.026937074671
  30
0.0
   0
VERTEX
   5
185
 100
AcDbEntity
   8
LEVEL001
   6
CONTINUOUS
  62
8
 100
AcDbVertex
 100
AcDb2dVertex
  10
 306.02781985452
  20
 19.674937074671
  30
0.0
   0
VERTEX
   5
186
 100
AcDbEntity
   8
LEVEL001
   6
CONTINUOUS
  62
8
 100
AcDbVertex
 100
AcDb2dVertex
  10
 307.60932928849
  20
 19.674937074671
  30
0.0
   0
SEQEND
   5
187
 100
AcDbEntity
   8
LEVEL001
   6
CONTINUOUS
  62
8
   0
LINE
   5
188
 100
AcDbEntity
   8
LEVEL001
 100
AcDbLine
   6
CONTINUOUS
  62
8
  10
 311.83146136396
  20
 20.026937074671
  30
0.0
  11
 311.00646136396
  21
 20.026937074671
  31
0.0
   0
LINE
   5
189
 100
AcDbEntity
   8
LEVEL001
 100
AcDbLine
   6
CONTINUOUS
  62
8
  10
 310.95332928849
  20
 19.674937074671
  30
0.0
  11
 311.90404357420
  21
 19.674937074671
  31
0.0
   0
INSERT
   5
18A
 100
AcDbEntity
   8
LEVEL001
 100
AcDbBlockReference
   2
BLOCK001
  10
0.0
  20
0.0
  30
0.0
   0
LINE
   5
18B
 100
AcDbEntity
   8
LEVEL001
 100
AcDbLine
   6
CONTINUOUS
  62
8
  10
 317.99581985452
  20
 27.561937074671
  30
0.0
  11
 314.69914060924
  21
 22.336937074671
  31
0.0
   0
LINE
   5
18C
 100
AcDbEntity
   8
LEVEL001
 100
AcDbLine
   6
CONTINUOUS
  62
8
  10
 336.94994419325
  20
 25.856937074671
  30
0.0
  11
 335.18994419325
  21
 25.856937074671
  31
0.0
   0
LINE
   5
18D
 100
AcDbEntity
   8
LEVEL001
 100
AcDbLine
   6
CONTINUOUS
  62
8
  10
 336.94994419325
  20
 25.856937074671
  30
0.0
  11
 336.06994419325
  21
 20.026937074671
  31
0.0
   0
LINE
   5
18E
 100
AcDbEntity
   8
LEVEL001
 100
AcDbLine
   6
CONTINUOUS
  62
8
  10
 335.18994419325
  20
 25.856937074671
  30
0.0
  11
 334.30994419325
  21
 20.026937074671
  31
0.0
   0
LINE
   5
18F
 100
AcDbEntity
   8
LEVEL001
 100
AcDbLine
   6
CONTINUOUS
  62
8
  10
 336.06994419325
  20
 20.026937074671
  30
0.0
  11
 334.30994419325
  21
 20.026937074671
  31
0.0
   0
LINE
   5
190
 100
AcDbEntity
   8
LEVEL001
 100
AcDbLine
   6
CONTINUOUS
  62
8
  10
 331.77994419325
  20
 25.856937074671
  30
0.0
  11
 330.01994419325
  21
 25.856937074671
  31
0.0
   0
LINE
   5
191
 100
AcDbEntity
   8
LEVEL001
 100
AcDbLine
   6
CONTINUOUS
  62
8
  10
 331.77994419325
  20
 25.856937074671
  30
0.0
  11
 330.89994419325
  21
 20.026937074671
  31
0.0
   0
LINE
   5
192
 100
AcDbEntity
   8
LEVEL001
 100
AcDbLine
   6
CONTINUOUS
  62
8
  10
 330.01994419325
  20
 25.856937074671
  30
0.0
  11
 329.13994419325
  21
 20.026937074671
  31
0.0
   0
LINE
   5
193
 100
AcDbEntity
   8
LEVEL001
 100
AcDbLine
   6
CONTINUOUS
  62
8
  10
 330.89994419325
  20
 20.026937074671
  30
0.0
  11
 329.13994419325
  21
 20.026937074671
  31
0.0
   0
LINE
   5
194
 100
AcDbEntity
   8
LEVEL001
 100
AcDbLine
   6
CONTINUOUS
  62
8
  10
 329.35994419325
  20
 25.856937074671
  30
0.0
  11
 327.59994419325
  21
 25.856937074671
  31
0.0
   0
LINE
   5
195
 100
AcDbEntity
   8
LEVEL001
 100
AcDbLine
   6
CONTINUOUS
  62
8
  10
 329.35994419325
  20
 25.856937074671
  30
0.0
  11
 328.47994419325
  21
 20.026937074671
  31
0.0
   0
LINE
   5
196
 100
AcDbEntity
   8
LEVEL001
 100
AcDbLine
   6
CONTINUOUS
  62
8
  10
 327.59994419325
  20
 25.856937074671
  30
0.0
  11
 326.71994419325
  21
 20.026937074671
  31
0.0
   0
LINE
   5
197
 100
AcDbEntity
   8
LEVEL001
 100
AcDbLine
   6
CONTINUOUS
  62
8
  10
 328.47994419325
  20
 20.026937074671
  30
0.0
  11
 326.71994419325
  21
 20.026937074671
  31
0.0
   0
LINE
   5
198
 100
AcDbEntity
   8
LEVEL001
 100
AcDbLine
   6
CONTINUOUS
  62
8
  10
 334.85994419325
  20
 25.856937074671
  30
0.0
  11
 333.09994419325
  21
 25.856937074671
  31
0.0
   0
LINE
   5
199
 100
AcDbEntity
   8
LEVEL001
 100
AcDbLine
   6
CONTINUOUS
  62
8
  10
 333.09994419325
  20
 25.856937074671
  30
0.0
  11
 331.36484985363
  21
 23.106937074671
  31
0.0
   0
LINE
   5
19A
 100
AcDbEntity
   8
LEVEL001
 100
AcDbLine
   6
CONTINUOUS
  62
8
  10
 331.99994419325
  20
 20.026937074671
  30
0.0
  11
 333.97994419325
  21
 20.026937074671
  31
0.0
   0
LINE
   5
19B
 100
AcDbEntity
   8
LEVEL001
 100
AcDbLine
   6
CONTINUOUS
  62
8
  10
 331.99994419325
  20
 20.026937074671
  30
0.0
  11
 331.36484985363
  21
 23.106937074671
  31
0.0
   0
LINE
   5
19C
 100
AcDbEntity
   8
LEVEL001
 100
AcDbLine
   6
CONTINUOUS
  62
8
  10
 334.85994419325
  20
 25.856937074671
  30
0.0
  11
 333.12484985363
  21
 23.106937074671
  31
0.0
   0
LINE
   5
19D
 100
AcDbEntity
   8
LEVEL001
 100
AcDbLine
   6
CONTINUOUS
  62
8
  10
 333.12484985363
  20
 23.106937074671
  30
0.0
  11
 333.97994419325
  21
 20.026937074671
  31
0.0
   0
LINE
   5
19E
 100
AcDbEntity
   8
LEVEL001
 100
AcDbLine
   6
CONTINUOUS
  62
8
  10
 324.40994419325
  20
 20.026937074671
  30
0.0
  11
 326.38994419325
  21
 20.026937074671
  31
0.0
   0
LINE
   5
19F
 100
AcDbEntity
   8
LEVEL001
 100
AcDbLine
   6
CONTINUOUS
  62
8
  10
 322.64994419325
  20
 25.856937074671
  30
0.0
  11
 321.76994419325
  21
 20.026937074671
  31
0.0
   0
LINE
   5
1A0
 100
AcDbEntity
   8
LEVEL001
 100
AcDbLine
   6
CONTINUOUS
  62
8
  10
 323.52994419325
  20
 20.026937074671
  30
0.0
  11
 321.76994419325
  21
 20.026937074671
  31
0.0
   0
LINE
   5
1A1
 100
AcDbEntity
   8
LEVEL001
 100
AcDbLine
   6
CONTINUOUS
  62
8
  10
 324.40994419325
  20
 20.026937074671
  30
0.0
  11
 324.04703314204
  21
 21.786937074671
  31
0.0
   0
LINE
   5
1A2
 100
AcDbEntity
   8
LEVEL001
 100
AcDbLine
   6
CONTINUOUS
  62
8
  10
 325.74862343853
  20
 22.336937074671
  30
0.0
  11
 326.38994419325
  21
 20.026937074671
  31
0.0
   0
LINE
   5
1A3
 100
AcDbEntity
   8
LEVEL001
 100
AcDbLine
   6
CONTINUOUS
  62
8
  10
 324.16158124897
  20
 24.211532568788
  30
0.0
  11
 323.52994419325
  21
 20.026937074671
  31
0.0
   0
LINE
   5
1A4
 100
AcDbEntity
   8
LEVEL001
 100
AcDbLine
   6
CONTINUOUS
  62
8
  10
 324.04703314204
  20
 21.786937074671
  30
0.0
  11
 324.30152029514
  21
 23.437414118726
  31
0.0
   0
LINE
   5
1A5
 100
AcDbEntity
   8
LEVEL001
 100
AcDbLine
   6
CONTINUOUS
  62
8
  10
 321.98994419325
  20
 25.856937074671
  30
0.0
  11
 320.22994419325
  21
 25.856937074671
  31
0.0
   0
LINE
   5
1A6
 100
AcDbEntity
   8
LEVEL001
 100
AcDbLine
   6
CONTINUOUS
  62
8
  10
 319.67994419325
  20
 25.856937074671
  30
0.0
  11
 317.91994419325
  21
 25.856937074671
  31
0.0
   0
LINE
   5
1A7
 100
AcDbEntity
   8
LEVEL001
 100
AcDbLine
   6
CONTINUOUS
  62
8
  10
 320.22994419325
  20
 25.856937074671
  30
0.0
  11
 319.65294422995
  21
 22.034312317793
  31
0.0
   0
LINE
   5
1A8
 100
AcDbEntity
   8
LEVEL001
 100
AcDbLine
   6
CONTINUOUS
  62
8
  10
 319.67994419325
  20
 25.856937074671
  30
0.0
  11
 319.10232738902
  21
 22.030225746661
  31
0.0
   0
LINE
   5
1A9
 100
AcDbEntity
   8
LEVEL001
 100
AcDbLine
   6
CONTINUOUS
  62
8
  10
 317.91994419325
  20
 25.856937074671
  30
0.0
  11
 317.34326776569
  21
 22.036455742054
  31
0.0
   0
LINE
   5
1AA
 100
AcDbEntity
   8
LEVEL001
 100
AcDbLine
   6
CONTINUOUS
  62
8
  10
 321.98994419325
  20
 25.856937074671
  30
0.0
  11
 321.42340218399
  21
 22.103596263336
  31
0.0
   0
ARC
   5
1AB
 100
AcDbEntity
   8
LEVEL001
   6
CONTINUOUS
  62
8
 100
AcDbCircle
  10
 325.02730004712
  20
 24.116685607150
  30
0.0
  40
 1.7402514675212
 100
AcDbArc
  50
 351.41637851990
  51
 89.999999999935
   0
LINE
   5
1AC
 100
AcDbEntity
   8
LEVEL001
 100
AcDbLine
   6
CONTINUOUS
  62
8
  10
 325.02730004713
  20
 25.856937074671
  30
0.0
  11
 322.64994419325
  21
 25.856937074671
  31
0.0
   0
LINE
   5
1AD
 100
AcDbEntity
   8
LEVEL001
 100
AcDbLine
   6
CONTINUOUS
  62
8
  10
 324.16088758948
  20
 24.206937074671
  30
0.0
  11
 324.59885570791
  21
 24.206937074671
  31
0.0
   0
ARC
   5
1AE
 100
AcDbEntity
   8
LEVEL001
   6
CONTINUOUS
  62
8
 100
AcDbCircle
  10
 319.10137791855
  20
 21.793988183317
  30
0.0
  40
 1.7747512013310
 100
AcDbArc
  50
 172.14765871033
  51
 264.66082673525
   0
ARC
   5
1AF
 100
AcDbEntity
   8
LEVEL001
   6
CONTINUOUS
  62
8
 100
AcDbCircle
  10
 318.98911532703
  20
 22.491344717376
  30
0.0
  40
 2.4649749219048
 100
AcDbArc
  50
 268.77075588816
  51
 350.94960092965
   0
ARC
   5
1B0
 100
AcDbEntity
   8
LEVEL001
   6
CONTINUOUS
  62
8
 100
AcDbCircle
  10
 319.31439157060
  20
 22.000983121420
  30
0.0
  40
 0.21407089533906
 100
AcDbArc
  50
 170.68405351477
  51
 269.12700069951
   0
ARC
   5
1B1
 100
AcDbEntity
   8
LEVEL001
   6
CONTINUOUS
  62
8
 100
AcDbCircle
  10
 319.34787916192
  20
 22.095999333444
  30
0.0
  40
 0.31123943135484
 100
AcDbArc
  50
 263.21905471518
  51
 348.56840050103
   0
ARC
   5
1B2
 100
AcDbEntity
   8
LEVEL001
   6
CONTINUOUS
  62
8
 100
AcDbCircle
  10
 324.76030142173
  20
 24.075356571609
  30
0.0
  40
 1.9997206695528
 100
AcDbArc
  50
 299.61899079226
  51
 353.72968381433
   0
ARC
   5
1B3
 100
AcDbEntity
   8
LEVEL001
   6
CONTINUOUS
  62
8
 100
AcDbCircle
  10
 324.59885570790
  20
 23.824405535634
  30
0.0
  40
 0.38253153903777
 100
AcDbArc
  50
0.0
  51
 89.999999999029
   0
ARC
   5
1B4
 100
AcDbEntity
   8
LEVEL001
   6
CONTINUOUS
  62
8
 100
AcDbCircle
  10
 324.51902089978
  20
 23.906365323712
  30
0.0
  40
 0.46957432409482
 100
AcDbArc
  50
 272.95201820175
  51
 349.94807454522
   0
LINE
   5
1B5
 100
AcDbEntity
   8
LEVEL001
 100
AcDbLine
   6
CONTINUOUS
  62
8
  10
 324.54320381093
  20
 23.437414118726
  30
0.0
  11
 324.30152029514
  21
 23.437414118726
  31
0.0
   0
LINE
   5
1B6
 100
AcDbEntity
   8
LEVEL001
 100
AcDbLine
   6
CONTINUOUS
  62
8
  10
 314.69914060924
  20
 22.336937074671
  30
0.0
  11
 315.34046136396
  21
 20.026937074671
  31
0.0
   0
LINE
   5
1B7
 100
AcDbEntity
   8
LEVEL001
 100
AcDbLine
   6
CONTINUOUS
  62
8
  10
 315.43818643134
  20
 19.674937074671
  30
0.0
  11
 316.32381985452
  21
 16.484937074671
  31
0.0
   0
POLYLINE
   5
1B8
 100
AcDbEntity
   8
LEVEL001
   6
CONTINUOUS
  62
8
 100
AcDb2dPolyline
  66
1
  10
0.0
  20
0.0
  30
0.0
  70
0
   0
VERTEX
   5
1B9
 100
AcDbEntity
   8
LEVEL001
   6
CONTINUOUS
  62
8
 100
AcDbVertex
 100
AcDb2dVertex
  10
 315.43818643134
  20
 19.674937074671
  30
0.0
   0
VERTEX
   5
1BA
 100
AcDbEntity
   8
LEVEL001
   6
CONTINUOUS
  62
8
 100
AcDbVertex
 100
AcDb2dVertex
  10
 338.14781985452
  20
 19.674937074671
  30
0.0
   0
VERTEX
   5
1BB
 100
AcDbEntity
   8
LEVEL001
   6
CONTINUOUS
  62
8
 100
AcDbVertex
 100
AcDb2dVertex
  10
 338.14781985452
  20
 20.026937074671
  30
0.0
   0
VERTEX
   5
1BC
 100
AcDbEntity
   8
LEVEL001
   6
CONTINUOUS
  62
8
 100
AcDbVertex
 100
AcDb2dVertex
  10
 315.34046136396
  20
 20.026937074671
  30
0.0
   0
SEQEND
   5
1BD
 100
AcDbEntity
   8
LEVEL001
   6
CONTINUOUS
  62
8
   0
LINE
   5
1BE
 100
AcDbEntity
   8
LEVEL001
 100
AcDbLine
   6
CONTINUOUS
  62
8
  10
 312.14381985452
  20
 27.561937074671
  30
0.0
  11
 308.79981985452
  21
 27.561937074671
  31
0.0
   0
LINE
   5
1BF
 100
AcDbEntity
   8
LEVEL001
 100
AcDbLine
   6
CONTINUOUS
  62
8
  10
 317.99581985452
  20
 27.561937074671
  30
0.0
  11
 314.65181985452
  21
 27.561937074671
  31
0.0
   0
LINE
   5
1C0
 100
AcDbEntity
   8
LEVEL001
 100
AcDbLine
   6
CONTINUOUS
  62
8
  10
 310.47181985452
  20
 16.484937074671
  30
0.0
  11
 307.12781985452
  21
 16.484937074671
  31
0.0
   0
LINE
   5
1C1
 100
AcDbEntity
   8
LEVEL001
 100
AcDbLine
   6
CONTINUOUS
  62
8
  10
 312.56181985452
  20
 16.484937074671
  30
0.0
  11
 316.32381985452
  21
 16.484937074671
  31
0.0
   0
TEXT
   5
1C2
 100
AcDbEntity
   8
LEVEL001
  62
14
 100
AcDbText
  10
 396.69407547530
  20
 25.057232610106
  30
0.0
  40
 2.5000000000000
   1
ＲＥＶ.
   7
STANDARD
  72
1
  11
 401.06907547530
  21
 26.723899276773
  31
0.0
 100
AcDbText
  73
2
   0
TEXT
   5
1C3
 100
AcDbEntity
   8
LEVEL001
  62
14
 100
AcDbText
  10
 345.68854165281
  20
 26.222098811397
  30
0.0
  40
 2.5000000000000
   1
ＫＵＲＩＫＩ　ＷＯＲＫＳ　ＤＷＧ．ＮＯ．
  41
 0.80000000000000
   7
STANDARD
 100
AcDbText
   0
TEXT
   5
1C4
 100
AcDbEntity
   8
LEVEL001
  62
14
 100
AcDbText
  10
 281.71572589890
  20
 25.890193605113
  30
0.0
  40
 2.5000000000000
   1
ＰＲＯＪＥＣＴＩＯＮ
  41
 0.76000000000000
   7
STANDARD
  72
1
  11
 291.21572589890
  21
 27.556860271780
  31
0.0
 100
AcDbText
  73
2
   0
TEXT
   5
1C5
 100
AcDbEntity
   8
LEVEL001
  62
14
 100
AcDbText
  10
 284.49908616099
  20
 41.408473472242
  30
0.0
  40
 2.5000000000000
   1
ＴＩＴＬＥ
  41
 0.76000000000000
   7
STANDARD
 100
AcDbText
   0
TEXT
   5
1C6
 100
AcDbEntity
   8
LEVEL001
  62
14
 100
AcDbText
  10
 395.33462527097
  20
 40.615016676406
  30
0.0
  40
 2.5000000000000
   1
ＳＣＡＬＥ
  41
 0.88000000000000
   7
STANDARD
  72
1
  11
 400.83462527097
  21
 42.281683343073
  31
0.0
 100
AcDbText
  73
2
   0
TEXT
   5
1C7
 100
AcDbEntity
   8
LEVEL001
  62
14
 100
AcDbText
  10
 345.37570317030
  20
 41.408473472242
  30
0.0
  40
 2.5000000000000
   1
ＰＴ.ＮＯ
  41
 0.76000000000000
   7
STANDARD
 100
AcDbText
   0
TEXT
   5
1C8
 100
AcDbEntity
   8
LEVEL001
  62
14
 100
AcDbText
  10
 345.37570317030
  20
 33.598854886399
  30
0.0
  40
 2.5000000000000
   1
ＰＴ.ＮＡＭＥ
  41
 0.76000000000000
   7
STANDARD
 100
AcDbText
   0
TEXT
   5
1C9
 100
AcDbEntity
   8
LEVEL001
  62
14
 100
AcDbText
  10
 269.39221385564
  20
 32.442379882181
  30
0.0
  40
 3.0000000000000
   1
ＤＷＮ．
   7
STANDARD
  72
1
  11
 275.39221385564
  21
 34.442379882181
  31
0.0
 100
AcDbText
  73
2
   0
TEXT
   5
1CA
 100
AcDbEntity
   8
LEVEL001
  62
14
 100
AcDbText
  10
 250.30912977111
  20
 32.442379882181
  30
0.0
  40
 3.0000000000000
   1
ＣＨＫＤ．
   7
STANDARD
  72
1
  11
 257.80912977111
  21
 34.442379882181
  31
0.0
 100
AcDbText
  73
2
   0
TEXT
   5
1CB
 100
AcDbEntity
   8
LEVEL001
  62
14
 100
AcDbText
  10
 233.25353820912
  20
 32.442379882181
  30
0.0
  40
 3.0000000000000
   1
ＡＰＰＤ．
   7
STANDARD
  72
1
  11
 240.75353820912
  21
 34.442379882181
  31
0.0
 100
AcDbText
  73
2
   0
TEXT
   5
1CC
 100
AcDbEntity
   8
LEVEL001
  62
14
 100
AcDbText
  10
 232.22571336997
  20
 40.845200664340
  30
0.0
  40
 2.5000000000000
   1
ＤＡＴＥ　
   7
STANDARD
  72
1
  11
 238.47571336997
  21
 42.511867331007
  31
0.0
 100
AcDbText
  73
2
   0
TEXT
   5
1CD
 100
AcDbEntity
   8
LEVEL001
  62
14
 100
AcDbText
  10
 256.86502162958
  20
 38.382228927224
  30
0.0
  40
 3.8000000000000
   1
／
  41
 0.78947368421053
   7
STANDARD
 100
AcDbText
   0
TEXT
   5
1CE
 100
AcDbEntity
   8
LEVEL001
  62
14
 100
AcDbText
  10
 269.15256591542
  20
 38.382228927224
  30
0.0
  40
 3.8000000000000
   1
／
  41
 0.78947368421053
   7
STANDARD
 100
AcDbText
   0
TEXT
   5
1CF
 100
AcDbEntity
   8
LEVEL001
  62
14
 100
AcDbText
  10
 317.43269418432
  20
 17.106756271100
  30
0.0
  40
 2.2550000000000
   1
Kuriki Manufacture Co.,Ltd
  41
 0.35365853658537
  51
 10.000000000000
   7
STANDARD
 100
AcDbText
   0
TEXT
   5
1D0
 100
AcDbEntity
   8
LEVEL001
  62
14
 100
AcDbText
  10
 396.51577234680
  20
 35.001738624029
  30
0.0
  40
 4.0000000000000
   1
１ 　
   7
STANDARD
 100
AcDbText
   0
TEXT
   5
1D1
 100
AcDbEntity
   8
LEVEL001
  62
14
 100
AcDbText
  10
 401.13092660318
  20
 30.993681120982
  30
0.0
  40
 4.0000000000000
   1
１ 　
   7
STANDARD
 100
AcDbText
   0
TEXT
   5
1D2
 100
AcDbEntity
   8
LEVEL001
  62
14
 100
AcDbText
  10
 363.98968643942
  20
 30.347801635746
  30
0.0
  40
 4.0000000000000
   1
組立図
  51
 15.000000000000
   7
STANDARD
 100
AcDbText
   0
CIRCLE
   5
1D3
 100
AcDbEntity
   8
LEVEL001
 100
AcDbCircle
   6
CONTINUOUS
  62
2
  10
 239.85109346318
  20
 24.307820719700
  30
0.0
  40
 5.0937102885353
   0
CIRCLE
   5
1D4
 100
AcDbEntity
   8
LEVEL001
 100
AcDbCircle
   6
CONTINUOUS
  62
2
  10
 257.54630829875
  20
 24.307820719700
  30
0.0
  40
 5.0937102885353
   0
TEXT
   5
1D5
 100
AcDbEntity
   8
LEVEL001
  62
14
 100
AcDbText
  10
 274.51985442117
  20
 28.972484386871
  30
0.0
  40
 3.5000000000000
   1
小見
  41
 1.1428571428571
   7
STANDARD1
  72
1
  11
 274.51985442117
  21
 24.305817720205
  31
0.0
 100
AcDbText
   0
CIRCLE
   5
1D6
 100
AcDbEntity
   8
LEVEL001
 100
AcDbCircle
   6
CONTINUOUS
  62
2
  10
 274.51985442117
  20
 24.307820719700
  30
0.0
  40
 5.0937102885353
   0
LINE
   5
1D7
 100
AcDbEntity
   8
LEVEL001
 100
AcDbLine
   6
CONTINUOUS
  62
3
  10
 231.18779106903
  20
 44.458513339552
  30
0.0
  11
 231.18779106903
  21
 14.458513339552
  31
0.0
   0
TEXT
   5
1D8
 100
AcDbEntity
   8
LEVEL001
  62
14
 100
AcDbText
  10
 357.47313889882
  20
 38.247294665004
  30
0.0
  40
 4.0000000000000
   1
表１
  41
 0.75000000000000
   7
STANDARD
 100
AcDbText
   0
TEXT
   5
1D9
 100
AcDbEntity
   8
LEVEL001
  62
14
 100
AcDbText
  10
 358.22853861940
  20
 55.775103806957
  30
0.0
  40
 3.8000000000000
   1
生地
   7
STANDARD
 100
AcDbText
   0
TEXT
   5
1DA
 100
AcDbEntity
   8
LEVEL001
  62
14
 100
AcDbText
  10
 387.79545591265
  20
 55.907434634025
  30
0.0
  40
 3.8000000000000
   1
白
   7
STANDARD
 100
AcDbText
   0
TEXT
   5
1DB
 100
AcDbEntity
   8
LEVEL001
  62
14
 100
AcDbText
  10
 358.22853861940
  20
 49.775103806957
  30
0.0
  40
 3.8000000000000
   1
塗装ゴールド
   7
STANDARD
 100
AcDbText
   0
TEXT
   5
1DC
 100
AcDbEntity
   8
LEVEL001
  62
14
 100
AcDbText
  10
 242.87483859540
  20
 37.833468640807
  30
0.0
  40
 4.0000000000000
   1
 '０４
  51
 15.000000000000
   7
STANDARD
 100
AcDbText
   0
TEXT
   5
1DD
 100
AcDbEntity
   8
LEVEL001
  62
14
 100
AcDbText
  10
 232.51328981351
  20
 14.604076729674
  30
0.0
  40
 3.0000000000000
   1
'22.07.13
  41
 0.50000000000000
   7
STANDARD
  72
1
  11
 239.26328981351
  21
 16.604076729674
  31
0.0
 100
AcDbText
  73
2
   0
TEXT
   5
1DE
 100
AcDbEntity
   8
LEVEL001
  62
14
 100
AcDbText
  10
 249.84662314684
  20
 14.604076729674
  30
0.0
  40
 3.0000000000000
   1
'22.07.13
  41
 0.50000000000000
   7
STANDARD
  72
1
  11
 256.59662314684
  21
 16.604076729674
  31
0.0
 100
AcDbText
  73
2
   0
TEXT
   5
1DF
 100
AcDbEntity
   8
LEVEL001
  62
14
 100
AcDbText
  10
 267.17995648017
  20
 14.604076729674
  30
0.0
  40
 3.0000000000000
   1
'22.07.13
  41
 0.50000000000000
   7
STANDARD
  72
1
  11
 273.92995648017
  21
 16.604076729674
  31
0.0
 100
AcDbText
  73
2
   0
TEXT
   5
1E0
 100
AcDbEntity
   8
LEVEL001
  62
14
 100
AcDbText
  10
 257.54630829875
  20
 28.972484386871
  30
0.0
  40
 3.5000000000000
   1
工藤
  41
 1.1428571428571
   7
STANDARD1
  72
1
  11
 257.54630829875
  21
 24.305817720205
  31
0.0
 100
AcDbText
   0
TEXT
   5
1E1
 100
AcDbEntity
   8
LEVEL001
  62
14
 100
AcDbText
  10
 239.71797927809
  20
 28.972484386871
  30
0.0
  40
 3.5000000000000
   1
田口
  41
 1.1428571428571
   7
STANDARD1
  72
1
  11
 239.71797927809
  21
 24.305817720205
  31
0.0
 100
AcDbText
   0
TEXT
   5
1E2
 100
AcDbEntity
   8
LEVEL001
  62
14
 100
AcDbText
  10
 298.33585335985
  20
 33.498914391492
  30
0.0
  40
 4.0000000000000
   1
上枠付け戸当り
  51
 15.000000000000
   7
STANDARD
 100
AcDbText
   0
TEXT
   5
1E3
 100
AcDbEntity
   8
LEVEL001
  62
14
 100
AcDbText
  10
 259.66793220788
  20
 37.833468640807
  30
0.0
  40
 4.0000000000000
   1
０９
  51
 15.000000000000
   7
STANDARD
 100
AcDbText
   0
TEXT
   5
1E4
 100
AcDbEntity
   8
LEVEL001
  62
14
 100
AcDbText
  10
 271.89214323562
  20
 37.833468640807
  30
0.0
  40
 4.0000000000000
   1
１１
  51
 15.000000000000
   7
STANDARD
 100
AcDbText
   0
TEXT
   5
1E5
 100
AcDbEntity
   8
LEVEL001
  62
14
 100
AcDbText
  10
 346.78910031473
  20
 14.179360138858
  30
0.0
  40
 11.000000000000
   1
Ｋ０４０９１１ｘ
  41
 0.50000000000000
   7
STANDARD
 100
AcDbText
   0
TEXT
   5
1E6
 100
AcDbEntity
   8
LEVEL001
  62
14
 100
AcDbText
  10
 296.58952119376
  20
 76.435755436030
  30
0.0
  40
 3.8000000000000
   1
表１
   7
STANDARD
 100
AcDbText
   0
LINE
   5
1E7
 100
AcDbEntity
   8
LEVEL001
 100
AcDbLine
   6
CONTINUOUS
  62
3
  10
 295.40424372820
  20
 61.190711126734
  30
0.0
  11
 401.96952349864
  21
 61.190711126734
  31
0.0
   0
LINE
   5
1E8
 100
AcDbEntity
   8
LEVEL001
 100
AcDbLine
   6
CONTINUOUS
  62
3
  10
 295.40424372820
  20
 55.190711126734
  30
0.0
  11
 385.40424372820
  21
 55.190711126734
  31
0.0
   0
LINE
   5
1E9
 100
AcDbEntity
   8
LEVEL001
 100
AcDbLine
   6
CONTINUOUS
  62
3
  10
 295.40424372820
  20
 49.190711126734
  30
0.0
  11
 401.96952349864
  21
 49.190711126734
  31
0.0
   0
LINE
   5
1EA
 100
AcDbEntity
   8
LEVEL001
 100
AcDbLine
   6
CONTINUOUS
  62
3
  10
 295.40424372820
  20
 75.190711126734
  30
0.0
  11
 401.96952349864
  21
 75.190711126734
  31
0.0
   0
LINE
   5
1EB
 100
AcDbEntity
   8
LEVEL001
 100
AcDbLine
   6
CONTINUOUS
  62
3
  10
 295.40424372820
  20
 49.190711126734
  30
0.0
  11
 295.40424372820
  21
 75.190711126734
  31
0.0
   0
LINE
   5
1EC
 100
AcDbEntity
   8
LEVEL001
 100
AcDbLine
   6
CONTINUOUS
  62
3
  10
 325.40424372820
  20
 49.190711126734
  30
0.0
  11
 325.40424372820
  21
 68.190711126734
  31
0.0
   0
LINE
   5
1ED
 100
AcDbEntity
   8
LEVEL001
 100
AcDbLine
   6
CONTINUOUS
  62
3
  10
 355.40424372820
  20
 75.190711126734
  30
0.0
  11
 355.40424372820
  21
 49.190711126734
  31
0.0
   0
LINE
   5
1EE
 100
AcDbEntity
   8
LEVEL001
 100
AcDbLine
   6
CONTINUOUS
  62
3
  10
 385.40424372820
  20
 75.190711126734
  30
0.0
  11
 385.40424372820
  21
 49.190711126734
  31
0.0
   0
LINE
   5
1EF
 100
AcDbEntity
   8
LEVEL001
 100
AcDbLine
   6
CONTINUOUS
  62
3
  10
 401.96952349864
  20
 75.190711126734
  30
0.0
  11
 401.96952349864
  21
 49.190711126734
  31
0.0
   0
LINE
   5
1F0
 100
AcDbEntity
   8
LEVEL001
 100
AcDbLine
   6
CONTINUOUS
  62
3
  10
 295.40424372820
  20
 68.190711126734
  30
0.0
  11
 355.40424372820
  21
 68.190711126734
  31
0.0
   0
TEXT
   5
1F1
 100
AcDbEntity
   8
LEVEL001
  62
14
 100
AcDbText
  10
 317.36582431150
  20
 69.334001050065
  30
0.0
  40
 3.8000000000000
   1
品　　番
   7
STANDARD
 100
AcDbText
   0
TEXT
   5
1F2
 100
AcDbEntity
   8
LEVEL001
  62
14
 100
AcDbText
  10
 359.03906493519
  20
 66.383558572189
  30
0.0
  40
 3.8000000000000
   1
仕上げ／色調
   7
STANDARD
 100
AcDbText
   0
TEXT
   5
1F3
 100
AcDbEntity
   8
LEVEL001
  62
14
 100
AcDbText
  10
 387.88226142199
  20
 66.383558572189
  30
0.0
  40
 3.8000000000000
   1
ゴム色
   7
STANDARD
 100
AcDbText
   0
TEXT
   5
1F4
 100
AcDbEntity
   8
LEVEL001
  62
14
 100
AcDbText
  10
 332.62954112566
  20
 62.334001050065
  30
0.0
  40
 3.8000000000000
   1
Ｒ 勝手
   7
STANDARD
 100
AcDbText
   0
TEXT
   5
1F5
 100
AcDbEntity
   8
LEVEL001
  62
14
 100
AcDbText
  10
 302.62954112566
  20
 62.334001050065
  30
0.0
  40
 3.8000000000000
   1
Ｌ 勝手
   7
STANDARD
 100
AcDbText
   0
TEXT
   5
1F6
 100
AcDbEntity
   8
LEVEL001
  62
14
 100
AcDbText
  10
 297.01388828972
  20
 55.775103806957
  30
0.0
  40
 3.8000000000000
   1
２２０－２４１
   7
STANDARD
 100
AcDbText
   0
TEXT
   5
1F7
 100
AcDbEntity
   8
LEVEL001
  62
14
 100
AcDbText
  10
 297.01388828972
  20
 49.775103806957
  30
0.0
  40
 3.8000000000000
   1
２２０－２４３
   7
STANDARD
 100
AcDbText
   0
TEXT
   5
1F8
 100
AcDbEntity
   8
LEVEL001
  62
14
 100
AcDbText
  10
 327.01388828972
  20
 55.775103806957
  30
0.0
  40
 3.8000000000000
   1
２２０－２３１
   7
STANDARD
 100
AcDbText
   0
TEXT
   5
1F9
 100
AcDbEntity
   8
LEVEL001
  62
14
 100
AcDbText
  10
 327.01388828972
  20
 49.775103806957
  30
0.0
  40
 3.8000000000000
   1
２２０－２３３
   7
STANDARD
 100
AcDbText
   0
LINE
   5
1FA
 100
AcDbEntity
   8
LEVEL001
 100
AcDbLine
   6
CONTINUOUS
  62
7
  10
 241.67044637368
  20
 221.07669095344
  30
0.0
  11
 241.67044637368
  21
 223.07669095344
  31
0.0
   0
LINE
   5
1FB
 100
AcDbEntity
   8
LEVEL001
 100
AcDbLine
   6
CONTINUOUS
  62
15
  10
 216.67044637368
  20
 221.07669095344
  30
0.0
  11
 216.67044637368
  21
 223.07669095344
  31
0.0
   0
LINE
   5
1FC
 100
AcDbEntity
   8
LEVEL001
 100
AcDbLine
   6
DASHDOT
  62
3
  10
 218.67044637368
  20
 215.73609259152
  30
0.0
  11
 218.67044637368
  21
 226.79449967117
  31
0.0
   0
LINE
   5
1FD
 100
AcDbEntity
   8
LEVEL001
 100
AcDbLine
   6
DASHDOT
  62
3
  10
 233.67044637368
  20
 215.73609259152
  30
0.0
  11
 233.67044637368
  21
 226.79449967117
  31
0.0
   0
LINE
   5
1FE
 100
AcDbEntity
   8
LEVEL001
 100
AcDbLine
   6
DOT
  62
1
  10
 229.42044637368
  20
 221.07669095344
  30
0.0
  11
 231.42044637368
  21
 223.07669095344
  31
0.0
   0
LINE
   5
1FF
 100
AcDbEntity
   8
LEVEL001
 100
AcDbLine
   6
DOT
  62
1
  10
 237.92044637368
  20
 221.07669095344
  30
0.0
  11
 235.92044637368
  21
 223.07669095344
  31
0.0
   0
LINE
   5
200
 100
AcDbEntity
   8
LEVEL001
 100
AcDbLine
   6
DOT
  62
1
  10
 214.42044637368
  20
 221.07669095344
  30
0.0
  11
 216.42044637368
  21
 223.07669095344
  31
0.0
   0
LINE
   5
201
 100
AcDbEntity
   8
LEVEL001
 100
AcDbLine
   6
DOT
  62
1
  10
 222.92044637368
  20
 221.07669095344
  30
0.0
  11
 220.92044637368
  21
 223.07669095344
  31
0.0
   0
LINE
   5
202
 100
AcDbEntity
   8
LEVEL001
 100
AcDbLine
   6
CONTINUOUS
  62
7
  10
 241.67044637368
  20
 221.07669095344
  30
0.0
  11
 115.67044637368
  21
 221.07669095344
  31
0.0
   0
LINE
   5
203
 100
AcDbEntity
   8
LEVEL001
 100
AcDbLine
   6
CONTINUOUS
  62
7
  10
 241.67044637368
  20
 223.07669095344
  30
0.0
  11
 115.67044637368
  21
 223.07669095344
  31
0.0
   0
LINE
   5
204
 100
AcDbEntity
   8
LEVEL001
 100
AcDbLine
   6
DOT
  62
1
  10
 137.67044637368
  20
 221.07669095344
  30
0.0
  11
 137.67044637368
  21
 223.07669095344
  31
0.0
   0
LINE
   5
205
 100
AcDbEntity
   8
LEVEL001
 100
AcDbLine
   6
DASHDOT
  62
3
  10
 126.67044637368
  20
 189.42873503965
  30
0.0
  11
 126.67044637368
  21
 228.95085893346
  31
0.0
   0
CIRCLE
   5
206
 100
AcDbEntity
   8
LEVEL001
 100
AcDbCircle
   6
CONTINUOUS
  62
7
  10
 126.67044637368
  20
 206.57669095344
  30
0.0
  40
 11.000000000000
   0
LINE
   5
207
 100
AcDbEntity
   8
LEVEL001
 100
AcDbLine
   6
CONTINUOUS
  62
7
  10
 115.67044637368
  20
 206.57669095344
  30
0.0
  11
 115.67044637368
  21
 223.07669095344
  31
0.0
   0
LINE
   5
208
 100
AcDbEntity
   8
LEVEL001
 100
AcDbLine
   6
CONTINUOUS
  62
7
  10
 137.67044637368
  20
 206.57669095344
  30
0.0
  11
 137.67044637368
  21
 221.07669095344
  31
0.0
   0
LINE
   5
209
 100
AcDbEntity
   8
LEVEL001
 100
AcDbLine
   6
DASHDOT
  62
3
  10
 110.28601054155
  20
 206.57669095344
  30
0.0
  11
 142.21521408138
  21
 206.57669095344
  31
0.0
   0
CIRCLE
   5
20A
 100
AcDbEntity
   8
LEVEL001
 100
AcDbCircle
   6
CONTINUOUS
  62
15
  10
 126.67044637368
  20
 206.57669095344
  30
0.0
  40
 2.7499999999999
   0
CIRCLE
   5
20B
 100
AcDbEntity
   8
LEVEL001
 100
AcDbCircle
   6
CONTINUOUS
  62
7
  10
 126.67044637368
  20
 206.57669095344
  30
0.0
  40
 3.9999999999999
   0
CIRCLE
   5
20C
 100
AcDbEntity
   8
LEVEL001
 100
AcDbCircle
   6
CONTINUOUS
  62
15
  10
 126.67044637368
  20
 206.57669095344
  30
0.0
  40
 8.9999999999998
   0
ARC
   5
20D
 100
AcDbEntity
   8
LEVEL001
   6
CONTINUOUS
  62
15
 100
AcDbCircle
  10
 126.67044637368
  20
 206.57669095344
  30
0.0
  40
 2.2396703034060
 100
AcDbArc
  50
 70.435323503186
  51
 109.56467649684
   0
ARC
   5
20E
 100
AcDbEntity
   8
LEVEL001
   6
CONTINUOUS
  62
15
 100
AcDbCircle
  10
 126.67044637368
  20
 206.57669095344
  30
0.0
  40
 2.2396703034060
 100
AcDbArc
  50
 340.43532350316
  51
 19.564676496812
   0
ARC
   5
20F
 100
AcDbEntity
   8
LEVEL001
   6
CONTINUOUS
  62
15
 100
AcDbCircle
  10
 126.67044637368
  20
 206.57669095344
  30
0.0
  40
 2.2396703034060
 100
AcDbArc
  50
 160.43532350319
  51
 199.56467649684
   0
ARC
   5
210
 100
AcDbEntity
   8
LEVEL001
   6
CONTINUOUS
  62
15
 100
AcDbCircle
  10
 126.67044637368
  20
 206.57669095344
  30
0.0
  40
 2.2396703034060
 100
AcDbArc
  50
 250.43532350316
  51
 289.56467649681
   0
LINE
   5
211
 100
AcDbEntity
   8
LEVEL001
 100
AcDbLine
   6
CONTINUOUS
  62
15
  10
 124.56008548796
  20
 207.32669095344
  30
0.0
  11
 125.62044637368
  21
 207.32669095344
  31
0.0
   0
ARC
   5
212
 100
AcDbEntity
   8
LEVEL001
   6
CONTINUOUS
  62
15
 100
AcDbCircle
  10
 125.62044637368
  20
 207.62669095345
  30
0.0
  40
 0.30000000000000
 100
AcDbArc
  50
 270.00000000000
  51
0.0
   0
POINT
   5
213
 100
AcDbEntity
   8
LEVEL001
 100
AcDbPoint
  62
15
  10
 125.92044637368
  20
 207.32669095344
  30
0.0
   0
LINE
   5
214
 100
AcDbEntity
   8
LEVEL001
 100
AcDbLine
   6
CONTINUOUS
  62
15
  10
 125.92044637368
  20
 208.68705183916
  30
0.0
  11
 125.92044637368
  21
 207.62669095344
  31
0.0
   0
LINE
   5
215
 100
AcDbEntity
   8
LEVEL001
 100
AcDbLine
   6
CONTINUOUS
  62
15
  10
 127.42044637368
  20
 207.62669095344
  30
0.0
  11
 127.42044637368
  21
 208.68705183916
  31
0.0
   0
ARC
   5
216
 100
AcDbEntity
   8
LEVEL001
   6
CONTINUOUS
  62
15
 100
AcDbCircle
  10
 127.72044637367
  20
 207.62669095344
  30
0.0
  40
 0.30000000000000
 100
AcDbArc
  50
 180.00000000000
  51
 270.00000000127
   0
POINT
   5
217
 100
AcDbEntity
   8
LEVEL001
 100
AcDbPoint
  62
15
  10
 127.42044637368
  20
 207.32669095344
  30
0.0
   0
LINE
   5
218
 100
AcDbEntity
   8
LEVEL001
 100
AcDbLine
   6
CONTINUOUS
  62
15
  10
 127.72044637368
  20
 207.32669095344
  30
0.0
  11
 128.78080725939
  21
 207.32669095344
  31
0.0
   0
LINE
   5
219
 100
AcDbEntity
   8
LEVEL001
 100
AcDbLine
   6
CONTINUOUS
  62
15
  10
 128.78080725939
  20
 205.82669095344
  30
0.0
  11
 127.72044637368
  21
 205.82669095344
  31
0.0
   0
ARC
   5
21A
 100
AcDbEntity
   8
LEVEL001
   6
CONTINUOUS
  62
15
 100
AcDbCircle
  10
 127.72044637368
  20
 205.52669095344
  30
0.0
  40
 0.30000000000000
 100
AcDbArc
  50
 90.000000000000
  51
 179.99999999917
   0
POINT
   5
21B
 100
AcDbEntity
   8
LEVEL001
 100
AcDbPoint
  62
15
  10
 127.42044637368
  20
 205.82669095344
  30
0.0
   0
LINE
   5
21C
 100
AcDbEntity
   8
LEVEL001
 100
AcDbLine
   6
CONTINUOUS
  62
15
  10
 127.42044637368
  20
 204.46633006772
  30
0.0
  11
 127.42044637368
  21
 205.52669095344
  31
0.0
   0
LINE
   5
21D
 100
AcDbEntity
   8
LEVEL001
 100
AcDbLine
   6
CONTINUOUS
  62
15
  10
 125.92044637368
  20
 205.52669095344
  30
0.0
  11
 125.92044637368
  21
 204.46633006772
  31
0.0
   0
ARC
   5
21E
 100
AcDbEntity
   8
LEVEL001
   6
CONTINUOUS
  62
15
 100
AcDbCircle
  10
 125.62044637368
  20
 205.52669095344
  30
0.0
  40
 0.30000000000000
 100
AcDbArc
  50
0.0
  51
 90.000000001050
   0
POINT
   5
21F
 100
AcDbEntity
   8
LEVEL001
 100
AcDbPoint
  62
15
  10
 125.92044637368
  20
 205.82669095344
  30
0.0
   0
LINE
   5
220
 100
AcDbEntity
   8
LEVEL001
 100
AcDbLine
   6
CONTINUOUS
  62
15
  10
 125.62044637368
  20
 205.82669095344
  30
0.0
  11
 124.56008548796
  21
 205.82669095344
  31
0.0
   0
DIMENSION
   5
221
 100
AcDbEntity
   8
LEVEL001
   6
CONTINUOUS
  62
3
 100
AcDbDimension
   2
*D1
  10
 104.96513677657
  20
 223.07669095344
  30
0.0
  11
 104.96513677657
  21
 214.82669095344
  31
0.0
  70
0
   3
GMM001
 100
AcDbAlignedDimension
  13
 110.28601054155
  23
 206.57669095344
  33
0.0
  14
 115.67044637368
  24
 223.07669095344
  34
0.0
  50
 90.000000000000
 100
AcDbRotatedDimension
   0
DIMENSION
   5
222
 100
AcDbEntity
   8
LEVEL001
   6
CONTINUOUS
  62
3
 100
AcDbDimension
   2
*D2
  10
 95.775756245595
  20
 223.07669095344
  30
0.0
  11
 95.775756245595
  21
 209.32669095344
  31
0.0
  70
0
   3
GMM001
 100
AcDbAlignedDimension
  13
 126.67044637368
  23
 195.57669095344
  33
0.0
  14
 103.96513677657
  24
 223.07669095344
  34
0.0
  50
 90.000000000000
 100
AcDbRotatedDimension
   0
DIMENSION
   5
223
 100
AcDbEntity
   8
LEVEL001
   6
CONTINUOUS
  62
3
 100
AcDbDimension
   2
*D3
  10
 241.67044637368
  20
 241.87091194665
  30
0.0
  11
 184.17044637368
  21
 241.87091194665
  31
0.0
  70
0
   3
GMM001
 100
AcDbAlignedDimension
  13
 126.67044637368
  23
 228.95085893346
  33
0.0
  14
 241.67044637368
  24
 223.07669095344
  34
0.0
 100
AcDbRotatedDimension
   0
DIMENSION
   5
224
 100
AcDbEntity
   8
LEVEL001
   6
CONTINUOUS
  62
3
 100
AcDbDimension
   2
*D4
  10
 255.38658781741
  20
 221.07669095344
  30
0.0
  11
 255.38658781741
  21
 216.05427207438
  31
0.0
  70
128
   3
GMM002
 100
AcDbAlignedDimension
  13
 241.67044637368
  23
 223.07669095344
  33
0.0
  14
 241.67044637368
  24
 221.07669095344
  34
0.0
  50
 270.00000000000
 100
AcDbRotatedDimension
   0
CIRCLE
   5
225
 100
AcDbEntity
   8
LEVEL001
 100
AcDbCircle
   6
CONTINUOUS
  62
7
  10
 233.67044637368
  20
 169.06979312695
  30
0.0
  40
 2.2500000000000
   0
CIRCLE
   5
226
 100
AcDbEntity
   8
LEVEL001
 100
AcDbCircle
   6
CONTINUOUS
  62
7
  10
 218.67044637368
  20
 169.06979312695
  30
0.0
  40
 2.2500000000000
   0
CIRCLE
   5
227
 100
AcDbEntity
   8
LEVEL001
 100
AcDbCircle
   6
CONTINUOUS
  62
7
  10
 218.67044637368
  20
 148.06979312695
  30
0.0
  40
 2.2500000000000
   0
CIRCLE
   5
228
 100
AcDbEntity
   8
LEVEL001
 100
AcDbCircle
   6
CONTINUOUS
  62
7
  10
 233.67044637368
  20
 148.06979312695
  30
0.0
  40
 2.2500000000000
   0
CIRCLE
   5
229
 100
AcDbEntity
   8
LEVEL001
 100
AcDbCircle
   6
CONTINUOUS
  62
7
  10
 233.67044637368
  20
 148.06979312695
  30
0.0
  40
 4.2500000000000
   0
CIRCLE
   5
22A
 100
AcDbEntity
   8
LEVEL001
 100
AcDbCircle
   6
CONTINUOUS
  62
7
  10
 218.67044637368
  20
 148.06979312695
  30
0.0
  40
 4.2500000000000
   0
CIRCLE
   5
22B
 100
AcDbEntity
   8
LEVEL001
 100
AcDbCircle
   6
CONTINUOUS
  62
7
  10
 218.67044637368
  20
 169.06979312695
  30
0.0
  40
 4.2500000000000
   0
CIRCLE
   5
22C
 100
AcDbEntity
   8
LEVEL001
 100
AcDbCircle
   6
CONTINUOUS
  62
7
  10
 233.67044637368
  20
 169.06979312695
  30
0.0
  40
 4.2500000000000
   0
LINE
   5
22D
 100
AcDbEntity
   8
LEVEL001
 100
AcDbLine
   6
CONTINUOUS
  62
1
  10
 137.67044637368
  20
 75.569793126966
  30
0.0
  11
 137.67044637368
  21
 75.604738992459
  31
0.0
   0
LINE
   5
22E
 100
AcDbEntity
   8
LEVEL001
 100
AcDbLine
   6
CONTINUOUS
  62
7
  10
 115.67044637368
  20
 73.569793126952
  30
0.0
  11
 137.67044637368
  21
 73.569793126952
  31
0.0
   0
LINE
   5
22F
 100
AcDbEntity
   8
LEVEL001
 100
AcDbLine
   6
CONTINUOUS
  62
7
  10
 115.67044637368
  20
 75.569793126952
  30
0.0
  11
 137.67044637366
  21
 75.569793126952
  31
0.0
   0
LINE
   5
230
 100
AcDbEntity
   8
LEVEL001
 100
AcDbLine
   6
CONTINUOUS
  62
7
  10
 115.67044637369
  20
 75.569793126949
  30
0.0
  11
 117.52115281699
  21
 85.748678565150
  31
0.0
   0
ARC
   5
231
 100
AcDbEntity
   8
LEVEL001
   6
CONTINUOUS
  62
7
 100
AcDbCircle
  10
 118.50502272709
  20
 85.569793126952
  30
0.0
  40
 1.0000000000000
 100
AcDbArc
  50
 89.999999999999
  51
 169.69515353131
   0
POINT
   5
232
 100
AcDbEntity
   8
LEVEL001
 100
AcDbPoint
  62
7
  10
 117.67044637368
  20
 86.569793126952
  30
0.0
   0
LINE
   5
233
 100
AcDbEntity
   8
LEVEL001
 100
AcDbLine
   6
CONTINUOUS
  62
7
  10
 134.83587002027
  20
 86.569793126952
  30
0.0
  11
 118.50502272709
  21
 86.569793126952
  31
0.0
   0
ARC
   5
234
 100
AcDbEntity
   8
LEVEL001
   6
CONTINUOUS
  62
7
 100
AcDbCircle
  10
 134.83587002027
  20
 85.569793126952
  30
0.0
  40
 1.0000000000000
 100
AcDbArc
  50
 10.304846468660
  51
 89.999999999993
   0
POINT
   5
235
 100
AcDbEntity
   8
LEVEL001
 100
AcDbPoint
  62
7
  10
 135.67044637368
  20
 86.569793126952
  30
0.0
   0
LINE
   5
236
 100
AcDbEntity
   8
LEVEL001
 100
AcDbLine
   6
CONTINUOUS
  62
7
  10
 137.67044637366
  20
 75.569793126949
  30
0.0
  11
 135.81973993037
  21
 85.748678565150
  31
0.0
   0
ARC
   5
237
 100
AcDbEntity
   8
LEVEL001
   6
DOT
  62
1
 100
AcDbCircle
  10
 121.67044637368
  20
 79.013216311221
  30
0.0
  40
 6.0000000000000
 100
AcDbArc
  50
 133.84266693188
  51
 141.48344489375
   0
LINE
   5
238
 100
AcDbEntity
   8
LEVEL001
 100
AcDbLine
   6
DOT
  62
1
  10
 120.87663194069
  20
 86.569793126952
  30
0.0
  11
 117.51436360653
  21
 83.340683934743
  31
0.0
   0
LINE
   5
239
 100
AcDbEntity
   8
LEVEL001
 100
AcDbLine
   6
CONTINUOUS
  62
7
  10
 137.67044637368
  20
 78.500175580851
  30
0.0
  11
 137.67044637368
  21
 73.569793126952
  31
0.0
   0
ARC
   5
23A
 100
AcDbEntity
   8
LEVEL001
   6
CONTINUOUS
  62
7
 100
AcDbCircle
  10
 143.67044637368
  20
 78.500175580851
  30
0.0
  40
 6.0000000000000
 100
AcDbArc
  50
 125.81116392264
  51
 180.00000000000
   0
POINT
   5
23B
 100
AcDbEntity
   8
LEVEL001
 100
AcDbPoint
  62
7
  10
 137.67044637368
  20
 81.569793126952
  30
0.0
   0
LINE
   5
23C
 100
AcDbEntity
   8
LEVEL001
 100
AcDbLine
   6
CONTINUOUS
  62
7
  10
 115.67044637368
  20
 79.013216311221
  30
0.0
  11
 115.67044637368
  21
 73.569793126952
  31
0.0
   0
POINT
   5
23D
 100
AcDbEntity
   8
LEVEL001
 100
AcDbPoint
  62
7
  10
 115.67044637368
  20
 81.569793126953
  30
0.0
   0
ARC
   5
23E
 100
AcDbEntity
   8
LEVEL001
   6
CONTINUOUS
  62
7
 100
AcDbCircle
  10
 121.67044637368
  20
 79.013216311221
  30
0.0
  40
 6.0000000000000
 100
AcDbArc
  50
 141.48344489374
  51
 180.00000000000
   0
LINE
   5
23F
 100
AcDbEntity
   8
LEVEL001
 100
AcDbLine
   6
CONTINUOUS
  62
7
  10
 215.21919405388
  20
 177.17601614655
  30
0.0
  11
 120.87663194069
  21
 86.569793126952
  31
0.0
   0
ARC
   5
240
 100
AcDbEntity
   8
LEVEL001
   6
CONTINUOUS
  62
7
 100
AcDbCircle
  10
 218.68259635984
  20
 173.56979312695
  30
0.0
  40
 5.0000000000000
 100
AcDbArc
  50
 89.999999999990
  51
 133.84266693186
   0
POINT
   5
241
 100
AcDbEntity
   8
LEVEL001
 100
AcDbPoint
  62
7
  10
 216.67044637368
  20
 178.56979312695
  30
0.0
   0
LINE
   5
242
 100
AcDbEntity
   8
LEVEL001
 100
AcDbLine
   6
CONTINUOUS
  62
7
  10
 215.36036183611
  20
 137.62454225807
  30
0.0
  11
 140.15975218926
  21
 83.365874538198
  31
0.0
   0
ARC
   5
243
 100
AcDbEntity
   8
LEVEL001
   6
CONTINUOUS
  62
7
 100
AcDbCircle
  10
 218.28594032312
  20
 133.56979312695
  30
0.0
  40
 5.0000000000000
 100
AcDbArc
  50
 90.000000000007
  51
 125.81116392265
   0
POINT
   5
244
 100
AcDbEntity
   8
LEVEL001
 100
AcDbPoint
  62
7
  10
 216.67044637368
  20
 138.56979312695
  30
0.0
   0
LINE
   5
245
 100
AcDbEntity
   8
LEVEL001
 100
AcDbLine
   6
CONTINUOUS
  62
7
  10
 239.67044637368
  20
 138.56979312695
  30
0.0
  11
 218.28594032312
  21
 138.56979312695
  31
0.0
   0
ARC
   5
246
 100
AcDbEntity
   8
LEVEL001
   6
CONTINUOUS
  62
7
 100
AcDbCircle
  10
 239.67044637368
  20
 140.56979312695
  30
0.0
  40
 2.0000000000000
 100
AcDbArc
  50
 270.00000000000
  51
0.0
   0
POINT
   5
247
 100
AcDbEntity
   8
LEVEL001
 100
AcDbPoint
  62
7
  10
 241.67044637368
  20
 138.56979312695
  30
0.0
   0
LINE
   5
248
 100
AcDbEntity
   8
LEVEL001
 100
AcDbLine
   6
CONTINUOUS
  62
7
  10
 239.67044637368
  20
 178.56979312695
  30
0.0
  11
 218.68259635984
  21
 178.56979312695
  31
0.0
   0
ARC
   5
249
 100
AcDbEntity
   8
LEVEL001
   6
CONTINUOUS
  62
7
 100
AcDbCircle
  10
 239.67044637368
  20
 176.56979312695
  30
0.0
  40
 2.0000000000000
 100
AcDbArc
  50
 0.19541327962912E-10
  51
 90.000000000000
   0
POINT
   5
24A
 100
AcDbEntity
   8
LEVEL001
 100
AcDbPoint
  62
7
  10
 241.67044637368
  20
 178.56979312695
  30
0.0
   0
LINE
   5
24B
 100
AcDbEntity
   8
LEVEL001
 100
AcDbLine
   6
CONTINUOUS
  62
7
  10
 241.67044637368
  20
 176.56979312695
  30
0.0
  11
 241.67044637368
  21
 140.56979312695
  31
0.0
   0
LINE
   5
24C
 100
AcDbEntity
   8
LEVEL001
 100
AcDbLine
   6
DASHDOT
  62
3
  10
 240.09525729210
  20
 169.06979312695
  30
0.0
  11
 211.50607341796
  21
 169.06979312695
  31
0.0
   0
LINE
   5
24D
 100
AcDbEntity
   8
LEVEL001
 100
AcDbLine
   6
DASHDOT
  62
3
  10
 218.67044637368
  20
 140.97503064461
  30
0.0
  11
 218.67044637368
  21
 175.86352621984
  31
0.0
   0
LINE
   5
24E
 100
AcDbEntity
   8
LEVEL001
 100
AcDbLine
   6
DASHDOT
  62
3
  10
 233.67044637368
  20
 140.97503064461
  30
0.0
  11
 233.67044637368
  21
 175.86352621984
  31
0.0
   0
LINE
   5
24F
 100
AcDbEntity
   8
LEVEL001
 100
AcDbLine
   6
DASHDOT
  62
3
  10
 240.09525729210
  20
 148.06979312695
  30
0.0
  11
 211.50607341796
  21
 148.06979312695
  31
0.0
   0
LINE
   5
250
 100
AcDbEntity
   8
LEVEL001
 100
AcDbLine
   6
DOT
  62
1
  10
 122.67044637368
  20
 79.569793126952
  30
0.0
  11
 130.67044637368
  21
 79.569793126952
  31
0.0
   0
LINE
   5
251
 100
AcDbEntity
   8
LEVEL001
 100
AcDbLine
   6
DOT
  62
1
  10
 122.67044637368
  20
 86.569793126952
  30
0.0
  11
 122.67044637368
  21
 79.569793126952
  31
0.0
   0
LINE
   5
252
 100
AcDbEntity
   8
LEVEL001
 100
AcDbLine
   6
DOT
  62
1
  10
 130.67044637368
  20
 79.569793126952
  30
0.0
  11
 130.67044637368
  21
 86.569793126952
  31
0.0
   0
ARC
   5
253
 100
AcDbEntity
   8
LEVEL001
   6
DOT
  62
1
 100
AcDbCircle
  10
 125.42044637368
  20
 80.569793126952
  30
0.0
  40
 1.5000000000000
 100
AcDbArc
  50
 90.000000000000
  51
 180.00000000000
   0
POINT
   5
254
 100
AcDbEntity
   8
LEVEL001
 100
AcDbPoint
  62
1
  10
 123.92044637368
  20
 82.069793126952
  30
0.0
   0
LINE
   5
255
 100
AcDbEntity
   8
LEVEL001
 100
AcDbLine
   6
DOT
  62
1
  10
 123.92044637368
  20
 80.069793126952
  30
0.0
  11
 123.92044637368
  21
 80.569793126952
  31
0.0
   0
LINE
   5
256
 100
AcDbEntity
   8
LEVEL001
 100
AcDbLine
   6
DOT
  62
1
  10
 127.92044637368
  20
 82.069793126952
  30
0.0
  11
 125.42044637368
  21
 82.069793126952
  31
0.0
   0
ARC
   5
257
 100
AcDbEntity
   8
LEVEL001
   6
DOT
  62
1
 100
AcDbCircle
  10
 127.92044637368
  20
 80.569793126953
  30
0.0
  40
 1.5000000000000
 100
AcDbArc
  50
0.0
  51
 90.000000000000
   0
POINT
   5
258
 100
AcDbEntity
   8
LEVEL001
 100
AcDbPoint
  62
1
  10
 129.42044637368
  20
 82.069793126952
  30
0.0
   0
LINE
   5
259
 100
AcDbEntity
   8
LEVEL001
 100
AcDbLine
   6
DOT
  62
1
  10
 129.42044637368
  20
 80.069793126952
  30
0.0
  11
 129.42044637368
  21
 80.569793126952
  31
0.0
   0
LINE
   5
25A
 100
AcDbEntity
   8
LEVEL001
 100
AcDbLine
   6
DOT
  62
1
  10
 122.67044637368
  20
 80.069793126952
  30
0.0
  11
 130.67044637368
  21
 80.069793126952
  31
0.0
   0
LINE
   5
25B
 100
AcDbEntity
   8
LEVEL001
 100
AcDbLine
   6
CONTINUOUS
  62
15
  10
 125.17044637368
  20
 71.169793126952
  30
0.0
  11
 125.17044637368
  21
 70.569793126952
  31
0.0
   0
LINE
   5
25C
 100
AcDbEntity
   8
LEVEL001
 100
AcDbLine
   6
CONTINUOUS
  62
15
  10
 128.17044637368
  20
 71.169793126952
  30
0.0
  11
 128.17044637368
  21
 70.569793126952
  31
0.0
   0
LINE
   5
25D
 100
AcDbEntity
   8
LEVEL001
 100
AcDbLine
   6
CONTINUOUS
  62
15
  10
 125.67044637368
  20
 71.169793126952
  30
0.0
  11
 125.67044637368
  21
 70.069793126952
  31
0.0
   0
LINE
   5
25E
 100
AcDbEntity
   8
LEVEL001
 100
AcDbLine
   6
CONTINUOUS
  62
15
  10
 127.67044637368
  20
 71.169793126952
  30
0.0
  11
 127.67044637368
  21
 70.069793126952
  31
0.0
   0
LINE
   5
25F
 100
AcDbEntity
   8
LEVEL001
 100
AcDbLine
   6
DOT
  62
1
  10
 125.17044637368
  20
 80.069793126952
  30
0.0
  11
 125.17044637368
  21
 71.169793126952
  31
0.0
   0
LINE
   5
260
 100
AcDbEntity
   8
LEVEL001
 100
AcDbLine
   6
DOT
  62
1
  10
 125.67044637368
  20
 80.069793126952
  30
0.0
  11
 125.67044637368
  21
 71.169793126952
  31
0.0
   0
LINE
   5
261
 100
AcDbEntity
   8
LEVEL001
 100
AcDbLine
   6
DOT
  62
1
  10
 127.67044637368
  20
 80.069793126952
  30
0.0
  11
 127.67044637368
  21
 71.169793126952
  31
0.0
   0
LINE
   5
262
 100
AcDbEntity
   8
LEVEL001
 100
AcDbLine
   6
DOT
  62
1
  10
 128.17044637368
  20
 80.069793126952
  30
0.0
  11
 128.17044637368
  21
 71.169793126952
  31
0.0
   0
LINE
   5
263
 100
AcDbEntity
   8
LEVEL001
 100
AcDbLine
   6
CONTINUOUS
  62
7
  10
 123.49501989313
  20
 71.469793126952
  30
0.0
  11
 123.49501989313
  21
 73.569793126952
  31
0.0
   0
LINE
   5
264
 100
AcDbEntity
   8
LEVEL001
 100
AcDbLine
   6
CONTINUOUS
  62
7
  10
 123.49501989313
  20
 71.469793126952
  30
0.0
  11
 123.79501989313
  21
 71.169793126952
  31
0.0
   0
POINT
   5
265
 100
AcDbEntity
   8
LEVEL001
 100
AcDbPoint
  62
7
  10
 123.49501989313
  20
 71.169793126952
  30
0.0
   0
LINE
   5
266
 100
AcDbEntity
   8
LEVEL001
 100
AcDbLine
   6
CONTINUOUS
  62
7
  10
 129.84587285422
  20
 71.469793126952
  30
0.0
  11
 129.84587285422
  21
 73.569793126952
  31
0.0
   0
LINE
   5
267
 100
AcDbEntity
   8
LEVEL001
 100
AcDbLine
   6
CONTINUOUS
  62
7
  10
 129.84587285422
  20
 71.469793126952
  30
0.0
  11
 129.54587285422
  21
 71.169793126952
  31
0.0
   0
POINT
   5
268
 100
AcDbEntity
   8
LEVEL001
 100
AcDbPoint
  62
7
  10
 129.84587285422
  20
 71.169793126952
  30
0.0
   0
LINE
   5
269
 100
AcDbEntity
   8
LEVEL001
 100
AcDbLine
   6
CONTINUOUS
  62
7
  10
 123.79501989313
  20
 71.169793126952
  30
0.0
  11
 129.54587285422
  21
 71.169793126952
  31
0.0
   0
LINE
   5
26A
 100
AcDbEntity
   8
LEVEL001
 100
AcDbLine
   6
CONTINUOUS
  62
7
  10
 125.08273313341
  20
 71.469793126952
  30
0.0
  11
 125.38273313341
  21
 71.169793126952
  31
0.0
   0
LINE
   5
26B
 100
AcDbEntity
   8
LEVEL001
 100
AcDbLine
   6
CONTINUOUS
  62
7
  10
 128.25815961395
  20
 71.469793126952
  30
0.0
  11
 128.55815961395
  21
 71.169793126952
  31
0.0
   0
LINE
   5
26C
 100
AcDbEntity
   8
LEVEL001
 100
AcDbLine
   6
CONTINUOUS
  62
7
  10
 128.25815961395
  20
 71.469793126952
  30
0.0
  11
 127.95815961395
  21
 71.169793126952
  31
0.0
   0
LINE
   5
26D
 100
AcDbEntity
   8
LEVEL001
 100
AcDbLine
   6
CONTINUOUS
  62
7
  10
 125.08273313341
  20
 71.469793126952
  30
0.0
  11
 124.78273313341
  21
 71.169793126952
  31
0.0
   0
LINE
   5
26E
 100
AcDbEntity
   8
LEVEL001
 100
AcDbLine
   6
CONTINUOUS
  62
7
  10
 125.08273313341
  20
 71.469793126952
  30
0.0
  11
 125.08273313341
  21
 73.569793126952
  31
0.0
   0
LINE
   5
26F
 100
AcDbEntity
   8
LEVEL001
 100
AcDbLine
   6
CONTINUOUS
  62
7
  10
 128.25815961395
  20
 71.469793126952
  30
0.0
  11
 128.25815961395
  21
 73.569793126952
  31
0.0
   0
LINE
   5
270
 100
AcDbEntity
   8
LEVEL001
 100
AcDbLine
   6
DASHDOT
  62
3
  10
 126.67044637368
  20
 66.770470067125
  30
0.0
  11
 126.67044637368
  21
 89.181990304476
  31
0.0
   0
DIMENSION
   5
271
 100
AcDbEntity
   8
LEVEL001
   6
CONTINUOUS
  62
3
 100
AcDbDimension
   2
*D5
  10
 255.38658781741
  20
 169.06979312695
  30
0.0
  11
 255.38658781741
  21
 158.56979312695
  31
0.0
  70
0
   3
GMM001
 100
AcDbAlignedDimension
  13
 240.09525729210
  23
 148.06979312695
  33
0.0
  14
 240.09525729210
  24
 169.06979312695
  34
0.0
  50
 90.000000000000
 100
AcDbRotatedDimension
   0
DIMENSION
   5
272
 100
AcDbEntity
   8
LEVEL001
   6
CONTINUOUS
  62
3
 100
AcDbDimension
   2
*D6
  10
 233.67044637368
  20
 188.81571634952
  30
0.0
  11
 226.17044637368
  21
 188.81571634952
  31
0.0
  70
0
   3
GMM001
 100
AcDbAlignedDimension
  13
 218.67044637368
  23
 175.86352621984
  33
0.0
  14
 233.67044637368
  24
 175.86352621984
  34
0.0
 100
AcDbRotatedDimension
   0
DIMENSION
   5
273
 100
AcDbEntity
   8
LEVEL001
   6
CONTINUOUS
  62
3
 100
AcDbDimension
   2
*D7
  10
 255.38658781741
  20
 169.06979312695
  30
0.0
  11
 255.38658781741
  21
 173.81979312695
  31
0.0
  70
0
   3
GMM001
 100
AcDbAlignedDimension
  13
 241.67044637368
  23
 178.56979312695
  33
0.0
  14
 255.38658781741
  24
 169.06979312695
  34
0.0
  50
 270.00000000000
 100
AcDbRotatedDimension
   0
DIMENSION
   5
274
 100
AcDbEntity
   8
LEVEL001
   6
CONTINUOUS
  62
3
 100
AcDbDimension
   2
*D8
  10
 255.38658781741
  20
 148.06979312695
  30
0.0
  11
 255.38658781741
  21
 143.31979312695
  31
0.0
  70
0
   3
GMM001
 100
AcDbAlignedDimension
  13
 241.67044637368
  23
 138.56979312695
  33
0.0
  14
 255.38658781741
  24
 148.06979312695
  34
0.0
  50
 90.000000000000
 100
AcDbRotatedDimension
   0
DIMENSION
   5
275
 100
AcDbEntity
   8
LEVEL001
   6
CONTINUOUS
  62
3
 100
AcDbDimension
   2
*D9
  10
 266.36834841359
  20
 138.56979312695
  30
0.0
  11
 266.36834841359
  21
 158.56979312695
  31
0.0
  70
0
   3
GMM001
 100
AcDbAlignedDimension
  13
 256.38658781741
  23
 178.56979312695
  33
0.0
  14
 256.38658781741
  24
 138.56979312695
  34
0.0
  50
 270.00000000000
 100
AcDbRotatedDimension
   0
DIMENSION
   5
276
 100
AcDbEntity
   8
LEVEL001
   6
CONTINUOUS
  62
3
 100
AcDbDimension
   2
*D10
  10
 241.67044637368
  20
 188.81571634952
  30
0.0
  11
 237.67044637368
  21
 188.81571634952
  31
0.0
  70
0
   3
GMM001
 100
AcDbAlignedDimension
  13
 233.67044637368
  23
 188.81571634952
  33
0.0
  14
 241.67044637368
  24
 178.56979312695
  34
0.0
 100
AcDbRotatedDimension
   0
DIMENSION
   5
277
 100
AcDbEntity
   8
LEVEL001
   6
CONTINUOUS
  62
3
 100
AcDbDimension
   2
*D11
  10
 241.67044637368
  20
 198.64475415559
  30
0.0
  11
 229.17044637368
  21
 198.64475415559
  31
0.0
  70
0
   3
GMM001
 100
AcDbAlignedDimension
  13
 216.67044637368
  23
 189.81571634952
  33
0.0
  14
 241.67044637368
  24
 189.81571634952
  34
0.0
 100
AcDbRotatedDimension
   0
DIMENSION
   5
278
 100
AcDbEntity
   8
LEVEL001
   6
CONTINUOUS
  62
3
 100
AcDbDimension
   2
*D12
  10
 218.67044637368
  20
 188.81571634952
  30
0.0
  11
 209.41557911704
  21
 188.81571634952
  31
0.0
  70
128
   3
GMM002
 100
AcDbAlignedDimension
  13
 216.67044637368
  23
 178.56979312695
  33
0.0
  14
 218.67044637368
  24
 188.81571634952
  34
0.0
 100
AcDbRotatedDimension
   0
LINE
   5
279
 100
AcDbEntity
   8
LEVEL001
 100
AcDbLine
   6
CONTINUOUS
  62
15
  10
 125.67044637368
  20
 70.069793126952
  30
0.0
  11
 125.17044637368
  21
 70.569793126952
  31
0.0
   0
LINE
   5
27A
 100
AcDbEntity
   8
LEVEL001
 100
AcDbLine
   6
CONTINUOUS
  62
15
  10
 127.67044637368
  20
 70.069793126952
  30
0.0
  11
 128.17044637368
  21
 70.569793126952
  31
0.0
   0
LINE
   5
27B
 100
AcDbEntity
   8
LEVEL001
 100
AcDbLine
   6
CONTINUOUS
  62
15
  10
 125.67044637368
  20
 70.069793126952
  30
0.0
  11
 127.67044637368
  21
 70.069793126952
  31
0.0
   0
DIMENSION
   5
27C
 100
AcDbEntity
   8
LEVEL001
   6
CONTINUOUS
  62
3
 100
AcDbDimension
   2
*D13
  10
 278.90548717609
  20
 178.56979312695
  30
0.0
  11
 278.90548717609
  21
 126.06979312695
  31
0.0
  70
0
   3
GMM001
 100
AcDbAlignedDimension
  13
 137.67044637368
  23
 73.569793126952
  33
0.0
  14
 267.36834841359
  24
 178.56979312695
  34
0.0
  50
 90.000000000000
 100
AcDbRotatedDimension
   0
DIMENSION
   5
27D
 100
AcDbEntity
   8
LEVEL001
   6
CONTINUOUS
  62
3
 100
AcDbDimension
   2
*D14
  10
 104.96513677657
  20
 86.569793126952
  30
0.0
  11
 104.96513677657
  21
 80.069793126952
  31
0.0
  70
0
   3
GMM001
 100
AcDbAlignedDimension
  13
 115.67044637368
  23
 73.569793126952
  33
0.0
  14
 117.67044637368
  24
 86.569793126952
  34
0.0
  50
 90.000000000000
 100
AcDbRotatedDimension
   0
DIMENSION
   5
27E
 100
AcDbEntity
   8
LEVEL001
   6
CONTINUOUS
  62
3
 100
AcDbDimension
   2
*D15
  10
 137.67044637368
  20
 58.254876423297
  30
0.0
  11
 126.67044637368
  21
 58.254876423297
  31
0.0
  70
0
   3
GMM003
 100
AcDbAlignedDimension
  13
 115.67044637368
  23
 73.569793126952
  33
0.0
  14
 137.67044637368
  24
 73.569793126952
  34
0.0
 100
AcDbRotatedDimension
   0
INSERT
   5
27F
 100
AcDbEntity
   8
LEVEL001
 100
AcDbBlockReference
   2
*D16
  10
0.0
  20
0.0
  30
0.0
   0
ENDSEC
  0
SECTION
  2
OBJECTS
  0
DICTIONARY
  5
C
100
AcDbDictionary
  3
ACAD_GROUP
350
D
  3
ACAD_MLINESTYLE
350
1B
  0
DICTIONARY
  5
D
102
{ACAD_REACTORS
330
C
102
}
100
AcDbDictionary
  0
DICTIONARY
  5
1B
102
{ACAD_REACTORS
330
C
102
}
100
AcDbDictionary
  3
STANDARD
350
1C
  0
MLINESTYLE
  5
1C
102
{ACAD_REACTORS
330
1B
102
}
100
AcDbMlineStyle
  2
STANDARD
 70
     0
  3

 62
   256
 51
90.0
 52
90.0
 71
     2
 49
0.5
 62
   256
  6
BYLAYER
 49
-0.5
 62
   256
  6
BYLAYER
  0
ENDSEC
   0
EOF
