  0
SECTION
  2
HEADER
  9
$ACADVER
  1
AC1009
  9
$INSBASE
 10
0.0
 20
0.0
 30
0.0
  9
$EXTMIN
 10
15.0
 20
10.623482664100999
 30
0.0
  9
$EXTMAX
 10
403.99881737529012
 20
277.5
 30
0.0
  9
$LIMMIN
 10
-1.0
 20
-4.0
  9
$LIMMAX
 10
419.0
 20
293.0
  9
$ORTHOMODE
 70
     0
  9
$REGENMODE
 70
     1
  9
$FILLMODE
 70
     1
  9
$QTEXTMODE
 70
     0
  9
$MIRRTEXT
 70
     0
  9
$DRAGMODE
 70
     2
  9
$LTSCALE
 40
8.4000000000000004
  9
$OSMODE
 70
    37
  9
$ATTMODE
 70
     1
  9
$TEXTSIZE
 40
0.2
  9
$TRACEWID
 40
0.05
  9
$TEXTSTYLE
  7
STANDARD
  9
$CLAYER
  8
0
  9
$CELTYPE
  6
CONTINUOUS
  9
$CECOLOR
 62
   256
  9
$DIMSCALE
 40
1.0
  9
$DIMASZ
 40
0.18
  9
$DIMEXO
 40
0.0625
  9
$DIMDLI
 40
0.38
  9
$DIMRND
 40
0.0
  9
$DIMDLE
 40
0.0
  9
$DIMEXE
 40
0.18
  9
$DIMTP
 40
0.0
  9
$DIMTM
 40
0.0
  9
$DIMTXT
 40
0.18
  9
$DIMCEN
 40
0.09
  9
$DIMTSZ
 40
0.0
  9
$DIMTOL
 70
     0
  9
$DIMLIM
 70
     0
  9
$DIMTIH
 70
     1
  9
$DIMTOH
 70
     1
  9
$DIMSE1
 70
     0
  9
$DIMSE2
 70
     0
  9
$DIMTAD
 70
     0
  9
$DIMZIN
 70
     0
  9
$DIMBLK
  1

  9
$DIMASO
 70
     1
  9
$DIMSHO
 70
     1
  9
$DIMPOST
  1

  9
$DIMAPOST
  1

  9
$DIMALT
 70
     0
  9
$DIMALTD
 70
     2
  9
$DIMALTF
 40
25.399999999999999
  9
$DIMLFAC
 40
1.0
  9
$DIMTOFL
 70
     0
  9
$DIMTVP
 40
0.0
  9
$DIMTIX
 70
     0
  9
$DIMSOXD
 70
     0
  9
$DIMSAH
 70
     0
  9
$DIMBLK1
  1

  9
$DIMBLK2
  1

  9
$DIMSTYLE
  2
STANDARD
  9
$DIMCLRD
 70
     0
  9
$DIMCLRE
 70
     0
  9
$DIMCLRT
 70
     0
  9
$DIMTFAC
 40
1.0
  9
$DIMGAP
 40
0.09
  9
$LUNITS
 70
     2
  9
$LUPREC
 70
     4
  9
$SKETCHINC
 40
0.1
  9
$FILLETRAD
 40
0.0
  9
$AUNITS
 70
     0
  9
$AUPREC
 70
     0
  9
$MENU
  1
.
  9
$ELEVATION
 40
0.0
  9
$PELEVATION
 40
0.0
  9
$THICKNESS
 40
0.0
  9
$LIMCHECK
 70
     0
  9
$BLIPMODE
 70
     0
  9
$CHAMFERA
 40
0.0
  9
$CHAMFERB
 40
0.0
  9
$SKPOLY
 70
     0
  9
$TDCREATE
 40
2459081.668882593
  9
$TDUPDATE
 40
2459081.6690566442
  9
$TDINDWG
 40
0.0001769444
  9
$TDUSRTIMER
 40
0.0001769444
  9
$USRTIMER
 70
     1
  9
$ANGBASE
 50
0.0
  9
$ANGDIR
 70
     0
  9
$PDMODE
 70
     0
  9
$PDSIZE
 40
0.0
  9
$PLINEWID
 40
0.0
  9
$COORDS
 70
     1
  9
$SPLFRAME
 70
     0
  9
$SPLINETYPE
 70
     6
  9
$SPLINESEGS
 70
     8
  9
$ATTDIA
 70
     1
  9
$ATTREQ
 70
     1
  9
$HANDLING
 70
     1
  9
$HANDSEED
  5
8B1
  9
$SURFTAB1
 70
     6
  9
$SURFTAB2
 70
     6
  9
$SURFTYPE
 70
     6
  9
$SURFU
 70
     6
  9
$SURFV
 70
     6
  9
$UCSNAME
  2

  9
$UCSORG
 10
0.0
 20
0.0
 30
0.0
  9
$UCSXDIR
 10
1.0
 20
0.0
 30
0.0
  9
$UCSYDIR
 10
0.0
 20
1.0
 30
0.0
  9
$PUCSNAME
  2

  9
$PUCSORG
 10
0.0
 20
0.0
 30
0.0
  9
$PUCSXDIR
 10
1.0
 20
0.0
 30
0.0
  9
$PUCSYDIR
 10
0.0
 20
1.0
 30
0.0
  9
$USERI1
 70
     0
  9
$USERI2
 70
     0
  9
$USERI3
 70
     0
  9
$USERI4
 70
     0
  9
$USERI5
 70
     0
  9
$USERR1
 40
0.0
  9
$USERR2
 40
0.0
  9
$USERR3
 40
0.0
  9
$USERR4
 40
0.0
  9
$USERR5
 40
0.0
  9
$WORLDVIEW
 70
     1
  9
$SHADEDGE
 70
     3
  9
$SHADEDIF
 70
    70
  9
$TILEMODE
 70
     1
  9
$MAXACTVP
 70
    64
  9
$PLIMCHECK
 70
     0
  9
$PEXTMIN
 10
1.0000000000000000E+020
 20
1.0000000000000000E+020
 30
1.0000000000000000E+020
  9
$PEXTMAX
 10
-1.0000000000000000E+020
 20
-1.0000000000000000E+020
 30
-1.0000000000000000E+020
  9
$PLIMMIN
 10
0.0
 20
0.0
  9
$PLIMMAX
 10
12.0
 20
9.0
  9
$UNITMODE
 70
     0
  9
$VISRETAIN
 70
     1
  9
$PLINEGEN
 70
     0
  9
$PSLTSCALE
 70
     1
  0
ENDSEC
  0
SECTION
  2
TABLES
  0
TABLE
  2
VPORT
 70
     1
  0
VPORT
  2
*ACTIVE
 70
     0
 10
0.0
 20
0.0
 11
1.0
 21
1.0
 12
292.75218105954792
 22
144.5
 13
0.0
 23
0.0
 14
1.0
 24
1.0
 15
0.0
 25
0.0
 16
0.0
 26
0.0
 36
1.0
 17
0.0
 27
0.0
 37
0.0
 40
420.0
 41
1.8776077885952711
 42
50.0
 43
0.0
 44
0.0
 50
0.0
 51
0.0
 71
     0
 72
   100
 73
     1
 74
     1
 75
     0
 76
     0
 77
     0
 78
     0
  0
ENDTAB
  0
TABLE
  2
LTYPE
 70
    25
  0
LTYPE
  2
CONTINUOUS
 70
     0
  3
Solid line
 72
    65
 73
     0
 40
0.0
  0
LTYPE
  2
BORDER
 70
     0
  3
__ __ . __ __ . __ __ . __ __ . __ __ . __ __ .
 72
    65
 73
     6
 40
1.75
 49
0.5
 49
-0.25
 49
0.5
 49
-0.25
 49
0.0
 49
-0.25
  0
LTYPE
  2
BORDER2
 70
     0
  3
__.__.__.__.__.__.__.__.__.__.__.__.__.__.__.__
 72
    65
 73
     6
 40
0.875
 49
0.25
 49
-0.125
 49
0.25
 49
-0.125
 49
0.0
 49
-0.125
  0
LTYPE
  2
BORDERX2
 70
     0
  3
____  ____  .  ____  ____  .  ____  ____  .  __
 72
    65
 73
     6
 40
3.5
 49
1.0
 49
-0.5
 49
1.0
 49
-0.5
 49
0.0
 49
-0.5
  0
LTYPE
  2
CENTER
 70
     0
  3
____ _ ____ _ ____ _ ____ _ ____ _ ____ _ ____ 
 72
    65
 73
     4
 40
2.0
 49
1.25
 49
-0.25
 49
0.25
 49
-0.25
  0
LTYPE
  2
CENTER2
 70
     0
  3
___ _ ___ _ ___ _ ___ _ ___ _ ___ _ ___ _ ___ _
 72
    65
 73
     4
 40
1.125
 49
0.75
 49
-0.125
 49
0.125
 49
-0.125
  0
LTYPE
  2
CENTERX2
 70
     0
  3
________  __  ________  __  ________  __  _____
 72
    65
 73
     4
 40
4.0
 49
2.5
 49
-0.5
 49
0.5
 49
-0.5
  0
LTYPE
  2
DASHDOT
 70
     0
  3
__ . __ . __ . __ . __ . __ . __ . __ . __ . __
 72
    65
 73
     4
 40
1.0
 49
0.5
 49
-0.25
 49
0.0
 49
-0.25
  0
LTYPE
  2
DASHDOT2
 70
     0
  3
_._._._._._._._._._._._._._._._._._._._._._._._
 72
    65
 73
     4
 40
0.5
 49
0.25
 49
-0.125
 49
0.0
 49
-0.125
  0
LTYPE
  2
DASHDOTX2
 70
     0
  3
____  .  ____  .  ____  .  ____  .  ____  .  __
 72
    65
 73
     4
 40
2.0
 49
1.0
 49
-0.5
 49
0.0
 49
-0.5
  0
LTYPE
  2
DASHED
 70
     0
  3
__ __ __ __ __ __ __ __ __ __ __ __ __ __ __ __
 72
    65
 73
     2
 40
0.75
 49
0.5
 49
-0.25
  0
LTYPE
  2
DASHED2
 70
     0
  3
_ _ _ _ _ _ _ _ _ _ _ _ _ _ _ _ _ _ _ _ _ _ _ _
 72
    65
 73
     2
 40
0.375
 49
0.25
 49
-0.125
  0
LTYPE
  2
DASHEDX2
 70
     0
  3
____  ____  ____  ____  ____  ____  ____  ____ 
 72
    65
 73
     2
 40
1.5
 49
1.0
 49
-0.5
  0
LTYPE
  2
DIVIDE
 70
     0
  3
____ . . ____ . . ____ . . ____ . . ____ . . __
 72
    65
 73
     6
 40
1.25
 49
0.5
 49
-0.25
 49
0.0
 49
-0.25
 49
0.0
 49
-0.25
  0
LTYPE
  2
DIVIDE2
 70
     0
  3
__..__..__..__..__..__..__..__..__..__..__..__.
 72
    65
 73
     6
 40
0.625
 49
0.25
 49
-0.125
 49
0.0
 49
-0.125
 49
0.0
 49
-0.125
  0
LTYPE
  2
DIVIDEX2
 70
     0
  3
________  .  .  ________  .  .  ________  .  . 
 72
    65
 73
     6
 40
2.5
 49
1.0
 49
-0.5
 49
0.0
 49
-0.5
 49
0.0
 49
-0.5
  0
LTYPE
  2
DOT
 70
     0
  3
. . . . . . . . . . . . . . . . . . . . . . . .
 72
    65
 73
     2
 40
0.25
 49
0.0
 49
-0.25
  0
LTYPE
  2
DOT2
 70
     0
  3
...............................................
 72
    65
 73
     2
 40
0.125
 49
0.0
 49
-0.125
  0
LTYPE
  2
DOTX2
 70
     0
  3
.  .  .  .  .  .  .  .  .  .  .  .  .  .  .  . 
 72
    65
 73
     2
 40
0.5
 49
0.0
 49
-0.5
  0
LTYPE
  2
HIDDEN
 70
     0
  3
__ __ __ __ __ __ __ __ __ __ __ __ __ __ __ __
 72
    65
 73
     2
 40
0.375
 49
0.25
 49
-0.125
  0
LTYPE
  2
HIDDEN2
 70
     0
  3
_ _ _ _ _ _ _ _ _ _ _ _ _ _ _ _ _ _ _ _ _ _ _ _
 72
    65
 73
     2
 40
0.1875
 49
0.125
 49
-0.0625
  0
LTYPE
  2
HIDDENX2
 70
     0
  3
____ ____ ____ ____ ____ ____ ____ ____ ____ __
 72
    65
 73
     2
 40
0.75
 49
0.5
 49
-0.25
  0
LTYPE
  2
PHANTOM
 70
     0
  3
______  __  __  ______  __  __  ______  __  __ 
 72
    65
 73
     6
 40
2.5
 49
1.25
 49
-0.25
 49
0.25
 49
-0.25
 49
0.25
 49
-0.25
  0
LTYPE
  2
PHANTOM2
 70
     0
  3
___ _ _ ___ _ _ ___ _ _ ___ _ _ ___ _ _ ___ _ _
 72
    65
 73
     6
 40
1.25
 49
0.625
 49
-0.125
 49
0.125
 49
-0.125
 49
0.125
 49
-0.125
  0
LTYPE
  2
PHANTOMX2
 70
     0
  3
____________    ____    ____    ____________   
 72
    65
 73
     6
 40
5.0
 49
2.5
 49
-0.5
 49
0.5
 49
-0.5
 49
0.5
 49
-0.5
  0
ENDTAB
  0
TABLE
  2
LAYER
 70
     2
  0
LAYER
  2
0
 70
     0
 62
     7
  6
CONTINUOUS
  0
LAYER
  2
LAY-1
 70
     0
 62
     7
  6
CONTINUOUS
  0
ENDTAB
  0
TABLE
  2
STYLE
 70
     3
  0
STYLE
  2
STANDARD
 70
     0
 40
0.0
 41
1.0
 50
0.0
 71
     0
 42
0.2
  3
TXT
  4
BIGFONT
  0
STYLE
  2
STANDARD1
 70
     4
 40
0.0
 41
1.0
 50
0.0
 71
     0
 42
0.2
  3
TXT
  4
BIGFONT
  0
STYLE
  2
GMM001
 70
     0
 40
0.0
 41
1.0
 50
0.0
 71
     0
 42
1.0
  3
txt.shx
  4
bigfont.shx
  0
ENDTAB
  0
TABLE
  2
VIEW
 70
     0
  0
ENDTAB
  0
TABLE
  2
UCS
 70
     0
  0
ENDTAB
  0
TABLE
  2
APPID
 70
     3
  0
APPID
  2
ACAD
 70
     0
  0
APPID
  2
ACAD_NAV_VCDISPLAY
 70
     0
  0
APPID
  2
ACAD_MLEADERVER
 70
     0
  0
ENDTAB
  0
TABLE
  2
DIMSTYLE
 70
    11
  0
DIMSTYLE
  2
STANDARD
 70
     0
  3

  4

  5

  6

  7

 40
1.0
 41
0.18
 42
0.0625
 43
0.38
 44
0.18
 45
0.0
 46
0.0
 47
0.0
 48
0.0
140
0.18
141
0.09
142
0.0
143
25.399999999999999
144
1.0
145
0.0
146
1.0
147
0.09
 71
     0
 72
     0
 73
     1
 74
     1
 75
     0
 76
     0
 77
     0
 78
     0
170
     0
171
     2
172
     0
173
     0
174
     0
175
     0
176
     0
177
     0
178
     0
  0
DIMSTYLE
  2
GMM001
 70
     0
  3
%%c<>
  4

  5

  6
OPEN30
  7
OPEN30
 40
1.0
 41
3.0
 42
0.0
 43
8.0
 44
2.0
 45
0.0
 46
3.75
 47
0.0
 48
0.0
140
4.0
141
1.0
142
0.0
143
0.0394
144
1.0
145
0.0
146
0.625
147
1.7142857142857
 71
     0
 72
     0
 73
     0
 74
     0
 75
     0
 76
     0
 77
     1
 78
     8
170
     0
171
     2
172
     1
173
     1
174
     0
175
     0
176
     2
177
     2
178
     2
  0
DIMSTYLE
  2
GMM002
 70
     0
  3
%%c<>
  4

  5

  6
OPEN30
  7
OPEN30
 40
1.0
 41
2.0
 42
0.5
 43
8.0
 44
1.0
 45
0.0
 46
2.5
 47
0.0
 48
0.0
140
4.0
141
1.0
142
0.0
143
0.0394
144
1.0
145
0.0
146
0.625
147
1.7142857142857
 71
     0
 72
     0
 73
     0
 74
     0
 75
     0
 76
     0
 77
     1
 78
     8
170
     0
171
     2
172
     1
173
     1
174
     0
175
     0
176
     2
177
     2
178
     2
  0
DIMSTYLE
  2
GMM003
 70
     0
  3

  4

  5

  6
OPEN30
  7
OPEN30
 40
1.0
 41
2.0
 42
0.5
 43
8.0
 44
1.0
 45
0.0
 46
2.5
 47
0.0
 48
0.0
140
4.0
141
1.0
142
0.0
143
0.0394
144
1.0
145
0.0
146
0.625
147
1.7142857142857
 71
     0
 72
     0
 73
     0
 74
     0
 75
     0
 76
     0
 77
     1
 78
     8
170
     0
171
     2
172
     1
173
     1
174
     0
175
     0
176
     2
177
     2
178
     2
  0
DIMSTYLE
  2
GMM004
 70
     0
  3

  4

  5

  6
OPEN30
  7
OPEN30
 40
1.0
 41
2.0
 42
0.5
 43
8.0
 44
1.0
 45
0.0
 46
2.5
 47
0.0
 48
0.0
140
4.0
141
1.0
142
0.0
143
0.0394
144
1.0
145
0.0
146
0.625
147
1.2203578564996991
 71
     0
 72
     0
 73
     0
 74
     0
 75
     0
 76
     0
 77
     1
 78
     8
170
     0
171
     2
172
     1
173
     1
174
     0
175
     0
176
     2
177
     2
178
     2
  0
DIMSTYLE
  2
GMM005
 70
     0
  3

  4

  5

  6
OPEN30
  7
OPEN30
 40
1.0
 41
2.0
 42
0.5
 43
8.0
 44
1.0
 45
0.0
 46
2.5
 47
0.0
 48
0.0
140
4.0
141
1.0
142
0.0
143
0.0394
144
1.0
145
0.0
146
0.625
147
1.5614580457056
 71
     0
 72
     0
 73
     0
 74
     0
 75
     0
 76
     0
 77
     1
 78
     8
170
     0
171
     2
172
     1
173
     1
174
     0
175
     0
176
     2
177
     2
178
     2
  0
DIMSTYLE
  2
GMM006
 70
     0
  3

  4

  5

  6
OPEN30
  7
OPEN30
 40
1.0
 41
3.0
 42
0.0
 43
8.0
 44
2.0
 45
0.0
 46
0.0
 47
0.0
 48
0.0
140
4.0
141
1.0
142
0.0
143
0.0394
144
1.0
145
0.0
146
0.625
147
0.0
 71
     0
 72
     0
 73
     0
 74
     0
 75
     0
 76
     0
 77
     1
 78
     8
170
     0
171
     2
172
     1
173
     1
174
     0
175
     0
176
     7
177
     7
178
     7
  0
DIMSTYLE
  2
GMM007
 70
     0
  3

  4

  5

  6
OPEN30
  7
NONE
 40
1.0
 41
2.0
 42
0.5
 43
8.0
 44
1.0
 45
0.0
 46
2.5
 47
0.0
 48
0.0
140
4.0
141
1.0
142
0.0
143
0.0394
144
1.0
145
0.0
146
0.625
147
1.7142857142857
 71
     0
 72
     0
 73
     0
 74
     0
 75
     0
 76
     1
 77
     1
 78
     8
170
     0
171
     2
172
     1
173
     1
174
     0
175
     0
176
     2
177
     2
178
     2
  0
DIMSTYLE
  2
GMM008
 70
     0
  3

  4

  5

  6
OPEN30
  7
OPEN30
 40
1.0
 41
2.0
 42
0.5
 43
8.0
 44
1.0
 45
0.0
 46
2.5
 47
0.0
 48
0.0
140
4.0
141
1.0
142
0.0
143
0.0394
144
1.0
145
0.0
146
0.625
147
1.7142857142857
 71
     0
 72
     0
 73
     0
 74
     0
 75
     0
 76
     1
 77
     1
 78
     8
170
     0
171
     2
172
     1
173
     1
174
     0
175
     0
176
     2
177
     2
178
     2
  0
DIMSTYLE
  2
GMM009
 70
     0
  3

  4

  5

  6
NONE
  7
OPEN30
 40
1.0
 41
2.0
 42
0.5
 43
8.0
 44
1.0
 45
0.0
 46
2.5
 47
0.0
 48
0.0
140
4.0
141
1.0
142
0.0
143
0.0394
144
1.0
145
0.0
146
0.625
147
1.7142857142857
 71
     0
 72
     0
 73
     0
 74
     0
 75
     0
 76
     0
 77
     1
 78
     8
170
     0
171
     2
172
     1
173
     1
174
     0
175
     0
176
     2
177
     2
178
     2
  0
DIMSTYLE
  2
GMM010
 70
     0
  3
%%c<> 
  4

  5

  6
OPEN30
  7
OPEN30
 40
1.0
 41
3.0
 42
0.0
 43
8.0
 44
2.0
 45
0.0
 46
12.161688179971
 47
0.0
 48
0.0
140
4.0
141
1.0
142
0.0
143
0.0394
144
1.0
145
0.0
146
0.625
147
0.0
 71
     0
 72
     0
 73
     1
 74
     1
 75
     1
 76
     1
 77
     1
 78
     8
170
     0
171
     2
172
     1
173
     1
174
     0
175
     0
176
     2
177
     2
178
     7
  0
ENDTAB
  0
ENDSEC
  0
SECTION
  2
BLOCKS
  0
BLOCK
  8
0
  2
$MODEL_SPACE
 70
     0
 10
0.0
 20
0.0
 30
0.0
  3
$MODEL_SPACE
  1

  0
ENDBLK
  5
1A
  8
0
  0
BLOCK
 67
     1
  8
0
  2
$PAPER_SPACE
 70
     0
 10
0.0
 20
0.0
 30
0.0
  3
$PAPER_SPACE
  1

  0
ENDBLK
  5
17
 67
     1
  8
0
  0
BLOCK
  8
0
  2
BLOCK001
 70
     0
 10
0.0
 20
0.0
 30
0.0
  3
BLOCK001
  1

  0
POLYLINE
  5
BE
  8
0
  6
CONTINUOUS
 62
     8
 66
     1
 10
0.0
 20
0.0
 30
0.0
 70
     1
  0
VERTEX
  5
69F
  8
0
  6
CONTINUOUS
 62
     8
 10
308.57933271356001
 20
18.501906399220001
 30
0.0
  0
VERTEX
  5
6A0
  8
0
  6
CONTINUOUS
 62
     8
 10
311.87601195884002
 20
23.726906399219999
 30
0.0
  0
VERTEX
  5
6A1
  8
0
  6
CONTINUOUS
 62
     8
 10
315.22001195884002
 20
23.726906399219999
 30
0.0
  0
VERTEX
  5
6A2
  8
0
  6
CONTINUOUS
 62
     8
 10
311.92333271356
 20
18.501906399220001
 30
0.0
  0
VERTEX
  5
6A3
  8
0
  6
CONTINUOUS
 62
     8
 10
312.56465346828003
 20
16.191906399219999
 30
0.0
  0
VERTEX
  5
6A4
  8
0
  6
CONTINUOUS
 62
     8
 10
335.37201195884001
 20
16.191906399219999
 30
0.0
  0
VERTEX
  5
6A5
  8
0
  6
CONTINUOUS
 62
     8
 10
335.37201195884001
 20
15.83990639922
 30
0.0
  0
VERTEX
  5
6A6
  8
0
  6
CONTINUOUS
 62
     8
 10
312.66237853566003
 20
15.83990639922
 30
0.0
  0
VERTEX
  5
6A7
  8
0
  6
CONTINUOUS
 62
     8
 10
313.54801195883999
 20
12.649906399220001
 30
0.0
  0
VERTEX
  5
6A8
  8
0
  6
CONTINUOUS
 62
     8
 10
309.78601195883999
 20
12.649906399220001
 30
0.0
  0
VERTEX
  5
6A9
  8
0
  6
CONTINUOUS
 62
     8
 10
309.12823567852001
 20
15.83990639922
 30
0.0
  0
VERTEX
  5
6AA
  8
0
  6
CONTINUOUS
 62
     8
 10
308.17752139280998
 20
15.83990639922
 30
0.0
  0
VERTEX
  5
6AB
  8
0
  6
CONTINUOUS
 62
     8
 10
307.69601195884002
 20
12.649906399220001
 30
0.0
  0
VERTEX
  5
6AC
  8
0
  6
CONTINUOUS
 62
     8
 10
304.35201195884002
 20
12.649906399220001
 30
0.0
  0
VERTEX
  5
6AD
  8
0
  6
CONTINUOUS
 62
     8
 10
304.83352139280998
 20
15.83990639922
 30
0.0
  0
VERTEX
  5
6AE
  8
0
  6
CONTINUOUS
 62
     8
 10
303.25201195884
 20
15.83990639922
 30
0.0
  0
VERTEX
  5
6AF
  8
0
  6
CONTINUOUS
 62
     8
 10
303.25201195884
 20
16.191906399219999
 30
0.0
  0
VERTEX
  5
6B0
  8
0
  6
CONTINUOUS
 62
     8
 10
304.88665346827997
 20
16.191906399219999
 30
0.0
  0
VERTEX
  5
6B1
  8
0
  6
CONTINUOUS
 62
     8
 10
306.02401195883999
 20
23.726906399219999
 30
0.0
  0
VERTEX
  5
6B2
  8
0
  6
CONTINUOUS
 62
     8
 10
309.36801195883999
 20
23.726906399219999
 30
0.0
  0
VERTEX
  5
6B3
  8
0
  6
CONTINUOUS
 62
     8
 10
308.23065346828002
 20
16.191906399219999
 30
0.0
  0
VERTEX
  5
6B4
  8
0
  6
CONTINUOUS
 62
     8
 10
309.05565346828001
 20
16.191906399219999
 30
0.0
  0
SEQEND
  5
6B5
  8
0
  6
CONTINUOUS
 62
     8
  0
ENDBLK
  5
BF
  8
0
  0
BLOCK
  8
0
  2
*D1
 70
     1
 10
0.0
 20
0.0
 30
0.0
  3
*D1
  1

  0
LINE
  5
C1
  8
0
  6
CONTINUOUS
 62
     2
 10
352.94582279501998
 20
164.48863947148999
 30
0.0
 11
352.94582279501998
 21
196.58863947149001
 31
0.0
  0
LINE
  5
C2
  8
0
  6
CONTINUOUS
 62
     2
 10
390.94582279501998
 20
164.48863947148999
 30
0.0
 11
390.94582279501998
 21
196.58863947149001
 31
0.0
  0
LINE
  5
C3
  8
0
  6
CONTINUOUS
 62
     2
 10
352.94582279501998
 20
194.58863947149001
 30
0.0
 11
390.94582279501998
 21
194.58863947149001
 31
0.0
  0
INSERT
  5
C4
  8
0
  6
CONTINUOUS
 62
     2
  2
_OPEN30
 10
352.94582279501998
 20
194.58863947149001
 30
0.0
 41
3.0
 42
3.0
 43
3.0
 50
180.0
  0
INSERT
  5
C5
  8
0
  6
CONTINUOUS
 62
     2
  2
_OPEN30
 10
390.94582279501998
 20
194.58863947149001
 30
0.0
 41
3.0
 42
3.0
 43
3.0
  0
INSERT
  5
C6
  8
0
  6
CONTINUOUS
  2
*U38
 10
0.0
 20
0.0
 30
0.0
  0
ENDBLK
  5
C7
  8
0
  0
BLOCK
  8
0
  2
*D2
 70
     1
 10
0.0
 20
0.0
 30
0.0
  3
*D2
  1

  0
LINE
  5
C9
  8
0
  6
CONTINUOUS
 62
     2
 10
171.53442821716001
 20
164.38863947149
 30
0.0
 11
171.53442821716001
 21
196.48863947148999
 31
0.0
  0
LINE
  5
CA
  8
0
  6
CONTINUOUS
 62
     2
 10
209.53442821716001
 20
164.38863947149
 30
0.0
 11
209.53442821716001
 21
196.48863947148999
 31
0.0
  0
LINE
  5
CB
  8
0
  6
CONTINUOUS
 62
     2
 10
171.53442821716001
 20
194.48863947148999
 30
0.0
 11
209.53442821716001
 21
194.48863947148999
 31
0.0
  0
INSERT
  5
CC
  8
0
  6
CONTINUOUS
 62
     2
  2
_OPEN30
 10
171.53442821716001
 20
194.48863947148999
 30
0.0
 41
3.0
 42
3.0
 43
3.0
 50
180.0
  0
INSERT
  5
CD
  8
0
  6
CONTINUOUS
 62
     2
  2
_OPEN30
 10
209.53442821716001
 20
194.48863947148999
 30
0.0
 41
3.0
 42
3.0
 43
3.0
  0
INSERT
  5
CE
  8
0
  6
CONTINUOUS
  2
*U39
 10
0.0
 20
0.0
 30
0.0
  0
ENDBLK
  5
CF
  8
0
  0
BLOCK
  8
0
  2
*D3
 70
     1
 10
0.0
 20
0.0
 30
0.0
  3
*D3
  1

  0
LINE
  5
D1
  8
0
  6
CONTINUOUS
 62
     2
 10
358.64582279501991
 20
164.88863947149
 30
0.0
 11
358.64582279501991
 21
187.58188764952999
 31
0.0
  0
LINE
  5
D2
  8
0
  6
CONTINUOUS
 62
     2
 10
385.24582279501999
 20
164.88863947149
 30
0.0
 11
385.24582279501999
 21
187.58188764952999
 31
0.0
  0
LINE
  5
D3
  8
0
  6
CONTINUOUS
 62
     2
 10
358.64582279501991
 20
186.58188764952999
 30
0.0
 11
385.24582279501999
 21
186.58188764952999
 31
0.0
  0
INSERT
  5
D4
  8
0
  6
CONTINUOUS
 62
     2
  2
_OPEN30
 10
358.64582279501991
 20
186.58188764952999
 30
0.0
 41
2.0
 42
2.0
 43
2.0
 50
180.0
  0
INSERT
  5
D5
  8
0
  6
CONTINUOUS
 62
     2
  2
_OPEN30
 10
385.24582279501999
 20
186.58188764952999
 30
0.0
 41
2.0
 42
2.0
 43
2.0
  0
INSERT
  5
D6
  8
0
  6
CONTINUOUS
  2
*U40
 10
0.0
 20
0.0
 30
0.0
  0
ENDBLK
  5
D7
  8
0
  0
BLOCK
  8
0
  2
*D4
 70
     1
 10
0.0
 20
0.0
 30
0.0
  3
*D4
  1

  0
LINE
  5
D9
  8
0
  6
CONTINUOUS
 62
     2
 10
177.23442821716
 20
164.88863947149
 30
0.0
 11
177.23442821716
 21
187.58188764952999
 31
0.0
  0
LINE
  5
DA
  8
0
  6
CONTINUOUS
 62
     2
 10
203.83442821716
 20
164.88863947149
 30
0.0
 11
203.83442821716
 21
187.58188764952999
 31
0.0
  0
LINE
  5
DB
  8
0
  6
CONTINUOUS
 62
     2
 10
177.23442821716
 20
186.58188764952999
 30
0.0
 11
203.83442821716
 21
186.58188764952999
 31
0.0
  0
INSERT
  5
DC
  8
0
  6
CONTINUOUS
 62
     2
  2
_OPEN30
 10
177.23442821716
 20
186.58188764952999
 30
0.0
 41
2.0
 42
2.0
 43
2.0
 50
180.0
  0
INSERT
  5
DD
  8
0
  6
CONTINUOUS
 62
     2
  2
_OPEN30
 10
203.83442821716
 20
186.58188764952999
 30
0.0
 41
2.0
 42
2.0
 43
2.0
  0
INSERT
  5
DE
  8
0
  6
CONTINUOUS
  2
*U41
 10
0.0
 20
0.0
 30
0.0
  0
ENDBLK
  5
DF
  8
0
  0
BLOCK
  8
0
  2
*D5
 70
     1
 10
0.0
 20
0.0
 30
0.0
  3
*D5
  1

  0
LINE
  5
E1
  8
0
  6
CONTINUOUS
 62
     2
 10
235.43442821715999
 20
183.08863947149001
 30
0.0
 11
235.43442821715999
 21
195.48863947148999
 31
0.0
  0
LINE
  5
E2
  8
0
  6
CONTINUOUS
 62
     2
 10
263.43442821716002
 20
174.98863947148999
 30
0.0
 11
263.43442821716002
 21
195.48863947148999
 31
0.0
  0
LINE
  5
E3
  8
0
  6
CONTINUOUS
 62
     2
 10
235.43442821715999
 20
194.48863947148999
 30
0.0
 11
263.43442821716002
 21
194.48863947148999
 31
0.0
  0
INSERT
  5
E4
  8
0
  6
CONTINUOUS
 62
     2
  2
_OPEN30
 10
235.43442821715999
 20
194.48863947148999
 30
0.0
 41
2.0
 42
2.0
 43
2.0
 50
180.0
  0
INSERT
  5
E5
  8
0
  6
CONTINUOUS
 62
     2
  2
_OPEN30
 10
263.43442821716002
 20
194.48863947148999
 30
0.0
 41
2.0
 42
2.0
 43
2.0
  0
INSERT
  5
E6
  8
0
  6
CONTINUOUS
  2
*U42
 10
0.0
 20
0.0
 30
0.0
  0
ENDBLK
  5
E7
  8
0
  0
BLOCK
  8
0
  2
*D6
 70
     1
 10
0.0
 20
0.0
 30
0.0
  3
*D6
  1

  0
LINE
  5
E9
  8
0
  6
CONTINUOUS
 62
     2
 10
235.43442821715999
 20
183.08863947149001
 30
0.0
 11
235.43442821715999
 21
187.58188764952999
 31
0.0
  0
LINE
  5
EA
  8
0
  6
CONTINUOUS
 62
     2
 10
236.93442821715999
 20
183.88863947149
 30
0.0
 11
236.93442821715999
 21
187.58188764952999
 31
0.0
  0
LINE
  5
EB
  8
0
  6
CONTINUOUS
 62
     2
 10
235.43442821715999
 20
186.58188764952999
 30
0.0
 11
236.93442821715999
 21
186.58188764952999
 31
0.0
  0
LINE
  5
EC
  8
0
  6
CONTINUOUS
 62
     2
 10
236.93442821715999
 20
186.58188764952999
 30
0.0
 11
248.11955696997001
 21
186.58188764952999
 31
0.0
  0
INSERT
  5
ED
  8
0
  6
CONTINUOUS
 62
     2
  2
_OPEN30
 10
235.43442821715999
 20
186.58188764952999
 30
0.0
 41
2.0
 42
2.0
 43
2.0
  0
INSERT
  5
EE
  8
0
  6
CONTINUOUS
 62
     2
  2
_OPEN30
 10
236.93442821715999
 20
186.58188764952999
 30
0.0
 41
2.0
 42
2.0
 43
2.0
 50
180.0
  0
LINE
  5
EF
  8
0
  6
CONTINUOUS
 62
     2
 10
235.43442821715999
 20
186.58188764952999
 30
0.0
 11
232.93442821715999
 21
186.58188764952999
 31
0.0
  0
LINE
  5
F0
  8
0
  6
CONTINUOUS
 62
     2
 10
236.93442821715999
 20
186.58188764952999
 30
0.0
 11
248.11955696997001
 21
186.58188764952999
 31
0.0
  0
INSERT
  5
F1
  8
0
  6
CONTINUOUS
  2
*U43
 10
0.0
 20
0.0
 30
0.0
  0
ENDBLK
  5
F2
  8
0
  0
BLOCK
  8
0
  2
*D7
 70
     1
 10
0.0
 20
0.0
 30
0.0
  3
*D7
  1

  0
LINE
  5
F4
  8
0
  6
CONTINUOUS
 62
     2
 10
325.44582279502009
 20
183.88863947149
 30
0.0
 11
325.44582279502009
 21
187.58188764952999
 31
0.0
  0
LINE
  5
F5
  8
0
  6
CONTINUOUS
 62
     2
 10
326.94582279501998
 20
183.08863947149001
 30
0.0
 11
326.94582279501998
 21
187.58188764952999
 31
0.0
  0
LINE
  5
F6
  8
0
  6
CONTINUOUS
 62
     2
 10
325.44582279502009
 20
186.58188764952999
 30
0.0
 11
326.94582279501998
 21
186.58188764952999
 31
0.0
  0
LINE
  5
F7
  8
0
  6
CONTINUOUS
 62
     2
 10
325.44582279502009
 20
186.58188764952999
 30
0.0
 11
314.11944217348997
 21
186.58188764952999
 31
0.0
  0
INSERT
  5
F8
  8
0
  6
CONTINUOUS
 62
     2
  2
_OPEN30
 10
325.44582279502009
 20
186.58188764952999
 30
0.0
 41
2.0
 42
2.0
 43
2.0
  0
INSERT
  5
F9
  8
0
  6
CONTINUOUS
 62
     2
  2
_OPEN30
 10
326.94582279501998
 20
186.58188764952999
 30
0.0
 41
2.0
 42
2.0
 43
2.0
 50
180.0
  0
LINE
  5
FA
  8
0
  6
CONTINUOUS
 62
     2
 10
325.44582279502009
 20
186.58188764952999
 30
0.0
 11
314.11944217348997
 21
186.58188764952999
 31
0.0
  0
LINE
  5
FB
  8
0
  6
CONTINUOUS
 62
     2
 10
326.94582279501998
 20
186.58188764952999
 30
0.0
 11
329.44582279502009
 21
186.58188764952999
 31
0.0
  0
INSERT
  5
FC
  8
0
  6
CONTINUOUS
  2
*U44
 10
0.0
 20
0.0
 30
0.0
  0
ENDBLK
  5
FD
  8
0
  0
BLOCK
  8
0
  2
*D8
 70
     1
 10
0.0
 20
0.0
 30
0.0
  3
*D8
  1

  0
LINE
  5
FF
  8
0
  6
CONTINUOUS
 62
     2
 10
248.93442821715999
 20
149.48863947148999
 30
0.0
 11
272.58581592448002
 21
149.48863947148999
 31
0.0
  0
LINE
  5
100
  8
0
  6
CONTINUOUS
 62
     2
 10
248.93442821715999
 20
179.28863947149
 30
0.0
 11
272.58581592448002
 21
179.28863947149
 31
0.0
  0
LINE
  5
101
  8
0
  6
CONTINUOUS
 62
     2
 10
271.5858159244799
 20
149.48863947148999
 30
0.0
 11
271.5858159244799
 21
179.28863947149
 31
0.0
  0
INSERT
  5
102
  8
0
  6
CONTINUOUS
 62
     2
  2
_OPEN30
 10
271.5858159244799
 20
149.48863947148999
 30
0.0
 41
2.0
 42
2.0
 43
2.0
 50
270.0
  0
INSERT
  5
103
  8
0
  6
CONTINUOUS
 62
     2
  2
_OPEN30
 10
271.5858159244799
 20
179.28863947149
 30
0.0
 41
2.0
 42
2.0
 43
2.0
 50
90.0
  0
INSERT
  5
104
  8
0
  6
CONTINUOUS
  2
*U45
 10
0.0
 20
0.0
 30
0.0
  0
ENDBLK
  5
105
  8
0
  0
BLOCK
  8
0
  2
*D9
 70
     1
 10
0.0
 20
0.0
 30
0.0
  3
*D9
  1

  0
LINE
  5
107
  8
0
  6
CONTINUOUS
 62
     2
 10
309.94582279501998
 20
176.68863947149001
 30
0.0
 11
309.94582279501998
 21
195.48863947148999
 31
0.0
  0
LINE
  5
108
  8
0
  6
CONTINUOUS
 62
     2
 10
326.94582279501998
 20
183.08863947149001
 30
0.0
 11
326.94582279501998
 21
195.48863947148999
 31
0.0
  0
LINE
  5
109
  8
0
  6
CONTINUOUS
 62
     2
 10
309.94582279501998
 20
194.48863947148999
 30
0.0
 11
326.94582279501998
 21
194.48863947148999
 31
0.0
  0
INSERT
  5
10A
  8
0
  6
CONTINUOUS
 62
     2
  2
_OPEN30
 10
309.94582279501998
 20
194.48863947148999
 30
0.0
 41
2.0
 42
2.0
 43
2.0
 50
180.0
  0
INSERT
  5
10B
  8
0
  6
CONTINUOUS
 62
     2
  2
_OPEN30
 10
326.94582279501998
 20
194.48863947148999
 30
0.0
 41
2.0
 42
2.0
 43
2.0
  0
INSERT
  5
10C
  8
0
  6
CONTINUOUS
  2
*U46
 10
0.0
 20
0.0
 30
0.0
  0
ENDBLK
  5
10D
  8
0
  0
BLOCK
  8
0
  2
*D10
 70
     1
 10
0.0
 20
0.0
 30
0.0
  3
*D10
  1

  0
LINE
  5
10F
  8
0
  6
CONTINUOUS
 62
     2
 10
313.18142429422988
 20
149.48863947148999
 30
0.0
 11
303.96945103529998
 21
149.48863947148999
 31
0.0
  0
LINE
  5
110
  8
0
  6
CONTINUOUS
 62
     2
 10
313.44582279501998
 20
179.28863947149
 30
0.0
 11
303.96945103529998
 21
179.28863947149
 31
0.0
  0
LINE
  5
111
  8
0
  6
CONTINUOUS
 62
     2
 10
304.96945103529998
 20
149.48863947148999
 30
0.0
 11
304.96945103529998
 21
179.28863947149
 31
0.0
  0
INSERT
  5
112
  8
0
  6
CONTINUOUS
 62
     2
  2
_OPEN30
 10
304.96945103529998
 20
149.48863947148999
 30
0.0
 41
2.0
 42
2.0
 43
2.0
 50
270.0
  0
INSERT
  5
113
  8
0
  6
CONTINUOUS
 62
     2
  2
_OPEN30
 10
304.96945103529998
 20
179.28863947149
 30
0.0
 41
2.0
 42
2.0
 43
2.0
 50
90.0
  0
INSERT
  5
114
  8
0
  6
CONTINUOUS
  2
*U47
 10
0.0
 20
0.0
 30
0.0
  0
ENDBLK
  5
115
  8
0
  0
BLOCK
  8
0
  2
BLOCK002
 70
     0
 10
0.0
 20
0.0
 30
0.0
  3
BLOCK002
  1

  0
LINE
  5
117
  8
0
  6
CONTINUOUS
 62
     1
 10
85.471542830811998
 20
172.25711123495
 30
0.0
 11
97.603071067347003
 21
184.38863947149
 31
0.0
  0
LINE
  5
118
  8
0
  6
CONTINUOUS
 62
     1
 10
85.471542830811998
 20
175.0855383597
 30
0.0
 11
94.774643942600989
 21
184.38863947149
 31
0.0
  0
LINE
  5
119
  8
0
  6
CONTINUOUS
 62
     1
 10
85.471542830811998
 20
177.91396548444001
 30
0.0
 11
91.946216817854975
 21
184.38863947149
 31
0.0
  0
LINE
  5
11A
  8
0
  6
CONTINUOUS
 62
     1
 10
85.471542830811998
 20
180.74239260919001
 30
0.0
 11
89.117789693108989
 21
184.38863947149
 31
0.0
  0
LINE
  5
11B
  8
0
  6
CONTINUOUS
 62
     1
 10
85.471542830811998
 20
183.57081973394
 30
0.0
 11
86.289362568363003
 21
184.38863947149
 31
0.0
  0
LINE
  5
11C
  8
0
  6
CONTINUOUS
 62
     1
 10
85.471542830811998
 20
169.42868411020001
 30
0.0
 11
100.43149819209
 21
184.38863947149
 31
0.0
  0
LINE
  5
11D
  8
0
  6
CONTINUOUS
 62
     1
 10
88.71576943955499
 20
144.38863947149
 30
0.0
 11
96.611826694300007
 21
152.28469672623001
 31
0.0
  0
LINE
  5
11E
  8
0
  6
CONTINUOUS
 62
     1
 10
117.57548557606999
 20
173.248355608
 30
0.0
 11
125.47154283080999
 21
181.14441286274001
 31
0.0
  0
LINE
  5
11F
  8
0
  6
CONTINUOUS
 62
     1
 10
85.887342314809004
 20
144.38863947149
 30
0.0
 11
95.074878569643005
 21
153.57617572632
 31
0.0
  0
LINE
  5
120
  8
0
  6
CONTINUOUS
 62
     1
 10
116.28400657598
 20
174.78530373266
 30
0.0
 11
125.47154283080999
 21
183.97283998749
 31
0.0
  0
LINE
  5
121
  8
0
  6
CONTINUOUS
 62
     1
 10
85.471542830811998
 20
146.80126711224
 30
0.0
 11
93.727449027595995
 21
155.05717330901999
 31
0.0
  0
LINE
  5
122
  8
0
  6
CONTINUOUS
 62
     1
 10
114.80300899328
 20
176.1327332747
 30
0.0
 11
123.05891519006001
 21
184.38863947149
 31
0.0
  0
LINE
  5
123
  8
0
  6
CONTINUOUS
 62
     1
 10
85.471542830811998
 20
149.62969423697999
 30
0.0
 11
92.573231823358995
 21
156.73138322953
 31
0.0
  0
LINE
  5
124
  8
0
  6
CONTINUOUS
 62
     1
 10
113.12879907276999
 20
177.28695047894001
 30
0.0
 11
120.23048806532
 21
184.38863947149
 31
0.0
  0
LINE
  5
125
  8
0
  6
CONTINUOUS
 62
     1
 10
85.471542830811998
 20
152.45812136173001
 30
0.0
 11
91.627578394213003
 21
158.61415692513
 31
0.0
  0
LINE
  5
126
  8
0
  6
CONTINUOUS
 62
     1
 10
111.24602537717
 20
178.23260390808991
 30
0.0
 11
117.40206094057
 21
184.38863947149
 31
0.0
  0
LINE
  5
127
  8
0
  6
CONTINUOUS
 62
     1
 10
85.471542830811998
 20
155.28654848647
 30
0.0
 11
90.922649050154988
 21
160.73765470581989
 31
0.0
  0
LINE
  5
128
  8
0
  6
CONTINUOUS
 62
     1
 10
109.12252759648
 20
178.93753325214001
 30
0.0
 11
114.57363381582
 21
184.38863947149
 31
0.0
  0
LINE
  5
129
  8
0
  6
CONTINUOUS
 62
     1
 10
85.471542830811998
 20
158.11497561121999
 30
0.0
 11
90.521538293898004
 21
163.16497107430999
 31
0.0
  0
LINE
  5
12A
  8
0
  6
CONTINUOUS
 62
     1
 10
106.69521122799
 20
179.3386440084
 30
0.0
 11
111.74520669108
 21
184.38863947149
 31
0.0
  0
LINE
  5
12B
  8
0
  6
CONTINUOUS
 62
     1
 10
85.471542830811998
 20
160.94340273597001
 30
0.0
 11
90.562045901455008
 21
166.03390580660999
 31
0.0
  0
LINE
  5
12C
  8
0
  6
CONTINUOUS
 62
     1
 10
103.82627649569
 20
179.29813640084001
 30
0.0
 11
108.91677956633001
 21
184.38863947149
 31
0.0
  0
LINE
  5
12D
  8
0
  6
CONTINUOUS
 62
     1
 10
85.471542830811998
 20
163.77182986071
 30
0.0
 11
91.470309300590003
 21
169.77059633049001
 31
0.0
  0
LINE
  5
12E
  8
0
  6
CONTINUOUS
 62
     1
 10
100.08958597181
 20
178.38987300170999
 30
0.0
 11
106.08835244159
 21
184.38863947149
 31
0.0
  0
LINE
  5
12F
  8
0
  6
CONTINUOUS
 62
     1
 10
85.471542830811998
 20
166.60025698545999
 30
0.0
 11
103.25992531684
 21
184.38863947149
 31
0.0
  0
LINE
  5
130
  8
0
  6
CONTINUOUS
 62
     1
 10
114.17161356227
 20
144.38863947149
 30
0.0
 11
125.47154283080999
 21
155.68856874003001
 31
0.0
  0
LINE
  5
131
  8
0
  6
CONTINUOUS
 62
     1
 10
111.34318643752
 20
144.38863947149
 30
0.0
 11
125.47154283080999
 21
158.51699586477
 31
0.0
  0
LINE
  5
132
  8
0
  6
CONTINUOUS
 62
     1
 10
108.51475931278
 20
144.38863947149
 30
0.0
 11
125.47154283080999
 21
161.34542298951999
 31
0.0
  0
LINE
  5
133
  8
0
  6
CONTINUOUS
 62
     1
 10
105.68633218802999
 20
144.38863947149
 30
0.0
 11
112.36326140465
 21
151.0655686881
 31
0.0
  0
LINE
  5
134
  8
0
  6
CONTINUOUS
 62
     1
 10
118.79461361419
 20
157.49692089765
 30
0.0
 11
125.47154283080999
 21
164.17385011427001
 31
0.0
  0
LINE
  5
135
  8
0
  6
CONTINUOUS
 62
     1
 10
102.85790506329
 20
144.38863947149
 30
0.0
 11
108.08783312359
 21
149.61856753179001
 31
0.0
  0
LINE
  5
136
  8
0
  6
CONTINUOUS
 62
     1
 10
120.24161477051
 20
161.77234917870999
 30
0.0
 11
125.47154283080999
 21
167.00227723901
 31
0.0
  0
LINE
  5
137
  8
0
  6
CONTINUOUS
 62
     1
 10
100.02947793854
 20
144.38863947149
 30
0.0
 11
105.03580809944
 21
149.39496963239
 31
0.0
  0
LINE
  5
138
  8
0
  6
CONTINUOUS
 62
     1
 10
120.46521266991
 20
164.82437420286001
 30
0.0
 11
125.47154283080999
 21
169.83070436375999
 31
0.0
  0
LINE
  5
139
  8
0
  6
CONTINUOUS
 62
     1
 10
97.201050813794012
 20
144.38863947149
 30
0.0
 11
102.49861270149
 21
149.68620135917999
 31
0.0
  0
LINE
  5
13A
  8
0
  6
CONTINUOUS
 62
     1
 10
120.17398094312
 20
167.36156960080999
 30
0.0
 11
125.47154283080999
 21
172.65913148850001
 31
0.0
  0
LINE
  5
13B
  8
0
  6
CONTINUOUS
 62
     1
 10
94.372623689047998
 20
144.38863947149
 30
0.0
 11
100.29437897029
 21
150.31039475272999
 31
0.0
  0
LINE
  5
13C
  8
0
  6
CONTINUOUS
 62
     1
 10
119.54978754957
 20
169.56580333201001
 30
0.0
 11
125.47154283080999
 21
175.48755861325
 31
0.0
  0
LINE
  5
13D
  8
0
  6
CONTINUOUS
 62
     1
 10
91.544196564302013
 20
144.38863947149
 30
0.0
 11
98.345157502563012
 21
151.18960040975
 31
0.0
  0
LINE
  5
13E
  8
0
  6
CONTINUOUS
 62
     1
 10
118.67058189255
 20
171.51502479973999
 30
0.0
 11
125.47154283080999
 21
178.31598573799999
 31
0.0
  0
LINE
  5
13F
  8
0
  6
CONTINUOUS
 62
     1
 10
117.00004068702
 20
144.38863947149
 30
0.0
 11
125.47154283080999
 21
152.86014161528001
 31
0.0
  0
LINE
  5
140
  8
0
  6
CONTINUOUS
 62
     1
 10
122.65689493651
 20
144.38863947149
 30
0.0
 11
125.47154283080999
 21
147.20328736579
 31
0.0
  0
LINE
  5
141
  8
0
  6
CONTINUOUS
 62
     1
 10
119.82846781176001
 20
144.38863947149
 30
0.0
 11
125.47154283080999
 21
150.03171449052999
 31
0.0
  0
ENDBLK
  5
142
  8
0
  0
BLOCK
  8
0
  2
BLOCK003
 70
     0
 10
0.0
 20
0.0
 30
0.0
  3
BLOCK003
  1

  0
LINE
  5
144
  8
0
  6
CONTINUOUS
 62
     1
 10
30.704085948524
 20
177.77765245840001
 30
0.0
 11
42.154651343369999
 21
184.38863947149
 31
0.0
  0
LINE
  5
145
  8
0
  6
CONTINUOUS
 62
     1
 10
30.704085948524
 20
175.77765245840001
 30
0.0
 11
45.61875295850799
 21
184.38863947149
 31
0.0
  0
LINE
  5
146
  8
0
  6
CONTINUOUS
 62
     1
 10
38.081172845673002
 20
173.03681556430001
 30
0.0
 11
57.743108611490001
 21
184.38863947149
 31
0.0
  0
LINE
  5
147
  8
0
  6
CONTINUOUS
 62
     1
 10
36.349122038103999
 20
173.03681556430001
 30
0.0
 11
56.011057803920998
 21
184.38863947149
 31
0.0
  0
LINE
  5
148
  8
0
  6
CONTINUOUS
 62
     1
 10
34.617071230534997
 20
173.03681556430001
 30
0.0
 11
54.279006996351988
 21
184.38863947149
 31
0.0
  0
LINE
  5
149
  8
0
  6
CONTINUOUS
 62
     1
 10
32.88502042296701
 20
173.03681556430001
 30
0.0
 11
52.546956188784002
 21
184.38863947149
 31
0.0
  0
LINE
  5
14A
  8
0
  6
CONTINUOUS
 62
     1
 10
31.152969615398
 20
173.03681556430001
 30
0.0
 11
50.814905381214992
 21
184.38863947149
 31
0.0
  0
LINE
  5
14B
  8
0
  6
CONTINUOUS
 62
     1
 10
30.704085948524
 20
173.77765245840001
 30
0.0
 11
49.082854573646003
 21
184.38863947149
 31
0.0
  0
LINE
  5
14C
  8
0
  6
CONTINUOUS
 62
     1
 10
30.704085948524
 20
174.77765245840001
 30
0.0
 11
47.350803766077
 21
184.38863947149
 31
0.0
  0
LINE
  5
14D
  8
0
  6
CONTINUOUS
 62
     1
 10
30.704085948524
 20
176.77765245840001
 30
0.0
 11
43.886702150938987
 21
184.38863947149
 31
0.0
  0
LINE
  5
14E
  8
0
  6
CONTINUOUS
 62
     1
 10
30.704085948524
 20
178.77765245840001
 30
0.0
 11
40.422600535801003
 21
184.38863947149
 31
0.0
  0
LINE
  5
14F
  8
0
  6
CONTINUOUS
 62
     1
 10
30.704085948524
 20
179.77765245840001
 30
0.0
 11
38.690549728232
 21
184.38863947149
 31
0.0
  0
LINE
  5
150
  8
0
  6
CONTINUOUS
 62
     1
 10
30.704085948524
 20
180.77765245840001
 30
0.0
 11
36.958498920663999
 21
184.38863947149
 31
0.0
  0
LINE
  5
151
  8
0
  6
CONTINUOUS
 62
     1
 10
30.704085948524
 20
181.77765245840001
 30
0.0
 11
35.22644811309501
 21
184.38863947149
 31
0.0
  0
LINE
  5
152
  8
0
  6
CONTINUOUS
 62
     1
 10
30.704085948524
 20
182.77765245840001
 30
0.0
 11
33.494397305526
 21
184.38863947149
 31
0.0
  0
LINE
  5
153
  8
0
  6
CONTINUOUS
 62
     1
 10
30.704085948524
 20
183.77765245840001
 30
0.0
 11
31.762346497957001
 21
184.38863947149
 31
0.0
  0
LINE
  5
154
  8
0
  6
CONTINUOUS
 62
     1
 10
39.813223653241998
 20
173.03681556430001
 30
0.0
 11
58.704085948523989
 21
183.9434599957099
 31
0.0
  0
LINE
  5
155
  8
0
  6
CONTINUOUS
 62
     1
 10
55.401680921362001
 20
173.03681556430001
 30
0.0
 11
58.704085948523989
 21
174.94345999570999
 31
0.0
  0
LINE
  5
156
  8
0
  6
CONTINUOUS
 62
     1
 10
57.133731728930989
 20
173.03681556430001
 30
0.0
 11
58.704085948523989
 21
173.94345999570999
 31
0.0
  0
LINE
  5
157
  8
0
  6
CONTINUOUS
 62
     1
 10
53.669630113792998
 20
173.03681556430001
 30
0.0
 11
58.704085948523989
 21
175.94345999570999
 31
0.0
  0
LINE
  5
158
  8
0
  6
CONTINUOUS
 62
     1
 10
51.937579306224002
 20
173.03681556430001
 30
0.0
 11
58.704085948523989
 21
176.94345999570999
 31
0.0
  0
LINE
  5
159
  8
0
  6
CONTINUOUS
 62
     1
 10
50.205528498654999
 20
173.03681556430001
 30
0.0
 11
58.704085948523989
 21
177.94345999570999
 31
0.0
  0
LINE
  5
15A
  8
0
  6
CONTINUOUS
 62
     1
 10
48.473477691085989
 20
173.03681556430001
 30
0.0
 11
58.704085948523989
 21
178.94345999570999
 31
0.0
  0
LINE
  5
15B
  8
0
  6
CONTINUOUS
 62
     1
 10
46.741426883518002
 20
173.03681556430001
 30
0.0
 11
58.704085948523989
 21
179.94345999570999
 31
0.0
  0
LINE
  5
15C
  8
0
  6
CONTINUOUS
 62
     1
 10
45.009376075949
 20
173.03681556430001
 30
0.0
 11
58.704085948523989
 21
180.94345999570999
 31
0.0
  0
LINE
  5
15D
  8
0
  6
CONTINUOUS
 62
     1
 10
43.277325268379997
 20
173.03681556430001
 30
0.0
 11
58.704085948523989
 21
181.94345999570999
 31
0.0
  0
LINE
  5
15E
  8
0
  6
CONTINUOUS
 62
     1
 10
41.545274460810987
 20
173.03681556430001
 30
0.0
 11
58.704085948523989
 21
182.94345999570999
 31
0.0
  0
LINE
  5
15F
  8
0
  6
CONTINUOUS
 62
     1
 10
32.342793292469011
 20
184.38863947149
 30
0.0
 11
52.004729058286003
 21
173.03681556430001
 31
0.0
  0
LINE
  5
160
  8
0
  6
CONTINUOUS
 62
     1
 10
34.074844100038
 20
184.38863947149
 30
0.0
 11
53.736779865854999
 21
173.03681556430001
 31
0.0
  0
LINE
  5
161
  8
0
  6
CONTINUOUS
 62
     1
 10
35.806894907607003
 20
184.38863947149
 30
0.0
 11
55.468830673423
 21
173.03681556430001
 31
0.0
  0
LINE
  5
162
  8
0
  6
CONTINUOUS
 62
     1
 10
37.538945715175998
 20
184.38863947149
 30
0.0
 11
57.200881480992003
 21
173.03681556430001
 31
0.0
  0
LINE
  5
163
  8
0
  6
CONTINUOUS
 62
     1
 10
39.270996522743999
 20
184.38863947149
 30
0.0
 11
58.704085948523989
 21
173.16894006032999
 31
0.0
  0
LINE
  5
164
  8
0
  6
CONTINUOUS
 62
     1
 10
41.003047330313002
 20
184.38863947149
 30
0.0
 11
58.704085948523989
 21
174.16894006032999
 31
0.0
  0
LINE
  5
165
  8
0
  6
CONTINUOUS
 62
     1
 10
42.735098137881998
 20
184.38863947149
 30
0.0
 11
58.704085948523989
 21
175.16894006032999
 31
0.0
  0
LINE
  5
166
  8
0
  6
CONTINUOUS
 62
     1
 10
44.467148945451001
 20
184.38863947149
 30
0.0
 11
58.704085948523989
 21
176.16894006032999
 31
0.0
  0
LINE
  5
167
  8
0
  6
CONTINUOUS
 62
     1
 10
47.931250560589
 20
184.38863947149
 30
0.0
 11
58.704085948523989
 21
178.16894006032999
 31
0.0
  0
LINE
  5
168
  8
0
  6
CONTINUOUS
 62
     1
 10
46.199199753019997
 20
184.38863947149
 30
0.0
 11
58.704085948523989
 21
177.16894006032999
 31
0.0
  0
LINE
  5
169
  8
0
  6
CONTINUOUS
 62
     1
 10
49.663301368157988
 20
184.38863947149
 30
0.0
 11
58.704085948523989
 21
179.16894006032999
 31
0.0
  0
LINE
  5
16A
  8
0
  6
CONTINUOUS
 62
     1
 10
51.395352175726991
 20
184.38863947149
 30
0.0
 11
58.704085948523989
 21
180.16894006032999
 31
0.0
  0
LINE
  5
16B
  8
0
  6
CONTINUOUS
 62
     1
 10
53.127402983294999
 20
184.38863947149
 30
0.0
 11
58.704085948523989
 21
181.16894006032999
 31
0.0
  0
LINE
  5
16C
  8
0
  6
CONTINUOUS
 62
     1
 10
54.859453790864002
 20
184.38863947149
 30
0.0
 11
58.704085948523989
 21
182.16894006032999
 31
0.0
  0
LINE
  5
16D
  8
0
  6
CONTINUOUS
 62
     1
 10
56.591504598432991
 20
184.38863947149
 30
0.0
 11
58.704085948523989
 21
183.16894006032999
 31
0.0
  0
LINE
  5
16E
  8
0
  6
CONTINUOUS
 62
     1
 10
58.323555406001987
 20
184.38863947149
 30
0.0
 11
58.704085948523989
 21
184.16894006032999
 31
0.0
  0
LINE
  5
16F
  8
0
  6
CONTINUOUS
 62
     1
 10
30.704085948524
 20
184.33474759763999
 30
0.0
 11
50.272678250717
 21
173.03681556430001
 31
0.0
  0
LINE
  5
170
  8
0
  6
CONTINUOUS
 62
     1
 10
30.704085948524
 20
173.3347475976399
 30
0.0
 11
31.220119367458999
 21
173.03681556430001
 31
0.0
  0
LINE
  5
171
  8
0
  6
CONTINUOUS
 62
     1
 10
30.704085948524
 20
175.33474759763999
 30
0.0
 11
34.684220982596997
 21
173.03681556430001
 31
0.0
  0
LINE
  5
172
  8
0
  6
CONTINUOUS
 62
     1
 10
30.704085948524
 20
174.33474759763999
 30
0.0
 11
32.952170175028002
 21
173.03681556430001
 31
0.0
  0
LINE
  5
173
  8
0
  6
CONTINUOUS
 62
     1
 10
30.704085948524
 20
176.33474759763999
 30
0.0
 11
36.416271790166
 21
173.03681556430001
 31
0.0
  0
LINE
  5
174
  8
0
  6
CONTINUOUS
 62
     1
 10
30.704085948524
 20
177.33474759763999
 30
0.0
 11
38.14832259773501
 21
173.03681556430001
 31
0.0
  0
LINE
  5
175
  8
0
  6
CONTINUOUS
 62
     1
 10
30.704085948524
 20
178.33474759763999
 30
0.0
 11
39.880373405303999
 21
173.03681556430001
 31
0.0
  0
LINE
  5
176
  8
0
  6
CONTINUOUS
 62
     1
 10
30.704085948524
 20
179.33474759763999
 30
0.0
 11
41.612424212872
 21
173.03681556430001
 31
0.0
  0
LINE
  5
177
  8
0
  6
CONTINUOUS
 62
     1
 10
30.704085948524
 20
180.33474759763999
 30
0.0
 11
43.344475020440989
 21
173.03681556430001
 31
0.0
  0
LINE
  5
178
  8
0
  6
CONTINUOUS
 62
     1
 10
30.704085948524
 20
181.33474759763999
 30
0.0
 11
45.076525828009991
 21
173.03681556430001
 31
0.0
  0
LINE
  5
179
  8
0
  6
CONTINUOUS
 62
     1
 10
30.704085948524
 20
182.33474759763999
 30
0.0
 11
46.808576635579001
 21
173.03681556430001
 31
0.0
  0
LINE
  5
17A
  8
0
  6
CONTINUOUS
 62
     1
 10
30.704085948524
 20
183.33474759763999
 30
0.0
 11
48.540627443147997
 21
173.03681556430001
 31
0.0
  0
ENDBLK
  5
17B
  8
0
  0
BLOCK
  8
0
  2
BLOCK004
 70
     0
 10
0.0
 20
0.0
 30
0.0
  3
BLOCK004
  1

  0
LINE
  5
17D
  8
0
  6
CONTINUOUS
 62
     1
 10
30.704085948524
 20
220.99962648457
 30
0.0
 11
42.154651343369999
 21
214.38863947149
 31
0.0
  0
LINE
  5
17E
  8
0
  6
CONTINUOUS
 62
     1
 10
30.704085948524
 20
222.99962648457
 30
0.0
 11
45.61875295850799
 21
214.38863947149
 31
0.0
  0
LINE
  5
17F
  8
0
  6
CONTINUOUS
 62
     1
 10
38.081172845673002
 20
225.74046337867
 30
0.0
 11
57.743108611490001
 21
214.38863947149
 31
0.0
  0
LINE
  5
180
  8
0
  6
CONTINUOUS
 62
     1
 10
36.349122038103999
 20
225.74046337867
 30
0.0
 11
56.011057803920998
 21
214.38863947149
 31
0.0
  0
LINE
  5
181
  8
0
  6
CONTINUOUS
 62
     1
 10
34.617071230535998
 20
225.74046337867
 30
0.0
 11
54.279006996352997
 21
214.38863947149
 31
0.0
  0
LINE
  5
182
  8
0
  6
CONTINUOUS
 62
     1
 10
32.88502042296701
 20
225.74046337867
 30
0.0
 11
52.546956188784002
 21
214.38863947149
 31
0.0
  0
LINE
  5
183
  8
0
  6
CONTINUOUS
 62
     1
 10
31.152969615398
 20
225.74046337867
 30
0.0
 11
50.814905381214992
 21
214.38863947149
 31
0.0
  0
LINE
  5
184
  8
0
  6
CONTINUOUS
 62
     1
 10
30.704085948524
 20
224.99962648457
 30
0.0
 11
49.082854573646003
 21
214.38863947149
 31
0.0
  0
LINE
  5
185
  8
0
  6
CONTINUOUS
 62
     1
 10
30.704085948524
 20
223.99962648457
 30
0.0
 11
47.350803766077
 21
214.38863947149
 31
0.0
  0
LINE
  5
186
  8
0
  6
CONTINUOUS
 62
     1
 10
30.704085948524
 20
221.99962648457
 30
0.0
 11
43.886702150938987
 21
214.38863947149
 31
0.0
  0
LINE
  5
187
  8
0
  6
CONTINUOUS
 62
     1
 10
30.704085948524
 20
219.99962648457
 30
0.0
 11
40.422600535801998
 21
214.38863947149
 31
0.0
  0
LINE
  5
188
  8
0
  6
CONTINUOUS
 62
     1
 10
30.704085948524
 20
218.99962648457
 30
0.0
 11
38.690549728233002
 21
214.38863947149
 31
0.0
  0
LINE
  5
189
  8
0
  6
CONTINUOUS
 62
     1
 10
30.704085948524
 20
217.99962648457
 30
0.0
 11
36.958498920663999
 21
214.38863947149
 31
0.0
  0
LINE
  5
18A
  8
0
  6
CONTINUOUS
 62
     1
 10
30.704085948524
 20
216.99962648457
 30
0.0
 11
35.22644811309501
 21
214.38863947149
 31
0.0
  0
LINE
  5
18B
  8
0
  6
CONTINUOUS
 62
     1
 10
30.704085948524
 20
215.99962648457
 30
0.0
 11
33.494397305526
 21
214.38863947149
 31
0.0
  0
LINE
  5
18C
  8
0
  6
CONTINUOUS
 62
     1
 10
30.704085948524
 20
214.99962648457
 30
0.0
 11
31.762346497957001
 21
214.38863947149
 31
0.0
  0
LINE
  5
18D
  8
0
  6
CONTINUOUS
 62
     1
 10
39.813223653241998
 20
225.74046337867
 30
0.0
 11
58.704085948523989
 21
214.83381894726
 31
0.0
  0
LINE
  5
18E
  8
0
  6
CONTINUOUS
 62
     1
 10
55.401680921362001
 20
225.74046337867
 30
0.0
 11
58.704085948523989
 21
223.83381894726
 31
0.0
  0
LINE
  5
18F
  8
0
  6
CONTINUOUS
 62
     1
 10
57.133731728930989
 20
225.74046337867
 30
0.0
 11
58.704085948523989
 21
224.83381894726
 31
0.0
  0
LINE
  5
190
  8
0
  6
CONTINUOUS
 62
     1
 10
53.669630113792998
 20
225.74046337867
 30
0.0
 11
58.704085948523989
 21
222.83381894726
 31
0.0
  0
LINE
  5
191
  8
0
  6
CONTINUOUS
 62
     1
 10
51.937579306224002
 20
225.74046337867
 30
0.0
 11
58.704085948523989
 21
221.83381894726
 31
0.0
  0
LINE
  5
192
  8
0
  6
CONTINUOUS
 62
     1
 10
50.205528498655987
 20
225.74046337867
 30
0.0
 11
58.704085948523989
 21
220.83381894726
 31
0.0
  0
LINE
  5
193
  8
0
  6
CONTINUOUS
 62
     1
 10
48.473477691086998
 20
225.74046337867
 30
0.0
 11
58.704085948523989
 21
219.83381894726
 31
0.0
  0
LINE
  5
194
  8
0
  6
CONTINUOUS
 62
     1
 10
46.741426883518002
 20
225.74046337867
 30
0.0
 11
58.704085948523989
 21
218.83381894726
 31
0.0
  0
LINE
  5
195
  8
0
  6
CONTINUOUS
 62
     1
 10
45.009376075949
 20
225.74046337867
 30
0.0
 11
58.704085948523989
 21
217.83381894726
 31
0.0
  0
LINE
  5
196
  8
0
  6
CONTINUOUS
 62
     1
 10
43.277325268379997
 20
225.74046337867
 30
0.0
 11
58.704085948523989
 21
216.83381894726
 31
0.0
  0
LINE
  5
197
  8
0
  6
CONTINUOUS
 62
     1
 10
41.545274460810987
 20
225.74046337867
 30
0.0
 11
58.704085948523989
 21
215.83381894726
 31
0.0
  0
LINE
  5
198
  8
0
  6
CONTINUOUS
 62
     1
 10
32.342793292469011
 20
214.38863947149
 30
0.0
 11
52.004729058285001
 21
225.74046337867
 31
0.0
  0
LINE
  5
199
  8
0
  6
CONTINUOUS
 62
     1
 10
34.074844100038
 20
214.38863947149
 30
0.0
 11
53.73677986585399
 21
225.74046337867
 31
0.0
  0
LINE
  5
19A
  8
0
  6
CONTINUOUS
 62
     1
 10
35.806894907606001
 20
214.38863947149
 30
0.0
 11
55.468830673423
 21
225.74046337867
 31
0.0
  0
LINE
  5
19B
  8
0
  6
CONTINUOUS
 62
     1
 10
37.538945715174997
 20
214.38863947149
 30
0.0
 11
57.200881480992003
 21
225.74046337867
 31
0.0
  0
LINE
  5
19C
  8
0
  6
CONTINUOUS
 62
     1
 10
39.270996522743999
 20
214.38863947149
 30
0.0
 11
58.704085948523989
 21
225.60833888265
 31
0.0
  0
LINE
  5
19D
  8
0
  6
CONTINUOUS
 62
     1
 10
41.003047330313002
 20
214.38863947149
 30
0.0
 11
58.704085948523989
 21
224.60833888265
 31
0.0
  0
LINE
  5
19E
  8
0
  6
CONTINUOUS
 62
     1
 10
42.735098137881998
 20
214.38863947149
 30
0.0
 11
58.704085948523989
 21
223.60833888265
 31
0.0
  0
LINE
  5
19F
  8
0
  6
CONTINUOUS
 62
     1
 10
44.467148945451001
 20
214.38863947149
 30
0.0
 11
58.704085948523989
 21
222.60833888265
 31
0.0
  0
LINE
  5
1A0
  8
0
  6
CONTINUOUS
 62
     1
 10
47.931250560589
 20
214.38863947149
 30
0.0
 11
58.704085948523989
 21
220.60833888265
 31
0.0
  0
LINE
  5
1A1
  8
0
  6
CONTINUOUS
 62
     1
 10
46.199199753019997
 20
214.38863947149
 30
0.0
 11
58.704085948523989
 21
221.60833888265
 31
0.0
  0
LINE
  5
1A2
  8
0
  6
CONTINUOUS
 62
     1
 10
49.663301368157988
 20
214.38863947149
 30
0.0
 11
58.704085948523989
 21
219.60833888265
 31
0.0
  0
LINE
  5
1A3
  8
0
  6
CONTINUOUS
 62
     1
 10
51.395352175726003
 20
214.38863947149
 30
0.0
 11
58.704085948523989
 21
218.60833888265
 31
0.0
  0
LINE
  5
1A4
  8
0
  6
CONTINUOUS
 62
     1
 10
53.127402983294999
 20
214.38863947149
 30
0.0
 11
58.704085948523989
 21
217.60833888265
 31
0.0
  0
LINE
  5
1A5
  8
0
  6
CONTINUOUS
 62
     1
 10
54.859453790864002
 20
214.38863947149
 30
0.0
 11
58.704085948523989
 21
216.60833888265
 31
0.0
  0
LINE
  5
1A6
  8
0
  6
CONTINUOUS
 62
     1
 10
56.591504598432991
 20
214.38863947149
 30
0.0
 11
58.704085948523989
 21
215.60833888265
 31
0.0
  0
LINE
  5
1A7
  8
0
  6
CONTINUOUS
 62
     1
 10
58.323555406001987
 20
214.38863947149
 30
0.0
 11
58.704085948523989
 21
214.60833888265
 31
0.0
  0
LINE
  5
1A8
  8
0
  6
CONTINUOUS
 62
     1
 10
30.704085948524
 20
214.44253134534
 30
0.0
 11
50.272678250717
 21
225.74046337867
 31
0.0
  0
LINE
  5
1A9
  8
0
  6
CONTINUOUS
 62
     1
 10
30.704085948524
 20
225.44253134534
 30
0.0
 11
31.220119367458999
 21
225.74046337867
 31
0.0
  0
LINE
  5
1AA
  8
0
  6
CONTINUOUS
 62
     1
 10
30.704085948524
 20
223.44253134534
 30
0.0
 11
34.684220982596997
 21
225.74046337867
 31
0.0
  0
LINE
  5
1AB
  8
0
  6
CONTINUOUS
 62
     1
 10
30.704085948524
 20
224.44253134534
 30
0.0
 11
32.952170175028002
 21
225.74046337867
 31
0.0
  0
LINE
  5
1AC
  8
0
  6
CONTINUOUS
 62
     1
 10
30.704085948524
 20
222.44253134534
 30
0.0
 11
36.416271790166
 21
225.74046337867
 31
0.0
  0
LINE
  5
1AD
  8
0
  6
CONTINUOUS
 62
     1
 10
30.704085948524
 20
221.44253134534
 30
0.0
 11
38.14832259773501
 21
225.74046337867
 31
0.0
  0
LINE
  5
1AE
  8
0
  6
CONTINUOUS
 62
     1
 10
30.704085948524
 20
220.44253134534
 30
0.0
 11
39.880373405303999
 21
225.74046337867
 31
0.0
  0
LINE
  5
1AF
  8
0
  6
CONTINUOUS
 62
     1
 10
30.704085948524
 20
219.44253134534
 30
0.0
 11
41.612424212872
 21
225.74046337867
 31
0.0
  0
LINE
  5
1B0
  8
0
  6
CONTINUOUS
 62
     1
 10
30.704085948524
 20
218.44253134534
 30
0.0
 11
43.344475020440989
 21
225.74046337867
 31
0.0
  0
LINE
  5
1B1
  8
0
  6
CONTINUOUS
 62
     1
 10
30.704085948524
 20
217.44253134534
 30
0.0
 11
45.076525828009991
 21
225.74046337867
 31
0.0
  0
LINE
  5
1B2
  8
0
  6
CONTINUOUS
 62
     1
 10
30.704085948524
 20
216.44253134534
 30
0.0
 11
46.808576635579001
 21
225.74046337867
 31
0.0
  0
LINE
  5
1B3
  8
0
  6
CONTINUOUS
 62
     1
 10
30.704085948524
 20
215.44253134534
 30
0.0
 11
48.540627443147997
 21
225.74046337867
 31
0.0
  0
ENDBLK
  5
1B4
  8
0
  0
BLOCK
  8
0
  2
*D14
 70
     1
 10
0.0
 20
0.0
 30
0.0
  3
*D14
  1

  0
LINE
  5
1B6
  8
0
  6
CONTINUOUS
 62
     2
 10
30.704085948524
 20
225.93690467101001
 30
0.0
 11
30.704085948524
 21
229.34514658572999
 31
0.0
  0
LINE
  5
1B7
  8
0
  6
CONTINUOUS
 62
     2
 10
58.704085948523989
 20
225.93690467101001
 30
0.0
 11
58.704085948523989
 21
229.34514658572999
 31
0.0
  0
LINE
  5
1B8
  8
0
  6
CONTINUOUS
 62
     2
 10
30.704085948524
 20
228.34514658572999
 30
0.0
 11
58.704085948523989
 21
228.34514658572999
 31
0.0
  0
INSERT
  5
1B9
  8
0
  6
CONTINUOUS
 62
     2
  2
_OPEN30
 10
30.704085948524
 20
228.34514658572999
 30
0.0
 41
2.0
 42
2.0
 43
2.0
 50
180.0
  0
INSERT
  5
1BA
  8
0
  6
CONTINUOUS
 62
     2
  2
_OPEN30
 10
58.704085948523989
 20
228.34514658572999
 30
0.0
 41
2.0
 42
2.0
 43
2.0
  0
INSERT
  5
1BB
  8
0
  6
CONTINUOUS
  2
*U48
 10
0.0
 20
0.0
 30
0.0
  0
ENDBLK
  5
1BC
  8
0
  0
BLOCK
  8
0
  2
*D15
 70
     1
 10
0.0
 20
0.0
 30
0.0
  3
*D15
  1

  0
LINE
  5
1BE
  8
0
  6
CONTINUOUS
 62
     2
 10
29.204085948524
 20
148.0886394714899
 30
0.0
 11
29.204085948524
 21
160.27372358247001
 31
0.0
  0
LINE
  5
1BF
  8
0
  6
CONTINUOUS
 62
     2
 10
30.704085948524
 20
156.24046337867
 30
0.0
 11
30.704085948524
 21
160.27372358247001
 31
0.0
  0
LINE
  5
1C0
  8
0
  6
CONTINUOUS
 62
     2
 10
29.204085948524
 20
159.27372358247001
 30
0.0
 11
30.704085948524
 21
159.27372358247001
 31
0.0
  0
INSERT
  5
1C1
  8
0
  6
CONTINUOUS
 62
     2
  2
_OPEN30
 10
29.204085948524
 20
159.27372358247001
 30
0.0
 41
2.0
 42
2.0
 43
2.0
  0
LINE
  5
1C2
  8
0
  6
CONTINUOUS
 62
     2
 10
29.204085948524
 20
159.27372358247001
 30
0.0
 11
26.704085948524
 21
159.27372358247001
 31
0.0
  0
INSERT
  5
1C3
  8
0
  6
CONTINUOUS
  2
*U49
 10
0.0
 20
0.0
 30
0.0
  0
ENDBLK
  5
1C4
  8
0
  0
BLOCK
  8
0
  2
*D16
 70
     1
 10
0.0
 20
0.0
 30
0.0
  3
*D16
  1

  0
LINE
  5
1C6
  8
0
  6
CONTINUOUS
 62
     2
 10
30.704085948524
 20
156.24046337867
 30
0.0
 11
30.704085948524
 21
160.27372358247001
 31
0.0
  0
LINE
  5
1C7
  8
0
  6
CONTINUOUS
 62
     2
 10
66.704085948523996
 20
156.24046337867
 30
0.0
 11
66.704085948523996
 21
160.27372358247001
 31
0.0
  0
LINE
  5
1C8
  8
0
  6
CONTINUOUS
 62
     2
 10
30.704085948524
 20
159.27372358247001
 30
0.0
 11
66.704085948523996
 21
159.27372358247001
 31
0.0
  0
INSERT
  5
1C9
  8
0
  6
CONTINUOUS
 62
     2
  2
_OPEN30
 10
30.704085948524
 20
159.27372358247001
 30
0.0
 41
2.0
 42
2.0
 43
2.0
 50
180.0
  0
INSERT
  5
1CA
  8
0
  6
CONTINUOUS
 62
     2
  2
_OPEN30
 10
66.704085948523996
 20
159.27372358247001
 30
0.0
 41
2.0
 42
2.0
 43
2.0
  0
INSERT
  5
1CB
  8
0
  6
CONTINUOUS
  2
*U50
 10
0.0
 20
0.0
 30
0.0
  0
ENDBLK
  5
1CC
  8
0
  0
BLOCK
  8
0
  2
*D17
 70
     1
 10
0.0
 20
0.0
 30
0.0
  3
*D17
  1

  0
LINE
  5
1CE
  8
0
  6
CONTINUOUS
 62
     2
 10
66.704085948523996
 20
156.24046337867
 30
0.0
 11
66.704085948523996
 21
160.27372358247001
 31
0.0
  0
LINE
  5
1CF
  8
0
  6
CONTINUOUS
 62
     2
 10
68.204085948523996
 20
148.0886394714899
 30
0.0
 11
68.204085948523996
 21
160.27372358247001
 31
0.0
  0
LINE
  5
1D0
  8
0
  6
CONTINUOUS
 62
     2
 10
66.704085948523996
 20
159.27372358247001
 30
0.0
 11
68.204085948523996
 21
159.27372358247001
 31
0.0
  0
INSERT
  5
1D1
  8
0
  6
CONTINUOUS
 62
     2
  2
_OPEN30
 10
68.204085948523996
 20
159.27372358247001
 30
0.0
 41
2.0
 42
2.0
 43
2.0
 50
180.0
  0
LINE
  5
1D2
  8
0
  6
CONTINUOUS
 62
     2
 10
68.204085948523996
 20
159.27372358247001
 30
0.0
 11
70.704085948523996
 21
159.27372358247001
 31
0.0
  0
INSERT
  5
1D3
  8
0
  6
CONTINUOUS
  2
*U51
 10
0.0
 20
0.0
 30
0.0
  0
ENDBLK
  5
1D4
  8
0
  0
BLOCK
  8
0
  2
BLOCK005
 70
     0
 10
0.0
 20
0.0
 30
0.0
  3
BLOCK005
  1

  0
LINE
  5
1D6
  8
0
  6
CONTINUOUS
 62
     1
 10
30.704085948524
 20
106.47014404566001
 30
0.0
 11
44.419322345563003
 21
114.38863947149
 31
0.0
  0
LINE
  5
1D7
  8
0
  6
CONTINUOUS
 62
     1
 10
30.704085948524
 20
104.47014404566001
 30
0.0
 11
47.883423960700988
 21
114.38863947149
 31
0.0
  0
LINE
  5
1D8
  8
0
  6
CONTINUOUS
 62
     1
 10
40.345843847866
 20
103.0368155643
 30
0.0
 11
60.007779613682999
 21
114.38863947149
 31
0.0
  0
LINE
  5
1D9
  8
0
  6
CONTINUOUS
 62
     1
 10
38.613793040296997
 20
103.0368155643
 30
0.0
 11
58.275728806113989
 21
114.38863947149
 31
0.0
  0
LINE
  5
1DA
  8
0
  6
CONTINUOUS
 62
     1
 10
36.88174223272901
 20
103.0368155643
 30
0.0
 11
56.543677998546002
 21
114.38863947149
 31
0.0
  0
LINE
  5
1DB
  8
0
  6
CONTINUOUS
 62
     1
 10
35.14969142516
 20
103.0368155643
 30
0.0
 11
54.811627190976992
 21
114.38863947149
 31
0.0
  0
LINE
  5
1DC
  8
0
  6
CONTINUOUS
 62
     1
 10
33.417640617590997
 20
103.0368155643
 30
0.0
 11
53.079576383408003
 21
114.38863947149
 31
0.0
  0
LINE
  5
1DD
  8
0
  6
CONTINUOUS
 62
     1
 10
31.685589810022002
 20
103.0368155643
 30
0.0
 11
51.347525575839008
 21
114.38863947149
 31
0.0
  0
LINE
  5
1DE
  8
0
  6
CONTINUOUS
 62
     1
 10
30.704085948524
 20
103.47014404566001
 30
0.0
 11
49.615474768269998
 21
114.38863947149
 31
0.0
  0
LINE
  5
1DF
  8
0
  6
CONTINUOUS
 62
     1
 10
30.704085948524
 20
105.47014404566001
 30
0.0
 11
46.151373153131999
 21
114.38863947149
 31
0.0
  0
LINE
  5
1E0
  8
0
  6
CONTINUOUS
 62
     1
 10
30.704085948524
 20
107.47014404566001
 30
0.0
 11
42.687271537994
 21
114.38863947149
 31
0.0
  0
LINE
  5
1E1
  8
0
  6
CONTINUOUS
 62
     1
 10
30.704085948524
 20
108.47014404566001
 30
0.0
 11
40.955220730425999
 21
114.38863947149
 31
0.0
  0
LINE
  5
1E2
  8
0
  6
CONTINUOUS
 62
     1
 10
30.704085948524
 20
109.47014404566001
 30
0.0
 11
39.223169922856997
 21
114.38863947149
 31
0.0
  0
LINE
  5
1E3
  8
0
  6
CONTINUOUS
 62
     1
 10
30.704085948524
 20
110.47014404566001
 30
0.0
 11
37.491119115288001
 21
114.38863947149
 31
0.0
  0
LINE
  5
1E4
  8
0
  6
CONTINUOUS
 62
     1
 10
30.704085948524
 20
111.47014404566001
 30
0.0
 11
35.759068307719012
 21
114.38863947149
 31
0.0
  0
LINE
  5
1E5
  8
0
  6
CONTINUOUS
 62
     1
 10
30.704085948524
 20
112.47014404566001
 30
0.0
 11
34.027017500150002
 21
114.38863947149
 31
0.0
  0
LINE
  5
1E6
  8
0
  6
CONTINUOUS
 62
     1
 10
30.704085948524
 20
113.47014404566001
 30
0.0
 11
32.294966692580999
 21
114.38863947149
 31
0.0
  0
LINE
  5
1E7
  8
0
  6
CONTINUOUS
 62
     1
 10
42.077894655435003
 20
103.0368155643
 30
0.0
 11
61.739830421252002
 21
114.38863947149
 31
0.0
  0
LINE
  5
1E8
  8
0
  6
CONTINUOUS
 62
     1
 10
57.666351923555013
 20
103.0368155643
 30
0.0
 11
66.704085948523996
 21
108.25475373648
 31
0.0
  0
LINE
  5
1E9
  8
0
  6
CONTINUOUS
 62
     1
 10
61.13045353869299
 20
103.0368155643
 30
0.0
 11
66.704085948523996
 21
106.25475373648
 31
0.0
  0
LINE
  5
1EA
  8
0
  6
CONTINUOUS
 62
     1
 10
66.326605961400006
 20
103.0368155643
 30
0.0
 11
66.704085948523996
 21
103.25475373648
 31
0.0
  0
LINE
  5
1EB
  8
0
  6
CONTINUOUS
 62
     1
 10
64.594555153830996
 20
103.0368155643
 30
0.0
 11
66.704085948523996
 21
104.25475373648
 31
0.0
  0
LINE
  5
1EC
  8
0
  6
CONTINUOUS
 62
     1
 10
62.862504346262
 20
103.0368155643
 30
0.0
 11
66.704085948523996
 21
105.25475373648
 31
0.0
  0
LINE
  5
1ED
  8
0
  6
CONTINUOUS
 62
     1
 10
59.398402731124001
 20
103.0368155643
 30
0.0
 11
66.704085948523996
 21
107.25475373648
 31
0.0
  0
LINE
  5
1EE
  8
0
  6
CONTINUOUS
 62
     1
 10
55.934301115986003
 20
103.0368155643
 30
0.0
 11
66.704085948523996
 21
109.25475373648
 31
0.0
  0
LINE
  5
1EF
  8
0
  6
CONTINUOUS
 62
     1
 10
54.202250308416993
 20
103.0368155643
 30
0.0
 11
66.704085948523996
 21
110.25475373648
 31
0.0
  0
LINE
  5
1F0
  8
0
  6
CONTINUOUS
 62
     1
 10
52.470199500847997
 20
103.0368155643
 30
0.0
 11
66.704085948523996
 21
111.25475373648
 31
0.0
  0
LINE
  5
1F1
  8
0
  6
CONTINUOUS
 62
     1
 10
50.738148693280003
 20
103.0368155643
 30
0.0
 11
66.704085948523996
 21
112.25475373648
 31
0.0
  0
LINE
  5
1F2
  8
0
  6
CONTINUOUS
 62
     1
 10
49.006097885711
 20
103.0368155643
 30
0.0
 11
66.704085948523996
 21
113.25475373648
 31
0.0
  0
LINE
  5
1F3
  8
0
  6
CONTINUOUS
 62
     1
 10
47.274047078141997
 20
103.0368155643
 30
0.0
 11
66.704085948523996
 21
114.25475373648
 31
0.0
  0
LINE
  5
1F4
  8
0
  6
CONTINUOUS
 62
     1
 10
45.541996270572987
 20
103.0368155643
 30
0.0
 11
65.20393203639
 21
114.38863947149
 31
0.0
  0
LINE
  5
1F5
  8
0
  6
CONTINUOUS
 62
     1
 10
43.809945463003992
 20
103.0368155643
 30
0.0
 11
63.471881228820997
 21
114.38863947149
 31
0.0
  0
LINE
  5
1F6
  8
0
  6
CONTINUOUS
 62
     1
 10
62.987087634083998
 20
114.38863947149
 30
0.0
 11
66.704085948523996
 21
112.24262949407
 31
0.0
  0
LINE
  5
1F7
  8
0
  6
CONTINUOUS
 62
     1
 10
64.719138441653001
 20
114.38863947149
 30
0.0
 11
66.704085948523996
 21
113.24262949407
 31
0.0
  0
LINE
  5
1F8
  8
0
  6
CONTINUOUS
 62
     1
 10
66.451189249221997
 20
114.38863947149
 30
0.0
 11
66.704085948523996
 21
114.24262949407
 31
0.0
  0
LINE
  5
1F9
  8
0
  6
CONTINUOUS
 62
     1
 10
61.255036826514988
 20
114.38863947149
 30
0.0
 11
66.704085948523996
 21
111.24262949407
 31
0.0
  0
LINE
  5
1FA
  8
0
  6
CONTINUOUS
 62
     1
 10
30.704085948524
 20
114.02723918488989
 30
0.0
 11
49.740058056091989
 21
103.0368155643
 31
0.0
  0
LINE
  5
1FB
  8
0
  6
CONTINUOUS
 62
     1
 10
31.810173097844
 20
114.38863947149
 30
0.0
 11
51.472108863660999
 21
103.0368155643
 31
0.0
  0
LINE
  5
1FC
  8
0
  6
CONTINUOUS
 62
     1
 10
33.542223905413003
 20
114.38863947149
 30
0.0
 11
53.204159671230002
 21
103.0368155643
 31
0.0
  0
LINE
  5
1FD
  8
0
  6
CONTINUOUS
 62
     1
 10
35.274274712981999
 20
114.38863947149
 30
0.0
 11
54.936210478798998
 21
103.0368155643
 31
0.0
  0
LINE
  5
1FE
  8
0
  6
CONTINUOUS
 62
     1
 10
37.006325520551002
 20
114.38863947149
 30
0.0
 11
56.668261286368001
 21
103.0368155643
 31
0.0
  0
LINE
  5
1FF
  8
0
  6
CONTINUOUS
 62
     1
 10
38.738376328119998
 20
114.38863947149
 30
0.0
 11
58.400312093937004
 21
103.0368155643
 31
0.0
  0
LINE
  5
200
  8
0
  6
CONTINUOUS
 62
     1
 10
40.470427135689
 20
114.38863947149
 30
0.0
 11
60.132362901506013
 21
103.0368155643
 31
0.0
  0
LINE
  5
201
  8
0
  6
CONTINUOUS
 62
     1
 10
42.202477943257989
 20
114.38863947149
 30
0.0
 11
61.864413709075002
 21
103.0368155643
 31
0.0
  0
LINE
  5
202
  8
0
  6
CONTINUOUS
 62
     1
 10
45.666579558395988
 20
114.38863947149
 30
0.0
 11
65.328515324211992
 21
103.0368155643
 31
0.0
  0
LINE
  5
203
  8
0
  6
CONTINUOUS
 62
     1
 10
43.934528750826999
 20
114.38863947149
 30
0.0
 11
63.596464516643991
 21
103.0368155643
 31
0.0
  0
LINE
  5
204
  8
0
  6
CONTINUOUS
 62
     1
 10
47.398630365964003
 20
114.38863947149
 30
0.0
 11
66.704085948523996
 21
103.24262949407
 31
0.0
  0
LINE
  5
205
  8
0
  6
CONTINUOUS
 62
     1
 10
49.130681173532999
 20
114.38863947149
 30
0.0
 11
66.704085948523996
 21
104.24262949407
 31
0.0
  0
LINE
  5
206
  8
0
  6
CONTINUOUS
 62
     1
 10
50.862731981102002
 20
114.38863947149
 30
0.0
 11
66.704085948523996
 21
105.24262949407
 31
0.0
  0
LINE
  5
207
  8
0
  6
CONTINUOUS
 62
     1
 10
52.59478278867099
 20
114.38863947149
 30
0.0
 11
66.704085948523996
 21
106.24262949407
 31
0.0
  0
LINE
  5
208
  8
0
  6
CONTINUOUS
 62
     1
 10
54.326833596239993
 20
114.38863947149
 30
0.0
 11
66.704085948523996
 21
107.24262949407
 31
0.0
  0
LINE
  5
209
  8
0
  6
CONTINUOUS
 62
     1
 10
56.058884403809003
 20
114.38863947149
 30
0.0
 11
66.704085948523996
 21
108.24262949407
 31
0.0
  0
LINE
  5
20A
  8
0
  6
CONTINUOUS
 62
     1
 10
57.790935211377999
 20
114.38863947149
 30
0.0
 11
66.704085948523996
 21
109.24262949407
 31
0.0
  0
LINE
  5
20B
  8
0
  6
CONTINUOUS
 62
     1
 10
59.522986018947002
 20
114.38863947149
 30
0.0
 11
66.704085948523996
 21
110.24262949407
 31
0.0
  0
LINE
  5
20C
  8
0
  6
CONTINUOUS
 62
     1
 10
30.704085948524
 20
113.02723918488989
 30
0.0
 11
48.008007248524002
 21
103.0368155643
 31
0.0
  0
LINE
  5
20D
  8
0
  6
CONTINUOUS
 62
     1
 10
30.704085948524
 20
104.02723918489001
 30
0.0
 11
32.419549980404
 21
103.0368155643
 31
0.0
  0
LINE
  5
20E
  8
0
  6
CONTINUOUS
 62
     1
 10
30.704085948524
 20
105.02723918489001
 30
0.0
 11
34.151600787972988
 21
103.0368155643
 31
0.0
  0
LINE
  5
20F
  8
0
  6
CONTINUOUS
 62
     1
 10
30.704085948524
 20
106.02723918489001
 30
0.0
 11
35.883651595541011
 21
103.0368155643
 31
0.0
  0
LINE
  5
210
  8
0
  6
CONTINUOUS
 62
     1
 10
30.704085948524
 20
107.02723918489001
 30
0.0
 11
37.615702403109999
 21
103.0368155643
 31
0.0
  0
LINE
  5
211
  8
0
  6
CONTINUOUS
 62
     1
 10
30.704085948524
 20
108.02723918489001
 30
0.0
 11
39.347753210679002
 21
103.0368155643
 31
0.0
  0
LINE
  5
212
  8
0
  6
CONTINUOUS
 62
     1
 10
30.704085948524
 20
109.02723918489001
 30
0.0
 11
41.079804018247991
 21
103.0368155643
 31
0.0
  0
LINE
  5
213
  8
0
  6
CONTINUOUS
 62
     1
 10
30.704085948524
 20
110.02723918489001
 30
0.0
 11
42.811854825817001
 21
103.0368155643
 31
0.0
  0
LINE
  5
214
  8
0
  6
CONTINUOUS
 62
     1
 10
30.704085948524
 20
111.02723918489001
 30
0.0
 11
44.543905633385997
 21
103.0368155643
 31
0.0
  0
LINE
  5
215
  8
0
  6
CONTINUOUS
 62
     1
 10
30.704085948524
 20
112.02723918488989
 30
0.0
 11
46.275956440954992
 21
103.0368155643
 31
0.0
  0
ENDBLK
  5
216
  8
0
  0
BLOCK
  8
0
  2
BLOCK006
 70
     0
 10
0.0
 20
0.0
 30
0.0
  3
BLOCK006
  1

  0
LINE
  5
218
  8
0
  6
CONTINUOUS
 62
     1
 10
30.704085948524
 20
152.30713489732
 30
0.0
 11
44.419322345563003
 21
144.38863947149
 31
0.0
  0
LINE
  5
219
  8
0
  6
CONTINUOUS
 62
     1
 10
30.704085948524
 20
154.30713489732
 30
0.0
 11
47.883423960700988
 21
144.38863947149
 31
0.0
  0
LINE
  5
21A
  8
0
  6
CONTINUOUS
 62
     1
 10
40.345843847866
 20
155.74046337867
 30
0.0
 11
60.007779613682999
 21
144.38863947149
 31
0.0
  0
LINE
  5
21B
  8
0
  6
CONTINUOUS
 62
     1
 10
38.613793040296997
 20
155.74046337867
 30
0.0
 11
58.275728806113989
 21
144.38863947149
 31
0.0
  0
LINE
  5
21C
  8
0
  6
CONTINUOUS
 62
     1
 10
36.88174223272901
 20
155.74046337867
 30
0.0
 11
56.543677998545
 21
144.38863947149
 31
0.0
  0
LINE
  5
21D
  8
0
  6
CONTINUOUS
 62
     1
 10
35.14969142516
 20
155.74046337867
 30
0.0
 11
54.811627190976992
 21
144.38863947149
 31
0.0
  0
LINE
  5
21E
  8
0
  6
CONTINUOUS
 62
     1
 10
33.417640617590997
 20
155.74046337867
 30
0.0
 11
53.079576383408003
 21
144.38863947149
 31
0.0
  0
LINE
  5
21F
  8
0
  6
CONTINUOUS
 62
     1
 10
31.685589810022002
 20
155.74046337867
 30
0.0
 11
51.347525575839008
 21
144.38863947149
 31
0.0
  0
LINE
  5
220
  8
0
  6
CONTINUOUS
 62
     1
 10
30.704085948524
 20
155.30713489732
 30
0.0
 11
49.615474768269998
 21
144.38863947149
 31
0.0
  0
LINE
  5
221
  8
0
  6
CONTINUOUS
 62
     1
 10
30.704085948524
 20
153.30713489732
 30
0.0
 11
46.151373153131999
 21
144.38863947149
 31
0.0
  0
LINE
  5
222
  8
0
  6
CONTINUOUS
 62
     1
 10
30.704085948524
 20
151.30713489732
 30
0.0
 11
42.687271537994
 21
144.38863947149
 31
0.0
  0
LINE
  5
223
  8
0
  6
CONTINUOUS
 62
     1
 10
30.704085948524
 20
150.30713489732
 30
0.0
 11
40.95522073042499
 21
144.38863947149
 31
0.0
  0
LINE
  5
224
  8
0
  6
CONTINUOUS
 62
     1
 10
30.704085948524
 20
149.30713489732
 30
0.0
 11
39.223169922856997
 21
144.38863947149
 31
0.0
  0
LINE
  5
225
  8
0
  6
CONTINUOUS
 62
     1
 10
30.704085948524
 20
148.30713489732
 30
0.0
 11
37.491119115288001
 21
144.38863947149
 31
0.0
  0
LINE
  5
226
  8
0
  6
CONTINUOUS
 62
     1
 10
30.704085948524
 20
147.30713489732
 30
0.0
 11
35.759068307719012
 21
144.38863947149
 31
0.0
  0
LINE
  5
227
  8
0
  6
CONTINUOUS
 62
     1
 10
30.704085948524
 20
146.30713489732
 30
0.0
 11
34.027017500150002
 21
144.38863947149
 31
0.0
  0
LINE
  5
228
  8
0
  6
CONTINUOUS
 62
     1
 10
30.704085948524
 20
145.30713489732
 30
0.0
 11
32.294966692580999
 21
144.38863947149
 31
0.0
  0
LINE
  5
229
  8
0
  6
CONTINUOUS
 62
     1
 10
42.077894655435003
 20
155.74046337867
 30
0.0
 11
61.739830421252002
 21
144.38863947149
 31
0.0
  0
LINE
  5
22A
  8
0
  6
CONTINUOUS
 62
     1
 10
57.666351923555013
 20
155.74046337867
 30
0.0
 11
66.704085948523996
 21
150.52252520649
 31
0.0
  0
LINE
  5
22B
  8
0
  6
CONTINUOUS
 62
     1
 10
61.13045353869299
 20
155.74046337867
 30
0.0
 11
66.704085948523996
 21
152.52252520648989
 31
0.0
  0
LINE
  5
22C
  8
0
  6
CONTINUOUS
 62
     1
 10
66.326605961398997
 20
155.74046337867
 30
0.0
 11
66.704085948523996
 21
155.52252520648989
 31
0.0
  0
LINE
  5
22D
  8
0
  6
CONTINUOUS
 62
     1
 10
64.594555153830001
 20
155.74046337867
 30
0.0
 11
66.704085948523996
 21
154.52252520648989
 31
0.0
  0
LINE
  5
22E
  8
0
  6
CONTINUOUS
 62
     1
 10
62.862504346262
 20
155.74046337867
 30
0.0
 11
66.704085948523996
 21
153.52252520648989
 31
0.0
  0
LINE
  5
22F
  8
0
  6
CONTINUOUS
 62
     1
 10
59.398402731124001
 20
155.74046337867
 30
0.0
 11
66.704085948523996
 21
151.52252520648989
 31
0.0
  0
LINE
  5
230
  8
0
  6
CONTINUOUS
 62
     1
 10
55.934301115986003
 20
155.74046337867
 30
0.0
 11
66.704085948523996
 21
149.52252520649
 31
0.0
  0
LINE
  5
231
  8
0
  6
CONTINUOUS
 62
     1
 10
54.202250308416993
 20
155.74046337867
 30
0.0
 11
66.704085948523996
 21
148.52252520649
 31
0.0
  0
LINE
  5
232
  8
0
  6
CONTINUOUS
 62
     1
 10
52.470199500847997
 20
155.74046337867
 30
0.0
 11
66.704085948523996
 21
147.52252520649
 31
0.0
  0
LINE
  5
233
  8
0
  6
CONTINUOUS
 62
     1
 10
50.738148693279001
 20
155.74046337867
 30
0.0
 11
66.704085948523996
 21
146.52252520649
 31
0.0
  0
LINE
  5
234
  8
0
  6
CONTINUOUS
 62
     1
 10
49.006097885711
 20
155.74046337867
 30
0.0
 11
66.704085948523996
 21
145.52252520649
 31
0.0
  0
LINE
  5
235
  8
0
  6
CONTINUOUS
 62
     1
 10
47.274047078141997
 20
155.74046337867
 30
0.0
 11
66.704085948523996
 21
144.52252520649
 31
0.0
  0
LINE
  5
236
  8
0
  6
CONTINUOUS
 62
     1
 10
45.541996270572987
 20
155.74046337867
 30
0.0
 11
65.20393203639
 21
144.38863947149
 31
0.0
  0
LINE
  5
237
  8
0
  6
CONTINUOUS
 62
     1
 10
43.809945463003992
 20
155.74046337867
 30
0.0
 11
63.471881228820997
 21
144.38863947149
 31
0.0
  0
LINE
  5
238
  8
0
  6
CONTINUOUS
 62
     1
 10
62.987087634083998
 20
144.38863947149
 30
0.0
 11
66.704085948523996
 21
146.53464944890999
 31
0.0
  0
LINE
  5
239
  8
0
  6
CONTINUOUS
 62
     1
 10
64.719138441653001
 20
144.38863947149
 30
0.0
 11
66.704085948523996
 21
145.53464944890999
 31
0.0
  0
LINE
  5
23A
  8
0
  6
CONTINUOUS
 62
     1
 10
66.451189249221997
 20
144.38863947149
 30
0.0
 11
66.704085948523996
 21
144.53464944890999
 31
0.0
  0
LINE
  5
23B
  8
0
  6
CONTINUOUS
 62
     1
 10
61.255036826515997
 20
144.38863947149
 30
0.0
 11
66.704085948523996
 21
147.53464944890999
 31
0.0
  0
LINE
  5
23C
  8
0
  6
CONTINUOUS
 62
     1
 10
30.704085948524
 20
144.75003975807999
 30
0.0
 11
49.740058056091989
 21
155.74046337867
 31
0.0
  0
LINE
  5
23D
  8
0
  6
CONTINUOUS
 62
     1
 10
31.810173097844
 20
144.38863947149
 30
0.0
 11
51.472108863660999
 21
155.74046337867
 31
0.0
  0
LINE
  5
23E
  8
0
  6
CONTINUOUS
 62
     1
 10
33.542223905413003
 20
144.38863947149
 30
0.0
 11
53.204159671230002
 21
155.74046337867
 31
0.0
  0
LINE
  5
23F
  8
0
  6
CONTINUOUS
 62
     1
 10
35.274274712981999
 20
144.38863947149
 30
0.0
 11
54.936210478798998
 21
155.74046337867
 31
0.0
  0
LINE
  5
240
  8
0
  6
CONTINUOUS
 62
     1
 10
37.006325520551002
 20
144.38863947149
 30
0.0
 11
56.668261286368001
 21
155.74046337867
 31
0.0
  0
LINE
  5
241
  8
0
  6
CONTINUOUS
 62
     1
 10
38.738376328119998
 20
144.38863947149
 30
0.0
 11
58.400312093937004
 21
155.74046337867
 31
0.0
  0
LINE
  5
242
  8
0
  6
CONTINUOUS
 62
     1
 10
40.470427135689
 20
144.38863947149
 30
0.0
 11
60.132362901506013
 21
155.74046337867
 31
0.0
  0
LINE
  5
243
  8
0
  6
CONTINUOUS
 62
     1
 10
42.202477943257989
 20
144.38863947149
 30
0.0
 11
61.864413709075002
 21
155.74046337867
 31
0.0
  0
LINE
  5
244
  8
0
  6
CONTINUOUS
 62
     1
 10
45.666579558395007
 20
144.38863947149
 30
0.0
 11
65.328515324211992
 21
155.74046337867
 31
0.0
  0
LINE
  5
245
  8
0
  6
CONTINUOUS
 62
     1
 10
43.934528750826999
 20
144.38863947149
 30
0.0
 11
63.596464516643991
 21
155.74046337867
 31
0.0
  0
LINE
  5
246
  8
0
  6
CONTINUOUS
 62
     1
 10
47.398630365964003
 20
144.38863947149
 30
0.0
 11
66.704085948523996
 21
155.53464944890999
 31
0.0
  0
LINE
  5
247
  8
0
  6
CONTINUOUS
 62
     1
 10
49.130681173532999
 20
144.38863947149
 30
0.0
 11
66.704085948523996
 21
154.53464944890999
 31
0.0
  0
LINE
  5
248
  8
0
  6
CONTINUOUS
 62
     1
 10
50.862731981102002
 20
144.38863947149
 30
0.0
 11
66.704085948523996
 21
153.53464944890999
 31
0.0
  0
LINE
  5
249
  8
0
  6
CONTINUOUS
 62
     1
 10
52.59478278867099
 20
144.38863947149
 30
0.0
 11
66.704085948523996
 21
152.53464944890999
 31
0.0
  0
LINE
  5
24A
  8
0
  6
CONTINUOUS
 62
     1
 10
54.326833596239993
 20
144.38863947149
 30
0.0
 11
66.704085948523996
 21
151.53464944890999
 31
0.0
  0
LINE
  5
24B
  8
0
  6
CONTINUOUS
 62
     1
 10
56.058884403809003
 20
144.38863947149
 30
0.0
 11
66.704085948523996
 21
150.53464944890999
 31
0.0
  0
LINE
  5
24C
  8
0
  6
CONTINUOUS
 62
     1
 10
57.790935211377999
 20
144.38863947149
 30
0.0
 11
66.704085948523996
 21
149.53464944890999
 31
0.0
  0
LINE
  5
24D
  8
0
  6
CONTINUOUS
 62
     1
 10
59.522986018947002
 20
144.38863947149
 30
0.0
 11
66.704085948523996
 21
148.53464944890999
 31
0.0
  0
LINE
  5
24E
  8
0
  6
CONTINUOUS
 62
     1
 10
30.704085948524
 20
145.75003975807999
 30
0.0
 11
48.008007248524002
 21
155.74046337867
 31
0.0
  0
LINE
  5
24F
  8
0
  6
CONTINUOUS
 62
     1
 10
30.704085948524
 20
154.75003975807999
 30
0.0
 11
32.419549980404
 21
155.74046337867
 31
0.0
  0
LINE
  5
250
  8
0
  6
CONTINUOUS
 62
     1
 10
30.704085948524
 20
153.75003975807999
 30
0.0
 11
34.151600787972988
 21
155.74046337867
 31
0.0
  0
LINE
  5
251
  8
0
  6
CONTINUOUS
 62
     1
 10
30.704085948524
 20
152.75003975807999
 30
0.0
 11
35.883651595541011
 21
155.74046337867
 31
0.0
  0
LINE
  5
252
  8
0
  6
CONTINUOUS
 62
     1
 10
30.704085948524
 20
151.75003975807999
 30
0.0
 11
37.615702403109999
 21
155.74046337867
 31
0.0
  0
LINE
  5
253
  8
0
  6
CONTINUOUS
 62
     1
 10
30.704085948524
 20
150.75003975807999
 30
0.0
 11
39.347753210679002
 21
155.74046337867
 31
0.0
  0
LINE
  5
254
  8
0
  6
CONTINUOUS
 62
     1
 10
30.704085948524
 20
149.75003975807999
 30
0.0
 11
41.079804018247991
 21
155.74046337867
 31
0.0
  0
LINE
  5
255
  8
0
  6
CONTINUOUS
 62
     1
 10
30.704085948524
 20
148.75003975807999
 30
0.0
 11
42.811854825817001
 21
155.74046337867
 31
0.0
  0
LINE
  5
256
  8
0
  6
CONTINUOUS
 62
     1
 10
30.704085948524
 20
147.75003975807999
 30
0.0
 11
44.543905633385997
 21
155.74046337867
 31
0.0
  0
LINE
  5
257
  8
0
  6
CONTINUOUS
 62
     1
 10
30.704085948524
 20
146.75003975807999
 30
0.0
 11
46.275956440954992
 21
155.74046337867
 31
0.0
  0
ENDBLK
  5
258
  8
0
  0
BLOCK
  8
0
  2
*D20
 70
     1
 10
0.0
 20
0.0
 30
0.0
  3
*D20
  1

  0
LINE
  5
25A
  8
0
  6
CONTINUOUS
 62
     2
 10
99.195226532402984
 20
178.01243680271
 30
0.0
 11
117.66974330347
 21
137.91039918788999
 31
0.0
  0
INSERT
  5
25B
  8
0
  6
CONTINUOUS
 62
     2
  2
_OPEN30
 10
99.195226532402984
 20
178.01243680271
 30
0.0
 41
3.0
 42
3.0
 43
3.0
 50
114.73494415184
  0
INSERT
  5
25C
  8
0
  6
CONTINUOUS
 62
     2
  2
_OPEN30
 10
111.74785912922
 20
150.76484214025999
 30
0.0
 41
3.0
 42
3.0
 43
3.0
 50
294.7349441518399
  0
INSERT
  5
25D
  8
0
  6
CONTINUOUS
  2
*U52
 10
0.0
 20
0.0
 30
0.0
  0
ENDBLK
  5
25E
  8
0
  0
BLOCK
  8
0
  2
_ARCHTICK
 70
     0
 10
0.0
 20
0.0
 30
0.0
  3
_ARCHTICK
  1

  0
POLYLINE
  5
6C
  8
0
  6
BYBLOCK
 62
     0
 66
     1
 10
0.0
 20
0.0
 30
0.0
 70
     1
 40
0.15
 41
0.15
  0
VERTEX
  5
696
  8
0
  6
BYBLOCK
 62
     0
 10
-0.5
 20
-0.5
 30
0.0
  0
VERTEX
  5
697
  8
0
  6
BYBLOCK
 62
     0
 10
0.5
 20
0.5
 30
0.0
  0
SEQEND
  5
698
  8
0
  6
BYBLOCK
 62
     0
  0
ENDBLK
  5
70
  8
0
  0
BLOCK
  8
0
  2
_BOXBLANK
 70
     0
 10
0.0
 20
0.0
 30
0.0
  3
_BOXBLANK
  1

  0
LINE
  5
75
  8
0
  6
BYBLOCK
 62
     0
 10
-0.5
 20
-0.5
 30
0.0
 11
0.5
 21
-0.5
 31
0.0
  0
LINE
  5
76
  8
0
  6
BYBLOCK
 62
     0
 10
0.5
 20
-0.5
 30
0.0
 11
0.5
 21
0.5
 31
0.0
  0
LINE
  5
77
  8
0
  6
BYBLOCK
 62
     0
 10
0.5
 20
0.5
 30
0.0
 11
-0.5
 21
0.5
 31
0.0
  0
LINE
  5
78
  8
0
  6
BYBLOCK
 62
     0
 10
-0.5
 20
0.5
 30
0.0
 11
-0.5
 21
-0.5
 31
0.0
  0
LINE
  5
79
  8
0
  6
BYBLOCK
 62
     0
 10
-0.5
 20
0.0
 30
0.0
 11
-1.0
 21
0.0
 31
0.0
  0
ENDBLK
  5
7A
  8
0
  0
BLOCK
  8
0
  2
_BOXFILLED
 70
     0
 10
0.0
 20
0.0
 30
0.0
  3
_BOXFILLED
  1

  0
SOLID
  5
7C
  8
0
  6
BYBLOCK
 62
     0
 10
-0.5
 20
0.5
 30
0.0
 11
0.5
 21
0.5
 31
0.0
 12
-0.5
 22
-0.5
 32
0.0
 13
0.5
 23
-0.5
 33
0.0
  0
LINE
  5
7D
  8
0
  6
BYBLOCK
 62
     0
 10
-0.5
 20
0.0
 30
0.0
 11
-1.0
 21
0.0
 31
0.0
  0
ENDBLK
  5
7E
  8
0
  0
BLOCK
  8
0
  2
_CLOSED
 70
     0
 10
0.0
 20
0.0
 30
0.0
  3
_CLOSED
  1

  0
LINE
  5
80
  8
0
  6
BYBLOCK
 62
     0
 10
-1.0
 20
0.16666666666667
 30
0.0
 11
0.0
 21
0.0
 31
0.0
  0
LINE
  5
81
  8
0
  6
BYBLOCK
 62
     0
 10
0.0
 20
0.0
 30
0.0
 11
-1.0
 21
-0.16666666666667
 31
0.0
  0
LINE
  5
82
  8
0
  6
BYBLOCK
 62
     0
 10
-1.0
 20
0.16666666666667
 30
0.0
 11
-1.0
 21
-0.16666666666667
 31
0.0
  0
LINE
  5
83
  8
0
  6
BYBLOCK
 62
     0
 10
0.0
 20
0.0
 30
0.0
 11
-1.0
 21
0.0
 31
0.0
  0
ENDBLK
  5
84
  8
0
  0
BLOCK
  8
0
  2
_CLOSEDBLANK
 70
     0
 10
0.0
 20
0.0
 30
0.0
  3
_CLOSEDBLANK
  1

  0
LINE
  5
95
  8
0
  6
BYBLOCK
 62
     0
 10
-1.0
 20
0.16666666666667
 30
0.0
 11
0.0
 21
0.0
 31
0.0
  0
LINE
  5
96
  8
0
  6
BYBLOCK
 62
     0
 10
0.0
 20
0.0
 30
0.0
 11
-1.0
 21
-0.16666666666667
 31
0.0
  0
LINE
  5
97
  8
0
  6
BYBLOCK
 62
     0
 10
-1.0
 20
0.16666666666667
 30
0.0
 11
-1.0
 21
-0.16666666666667
 31
0.0
  0
ENDBLK
  5
98
  8
0
  0
BLOCK
  8
0
  2
_DATUMBLANK
 70
     0
 10
0.0
 20
0.0
 30
0.0
  3
_DATUMBLANK
  1

  0
LINE
  5
A7
  8
0
  6
BYBLOCK
 62
     0
 10
0.0
 20
0.5773502700000001
 30
0.0
 11
-1.0
 21
0.0
 31
0.0
  0
LINE
  5
A8
  8
0
  6
BYBLOCK
 62
     0
 10
-1.0
 20
0.0
 30
0.0
 11
0.0
 21
-0.5773502700000001
 31
0.0
  0
LINE
  5
A9
  8
0
  6
BYBLOCK
 62
     0
 10
0.0
 20
-0.5773502700000001
 30
0.0
 11
0.0
 21
0.5773502700000001
 31
0.0
  0
ENDBLK
  5
AA
  8
0
  0
BLOCK
  8
0
  2
_DATUMFILLED
 70
     0
 10
0.0
 20
0.0
 30
0.0
  3
_DATUMFILLED
  1

  0
SOLID
  5
AC
  8
0
  6
BYBLOCK
 62
     0
 10
0.0
 20
0.5773502700000001
 30
0.0
 11
-1.0
 21
0.0
 31
0.0
 12
0.0
 22
-0.5773502700000001
 32
0.0
 13
0.0
 23
-0.5773502700000001
 33
0.0
  0
ENDBLK
  5
AD
  8
0
  0
BLOCK
  8
0
  2
_DOT
 70
     0
 10
0.0
 20
0.0
 30
0.0
  3
_DOT
  1

  0
POLYLINE
  5
9A
  8
0
  6
BYBLOCK
 62
     0
 66
     1
 10
0.0
 20
0.0
 30
0.0
 70
     1
 40
0.5
 41
0.5
  0
VERTEX
  5
699
  8
0
  6
BYBLOCK
 62
     0
 10
-0.25
 20
0.0
 30
0.0
 42
1.0
  0
VERTEX
  5
69A
  8
0
  6
BYBLOCK
 62
     0
 10
0.25
 20
0.0
 30
0.0
 42
1.0
  0
SEQEND
  5
69B
  8
0
  6
BYBLOCK
 62
     0
  0
LINE
  5
9E
  8
0
  6
BYBLOCK
 62
     0
 10
-0.5
 20
0.0
 30
0.0
 11
-1.0
 21
0.0
 31
0.0
  0
ENDBLK
  5
9F
  8
0
  0
BLOCK
  8
0
  2
_DOTBLANK
 70
     0
 10
0.0
 20
0.0
 30
0.0
  3
_DOTBLANK
  1

  0
CIRCLE
  5
B6
  8
0
  6
BYBLOCK
 62
     0
 10
0.0
 20
0.0
 30
0.0
 40
0.5
  0
LINE
  5
B7
  8
0
  6
BYBLOCK
 62
     0
 10
-0.5
 20
0.0
 30
0.0
 11
-1.0
 21
0.0
 31
0.0
  0
ENDBLK
  5
B8
  8
0
  0
BLOCK
  8
0
  2
_DOTSMALL
 70
     0
 10
0.0
 20
0.0
 30
0.0
  3
_DOTSMALL
  1

  0
POLYLINE
  5
A1
  8
0
  6
BYBLOCK
 62
     0
 66
     1
 10
0.0
 20
0.0
 30
0.0
 70
     1
 40
0.5
 41
0.5
  0
VERTEX
  5
69C
  8
0
  6
BYBLOCK
 62
     0
 10
-0.0625
 20
0.0
 30
0.0
 42
1.0
  0
VERTEX
  5
69D
  8
0
  6
BYBLOCK
 62
     0
 10
0.0625
 20
0.0
 30
0.0
 42
1.0
  0
SEQEND
  5
69E
  8
0
  6
BYBLOCK
 62
     0
  0
ENDBLK
  5
A5
  8
0
  0
BLOCK
  8
0
  2
_INTEGRAL
 70
     0
 10
0.0
 20
0.0
 30
0.0
  3
_INTEGRAL
  1

  0
ARC
  5
BA
  8
0
  6
BYBLOCK
 62
     0
 10
0.444888
 20
-0.091335
 30
0.0
 40
0.454167
 50
102.0
 51
168.0
  0
ARC
  5
BB
  8
0
  6
BYBLOCK
 62
     0
 10
-0.444888
 20
0.091335
 30
0.0
 40
0.454167
 50
282.0
 51
348.0
  0
ENDBLK
  5
BC
  8
0
  0
BLOCK
  8
0
  2
_NONE
 70
     0
 10
0.0
 20
0.0
 30
0.0
  3
_NONE
  1

  0
CIRCLE
  5
B3
  8
0
  6
BYBLOCK
 62
     0
 10
0.0
 20
0.0
 30
0.0
 40
0.25
  0
ENDBLK
  5
B4
  8
0
  0
BLOCK
  8
0
  2
_OBLIQUE
 70
     0
 10
0.0
 20
0.0
 30
0.0
  3
_OBLIQUE
  1

  0
LINE
  5
72
  8
0
  6
BYBLOCK
 62
     0
 10
-0.5
 20
-0.5
 30
0.0
 11
0.5
 21
0.5
 31
0.0
  0
ENDBLK
  5
73
  8
0
  0
BLOCK
  8
0
  2
_OPEN
 70
     0
 10
0.0
 20
0.0
 30
0.0
  3
_OPEN
  1

  0
LINE
  5
86
  8
0
  6
BYBLOCK
 62
     0
 10
-1.0
 20
0.16666666666667
 30
0.0
 11
0.0
 21
0.0
 31
0.0
  0
LINE
  5
87
  8
0
  6
BYBLOCK
 62
     0
 10
0.0
 20
0.0
 30
0.0
 11
-1.0
 21
-0.16666666666667
 31
0.0
  0
LINE
  5
88
  8
0
  6
BYBLOCK
 62
     0
 10
0.0
 20
0.0
 30
0.0
 11
-1.0
 21
0.0
 31
0.0
  0
ENDBLK
  5
89
  8
0
  0
BLOCK
  8
0
  2
_OPEN30
 70
     0
 10
0.0
 20
0.0
 30
0.0
  3
_OPEN30
  1

  0
LINE
  5
8B
  8
0
  6
BYBLOCK
 62
     0
 10
-1.0
 20
0.2679491924311
 30
0.0
 11
0.0
 21
0.0
 31
0.0
  0
LINE
  5
8C
  8
0
  6
BYBLOCK
 62
     0
 10
0.0
 20
0.0
 30
0.0
 11
-1.0
 21
-0.2679491924311
 31
0.0
  0
LINE
  5
8D
  8
0
  6
BYBLOCK
 62
     0
 10
0.0
 20
0.0
 30
0.0
 11
-1.0
 21
0.0
 31
0.0
  0
ENDBLK
  5
8E
  8
0
  0
BLOCK
  8
0
  2
_OPEN90
 70
     0
 10
0.0
 20
0.0
 30
0.0
  3
_OPEN90
  1

  0
LINE
  5
90
  8
0
  6
BYBLOCK
 62
     0
 10
-0.5
 20
0.5
 30
0.0
 11
0.0
 21
0.0
 31
0.0
  0
LINE
  5
91
  8
0
  6
BYBLOCK
 62
     0
 10
0.0
 20
0.0
 30
0.0
 11
-0.5
 21
-0.5
 31
0.0
  0
LINE
  5
92
  8
0
  6
BYBLOCK
 62
     0
 10
0.0
 20
0.0
 30
0.0
 11
-1.0
 21
0.0
 31
0.0
  0
ENDBLK
  5
93
  8
0
  0
BLOCK
  8
0
  2
_ORIGIN
 70
     0
 10
0.0
 20
0.0
 30
0.0
  3
_ORIGIN
  1

  0
CIRCLE
  5
AF
  8
0
  6
BYBLOCK
 62
     0
 10
0.0
 20
0.0
 30
0.0
 40
0.5
  0
LINE
  5
B0
  8
0
  6
BYBLOCK
 62
     0
 10
0.0
 20
0.0
 30
0.0
 11
-1.0
 21
0.0
 31
0.0
  0
ENDBLK
  5
B1
  8
0
  0
BLOCK
  8
0
  2
*U38
 70
     1
 10
0.0
 20
0.0
 30
0.0
  3
*U38
  1

  0
TEXT
  5
6B7
  8
0
  6
CONTINUOUS
 62
     2
 10
366.61248946168672
 20
196.30292518576999
 30
0.0
 40
4.0
  1
\U+220538
  7
GMM001
  0
ENDBLK
  5
6B9
  8
0
  0
BLOCK
  8
0
  2
*U39
 70
     1
 10
0.0
 20
0.0
 30
0.0
  3
*U39
  1

  0
TEXT
  5
6BB
  8
0
  6
CONTINUOUS
 62
     2
 10
185.20109488382661
 20
196.20292518577
 30
0.0
 40
4.0
  1
\U+220538
  7
GMM001
  0
ENDBLK
  5
6BD
  8
0
  0
BLOCK
  8
0
  2
*U40
 70
     1
 10
0.0
 20
0.0
 30
0.0
  3
*U40
  1

  0
TEXT
  5
6BF
  8
0
  6
CONTINUOUS
 62
     2
 10
363.94582279501998
 20
188.29617336382
 30
0.0
 40
4.0
  1
\U+220526.6
  7
GMM001
  0
ENDBLK
  5
6C1
  8
0
  0
BLOCK
  8
0
  2
*U41
 70
     1
 10
0.0
 20
0.0
 30
0.0
  3
*U41
  1

  0
TEXT
  5
6C3
  8
0
  6
CONTINUOUS
 62
     2
 10
182.53442821716001
 20
188.29617336382
 30
0.0
 40
4.0
  1
\U+220526.6
  7
GMM001
  0
ENDBLK
  5
6C5
  8
0
  0
BLOCK
  8
0
  2
*U42
 70
     1
 10
0.0
 20
0.0
 30
0.0
  3
*U42
  1

  0
TEXT
  5
6C7
  8
0
  6
CONTINUOUS
 62
     2
 10
246.10109488382659
 20
196.20292518577
 30
0.0
 40
4.0
  1
28
  7
GMM001
  0
ENDBLK
  5
6C9
  8
0
  0
BLOCK
  8
0
  2
*U43
 70
     1
 10
0.0
 20
0.0
 30
0.0
  3
*U43
  1

  0
TEXT
  5
6CB
  8
0
  6
CONTINUOUS
 62
     2
 10
238.11955696997001
 20
187.80224550603
 30
0.0
 40
4.0
  1
1.5
  7
GMM001
  0
ENDBLK
  5
6CD
  8
0
  0
BLOCK
  8
0
  2
*U44
 70
     1
 10
0.0
 20
0.0
 30
0.0
  3
*U44
  1

  0
TEXT
  5
6CF
  8
0
  6
CONTINUOUS
 62
     2
 10
317.45277550682329
 20
188.14334569523999
 30
0.0
 40
4.0
  1
1.5
  7
GMM001
  0
ENDBLK
  5
6D1
  8
0
  0
BLOCK
  8
0
  2
*U45
 70
     1
 10
0.0
 20
0.0
 30
0.0
  3
*U45
  1

  0
TEXT
  5
6D3
  8
0
  6
CONTINUOUS
 62
     2
 10
269.87153021018997
 20
156.38863947149
 30
0.0
 40
4.0
  1
\U+220529.8
 50
90.0
  7
GMM001
  0
ENDBLK
  5
6D5
  8
0
  0
BLOCK
  8
0
  2
*U46
 70
     1
 10
0.0
 20
0.0
 30
0.0
  3
*U46
  1

  0
TEXT
  5
6D7
  8
0
  6
CONTINUOUS
 62
     2
 10
315.77915612835329
 20
196.20292518577
 30
0.0
 40
4.0
  1
17
  7
GMM001
  0
ENDBLK
  5
6D9
  8
0
  0
BLOCK
  8
0
  2
*U47
 70
     1
 10
0.0
 20
0.0
 30
0.0
  3
*U47
  1

  0
TEXT
  5
6DB
  8
0
  6
CONTINUOUS
 62
     2
 10
303.25516532101
 20
156.38863947149
 30
0.0
 40
4.0
  1
\U+220529.8
 50
90.0
  7
GMM001
  0
ENDBLK
  5
6DD
  8
0
  0
BLOCK
  8
0
  2
*U48
 70
     1
 10
0.0
 20
0.0
 30
0.0
  3
*U48
  1

  0
TEXT
  5
6DF
  8
0
  6
CONTINUOUS
 62
     2
 10
41.370752615190661
 20
230.05943230002009
 30
0.0
 40
4.0
  1
28
  7
GMM001
  0
ENDBLK
  5
6E1
  8
0
  0
BLOCK
  8
0
  2
*U49
 70
     1
 10
0.0
 20
0.0
 30
0.0
  3
*U49
  1

  0
TEXT
  5
6E3
  8
0
  6
CONTINUOUS
 62
     2
 10
26.620752615190671
 20
160.98800929676
 30
0.0
 40
4.0
  1
1.5
  7
GMM001
  0
ENDBLK
  5
6E5
  8
0
  0
BLOCK
  8
0
  2
*U50
 70
     1
 10
0.0
 20
0.0
 30
0.0
  3
*U50
  1

  0
TEXT
  5
6E7
  8
0
  6
CONTINUOUS
 62
     2
 10
45.370752615190661
 20
160.98800929676
 30
0.0
 40
4.0
  1
36
  7
GMM001
  0
ENDBLK
  5
6E9
  8
0
  0
BLOCK
  8
0
  2
*U51
 70
     1
 10
0.0
 20
0.0
 30
0.0
  3
*U51
  1

  0
TEXT
  5
6EB
  8
0
  6
CONTINUOUS
 62
     2
 10
64.120752615190668
 20
160.98800929676
 30
0.0
 40
4.0
  1
1.5
  7
GMM001
  0
ENDBLK
  5
6ED
  8
0
  0
BLOCK
  8
0
  2
*U52
 70
     1
 10
0.0
 20
0.0
 30
0.0
  3
*U52
  1

  0
TEXT
  5
6EF
  8
0
  6
CONTINUOUS
 62
     7
 10
117.66974330347
 20
136.82706585455659
 30
0.0
 40
4.0
  1
\U+220530
  7
GMM001
  0
TEXT
  5
6F0
  8
0
  6
CONTINUOUS
 62
     7
 10
129.00307663680331
 20
139.24373252122331
 30
0.0
 40
2.5
  1
 +0.5
  7
GMM001
  0
TEXT
  5
6F1
  8
0
  6
CONTINUOUS
 62
     7
 10
129.00307663680331
 20
135.91039918788999
 30
0.0
 40
2.5
  1
-0
  7
GMM001
  0
ENDBLK
  5
6F3
  8
0
  0
BLOCK
  8
0
  2
*U53
 70
     1
 10
0.0
 20
0.0
 30
0.0
  3
*U53
  1

  0
INSERT
  5
79E
  8
0
  6
CONTINUOUS
 62
     7
  2
_OPEN30
 10
187.34970916405999
 20
159.75756104243999
 30
0.0
 41
3.0
 42
3.0
 43
3.0
 50
73.718832360131842
  0
POLYLINE
  5
79F
  8
0
  6
CONTINUOUS
 62
     7
 66
     1
 10
0.0
 20
0.0
 30
0.0
  0
VERTEX
  5
7A0
  8
0
  6
CONTINUOUS
 62
     7
 10
186.5086555084373
 20
156.8778685678233
 30
0.0
  0
VERTEX
  5
7A1
  8
0
  6
CONTINUOUS
 62
     7
 10
179.47977065149001
 20
132.81159563483999
 30
0.0
  0
VERTEX
  5
7A2
  8
0
  6
CONTINUOUS
 62
     7
 10
139.14643731815659
 20
132.81159563483999
 30
0.0
  0
SEQEND
  5
7A3
  8
0
  6
CONTINUOUS
 62
     7
  0
ENDBLK
  5
7A5
  8
0
  0
BLOCK
  8
0
  2
*U54
 70
     1
 10
0.0
 20
0.0
 30
0.0
  3
*U54
  1

  0
TEXT
  5
7A7
  8
0
  6
CONTINUOUS
 62
     7
 10
144.47977065149001
 20
141.19254801579331
 30
0.0
 40
4.0
  1
表面はＲ状レンズ
  7
GMM001
  0
TEXT
  5
7A8
  8
0
  6
CONTINUOUS
 62
     7
 10
143.9464373181566
 20
134.52588134912671
 30
0.0
 40
4.0
  1
シボあり
  7
GMM001
  0
ENDBLK
  5
7AA
  8
0
  0
BLOCK
  8
0
  2
*U55
 70
     1
 10
0.0
 20
0.0
 30
0.0
  3
*U55
  1

  0
INSERT
  5
7AC
  8
0
  6
CONTINUOUS
 62
     7
  2
_OPEN30
 10
370.06249373642999
 20
159.75756104243999
 30
0.0
 41
3.0
 42
3.0
 43
3.0
 50
77.645651182032921
  0
POLYLINE
  5
7AD
  8
0
  6
CONTINUOUS
 62
     7
 66
     1
 10
0.0
 20
0.0
 30
0.0
  0
VERTEX
  5
7AE
  8
0
  6
CONTINUOUS
 62
     7
 10
369.4206224894379
 20
156.82703185775591
 30
0.0
  0
VERTEX
  5
7AF
  8
0
  6
CONTINUOUS
 62
     7
 10
363.45360164242999
 20
129.58398456482999
 30
0.0
  0
VERTEX
  5
7B0
  8
0
  6
CONTINUOUS
 62
     7
 10
323.12026830909667
 20
129.58398456482999
 30
0.0
  0
SEQEND
  5
7B1
  8
0
  6
CONTINUOUS
 62
     7
  0
ENDBLK
  5
7B3
  8
0
  0
BLOCK
  8
0
  2
*U56
 70
     1
 10
0.0
 20
0.0
 30
0.0
  3
*U56
  1

  0
TEXT
  5
7B5
  8
0
  6
CONTINUOUS
 62
     7
 10
328.45360164242999
 20
137.96493694578331
 30
0.0
 40
4.0
  1
表面はＲ状レンズ
  7
GMM001
  0
TEXT
  5
7B6
  8
0
  6
CONTINUOUS
 62
     7
 10
327.92026830909663
 20
131.29827027911671
 30
0.0
 40
4.0
  1
シボあり
  7
GMM001
  0
ENDBLK
  5
7B8
  8
0
  0
ENDSEC
  0
SECTION
  2
ENTITIES
  0
CIRCLE
  5
2C1
  8
0
  6
CONTINUOUS
 62
     7
 10
371.94582279501998
 20
164.38863947149
 30
0.0
 40
19.0
  0
CIRCLE
  5
2C2
  8
0
  6
CONTINUOUS
 62
     2
 10
371.94582279501998
 20
164.38863947149
 30
0.0
 40
18.100000000000001
  0
CIRCLE
  5
2C3
  8
0
  6
CONTINUOUS
 62
     7
 10
371.94582279501998
 20
164.38863947149
 30
0.0
 40
13.300000000000001
  0
LINE
  5
2C4
  8
LAY-1
  6
DASHDOT
 62
     2
 10
371.94582279501998
 20
142.29766561247001
 30
0.0
 11
371.94582279501998
 21
185.79766561247001
 31
0.0
  0
LINE
  5
2C5
  8
LAY-1
  6
DASHDOT
 62
     2
 10
393.94582279501998
 20
164.38863947149
 30
0.0
 11
349.34582279502001
 21
164.38863947149
 31
0.0
  0
CIRCLE
  5
2C6
  8
0
  6
CONTINUOUS
 62
     7
 10
371.94582279501998
 20
164.38863947149
 30
0.0
 40
13.4
  0
DIMENSION
  5
2C7
  8
0
  6
CONTINUOUS
 62
     2
  2
*D1
 10
390.94582279501998
 20
194.58863947149001
 30
0.0
 11
371.94582279501998
 21
194.58863947149001
 31
0.0
 13
352.94582279501998
 23
164.48863947148999
 33
0.0
 14
390.94582279501998
 24
164.48863947148999
 34
0.0
  0
CIRCLE
  5
2C8
  8
0
  6
CONTINUOUS
 62
     7
 10
190.53442821716001
 20
164.38863947149
 30
0.0
 40
19.0
  0
CIRCLE
  5
2C9
  8
0
  6
CONTINUOUS
 62
     7
 10
190.53442821716001
 20
164.38863947149
 30
0.0
 40
13.300000000000001
  0
LINE
  5
2CA
  8
LAY-1
  6
DASHDOT
 62
     2
 10
190.53442821716001
 20
142.29766561247001
 30
0.0
 11
190.53442821716001
 21
185.79766561247001
 31
0.0
  0
LINE
  5
2CB
  8
LAY-1
  6
DASHDOT
 62
     2
 10
212.53442821716001
 20
164.38863947149
 30
0.0
 11
167.93442821715999
 21
164.38863947149
 31
0.0
  0
CIRCLE
  5
2CC
  8
0
  6
CONTINUOUS
 62
     7
 10
190.53442821716001
 20
164.38863947149
 30
0.0
 40
13.4
  0
DIMENSION
  5
2CD
  8
0
  6
CONTINUOUS
 62
     2
  2
*D2
 10
209.53442821716001
 20
194.48863947148999
 30
0.0
 11
190.53442821716001
 21
194.48863947148999
 31
0.0
 13
171.53442821716001
 23
164.38863947149
 33
0.0
 14
209.53442821716001
 24
164.38863947149
 34
0.0
  0
CIRCLE
  5
2CE
  8
0
  6
CONTINUOUS
 62
     2
 10
190.53442821716001
 20
164.38863947149
 30
0.0
 40
18.199999999999999
  0
LINE
  5
2CF
  8
0
  6
CONTINUOUS
 62
     3
 10
236.23442821716
 20
145.38863947149
 30
0.0
 11
236.23442821716
 21
164.38863947149
 31
0.0
  0
LINE
  5
2D0
  8
0
  6
CONTINUOUS
 62
     7
 10
236.93442821715999
 20
145.38863947149
 30
0.0
 11
236.93442821715999
 21
164.38863947149
 31
0.0
  0
POLYLINE
  5
2D1
  8
0
  6
CONTINUOUS
 62
     7
 66
     1
 10
0.0
 20
0.0
 30
0.0
  0
VERTEX
  5
6F5
  8
0
  6
CONTINUOUS
 62
     7
 10
235.43442821715999
 20
164.38863947149
 30
0.0
  0
VERTEX
  5
6F6
  8
0
  6
CONTINUOUS
 62
     7
 10
235.43442821715999
 20
146.18863947149001
 30
0.0
  0
VERTEX
  5
6F7
  8
0
  6
CONTINUOUS
 62
     7
 10
236.23442821716
 20
145.38863947149
 30
0.0
  0
VERTEX
  5
6F8
  8
0
  6
CONTINUOUS
 62
     7
 10
236.93442821715999
 20
145.38863947149
 30
0.0
  0
SEQEND
  5
6F9
  8
0
  6
CONTINUOUS
 62
     7
  0
ARC
  5
2D2
  8
0
  6
CONTINUOUS
 62
     7
 10
248.43442821715999
 20
149.98863947148999
 30
0.0
 40
0.5
 50
270.00000000006997
 51
0.0
  0
LINE
  5
2D3
  8
0
  6
CONTINUOUS
 62
     7
 10
240.93442821715999
 20
160.53223569945001
 30
0.0
 11
242.93442821715999
 21
160.53223569945001
 31
0.0
  0
LINE
  5
2D4
  8
0
  6
CONTINUOUS
 62
     7
 10
240.93442821715999
 20
158.90941963166
 30
0.0
 11
242.93442821715999
 21
160.53223569945001
 31
0.0
  0
LINE
  5
2D5
  8
0
  6
CONTINUOUS
 62
     7
 10
245.93442821715999
 20
160.53223569945001
 30
0.0
 11
247.93442821715999
 21
160.53223569945001
 31
0.0
  0
LINE
  5
2D6
  8
0
  6
CONTINUOUS
 62
     7
 10
245.93442821715999
 20
158.90941963166
 30
0.0
 11
247.93442821715999
 21
160.53223569945001
 31
0.0
  0
LINE
  5
2D7
  8
0
  6
CONTINUOUS
 62
     7
 10
247.93442821715999
 20
149.99634465976999
 30
0.0
 11
247.93442821715999
 21
160.53223569943
 31
0.0
  0
LINE
  5
2D8
  8
0
  6
CONTINUOUS
 62
     7
 10
245.93442821715999
 20
160.53223569943
 30
0.0
 11
245.93442821715999
 21
149.99634465976999
 31
0.0
  0
LINE
  5
2D9
  8
0
  6
CONTINUOUS
 62
     7
 10
242.93442821715999
 20
149.99634465976999
 30
0.0
 11
242.93442821715999
 21
160.53223569943
 31
0.0
  0
LINE
  5
2DA
  8
0
  6
CONTINUOUS
 62
     7
 10
240.93442821715999
 20
160.53223569943
 30
0.0
 11
240.93442821715999
 21
149.99634465976999
 31
0.0
  0
LINE
  5
2DB
  8
0
  6
CONTINUOUS
 62
     7
 10
247.93442821715999
 20
149.99634465976999
 30
0.0
 11
245.93442821715999
 21
149.99634465976999
 31
0.0
  0
LINE
  5
2DC
  8
0
  6
CONTINUOUS
 62
     7
 10
242.93442821715999
 20
149.99634465976999
 30
0.0
 11
240.93442821715999
 21
149.99634465976999
 31
0.0
  0
LINE
  5
2DD
  8
0
  6
CONTINUOUS
 62
     7
 10
248.43442821715999
 20
149.48863947148999
 30
0.0
 11
236.93442821715999
 21
149.48863947148999
 31
0.0
  0
POLYLINE
  5
2DE
  8
0
  6
DOT
 62
     2
 66
     1
 10
0.0
 20
0.0
 30
0.0
  0
VERTEX
  5
6FA
  8
0
  6
DOT
 62
     2
 10
245.93442821715999
 20
149.48863947148999
 30
0.0
  0
VERTEX
  5
6FB
  8
0
  6
DOT
 62
     2
 10
245.93442821715999
 20
148.98863947148999
 30
0.0
  0
VERTEX
  5
6FC
  8
0
  6
DOT
 62
     2
 10
247.93442821715999
 20
149.48863947148999
 30
0.0
  0
SEQEND
  5
6FD
  8
0
  6
DOT
 62
     2
  0
POLYLINE
  5
2DF
  8
0
  6
DOT
 62
     2
 66
     1
 10
0.0
 20
0.0
 30
0.0
  0
VERTEX
  5
6FE
  8
0
  6
DOT
 62
     2
 10
240.93442821715999
 20
149.48863947148999
 30
0.0
  0
VERTEX
  5
6FF
  8
0
  6
DOT
 62
     2
 10
240.93442821715999
 20
148.98863947148999
 30
0.0
  0
VERTEX
  5
700
  8
0
  6
DOT
 62
     2
 10
242.93442821715999
 20
149.48863947148999
 30
0.0
  0
SEQEND
  5
701
  8
0
  6
DOT
 62
     2
  0
LINE
  5
2E0
  8
0
  6
CONTINUOUS
 62
     7
 10
248.93442821715999
 20
164.38863947149
 30
0.0
 11
248.93442821715999
 21
149.98863947148999
 31
0.0
  0
LINE
  5
2E1
  8
0
  6
DASHDOT
 62
     2
 10
265.8734418373399
 20
164.38863947149
 30
0.0
 11
222.23416459892991
 21
164.38863947149
 31
0.0
  0
LINE
  5
2E2
  8
0
  6
CONTINUOUS
 62
     7
 10
260.70942821716
 20
153.58863947149001
 30
0.0
 11
261.45942821716
 21
153.58863947149001
 31
0.0
  0
ARC
  5
2E3
  8
0
  6
CONTINUOUS
 62
     7
 10
260.70942821716
 20
154.56363947149001
 30
0.0
 40
0.975
 50
180.0
 51
270.00000000023999
  0
ARC
  5
2E4
  8
0
  6
CONTINUOUS
 62
     7
 10
261.45942821716
 20
154.56363947148
 30
0.0
 40
0.975
 50
270.0
 51
0.0000000001553285
  0
POLYLINE
  5
2E5
  8
0
  6
DOT
 62
     2
 66
     1
 10
0.0
 20
0.0
 30
0.0
  0
VERTEX
  5
702
  8
0
  6
DOT
 62
     2
 10
245.93442821715999
 20
149.48863947148999
 30
0.0
  0
VERTEX
  5
703
  8
0
  6
DOT
 62
     2
 10
245.93442821715999
 20
148.98863947148999
 30
0.0
  0
VERTEX
  5
704
  8
0
  6
DOT
 62
     2
 10
247.93442821715999
 20
149.48863947148999
 30
0.0
  0
SEQEND
  5
705
  8
0
  6
DOT
 62
     2
  0
POLYLINE
  5
2E6
  8
0
  6
DOT
 62
     2
 66
     1
 10
0.0
 20
0.0
 30
0.0
  0
VERTEX
  5
706
  8
0
  6
DOT
 62
     2
 10
240.93442821715999
 20
149.48863947148999
 30
0.0
  0
VERTEX
  5
707
  8
0
  6
DOT
 62
     2
 10
240.93442821715999
 20
148.98863947148999
 30
0.0
  0
VERTEX
  5
708
  8
0
  6
DOT
 62
     2
 10
242.93442821715999
 20
149.48863947148999
 30
0.0
  0
SEQEND
  5
709
  8
0
  6
DOT
 62
     2
  0
LINE
  5
2E7
  8
0
  6
CONTINUOUS
 62
     3
 10
326.14582279502002
 20
145.38863947149
 30
0.0
 11
326.14582279502002
 21
164.38863947149
 31
0.0
  0
LINE
  5
2E8
  8
0
  6
CONTINUOUS
 62
     7
 10
325.44582279502009
 20
145.38863947149
 30
0.0
 11
325.44582279502009
 21
164.38863947149
 31
0.0
  0
POLYLINE
  5
2E9
  8
0
  6
CONTINUOUS
 62
     7
 66
     1
 10
0.0
 20
0.0
 30
0.0
  0
VERTEX
  5
70A
  8
0
  6
CONTINUOUS
 62
     7
 10
326.94582279501998
 20
164.38863947149
 30
0.0
  0
VERTEX
  5
70B
  8
0
  6
CONTINUOUS
 62
     7
 10
326.94582279501998
 20
146.18863947149001
 30
0.0
  0
VERTEX
  5
70C
  8
0
  6
CONTINUOUS
 62
     7
 10
326.14582279502002
 20
145.38863947149
 30
0.0
  0
VERTEX
  5
70D
  8
0
  6
CONTINUOUS
 62
     7
 10
325.44582279502009
 20
145.38863947149
 30
0.0
  0
SEQEND
  5
70E
  8
0
  6
CONTINUOUS
 62
     7
  0
LINE
  5
2EA
  8
0
  6
CONTINUOUS
 62
     7
 10
319.44582279501998
 20
149.99634465976999
 30
0.0
 11
319.44582279501998
 21
160.53223569943
 31
0.0
  0
LINE
  5
2EB
  8
0
  6
CONTINUOUS
 62
     7
 10
321.44582279501998
 20
160.53223569943
 30
0.0
 11
321.44582279501998
 21
149.99634465976999
 31
0.0
  0
LINE
  5
2EC
  8
0
  6
CONTINUOUS
 62
     7
 10
319.44582279501998
 20
149.99634465976999
 30
0.0
 11
321.44582279501998
 21
149.99634465976999
 31
0.0
  0
LINE
  5
2ED
  8
0
  6
CONTINUOUS
 62
     7
 10
314.44582279501998
 20
149.99634465976999
 30
0.0
 11
314.44582279501998
 21
160.53223569943
 31
0.0
  0
LINE
  5
2EE
  8
0
  6
CONTINUOUS
 62
     7
 10
314.44582279501998
 20
149.99634465976999
 30
0.0
 11
316.44582279501998
 21
149.99634465976999
 31
0.0
  0
LINE
  5
2EF
  8
0
  6
CONTINUOUS
 62
     7
 10
316.44582279501998
 20
158.90941963166
 30
0.0
 11
314.44582279501998
 21
160.53223569945001
 31
0.0
  0
LINE
  5
2F0
  8
0
  6
CONTINUOUS
 62
     7
 10
316.44582279501998
 20
160.53223569943
 30
0.0
 11
316.44582279501998
 21
149.99634465976999
 31
0.0
  0
LINE
  5
2F1
  8
0
  6
CONTINUOUS
 62
     7
 10
316.44582279501998
 20
160.53223569945001
 30
0.0
 11
314.44582279501998
 21
160.53223569945001
 31
0.0
  0
LINE
  5
2F2
  8
0
  6
CONTINUOUS
 62
     7
 10
321.44582279501998
 20
160.53223569945001
 30
0.0
 11
319.44582279501998
 21
160.53223569945001
 31
0.0
  0
LINE
  5
2F3
  8
0
  6
CONTINUOUS
 62
     7
 10
321.44582279501998
 20
158.90941963166
 30
0.0
 11
319.44582279501998
 21
160.53223569945001
 31
0.0
  0
POLYLINE
  5
2F4
  8
0
  6
DOT
 62
     2
 66
     1
 10
0.0
 20
0.0
 30
0.0
  0
VERTEX
  5
70F
  8
0
  6
DOT
 62
     2
 10
316.44582279501998
 20
149.48863947148999
 30
0.0
  0
VERTEX
  5
710
  8
0
  6
DOT
 62
     2
 10
316.44582279501998
 20
148.98863947148999
 30
0.0
  0
VERTEX
  5
711
  8
0
  6
DOT
 62
     2
 10
314.44582279501998
 20
149.48863947148999
 30
0.0
  0
SEQEND
  5
712
  8
0
  6
DOT
 62
     2
  0
POLYLINE
  5
2F5
  8
0
  6
DOT
 62
     2
 66
     1
 10
0.0
 20
0.0
 30
0.0
  0
VERTEX
  5
713
  8
0
  6
DOT
 62
     2
 10
321.44582279501998
 20
149.48863947148999
 30
0.0
  0
VERTEX
  5
714
  8
0
  6
DOT
 62
     2
 10
321.44582279501998
 20
148.98863947148999
 30
0.0
  0
VERTEX
  5
715
  8
0
  6
DOT
 62
     2
 10
319.44582279501998
 20
149.48863947148999
 30
0.0
  0
SEQEND
  5
716
  8
0
  6
DOT
 62
     2
  0
POLYLINE
  5
2F6
  8
0
  6
DOT
 62
     2
 66
     1
 10
0.0
 20
0.0
 30
0.0
  0
VERTEX
  5
717
  8
0
  6
DOT
 62
     2
 10
316.44582279501998
 20
149.48863947148999
 30
0.0
  0
VERTEX
  5
718
  8
0
  6
DOT
 62
     2
 10
316.44582279501998
 20
148.98863947148999
 30
0.0
  0
VERTEX
  5
719
  8
0
  6
DOT
 62
     2
 10
314.44582279501998
 20
149.48863947148999
 30
0.0
  0
SEQEND
  5
71A
  8
0
  6
DOT
 62
     2
  0
POLYLINE
  5
2F7
  8
0
  6
DOT
 62
     2
 66
     1
 10
0.0
 20
0.0
 30
0.0
  0
VERTEX
  5
71B
  8
0
  6
DOT
 62
     2
 10
321.44582279501998
 20
149.48863947148999
 30
0.0
  0
VERTEX
  5
71C
  8
0
  6
DOT
 62
     2
 10
321.44582279501998
 20
148.98863947148999
 30
0.0
  0
VERTEX
  5
71D
  8
0
  6
DOT
 62
     2
 10
319.44582279501998
 20
149.48863947148999
 30
0.0
  0
SEQEND
  5
71E
  8
0
  6
DOT
 62
     2
  0
TEXT
  5
2F8
  8
0
 62
     7
 10
278.64359649143989
 20
153.00241164358999
 30
0.0
 40
4.0
  1
入れ込む
  0
LINE
  5
2F9
  8
0
  6
CONTINUOUS
 62
     3
 10
171.53442821716001
 20
118.58863947149
 30
0.0
 11
190.53442821716001
 21
118.58863947149
 31
0.0
  0
LINE
  5
2FA
  8
0
  6
CONTINUOUS
 62
     7
 10
171.53442821716001
 20
117.8886394714899
 30
0.0
 11
190.53442821716001
 21
117.8886394714899
 31
0.0
  0
POLYLINE
  5
2FB
  8
0
  6
CONTINUOUS
 62
     7
 66
     1
 10
0.0
 20
0.0
 30
0.0
  0
VERTEX
  5
71F
  8
0
  6
CONTINUOUS
 62
     7
 10
190.53442821716001
 20
119.38863947149
 30
0.0
  0
VERTEX
  5
720
  8
0
  6
CONTINUOUS
 62
     7
 10
172.33442821716
 20
119.38863947149
 30
0.0
  0
VERTEX
  5
721
  8
0
  6
CONTINUOUS
 62
     7
 10
171.53442821716001
 20
118.58863947149
 30
0.0
  0
VERTEX
  5
722
  8
0
  6
CONTINUOUS
 62
     7
 10
171.53442821716001
 20
117.8886394714899
 30
0.0
  0
SEQEND
  5
723
  8
0
  6
CONTINUOUS
 62
     7
  0
ARC
  5
2FC
  8
0
  6
CONTINUOUS
 62
     7
 10
176.13442821716001
 20
106.38863947148
 30
0.0
 40
0.5
 50
179.99999999984999
 51
270.0
  0
LINE
  5
2FD
  8
0
  6
CONTINUOUS
 62
     7
 10
186.67802444512
 20
113.88863947149
 30
0.0
 11
186.67802444512
 21
111.88863947149
 31
0.0
  0
LINE
  5
2FE
  8
0
  6
CONTINUOUS
 62
     7
 10
185.05520837733999
 20
113.88863947149
 30
0.0
 11
186.67802444512
 21
111.88863947149
 31
0.0
  0
LINE
  5
2FF
  8
0
  6
CONTINUOUS
 62
     7
 10
186.67802444512
 20
108.88863947149
 30
0.0
 11
186.67802444512
 21
106.88863947149
 31
0.0
  0
LINE
  5
300
  8
0
  6
CONTINUOUS
 62
     7
 10
185.05520837733999
 20
108.88863947149
 30
0.0
 11
186.67802444512
 21
106.88863947149
 31
0.0
  0
LINE
  5
301
  8
0
  6
CONTINUOUS
 62
     7
 10
176.14213340545001
 20
106.88863947149
 30
0.0
 11
186.67802444509999
 21
106.88863947149
 31
0.0
  0
LINE
  5
302
  8
0
  6
CONTINUOUS
 62
     7
 10
186.67802444509999
 20
108.88863947149
 30
0.0
 11
176.14213340545001
 21
108.88863947149
 31
0.0
  0
LINE
  5
303
  8
0
  6
CONTINUOUS
 62
     7
 10
176.14213340545001
 20
111.88863947149
 30
0.0
 11
186.67802444509999
 21
111.88863947149
 31
0.0
  0
LINE
  5
304
  8
0
  6
CONTINUOUS
 62
     7
 10
186.67802444509999
 20
113.88863947149
 30
0.0
 11
176.14213340545001
 21
113.88863947149
 31
0.0
  0
LINE
  5
305
  8
0
  6
CONTINUOUS
 62
     7
 10
176.14213340545001
 20
106.88863947149
 30
0.0
 11
176.14213340545001
 21
108.88863947149
 31
0.0
  0
LINE
  5
306
  8
0
  6
CONTINUOUS
 62
     7
 10
176.14213340545001
 20
111.88863947149
 30
0.0
 11
176.14213340545001
 21
113.88863947149
 31
0.0
  0
LINE
  5
307
  8
0
  6
CONTINUOUS
 62
     7
 10
175.63442821716001
 20
106.38863947149
 30
0.0
 11
175.63442821716001
 21
117.8886394714899
 31
0.0
  0
POLYLINE
  5
308
  8
0
  6
DOT
 62
     2
 66
     1
 10
0.0
 20
0.0
 30
0.0
  0
VERTEX
  5
724
  8
0
  6
DOT
 62
     2
 10
175.63442821716001
 20
108.88863947149
 30
0.0
  0
VERTEX
  5
725
  8
0
  6
DOT
 62
     2
 10
175.13442821716001
 20
108.88863947149
 30
0.0
  0
VERTEX
  5
726
  8
0
  6
DOT
 62
     2
 10
175.63442821716001
 20
106.88863947149
 30
0.0
  0
SEQEND
  5
727
  8
0
  6
DOT
 62
     2
  0
POLYLINE
  5
309
  8
0
  6
DOT
 62
     2
 66
     1
 10
0.0
 20
0.0
 30
0.0
  0
VERTEX
  5
728
  8
0
  6
DOT
 62
     2
 10
175.63442821716001
 20
113.88863947149
 30
0.0
  0
VERTEX
  5
729
  8
0
  6
DOT
 62
     2
 10
175.13442821716001
 20
113.88863947149
 30
0.0
  0
VERTEX
  5
72A
  8
0
  6
DOT
 62
     2
 10
175.63442821716001
 20
111.88863947149
 30
0.0
  0
SEQEND
  5
72B
  8
0
  6
DOT
 62
     2
  0
LINE
  5
30A
  8
0
  6
CONTINUOUS
 62
     7
 10
190.53442821716001
 20
105.88863947149
 30
0.0
 11
176.13442821716001
 21
105.88863947149
 31
0.0
  0
LINE
  5
30B
  8
0
  6
CONTINUOUS
 62
     7
 10
179.73442821716
 20
94.113639471485996
 30
0.0
 11
179.73442821716
 21
93.363639471485996
 31
0.0
  0
ARC
  5
30C
  8
0
  6
CONTINUOUS
 62
     7
 10
180.70942821716
 20
94.113639471484987
 30
0.0
 40
0.975
 50
89.999999999997996
 51
179.99999999991999
  0
ARC
  5
30D
  8
0
  6
CONTINUOUS
 62
     7
 10
180.70942821716
 20
93.363639471485996
 30
0.0
 40
0.975
 50
180.0
 51
270.00000000005002
  0
POLYLINE
  5
30E
  8
0
  6
DOT
 62
     2
 66
     1
 10
0.0
 20
0.0
 30
0.0
  0
VERTEX
  5
72C
  8
0
  6
DOT
 62
     2
 10
175.63442821716001
 20
108.88863947149
 30
0.0
  0
VERTEX
  5
72D
  8
0
  6
DOT
 62
     2
 10
175.13442821716001
 20
108.88863947149
 30
0.0
  0
VERTEX
  5
72E
  8
0
  6
DOT
 62
     2
 10
175.63442821716001
 20
106.88863947149
 30
0.0
  0
SEQEND
  5
72F
  8
0
  6
DOT
 62
     2
  0
POLYLINE
  5
30F
  8
0
  6
DOT
 62
     2
 66
     1
 10
0.0
 20
0.0
 30
0.0
  0
VERTEX
  5
730
  8
0
  6
DOT
 62
     2
 10
175.63442821716001
 20
113.88863947149
 30
0.0
  0
VERTEX
  5
731
  8
0
  6
DOT
 62
     2
 10
175.13442821716001
 20
113.88863947149
 30
0.0
  0
VERTEX
  5
732
  8
0
  6
DOT
 62
     2
 10
175.63442821716001
 20
111.88863947149
 30
0.0
  0
SEQEND
  5
733
  8
0
  6
DOT
 62
     2
  0
LINE
  5
310
  8
0
  6
CONTINUOUS
 62
     3
 10
209.53442821716001
 20
118.58863947149
 30
0.0
 11
190.53442821716001
 21
118.58863947149
 31
0.0
  0
LINE
  5
311
  8
0
  6
CONTINUOUS
 62
     7
 10
209.53442821716001
 20
117.8886394714899
 30
0.0
 11
190.53442821716001
 21
117.8886394714899
 31
0.0
  0
POLYLINE
  5
312
  8
0
  6
CONTINUOUS
 62
     7
 66
     1
 10
0.0
 20
0.0
 30
0.0
  0
VERTEX
  5
734
  8
0
  6
CONTINUOUS
 62
     7
 10
190.53442821716001
 20
119.38863947149
 30
0.0
  0
VERTEX
  5
735
  8
0
  6
CONTINUOUS
 62
     7
 10
208.73442821716
 20
119.38863947149
 30
0.0
  0
VERTEX
  5
736
  8
0
  6
CONTINUOUS
 62
     7
 10
209.53442821716001
 20
118.58863947149
 30
0.0
  0
VERTEX
  5
737
  8
0
  6
CONTINUOUS
 62
     7
 10
209.53442821716001
 20
117.8886394714899
 30
0.0
  0
SEQEND
  5
738
  8
0
  6
CONTINUOUS
 62
     7
  0
ARC
  5
313
  8
0
  6
CONTINUOUS
 62
     7
 10
204.93442821715999
 20
106.38863947148
 30
0.0
 40
0.5
 50
270.0
 51
0.0000000003028906
  0
LINE
  5
314
  8
0
  6
CONTINUOUS
 62
     7
 10
196.01364805698989
 20
113.88863947149
 30
0.0
 11
194.3908319892
 21
111.88863947149
 31
0.0
  0
LINE
  5
315
  8
0
  6
CONTINUOUS
 62
     7
 10
196.01364805698989
 20
108.88863947149
 30
0.0
 11
194.3908319892
 21
106.88863947149
 31
0.0
  0
LINE
  5
316
  8
0
  6
CONTINUOUS
 62
     7
 10
204.92672302887999
 20
106.88863947149
 30
0.0
 11
194.39083198922
 21
106.88863947149
 31
0.0
  0
LINE
  5
317
  8
0
  6
CONTINUOUS
 62
     7
 10
194.39083198922
 20
108.88863947149
 30
0.0
 11
204.92672302887999
 21
108.88863947149
 31
0.0
  0
LINE
  5
318
  8
0
  6
CONTINUOUS
 62
     7
 10
204.92672302887999
 20
111.88863947149
 30
0.0
 11
194.39083198922
 21
111.88863947149
 31
0.0
  0
LINE
  5
319
  8
0
  6
CONTINUOUS
 62
     7
 10
194.39083198922
 20
113.88863947149
 30
0.0
 11
204.92672302887999
 21
113.88863947149
 31
0.0
  0
LINE
  5
31A
  8
0
  6
CONTINUOUS
 62
     7
 10
204.92672302887999
 20
106.88863947149
 30
0.0
 11
204.92672302887999
 21
108.88863947149
 31
0.0
  0
LINE
  5
31B
  8
0
  6
CONTINUOUS
 62
     7
 10
204.92672302887999
 20
111.88863947149
 30
0.0
 11
204.92672302887999
 21
113.88863947149
 31
0.0
  0
LINE
  5
31C
  8
0
  6
CONTINUOUS
 62
     7
 10
205.43442821715999
 20
106.38863947149
 30
0.0
 11
205.43442821715999
 21
117.8886394714899
 31
0.0
  0
POLYLINE
  5
31D
  8
0
  6
DOT
 62
     2
 66
     1
 10
0.0
 20
0.0
 30
0.0
  0
VERTEX
  5
739
  8
0
  6
DOT
 62
     2
 10
205.43442821715999
 20
108.88863947149
 30
0.0
  0
VERTEX
  5
73A
  8
0
  6
DOT
 62
     2
 10
205.93442821715999
 20
108.88863947149
 30
0.0
  0
VERTEX
  5
73B
  8
0
  6
DOT
 62
     2
 10
205.43442821715999
 20
106.88863947149
 30
0.0
  0
SEQEND
  5
73C
  8
0
  6
DOT
 62
     2
  0
POLYLINE
  5
31E
  8
0
  6
DOT
 62
     2
 66
     1
 10
0.0
 20
0.0
 30
0.0
  0
VERTEX
  5
73D
  8
0
  6
DOT
 62
     2
 10
205.43442821715999
 20
113.88863947149
 30
0.0
  0
VERTEX
  5
73E
  8
0
  6
DOT
 62
     2
 10
205.93442821715999
 20
113.88863947149
 30
0.0
  0
VERTEX
  5
73F
  8
0
  6
DOT
 62
     2
 10
205.43442821715999
 20
111.88863947149
 30
0.0
  0
SEQEND
  5
740
  8
0
  6
DOT
 62
     2
  0
LINE
  5
31F
  8
0
  6
CONTINUOUS
 62
     7
 10
190.53442821716001
 20
105.88863947149
 30
0.0
 11
204.93442821715999
 21
105.88863947149
 31
0.0
  0
LINE
  5
320
  8
0
  6
CONTINUOUS
 62
     7
 10
201.33442821716
 20
94.113639471485996
 30
0.0
 11
201.33442821716
 21
93.363639471485996
 31
0.0
  0
ARC
  5
321
  8
0
  6
CONTINUOUS
 62
     7
 10
200.35942821716
 20
94.113639471484987
 30
0.0
 40
0.975
 50
0.0000000000784994
 51
90.000000000002004
  0
ARC
  5
322
  8
0
  6
CONTINUOUS
 62
     7
 10
200.35942821716
 20
93.363639471485996
 30
0.0
 40
0.975
 50
269.99999999993997
 51
0.0000000000016702
  0
POLYLINE
  5
323
  8
0
  6
DOT
 62
     2
 66
     1
 10
0.0
 20
0.0
 30
0.0
  0
VERTEX
  5
741
  8
0
  6
DOT
 62
     2
 10
205.43442821715999
 20
108.88863947149
 30
0.0
  0
VERTEX
  5
742
  8
0
  6
DOT
 62
     2
 10
205.93442821715999
 20
108.88863947149
 30
0.0
  0
VERTEX
  5
743
  8
0
  6
DOT
 62
     2
 10
205.43442821715999
 20
106.88863947149
 30
0.0
  0
SEQEND
  5
744
  8
0
  6
DOT
 62
     2
  0
POLYLINE
  5
324
  8
0
  6
DOT
 62
     2
 66
     1
 10
0.0
 20
0.0
 30
0.0
  0
VERTEX
  5
745
  8
0
  6
DOT
 62
     2
 10
205.43442821715999
 20
113.88863947149
 30
0.0
  0
VERTEX
  5
746
  8
0
  6
DOT
 62
     2
 10
205.93442821715999
 20
113.88863947149
 30
0.0
  0
VERTEX
  5
747
  8
0
  6
DOT
 62
     2
 10
205.43442821715999
 20
111.88863947149
 30
0.0
  0
SEQEND
  5
748
  8
0
  6
DOT
 62
     2
  0
LINE
  5
325
  8
0
  6
CONTINUOUS
 62
     7
 10
194.3908319892
 20
113.88863947149
 30
0.0
 11
194.3908319892
 21
111.88863947149
 31
0.0
  0
LINE
  5
326
  8
0
  6
CONTINUOUS
 62
     7
 10
194.3908319892
 20
108.88863947149
 30
0.0
 11
194.3908319892
 21
106.88863947149
 31
0.0
  0
CIRCLE
  5
327
  8
0
  6
CONTINUOUS
 62
     2
 10
190.53442821716001
 20
164.38863947149
 30
0.0
 40
13.9
  0
POINT
  5
328
  8
0
 62
     7
 10
179.93442821715999
 20
95.08863947148599
 30
0.0
  0
POINT
  5
329
  8
0
 62
     7
 10
201.13442821716001
 20
95.08863947148599
 30
0.0
  0
ARC
  5
32A
  8
0
  6
CONTINUOUS
 62
     7
 10
200.63442821716001
 20
91.888639471480985
 30
0.0
 40
0.5
 50
270.0
 51
0.0000000006318363
  0
POINT
  5
32B
  8
0
 62
     7
 10
201.13442821716001
 20
91.388639471486002
 30
0.0
  0
POINT
  5
32C
  8
0
 62
     7
 10
201.13442821716001
 20
92.388639471485988
 30
0.0
  0
ARC
  5
32D
  8
0
  6
CONTINUOUS
 62
     7
 10
262.93442821716002
 20
154.28863947149
 30
0.0
 40
0.5
 50
270.0
 51
0.0
  0
POINT
  5
32E
  8
0
 62
     7
 10
263.43442821716002
 20
153.78863947149
 30
0.0
  0
POINT
  5
32F
  8
0
 62
     7
 10
259.73442821715997
 20
153.78863947149
 30
0.0
  0
LINE
  5
330
  8
0
  6
DASHDOT
 62
     2
 10
329.41513708562002
 20
164.38863947149
 30
0.0
 11
308.10568990288999
 21
164.38863947149
 31
0.0
  0
LINE
  5
331
  8
0
  6
CONTINUOUS
 62
     7
 10
263.43442821716002
 20
154.28863947149
 30
0.0
 11
263.43442821716002
 21
164.38863947149
 31
0.0
  0
LINE
  5
332
  8
0
  6
CONTINUOUS
 62
     7
 10
180.43442821715999
 20
91.388639471486002
 30
0.0
 11
190.53442821716001
 21
91.388639471486002
 31
0.0
  0
LINE
  5
333
  8
0
  6
CONTINUOUS
 62
     7
 10
200.63442821716001
 20
91.388639471486002
 30
0.0
 11
190.53442821716001
 21
91.388639471486002
 31
0.0
  0
ARC
  5
334
  8
0
  6
CONTINUOUS
 62
     7
 10
313.94582279501998
 20
149.98863947149999
 30
0.0
 40
0.5
 50
180.00000000105001
 51
270.0
  0
LINE
  5
335
  8
0
  6
CONTINUOUS
 62
     7
 10
313.94582279501998
 20
149.48863947148999
 30
0.0
 11
325.44582279502009
 21
149.48863947148999
 31
0.0
  0
LINE
  5
336
  8
0
  6
CONTINUOUS
 62
     7
 10
313.44582279501998
 20
149.98863947148999
 30
0.0
 11
313.44582279501998
 21
162.95668106906001
 31
0.0
  0
LINE
  5
337
  8
0
  6
CONTINUOUS
 62
     3
 10
390.94582279501998
 20
118.58863947149
 30
0.0
 11
371.94582279501998
 21
118.58863947149
 31
0.0
  0
LINE
  5
338
  8
0
  6
CONTINUOUS
 62
     7
 10
390.94582279501998
 20
117.8886394714899
 30
0.0
 11
371.94582279501998
 21
117.8886394714899
 31
0.0
  0
POLYLINE
  5
339
  8
0
  6
CONTINUOUS
 62
     7
 66
     1
 10
0.0
 20
0.0
 30
0.0
  0
VERTEX
  5
749
  8
0
  6
CONTINUOUS
 62
     7
 10
371.94582279501998
 20
119.38863947149
 30
0.0
  0
VERTEX
  5
74A
  8
0
  6
CONTINUOUS
 62
     7
 10
390.14582279502002
 20
119.38863947149
 30
0.0
  0
VERTEX
  5
74B
  8
0
  6
CONTINUOUS
 62
     7
 10
390.94582279501998
 20
118.58863947149
 30
0.0
  0
VERTEX
  5
74C
  8
0
  6
CONTINUOUS
 62
     7
 10
390.94582279501998
 20
117.8886394714899
 30
0.0
  0
SEQEND
  5
74D
  8
0
  6
CONTINUOUS
 62
     7
  0
LINE
  5
33A
  8
0
  6
CONTINUOUS
 62
     7
 10
386.33811760673001
 20
111.88863947149
 30
0.0
 11
375.80222656707002
 21
111.88863947149
 31
0.0
  0
LINE
  5
33B
  8
0
  6
CONTINUOUS
 62
     7
 10
375.80222656707002
 20
113.88863947149
 30
0.0
 11
386.33811760673001
 21
113.88863947149
 31
0.0
  0
LINE
  5
33C
  8
0
  6
CONTINUOUS
 62
     7
 10
386.33811760673001
 20
111.88863947149
 30
0.0
 11
386.33811760673001
 21
113.88863947149
 31
0.0
  0
LINE
  5
33D
  8
0
  6
CONTINUOUS
 62
     7
 10
386.33811760673001
 20
106.88863947149
 30
0.0
 11
375.80222656707002
 21
106.88863947149
 31
0.0
  0
LINE
  5
33E
  8
0
  6
CONTINUOUS
 62
     7
 10
386.33811760673001
 20
106.88863947149
 30
0.0
 11
386.33811760673001
 21
108.88863947149
 31
0.0
  0
LINE
  5
33F
  8
0
  6
CONTINUOUS
 62
     7
 10
377.42504263484
 20
108.88863947149
 30
0.0
 11
375.80222656705001
 21
106.88863947149
 31
0.0
  0
LINE
  5
340
  8
0
  6
CONTINUOUS
 62
     7
 10
375.80222656707002
 20
108.88863947149
 30
0.0
 11
386.33811760673001
 21
108.88863947149
 31
0.0
  0
LINE
  5
341
  8
0
  6
CONTINUOUS
 62
     7
 10
375.80222656705001
 20
108.88863947149
 30
0.0
 11
375.80222656705001
 21
106.88863947149
 31
0.0
  0
LINE
  5
342
  8
0
  6
CONTINUOUS
 62
     7
 10
375.80222656705001
 20
113.88863947149
 30
0.0
 11
375.80222656705001
 21
111.88863947149
 31
0.0
  0
LINE
  5
343
  8
0
  6
CONTINUOUS
 62
     7
 10
377.42504263484
 20
113.88863947149
 30
0.0
 11
375.80222656705001
 21
111.88863947149
 31
0.0
  0
POLYLINE
  5
344
  8
0
  6
DOT
 62
     2
 66
     1
 10
0.0
 20
0.0
 30
0.0
  0
VERTEX
  5
74E
  8
0
  6
DOT
 62
     2
 10
386.84582279502001
 20
108.88863947149
 30
0.0
  0
VERTEX
  5
74F
  8
0
  6
DOT
 62
     2
 10
387.34582279502001
 20
108.88863947149
 30
0.0
  0
VERTEX
  5
750
  8
0
  6
DOT
 62
     2
 10
386.84582279502001
 20
106.88863947149
 30
0.0
  0
SEQEND
  5
751
  8
0
  6
DOT
 62
     2
  0
POLYLINE
  5
345
  8
0
  6
DOT
 62
     2
 66
     1
 10
0.0
 20
0.0
 30
0.0
  0
VERTEX
  5
752
  8
0
  6
DOT
 62
     2
 10
386.84582279502001
 20
113.88863947149
 30
0.0
  0
VERTEX
  5
753
  8
0
  6
DOT
 62
     2
 10
387.34582279502001
 20
113.88863947149
 30
0.0
  0
VERTEX
  5
754
  8
0
  6
DOT
 62
     2
 10
386.84582279502001
 20
111.88863947149
 30
0.0
  0
SEQEND
  5
755
  8
0
  6
DOT
 62
     2
  0
POLYLINE
  5
346
  8
0
  6
DOT
 62
     2
 66
     1
 10
0.0
 20
0.0
 30
0.0
  0
VERTEX
  5
756
  8
0
  6
DOT
 62
     2
 10
386.84582279502001
 20
108.88863947149
 30
0.0
  0
VERTEX
  5
757
  8
0
  6
DOT
 62
     2
 10
387.34582279502001
 20
108.88863947149
 30
0.0
  0
VERTEX
  5
758
  8
0
  6
DOT
 62
     2
 10
386.84582279502001
 20
106.88863947149
 30
0.0
  0
SEQEND
  5
759
  8
0
  6
DOT
 62
     2
  0
POLYLINE
  5
347
  8
0
  6
DOT
 62
     2
 66
     1
 10
0.0
 20
0.0
 30
0.0
  0
VERTEX
  5
75A
  8
0
  6
DOT
 62
     2
 10
386.84582279502001
 20
113.88863947149
 30
0.0
  0
VERTEX
  5
75B
  8
0
  6
DOT
 62
     2
 10
387.34582279502001
 20
113.88863947149
 30
0.0
  0
VERTEX
  5
75C
  8
0
  6
DOT
 62
     2
 10
386.84582279502001
 20
111.88863947149
 30
0.0
  0
SEQEND
  5
75D
  8
0
  6
DOT
 62
     2
  0
LINE
  5
348
  8
0
  6
DASHDOT
 62
     2
 10
371.94582279501998
 20
121.8579537621
 30
0.0
 11
371.94582279501998
 21
100.54850657935999
 31
0.0
  0
POINT
  5
349
  8
0
 62
     2
 10
382.74582279501999
 20
102.38863947149
 30
0.0
  0
ARC
  5
34A
  8
0
  6
DOT
 62
     2
 10
383.24582279502999
 20
102.88863947149
 30
0.0
 40
0.5
 50
180.0
 51
269.99999999879998
  0
LINE
  5
34B
  8
0
  6
DOT
 62
     2
 10
382.74582279501999
 20
102.88863947149
 30
0.0
 11
382.74582279501999
 21
116.38863947149
 31
0.0
  0
ARC
  5
34C
  8
0
  6
DOT
 62
     2
 10
383.24582279502999
 20
102.88863947149
 30
0.0
 40
0.5
 50
180.0
 51
269.99999999879998
  0
ARC
  5
34D
  8
0
  6
CONTINUOUS
 62
     7
 10
386.345822795
 20
106.38863947149
 30
0.0
 40
0.5
 50
270.0000000014299
 51
0.0
  0
LINE
  5
34E
  8
0
  6
CONTINUOUS
 62
     7
 10
386.84582279502001
 20
106.38863947149
 30
0.0
 11
386.84582279502001
 21
117.8886394714899
 31
0.0
  0
LINE
  5
34F
  8
0
  6
CONTINUOUS
 62
     7
 10
386.34582279502001
 20
105.88863947149
 30
0.0
 11
373.37778119744002
 21
105.88863947149
 31
0.0
  0
LINE
  5
350
  8
0
  6
CONTINUOUS
 62
     3
 10
352.94582279501998
 20
118.58863947149
 30
0.0
 11
371.94582279501998
 21
118.58863947149
 31
0.0
  0
LINE
  5
351
  8
0
  6
CONTINUOUS
 62
     7
 10
352.94582279501998
 20
117.8886394714899
 30
0.0
 11
371.94582279501998
 21
117.8886394714899
 31
0.0
  0
POLYLINE
  5
352
  8
0
  6
CONTINUOUS
 62
     7
 66
     1
 10
0.0
 20
0.0
 30
0.0
  0
VERTEX
  5
75E
  8
0
  6
CONTINUOUS
 62
     7
 10
371.94582279501998
 20
119.38863947149
 30
0.0
  0
VERTEX
  5
75F
  8
0
  6
CONTINUOUS
 62
     7
 10
353.74582279501999
 20
119.38863947149
 30
0.0
  0
VERTEX
  5
760
  8
0
  6
CONTINUOUS
 62
     7
 10
352.94582279501998
 20
118.58863947149
 30
0.0
  0
VERTEX
  5
761
  8
0
  6
CONTINUOUS
 62
     7
 10
352.94582279501998
 20
117.8886394714899
 30
0.0
  0
SEQEND
  5
762
  8
0
  6
CONTINUOUS
 62
     7
  0
LINE
  5
353
  8
0
  6
CONTINUOUS
 62
     7
 10
357.5535279833
 20
111.88863947149
 30
0.0
 11
368.08941902295999
 21
111.88863947149
 31
0.0
  0
LINE
  5
354
  8
0
  6
CONTINUOUS
 62
     7
 10
368.08941902295999
 20
113.88863947149
 30
0.0
 11
357.5535279833
 21
113.88863947149
 31
0.0
  0
LINE
  5
355
  8
0
  6
CONTINUOUS
 62
     7
 10
357.5535279833
 20
111.88863947149
 30
0.0
 11
357.5535279833
 21
113.88863947149
 31
0.0
  0
LINE
  5
356
  8
0
  6
CONTINUOUS
 62
     7
 10
357.5535279833
 20
106.88863947149
 30
0.0
 11
368.08941902295999
 21
106.88863947149
 31
0.0
  0
LINE
  5
357
  8
0
  6
CONTINUOUS
 62
     7
 10
357.5535279833
 20
106.88863947149
 30
0.0
 11
357.5535279833
 21
108.88863947149
 31
0.0
  0
LINE
  5
358
  8
0
  6
CONTINUOUS
 62
     7
 10
366.46660295519001
 20
108.88863947149
 30
0.0
 11
368.08941902297988
 21
106.88863947149
 31
0.0
  0
LINE
  5
359
  8
0
  6
CONTINUOUS
 62
     7
 10
368.08941902295999
 20
108.88863947149
 30
0.0
 11
357.5535279833
 21
108.88863947149
 31
0.0
  0
LINE
  5
35A
  8
0
  6
CONTINUOUS
 62
     7
 10
368.08941902297988
 20
108.88863947149
 30
0.0
 11
368.08941902297988
 21
106.88863947149
 31
0.0
  0
LINE
  5
35B
  8
0
  6
CONTINUOUS
 62
     7
 10
368.08941902297988
 20
113.88863947149
 30
0.0
 11
368.08941902297988
 21
111.88863947149
 31
0.0
  0
LINE
  5
35C
  8
0
  6
CONTINUOUS
 62
     7
 10
366.46660295519001
 20
113.88863947149
 30
0.0
 11
368.08941902297988
 21
111.88863947149
 31
0.0
  0
POLYLINE
  5
35D
  8
0
  6
DOT
 62
     2
 66
     1
 10
0.0
 20
0.0
 30
0.0
  0
VERTEX
  5
763
  8
0
  6
DOT
 62
     2
 10
357.04582279502
 20
108.88863947149
 30
0.0
  0
VERTEX
  5
764
  8
0
  6
DOT
 62
     2
 10
356.54582279502
 20
108.88863947149
 30
0.0
  0
VERTEX
  5
765
  8
0
  6
DOT
 62
     2
 10
357.04582279502
 20
106.88863947149
 30
0.0
  0
SEQEND
  5
766
  8
0
  6
DOT
 62
     2
  0
POLYLINE
  5
35E
  8
0
  6
DOT
 62
     2
 66
     1
 10
0.0
 20
0.0
 30
0.0
  0
VERTEX
  5
767
  8
0
  6
DOT
 62
     2
 10
357.04582279502
 20
113.88863947149
 30
0.0
  0
VERTEX
  5
768
  8
0
  6
DOT
 62
     2
 10
356.54582279502
 20
113.88863947149
 30
0.0
  0
VERTEX
  5
769
  8
0
  6
DOT
 62
     2
 10
357.04582279502
 20
111.88863947149
 30
0.0
  0
SEQEND
  5
76A
  8
0
  6
DOT
 62
     2
  0
LINE
  5
35F
  8
0
  6
DOT
 62
     2
 10
361.64582279502002
 20
116.8886394714899
 30
0.0
 11
371.94582279501998
 21
116.8886394714899
 31
0.0
  0
ARC
  5
360
  8
0
  6
DOT
 62
     2
 10
361.64582279502002
 20
116.38863947149
 30
0.0
 40
0.5
 50
90.000000000559993
 51
180.0
  0
POLYLINE
  5
361
  8
0
  6
DOT
 62
     2
 66
     1
 10
0.0
 20
0.0
 30
0.0
  0
VERTEX
  5
76B
  8
0
  6
DOT
 62
     2
 10
357.04582279502
 20
108.88863947149
 30
0.0
  0
VERTEX
  5
76C
  8
0
  6
DOT
 62
     2
 10
356.54582279502
 20
108.88863947149
 30
0.0
  0
VERTEX
  5
76D
  8
0
  6
DOT
 62
     2
 10
357.04582279502
 20
106.88863947149
 30
0.0
  0
SEQEND
  5
76E
  8
0
  6
DOT
 62
     2
  0
POLYLINE
  5
362
  8
0
  6
DOT
 62
     2
 66
     1
 10
0.0
 20
0.0
 30
0.0
  0
VERTEX
  5
76F
  8
0
  6
DOT
 62
     2
 10
357.04582279502
 20
113.88863947149
 30
0.0
  0
VERTEX
  5
770
  8
0
  6
DOT
 62
     2
 10
356.54582279502
 20
113.88863947149
 30
0.0
  0
VERTEX
  5
771
  8
0
  6
DOT
 62
     2
 10
357.04582279502
 20
111.88863947149
 30
0.0
  0
SEQEND
  5
772
  8
0
  6
DOT
 62
     2
  0
POINT
  5
363
  8
0
 62
     2
 10
361.14582279502002
 20
102.38863947149
 30
0.0
  0
LINE
  5
364
  8
0
  6
DOT
 62
     2
 10
361.14582279502002
 20
102.88863947149
 30
0.0
 11
361.14582279502002
 21
116.38863947149
 31
0.0
  0
ARC
  5
365
  8
0
  6
DOT
 62
     2
 10
360.64582279501002
 20
102.88863947149
 30
0.0
 40
0.5
 50
270.00000000110998
 51
0.0
  0
LINE
  5
366
  8
0
  6
DOT
 62
     2
 10
361.14582279502002
 20
102.88863947149
 30
0.0
 11
361.14582279502002
 21
116.38863947149
 31
0.0
  0
ARC
  5
367
  8
0
  6
DOT
 62
     2
 10
360.64582279501002
 20
102.88863947149
 30
0.0
 40
0.5
 50
270.00000000110998
 51
0.0
  0
ARC
  5
368
  8
0
  6
CONTINUOUS
 62
     7
 10
357.54582279501
 20
106.38863947149
 30
0.0
 40
0.5
 50
180.0
 51
270.00000000014001
  0
LINE
  5
369
  8
0
  6
CONTINUOUS
 62
     7
 10
357.04582279502
 20
106.38863947149
 30
0.0
 11
357.04582279502
 21
117.8886394714899
 31
0.0
  0
LINE
  5
36A
  8
0
  6
CONTINUOUS
 62
     7
 10
357.54582279502
 20
105.88863947149
 30
0.0
 11
370.51386439258999
 21
105.88863947149
 31
0.0
  0
CIRCLE
  5
36B
  8
0
  6
CONTINUOUS
 62
     2
 10
190.53442821716001
 20
164.38863947149
 30
0.0
 40
12.800000000000001
  0
LINE
  5
36C
  8
0
  6
CONTINUOUS
 62
     7
 10
248.93442821715999
 20
153.78863947149
 30
0.0
 11
248.93442821715999
 21
152.08863947149001
 31
0.0
  0
LINE
  5
36D
  8
0
  6
DOT
 62
     2
 10
235.43442821715999
 20
150.4886394714899
 30
0.0
 11
235.93442821715999
 21
150.98863947148999
 31
0.0
  0
LINE
  5
36E
  8
0
  6
DOT
 62
     2
 10
326.94582279501998
 20
150.4886394714899
 30
0.0
 11
326.44582279501998
 21
150.98863947148999
 31
0.0
  0
CIRCLE
  5
36F
  8
0
  6
CONTINUOUS
 62
     2
 10
371.94582279501998
 20
164.38863947149
 30
0.0
 40
13.9
  0
CIRCLE
  5
370
  8
0
  6
CONTINUOUS
 62
     2
 10
371.94582279501998
 20
164.38863947149
 30
0.0
 40
12.800000000000001
  0
DIMENSION
  5
371
  8
0
  6
CONTINUOUS
 62
     2
  2
*D3
 10
385.24582279501999
 20
186.58188764952999
 30
0.0
 11
371.94582279501998
 21
186.58188764952999
 31
0.0
 13
358.64582279501991
 23
164.38863947149
 33
0.0
 14
385.24582279501999
 24
164.38863947149
 34
0.0
  0
DIMENSION
  5
372
  8
0
  6
CONTINUOUS
 62
     2
  2
*D4
 10
203.83442821716
 20
186.58188764952999
 30
0.0
 11
190.53442821716001
 21
186.58188764952999
 31
0.0
 13
177.23442821716
 23
164.38863947149
 33
0.0
 14
203.83442821716
 24
164.38863947149
 34
0.0
  0
DIMENSION
  5
373
  8
0
  6
CONTINUOUS
 62
     2
  2
*D5
 10
263.43442821716002
 20
194.48863947148999
 30
0.0
 11
249.43442821715999
 21
194.48863947148999
 31
0.0
 13
235.43442821715999
 23
182.5886394714899
 33
0.0
 14
263.43442821716002
 24
174.48863947148999
 34
0.0
  0
DIMENSION
  5
374
  8
0
  6
CONTINUOUS
 62
     2
  2
*D6
 10
236.93442821715999
 20
186.58188764952999
 30
0.0
 11
238.11955696997001
 21
186.58188764952999
 31
0.0
 70
   128
 13
235.43442821715999
 23
182.5886394714899
 33
0.0
 14
236.93442821715999
 24
183.38863947149
 34
0.0
  0
DIMENSION
  5
375
  8
0
  6
CONTINUOUS
 62
     2
  2
*D7
 10
326.94582279501998
 20
186.58188764952999
 30
0.0
 11
324.11944217348997
 21
186.58188764952999
 31
0.0
 70
   128
 13
325.44582279502009
 23
183.38863947149
 33
0.0
 14
326.94582279501998
 24
182.5886394714899
 34
0.0
  0
LINE
  5
376
  8
0
  6
CONTINUOUS
 62
     7
 10
262.43442821716002
 20
155.03863947148989
 30
0.0
 11
262.43442821716002
 21
154.28863947149
 31
0.0
  0
LINE
  5
377
  8
0
  6
CONTINUOUS
 62
     7
 10
259.73442821715997
 20
154.28863947149
 30
0.0
 11
259.73442821715997
 21
155.03863947148989
 31
0.0
  0
LINE
  5
378
  8
0
  6
DOT
 62
     2
 10
248.93442821715999
 20
153.78863947149
 30
0.0
 11
248.93442821715999
 21
155.03863947148989
 31
0.0
  0
LINE
  5
379
  8
0
  6
CONTINUOUS
 62
     7
 10
309.94582279501998
 20
164.38863947149
 30
0.0
 11
309.94582279501998
 21
152.58863947149001
 31
0.0
  0
DIMENSION
  5
37A
  8
0
  6
CONTINUOUS
 62
     2
  2
*D8
 10
271.5858159244799
 20
179.28863947149
 30
0.0
 11
271.5858159244799
 21
164.38863947149
 31
0.0
 13
248.43442821715999
 23
149.48863947148999
 33
0.0
 14
248.43442821715999
 24
179.28863947149
 34
0.0
 50
90.0
  0
LINE
  5
37B
  8
0
  6
CONTINUOUS
 62
     2
 10
277.0164363615001
 20
169.00744162500001
 30
0.0
 11
285.01643636149998
 21
164.38863947149
 31
0.0
  0
LINE
  5
37C
  8
0
  6
CONTINUOUS
 62
     2
 10
285.01643636149998
 20
164.38863947149
 30
0.0
 11
277.0164363615001
 21
159.76983731797
 31
0.0
  0
LINE
  5
37D
  8
0
  6
CONTINUOUS
 62
     2
 10
277.0164363615001
 20
159.76983731797
 30
0.0
 11
277.0164363615001
 21
161.88863947147999
 31
0.0
  0
LINE
  5
37E
  8
0
  6
CONTINUOUS
 62
     2
 10
277.0164363615001
 20
169.00744162500001
 30
0.0
 11
277.0164363615001
 21
166.88863947147999
 31
0.0
  0
LINE
  5
37F
  8
0
  6
CONTINUOUS
 62
     2
 10
274.01643636149998
 20
166.88863947147999
 30
0.0
 11
277.0164363615001
 21
166.88863947147999
 31
0.0
  0
LINE
  5
380
  8
0
  6
CONTINUOUS
 62
     2
 10
277.0164363615001
 20
161.88863947147999
 30
0.0
 11
274.01643636149998
 21
161.88863947147999
 31
0.0
  0
LINE
  5
381
  8
0
  6
CONTINUOUS
 62
     2
 10
294.9869981562299
 20
169.00744162500001
 30
0.0
 11
286.9869981562299
 21
164.38863947149
 31
0.0
  0
LINE
  5
382
  8
0
  6
CONTINUOUS
 62
     2
 10
286.9869981562299
 20
164.38863947149
 30
0.0
 11
294.9869981562299
 21
159.76983731797
 31
0.0
  0
LINE
  5
383
  8
0
  6
CONTINUOUS
 62
     2
 10
294.9869981562299
 20
159.76983731797
 30
0.0
 11
294.9869981562299
 21
161.88863947147999
 31
0.0
  0
LINE
  5
384
  8
0
  6
CONTINUOUS
 62
     2
 10
294.9869981562299
 20
169.00744162500001
 30
0.0
 11
294.9869981562299
 21
166.88863947147999
 31
0.0
  0
LINE
  5
385
  8
0
  6
CONTINUOUS
 62
     2
 10
297.98699815623002
 20
166.88863947147999
 30
0.0
 11
294.9869981562299
 21
166.88863947147999
 31
0.0
  0
LINE
  5
386
  8
0
  6
CONTINUOUS
 62
     2
 10
294.9869981562299
 20
161.88863947147999
 30
0.0
 11
297.98699815623002
 21
161.88863947147999
 31
0.0
  0
CIRCLE
  5
387
  8
0
  6
DOT
 62
     2
 10
190.53442821716001
 20
164.38863947149
 30
0.0
 40
8.8499999999999996
  0
CIRCLE
  5
388
  8
0
  6
DOT
 62
     2
 10
190.53442821716001
 20
164.38863947149
 30
0.0
 40
7.5999999999999988
  0
CIRCLE
  5
389
  8
0
  6
DOT
 62
     2
 10
371.94582279501998
 20
164.38863947149
 30
0.0
 40
10.800000000000001
  0
CIRCLE
  5
38A
  8
0
  6
DOT
 62
     2
 10
371.94582279501998
 20
164.38863947149
 30
0.0
 40
11.799999999989
  0
LINE
  5
38C
  8
0
  6
DASHDOT
 62
     2
 10
190.53442821716001
 20
88.949625851303011
 30
0.0
 11
190.53442821716001
 21
119.38863947149
 31
0.0
  0
POINT
  5
38D
  8
0
 62
     2
 10
326.44582279501998
 20
151.08863947149001
 30
0.0
  0
ARC
  5
38E
  8
0
  6
CONTINUOUS
 62
     7
 10
249.43442821715999
 20
155.03863947148989
 30
0.0
 40
0.5
 50
90.0
 51
180.00000000068999
  0
LINE
  5
38F
  8
0
  6
CONTINUOUS
 62
     7
 10
259.73442821715997
 20
153.98863947148999
 30
0.0
 11
259.73442821715997
 21
164.38863947149
 31
0.0
  0
ARC
  5
390
  8
0
  6
CONTINUOUS
 62
     7
 10
259.53442821715998
 20
153.98863947148999
 30
0.0
 40
0.2
 50
270.00000000113999
 51
0.0
  0
LINE
  5
391
  8
0
  6
CONTINUOUS
 62
     7
 10
249.43442821715999
 20
155.53863947149
 30
0.0
 11
258.23442821715997
 21
155.53863947149
 31
0.0
  0
ARC
  5
392
  8
0
  6
CONTINUOUS
 62
     7
 10
259.23442821715003
 20
154.28863947149
 30
0.0
 40
0.5
 50
180.0
 51
270.00000000099999
  0
ARC
  5
393
  8
0
  6
CONTINUOUS
 62
     7
 10
258.23442821715997
 20
155.03863947148
 30
0.0
 40
0.5
 50
0.0000000006644052
 51
90.0
  0
LINE
  5
394
  8
0
  6
CONTINUOUS
 62
     7
 10
258.73442821715997
 20
164.38863947149
 30
0.0
 11
258.73442821715997
 21
154.28863947149
 31
0.0
  0
LINE
  5
395
  8
0
  6
CONTINUOUS
 62
     7
 10
259.23442821715003
 20
153.78863947149
 30
0.0
 11
259.53442821715998
 21
153.78863947149
 31
0.0
  0
LINE
  5
396
  8
0
  6
CONTINUOUS
 62
     7
 10
262.43442821716002
 20
164.38863947149
 30
0.0
 11
262.43442821716002
 21
153.98863947148999
 31
0.0
  0
ARC
  5
397
  8
0
  6
CONTINUOUS
 62
     7
 10
262.63442821716001
 20
153.98863947148999
 30
0.0
 40
0.2
 50
180.0
 51
269.99999999950001
  0
POINT
  5
398
  8
0
 62
     7
 10
262.43442821716002
 20
153.78863947149
 30
0.0
  0
LINE
  5
399
  8
0
  6
CONTINUOUS
 62
     7
 10
262.93442821716002
 20
153.78863947149
 30
0.0
 11
262.63442821716001
 21
153.78863947149
 31
0.0
  0
DIMENSION
  5
39A
  8
0
  6
CONTINUOUS
 62
     2
  2
*D9
 10
326.94582279501998
 20
194.48863947148999
 30
0.0
 11
318.44582279501998
 21
194.48863947148999
 31
0.0
 13
309.94582279501998
 23
176.18863947148989
 33
0.0
 14
326.94582279501998
 24
182.5886394714899
 34
0.0
  0
ARC
  5
39B
  8
0
  6
DOT
 62
     2
 10
315.4458227949799
 20
151.58863947162001
 30
0.0
 40
1.0
 50
11.536959024722
 51
13.342363788831999
  0
LINE
  5
39C
  8
0
  6
CONTINUOUS
 62
     7
 10
199.38442821716001
 20
105.38863947149
 30
0.0
 11
199.38442821716001
 21
96.58863947148599
 31
0.0
  0
ARC
  5
39D
  8
0
  6
CONTINUOUS
 62
     7
 10
199.88442821716001
 20
96.58863947148599
 30
0.0
 40
0.5
 50
180.0
 51
269.99999999993003
  0
ARC
  5
39E
  8
0
  6
CONTINUOUS
 62
     7
 10
199.88442821716001
 20
105.38863947149
 30
0.0
 40
0.5
 50
90.000000000189004
 51
180.0
  0
LINE
  5
39F
  8
0
  6
CONTINUOUS
 62
     7
 10
181.68442821715999
 20
105.38863947149
 30
0.0
 11
181.68442821715999
 21
96.58863947148599
 31
0.0
  0
ARC
  5
3A0
  8
0
  6
CONTINUOUS
 62
     7
 10
181.18442821715999
 20
96.58863947148599
 30
0.0
 40
0.5
 50
270.00000000022999
 51
0.0
  0
ARC
  5
3A1
  8
0
  6
CONTINUOUS
 62
     7
 10
181.18442821715999
 20
105.38863947149
 30
0.0
 40
0.5
 50
0.0
 51
89.999999999655003
  0
LINE
  5
3A2
  8
0
  6
CONTINUOUS
 62
     7
 10
180.13442821716001
 20
95.08863947148599
 30
0.0
 11
190.53442821716001
 21
95.08863947148599
 31
0.0
  0
ARC
  5
3A3
  8
0
  6
CONTINUOUS
 62
     7
 10
180.13442821716001
 20
95.288639471492004
 30
0.0
 40
0.2
 50
180.00000000151999
 51
270.0
  0
LINE
  5
3A4
  8
0
  6
CONTINUOUS
 62
     7
 10
200.93442821715999
 20
95.08863947148599
 30
0.0
 11
190.53442821716001
 21
95.08863947148599
 31
0.0
  0
ARC
  5
3A5
  8
0
  6
CONTINUOUS
 62
     7
 10
200.93442821715999
 20
95.288639471476003
 30
0.0
 40
0.2
 50
270.0
 51
0.0000000030777592
  0
LINE
  5
3A6
  8
0
  6
CONTINUOUS
 62
     7
 10
180.43442821715999
 20
96.08863947148599
 30
0.0
 11
190.53442821716001
 21
96.08863947148599
 31
0.0
  0
ARC
  5
3A7
  8
0
  6
CONTINUOUS
 62
     7
 10
180.43442821715999
 20
95.588639471481997
 30
0.0
 40
0.5
 50
90.0
 51
179.99999999957001
  0
POINT
  5
3A8
  8
0
 62
     7
 10
179.93442821715999
 20
96.08863947148599
 30
0.0
  0
LINE
  5
3A9
  8
0
  6
CONTINUOUS
 62
     7
 10
200.63442821716001
 20
96.08863947148599
 30
0.0
 11
190.53442821716001
 21
96.08863947148599
 31
0.0
  0
ARC
  5
3AA
  8
0
  6
CONTINUOUS
 62
     7
 10
200.63442821716001
 20
95.588639471483987
 30
0.0
 40
0.5
 50
0.0000000002768355
 51
90.0
  0
LINE
  5
3AB
  8
0
  6
CONTINUOUS
 62
     7
 10
179.93442821715999
 20
95.588639471486005
 30
0.0
 11
179.93442821715999
 21
95.288639471485979
 31
0.0
  0
LINE
  5
3AC
  8
0
  6
CONTINUOUS
 62
     7
 10
201.13442821716001
 20
95.588639471486005
 30
0.0
 11
201.13442821716001
 21
95.288639471485979
 31
0.0
  0
POINT
  5
3AD
  8
0
 62
     7
 10
179.93442821715999
 20
92.388639471485988
 30
0.0
  0
ARC
  5
3AE
  8
0
  6
CONTINUOUS
 62
     7
 10
180.13442821716001
 20
92.188639471483995
 30
0.0
 40
0.2
 50
90.000000000007987
 51
179.99999999948
  0
LINE
  5
3AF
  8
0
  6
CONTINUOUS
 62
     7
 10
179.93442821715999
 20
91.888639471486002
 30
0.0
 11
179.93442821715999
 21
92.188639471485999
 31
0.0
  0
LINE
  5
3B0
  8
0
  6
CONTINUOUS
 62
     7
 10
190.53442821716001
 20
92.388639471485988
 30
0.0
 11
180.13442821716001
 21
92.388639471485988
 31
0.0
  0
ARC
  5
3B1
  8
0
  6
CONTINUOUS
 62
     7
 10
180.43442821715999
 20
91.888639471486002
 30
0.0
 40
0.5
 50
180.0
 51
269.99999999993003
  0
POINT
  5
3B2
  8
0
 62
     7
 10
201.13442821716001
 20
92.388639471485988
 30
0.0
  0
ARC
  5
3B3
  8
0
  6
CONTINUOUS
 62
     7
 10
200.93442821715999
 20
92.188639471499997
 30
0.0
 40
0.2
 50
0.0
 51
90.0
  0
LINE
  5
3B4
  8
0
  6
CONTINUOUS
 62
     7
 10
201.13442821716001
 20
91.888639471486002
 30
0.0
 11
201.13442821716001
 21
92.188639471485999
 31
0.0
  0
LINE
  5
3B5
  8
0
  6
CONTINUOUS
 62
     7
 10
190.53442821716001
 20
92.388639471485988
 30
0.0
 11
200.93442821715999
 21
92.388639471485988
 31
0.0
  0
LINE
  5
3B6
  8
0
  6
CONTINUOUS
 62
     7
 10
309.94582279501998
 20
152.58863947149001
 30
0.0
 11
313.44582279501998
 21
151.88863947149
 31
0.0
  0
LINE
  5
3B7
  8
0
  6
CONTINUOUS
 62
     7
 10
371.94582279501998
 20
102.38863947149
 30
0.0
 11
360.14582279502002
 21
102.38863947149
 31
0.0
  0
LINE
  5
3B8
  8
0
  6
CONTINUOUS
 62
     7
 10
371.94582279501998
 20
102.38863947149
 30
0.0
 11
383.74582279501999
 21
102.38863947149
 31
0.0
  0
LINE
  5
3B9
  8
0
  6
CONTINUOUS
 62
     7
 10
383.74582279501999
 20
102.38863947149
 30
0.0
 11
384.44582279501998
 21
105.88863947149
 31
0.0
  0
LINE
  5
3BA
  8
0
  6
CONTINUOUS
 62
     7
 10
360.14582279502002
 20
102.38863947149
 30
0.0
 11
359.44582279501998
 21
105.88863947149
 31
0.0
  0
DIMENSION
  5
3BB
  8
0
  6
CONTINUOUS
 62
     2
  2
*D10
 10
304.96945103529998
 20
179.28863947149
 30
0.0
 11
304.96945103529998
 21
164.38863947149
 31
0.0
 13
313.68142429422988
 23
149.48863947148999
 33
0.0
 14
313.94582279501998
 24
179.28863947149
 34
0.0
 50
90.0
  0
LINE
  5
3BC
  8
0
  6
CONTINUOUS
 62
     3
 10
326.14582279502002
 20
183.38863947149
 30
0.0
 11
326.14582279502002
 21
164.38863947149
 31
0.0
  0
LINE
  5
3BD
  8
0
  6
CONTINUOUS
 62
     7
 10
325.44582279502009
 20
183.38863947149
 30
0.0
 11
325.44582279502009
 21
164.38863947149
 31
0.0
  0
POLYLINE
  5
3BE
  8
0
  6
CONTINUOUS
 62
     7
 66
     1
 10
0.0
 20
0.0
 30
0.0
  0
VERTEX
  5
773
  8
0
  6
CONTINUOUS
 62
     7
 10
326.94582279501998
 20
164.38863947149
 30
0.0
  0
VERTEX
  5
774
  8
0
  6
CONTINUOUS
 62
     7
 10
326.94582279501998
 20
182.5886394714899
 30
0.0
  0
VERTEX
  5
775
  8
0
  6
CONTINUOUS
 62
     7
 10
326.14582279502002
 20
183.38863947149
 30
0.0
  0
VERTEX
  5
776
  8
0
  6
CONTINUOUS
 62
     7
 10
325.44582279502009
 20
183.38863947149
 30
0.0
  0
SEQEND
  5
777
  8
0
  6
CONTINUOUS
 62
     7
  0
LINE
  5
3BF
  8
0
  6
CONTINUOUS
 62
     7
 10
319.44582279501998
 20
178.7809342832
 30
0.0
 11
319.44582279501998
 21
168.24504324354001
 31
0.0
  0
LINE
  5
3C0
  8
0
  6
CONTINUOUS
 62
     7
 10
321.44582279501998
 20
168.24504324354001
 30
0.0
 11
321.44582279501998
 21
178.7809342832
 31
0.0
  0
LINE
  5
3C1
  8
0
  6
CONTINUOUS
 62
     7
 10
319.44582279501998
 20
178.7809342832
 30
0.0
 11
321.44582279501998
 21
178.7809342832
 31
0.0
  0
LINE
  5
3C2
  8
0
  6
CONTINUOUS
 62
     7
 10
314.44582279501998
 20
178.7809342832
 30
0.0
 11
314.44582279501998
 21
168.24504324354001
 31
0.0
  0
LINE
  5
3C3
  8
0
  6
CONTINUOUS
 62
     7
 10
314.44582279501998
 20
178.7809342832
 30
0.0
 11
316.44582279501998
 21
178.7809342832
 31
0.0
  0
LINE
  5
3C4
  8
0
  6
CONTINUOUS
 62
     7
 10
316.44582279501998
 20
169.86785931131001
 30
0.0
 11
314.44582279501998
 21
168.24504324353001
 31
0.0
  0
LINE
  5
3C5
  8
0
  6
CONTINUOUS
 62
     7
 10
316.44582279501998
 20
168.24504324354001
 30
0.0
 11
316.44582279501998
 21
178.7809342832
 31
0.0
  0
LINE
  5
3C6
  8
0
  6
CONTINUOUS
 62
     7
 10
316.44582279501998
 20
168.24504324353001
 30
0.0
 11
314.44582279501998
 21
168.24504324353001
 31
0.0
  0
LINE
  5
3C7
  8
0
  6
CONTINUOUS
 62
     7
 10
321.44582279501998
 20
168.24504324353001
 30
0.0
 11
319.44582279501998
 21
168.24504324353001
 31
0.0
  0
LINE
  5
3C8
  8
0
  6
CONTINUOUS
 62
     7
 10
321.44582279501998
 20
169.86785931131001
 30
0.0
 11
319.44582279501998
 21
168.24504324353001
 31
0.0
  0
POLYLINE
  5
3C9
  8
0
  6
DOT
 62
     2
 66
     1
 10
0.0
 20
0.0
 30
0.0
  0
VERTEX
  5
778
  8
0
  6
DOT
 62
     2
 10
316.44582279501998
 20
179.28863947149
 30
0.0
  0
VERTEX
  5
779
  8
0
  6
DOT
 62
     2
 10
316.44582279501998
 20
179.78863947148989
 30
0.0
  0
VERTEX
  5
77A
  8
0
  6
DOT
 62
     2
 10
314.44582279501998
 20
179.28863947149
 30
0.0
  0
SEQEND
  5
77B
  8
0
  6
DOT
 62
     2
  0
POLYLINE
  5
3CA
  8
0
  6
DOT
 62
     2
 66
     1
 10
0.0
 20
0.0
 30
0.0
  0
VERTEX
  5
77C
  8
0
  6
DOT
 62
     2
 10
321.44582279501998
 20
179.28863947149
 30
0.0
  0
VERTEX
  5
77D
  8
0
  6
DOT
 62
     2
 10
321.44582279501998
 20
179.78863947148989
 30
0.0
  0
VERTEX
  5
77E
  8
0
  6
DOT
 62
     2
 10
319.44582279501998
 20
179.28863947149
 30
0.0
  0
SEQEND
  5
77F
  8
0
  6
DOT
 62
     2
  0
POLYLINE
  5
3CB
  8
0
  6
DOT
 62
     2
 66
     1
 10
0.0
 20
0.0
 30
0.0
  0
VERTEX
  5
780
  8
0
  6
DOT
 62
     2
 10
316.44582279501998
 20
179.28863947149
 30
0.0
  0
VERTEX
  5
781
  8
0
  6
DOT
 62
     2
 10
316.44582279501998
 20
179.78863947148989
 30
0.0
  0
VERTEX
  5
782
  8
0
  6
DOT
 62
     2
 10
314.44582279501998
 20
179.28863947149
 30
0.0
  0
SEQEND
  5
783
  8
0
  6
DOT
 62
     2
  0
POLYLINE
  5
3CC
  8
0
  6
DOT
 62
     2
 66
     1
 10
0.0
 20
0.0
 30
0.0
  0
VERTEX
  5
784
  8
0
  6
DOT
 62
     2
 10
321.44582279501998
 20
179.28863947149
 30
0.0
  0
VERTEX
  5
785
  8
0
  6
DOT
 62
     2
 10
321.44582279501998
 20
179.78863947148989
 30
0.0
  0
VERTEX
  5
786
  8
0
  6
DOT
 62
     2
 10
319.44582279501998
 20
179.28863947149
 30
0.0
  0
SEQEND
  5
787
  8
0
  6
DOT
 62
     2
  0
ARC
  5
3CD
  8
0
  6
CONTINUOUS
 62
     7
 10
313.94582279501998
 20
178.78863947148
 30
0.0
 40
0.5
 50
90.0
 51
179.99999999899001
  0
LINE
  5
3CE
  8
0
  6
CONTINUOUS
 62
     7
 10
313.94582279501998
 20
179.28863947149
 30
0.0
 11
325.44582279502009
 21
179.28863947149
 31
0.0
  0
LINE
  5
3CF
  8
0
  6
CONTINUOUS
 62
     7
 10
313.44582279501998
 20
178.78863947149
 30
0.0
 11
313.44582279501998
 21
165.82059787391
 31
0.0
  0
LINE
  5
3D0
  8
0
  6
DOT
 62
     2
 10
326.94582279501998
 20
178.28863947149
 30
0.0
 11
326.44582279501998
 21
177.78863947148989
 31
0.0
  0
LINE
  5
3D1
  8
0
  6
CONTINUOUS
 62
     7
 10
309.94582279501998
 20
164.38863947149
 30
0.0
 11
309.94582279501998
 21
176.18863947148989
 31
0.0
  0
POINT
  5
3D2
  8
0
 62
     2
 10
326.44582279501998
 20
177.68863947149001
 30
0.0
  0
ARC
  5
3D3
  8
0
  6
DOT
 62
     2
 10
315.4458227949799
 20
177.18863947134
 30
0.0
 40
1.0
 50
346.65763621169998
 51
348.46304097580997
  0
LINE
  5
3D4
  8
0
  6
CONTINUOUS
 62
     7
 10
309.94582279501998
 20
176.18863947148989
 30
0.0
 11
313.44582279501998
 21
176.88863947149
 31
0.0
  0
LINE
  5
3D5
  8
0
  6
CONTINUOUS
 62
     3
 10
236.23442821716
 20
183.38863947149
 30
0.0
 11
236.23442821716
 21
164.38863947149
 31
0.0
  0
LINE
  5
3D6
  8
0
  6
CONTINUOUS
 62
     7
 10
236.93442821715999
 20
183.38863947149
 30
0.0
 11
236.93442821715999
 21
164.38863947149
 31
0.0
  0
POLYLINE
  5
3D7
  8
0
  6
CONTINUOUS
 62
     7
 66
     1
 10
0.0
 20
0.0
 30
0.0
  0
VERTEX
  5
788
  8
0
  6
CONTINUOUS
 62
     7
 10
235.43442821715999
 20
164.38863947149
 30
0.0
  0
VERTEX
  5
789
  8
0
  6
CONTINUOUS
 62
     7
 10
235.43442821715999
 20
182.5886394714899
 30
0.0
  0
VERTEX
  5
78A
  8
0
  6
CONTINUOUS
 62
     7
 10
236.23442821716
 20
183.38863947149
 30
0.0
  0
VERTEX
  5
78B
  8
0
  6
CONTINUOUS
 62
     7
 10
236.93442821715999
 20
183.38863947149
 30
0.0
  0
SEQEND
  5
78C
  8
0
  6
CONTINUOUS
 62
     7
  0
ARC
  5
3D8
  8
0
  6
CONTINUOUS
 62
     7
 10
248.43442821715999
 20
178.78863947149
 30
0.0
 40
0.5
 50
0.0
 51
89.999999999908994
  0
LINE
  5
3D9
  8
0
  6
CONTINUOUS
 62
     7
 10
240.93442821715999
 20
168.24504324353001
 30
0.0
 11
242.93442821715999
 21
168.24504324353001
 31
0.0
  0
LINE
  5
3DA
  8
0
  6
CONTINUOUS
 62
     7
 10
240.93442821715999
 20
169.86785931131001
 30
0.0
 11
242.93442821715999
 21
168.24504324353001
 31
0.0
  0
LINE
  5
3DB
  8
0
  6
CONTINUOUS
 62
     7
 10
245.93442821715999
 20
168.24504324353001
 30
0.0
 11
247.93442821715999
 21
168.24504324353001
 31
0.0
  0
LINE
  5
3DC
  8
0
  6
CONTINUOUS
 62
     7
 10
245.93442821715999
 20
169.86785931131001
 30
0.0
 11
247.93442821715999
 21
168.24504324353001
 31
0.0
  0
LINE
  5
3DD
  8
0
  6
CONTINUOUS
 62
     7
 10
247.93442821715999
 20
178.7809342832
 30
0.0
 11
247.93442821715999
 21
168.24504324354001
 31
0.0
  0
LINE
  5
3DE
  8
0
  6
CONTINUOUS
 62
     7
 10
245.93442821715999
 20
168.24504324354001
 30
0.0
 11
245.93442821715999
 21
178.7809342832
 31
0.0
  0
LINE
  5
3DF
  8
0
  6
CONTINUOUS
 62
     7
 10
242.93442821715999
 20
178.7809342832
 30
0.0
 11
242.93442821715999
 21
168.24504324354001
 31
0.0
  0
LINE
  5
3E0
  8
0
  6
CONTINUOUS
 62
     7
 10
240.93442821715999
 20
168.24504324354001
 30
0.0
 11
240.93442821715999
 21
178.7809342832
 31
0.0
  0
LINE
  5
3E1
  8
0
  6
CONTINUOUS
 62
     7
 10
247.93442821715999
 20
178.7809342832
 30
0.0
 11
245.93442821715999
 21
178.7809342832
 31
0.0
  0
LINE
  5
3E2
  8
0
  6
CONTINUOUS
 62
     7
 10
242.93442821715999
 20
178.7809342832
 30
0.0
 11
240.93442821715999
 21
178.7809342832
 31
0.0
  0
LINE
  5
3E3
  8
0
  6
CONTINUOUS
 62
     7
 10
248.43442821715999
 20
179.28863947149
 30
0.0
 11
236.93442821715999
 21
179.28863947149
 31
0.0
  0
POLYLINE
  5
3E4
  8
0
  6
DOT
 62
     2
 66
     1
 10
0.0
 20
0.0
 30
0.0
  0
VERTEX
  5
78D
  8
0
  6
DOT
 62
     2
 10
245.93442821715999
 20
179.28863947149
 30
0.0
  0
VERTEX
  5
78E
  8
0
  6
DOT
 62
     2
 10
245.93442821715999
 20
179.78863947148989
 30
0.0
  0
VERTEX
  5
78F
  8
0
  6
DOT
 62
     2
 10
247.93442821715999
 20
179.28863947149
 30
0.0
  0
SEQEND
  5
790
  8
0
  6
DOT
 62
     2
  0
POLYLINE
  5
3E5
  8
0
  6
DOT
 62
     2
 66
     1
 10
0.0
 20
0.0
 30
0.0
  0
VERTEX
  5
791
  8
0
  6
DOT
 62
     2
 10
240.93442821715999
 20
179.28863947149
 30
0.0
  0
VERTEX
  5
792
  8
0
  6
DOT
 62
     2
 10
240.93442821715999
 20
179.78863947148989
 30
0.0
  0
VERTEX
  5
793
  8
0
  6
DOT
 62
     2
 10
242.93442821715999
 20
179.28863947149
 30
0.0
  0
SEQEND
  5
794
  8
0
  6
DOT
 62
     2
  0
LINE
  5
3E6
  8
0
  6
CONTINUOUS
 62
     7
 10
248.93442821715999
 20
164.38863947149
 30
0.0
 11
248.93442821715999
 21
178.78863947149
 31
0.0
  0
LINE
  5
3E7
  8
0
  6
CONTINUOUS
 62
     7
 10
260.70942821716
 20
175.18863947148989
 30
0.0
 11
261.45942821716
 21
175.18863947148989
 31
0.0
  0
ARC
  5
3E8
  8
0
  6
CONTINUOUS
 62
     7
 10
260.70942821716
 20
174.21363947149001
 30
0.0
 40
0.975
 50
89.999999999692989
 51
180.0
  0
ARC
  5
3E9
  8
0
  6
CONTINUOUS
 62
     7
 10
261.45942821716
 20
174.21363947149001
 30
0.0
 40
0.975
 50
0.0
 51
90.0
  0
POLYLINE
  5
3EA
  8
0
  6
DOT
 62
     2
 66
     1
 10
0.0
 20
0.0
 30
0.0
  0
VERTEX
  5
795
  8
0
  6
DOT
 62
     2
 10
245.93442821715999
 20
179.28863947149
 30
0.0
  0
VERTEX
  5
796
  8
0
  6
DOT
 62
     2
 10
245.93442821715999
 20
179.78863947148989
 30
0.0
  0
VERTEX
  5
797
  8
0
  6
DOT
 62
     2
 10
247.93442821715999
 20
179.28863947149
 30
0.0
  0
SEQEND
  5
798
  8
0
  6
DOT
 62
     2
  0
POLYLINE
  5
3EB
  8
0
  6
DOT
 62
     2
 66
     1
 10
0.0
 20
0.0
 30
0.0
  0
VERTEX
  5
799
  8
0
  6
DOT
 62
     2
 10
240.93442821715999
 20
179.28863947149
 30
0.0
  0
VERTEX
  5
79A
  8
0
  6
DOT
 62
     2
 10
240.93442821715999
 20
179.78863947148989
 30
0.0
  0
VERTEX
  5
79B
  8
0
  6
DOT
 62
     2
 10
242.93442821715999
 20
179.28863947149
 30
0.0
  0
SEQEND
  5
79C
  8
0
  6
DOT
 62
     2
  0
ARC
  5
3EC
  8
0
  6
CONTINUOUS
 62
     7
 10
262.93442821716002
 20
174.48863947148001
 30
0.0
 40
0.5
 50
0.0000000002410097
 51
90.0
  0
POINT
  5
3ED
  8
0
 62
     7
 10
263.43442821716002
 20
174.98863947148999
 30
0.0
  0
POINT
  5
3EE
  8
0
 62
     7
 10
259.73442821715997
 20
174.98863947148999
 30
0.0
  0
LINE
  5
3EF
  8
0
  6
CONTINUOUS
 62
     7
 10
263.43442821716002
 20
174.48863947148999
 30
0.0
 11
263.43442821716002
 21
164.38863947149
 31
0.0
  0
LINE
  5
3F0
  8
0
  6
CONTINUOUS
 62
     7
 10
248.93442821715999
 20
174.98863947148999
 30
0.0
 11
248.93442821715999
 21
176.68863947149001
 31
0.0
  0
LINE
  5
3F1
  8
0
  6
DOT
 62
     2
 10
235.43442821715999
 20
178.28863947149
 30
0.0
 11
235.93442821715999
 21
177.78863947148989
 31
0.0
  0
LINE
  5
3F2
  8
0
  6
CONTINUOUS
 62
     7
 10
262.43442821716002
 20
173.73863947148999
 30
0.0
 11
262.43442821716002
 21
174.48863947148999
 31
0.0
  0
LINE
  5
3F3
  8
0
  6
CONTINUOUS
 62
     7
 10
259.73442821715997
 20
174.48863947148999
 30
0.0
 11
259.73442821715997
 21
173.73863947148999
 31
0.0
  0
LINE
  5
3F4
  8
0
  6
DOT
 62
     2
 10
248.93442821715999
 20
174.98863947148999
 30
0.0
 11
248.93442821715999
 21
173.73863947148999
 31
0.0
  0
ARC
  5
3F5
  8
0
  6
CONTINUOUS
 62
     7
 10
249.43442821715999
 20
173.73863947148001
 30
0.0
 40
0.5
 50
179.99999999933999
 51
270.0
  0
LINE
  5
3F6
  8
0
  6
CONTINUOUS
 62
     7
 10
259.73442821715997
 20
174.78863947148989
 30
0.0
 11
259.73442821715997
 21
164.38863947149
 31
0.0
  0
ARC
  5
3F7
  8
0
  6
CONTINUOUS
 62
     7
 10
259.53442821714998
 20
174.78863947148989
 30
0.0
 40
0.2
 50
0.0
 51
89.999999996564014
  0
LINE
  5
3F8
  8
0
  6
CONTINUOUS
 62
     7
 10
249.43442821715999
 20
173.23863947148999
 30
0.0
 11
258.23442821715997
 21
173.23863947148999
 31
0.0
  0
ARC
  5
3F9
  8
0
  6
CONTINUOUS
 62
     7
 10
259.23442821715003
 20
174.48863947148999
 30
0.0
 40
0.5
 50
89.999999999036007
 51
180.0
  0
ARC
  5
3FA
  8
0
  6
CONTINUOUS
 62
     7
 10
258.23442821715997
 20
173.73863947148999
 30
0.0
 40
0.5
 50
270.0
 51
0.0
  0
LINE
  5
3FB
  8
0
  6
CONTINUOUS
 62
     7
 10
258.73442821715997
 20
164.38863947149
 30
0.0
 11
258.73442821715997
 21
174.48863947148999
 31
0.0
  0
LINE
  5
3FC
  8
0
  6
CONTINUOUS
 62
     7
 10
259.23442821715003
 20
174.98863947148999
 30
0.0
 11
259.53442821715998
 21
174.98863947148999
 31
0.0
  0
LINE
  5
3FD
  8
0
  6
CONTINUOUS
 62
     7
 10
262.43442821716002
 20
164.38863947149
 30
0.0
 11
262.43442821716002
 21
174.78863947148989
 31
0.0
  0
ARC
  5
3FE
  8
0
  6
CONTINUOUS
 62
     7
 10
262.63442821717001
 20
174.78863947148989
 30
0.0
 40
0.2
 50
90.000000002816989
 51
180.0
  0
POINT
  5
3FF
  8
0
 62
     7
 10
262.43442821716002
 20
174.98863947148999
 30
0.0
  0
LINE
  5
400
  8
0
  6
CONTINUOUS
 62
     7
 10
262.93442821716002
 20
174.98863947148999
 30
0.0
 11
262.63442821716001
 21
174.98863947148999
 31
0.0
  0
LINE
  5
401
  8
0
  6
DOT
 62
     2
 10
382.74582279501999
 20
102.88863947149
 30
0.0
 11
382.74582279501999
 21
116.38863947149
 31
0.0
  0
ARC
  5
402
  8
0
  6
DOT
 62
     2
 10
382.24582279499998
 20
116.38863947149
 30
0.0
 40
0.5
 50
0.0
 51
89.999999997849997
  0
LINE
  5
403
  8
0
  6
DOT
 62
     2
 10
382.24582279501999
 20
116.8886394714899
 30
0.0
 11
371.94582279501998
 21
116.8886394714899
 31
0.0
  0
LINE
  5
404
  8
0
  6
DOT
 62
     2
 10
262.43442821716002
 20
156.78863947148989
 30
0.0
 11
238.43442821715999
 21
156.78863947148989
 31
0.0
  0
ARC
  5
405
  8
0
  6
DOT
 62
     2
 10
238.43442821715999
 20
157.28863947148
 30
0.0
 40
0.5
 50
179.99999999968
 51
270.0
  0
LINE
  5
406
  8
0
  6
DOT
 62
     2
 10
237.93442821715999
 20
157.28863947148989
 30
0.0
 11
237.93442821715999
 21
164.38863947149
 31
0.0
  0
LINE
  5
407
  8
0
  6
DOT
 62
     2
 10
262.43442821716002
 20
171.98863947148999
 30
0.0
 11
238.43442821715999
 21
171.98863947148999
 31
0.0
  0
ARC
  5
408
  8
0
  6
DOT
 62
     2
 10
238.43442821715999
 20
171.48863947148999
 30
0.0
 40
0.5
 50
90.0
 51
180.00000000036999
  0
LINE
  5
409
  8
0
  6
DOT
 62
     2
 10
237.93442821715999
 20
171.48863947148999
 30
0.0
 11
237.93442821715999
 21
164.38863947149
 31
0.0
  0
ARC
  5
40A
  8
0
  6
DOT
 62
     2
 10
262.43442821716002
 20
155.78863947148
 30
0.0
 40
1.0
 50
0.000000000260551
 51
90.0
  0
POINT
  5
40B
  8
0
 62
     2
 10
263.43442821716002
 20
156.78863947148989
 30
0.0
  0
ARC
  5
40C
  8
0
  6
DOT
 62
     2
 10
262.43442821716002
 20
172.98863947148999
 30
0.0
 40
1.0
 50
270.0
 51
0.0
  0
POINT
  5
40D
  8
0
 62
     2
 10
263.43442821716002
 20
171.98863947148999
 30
0.0
  0
ARC
  5
40E
  8
0
  6
DOT
 62
     2
 10
295.43442821716002
 20
164.38863947149
 30
0.0
 40
60.0
 50
167.09510849630999
 51
180.0
  0
LINE
  5
40F
  8
0
  6
DOT
 62
     2
 10
235.93442821715999
 20
177.78863947148989
 30
0.0
 11
236.94990034867001
 21
177.78863947148989
 31
0.0
  0
LINE
  5
410
  8
0
  6
DOT
 62
     2
 10
235.93442821715999
 20
150.98863947148999
 30
0.0
 11
236.94990034867001
 21
150.98863947148999
 31
0.0
  0
ARC
  5
411
  8
0
  6
DOT
 62
     2
 10
295.43442821716002
 20
164.38863947149
 30
0.0
 40
60.0
 50
180.0
 51
192.90489150369001
  0
ARC
  5
412
  8
0
  6
DOT
 62
     2
 10
266.94582279502009
 20
164.38863947149
 30
0.0
 40
60.0
 50
0.0
 51
12.904891503687001
  0
LINE
  5
413
  8
0
  6
DOT
 62
     2
 10
326.44582279501998
 20
177.78863947148989
 30
0.0
 11
325.43035066350001
 21
177.78863947148989
 31
0.0
  0
ARC
  5
414
  8
0
  6
DOT
 62
     2
 10
266.94582279502009
 20
164.38863947149
 30
0.0
 40
60.0
 50
347.09510849630999
 51
0.0000000000004614
  0
LINE
  5
415
  8
0
  6
DOT
 62
     2
 10
326.44582279501998
 20
150.98863947148999
 30
0.0
 11
325.43035066350001
 21
150.98863947148999
 31
0.0
  0
INSERT
  5
41A
  8
0
  6
CONTINUOUS
  2
*U53
 10
0.0
 20
0.0
 30
0.0
  0
INSERT
  5
41B
  8
0
  6
CONTINUOUS
  2
*U54
 10
0.0
 20
0.0
 30
0.0
  0
INSERT
  5
41C
  8
0
  6
CONTINUOUS
  2
*U55
 10
0.0
 20
0.0
 30
0.0
  0
INSERT
  5
41D
  8
0
  6
CONTINUOUS
  2
*U56
 10
0.0
 20
0.0
 30
0.0
  0
ARC
  5
41E
  8
0
  6
DOT
 62
     7
 10
190.53442821716001
 20
115.38863947149
 30
0.0
 40
1.0
 50
2.5972171906398001
 51
90.000000000002004
  0
ARC
  5
41F
  8
0
  6
DOT
 62
     7
 10
190.53442821716001
 20
115.38863947149
 30
0.0
 40
1.0
 50
89.999999999996987
 51
177.40278280929999
  0
LINE
  5
420
  8
0
  6
DOT
 62
     7
 10
189.03442821716001
 20
105.88863947149
 30
0.0
 11
189.53545544530999
 21
115.43395394037999
 31
0.0
  0
ARC
  5
421
  8
0
  6
HIDDEN
 62
     7
 10
322.94582279501998
 20
164.38863947149
 30
0.0
 40
1.0
 50
272.59721719053999
 51
0.0
  0
ARC
  5
422
  8
0
  6
HIDDEN
 62
     7
 10
322.94582279501998
 20
164.38863947149
 30
0.0
 40
1.0
 50
0.0000000000016284
 51
87.402782809417005
  0
ARC
  5
423
  8
0
  6
HIDDEN
 62
     7
 10
239.43442821715999
 20
164.38863947149
 30
0.0
 40
1.0
 50
180.0
 51
267.40278280927998
  0
ARC
  5
424
  8
0
  6
HIDDEN
 62
     7
 10
239.43442821715999
 20
164.38863947149
 30
0.0
 40
1.0
 50
92.597217190752005
 51
180.0
  0
ARC
  5
425
  8
0
  6
HIDDEN
 62
     7
 10
371.94582279501998
 20
115.38863947148
 30
0.0
 40
1.0
 50
2.5972171913080002
 51
90.00000000002899
  0
ARC
  5
426
  8
0
  6
HIDDEN
 62
     7
 10
371.94582279501998
 20
115.38863947148
 30
0.0
 40
1.0
 50
89.999999999970996
 51
177.40278280871999
  0
LINE
  5
427
  8
0
  6
HIDDEN
 62
     2
 10
189.19189622823001
 20
108.88863947148
 30
0.0
 11
190.53442821716001
 21
108.88863947148
 31
0.0
  0
LINE
  5
428
  8
0
  6
HIDDEN
 62
     2
 10
189.08691755417999
 20
106.88863947148
 30
0.0
 11
190.53442821716001
 21
106.88863947148
 31
0.0
  0
LINE
  5
429
  8
0
  6
HIDDEN
 62
     2
 10
191.8769602060899
 20
108.88863947148
 30
0.0
 11
190.53442821716001
 21
108.88863947148
 31
0.0
  0
LINE
  5
42A
  8
0
  6
HIDDEN
 62
     2
 10
191.98193888014001
 20
106.88863947148
 30
0.0
 11
190.53442821716001
 21
106.88863947148
 31
0.0
  0
LINE
  5
42B
  8
0
  6
HIDDEN
 62
     7
 10
192.03442821716001
 20
105.88863947149
 30
0.0
 11
191.53340098902001
 21
115.43395394037999
 31
0.0
  0
LINE
  5
42C
  8
0
  6
HIDDEN
 62
     2
 10
247.91422411427999
 20
164.38863947149
 30
0.0
 11
247.91422411427999
 21
165.83508963450001
 31
0.0
  0
LINE
  5
42D
  8
0
  6
HIDDEN
 62
     2
 10
246.93442821715999
 20
165.73117146042
 30
0.0
 11
246.93442821715999
 21
164.38863947149
 31
0.0
  0
LINE
  5
42E
  8
0
  6
HIDDEN
 62
     7
 10
248.93442821715999
 20
165.88863947149
 30
0.0
 11
239.38911374827001
 21
165.38761224333999
 31
0.0
  0
LINE
  5
42F
  8
0
  6
HIDDEN
 62
     2
 10
247.91422411427999
 20
164.38863947149
 30
0.0
 11
247.91422411427999
 21
162.94218930847001
 31
0.0
  0
LINE
  5
430
  8
0
  6
HIDDEN
 62
     2
 10
246.93442821715999
 20
163.04610748255001
 30
0.0
 11
246.93442821715999
 21
164.38863947149
 31
0.0
  0
LINE
  5
431
  8
0
  6
HIDDEN
 62
     7
 10
248.93442821715999
 20
162.88863947149
 30
0.0
 11
239.38911374827001
 21
163.38966669963
 31
0.0
  0
LINE
  5
432
  8
0
  6
HIDDEN
 62
     2
 10
314.46602689790001
 20
164.38863947149
 30
0.0
 11
314.46602689790001
 21
165.77432032922999
 31
0.0
  0
LINE
  5
433
  8
0
  6
HIDDEN
 62
     2
 10
315.44582279501998
 20
164.38863947149
 30
0.0
 11
315.44582279501998
 21
165.68451467874999
 31
0.0
  0
LINE
  5
434
  8
0
  6
HIDDEN
 62
     7
 10
313.44582279501998
 20
165.82059787391
 30
0.0
 11
322.99113726390999
 21
165.38761224333999
 31
0.0
  0
LINE
  5
435
  8
0
  6
HIDDEN
 62
     2
 10
314.46602689790001
 20
164.38863947149
 30
0.0
 11
314.46602689790001
 21
163.00295861373999
 31
0.0
  0
LINE
  5
436
  8
0
  6
HIDDEN
 62
     2
 10
315.44582279501998
 20
164.38863947149
 30
0.0
 11
315.44582279501998
 21
163.09276426421999
 31
0.0
  0
LINE
  5
437
  8
0
  6
HIDDEN
 62
     7
 10
313.44582279501998
 20
162.95668106906001
 30
0.0
 11
322.99113726390999
 21
163.38966669963
 31
0.0
  0
LINE
  5
438
  8
0
  6
HIDDEN
 62
     2
 10
370.64994758774998
 20
108.88863947149
 30
0.0
 11
371.94582279501998
 21
108.88863947149
 31
0.0
  0
LINE
  5
439
  8
0
  6
HIDDEN
 62
     2
 10
370.55922545764997
 20
106.88863947149
 30
0.0
 11
371.94582279501998
 21
106.88863947149
 31
0.0
  0
LINE
  5
43A
  8
0
  6
HIDDEN
 62
     7
 10
370.51386439258999
 20
105.88863947149
 30
0.0
 11
370.94685002315998
 21
115.43395394037999
 31
0.0
  0
LINE
  5
43B
  8
0
  6
HIDDEN
 62
     2
 10
373.24169800227997
 20
108.88863947149
 30
0.0
 11
371.94582279501998
 21
108.88863947149
 31
0.0
  0
LINE
  5
43C
  8
0
  6
HIDDEN
 62
     2
 10
373.33242013238998
 20
106.88863947149
 30
0.0
 11
371.94582279501998
 21
106.88863947149
 31
0.0
  0
LINE
  5
43D
  8
0
  6
HIDDEN
 62
     7
 10
373.37778119744002
 20
105.88863947149
 30
0.0
 11
372.94479556687003
 21
115.43395394037999
 31
0.0
  0
CIRCLE
  5
43E
  8
0
  6
CONTINUOUS
 62
     7
 10
105.47154283080999
 20
164.38863947149
 30
0.0
 40
15.0
  0
LINE
  5
43F
  8
0
  6
DASHDOT
 62
     2
 10
83.471542830811998
 20
164.38863947149
 30
0.0
 11
127.47154283080999
 21
164.38863947149
 31
0.0
  0
LINE
  5
440
  8
0
  6
DASHDOT
 62
     2
 10
105.47154283080999
 20
186.38863947149
 30
0.0
 11
105.47154283080999
 21
142.38863947149
 31
0.0
  0
POLYLINE
  5
441
  8
0
  6
CONTINUOUS
 62
     2
 66
     1
 10
0.0
 20
0.0
 30
0.0
 70
     1
  0
VERTEX
  5
7B9
  8
0
  6
CONTINUOUS
 62
     2
 10
81.522625910499002
 20
194.13482613951999
 30
0.0
  0
VERTEX
  5
7BA
  8
0
  6
CONTINUOUS
 62
     2
 10
81.522625910499002
 20
122.97578577887001
 30
0.0
  0
VERTEX
  5
7BB
  8
0
  6
CONTINUOUS
 62
     2
 10
138.82495909695999
 20
122.97578577887001
 30
0.0
  0
VERTEX
  5
7BC
  8
0
  6
CONTINUOUS
 62
     2
 10
138.82495909695999
 20
194.13482613951999
 30
0.0
  0
SEQEND
  5
7BD
  8
0
  6
CONTINUOUS
 62
     2
  0
INSERT
  5
442
  8
0
  2
BLOCK002
 10
0.0
 20
0.0
 30
0.0
  0
LINE
  5
443
  8
0
  6
DIVIDE
 62
     3
 10
58.704085948523989
 20
184.38863947149
 30
0.0
 11
54.704085948524003
 21
184.38863947149
 31
0.0
  0
LINE
  5
444
  8
0
  6
DIVIDE
 62
     3
 10
53.104085948524002
 20
184.38863947149
 30
0.0
 11
49.704085948524003
 21
184.38863947149
 31
0.0
  0
LINE
  5
445
  8
0
  6
DIVIDE
 62
     3
 10
48.104085948524002
 20
184.38863947149
 30
0.0
 11
30.704085948524
 21
184.38863947149
 31
0.0
  0
INSERT
  5
446
  8
0
  2
BLOCK003
 10
0.0
 20
0.0
 30
0.0
  0
LINE
  5
447
  8
0
  6
DIVIDE
 62
     3
 10
30.704085948524
 20
184.38863947149
 30
0.0
 11
30.704085948524
 21
173.34037427196
 31
0.0
  0
LINE
  5
448
  8
0
  6
DIVIDE
 62
     3
 10
58.704085948523989
 20
184.38863947149
 30
0.0
 11
58.704085948523989
 21
173.34037427196
 31
0.0
  0
LINE
  5
449
  8
0
  6
CONTINUOUS
 62
     3
 10
30.004085948524001
 20
180.38863947149
 30
0.0
 11
30.004085948524001
 21
199.38863947149
 31
0.0
  0
LINE
  5
44A
  8
0
  6
CONTINUOUS
 62
     7
 10
30.704085948524
 20
180.38863947149
 30
0.0
 11
30.704085948524
 21
199.38863947149
 31
0.0
  0
POLYLINE
  5
44B
  8
0
  6
CONTINUOUS
 62
     7
 66
     1
 10
0.0
 20
0.0
 30
0.0
  0
VERTEX
  5
7BE
  8
0
  6
CONTINUOUS
 62
     7
 10
29.204085948524
 20
199.38863947149
 30
0.0
  0
VERTEX
  5
7BF
  8
0
  6
CONTINUOUS
 62
     7
 10
29.204085948524
 20
181.18863947149001
 30
0.0
  0
VERTEX
  5
7C0
  8
0
  6
CONTINUOUS
 62
     7
 10
30.004085948524001
 20
180.38863947149
 30
0.0
  0
VERTEX
  5
7C1
  8
0
  6
CONTINUOUS
 62
     7
 10
30.704085948524
 20
180.38863947149
 30
0.0
  0
SEQEND
  5
7C2
  8
0
  6
CONTINUOUS
 62
     7
  0
ARC
  5
44C
  8
0
  6
CONTINUOUS
 62
     7
 10
42.204085948519001
 20
184.98863947148999
 30
0.0
 40
0.5
 50
270.00000000054001
 51
0.0
  0
LINE
  5
44D
  8
0
  6
CONTINUOUS
 62
     7
 10
34.704085948524003
 20
195.53223569945001
 30
0.0
 11
36.704085948524003
 21
195.53223569945001
 31
0.0
  0
LINE
  5
44E
  8
0
  6
CONTINUOUS
 62
     7
 10
34.704085948524003
 20
193.90941963166
 30
0.0
 11
36.704085948524003
 21
195.53223569945001
 31
0.0
  0
LINE
  5
44F
  8
0
  6
CONTINUOUS
 62
     7
 10
39.704085948524003
 20
195.53223569945001
 30
0.0
 11
41.704085948523989
 21
195.53223569945001
 31
0.0
  0
LINE
  5
450
  8
0
  6
CONTINUOUS
 62
     7
 10
39.704085948524003
 20
193.90941963166
 30
0.0
 11
41.704085948523989
 21
195.53223569945001
 31
0.0
  0
LINE
  5
451
  8
0
  6
CONTINUOUS
 62
     7
 10
41.704085948523989
 20
184.99634465976999
 30
0.0
 11
41.704085948523989
 21
195.53223569943
 31
0.0
  0
LINE
  5
452
  8
0
  6
CONTINUOUS
 62
     7
 10
39.704085948524003
 20
195.53223569943
 30
0.0
 11
39.704085948524003
 21
184.99634465976999
 31
0.0
  0
LINE
  5
453
  8
0
  6
CONTINUOUS
 62
     7
 10
36.704085948524003
 20
184.99634465976999
 30
0.0
 11
36.704085948524003
 21
195.53223569943
 31
0.0
  0
LINE
  5
454
  8
0
  6
CONTINUOUS
 62
     7
 10
34.704085948524003
 20
195.53223569943
 30
0.0
 11
34.704085948524003
 21
184.99634465976999
 31
0.0
  0
LINE
  5
455
  8
0
  6
CONTINUOUS
 62
     7
 10
41.704085948523989
 20
184.99634465976999
 30
0.0
 11
39.704085948524003
 21
184.99634465976999
 31
0.0
  0
LINE
  5
456
  8
0
  6
CONTINUOUS
 62
     7
 10
36.704085948524003
 20
184.99634465976999
 30
0.0
 11
34.704085948524003
 21
184.99634465976999
 31
0.0
  0
LINE
  5
457
  8
0
  6
CONTINUOUS
 62
     7
 10
42.204085948524003
 20
184.48863947148999
 30
0.0
 11
30.704085948524
 21
184.48863947148999
 31
0.0
  0
POLYLINE
  5
458
  8
0
  6
DOT
 62
     2
 66
     1
 10
0.0
 20
0.0
 30
0.0
  0
VERTEX
  5
7C3
  8
0
  6
DOT
 62
     2
 10
39.704085948524003
 20
184.48863947148999
 30
0.0
  0
VERTEX
  5
7C4
  8
0
  6
DOT
 62
     2
 10
39.704085948524003
 20
183.98863947148999
 30
0.0
  0
VERTEX
  5
7C5
  8
0
  6
DOT
 62
     2
 10
41.704085948523989
 20
184.48863947148999
 30
0.0
  0
SEQEND
  5
7C6
  8
0
  6
DOT
 62
     2
  0
POLYLINE
  5
459
  8
0
  6
DOT
 62
     2
 66
     1
 10
0.0
 20
0.0
 30
0.0
  0
VERTEX
  5
7C7
  8
0
  6
DOT
 62
     2
 10
34.704085948524003
 20
184.48863947148999
 30
0.0
  0
VERTEX
  5
7C8
  8
0
  6
DOT
 62
     2
 10
34.704085948524003
 20
183.98863947148999
 30
0.0
  0
VERTEX
  5
7C9
  8
0
  6
DOT
 62
     2
 10
36.704085948524003
 20
184.48863947148999
 30
0.0
  0
SEQEND
  5
7CA
  8
0
  6
DOT
 62
     2
  0
LINE
  5
45A
  8
0
  6
CONTINUOUS
 62
     7
 10
42.704085948523989
 20
199.38863947149
 30
0.0
 11
42.704085948523989
 21
184.98863947148999
 31
0.0
  0
POLYLINE
  5
45B
  8
0
  6
DOT
 62
     2
 66
     1
 10
0.0
 20
0.0
 30
0.0
  0
VERTEX
  5
7CB
  8
0
  6
DOT
 62
     2
 10
39.704085948524003
 20
184.48863947148999
 30
0.0
  0
VERTEX
  5
7CC
  8
0
  6
DOT
 62
     2
 10
39.704085948524003
 20
183.98863947148999
 30
0.0
  0
VERTEX
  5
7CD
  8
0
  6
DOT
 62
     2
 10
41.704085948523989
 20
184.48863947148999
 30
0.0
  0
SEQEND
  5
7CE
  8
0
  6
DOT
 62
     2
  0
POLYLINE
  5
45C
  8
0
  6
DOT
 62
     2
 66
     1
 10
0.0
 20
0.0
 30
0.0
  0
VERTEX
  5
7CF
  8
0
  6
DOT
 62
     2
 10
34.704085948524003
 20
184.48863947148999
 30
0.0
  0
VERTEX
  5
7D0
  8
0
  6
DOT
 62
     2
 10
34.704085948524003
 20
183.98863947148999
 30
0.0
  0
VERTEX
  5
7D1
  8
0
  6
DOT
 62
     2
 10
36.704085948524003
 20
184.48863947148999
 30
0.0
  0
SEQEND
  5
7D2
  8
0
  6
DOT
 62
     2
  0
LINE
  5
45D
  8
0
  6
CONTINUOUS
 62
     7
 10
42.704085948523989
 20
188.78863947149
 30
0.0
 11
42.704085948523989
 21
187.08863947149001
 31
0.0
  0
LINE
  5
45E
  8
0
  6
DOT
 62
     2
 10
29.204085948524
 20
185.48863947148999
 30
0.0
 11
29.704085948524
 21
185.98863947148999
 31
0.0
  0
ARC
  5
45F
  8
0
  6
DOT
 62
     2
 10
43.204085948523989
 20
190.03863947148
 30
0.0
 40
0.5
 50
90.0
 51
179.99999999978999
  0
LINE
  5
460
  8
0
  6
DOT
 62
     2
 10
42.704085948523989
 20
188.78863947149
 30
0.0
 11
42.704085948523989
 21
190.03863947149
 31
0.0
  0
LINE
  5
461
  8
0
  6
DASHDOT
 62
     2
 10
64.799311631990008
 20
199.38863947149
 30
0.0
 11
25.504504443474001
 21
199.38863947149
 31
0.0
  0
LINE
  5
462
  8
0
  6
CONTINUOUS
 62
     3
 10
59.404085948523992
 20
180.38863947149
 30
0.0
 11
59.404085948523992
 21
199.38863947149
 31
0.0
  0
LINE
  5
463
  8
0
  6
CONTINUOUS
 62
     7
 10
58.704085948523989
 20
180.38863947149
 30
0.0
 11
58.704085948523989
 21
199.38863947149
 31
0.0
  0
POLYLINE
  5
464
  8
0
  6
CONTINUOUS
 62
     7
 66
     1
 10
0.0
 20
0.0
 30
0.0
  0
VERTEX
  5
7D3
  8
0
  6
CONTINUOUS
 62
     7
 10
60.204085948523989
 20
199.38863947149
 30
0.0
  0
VERTEX
  5
7D4
  8
0
  6
CONTINUOUS
 62
     7
 10
60.204085948523989
 20
181.18863947149001
 30
0.0
  0
VERTEX
  5
7D5
  8
0
  6
CONTINUOUS
 62
     7
 10
59.404085948523992
 20
180.38863947149
 30
0.0
  0
VERTEX
  5
7D6
  8
0
  6
CONTINUOUS
 62
     7
 10
58.704085948523989
 20
180.38863947149
 30
0.0
  0
SEQEND
  5
7D7
  8
0
  6
CONTINUOUS
 62
     7
  0
LINE
  5
465
  8
0
  6
CONTINUOUS
 62
     7
 10
52.704085948523989
 20
184.99634465976999
 30
0.0
 11
52.704085948523989
 21
195.53223569943
 31
0.0
  0
LINE
  5
466
  8
0
  6
CONTINUOUS
 62
     7
 10
54.704085948524003
 20
195.53223569943
 30
0.0
 11
54.704085948524003
 21
184.99634465976999
 31
0.0
  0
LINE
  5
467
  8
0
  6
CONTINUOUS
 62
     7
 10
52.704085948523989
 20
184.99634465976999
 30
0.0
 11
54.704085948524003
 21
184.99634465976999
 31
0.0
  0
LINE
  5
468
  8
0
  6
CONTINUOUS
 62
     7
 10
47.704085948523989
 20
184.99634465976999
 30
0.0
 11
47.704085948523989
 21
195.53223569943
 31
0.0
  0
LINE
  5
469
  8
0
  6
CONTINUOUS
 62
     7
 10
47.704085948523989
 20
184.99634465976999
 30
0.0
 11
49.704085948524003
 21
184.99634465976999
 31
0.0
  0
LINE
  5
46A
  8
0
  6
CONTINUOUS
 62
     7
 10
49.704085948524003
 20
193.90941963166
 30
0.0
 11
47.704085948523989
 21
195.53223569945001
 31
0.0
  0
LINE
  5
46B
  8
0
  6
CONTINUOUS
 62
     7
 10
49.704085948524003
 20
195.53223569943
 30
0.0
 11
49.704085948524003
 21
184.99634465976999
 31
0.0
  0
LINE
  5
46C
  8
0
  6
CONTINUOUS
 62
     7
 10
49.704085948524003
 20
195.53223569945001
 30
0.0
 11
47.704085948523989
 21
195.53223569945001
 31
0.0
  0
LINE
  5
46D
  8
0
  6
CONTINUOUS
 62
     7
 10
54.704085948524003
 20
195.53223569945001
 30
0.0
 11
52.704085948523989
 21
195.53223569945001
 31
0.0
  0
LINE
  5
46E
  8
0
  6
CONTINUOUS
 62
     7
 10
54.704085948524003
 20
193.90941963166
 30
0.0
 11
52.704085948523989
 21
195.53223569945001
 31
0.0
  0
POLYLINE
  5
46F
  8
0
  6
DOT
 62
     2
 66
     1
 10
0.0
 20
0.0
 30
0.0
  0
VERTEX
  5
7D8
  8
0
  6
DOT
 62
     2
 10
49.704085948524003
 20
184.48863947148999
 30
0.0
  0
VERTEX
  5
7D9
  8
0
  6
DOT
 62
     2
 10
49.704085948524003
 20
183.98863947148999
 30
0.0
  0
VERTEX
  5
7DA
  8
0
  6
DOT
 62
     2
 10
47.704085948523989
 20
184.48863947148999
 30
0.0
  0
SEQEND
  5
7DB
  8
0
  6
DOT
 62
     2
  0
POLYLINE
  5
470
  8
0
  6
DOT
 62
     2
 66
     1
 10
0.0
 20
0.0
 30
0.0
  0
VERTEX
  5
7DC
  8
0
  6
DOT
 62
     2
 10
54.704085948524003
 20
184.48863947148999
 30
0.0
  0
VERTEX
  5
7DD
  8
0
  6
DOT
 62
     2
 10
54.704085948524003
 20
183.98863947148999
 30
0.0
  0
VERTEX
  5
7DE
  8
0
  6
DOT
 62
     2
 10
52.704085948523989
 20
184.48863947148999
 30
0.0
  0
SEQEND
  5
7DF
  8
0
  6
DOT
 62
     2
  0
LINE
  5
471
  8
0
  6
DOT
 62
     2
 10
57.704085948523989
 20
189.08863947149001
 30
0.0
 11
57.704085948523989
 21
199.38863947149
 31
0.0
  0
ARC
  5
472
  8
0
  6
DOT
 62
     2
 10
57.204085948524003
 20
189.08863947147989
 30
0.0
 40
0.5
 50
270.0
 51
0.0000000007034878
  0
POLYLINE
  5
473
  8
0
  6
DOT
 62
     2
 66
     1
 10
0.0
 20
0.0
 30
0.0
  0
VERTEX
  5
7E0
  8
0
  6
DOT
 62
     2
 10
49.704085948524003
 20
184.48863947148999
 30
0.0
  0
VERTEX
  5
7E1
  8
0
  6
DOT
 62
     2
 10
49.704085948524003
 20
183.98863947148999
 30
0.0
  0
VERTEX
  5
7E2
  8
0
  6
DOT
 62
     2
 10
47.704085948523989
 20
184.48863947148999
 30
0.0
  0
SEQEND
  5
7E3
  8
0
  6
DOT
 62
     2
  0
POLYLINE
  5
474
  8
0
  6
DOT
 62
     2
 66
     1
 10
0.0
 20
0.0
 30
0.0
  0
VERTEX
  5
7E4
  8
0
  6
DOT
 62
     2
 10
54.704085948524003
 20
184.48863947148999
 30
0.0
  0
VERTEX
  5
7E5
  8
0
  6
DOT
 62
     2
 10
54.704085948524003
 20
183.98863947148999
 30
0.0
  0
VERTEX
  5
7E6
  8
0
  6
DOT
 62
     2
 10
52.704085948523989
 20
184.48863947148999
 30
0.0
  0
SEQEND
  5
7E7
  8
0
  6
DOT
 62
     2
  0
POINT
  5
475
  8
0
 62
     2
 10
43.204085948523989
 20
188.58863947149001
 30
0.0
  0
ARC
  5
476
  8
0
  6
DOT
 62
     2
 10
43.704085948523989
 20
188.08863947147989
 30
0.0
 40
0.5
 50
90.0
 51
179.99999999929
  0
ARC
  5
477
  8
0
  6
DOT
 62
     2
 10
43.704085948523989
 20
188.08863947147989
 30
0.0
 40
0.5
 50
90.0
 51
179.99999999929
  0
ARC
  5
478
  8
0
  6
CONTINUOUS
 62
     7
 10
47.204085948524003
 20
184.98863947148999
 30
0.0
 40
0.5
 50
180.00000000022999
 51
270.0
  0
LINE
  5
479
  8
0
  6
CONTINUOUS
 62
     7
 10
47.204085948524003
 20
184.48863947148999
 30
0.0
 11
58.704085948523989
 21
184.48863947148999
 31
0.0
  0
LINE
  5
47A
  8
0
  6
CONTINUOUS
 62
     7
 10
46.704085948523989
 20
184.98863947148999
 30
0.0
 11
46.704085948523989
 21
197.95668106906001
 31
0.0
  0
LINE
  5
47B
  8
0
  6
DOT
 62
     2
 10
60.204085948523989
 20
185.48863947148999
 30
0.0
 11
59.704085948524003
 21
185.98863947148999
 31
0.0
  0
LINE
  5
47C
  8
0
  6
CONTINUOUS
 62
     7
 10
43.204085948523989
 20
199.38863947149
 30
0.0
 11
43.204085948523989
 21
187.58863947149001
 31
0.0
  0
ARC
  5
47D
  8
0
  6
DOT
 62
     2
 10
55.229085948523988
 20
189.56363947149001
 30
0.0
 40
0.975
 50
270.0
 51
0.0000000000016702
  0
LINE
  5
47E
  8
0
  6
DOT
 62
     2
 10
54.479085948524002
 20
188.58863947149001
 30
0.0
 11
55.229085948523988
 21
188.58863947149001
 31
0.0
  0
LINE
  5
47F
  8
0
  6
DOT
 62
     2
 10
43.704085948523989
 20
188.58863947149001
 30
0.0
 11
57.204085948524003
 21
188.58863947149001
 31
0.0
  0
LINE
  5
480
  8
0
  6
DOT
 62
     2
 10
43.704085948523989
 20
188.58863947149001
 30
0.0
 11
57.204085948524003
 21
188.58863947149001
 31
0.0
  0
ARC
  5
481
  8
0
  6
DOT
 62
     2
 10
56.704085948524003
 20
189.28863947148
 30
0.0
 40
0.5
 50
270.0
 51
0.0000000002149546
  0
POINT
  5
482
  8
0
 62
     2
 10
57.204085948524003
 20
188.78863947149
 30
0.0
  0
LINE
  5
483
  8
0
  6
DOT
 62
     2
 10
57.204085948524003
 20
189.28863947148989
 30
0.0
 11
57.204085948524003
 21
199.38863947149
 31
0.0
  0
ARC
  5
484
  8
0
  6
DOT
 62
     2
 10
54.479085948524002
 20
189.56363947149001
 30
0.0
 40
0.975
 50
180.0
 51
269.99999999999
  0
ARC
  5
485
  8
0
  6
CONTINUOUS
 62
     7
 10
43.204085948523989
 20
190.03863947148
 30
0.0
 40
0.5
 50
90.0
 51
179.99999999978999
  0
LINE
  5
486
  8
0
  6
CONTINUOUS
 62
     7
 10
42.704085948523989
 20
199.38863947149
 30
0.0
 11
42.704085948523989
 21
184.98863947148999
 31
0.0
  0
POINT
  5
487
  8
0
 62
     2
 10
53.504085948524001
 20
188.78863947149
 30
0.0
  0
ARC
  5
488
  8
0
  6
DOT
 62
     2
 10
53.304085948521013
 20
188.9886394714899
 30
0.0
 40
0.2
 50
270.00000000095002
 51
0.0
  0
LINE
  5
489
  8
0
  6
DOT
 62
     2
 10
53.004085948514998
 20
188.78863947149
 30
0.0
 11
53.304085948523998
 21
188.78863947149
 31
0.0
  0
ARC
  5
48A
  8
0
  6
DOT
 62
     2
 10
53.004085948521997
 20
189.28863947148989
 30
0.0
 40
0.5
 50
180.0
 51
270.00000000023999
  0
LINE
  5
48B
  8
0
  6
DOT
 62
     2
 10
43.204085948523989
 20
190.53863947148989
 30
0.0
 11
52.004085948524001
 21
190.53863947148989
 31
0.0
  0
ARC
  5
48C
  8
0
  6
DOT
 62
     2
 10
52.004085948524001
 20
190.03863947149
 30
0.0
 40
0.5
 50
0.0
 51
90.0
  0
LINE
  5
48D
  8
0
  6
CONTINUOUS
 62
     7
 10
43.204085948523989
 20
187.58863947149001
 30
0.0
 11
46.704085948523989
 21
186.88863947149
 31
0.0
  0
LINE
  5
48E
  8
0
  6
DIVIDE
 62
     3
 10
58.704085948523989
 20
214.38863947149
 30
0.0
 11
54.704085948524003
 21
214.38863947149
 31
0.0
  0
LINE
  5
48F
  8
0
  6
DIVIDE
 62
     3
 10
53.104085948524002
 20
214.38863947149
 30
0.0
 11
49.704085948524003
 21
214.38863947149
 31
0.0
  0
LINE
  5
490
  8
0
  6
DIVIDE
 62
     3
 10
48.104085948524002
 20
214.38863947149
 30
0.0
 11
30.704085948524
 21
214.38863947149
 31
0.0
  0
INSERT
  5
491
  8
0
  2
BLOCK004
 10
0.0
 20
0.0
 30
0.0
  0
LINE
  5
492
  8
0
  6
DIVIDE
 62
     3
 10
30.704085948524
 20
214.38863947149
 30
0.0
 11
30.704085948524
 21
225.43690467101001
 31
0.0
  0
LINE
  5
493
  8
0
  6
DIVIDE
 62
     3
 10
58.704085948523989
 20
214.38863947149
 30
0.0
 11
58.704085948523989
 21
225.43690467101001
 31
0.0
  0
LINE
  5
494
  8
0
  6
CONTINUOUS
 62
     3
 10
30.004085948524001
 20
218.38863947149
 30
0.0
 11
30.004085948524001
 21
199.38863947149
 31
0.0
  0
LINE
  5
495
  8
0
  6
CONTINUOUS
 62
     7
 10
30.704085948524
 20
218.38863947149
 30
0.0
 11
30.704085948524
 21
199.38863947149
 31
0.0
  0
POLYLINE
  5
496
  8
0
  6
CONTINUOUS
 62
     7
 66
     1
 10
0.0
 20
0.0
 30
0.0
  0
VERTEX
  5
7E8
  8
0
  6
CONTINUOUS
 62
     7
 10
29.204085948524
 20
199.38863947149
 30
0.0
  0
VERTEX
  5
7E9
  8
0
  6
CONTINUOUS
 62
     7
 10
29.204085948524
 20
217.58863947149001
 30
0.0
  0
VERTEX
  5
7EA
  8
0
  6
CONTINUOUS
 62
     7
 10
30.004085948524001
 20
218.38863947149
 30
0.0
  0
VERTEX
  5
7EB
  8
0
  6
CONTINUOUS
 62
     7
 10
30.704085948524
 20
218.38863947149
 30
0.0
  0
SEQEND
  5
7EC
  8
0
  6
CONTINUOUS
 62
     7
  0
ARC
  5
497
  8
0
  6
CONTINUOUS
 62
     7
 10
42.204085948519001
 20
213.78863947149
 30
0.0
 40
0.5
 50
0.0
 51
89.999999999422002
  0
LINE
  5
498
  8
0
  6
CONTINUOUS
 62
     7
 10
34.704085948524003
 20
203.24504324353001
 30
0.0
 11
36.704085948524003
 21
203.24504324353001
 31
0.0
  0
LINE
  5
499
  8
0
  6
CONTINUOUS
 62
     7
 10
34.704085948524003
 20
204.86785931131001
 30
0.0
 11
36.704085948524003
 21
203.24504324353001
 31
0.0
  0
LINE
  5
49A
  8
0
  6
CONTINUOUS
 62
     7
 10
39.704085948524003
 20
203.24504324353001
 30
0.0
 11
41.704085948523989
 21
203.24504324353001
 31
0.0
  0
LINE
  5
49B
  8
0
  6
CONTINUOUS
 62
     7
 10
39.704085948524003
 20
204.86785931131001
 30
0.0
 11
41.704085948523989
 21
203.24504324353001
 31
0.0
  0
LINE
  5
49C
  8
0
  6
CONTINUOUS
 62
     7
 10
41.704085948523989
 20
213.7809342832
 30
0.0
 11
41.704085948523989
 21
203.24504324354001
 31
0.0
  0
LINE
  5
49D
  8
0
  6
CONTINUOUS
 62
     7
 10
39.704085948524003
 20
203.24504324354001
 30
0.0
 11
39.704085948524003
 21
213.7809342832
 31
0.0
  0
LINE
  5
49E
  8
0
  6
CONTINUOUS
 62
     7
 10
36.704085948524003
 20
213.7809342832
 30
0.0
 11
36.704085948524003
 21
203.24504324354001
 31
0.0
  0
LINE
  5
49F
  8
0
  6
CONTINUOUS
 62
     7
 10
34.704085948524003
 20
203.24504324354001
 30
0.0
 11
34.704085948524003
 21
213.7809342832
 31
0.0
  0
LINE
  5
4A0
  8
0
  6
CONTINUOUS
 62
     7
 10
41.704085948523989
 20
213.7809342832
 30
0.0
 11
39.704085948524003
 21
213.7809342832
 31
0.0
  0
LINE
  5
4A1
  8
0
  6
CONTINUOUS
 62
     7
 10
36.704085948524003
 20
213.7809342832
 30
0.0
 11
34.704085948524003
 21
213.7809342832
 31
0.0
  0
LINE
  5
4A2
  8
0
  6
CONTINUOUS
 62
     7
 10
42.204085948524003
 20
214.28863947149
 30
0.0
 11
30.704085948524
 21
214.28863947149
 31
0.0
  0
POLYLINE
  5
4A3
  8
0
  6
DOT
 62
     2
 66
     1
 10
0.0
 20
0.0
 30
0.0
  0
VERTEX
  5
7ED
  8
0
  6
DOT
 62
     2
 10
39.704085948524003
 20
214.28863947149
 30
0.0
  0
VERTEX
  5
7EE
  8
0
  6
DOT
 62
     2
 10
39.704085948524003
 20
214.78863947149
 30
0.0
  0
VERTEX
  5
7EF
  8
0
  6
DOT
 62
     2
 10
41.704085948523989
 20
214.28863947149
 30
0.0
  0
SEQEND
  5
7F0
  8
0
  6
DOT
 62
     2
  0
POLYLINE
  5
4A4
  8
0
  6
DOT
 62
     2
 66
     1
 10
0.0
 20
0.0
 30
0.0
  0
VERTEX
  5
7F1
  8
0
  6
DOT
 62
     2
 10
34.704085948524003
 20
214.28863947149
 30
0.0
  0
VERTEX
  5
7F2
  8
0
  6
DOT
 62
     2
 10
34.704085948524003
 20
214.78863947149
 30
0.0
  0
VERTEX
  5
7F3
  8
0
  6
DOT
 62
     2
 10
36.704085948524003
 20
214.28863947149
 30
0.0
  0
SEQEND
  5
7F4
  8
0
  6
DOT
 62
     2
  0
LINE
  5
4A5
  8
0
  6
CONTINUOUS
 62
     7
 10
42.704085948523989
 20
199.38863947149
 30
0.0
 11
42.704085948523989
 21
213.78863947149
 31
0.0
  0
POLYLINE
  5
4A6
  8
0
  6
DOT
 62
     2
 66
     1
 10
0.0
 20
0.0
 30
0.0
  0
VERTEX
  5
7F5
  8
0
  6
DOT
 62
     2
 10
39.704085948524003
 20
214.28863947149
 30
0.0
  0
VERTEX
  5
7F6
  8
0
  6
DOT
 62
     2
 10
39.704085948524003
 20
214.78863947149
 30
0.0
  0
VERTEX
  5
7F7
  8
0
  6
DOT
 62
     2
 10
41.704085948523989
 20
214.28863947149
 30
0.0
  0
SEQEND
  5
7F8
  8
0
  6
DOT
 62
     2
  0
POLYLINE
  5
4A7
  8
0
  6
DOT
 62
     2
 66
     1
 10
0.0
 20
0.0
 30
0.0
  0
VERTEX
  5
7F9
  8
0
  6
DOT
 62
     2
 10
34.704085948524003
 20
214.28863947149
 30
0.0
  0
VERTEX
  5
7FA
  8
0
  6
DOT
 62
     2
 10
34.704085948524003
 20
214.78863947149
 30
0.0
  0
VERTEX
  5
7FB
  8
0
  6
DOT
 62
     2
 10
36.704085948524003
 20
214.28863947149
 30
0.0
  0
SEQEND
  5
7FC
  8
0
  6
DOT
 62
     2
  0
LINE
  5
4A8
  8
0
  6
CONTINUOUS
 62
     7
 10
42.704085948523989
 20
209.98863947148999
 30
0.0
 11
42.704085948523989
 21
211.68863947149001
 31
0.0
  0
LINE
  5
4A9
  8
0
  6
DOT
 62
     2
 10
29.204085948524
 20
213.28863947149
 30
0.0
 11
29.704085948524
 21
212.78863947149
 31
0.0
  0
ARC
  5
4AA
  8
0
  6
DOT
 62
     2
 10
43.204085948523989
 20
208.73863947148999
 30
0.0
 40
0.5
 50
180.00000000023999
 51
270.0
  0
LINE
  5
4AB
  8
0
  6
DOT
 62
     2
 10
42.704085948523989
 20
209.98863947148999
 30
0.0
 11
42.704085948523989
 21
208.73863947148999
 31
0.0
  0
LINE
  5
4AC
  8
0
  6
CONTINUOUS
 62
     3
 10
59.404085948523992
 20
218.38863947149
 30
0.0
 11
59.404085948523992
 21
199.38863947149
 31
0.0
  0
LINE
  5
4AD
  8
0
  6
CONTINUOUS
 62
     7
 10
58.704085948523989
 20
218.38863947149
 30
0.0
 11
58.704085948523989
 21
199.38863947149
 31
0.0
  0
POLYLINE
  5
4AE
  8
0
  6
CONTINUOUS
 62
     7
 66
     1
 10
0.0
 20
0.0
 30
0.0
  0
VERTEX
  5
7FD
  8
0
  6
CONTINUOUS
 62
     7
 10
60.204085948523989
 20
199.38863947149
 30
0.0
  0
VERTEX
  5
7FE
  8
0
  6
CONTINUOUS
 62
     7
 10
60.204085948523989
 20
217.58863947149001
 30
0.0
  0
VERTEX
  5
7FF
  8
0
  6
CONTINUOUS
 62
     7
 10
59.404085948523992
 20
218.38863947149
 30
0.0
  0
VERTEX
  5
800
  8
0
  6
CONTINUOUS
 62
     7
 10
58.704085948523989
 20
218.38863947149
 30
0.0
  0
SEQEND
  5
801
  8
0
  6
CONTINUOUS
 62
     7
  0
LINE
  5
4AF
  8
0
  6
CONTINUOUS
 62
     7
 10
52.704085948523989
 20
213.7809342832
 30
0.0
 11
52.704085948523989
 21
203.24504324354001
 31
0.0
  0
LINE
  5
4B0
  8
0
  6
CONTINUOUS
 62
     7
 10
54.704085948524003
 20
203.24504324354001
 30
0.0
 11
54.704085948524003
 21
213.7809342832
 31
0.0
  0
LINE
  5
4B1
  8
0
  6
CONTINUOUS
 62
     7
 10
52.704085948523989
 20
213.7809342832
 30
0.0
 11
54.704085948524003
 21
213.7809342832
 31
0.0
  0
LINE
  5
4B2
  8
0
  6
CONTINUOUS
 62
     7
 10
47.704085948523989
 20
213.7809342832
 30
0.0
 11
47.704085948523989
 21
203.24504324354001
 31
0.0
  0
LINE
  5
4B3
  8
0
  6
CONTINUOUS
 62
     7
 10
47.704085948523989
 20
213.7809342832
 30
0.0
 11
49.704085948524003
 21
213.7809342832
 31
0.0
  0
LINE
  5
4B4
  8
0
  6
CONTINUOUS
 62
     7
 10
49.704085948524003
 20
204.86785931131001
 30
0.0
 11
47.704085948523989
 21
203.24504324353001
 31
0.0
  0
LINE
  5
4B5
  8
0
  6
CONTINUOUS
 62
     7
 10
49.704085948524003
 20
203.24504324354001
 30
0.0
 11
49.704085948524003
 21
213.7809342832
 31
0.0
  0
LINE
  5
4B6
  8
0
  6
CONTINUOUS
 62
     7
 10
49.704085948524003
 20
203.24504324353001
 30
0.0
 11
47.704085948523989
 21
203.24504324353001
 31
0.0
  0
LINE
  5
4B7
  8
0
  6
CONTINUOUS
 62
     7
 10
54.704085948524003
 20
203.24504324353001
 30
0.0
 11
52.704085948523989
 21
203.24504324353001
 31
0.0
  0
LINE
  5
4B8
  8
0
  6
CONTINUOUS
 62
     7
 10
54.704085948524003
 20
204.86785931131001
 30
0.0
 11
52.704085948523989
 21
203.24504324353001
 31
0.0
  0
POLYLINE
  5
4B9
  8
0
  6
DOT
 62
     2
 66
     1
 10
0.0
 20
0.0
 30
0.0
  0
VERTEX
  5
802
  8
0
  6
DOT
 62
     2
 10
49.704085948524003
 20
214.28863947149
 30
0.0
  0
VERTEX
  5
803
  8
0
  6
DOT
 62
     2
 10
49.704085948524003
 20
214.78863947149
 30
0.0
  0
VERTEX
  5
804
  8
0
  6
DOT
 62
     2
 10
47.704085948523989
 20
214.28863947149
 30
0.0
  0
SEQEND
  5
805
  8
0
  6
DOT
 62
     2
  0
POLYLINE
  5
4BA
  8
0
  6
DOT
 62
     2
 66
     1
 10
0.0
 20
0.0
 30
0.0
  0
VERTEX
  5
806
  8
0
  6
DOT
 62
     2
 10
54.704085948524003
 20
214.28863947149
 30
0.0
  0
VERTEX
  5
807
  8
0
  6
DOT
 62
     2
 10
54.704085948524003
 20
214.78863947149
 30
0.0
  0
VERTEX
  5
808
  8
0
  6
DOT
 62
     2
 10
52.704085948523989
 20
214.28863947149
 30
0.0
  0
SEQEND
  5
809
  8
0
  6
DOT
 62
     2
  0
LINE
  5
4BB
  8
0
  6
DOT
 62
     2
 10
57.704085948523989
 20
209.68863947149001
 30
0.0
 11
57.704085948523989
 21
199.38863947149
 31
0.0
  0
ARC
  5
4BC
  8
0
  6
DOT
 62
     2
 10
57.204085948524003
 20
209.68863947149001
 30
0.0
 40
0.5
 50
0.0000000000911929
 51
90.0
  0
POLYLINE
  5
4BD
  8
0
  6
DOT
 62
     2
 66
     1
 10
0.0
 20
0.0
 30
0.0
  0
VERTEX
  5
80A
  8
0
  6
DOT
 62
     2
 10
49.704085948524003
 20
214.28863947149
 30
0.0
  0
VERTEX
  5
80B
  8
0
  6
DOT
 62
     2
 10
49.704085948524003
 20
214.78863947149
 30
0.0
  0
VERTEX
  5
80C
  8
0
  6
DOT
 62
     2
 10
47.704085948523989
 20
214.28863947149
 30
0.0
  0
SEQEND
  5
80D
  8
0
  6
DOT
 62
     2
  0
POLYLINE
  5
4BE
  8
0
  6
DOT
 62
     2
 66
     1
 10
0.0
 20
0.0
 30
0.0
  0
VERTEX
  5
80E
  8
0
  6
DOT
 62
     2
 10
54.704085948524003
 20
214.28863947149
 30
0.0
  0
VERTEX
  5
80F
  8
0
  6
DOT
 62
     2
 10
54.704085948524003
 20
214.78863947149
 30
0.0
  0
VERTEX
  5
810
  8
0
  6
DOT
 62
     2
 10
52.704085948523989
 20
214.28863947149
 30
0.0
  0
SEQEND
  5
811
  8
0
  6
DOT
 62
     2
  0
POINT
  5
4BF
  8
0
 62
     2
 10
43.204085948523989
 20
210.18863947149001
 30
0.0
  0
ARC
  5
4C0
  8
0
  6
DOT
 62
     2
 10
43.704085948523989
 20
210.68863947149001
 30
0.0
 40
0.5
 50
179.99999999990001
 51
270.0
  0
ARC
  5
4C1
  8
0
  6
DOT
 62
     2
 10
43.704085948523989
 20
210.68863947149001
 30
0.0
 40
0.5
 50
179.99999999990001
 51
270.0
  0
ARC
  5
4C2
  8
0
  6
CONTINUOUS
 62
     7
 10
47.204085948524003
 20
213.78863947148
 30
0.0
 40
0.5
 50
90.0
 51
179.99999999978999
  0
LINE
  5
4C3
  8
0
  6
CONTINUOUS
 62
     7
 10
47.204085948524003
 20
214.28863947149
 30
0.0
 11
58.704085948523989
 21
214.28863947149
 31
0.0
  0
LINE
  5
4C4
  8
0
  6
CONTINUOUS
 62
     7
 10
46.704085948523989
 20
213.78863947149
 30
0.0
 11
46.704085948523989
 21
200.82059787391
 31
0.0
  0
LINE
  5
4C5
  8
0
  6
DOT
 62
     2
 10
60.204085948523989
 20
213.28863947149
 30
0.0
 11
59.704085948524003
 21
212.78863947149
 31
0.0
  0
LINE
  5
4C6
  8
0
  6
CONTINUOUS
 62
     7
 10
43.204085948523989
 20
199.38863947149
 30
0.0
 11
43.204085948523989
 21
211.18863947149001
 31
0.0
  0
LINE
  5
4C7
  8
0
  6
DOT
 62
     2
 10
54.479085948524002
 20
210.18863947149001
 30
0.0
 11
55.229085948523988
 21
210.18863947149001
 31
0.0
  0
LINE
  5
4C8
  8
0
  6
DOT
 62
     2
 10
43.704085948523989
 20
210.18863947149001
 30
0.0
 11
57.204085948524003
 21
210.18863947149001
 31
0.0
  0
LINE
  5
4C9
  8
0
  6
DOT
 62
     2
 10
43.704085948523989
 20
210.18863947149001
 30
0.0
 11
57.204085948524003
 21
210.18863947149001
 31
0.0
  0
ARC
  5
4CA
  8
0
  6
DOT
 62
     2
 10
56.704085948524003
 20
209.48863947148999
 30
0.0
 40
0.5
 50
0.0
 51
90.0
  0
POINT
  5
4CB
  8
0
 62
     2
 10
57.204085948524003
 20
209.98863947148999
 30
0.0
  0
LINE
  5
4CC
  8
0
  6
DOT
 62
     2
 10
57.204085948524003
 20
209.48863947148999
 30
0.0
 11
57.204085948524003
 21
199.38863947149
 31
0.0
  0
ARC
  5
4CD
  8
0
  6
DOT
 62
     2
 10
54.47908594852499
 20
209.21363947149001
 30
0.0
 40
0.975
 50
90.000000000070003
 51
180.0
  0
ARC
  5
4CE
  8
0
  6
CONTINUOUS
 62
     7
 10
43.204085948523989
 20
208.73863947148999
 30
0.0
 40
0.5
 50
180.00000000023999
 51
270.0
  0
LINE
  5
4CF
  8
0
  6
CONTINUOUS
 62
     7
 10
42.704085948523989
 20
199.38863947149
 30
0.0
 11
42.704085948523989
 21
213.78863947149
 31
0.0
  0
POINT
  5
4D0
  8
0
 62
     2
 10
53.504085948524001
 20
209.98863947148999
 30
0.0
  0
ARC
  5
4D1
  8
0
  6
DOT
 62
     2
 10
53.304085948527003
 20
209.78863947149
 30
0.0
 40
0.2
 50
0.0
 51
90.000000000797996
  0
LINE
  5
4D2
  8
0
  6
DOT
 62
     2
 10
53.004085948514998
 20
209.98863947148999
 30
0.0
 11
53.304085948523998
 21
209.98863947148999
 31
0.0
  0
ARC
  5
4D3
  8
0
  6
DOT
 62
     2
 10
53.004085948521997
 20
209.48863947148999
 30
0.0
 40
0.5
 50
89.999999999791996
 51
180.0
  0
LINE
  5
4D4
  8
0
  6
DOT
 62
     2
 10
43.204085948523989
 20
208.23863947148999
 30
0.0
 11
52.004085948524001
 21
208.23863947148999
 31
0.0
  0
ARC
  5
4D5
  8
0
  6
DOT
 62
     2
 10
52.004085948524001
 20
208.73863947148001
 30
0.0
 40
0.5
 50
270.0
 51
0.0000000002149546
  0
LINE
  5
4D6
  8
0
  6
CONTINUOUS
 62
     7
 10
43.204085948523989
 20
211.18863947149001
 30
0.0
 11
46.704085948523989
 21
211.88863947149
 31
0.0
  0
DIMENSION
  5
4D7
  8
0
  6
CONTINUOUS
 62
     2
  2
*D14
 10
58.704085948523989
 20
228.34514658572999
 30
0.0
 11
44.704085948524003
 21
228.34514658572999
 31
0.0
 13
30.704085948524
 23
225.43690467101001
 33
0.0
 14
58.704085948523989
 24
225.43690467101001
 34
0.0
  0
ARC
  5
4D8
  8
0
  6
DOT
 62
     2
 10
89.204085948523996
 20
199.38863947149
 30
0.0
 40
60.0
 50
167.09510849630999
 51
180.0
  0
LINE
  5
4D9
  8
0
  6
DOT
 62
     2
 10
29.704085948524
 20
212.78863947149
 30
0.0
 11
30.719558080035998
 21
212.78863947149
 31
0.0
  0
ARC
  5
4DA
  8
0
  6
DOT
 62
     2
 10
0.20408594852389
 20
199.38863947149
 30
0.0
 40
60.0
 50
0.0
 51
12.904891503687001
  0
LINE
  5
4DB
  8
0
  6
DOT
 62
     2
 10
59.704085948524003
 20
212.78863947149
 30
0.0
 11
58.688613817011998
 21
212.78863947149
 31
0.0
  0
LINE
  5
4DC
  8
0
  6
DOT
 62
     2
 10
53.504085948524001
 20
209.78863947149
 30
0.0
 11
53.504085948524001
 21
199.38863947149
 31
0.0
  0
POINT
  5
4DD
  8
0
 62
     2
 10
56.204085948523989
 20
188.78863947149
 30
0.0
  0
ARC
  5
4DE
  8
0
  6
DOT
 62
     2
 10
56.404085948522003
 20
188.9886394714899
 30
0.0
 40
0.2
 50
180.00000000001
 51
270.00000000045998
  0
POINT
  5
4DF
  8
0
 62
     2
 10
56.204085948523989
 20
188.78863947149
 30
0.0
  0
LINE
  5
4E0
  8
0
  6
DOT
 62
     2
 10
56.704085948532999
 20
188.78863947149
 30
0.0
 11
56.404085948523999
 21
188.78863947149
 31
0.0
  0
ARC
  5
4E1
  8
0
  6
DOT
 62
     2
 10
0.2040859485239
 20
199.38863947149
 30
0.0
 40
60.0
 50
347.09510849630999
 51
0.0000000000001628
  0
LINE
  5
4E2
  8
0
  6
DOT
 62
     2
 10
59.704085948524003
 20
185.98863947148999
 30
0.0
 11
58.688613817011998
 21
185.98863947148999
 31
0.0
  0
ARC
  5
4E3
  8
0
  6
DOT
 62
     2
 10
55.229085948523988
 20
209.21363947149001
 30
0.0
 40
0.975
 50
0.0
 51
90.000000000002004
  0
POINT
  5
4E4
  8
0
 62
     2
 10
56.204085948523989
 20
209.98863947148999
 30
0.0
  0
ARC
  5
4E5
  8
0
  6
DOT
 62
     2
 10
56.404085948515991
 20
209.78863947149
 30
0.0
 40
0.2
 50
89.999999997775006
 51
179.99999999999
  0
POINT
  5
4E6
  8
0
 62
     2
 10
56.204085948523989
 20
209.98863947148999
 30
0.0
  0
LINE
  5
4E7
  8
0
  6
DOT
 62
     2
 10
56.704085948532999
 20
209.98863947148999
 30
0.0
 11
56.404085948523999
 21
209.98863947148999
 31
0.0
  0
LINE
  5
4E8
  8
0
  6
DOT
 62
     2
 10
56.204085948523989
 20
199.38863947149
 30
0.0
 11
56.204085948523989
 21
209.78863947149
 31
0.0
  0
LINE
  5
4E9
  8
0
  6
DOT
 62
     2
 10
53.504085948524001
 20
188.9886394714899
 30
0.0
 11
53.504085948524001
 21
199.38863947149
 31
0.0
  0
LINE
  5
4EA
  8
0
  6
DOT
 62
     2
 10
56.204085948523989
 20
199.38863947149
 30
0.0
 11
56.204085948523989
 21
188.9886394714899
 31
0.0
  0
LINE
  5
4EB
  8
0
  6
DOT
 62
     2
 10
52.504085948524001
 20
199.38863947149
 30
0.0
 11
52.504085948524001
 21
189.28863947148989
 31
0.0
  0
LINE
  5
4EC
  8
0
  6
DOT
 62
     2
 10
52.504085948524001
 20
199.38863947149
 30
0.0
 11
52.504085948524001
 21
209.48863947148999
 31
0.0
  0
ARC
  5
4ED
  8
0
  6
DOT
 62
     2
 10
89.204085948523996
 20
199.38863947149
 30
0.0
 40
60.0
 50
180.0
 51
192.90489150369001
  0
LINE
  5
4EE
  8
0
  6
DOT
 62
     2
 10
29.704085948524
 20
185.98863947148999
 30
0.0
 11
30.719558080035998
 21
185.98863947148999
 31
0.0
  0
ARC
  5
4EF
  8
0
  6
HIDDEN
 62
     7
 10
33.204085948526
 20
199.38863947149
 30
0.0
 40
1.0
 50
92.597217190811008
 51
180.00000000001
  0
LINE
  5
4F0
  8
0
  6
HIDDEN
 62
     7
 10
42.704085948523989
 20
200.88863947149
 30
0.0
 11
33.158771479633998
 21
200.38761224333999
 31
0.0
  0
ARC
  5
4F1
  8
0
  6
HIDDEN
 62
     7
 10
33.204085948527997
 20
199.38863947149
 30
0.0
 40
1.0
 50
179.99999999999
 51
267.40278280908001
  0
LINE
  5
4F2
  8
0
  6
HIDDEN
 62
     7
 10
42.704085948523989
 20
197.88863947149
 30
0.0
 11
33.158771479633998
 21
198.38966669963
 31
0.0
  0
ARC
  5
4F3
  8
0
  6
HIDDEN
 62
     7
 10
56.204085948523989
 20
199.38863947149
 30
0.0
 40
1.0
 50
0.0
 51
87.402782809337978
  0
LINE
  5
4F4
  8
0
  6
HIDDEN
 62
     7
 10
46.704085948523989
 20
200.82059787391
 30
0.0
 11
56.249400417413
 21
200.38761224333999
 31
0.0
  0
LINE
  5
4F5
  8
0
  6
HIDDEN
 62
     7
 10
46.704085948523989
 20
197.95668106906001
 30
0.0
 11
56.249400417413
 21
198.38966669963
 31
0.0
  0
ARC
  5
4F6
  8
0
  6
HIDDEN
 62
     7
 10
56.204085948523002
 20
199.38863947149
 30
0.0
 40
1.0
 50
272.5972171907701
 51
0.0000000000065138
  0
LINE
  5
4F7
  8
0
  6
HIDDEN
 62
     2
 10
47.724290051411998
 20
199.38863947149
 30
0.0
 11
47.724290051411998
 21
198.00295861373999
 31
0.0
  0
LINE
  5
4F8
  8
0
  6
HIDDEN
 62
     2
 10
48.704085948523989
 20
199.38863947149
 30
0.0
 11
48.704085948523989
 21
198.09276426421999
 31
0.0
  0
LINE
  5
4F9
  8
0
  6
HIDDEN
 62
     2
 10
41.683881845637998
 20
199.38863947149
 30
0.0
 11
41.683881845637998
 21
197.94218930847001
 31
0.0
  0
LINE
  5
4FA
  8
0
  6
HIDDEN
 62
     2
 10
41.683881845637998
 20
199.38863947149
 30
0.0
 11
41.683881845637998
 21
200.83508963450001
 31
0.0
  0
LINE
  5
4FB
  8
0
  6
HIDDEN
 62
     2
 10
40.704085948523989
 20
200.73117146042
 30
0.0
 11
40.704085948523989
 21
199.38863947149
 31
0.0
  0
LINE
  5
4FC
  8
0
  6
HIDDEN
 62
     2
 10
40.704085948523989
 20
198.04610748255001
 30
0.0
 11
40.704085948523989
 21
199.38863947149
 31
0.0
  0
LINE
  5
4FD
  8
0
  6
HIDDEN
 62
     2
 10
47.724290051411998
 20
199.38863947149
 30
0.0
 11
47.724290051411998
 21
200.77432032922999
 31
0.0
  0
LINE
  5
4FE
  8
0
  6
HIDDEN
 62
     2
 10
48.704085948523989
 20
199.38863947149
 30
0.0
 11
48.704085948523989
 21
200.68451467874999
 31
0.0
  0
LINE
  5
4FF
  8
0
  6
DIVIDE
 62
     3
 10
30.704085948524
 20
110.38863947149
 30
0.0
 11
30.704085948524
 21
103.34037427196
 31
0.0
  0
LINE
  5
500
  8
0
  6
DIVIDE
 62
     3
 10
34.704085948524003
 20
114.38863947149
 30
0.0
 11
30.704085948524
 21
114.38863947149
 31
0.0
  0
LINE
  5
501
  8
0
  6
DIVIDE
 62
     3
 10
66.704085948523996
 20
110.38863947149
 30
0.0
 11
66.704085948523996
 21
103.34037427196
 31
0.0
  0
LINE
  5
502
  8
0
  6
DIVIDE
 62
     3
 10
66.704085948523996
 20
114.38863947149
 30
0.0
 11
62.704085948523989
 21
114.38863947149
 31
0.0
  0
LINE
  5
503
  8
0
  6
DIVIDE
 62
     3
 10
56.104085948523988
 20
114.38863947149
 30
0.0
 11
41.304085948523998
 21
114.38863947149
 31
0.0
  0
LINE
  5
504
  8
0
  6
DIVIDE
 62
     3
 10
61.104085948523988
 20
114.38863947149
 30
0.0
 11
57.704085948523989
 21
114.38863947149
 31
0.0
  0
DIMENSION
  5
505
  8
0
  6
CONTINUOUS
 62
     2
  2
*D15
 10
30.704085948524
 20
159.27372358247001
 30
0.0
 11
29.954085948524
 21
159.27372358247001
 31
0.0
 13
29.204085948524
 23
147.58863947149001
 33
0.0
 14
30.704085948524
 24
155.74046337867
 34
0.0
  0
DIMENSION
  5
506
  8
0
  6
CONTINUOUS
 62
     2
  2
*D16
 10
66.704085948523996
 20
159.27372358247001
 30
0.0
 11
48.704085948523989
 21
159.27372358247001
 31
0.0
 13
30.704085948524
 23
155.74046337867
 33
0.0
 14
66.704085948523996
 24
155.74046337867
 34
0.0
  0
DIMENSION
  5
507
  8
0
  6
CONTINUOUS
 62
     2
  2
*D17
 10
68.204085948523996
 20
159.27372358247001
 30
0.0
 11
67.454085948523996
 21
159.27372358247001
 31
0.0
 13
66.704085948523996
 23
155.74046337867
 33
0.0
 14
68.204085948523996
 24
147.58863947149001
 34
0.0
  0
INSERT
  5
508
  8
0
  2
BLOCK005
 10
0.0
 20
0.0
 30
0.0
  0
LINE
  5
509
  8
0
  6
CONTINUOUS
 62
     3
 10
30.004085948524001
 20
110.38863947149
 30
0.0
 11
30.004085948524001
 21
129.38863947149
 31
0.0
  0
LINE
  5
50A
  8
0
  6
CONTINUOUS
 62
     7
 10
30.704085948524
 20
110.38863947149
 30
0.0
 11
30.704085948524
 21
129.38863947149
 31
0.0
  0
POLYLINE
  5
50B
  8
0
  6
CONTINUOUS
 62
     7
 66
     1
 10
0.0
 20
0.0
 30
0.0
  0
VERTEX
  5
812
  8
0
  6
CONTINUOUS
 62
     7
 10
29.204085948524
 20
129.38863947149
 30
0.0
  0
VERTEX
  5
813
  8
0
  6
CONTINUOUS
 62
     7
 10
29.204085948524
 20
111.18863947149001
 30
0.0
  0
VERTEX
  5
814
  8
0
  6
CONTINUOUS
 62
     7
 10
30.004085948524001
 20
110.38863947149
 30
0.0
  0
VERTEX
  5
815
  8
0
  6
CONTINUOUS
 62
     7
 10
30.704085948524
 20
110.38863947149
 30
0.0
  0
SEQEND
  5
816
  8
0
  6
CONTINUOUS
 62
     7
  0
ARC
  5
50C
  8
0
  6
CONTINUOUS
 62
     7
 10
42.204085948523002
 20
114.98863947149
 30
0.0
 40
0.5
 50
270.00000000013
 51
0.0
  0
LINE
  5
50D
  8
0
  6
CONTINUOUS
 62
     7
 10
34.704085948524003
 20
125.53223569945
 30
0.0
 11
36.704085948524003
 21
125.53223569945
 31
0.0
  0
LINE
  5
50E
  8
0
  6
CONTINUOUS
 62
     7
 10
34.704085948524003
 20
123.90941963166
 30
0.0
 11
36.704085948524003
 21
125.53223569945
 31
0.0
  0
LINE
  5
50F
  8
0
  6
CONTINUOUS
 62
     7
 10
39.704085948524003
 20
125.53223569945
 30
0.0
 11
41.704085948523989
 21
125.53223569945
 31
0.0
  0
LINE
  5
510
  8
0
  6
CONTINUOUS
 62
     7
 10
39.704085948524003
 20
123.90941963166
 30
0.0
 11
41.704085948523989
 21
125.53223569945
 31
0.0
  0
LINE
  5
511
  8
0
  6
CONTINUOUS
 62
     7
 10
41.704085948523989
 20
114.99634465977
 30
0.0
 11
41.704085948523989
 21
125.53223569943
 31
0.0
  0
LINE
  5
512
  8
0
  6
CONTINUOUS
 62
     7
 10
39.704085948524003
 20
125.53223569943
 30
0.0
 11
39.704085948524003
 21
114.99634465977
 31
0.0
  0
LINE
  5
513
  8
0
  6
CONTINUOUS
 62
     7
 10
36.704085948524003
 20
114.99634465977
 30
0.0
 11
36.704085948524003
 21
125.53223569943
 31
0.0
  0
LINE
  5
514
  8
0
  6
CONTINUOUS
 62
     7
 10
34.704085948524003
 20
125.53223569943
 30
0.0
 11
34.704085948524003
 21
114.99634465977
 31
0.0
  0
LINE
  5
515
  8
0
  6
CONTINUOUS
 62
     7
 10
41.704085948523989
 20
114.99634465977
 30
0.0
 11
39.704085948524003
 21
114.99634465977
 31
0.0
  0
LINE
  5
516
  8
0
  6
CONTINUOUS
 62
     7
 10
36.704085948524003
 20
114.99634465977
 30
0.0
 11
34.704085948524003
 21
114.99634465977
 31
0.0
  0
LINE
  5
517
  8
0
  6
CONTINUOUS
 62
     7
 10
42.204085948524003
 20
114.48863947149
 30
0.0
 11
30.704085948524
 21
114.48863947149
 31
0.0
  0
POLYLINE
  5
518
  8
0
  6
DOT
 62
     2
 66
     1
 10
0.0
 20
0.0
 30
0.0
  0
VERTEX
  5
817
  8
0
  6
DOT
 62
     2
 10
39.704085948524003
 20
114.48863947149
 30
0.0
  0
VERTEX
  5
818
  8
0
  6
DOT
 62
     2
 10
39.704085948524003
 20
113.98863947149
 30
0.0
  0
VERTEX
  5
819
  8
0
  6
DOT
 62
     2
 10
41.704085948523989
 20
114.48863947149
 30
0.0
  0
SEQEND
  5
81A
  8
0
  6
DOT
 62
     2
  0
POLYLINE
  5
519
  8
0
  6
DOT
 62
     2
 66
     1
 10
0.0
 20
0.0
 30
0.0
  0
VERTEX
  5
81B
  8
0
  6
DOT
 62
     2
 10
34.704085948524003
 20
114.48863947149
 30
0.0
  0
VERTEX
  5
81C
  8
0
  6
DOT
 62
     2
 10
34.704085948524003
 20
113.98863947149
 30
0.0
  0
VERTEX
  5
81D
  8
0
  6
DOT
 62
     2
 10
36.704085948524003
 20
114.48863947149
 30
0.0
  0
SEQEND
  5
81E
  8
0
  6
DOT
 62
     2
  0
LINE
  5
51A
  8
0
  6
CONTINUOUS
 62
     7
 10
42.704085948523989
 20
129.38863947149
 30
0.0
 11
42.704085948523989
 21
114.98863947149
 31
0.0
  0
POLYLINE
  5
51B
  8
0
  6
DOT
 62
     2
 66
     1
 10
0.0
 20
0.0
 30
0.0
  0
VERTEX
  5
81F
  8
0
  6
DOT
 62
     2
 10
39.704085948524003
 20
114.48863947149
 30
0.0
  0
VERTEX
  5
820
  8
0
  6
DOT
 62
     2
 10
39.704085948524003
 20
113.98863947149
 30
0.0
  0
VERTEX
  5
821
  8
0
  6
DOT
 62
     2
 10
41.704085948523989
 20
114.48863947149
 30
0.0
  0
SEQEND
  5
822
  8
0
  6
DOT
 62
     2
  0
POLYLINE
  5
51C
  8
0
  6
DOT
 62
     2
 66
     1
 10
0.0
 20
0.0
 30
0.0
  0
VERTEX
  5
823
  8
0
  6
DOT
 62
     2
 10
34.704085948524003
 20
114.48863947149
 30
0.0
  0
VERTEX
  5
824
  8
0
  6
DOT
 62
     2
 10
34.704085948524003
 20
113.98863947149
 30
0.0
  0
VERTEX
  5
825
  8
0
  6
DOT
 62
     2
 10
36.704085948524003
 20
114.48863947149
 30
0.0
  0
SEQEND
  5
826
  8
0
  6
DOT
 62
     2
  0
LINE
  5
51D
  8
0
  6
DOT
 62
     2
 10
29.204085948524
 20
115.48863947149
 30
0.0
 11
29.704085948524
 21
115.98863947149
 31
0.0
  0
LINE
  5
51E
  8
0
  6
DASHDOT
 62
     2
 10
72.136698659879997
 20
129.38863947149
 30
0.0
 11
23.958692170852
 21
129.38863947149
 31
0.0
  0
LINE
  5
51F
  8
0
  6
CONTINUOUS
 62
     3
 10
67.404085948523999
 20
110.38863947149
 30
0.0
 11
67.404085948523999
 21
129.38863947149
 31
0.0
  0
LINE
  5
520
  8
0
  6
CONTINUOUS
 62
     7
 10
66.704085948523996
 20
110.38863947149
 30
0.0
 11
66.704085948523996
 21
129.38863947149
 31
0.0
  0
POLYLINE
  5
521
  8
0
  6
CONTINUOUS
 62
     7
 66
     1
 10
0.0
 20
0.0
 30
0.0
  0
VERTEX
  5
827
  8
0
  6
CONTINUOUS
 62
     7
 10
68.204085948523996
 20
129.38863947149
 30
0.0
  0
VERTEX
  5
828
  8
0
  6
CONTINUOUS
 62
     7
 10
68.204085948523996
 20
111.18863947149001
 30
0.0
  0
VERTEX
  5
829
  8
0
  6
CONTINUOUS
 62
     7
 10
67.404085948523999
 20
110.38863947149
 30
0.0
  0
VERTEX
  5
82A
  8
0
  6
CONTINUOUS
 62
     7
 10
66.704085948523996
 20
110.38863947149
 30
0.0
  0
SEQEND
  5
82B
  8
0
  6
CONTINUOUS
 62
     7
  0
LINE
  5
522
  8
0
  6
CONTINUOUS
 62
     7
 10
60.704085948523989
 20
114.99634465977
 30
0.0
 11
60.704085948523989
 21
125.53223569943
 31
0.0
  0
LINE
  5
523
  8
0
  6
CONTINUOUS
 62
     7
 10
62.704085948523989
 20
125.53223569943
 30
0.0
 11
62.704085948523989
 21
114.99634465977
 31
0.0
  0
LINE
  5
524
  8
0
  6
CONTINUOUS
 62
     7
 10
60.704085948523989
 20
114.99634465977
 30
0.0
 11
62.704085948523989
 21
114.99634465977
 31
0.0
  0
LINE
  5
525
  8
0
  6
CONTINUOUS
 62
     7
 10
55.704085948523989
 20
114.99634465977
 30
0.0
 11
55.704085948523989
 21
125.53223569943
 31
0.0
  0
LINE
  5
526
  8
0
  6
CONTINUOUS
 62
     7
 10
55.704085948523989
 20
114.99634465977
 30
0.0
 11
57.704085948523989
 21
114.99634465977
 31
0.0
  0
LINE
  5
527
  8
0
  6
CONTINUOUS
 62
     7
 10
57.704085948523989
 20
123.90941963166
 30
0.0
 11
55.704085948523989
 21
125.53223569945
 31
0.0
  0
LINE
  5
528
  8
0
  6
CONTINUOUS
 62
     7
 10
57.704085948523989
 20
125.53223569943
 30
0.0
 11
57.704085948523989
 21
114.99634465977
 31
0.0
  0
LINE
  5
529
  8
0
  6
CONTINUOUS
 62
     7
 10
57.704085948523989
 20
125.53223569945
 30
0.0
 11
55.704085948523989
 21
125.53223569945
 31
0.0
  0
LINE
  5
52A
  8
0
  6
CONTINUOUS
 62
     7
 10
62.704085948523989
 20
125.53223569945
 30
0.0
 11
60.704085948523989
 21
125.53223569945
 31
0.0
  0
LINE
  5
52B
  8
0
  6
CONTINUOUS
 62
     7
 10
62.704085948523989
 20
123.90941963166
 30
0.0
 11
60.704085948523989
 21
125.53223569945
 31
0.0
  0
POLYLINE
  5
52C
  8
0
  6
DOT
 62
     2
 66
     1
 10
0.0
 20
0.0
 30
0.0
  0
VERTEX
  5
82C
  8
0
  6
DOT
 62
     2
 10
57.704085948523989
 20
114.48863947149
 30
0.0
  0
VERTEX
  5
82D
  8
0
  6
DOT
 62
     2
 10
57.704085948523989
 20
113.98863947149
 30
0.0
  0
VERTEX
  5
82E
  8
0
  6
DOT
 62
     2
 10
55.704085948523989
 20
114.48863947149
 30
0.0
  0
SEQEND
  5
82F
  8
0
  6
DOT
 62
     2
  0
POLYLINE
  5
52D
  8
0
  6
DOT
 62
     2
 66
     1
 10
0.0
 20
0.0
 30
0.0
  0
VERTEX
  5
830
  8
0
  6
DOT
 62
     2
 10
62.704085948523989
 20
114.48863947149
 30
0.0
  0
VERTEX
  5
831
  8
0
  6
DOT
 62
     2
 10
62.704085948523989
 20
113.98863947149
 30
0.0
  0
VERTEX
  5
832
  8
0
  6
DOT
 62
     2
 10
60.704085948523989
 20
114.48863947149
 30
0.0
  0
SEQEND
  5
833
  8
0
  6
DOT
 62
     2
  0
POLYLINE
  5
52E
  8
0
  6
DOT
 62
     2
 66
     1
 10
0.0
 20
0.0
 30
0.0
  0
VERTEX
  5
834
  8
0
  6
DOT
 62
     2
 10
57.704085948523989
 20
114.48863947149
 30
0.0
  0
VERTEX
  5
835
  8
0
  6
DOT
 62
     2
 10
57.704085948523989
 20
113.98863947149
 30
0.0
  0
VERTEX
  5
836
  8
0
  6
DOT
 62
     2
 10
55.704085948523989
 20
114.48863947149
 30
0.0
  0
SEQEND
  5
837
  8
0
  6
DOT
 62
     2
  0
POLYLINE
  5
52F
  8
0
  6
DOT
 62
     2
 66
     1
 10
0.0
 20
0.0
 30
0.0
  0
VERTEX
  5
838
  8
0
  6
DOT
 62
     2
 10
62.704085948523989
 20
114.48863947149
 30
0.0
  0
VERTEX
  5
839
  8
0
  6
DOT
 62
     2
 10
62.704085948523989
 20
113.98863947149
 30
0.0
  0
VERTEX
  5
83A
  8
0
  6
DOT
 62
     2
 10
60.704085948523989
 20
114.48863947149
 30
0.0
  0
SEQEND
  5
83B
  8
0
  6
DOT
 62
     2
  0
ARC
  5
530
  8
0
  6
CONTINUOUS
 62
     7
 10
55.204085948523989
 20
114.98863947148
 30
0.0
 40
0.5
 50
179.99999999981989
 51
270.0
  0
LINE
  5
531
  8
0
  6
CONTINUOUS
 62
     7
 10
55.204085948523989
 20
114.48863947149
 30
0.0
 11
66.704085948523996
 21
114.48863947149
 31
0.0
  0
LINE
  5
532
  8
0
  6
CONTINUOUS
 62
     7
 10
54.704085948524003
 20
114.98863947149
 30
0.0
 11
54.704085948524003
 21
127.95668106906
 31
0.0
  0
LINE
  5
533
  8
0
  6
DOT
 62
     2
 10
68.204085948523996
 20
115.48863947149
 30
0.0
 11
67.704085948523996
 21
115.98863947149
 31
0.0
  0
POINT
  5
534
  8
0
 62
     2
 10
51.204085948523989
 20
118.58863947149
 30
0.0
  0
ARC
  5
535
  8
0
  6
DOT
 62
     2
 10
51.704085948524003
 20
118.0886394714899
 30
0.0
 40
0.5
 50
90.0
 51
180.00000000013
  0
ARC
  5
536
  8
0
  6
DOT
 62
     2
 10
51.704085948524003
 20
118.0886394714899
 30
0.0
 40
0.5
 50
90.0
 51
180.00000000013
  0
LINE
  5
537
  8
0
  6
CONTINUOUS
 62
     7
 10
51.204085948523989
 20
129.38863947149
 30
0.0
 11
51.204085948523989
 21
117.58863947149
 31
0.0
  0
LINE
  5
538
  8
0
  6
DOT
 62
     2
 10
51.704085948524003
 20
118.58863947149
 30
0.0
 11
65.204085948523996
 21
118.58863947149
 31
0.0
  0
LINE
  5
539
  8
0
  6
DOT
 62
     2
 10
51.704085948524003
 20
118.58863947149
 30
0.0
 11
65.204085948523996
 21
118.58863947149
 31
0.0
  0
LINE
  5
53A
  8
0
  6
CONTINUOUS
 62
     7
 10
51.204085948523989
 20
117.58863947149
 30
0.0
 11
54.704085948524003
 21
116.8886394714899
 31
0.0
  0
LINE
  5
53B
  8
0
  6
DOT
 62
     2
 10
65.704085948523996
 20
119.0886394714899
 30
0.0
 11
65.704085948523996
 21
129.38863947149
 31
0.0
  0
ARC
  5
53C
  8
0
  6
DOT
 62
     2
 10
65.204085948523996
 20
119.0886394714899
 30
0.0
 40
0.5
 50
270.0
 51
0.0000000000781653
  0
POINT
  5
53D
  8
0
 62
     2
 10
57.204085948524003
 20
118.78863947149
 30
0.0
  0
LINE
  5
53E
  8
0
  6
DOT
 62
     2
 10
57.204085948524003
 20
119.28863947149
 30
0.0
 11
57.204085948524003
 21
129.38863947149
 31
0.0
  0
LINE
  5
53F
  8
0
  6
DOT
 62
     2
 10
53.504085948524001
 20
119.28863947149
 30
0.0
 11
53.504085948524001
 21
120.03863947149
 31
0.0
  0
ARC
  5
540
  8
0
  6
DOT
 62
     2
 10
54.479085948524002
 20
119.56363947149001
 30
0.0
 40
0.975
 50
180.0
 51
269.99999999996999
  0
POINT
  5
541
  8
0
 62
     2
 10
53.504085948524001
 20
118.78863947149
 30
0.0
  0
ARC
  5
542
  8
0
  6
DOT
 62
     2
 10
53.304085948526001
 20
118.98863947149
 30
0.0
 40
0.2
 50
269.99999999949
 51
0.0
  0
LINE
  5
543
  8
0
  6
DOT
 62
     2
 10
53.004085948514998
 20
118.78863947149
 30
0.0
 11
53.304085948523998
 21
118.78863947149
 31
0.0
  0
LINE
  5
544
  8
0
  6
DOT
 62
     2
 10
54.479085948524002
 20
118.58863947149
 30
0.0
 11
55.229085948523988
 21
118.58863947149
 31
0.0
  0
ARC
  5
545
  8
0
  6
DOT
 62
     2
 10
53.004085948524001
 20
119.28863947149
 30
0.0
 40
0.5
 50
180.0
 51
270.0000000000299
  0
LINE
  5
546
  8
0
  6
DOT
 62
     2
 10
43.204085948523989
 20
120.53863947149
 30
0.0
 11
52.004085948524001
 21
120.53863947149
 31
0.0
  0
ARC
  5
547
  8
0
  6
DOT
 62
     2
 10
52.004085948524001
 20
120.03863947149
 30
0.0
 40
0.5
 50
0.0
 51
90.0
  0
ARC
  5
548
  8
0
  6
DOT
 62
     2
 10
43.204085948523989
 20
120.03863947149
 30
0.0
 40
0.5
 50
90.0
 51
180.00000000021001
  0
ARC
  5
549
  8
0
  6
CONTINUOUS
 62
     7
 10
43.204085948523989
 20
120.03863947149
 30
0.0
 40
0.5
 50
90.0
 51
180.00000000021001
  0
LINE
  5
54A
  8
0
  6
CONTINUOUS
 62
     7
 10
43.204085948523989
 20
120.53863947149
 30
0.0
 11
51.204085948523989
 21
120.53863947149
 31
0.0
  0
LINE
  5
54B
  8
0
  6
DIVIDE
 62
     3
 10
30.704085948524
 20
148.38863947149
 30
0.0
 11
30.704085948524
 21
155.43690467101001
 31
0.0
  0
LINE
  5
54C
  8
0
  6
DIVIDE
 62
     3
 10
34.704085948524003
 20
144.38863947149
 30
0.0
 11
30.704085948524
 21
144.38863947149
 31
0.0
  0
LINE
  5
54D
  8
0
  6
DIVIDE
 62
     3
 10
66.704085948523996
 20
148.38863947149
 30
0.0
 11
66.704085948523996
 21
155.43690467101001
 31
0.0
  0
LINE
  5
54E
  8
0
  6
DIVIDE
 62
     3
 10
66.704085948523996
 20
144.38863947149
 30
0.0
 11
62.704085948523989
 21
144.38863947149
 31
0.0
  0
LINE
  5
54F
  8
0
  6
DIVIDE
 62
     3
 10
56.104085948523988
 20
144.38863947149
 30
0.0
 11
41.304085948523998
 21
144.38863947149
 31
0.0
  0
LINE
  5
550
  8
0
  6
DIVIDE
 62
     3
 10
61.104085948523988
 20
144.38863947149
 30
0.0
 11
57.704085948523989
 21
144.38863947149
 31
0.0
  0
INSERT
  5
551
  8
0
  2
BLOCK006
 10
0.0
 20
0.0
 30
0.0
  0
LINE
  5
552
  8
0
  6
CONTINUOUS
 62
     3
 10
30.004085948524001
 20
148.38863947149
 30
0.0
 11
30.004085948524001
 21
129.38863947149
 31
0.0
  0
LINE
  5
553
  8
0
  6
CONTINUOUS
 62
     7
 10
30.704085948524
 20
148.38863947149
 30
0.0
 11
30.704085948524
 21
129.38863947149
 31
0.0
  0
POLYLINE
  5
554
  8
0
  6
CONTINUOUS
 62
     7
 66
     1
 10
0.0
 20
0.0
 30
0.0
  0
VERTEX
  5
83C
  8
0
  6
CONTINUOUS
 62
     7
 10
29.204085948524
 20
129.38863947149
 30
0.0
  0
VERTEX
  5
83D
  8
0
  6
CONTINUOUS
 62
     7
 10
29.204085948524
 20
147.58863947149001
 30
0.0
  0
VERTEX
  5
83E
  8
0
  6
CONTINUOUS
 62
     7
 10
30.004085948524001
 20
148.38863947149
 30
0.0
  0
VERTEX
  5
83F
  8
0
  6
CONTINUOUS
 62
     7
 10
30.704085948524
 20
148.38863947149
 30
0.0
  0
SEQEND
  5
840
  8
0
  6
CONTINUOUS
 62
     7
  0
ARC
  5
555
  8
0
  6
CONTINUOUS
 62
     7
 10
42.204085948523002
 20
143.78863947148989
 30
0.0
 40
0.5
 50
0.0
 51
89.999999999839005
  0
LINE
  5
556
  8
0
  6
CONTINUOUS
 62
     7
 10
34.704085948524003
 20
133.24504324353001
 30
0.0
 11
36.704085948524003
 21
133.24504324353001
 31
0.0
  0
LINE
  5
557
  8
0
  6
CONTINUOUS
 62
     7
 10
34.704085948524003
 20
134.86785931131001
 30
0.0
 11
36.704085948524003
 21
133.24504324353001
 31
0.0
  0
LINE
  5
558
  8
0
  6
CONTINUOUS
 62
     7
 10
39.704085948524003
 20
133.24504324353001
 30
0.0
 11
41.704085948523989
 21
133.24504324353001
 31
0.0
  0
LINE
  5
559
  8
0
  6
CONTINUOUS
 62
     7
 10
39.704085948524003
 20
134.86785931131001
 30
0.0
 11
41.704085948523989
 21
133.24504324353001
 31
0.0
  0
LINE
  5
55A
  8
0
  6
CONTINUOUS
 62
     7
 10
41.704085948523989
 20
143.7809342832
 30
0.0
 11
41.704085948523989
 21
133.24504324354001
 31
0.0
  0
LINE
  5
55B
  8
0
  6
CONTINUOUS
 62
     7
 10
39.704085948524003
 20
133.24504324354001
 30
0.0
 11
39.704085948524003
 21
143.7809342832
 31
0.0
  0
LINE
  5
55C
  8
0
  6
CONTINUOUS
 62
     7
 10
36.704085948524003
 20
143.7809342832
 30
0.0
 11
36.704085948524003
 21
133.24504324354001
 31
0.0
  0
LINE
  5
55D
  8
0
  6
CONTINUOUS
 62
     7
 10
34.704085948524003
 20
133.24504324354001
 30
0.0
 11
34.704085948524003
 21
143.7809342832
 31
0.0
  0
LINE
  5
55E
  8
0
  6
CONTINUOUS
 62
     7
 10
41.704085948523989
 20
143.7809342832
 30
0.0
 11
39.704085948524003
 21
143.7809342832
 31
0.0
  0
LINE
  5
55F
  8
0
  6
CONTINUOUS
 62
     7
 10
36.704085948524003
 20
143.7809342832
 30
0.0
 11
34.704085948524003
 21
143.7809342832
 31
0.0
  0
LINE
  5
560
  8
0
  6
CONTINUOUS
 62
     7
 10
42.204085948524003
 20
144.28863947148989
 30
0.0
 11
30.704085948524
 21
144.28863947148989
 31
0.0
  0
POLYLINE
  5
561
  8
0
  6
DOT
 62
     2
 66
     1
 10
0.0
 20
0.0
 30
0.0
  0
VERTEX
  5
841
  8
0
  6
DOT
 62
     2
 10
39.704085948524003
 20
144.28863947148989
 30
0.0
  0
VERTEX
  5
842
  8
0
  6
DOT
 62
     2
 10
39.704085948524003
 20
144.78863947148989
 30
0.0
  0
VERTEX
  5
843
  8
0
  6
DOT
 62
     2
 10
41.704085948523989
 20
144.28863947148989
 30
0.0
  0
SEQEND
  5
844
  8
0
  6
DOT
 62
     2
  0
POLYLINE
  5
562
  8
0
  6
DOT
 62
     2
 66
     1
 10
0.0
 20
0.0
 30
0.0
  0
VERTEX
  5
845
  8
0
  6
DOT
 62
     2
 10
34.704085948524003
 20
144.28863947148989
 30
0.0
  0
VERTEX
  5
846
  8
0
  6
DOT
 62
     2
 10
34.704085948524003
 20
144.78863947148989
 30
0.0
  0
VERTEX
  5
847
  8
0
  6
DOT
 62
     2
 10
36.704085948524003
 20
144.28863947148989
 30
0.0
  0
SEQEND
  5
848
  8
0
  6
DOT
 62
     2
  0
LINE
  5
563
  8
0
  6
CONTINUOUS
 62
     7
 10
42.704085948523989
 20
129.38863947149
 30
0.0
 11
42.704085948523989
 21
143.78863947148989
 31
0.0
  0
POLYLINE
  5
564
  8
0
  6
DOT
 62
     2
 66
     1
 10
0.0
 20
0.0
 30
0.0
  0
VERTEX
  5
849
  8
0
  6
DOT
 62
     2
 10
39.704085948524003
 20
144.28863947148989
 30
0.0
  0
VERTEX
  5
84A
  8
0
  6
DOT
 62
     2
 10
39.704085948524003
 20
144.78863947148989
 30
0.0
  0
VERTEX
  5
84B
  8
0
  6
DOT
 62
     2
 10
41.704085948523989
 20
144.28863947148989
 30
0.0
  0
SEQEND
  5
84C
  8
0
  6
DOT
 62
     2
  0
POLYLINE
  5
565
  8
0
  6
DOT
 62
     2
 66
     1
 10
0.0
 20
0.0
 30
0.0
  0
VERTEX
  5
84D
  8
0
  6
DOT
 62
     2
 10
34.704085948524003
 20
144.28863947148989
 30
0.0
  0
VERTEX
  5
84E
  8
0
  6
DOT
 62
     2
 10
34.704085948524003
 20
144.78863947148989
 30
0.0
  0
VERTEX
  5
84F
  8
0
  6
DOT
 62
     2
 10
36.704085948524003
 20
144.28863947148989
 30
0.0
  0
SEQEND
  5
850
  8
0
  6
DOT
 62
     2
  0
LINE
  5
566
  8
0
  6
DOT
 62
     2
 10
29.204085948524
 20
143.28863947148989
 30
0.0
 11
29.704085948524
 21
142.78863947148989
 31
0.0
  0
LINE
  5
567
  8
0
  6
CONTINUOUS
 62
     3
 10
67.404085948523999
 20
148.38863947149
 30
0.0
 11
67.404085948523999
 21
129.38863947149
 31
0.0
  0
LINE
  5
568
  8
0
  6
CONTINUOUS
 62
     7
 10
66.704085948523996
 20
148.38863947149
 30
0.0
 11
66.704085948523996
 21
129.38863947149
 31
0.0
  0
POLYLINE
  5
569
  8
0
  6
CONTINUOUS
 62
     7
 66
     1
 10
0.0
 20
0.0
 30
0.0
  0
VERTEX
  5
851
  8
0
  6
CONTINUOUS
 62
     7
 10
68.204085948523996
 20
129.38863947149
 30
0.0
  0
VERTEX
  5
852
  8
0
  6
CONTINUOUS
 62
     7
 10
68.204085948523996
 20
147.58863947149001
 30
0.0
  0
VERTEX
  5
853
  8
0
  6
CONTINUOUS
 62
     7
 10
67.404085948523999
 20
148.38863947149
 30
0.0
  0
VERTEX
  5
854
  8
0
  6
CONTINUOUS
 62
     7
 10
66.704085948523996
 20
148.38863947149
 30
0.0
  0
SEQEND
  5
855
  8
0
  6
CONTINUOUS
 62
     7
  0
LINE
  5
56A
  8
0
  6
CONTINUOUS
 62
     7
 10
60.704085948523989
 20
143.7809342832
 30
0.0
 11
60.704085948523989
 21
133.24504324354001
 31
0.0
  0
LINE
  5
56B
  8
0
  6
CONTINUOUS
 62
     7
 10
62.704085948523989
 20
133.24504324354001
 30
0.0
 11
62.704085948523989
 21
143.7809342832
 31
0.0
  0
LINE
  5
56C
  8
0
  6
CONTINUOUS
 62
     7
 10
60.704085948523989
 20
143.7809342832
 30
0.0
 11
62.704085948523989
 21
143.7809342832
 31
0.0
  0
LINE
  5
56D
  8
0
  6
CONTINUOUS
 62
     7
 10
55.704085948523989
 20
143.7809342832
 30
0.0
 11
55.704085948523989
 21
133.24504324354001
 31
0.0
  0
LINE
  5
56E
  8
0
  6
CONTINUOUS
 62
     7
 10
55.704085948523989
 20
143.7809342832
 30
0.0
 11
57.704085948523989
 21
143.7809342832
 31
0.0
  0
LINE
  5
56F
  8
0
  6
CONTINUOUS
 62
     7
 10
57.704085948523989
 20
134.86785931131001
 30
0.0
 11
55.704085948523989
 21
133.24504324353001
 31
0.0
  0
LINE
  5
570
  8
0
  6
CONTINUOUS
 62
     7
 10
57.704085948523989
 20
133.24504324354001
 30
0.0
 11
57.704085948523989
 21
143.7809342832
 31
0.0
  0
LINE
  5
571
  8
0
  6
CONTINUOUS
 62
     7
 10
57.704085948523989
 20
133.24504324353001
 30
0.0
 11
55.704085948523989
 21
133.24504324353001
 31
0.0
  0
LINE
  5
572
  8
0
  6
CONTINUOUS
 62
     7
 10
62.704085948523989
 20
133.24504324353001
 30
0.0
 11
60.704085948523989
 21
133.24504324353001
 31
0.0
  0
LINE
  5
573
  8
0
  6
CONTINUOUS
 62
     7
 10
62.704085948523989
 20
134.86785931131001
 30
0.0
 11
60.704085948523989
 21
133.24504324353001
 31
0.0
  0
POLYLINE
  5
574
  8
0
  6
DOT
 62
     2
 66
     1
 10
0.0
 20
0.0
 30
0.0
  0
VERTEX
  5
856
  8
0
  6
DOT
 62
     2
 10
57.704085948523989
 20
144.28863947148989
 30
0.0
  0
VERTEX
  5
857
  8
0
  6
DOT
 62
     2
 10
57.704085948523989
 20
144.78863947148989
 30
0.0
  0
VERTEX
  5
858
  8
0
  6
DOT
 62
     2
 10
55.704085948523989
 20
144.28863947148989
 30
0.0
  0
SEQEND
  5
859
  8
0
  6
DOT
 62
     2
  0
POLYLINE
  5
575
  8
0
  6
DOT
 62
     2
 66
     1
 10
0.0
 20
0.0
 30
0.0
  0
VERTEX
  5
85A
  8
0
  6
DOT
 62
     2
 10
62.704085948523989
 20
144.28863947148989
 30
0.0
  0
VERTEX
  5
85B
  8
0
  6
DOT
 62
     2
 10
62.704085948523989
 20
144.78863947148989
 30
0.0
  0
VERTEX
  5
85C
  8
0
  6
DOT
 62
     2
 10
60.704085948523989
 20
144.28863947148989
 30
0.0
  0
SEQEND
  5
85D
  8
0
  6
DOT
 62
     2
  0
POLYLINE
  5
576
  8
0
  6
DOT
 62
     2
 66
     1
 10
0.0
 20
0.0
 30
0.0
  0
VERTEX
  5
85E
  8
0
  6
DOT
 62
     2
 10
57.704085948523989
 20
144.28863947148989
 30
0.0
  0
VERTEX
  5
85F
  8
0
  6
DOT
 62
     2
 10
57.704085948523989
 20
144.78863947148989
 30
0.0
  0
VERTEX
  5
860
  8
0
  6
DOT
 62
     2
 10
55.704085948523989
 20
144.28863947148989
 30
0.0
  0
SEQEND
  5
861
  8
0
  6
DOT
 62
     2
  0
POLYLINE
  5
577
  8
0
  6
DOT
 62
     2
 66
     1
 10
0.0
 20
0.0
 30
0.0
  0
VERTEX
  5
862
  8
0
  6
DOT
 62
     2
 10
62.704085948523989
 20
144.28863947148989
 30
0.0
  0
VERTEX
  5
863
  8
0
  6
DOT
 62
     2
 10
62.704085948523989
 20
144.78863947148989
 30
0.0
  0
VERTEX
  5
864
  8
0
  6
DOT
 62
     2
 10
60.704085948523989
 20
144.28863947148989
 30
0.0
  0
SEQEND
  5
865
  8
0
  6
DOT
 62
     2
  0
ARC
  5
578
  8
0
  6
CONTINUOUS
 62
     7
 10
55.204085948523989
 20
143.78863947148989
 30
0.0
 40
0.5
 50
90.0
 51
180.00000000021001
  0
LINE
  5
579
  8
0
  6
CONTINUOUS
 62
     7
 10
55.204085948523989
 20
144.28863947148989
 30
0.0
 11
66.704085948523996
 21
144.28863947148989
 31
0.0
  0
LINE
  5
57A
  8
0
  6
CONTINUOUS
 62
     7
 10
54.704085948524003
 20
143.78863947148989
 30
0.0
 11
54.704085948524003
 21
130.82059787391
 31
0.0
  0
POLYLINE
  5
57B
  8
0
  6
DOT
 62
     2
 66
     1
 10
0.0
 20
0.0
 30
0.0
  0
VERTEX
  5
866
  8
0
  6
DOT
 62
     2
 10
67.704085948523996
 20
142.78863947148989
 30
0.0
  0
VERTEX
  5
867
  8
0
  6
DOT
 62
     2
 10
65.704085948523996
 20
142.78863947148989
 30
0.0
  0
VERTEX
  5
868
  8
0
  6
DOT
 62
     2
 10
65.704085948523996
 20
142.28863947148989
 30
0.0
  0
SEQEND
  5
869
  8
0
  6
DOT
 62
     2
  0
LINE
  5
57C
  8
0
  6
DOT
 62
     2
 10
68.204085948523996
 20
143.28863947148989
 30
0.0
 11
67.704085948523996
 21
142.78863947148989
 31
0.0
  0
ARC
  5
57D
  8
0
  6
DOT
 62
     2
 10
56.704085948524003
 20
142.18863947148
 30
0.0
 40
0.9
 50
193.34236379693999
 51
346.65763620305
  0
ARC
  5
57E
  8
0
  6
DOT
 62
     2
 10
55.439174884455987
 20
141.88863947149
 30
0.0
 40
0.4
 50
13.342363796652
 51
89.999999999894996
  0
LINE
  5
57F
  8
0
  6
DOT
 62
     2
 10
65.704085948523996
 20
142.28863947148989
 30
0.0
 11
57.968997012590997
 21
142.28863947148989
 31
0.0
  0
ARC
  5
580
  8
0
  6
DOT
 62
     2
 10
57.968997012590997
 20
141.88863947149
 30
0.0
 40
0.4
 50
90.000000000034007
 51
166.65763620304
  0
LINE
  5
581
  8
0
  6
DOT
 62
     2
 10
55.439174884455987
 20
142.28863947148989
 30
0.0
 11
54.704085948524003
 21
142.28863947148989
 31
0.0
  0
POINT
  5
582
  8
0
 62
     2
 10
51.204085948523989
 20
140.18863947149001
 30
0.0
  0
ARC
  5
583
  8
0
  6
DOT
 62
     2
 10
51.704085948524003
 20
140.68863947148989
 30
0.0
 40
0.5
 50
179.99999999990001
 51
270.0
  0
ARC
  5
584
  8
0
  6
DOT
 62
     2
 10
51.704085948524003
 20
140.68863947148989
 30
0.0
 40
0.5
 50
179.99999999990001
 51
270.0
  0
LINE
  5
585
  8
0
  6
CONTINUOUS
 62
     7
 10
51.204085948523989
 20
129.38863947149
 30
0.0
 11
51.204085948523989
 21
141.18863947149001
 31
0.0
  0
LINE
  5
586
  8
0
  6
DOT
 62
     2
 10
51.704085948524003
 20
140.18863947149001
 30
0.0
 11
65.204085948523996
 21
140.18863947149001
 31
0.0
  0
LINE
  5
587
  8
0
  6
DOT
 62
     2
 10
51.704085948524003
 20
140.18863947149001
 30
0.0
 11
65.204085948523996
 21
140.18863947149001
 31
0.0
  0
LINE
  5
588
  8
0
  6
CONTINUOUS
 62
     7
 10
51.204085948523989
 20
141.18863947149001
 30
0.0
 11
54.704085948524003
 21
141.88863947149
 31
0.0
  0
LINE
  5
589
  8
0
  6
DOT
 62
     2
 10
54.704085948524003
 20
141.88863947149
 30
0.0
 11
55.204085948523989
 21
141.98863947148999
 31
0.0
  0
ARC
  5
58A
  8
0
  6
DOT
 62
     2
 10
56.704085948526
 20
142.18863947149001
 30
0.0
 40
1.0
 50
202.61986494797
 51
269.99999999983999
  0
LINE
  5
58B
  8
0
  6
DOT
 62
     2
 10
56.704085948524003
 20
141.18863947149001
 30
0.0
 11
64.204085948523996
 21
141.18863947149001
 31
0.0
  0
ARC
  5
58C
  8
0
  6
DOT
 62
     2
 10
55.504085948525997
 20
141.68863947148989
 30
0.0
 40
0.3
 50
22.619864948128001
 51
89.999999999925009
  0
ARC
  5
58D
  8
0
  6
DOT
 62
     2
 10
55.504085948525997
 20
141.68863947148989
 30
0.0
 40
0.3
 50
22.619864948128001
 51
89.999999999925009
  0
LINE
  5
58E
  8
0
  6
DOT
 62
     2
 10
55.504085948525997
 20
141.98863947148999
 30
0.0
 11
55.204085948523989
 21
141.98863947148999
 31
0.0
  0
ARC
  5
58F
  8
0
  6
DOT
 62
     2
 10
65.204085948523996
 20
141.68863947148989
 30
0.0
 40
0.5
 50
90.0
 51
179.99999999996001
  0
POINT
  5
590
  8
0
 62
     2
 10
64.704085948523996
 20
142.18863947149001
 30
0.0
  0
ARC
  5
591
  8
0
  6
DOT
 62
     2
 10
64.204085948523996
 20
141.68863947148989
 30
0.0
 40
0.5
 50
270.00000000005002
 51
0.0
  0
POINT
  5
592
  8
0
 62
     2
 10
64.704085948523996
 20
141.18863947149001
 30
0.0
  0
POLYLINE
  5
593
  8
0
  6
DOT
 62
     2
 66
     1
 10
0.0
 20
0.0
 30
0.0
  0
VERTEX
  5
86A
  8
0
  6
DOT
 62
     2
 10
65.204085948523996
 20
142.18863947149001
 30
0.0
  0
VERTEX
  5
86B
  8
0
  6
DOT
 62
     2
 10
65.704085948523996
 20
142.18863947149001
 30
0.0
  0
VERTEX
  5
86C
  8
0
  6
DOT
 62
     2
 10
65.704085948523996
 20
142.68863947148989
 30
0.0
  0
VERTEX
  5
86D
  8
0
  6
DOT
 62
     2
 10
66.471486782952994
 20
142.68863947148989
 30
0.0
  0
SEQEND
  5
86E
  8
0
  6
DOT
 62
     2
  0
ARC
  5
594
  8
0
  6
DOT
 62
     2
 10
8.2040859485239004
 20
129.38863947149
 30
0.0
 40
60.0
 50
0.0000000000000814
 51
12.57723353526
  0
ARC
  5
595
  8
0
  6
DOT
 62
     2
 10
66.471486782954997
 20
142.38863947147999
 30
0.0
 40
0.3
 50
12.577233536793999
 51
90.000000000333998
  0
LINE
  5
596
  8
0
  6
DOT
 62
     2
 10
65.704085948523996
 20
139.68863947148989
 30
0.0
 11
65.704085948523996
 21
129.38863947149
 31
0.0
  0
ARC
  5
597
  8
0
  6
DOT
 62
     2
 10
65.204085948523996
 20
139.68863947148989
 30
0.0
 40
0.5
 50
0.0
 51
90.0
  0
POINT
  5
598
  8
0
 62
     2
 10
57.204085948524003
 20
139.98863947148999
 30
0.0
  0
LINE
  5
599
  8
0
  6
DOT
 62
     2
 10
57.204085948524003
 20
139.48863947148999
 30
0.0
 11
57.204085948524003
 21
129.38863947149
 31
0.0
  0
LINE
  5
59A
  8
0
  6
DOT
 62
     2
 10
53.504085948524001
 20
139.48863947148999
 30
0.0
 11
53.504085948524001
 21
138.73863947148999
 31
0.0
  0
ARC
  5
59B
  8
0
  6
DOT
 62
     2
 10
54.47908594852499
 20
139.21363947149001
 30
0.0
 40
0.975
 50
90.000000000060993
 51
180.0
  0
POINT
  5
59C
  8
0
 62
     2
 10
53.504085948524001
 20
139.98863947148999
 30
0.0
  0
ARC
  5
59D
  8
0
  6
DOT
 62
     2
 10
53.304085948530997
 20
139.78863947149
 30
0.0
 40
0.2
 50
0.0
 51
90.000000001952003
  0
LINE
  5
59E
  8
0
  6
DOT
 62
     2
 10
53.004085948514998
 20
139.98863947148999
 30
0.0
 11
53.304085948523998
 21
139.98863947148999
 31
0.0
  0
LINE
  5
59F
  8
0
  6
DOT
 62
     2
 10
54.479085948524002
 20
140.18863947149001
 30
0.0
 11
55.229085948523988
 21
140.18863947149001
 31
0.0
  0
ARC
  5
5A0
  8
0
  6
DOT
 62
     2
 10
53.004085948525997
 20
139.48863947148999
 30
0.0
 40
0.5
 50
90.000000000211998
 51
180.0
  0
LINE
  5
5A1
  8
0
  6
DOT
 62
     2
 10
43.204085948523989
 20
138.23863947148999
 30
0.0
 11
52.004085948524001
 21
138.23863947148999
 31
0.0
  0
ARC
  5
5A2
  8
0
  6
DOT
 62
     2
 10
52.004085948524001
 20
138.73863947148999
 30
0.0
 40
0.5
 50
270.0
 51
0.0
  0
ARC
  5
5A3
  8
0
  6
DOT
 62
     2
 10
43.204085948523989
 20
138.73863947148999
 30
0.0
 40
0.5
 50
180.00000000023999
 51
270.0
  0
ARC
  5
5A4
  8
0
  6
CONTINUOUS
 62
     7
 10
43.204085948523989
 20
138.73863947148999
 30
0.0
 40
0.5
 50
180.00000000023999
 51
270.0
  0
LINE
  5
5A5
  8
0
  6
CONTINUOUS
 62
     7
 10
43.204085948523989
 20
138.23863947148999
 30
0.0
 11
51.204085948523989
 21
138.23863947148999
 31
0.0
  0
LINE
  5
5A6
  8
0
  6
DOT
 62
     2
 10
29.704085948524
 20
142.78863947148989
 30
0.0
 11
30.719558080035
 21
142.78863947148989
 31
0.0
  0
ARC
  5
5A7
  8
0
  6
DOT
 62
     2
 10
89.204085948523996
 20
129.38863947149
 30
0.0
 40
60.0
 50
167.09510849630999
 51
180.0
  0
ARC
  5
5A8
  8
0
  6
DOT
 62
     2
 10
89.204085948523996
 20
129.38863947149
 30
0.0
 40
60.0
 50
180.0
 51
192.90489150369001
  0
LINE
  5
5A9
  8
0
  6
DOT
 62
     2
 10
29.704085948524
 20
115.98863947149
 30
0.0
 11
30.719558080035
 21
115.98863947149
 31
0.0
  0
ARC
  5
5AA
  8
0
  6
DOT
 62
     2
 10
55.229085948523988
 20
119.56363947149001
 30
0.0
 40
0.975
 50
270.0
 51
0.0000000000125265
  0
ARC
  5
5AB
  8
0
  6
DOT
 62
     2
 10
56.704085948524003
 20
119.28863947149
 30
0.0
 40
0.5
 50
270.0
 51
0.0
  0
POINT
  5
5AC
  8
0
 62
     2
 10
56.204085948523989
 20
118.78863947149
 30
0.0
  0
LINE
  5
5AD
  8
0
  6
DOT
 62
     2
 10
56.204085948523989
 20
120.03863947149
 30
0.0
 11
56.204085948523989
 21
119.28863947149
 31
0.0
  0
ARC
  5
5AE
  8
0
  6
CONTINUOUS
 62
     2
 10
56.404085948526003
 20
118.98863947149
 30
0.0
 40
0.2
 50
180.0
 51
269.99999999931998
  0
POINT
  5
5AF
  8
0
 62
     2
 10
56.204085948523989
 20
118.78863947149
 30
0.0
  0
LINE
  5
5B0
  8
0
  6
DOT
 62
     2
 10
56.704085948532999
 20
118.78863947149
 30
0.0
 11
56.404085948523999
 21
118.78863947149
 31
0.0
  0
LINE
  5
5B1
  8
0
  6
DOT
 62
     2
 10
67.704085948523996
 20
115.98863947149
 30
0.0
 11
66.688613817011998
 21
115.98863947149
 31
0.0
  0
ARC
  5
5B2
  8
0
  6
DOT
 62
     2
 10
8.2040859485239004
 20
129.38863947149
 30
0.0
 40
60.0
 50
347.09510849630999
 51
0.0000000000000271
  0
ARC
  5
5B3
  8
0
  6
DOT
 62
     2
 10
55.229085948523988
 20
139.21363947149001
 30
0.0
 40
0.975
 50
0.0
 51
90.000000000000995
  0
ARC
  5
5B4
  8
0
  6
DOT
 62
     2
 10
56.704085948524003
 20
139.48863947148001
 30
0.0
 40
0.5
 50
0.0000000001693582
 51
90.0
  0
POINT
  5
5B5
  8
0
 62
     2
 10
56.204085948523989
 20
139.98863947148999
 30
0.0
  0
LINE
  5
5B6
  8
0
  6
DOT
 62
     2
 10
56.204085948523989
 20
138.73863947148999
 30
0.0
 11
56.204085948523989
 21
139.48863947148999
 31
0.0
  0
ARC
  5
5B7
  8
0
  6
DOT
 62
     2
 10
56.404085948521001
 20
139.78863947149
 30
0.0
 40
0.2
 50
89.999999999248999
 51
180.0
  0
POINT
  5
5B8
  8
0
 62
     2
 10
56.204085948523989
 20
139.98863947148999
 30
0.0
  0
LINE
  5
5B9
  8
0
  6
DOT
 62
     2
 10
56.704085948532999
 20
139.98863947148999
 30
0.0
 11
56.404085948523999
 21
139.98863947148999
 31
0.0
  0
LINE
  5
5BA
  8
0
  6
DOT
 62
     2
 10
56.204085948523989
 20
129.38863947149
 30
0.0
 11
56.204085948523989
 21
139.78863947149
 31
0.0
  0
LINE
  5
5BB
  8
0
  6
DOT
 62
     2
 10
53.504085948524001
 20
139.78863947149
 30
0.0
 11
53.504085948524001
 21
129.38863947149
 31
0.0
  0
LINE
  5
5BC
  8
0
  6
DOT
 62
     2
 10
52.504085948524001
 20
129.38863947149
 30
0.0
 11
52.504085948524001
 21
139.48863947148999
 31
0.0
  0
LINE
  5
5BD
  8
0
  6
DOT
 62
     2
 10
53.504085948524001
 20
118.98863947149
 30
0.0
 11
53.504085948524001
 21
129.38863947149
 31
0.0
  0
LINE
  5
5BE
  8
0
  6
DOT
 62
     2
 10
52.504085948524001
 20
129.38863947149
 30
0.0
 11
52.504085948524001
 21
119.28863947149
 31
0.0
  0
LINE
  5
5BF
  8
0
  6
DOT
 62
     2
 10
56.204085948523989
 20
129.38863947149
 30
0.0
 11
56.204085948523989
 21
118.98863947149
 31
0.0
  0
ARC
  5
5C0
  8
0
  6
HIDDEN
 62
     7
 10
33.204085948524003
 20
129.38863947149
 30
0.0
 40
1.0
 50
180.0
 51
267.40278280933001
  0
LINE
  5
5C1
  8
0
  6
HIDDEN
 62
     7
 10
42.704085948523989
 20
127.88863947149
 30
0.0
 11
33.158771479633998
 21
128.38966669963
 31
0.0
  0
LINE
  5
5C2
  8
0
  6
HIDDEN
 62
     2
 10
41.683881845637998
 20
129.38863947149
 30
0.0
 11
41.683881845637998
 21
127.94218930847001
 31
0.0
  0
LINE
  5
5C3
  8
0
  6
HIDDEN
 62
     2
 10
40.704085948523989
 20
128.04610748255001
 30
0.0
 11
40.704085948523989
 21
129.38863947149
 31
0.0
  0
LINE
  5
5C4
  8
0
  6
HIDDEN
 62
     2
 10
41.904085948523992
 20
129.38863947149
 30
0.0
 11
41.904085948523992
 21
127.93063094110001
 31
0.0
  0
ARC
  5
5C5
  8
0
  6
HIDDEN
 62
     7
 10
33.204085948523002
 20
129.38863947149
 30
0.0
 40
1.0
 50
92.597217190641999
 51
180.0
  0
LINE
  5
5C6
  8
0
  6
HIDDEN
 62
     7
 10
42.704085948523989
 20
130.88863947149
 30
0.0
 11
33.158771479633998
 21
130.38761224333999
 31
0.0
  0
LINE
  5
5C7
  8
0
  6
HIDDEN
 62
     2
 10
41.683881845637998
 20
129.38863947149
 30
0.0
 11
41.683881845637998
 21
130.83508963450001
 31
0.0
  0
LINE
  5
5C8
  8
0
  6
HIDDEN
 62
     2
 10
40.704085948523989
 20
130.73117146042
 30
0.0
 11
40.704085948523989
 21
129.38863947149
 31
0.0
  0
LINE
  5
5C9
  8
0
  6
HIDDEN
 62
     2
 10
41.904085948523992
 20
129.38863947149
 30
0.0
 11
41.904085948523992
 21
130.84664800186999
 31
0.0
  0
ARC
  5
5CA
  8
0
  6
HIDDEN
 62
     7
 10
64.204085948525005
 20
129.38863947149
 30
0.0
 40
1.0
 50
272.59721719064999
 51
0.0
  0
LINE
  5
5CB
  8
0
  6
HIDDEN
 62
     7
 10
54.704085948524003
 20
127.95668106906
 30
0.0
 11
64.249400417413
 21
128.38966669963
 31
0.0
  0
LINE
  5
5CC
  8
0
  6
HIDDEN
 62
     2
 10
55.724290051411991
 20
129.38863947149
 30
0.0
 11
55.724290051411991
 21
128.00295861373999
 31
0.0
  0
LINE
  5
5CD
  8
0
  6
HIDDEN
 62
     2
 10
56.704085948524003
 20
129.38863947149
 30
0.0
 11
56.704085948524003
 21
128.09276426421999
 31
0.0
  0
LINE
  5
5CE
  8
0
  6
HIDDEN
 62
     2
 10
55.204085948523989
 20
127.97936160159
 30
0.0
 11
55.204085948523989
 21
129.38863947149
 31
0.0
  0
ARC
  5
5CF
  8
0
  6
HIDDEN
 62
     7
 10
64.204085948525005
 20
129.38863947149
 30
0.0
 40
1.0
 50
0.0000000000016284
 51
87.402782809376987
  0
LINE
  5
5D0
  8
0
  6
HIDDEN
 62
     7
 10
54.704085948524003
 20
130.82059787391
 30
0.0
 11
64.249400417413
 21
130.38761224333999
 31
0.0
  0
LINE
  5
5D1
  8
0
  6
HIDDEN
 62
     2
 10
55.724290051411991
 20
129.38863947149
 30
0.0
 11
55.724290051411991
 21
130.77432032922999
 31
0.0
  0
LINE
  5
5D2
  8
0
  6
HIDDEN
 62
     2
 10
56.704085948524003
 20
129.38863947149
 30
0.0
 11
56.704085948524003
 21
130.68451467874999
 31
0.0
  0
LINE
  5
5D3
  8
0
  6
HIDDEN
 62
     2
 10
55.204085948523989
 20
130.79791734138001
 30
0.0
 11
55.204085948523989
 21
129.38863947149
 31
0.0
  0
TEXT
  5
5D4
  8
0
 62
     2
 10
26.110194928357
 20
238.20347877436001
 30
0.0
 40
4.0
  1
ドア対応寸法：２８～３６ｍｍ
  0
POLYLINE
  5
5D5
  8
0
  6
DIVIDE
 62
     2
 66
     1
 10
0.0
 20
0.0
 30
0.0
 70
     1
  0
VERTEX
  5
86F
  8
0
  6
DIVIDE
 62
     2
 10
20.320766664583999
 20
244.38863947149
 30
0.0
  0
VERTEX
  5
870
  8
0
  6
DIVIDE
 62
     2
 10
20.320766664583999
 20
84.388639471486002
 30
0.0
  0
VERTEX
  5
871
  8
0
  6
DIVIDE
 62
     2
 10
141.63044384505
 20
84.388639471486002
 30
0.0
  0
VERTEX
  5
872
  8
0
  6
DIVIDE
 62
     2
 10
141.63044384505
 20
244.38863947149
 30
0.0
  0
SEQEND
  5
873
  8
0
  6
DIVIDE
 62
     2
  0
LINE
  5
5DA
  8
0
  6
CONTINUOUS
 62
     3
 10
168.47995151941001
 20
21.231904555067
 30
0.0
 11
168.47995151941001
 21
63.231904555066997
 31
0.0
  0
TEXT
  5
5DB
  8
0
 62
     2
 10
127.62644334718
 20
58.231904555066997
 30
0.0
 40
4.0
  1
品番
 11
127.62644334718
 21
60.231904555066997
 31
0.0
 73
     2
  0
LINE
  5
5DC
  8
0
  6
CONTINUOUS
 62
     3
 10
126.47995151940999
 20
63.231904555066997
 30
0.0
 11
222.41198317335
 21
63.231904555066997
 31
0.0
  0
LINE
  5
5DD
  8
0
  6
CONTINUOUS
 62
     3
 10
126.47995151940999
 20
57.23190455506699
 30
0.0
 11
222.41198317335
 21
57.23190455506699
 31
0.0
  0
LINE
  5
5DE
  8
0
  6
CONTINUOUS
 62
     3
 10
126.47995151940999
 20
51.231904555066997
 30
0.0
 11
222.41198317335
 21
51.231904555066997
 31
0.0
  0
LINE
  5
5DF
  8
0
  6
CONTINUOUS
 62
     3
 10
126.47995151940999
 20
45.23190455506699
 30
0.0
 11
222.41198317335
 21
45.23190455506699
 31
0.0
  0
LINE
  5
5E0
  8
0
  6
CONTINUOUS
 62
     3
 10
222.41198317335
 20
39.231904555066997
 30
0.0
 11
126.47995151940999
 21
39.231904555066997
 31
0.0
  0
LINE
  5
5E1
  8
0
  6
CONTINUOUS
 62
     3
 10
126.47995151940999
 20
33.231904555066997
 30
0.0
 11
222.41198317335
 21
33.231904555066997
 31
0.0
  0
LINE
  5
5E2
  8
0
  6
CONTINUOUS
 62
     3
 10
222.41198317335
 20
27.231904555067
 30
0.0
 11
126.47995151940999
 21
27.231904555067
 31
0.0
  0
LINE
  5
5E3
  8
0
  6
CONTINUOUS
 62
     3
 10
222.41198317335
 20
21.231904555067
 30
0.0
 11
126.47995151940999
 21
21.231904555067
 31
0.0
  0
LINE
  5
5E4
  8
0
  6
CONTINUOUS
 62
     3
 10
24.547919865472
 20
63.505422773204003
 30
0.0
 11
120.47995151940999
 21
63.505422773204003
 31
0.0
  0
LINE
  5
5E5
  8
0
  6
CONTINUOUS
 62
     3
 10
24.547919865472
 20
57.505422773204003
 30
0.0
 11
120.47995151940999
 21
57.505422773204003
 31
0.0
  0
LINE
  5
5E6
  8
0
  6
CONTINUOUS
 62
     3
 10
24.547919865472
 20
51.50542277320401
 30
0.0
 11
120.47995151940999
 21
51.50542277320401
 31
0.0
  0
LINE
  5
5E7
  8
0
  6
CONTINUOUS
 62
     3
 10
24.547919865472
 20
45.505422773204003
 30
0.0
 11
120.47995151940999
 21
45.505422773204003
 31
0.0
  0
LINE
  5
5E8
  8
0
  6
CONTINUOUS
 62
     3
 10
120.47995151940999
 20
39.505422773204003
 30
0.0
 11
24.547919865472
 21
39.505422773204003
 31
0.0
  0
LINE
  5
5E9
  8
0
  6
CONTINUOUS
 62
     3
 10
24.547919865472
 20
33.505422773204003
 30
0.0
 11
120.47995151940999
 21
33.505422773204003
 31
0.0
  0
LINE
  5
5EA
  8
0
  6
CONTINUOUS
 62
     3
 10
120.47995151940999
 20
27.50542277320401
 30
0.0
 11
24.547919865472
 21
27.50542277320401
 31
0.0
  0
LINE
  5
5EB
  8
0
  6
CONTINUOUS
 62
     3
 10
120.47995151940999
 20
21.50542277320401
 30
0.0
 11
24.547919865472
 21
21.50542277320401
 31
0.0
  0
LINE
  5
5EC
  8
0
  6
CONTINUOUS
 62
     3
 10
66.547919865471997
 20
21.50542277320401
 30
0.0
 11
66.547919865471997
 21
63.505422773204003
 31
0.0
  0
TEXT
  5
5ED
  8
0
 62
     2
 10
25.694411693241001
 20
58.505422773204003
 30
0.0
 40
4.0
  1
品番
 11
25.694411693241001
 21
60.505422773204003
 31
0.0
 73
     2
  0
TEXT
  5
5EF
  8
0
 62
     7
 10
26.699358591639999
 20
52.505422773204003
 30
0.0
 40
4.0
  1
２５０－１１１
 11
26.699358591639999
 21
54.505422773204003
 31
0.0
 73
     2
  0
TEXT
  5
5F0
  8
0
 62
     7
 10
68.699358591639992
 20
52.505422773204003
 30
0.0
 40
4.0
  1
ダーク
 11
68.699358591639992
 21
54.505422773204003
 31
0.0
 73
     2
  0
TEXT
  5
5F1
  8
0
 62
     7
 10
103.97995151940999
 20
52.505422773204003
 30
0.0
 40
4.0
  1
ＤＡ
 11
103.97995151940999
 21
54.505422773204003
 31
0.0
 73
     2
  0
TEXT
  5
5F2
  8
0
 62
     7
 10
26.699358591639999
 20
46.505422773204003
 30
0.0
 40
4.0
  1
２５０－１１２
 11
26.699358591639999
 21
48.505422773204003
 31
0.0
 73
     2
  0
TEXT
  5
5F3
  8
0
 62
     7
 10
68.699358591639992
 20
46.505422773204003
 30
0.0
 40
4.0
  1
ミディアム
 11
68.699358591639992
 21
48.505422773204003
 31
0.0
 73
     2
  0
TEXT
  5
5F4
  8
0
 62
     7
 10
103.97995151940999
 20
46.505422773204003
 30
0.0
 40
4.0
  1
ＭＪ
 11
103.97995151940999
 21
48.505422773204003
 31
0.0
 73
     2
  0
TEXT
  5
5F5
  8
0
 62
     7
 10
26.699358591639999
 20
40.505422773204003
 30
0.0
 40
4.0
  1
２５０－１１３
 11
26.699358591639999
 21
42.505422773204003
 31
0.0
 73
     2
  0
TEXT
  5
5F6
  8
0
 62
     7
 10
68.699358591639992
 20
40.505422773204003
 30
0.0
 40
4.0
  1
ベージュ
 11
68.699358591639992
 21
42.505422773204003
 31
0.0
 73
     2
  0
TEXT
  5
5F7
  8
0
 62
     7
 10
103.97995151940999
 20
40.505422773204003
 30
0.0
 40
4.0
  1
ＢＪ
 11
103.97995151940999
 21
42.505422773204003
 31
0.0
 73
     2
  0
TEXT
  5
5F8
  8
0
 62
     7
 10
26.699358591639999
 20
34.505422773204003
 30
0.0
 40
4.0
  1
２５０－１１４
 11
26.699358591639999
 21
36.50542277320401
 31
0.0
 73
     2
  0
TEXT
  5
5F9
  8
0
 62
     7
 10
68.699358591639992
 20
34.505422773204003
 30
0.0
 40
4.0
  1
ライト
 11
68.699358591639992
 21
36.50542277320401
 31
0.0
 73
     2
  0
TEXT
  5
5FA
  8
0
 62
     7
 10
103.97995151940999
 20
34.505422773204003
 30
0.0
 40
4.0
  1
ＬＴ
 11
103.97995151940999
 21
36.50542277320401
 31
0.0
 73
     2
  0
TEXT
  5
5FB
  8
0
 62
     7
 10
26.699358591639999
 20
28.505422773204
 30
0.0
 40
4.0
  1
２５０－１１５
 11
26.699358591639999
 21
30.505422773204
 31
0.0
 73
     2
  0
TEXT
  5
5FC
  8
0
 62
     7
 10
68.699358591639992
 20
28.505422773204
 30
0.0
 40
4.0
  1
ミルキー
 11
68.699358591639992
 21
30.505422773204
 31
0.0
 73
     2
  0
TEXT
  5
5FD
  8
0
 62
     7
 10
103.97995151940999
 20
28.505422773204
 30
0.0
 40
4.0
  1
ＭＫ
 11
103.97995151940999
 21
30.505422773204
 31
0.0
 73
     2
  0
TEXT
  5
5FE
  8
0
 62
     7
 10
26.699358591639999
 20
22.505422773204
 30
0.0
 40
4.0
  1
２５０－１１６
 11
26.699358591639999
 21
24.505422773204
 31
0.0
 73
     2
  0
TEXT
  5
5FF
  8
0
 62
     7
 10
68.699358591639992
 20
22.505422773204
 30
0.0
 40
4.0
  1
パール
 11
68.699358591639992
 21
24.505422773204
 31
0.0
 73
     2
  0
TEXT
  5
600
  8
0
 62
     7
 10
103.97995151940999
 20
22.505422773204
 30
0.0
 40
4.0
  1
ＰＡ
 11
103.97995151940999
 21
24.505422773204
 31
0.0
 73
     2
  0
TEXT
  5
601
  8
0
 62
     7
 10
128.63139024558001
 20
52.23190455506699
 30
0.0
 40
4.0
  1
２５０－１１７
 11
128.63139024558001
 21
54.23190455506699
 31
0.0
 73
     2
  0
TEXT
  5
602
  8
0
 62
     7
 10
170.63139024558001
 20
52.23190455506699
 30
0.0
 40
4.0
  1
スモーク
 11
170.63139024558001
 21
54.23190455506699
 31
0.0
 73
     2
  0
TEXT
  5
603
  8
0
 62
     7
 10
205.91198317335
 20
52.23190455506699
 30
0.0
 40
4.0
  1
ＳＫ
 11
205.91198317335
 21
54.23190455506699
 31
0.0
 73
     2
  0
TEXT
  5
604
  8
0
 62
     7
 10
128.63139024558001
 20
46.231904555066997
 30
0.0
 40
4.0
  1
２５０－１１８
 11
128.63139024558001
 21
48.231904555066997
 31
0.0
 73
     2
  0
TEXT
  5
605
  8
0
 62
     7
 10
170.63139024558001
 20
46.231904555066997
 30
0.0
 40
4.0
  1
ホワイト
 11
170.63139024558001
 21
48.231904555066997
 31
0.0
 73
     2
  0
TEXT
  5
606
  8
0
 62
     7
 10
205.91198317335
 20
46.231904555066997
 30
0.0
 40
4.0
  1
ＷＡ
 11
205.91198317335
 21
48.231904555066997
 31
0.0
 73
     2
  0
TEXT
  5
607
  8
0
 62
     7
 10
128.63139024558001
 20
40.23190455506699
 30
0.0
 40
4.0
  1
２５０－１１９
 11
128.63139024558001
 21
42.23190455506699
 31
0.0
 73
     2
  0
TEXT
  5
608
  8
0
 62
     7
 10
170.63139024558001
 20
40.23190455506699
 30
0.0
 40
4.0
  1
ブラック
 11
170.63139024558001
 21
42.23190455506699
 31
0.0
 73
     2
  0
TEXT
  5
609
  8
0
 62
     7
 10
205.91198317335
 20
40.23190455506699
 30
0.0
 40
4.0
  1
ＢＫ
 11
205.91198317335
 21
42.23190455506699
 31
0.0
 73
     2
  0
TEXT
  5
60A
  8
0
 62
     7
 10
128.63139024558001
 20
34.231904555066997
 30
0.0
 40
4.0
  1
２５０－１２０
 11
128.63139024558001
 21
36.231904555066997
 31
0.0
 73
     2
  0
TEXT
  5
60B
  8
0
 62
     7
 10
170.63139024558001
 20
34.231904555066997
 30
0.0
 40
4.0
  1
塗装ゴールド
 11
170.63139024558001
 21
36.231904555066997
 31
0.0
 73
     2
  0
TEXT
  5
60C
  8
0
 62
     7
 10
205.91198317335
 20
34.231904555066997
 30
0.0
 40
4.0
  1
ＢＧ
 11
205.91198317335
 21
36.231904555066997
 31
0.0
 73
     2
  0
TEXT
  5
60D
  8
0
 62
     7
 10
205.91198317335
 20
28.231904555067
 30
0.0
 40
4.0
  1
ＢＳ
 11
205.91198317335
 21
30.231904555067
 31
0.0
 73
     2
  0
TEXT
  5
60E
  8
0
 62
     7
 10
170.63139024558001
 20
28.231904555067
 30
0.0
 40
4.0
  1
塗装シルバー
 11
170.63139024558001
 21
30.231904555067
 31
0.0
 73
     2
  0
TEXT
  5
60F
  8
0
 62
     7
 10
128.63139024558001
 20
28.231904555067
 30
0.0
 40
4.0
  1
２５０－１２１
 11
128.63139024558001
 21
30.231904555067
 31
0.0
 73
     2
  0
TEXT
  5
613
  8
0
 62
     2
 10
169.62644334717999
 20
58.231904555066997
 30
0.0
 40
4.0
  1
仕上げ／色調
 11
169.62644334717999
 21
60.231904555066997
 31
0.0
 73
     2
  0
TEXT
  5
614
  8
0
 62
     2
 10
67.694411693240994
 20
58.505422773204003
 30
0.0
 40
4.0
  1
仕上げ／色調
 11
67.694411693240994
 21
60.505422773204003
 31
0.0
 73
     2
  0
LINE
  5
615
  8
0
  6
DOT
 62
     3
 10
102.47995151940999
 20
57.505422773204003
 30
0.0
 11
102.47995151940999
 21
21.50542277320401
 31
0.0
  0
LINE
  5
616
  8
0
  6
DOT
 62
     3
 10
204.41198317335
 20
57.23190455506699
 30
0.0
 11
204.41198317335
 21
21.231904555067
 31
0.0
  0
TEXT
  5
617
  8
0
 62
     2
 10
24.547919865472
 20
64.505422773204003
 30
0.0
 40
4.0
  1
表
 11
24.547919865472
 21
66.505422773204003
 31
0.0
 73
     2
  0
TEXT
  5
618
  8
0
 62
     2
 10
126.47995151940999
 20
64.231904555066976
 30
0.0
 40
4.0
  1
表
 11
126.47995151940999
 21
66.23190455506699
 31
0.0
 73
     2
  0
DIMENSION
  5
61C
  8
0
  6
CONTINUOUS
 62
     2
  2
*D20
 10
99.195226532402003
 20
178.01243680271
 30
0.0
 11
117.66974330347
 21
137.91039918788999
 31
0.0
 70
   131
  1
\A1;%%c30{\H0.625x;\S +0.5^ -0;} 
 15
111.74785912922
 25
150.76484214025999
 35
0.0
 40
14.152929583263001
  0
LINE
  5
61E
  8
0
  6
CONTINUOUS
 62
     3
 10
222.41198317335
 20
21.231904555067
 30
0.0
 11
222.41198317335
 21
63.231904555066997
 31
0.0
  0
LINE
  5
61F
  8
0
  6
CONTINUOUS
 62
     3
 10
126.47995151940999
 20
21.231904555067
 30
0.0
 11
126.47995151940999
 21
63.231904555066997
 31
0.0
  0
LINE
  5
620
  8
0
  6
CONTINUOUS
 62
     3
 10
120.47995151940999
 20
21.50542277320401
 30
0.0
 11
120.47995151940999
 21
63.505422773204003
 31
0.0
  0
LINE
  5
621
  8
0
  6
CONTINUOUS
 62
     3
 10
24.547919865472
 20
21.50542277320401
 30
0.0
 11
24.547919865472
 21
63.505422773204003
 31
0.0
  0
TEXT
  5
622
  8
0
 62
     7
 10
86.676544715012994
 20
128.32434110009001
 30
0.0
 40
4.0
  1
参考掘込図
  0
ENDSEC
  0
EOF
