   0
SECTION
   2
HEADER
   9
$ACADVER
   1
AC1014
   9
$LIMMIN
  10
0.0
  20
0.0
   9
$LIMMAX
  10
 420.00000000000
  20
 297.00000000000
   9
$EXTMIN
  10
0.0
  20
0.0
  30
0.0
   9
$EXTMAX
  10
 420.00000000000
  20
 297.00000000000
  30
0.0
   9
$LTSCALE
  40
 8.4000000000000
   9
$HANDSEED
   5
5D1
   0
ENDSEC
   0
SECTION
   2
TABLES
  0
TABLE
  2
VPORT
  5
8
100
AcDbSymbolTable
 70
     1
  0
VPORT
  5
5D0
100
AcDbSymbolTableRecord
100
AcDbViewportTableRecord
  2
*ACTIVE
 70
     0
 10
0.0
 20
0.0
 11
1.0
 21
1.0
  12
 210.00000000000
  22
 148.50000000000
 13
0.0
 23
0.0
 14
1.0
 24
1.0
 15
0.0
 25
0.0
 16
0.0
 26
0.0
 36
1.0
 17
0.0
 27
0.0
 37
0.0
  40
 420.00000000000
  41
 1.4787878787879
 42
50.0
 43
0.0
 44
0.0
 50
0.0
 51
0.0
 71
     0
 72
   100
 73
     1
 74
     1
 75
     0
 76
     0
 77
     0
 78
     0
  0
ENDTAB
  0
TABLE
  2
LTYPE
  5
5
100
AcDbSymbolTable
 70
    25
  0
LTYPE
  5
12
100
AcDbSymbolTableRecord
100
AcDbLinetypeTableRecord
  2
BYBLOCK
 70
     0
  3

 72
    65
 73
     0
 40
0.0
  0
LTYPE
  5
13
100
AcDbSymbolTableRecord
100
AcDbLinetypeTableRecord
  2
BYLAYER
 70
     0
  3

 72
    65
 73
     0
 40
0.0
  0
LTYPE
  5
14
100
AcDbSymbolTableRecord
100
AcDbLinetypeTableRecord
  2
CONTINUOUS
 70
     0
  3
Solid line
 72
    65
 73
     0
 40
0.0
  0
LTYPE
  5
20
100
AcDbSymbolTableRecord
100
AcDbLinetypeTableRecord
  2
BORDER
 70
     0
  3
__ __ . __ __ . __ __ . __ __ . __ __ . __ __ .
 72
    65
 73
     6
 40
1.75
 49
0.5
 74
     0
 49
-0.25
 74
     0
 49
0.5
 74
     0
 49
-0.25
 74
     0
 49
0.0
 74
     0
 49
-0.25
 74
     0
  0
LTYPE
  5
21
100
AcDbSymbolTableRecord
100
AcDbLinetypeTableRecord
  2
BORDER2
 70
     0
  3
__.__.__.__.__.__.__.__.__.__.__.__.__.__.__.__
 72
    65
 73
     6
 40
0.875
 49
0.25
 74
     0
 49
-0.125
 74
     0
 49
0.25
 74
     0
 49
-0.125
 74
     0
 49
0.0
 74
     0
 49
-0.125
 74
     0
  0
LTYPE
  5
22
100
AcDbSymbolTableRecord
100
AcDbLinetypeTableRecord
  2
BORDERX2
 70
     0
  3
____  ____  .  ____  ____  .  ____  ____  .  __
 72
    65
 73
     6
 40
3.5
 49
1.0
 74
     0
 49
-0.5
 74
     0
 49
1.0
 74
     0
 49
-0.5
 74
     0
 49
0.0
 74
     0
 49
-0.5
 74
     0
  0
LTYPE
  5
23
100
AcDbSymbolTableRecord
100
AcDbLinetypeTableRecord
  2
CENTER
 70
     0
  3
____ _ ____ _ ____ _ ____ _ ____ _ ____ _ ____ 
 72
    65
 73
     4
 40
2.0
 49
1.25
 74
     0
 49
-0.25
 74
     0
 49
0.25
 74
     0
 49
-0.25
 74
     0
  0
LTYPE
  5
24
100
AcDbSymbolTableRecord
100
AcDbLinetypeTableRecord
  2
CENTER2
 70
     0
  3
___ _ ___ _ ___ _ ___ _ ___ _ ___ _ ___ _ ___ _
 72
    65
 73
     4
 40
1.125
 49
0.75
 74
     0
 49
-0.125
 74
     0
 49
0.125
 74
     0
 49
-0.125
 74
     0
  0
LTYPE
  5
25
100
AcDbSymbolTableRecord
100
AcDbLinetypeTableRecord
  2
CENTERX2
 70
     0
  3
________  __  ________  __  ________  __  _____
 72
    65
 73
     4
 40
4.0
 49
2.5
 74
     0
 49
-0.5
 74
     0
 49
0.5
 74
     0
 49
-0.5
 74
     0
  0
LTYPE
  5
26
100
AcDbSymbolTableRecord
100
AcDbLinetypeTableRecord
  2
DASHDOT
 70
     0
  3
__ . __ . __ . __ . __ . __ . __ . __ . __ . __
 72
    65
 73
     4
 40
1.0
 49
0.5
 74
     0
 49
-0.25
 74
     0
 49
0.0
 74
     0
 49
-0.25
 74
     0
  0
LTYPE
  5
27
100
AcDbSymbolTableRecord
100
AcDbLinetypeTableRecord
  2
DASHDOT2
 70
     0
  3
_._._._._._._._._._._._._._._._._._._._._._._._
 72
    65
 73
     4
 40
0.5
 49
0.25
 74
     0
 49
-0.125
 74
     0
 49
0.0
 74
     0
 49
-0.125
 74
     0
  0
LTYPE
  5
28
100
AcDbSymbolTableRecord
100
AcDbLinetypeTableRecord
  2
DASHDOTX2
 70
     0
  3
____  .  ____  .  ____  .  ____  .  ____  .  __
 72
    65
 73
     4
 40
2.0
 49
1.0
 74
     0
 49
-0.5
 74
     0
 49
0.0
 74
     0
 49
-0.5
 74
     0
  0
LTYPE
  5
29
100
AcDbSymbolTableRecord
100
AcDbLinetypeTableRecord
  2
DASHED
 70
     0
  3
__ __ __ __ __ __ __ __ __ __ __ __ __ __ __ __
 72
    65
 73
     2
 40
0.75
 49
0.5
 74
     0
 49
-0.25
 74
     0
  0
LTYPE
  5
2A
100
AcDbSymbolTableRecord
100
AcDbLinetypeTableRecord
  2
DASHED2
 70
     0
  3
_ _ _ _ _ _ _ _ _ _ _ _ _ _ _ _ _ _ _ _ _ _ _ _
 72
    65
 73
     2
 40
0.375
 49
0.25
 74
     0
 49
-0.125
 74
     0
  0
LTYPE
  5
2B
100
AcDbSymbolTableRecord
100
AcDbLinetypeTableRecord
  2
DASHEDX2
 70
     0
  3
____  ____  ____  ____  ____  ____  ____  ____ 
 72
    65
 73
     2
 40
1.5
 49
1.0
 74
     0
 49
-0.5
 74
     0
  0
LTYPE
  5
2C
100
AcDbSymbolTableRecord
100
AcDbLinetypeTableRecord
  2
DIVIDE
 70
     0
  3
____ . . ____ . . ____ . . ____ . . ____ . . __
 72
    65
 73
     6
 40
1.25
 49
0.5
 74
     0
 49
-0.25
 74
     0
 49
0.0
 74
     0
 49
-0.25
 74
     0
 49
0.0
 74
     0
 49
-0.25
 74
     0
  0
LTYPE
  5
2D
100
AcDbSymbolTableRecord
100
AcDbLinetypeTableRecord
  2
DIVIDE2
 70
     0
  3
__..__..__..__..__..__..__..__..__..__..__..__.
 72
    65
 73
     6
 40
0.625
 49
0.25
 74
     0
 49
-0.125
 74
     0
 49
0.0
 74
     0
 49
-0.125
 74
     0
 49
0.0
 74
     0
 49
-0.125
 74
     0
  0
LTYPE
  5
2E
100
AcDbSymbolTableRecord
100
AcDbLinetypeTableRecord
  2
DIVIDEX2
 70
     0
  3
________  .  .  ________  .  .  ________  .  . 
 72
    65
 73
     6
 40
2.5
 49
1.0
 74
     0
 49
-0.5
 74
     0
 49
0.0
 74
     0
 49
-0.5
 74
     0
 49
0.0
 74
     0
 49
-0.5
 74
     0
  0
LTYPE
  5
2F
100
AcDbSymbolTableRecord
100
AcDbLinetypeTableRecord
  2
DOT
 70
     0
  3
. . . . . . . . . . . . . . . . . . . . . . . .
 72
    65
 73
     2
 40
0.25
 49
0.0
 74
     0
 49
-0.25
 74
     0
  0
LTYPE
  5
30
100
AcDbSymbolTableRecord
100
AcDbLinetypeTableRecord
  2
DOT2
 70
     0
  3
...............................................
 72
    65
 73
     2
 40
0.125
 49
0.0
 74
     0
 49
-0.125
 74
     0
  0
LTYPE
  5
31
100
AcDbSymbolTableRecord
100
AcDbLinetypeTableRecord
  2
DOTX2
 70
     0
  3
.  .  .  .  .  .  .  .  .  .  .  .  .  .  .  . 
 72
    65
 73
     2
 40
0.5
 49
0.0
 74
     0
 49
-0.5
 74
     0
  0
LTYPE
  5
32
100
AcDbSymbolTableRecord
100
AcDbLinetypeTableRecord
  2
HIDDEN
 70
     0
  3
__ __ __ __ __ __ __ __ __ __ __ __ __ __ __ __
 72
    65
 73
     2
 40
0.375
 49
0.25
 74
     0
 49
-0.125
 74
     0
  0
LTYPE
  5
33
100
AcDbSymbolTableRecord
100
AcDbLinetypeTableRecord
  2
HIDDEN2
 70
     0
  3
_ _ _ _ _ _ _ _ _ _ _ _ _ _ _ _ _ _ _ _ _ _ _ _
 72
    65
 73
     2
 40
0.1875
 49
0.125
 74
     0
 49
-0.0625
 74
     0
  0
LTYPE
  5
34
100
AcDbSymbolTableRecord
100
AcDbLinetypeTableRecord
  2
HIDDENX2
 70
     0
  3
____ ____ ____ ____ ____ ____ ____ ____ ____ __
 72
    65
 73
     2
 40
0.75
 49
0.5
 74
     0
 49
-0.25
 74
     0
  0
LTYPE
  5
35
100
AcDbSymbolTableRecord
100
AcDbLinetypeTableRecord
  2
PHANTOM
 70
     0
  3
______  __  __  ______  __  __  ______  __  __ 
 72
    65
 73
     6
 40
2.5
 49
1.25
 74
     0
 49
-0.25
 74
     0
 49
0.25
 74
     0
 49
-0.25
 74
     0
 49
0.25
 74
     0
 49
-0.25
 74
     0
  0
LTYPE
  5
36
100
AcDbSymbolTableRecord
100
AcDbLinetypeTableRecord
  2
PHANTOM2
 70
     0
  3
___ _ _ ___ _ _ ___ _ _ ___ _ _ ___ _ _ ___ _ _
 72
    65
 73
     6
 40
1.25
 49
0.625
 74
     0
 49
-0.125
 74
     0
 49
0.125
 74
     0
 49
-0.125
 74
     0
 49
0.125
 74
     0
 49
-0.125
 74
     0
  0
LTYPE
  5
37
100
AcDbSymbolTableRecord
100
AcDbLinetypeTableRecord
  2
PHANTOMX2
 70
     0
  3
____________    ____    ____    ____________   
 72
    65
 73
     6
 40
5.0
 49
2.5
 74
     0
 49
-0.5
 74
     0
 49
0.5
 74
     0
 49
-0.5
 74
     0
 49
0.5
 74
     0
 49
-0.5
 74
     0
  0
ENDTAB
   0
TABLE
   2
LAYER
   5
2
 100
AcDbSymbolTable
  70
2
   0
LAYER
   5
E
 100
AcDbSymbolTableRecord
 100
AcDbLayerTableRecord
   2
0
  70
0
  62
7
   6
CONTINUOUS
   0
LAYER
   5
39
 100
AcDbSymbolTableRecord
 100
AcDbLayerTableRecord
   2
LEVEL001
  70
0
  62
7
   6
CONTINUOUS
   0
ENDTAB
  0
TABLE
  2
STYLE
  5
3
100
AcDbSymbolTable
  70
4
  0
STYLE
  5
F
100
AcDbSymbolTableRecord
100
AcDbTextStyleTableRecord
  2
STANDARD
 70
     0
 40
0.0
 41
1.0
 50
0.0
 71
     0
 42
0.2
  3
TXT
  4
BIGFONT
  0
STYLE
  5
38
100
AcDbSymbolTableRecord
100
AcDbTextStyleTableRecord
  2
STANDARD1
 70
     4
 40
0.0
 41
1.0
 50
0.0
 71
     0
 42
0.2
  3
TXT
  4
BIGFONT
   0
STYLE
   5
3A
 100
AcDbSymbolTableRecord
 100
AcDbTextStyleTableRecord
   2
GMM001
  70
0
  40
0.0
  41
 1.0000000000000
  50
0.0
  71
     0
  42
1.0
   3
txt.shx
   4
bigfont.shx
   0
STYLE
   5
3B
 100
AcDbSymbolTableRecord
 100
AcDbTextStyleTableRecord
   2
GMM002
  70
0
  40
0.0
  41
 0.75000000000000
  50
0.0
  71
     0
  42
1.0
   3
txt.shx
   4
bigfont.shx
   0
ENDTAB
  0
TABLE
  2
VIEW
  5
6
100
AcDbSymbolTable
 70
     0
  0
ENDTAB
  0
TABLE
  2
UCS
  5
7
100
AcDbSymbolTable
 70
     0
  0
ENDTAB
  0
TABLE
  2
APPID
  5
9
100
AcDbSymbolTable
 70
     1
  0
APPID
  5
10
100
AcDbSymbolTableRecord
100
AcDbRegAppTableRecord
  2
ACAD
 70
     0
  0
ENDTAB
   0
TABLE
   2
DIMSTYLE
   5
A
 100
AcDbSymbolTable
  70
9
  0
DIMSTYLE
105
1D
100
AcDbSymbolTableRecord
100
AcDbDimStyleTableRecord
  2
STANDARD
 70
     0
  3

  4

  5

  6

  7

 40
1.0
 41
0.18
 42
0.0625
 43
0.38
 44
0.18
 45
0.0
 46
0.0
 47
0.0
 48
0.0
140
0.18
141
0.09
142
0.0
143
25.4
144
1.0
145
0.0
146
1.0
147
0.09
 71
     0
 72
     0
 73
     1
 74
     1
 75
     0
 76
     0
 77
     0
 78
     0
170
     0
171
     2
172
     0
173
     0
174
     0
175
     0
176
     0
177
     0
178
     0
270
     2
271
     4
272
     4
273
     2
274
     2
340
F
275
     0
280
     0
281
     0
282
     0
283
     1
284
     0
285
     0
286
     0
287
     3
288
     0
   0
DIMSTYLE
 105
3C
 100
AcDbSymbolTableRecord
 100
AcDbDimStyleTableRecord
   2
GMM001
  70
0
   3

   4

   5

   6
_OPEN30
   7
_OPEN30
  40
 1.0000000000000
  41
 2.0000000000000
  42
 1.0000000000000
  43
 8.0000000000000
  44
 0.75000000000000
  45
0.0
  46
 2.5000000000000
  47
0.0
  48
0.0
 140
 4.0000000000000
 141
 1.0000000000000
 142
0.0
 143
 0.39400000000000E-1
 144
 1.0000000000000
 145
0.0
 146
 0.62500000000000
 147
 1.7142857142857
  71
0
  72
0
  73
0
  74
0
  75
0
  76
0
  77
1
  78
8
 170
0
 171
2
 172
1
 173
1
 174
0
 175
0
 176
2
 177
2
 178
7
 270
2
 271
6
 272
0
 273
2
 274
2
 340
3A
 275
0
 280
0
 281
0
 282
0
 283
1
 284
0
 285
0
 286
0
 287
3
 288
0
   0
DIMSTYLE
 105
3D
 100
AcDbSymbolTableRecord
 100
AcDbDimStyleTableRecord
   2
GMM002
  70
0
   3
%%c<>
   4

   5

   6
_NONE
   7
_OPEN30
  40
 1.0000000000000
  41
 2.0000000000000
  42
 1.0000000000000
  43
 8.0000000000000
  44
 0.75000000000000
  45
0.0
  46
0.0
  47
0.0
  48
0.0
 140
 4.0000000000000
 141
 1.0000000000000
 142
0.0
 143
 0.39400000000000E-1
 144
 1.0000000000000
 145
0.0
 146
 0.62500000000000
 147
 1.7142857142857
  71
0
  72
0
  73
1
  74
1
  75
1
  76
1
  77
1
  78
8
 170
0
 171
2
 172
0
 173
1
 174
0
 175
0
 176
2
 177
2
 178
7
 270
2
 271
6
 272
0
 273
2
 274
2
 340
3A
 275
0
 280
0
 281
0
 282
0
 283
1
 284
0
 285
0
 286
0
 287
3
 288
1
   0
DIMSTYLE
 105
3E
 100
AcDbSymbolTableRecord
 100
AcDbDimStyleTableRecord
   2
GMM003
  70
0
   3
%%c<> 
   4

   5

   6
_OPEN30
   7
_OPEN30
  40
 1.0000000000000
  41
 3.0000000000000
  42
0.0
  43
 8.0000000000000
  44
 2.0000000000000
  45
0.0
  46
 12.161688179971
  47
0.0
  48
0.0
 140
 4.0000000000000
 141
 1.0000000000000
 142
0.0
 143
 0.39400000000000E-1
 144
 1.0000000000000
 145
0.0
 146
 0.62500000000000
 147
0.0
  71
0
  72
0
  73
1
  74
1
  75
1
  76
1
  77
1
  78
8
 170
0
 171
2
 172
1
 173
1
 174
0
 175
0
 176
2
 177
2
 178
7
 270
2
 271
6
 272
0
 273
2
 274
2
 340
3A
 275
1
 280
0
 281
0
 282
0
 283
1
 284
0
 285
0
 286
0
 287
3
 288
1
   0
DIMSTYLE
 105
3F
 100
AcDbSymbolTableRecord
 100
AcDbDimStyleTableRecord
   2
GMM004
  70
0
   3

   4

   5

   6
_OPEN30
   7
_NONE
  40
 1.0000000000000
  41
 2.0000000000000
  42
 1.0000000000000
  43
 8.0000000000000
  44
 0.75000000000000
  45
0.0
  46
 2.5000000000000
  47
0.0
  48
0.0
 140
 4.0000000000000
 141
 1.0000000000000
 142
0.0
 143
 0.39400000000000E-1
 144
 1.0000000000000
 145
0.0
 146
 0.62500000000000
 147
 1.7142857142857
  71
0
  72
0
  73
0
  74
0
  75
0
  76
1
  77
1
  78
8
 170
0
 171
2
 172
1
 173
1
 174
0
 175
0
 176
2
 177
2
 178
7
 270
2
 271
6
 272
0
 273
2
 274
2
 340
3A
 275
0
 280
0
 281
0
 282
0
 283
1
 284
0
 285
0
 286
0
 287
3
 288
0
   0
DIMSTYLE
 105
40
 100
AcDbSymbolTableRecord
 100
AcDbDimStyleTableRecord
   2
GMM005
  70
0
   3

   4

   5

   6
_OPEN30
   7
_OPEN30
  40
 1.0000000000000
  41
 2.0000000000000
  42
 1.0000000000000
  43
 8.0000000000000
  44
 0.75000000000000
  45
0.0
  46
 2.5000000000000
  47
0.0
  48
0.0
 140
 4.0000000000000
 141
 1.0000000000000
 142
0.0
 143
 0.39400000000000E-1
 144
 1.0000000000000
 145
0.0
 146
 0.62500000000000
 147
 1.7142857142857
  71
0
  72
0
  73
0
  74
0
  75
0
  76
1
  77
1
  78
8
 170
0
 171
2
 172
1
 173
1
 174
0
 175
0
 176
2
 177
2
 178
7
 270
2
 271
6
 272
0
 273
2
 274
2
 340
3A
 275
0
 280
0
 281
0
 282
0
 283
1
 284
0
 285
0
 286
0
 287
3
 288
0
   0
DIMSTYLE
 105
41
 100
AcDbSymbolTableRecord
 100
AcDbDimStyleTableRecord
   2
GMM006
  70
0
   3

   4

   5

   6
_NONE
   7
_OPEN30
  40
 1.0000000000000
  41
 2.0000000000000
  42
 1.0000000000000
  43
 8.0000000000000
  44
 0.75000000000000
  45
0.0
  46
 2.5000000000000
  47
0.0
  48
0.0
 140
 4.0000000000000
 141
 1.0000000000000
 142
0.0
 143
 0.39400000000000E-1
 144
 1.0000000000000
 145
0.0
 146
 0.62500000000000
 147
 1.7142857142857
  71
0
  72
0
  73
0
  74
0
  75
0
  76
0
  77
1
  78
8
 170
0
 171
2
 172
1
 173
1
 174
0
 175
0
 176
2
 177
2
 178
7
 270
2
 271
6
 272
0
 273
2
 274
2
 340
3A
 275
0
 280
0
 281
0
 282
0
 283
1
 284
0
 285
0
 286
0
 287
3
 288
0
   0
DIMSTYLE
 105
42
 100
AcDbSymbolTableRecord
 100
AcDbDimStyleTableRecord
   2
GMM007
  70
0
   3
%%c<>
   4

   5

   6
_OPEN30
   7
_OPEN30
  40
 1.0000000000000
  41
 3.0000000000000
  42
 1.0000000000000
  43
 8.0000000000000
  44
 1.0000000000000
  45
0.0
  46
0.0
  47
0.0
  48
0.0
 140
 4.0000000000000
 141
 1.0000000000000
 142
0.0
 143
 0.39400000000000E-1
 144
 1.0000000000000
 145
0.0
 146
 0.62500000000000
 147
 1.7142857142857
  71
0
  72
0
  73
0
  74
0
  75
0
  76
0
  77
3
  78
8
 170
0
 171
2
 172
1
 173
1
 174
0
 175
0
 176
6
 177
6
 178
6
 270
2
 271
6
 272
0
 273
2
 274
2
 340
3B
 275
1
 280
0
 281
0
 282
0
 283
1
 284
0
 285
0
 286
0
 287
3
 288
0
   0
ENDTAB
  0
TABLE
  2
BLOCK_RECORD
  5
1
100
AcDbSymbolTable
 70
     0
  0
BLOCK_RECORD
  5
18
100
AcDbSymbolTableRecord
100
AcDbBlockTableRecord
  2
*MODEL_SPACE
  0
BLOCK_RECORD
  5
15
100
AcDbSymbolTableRecord
100
AcDbBlockTableRecord
  2
*PAPER_SPACE
   0
BLOCK_RECORD
   5
43
 100
AcDbSymbolTableRecord
 100
AcDbBlockTableRecord
   2
BLOCK001
   0
BLOCK_RECORD
   5
44
 100
AcDbSymbolTableRecord
 100
AcDbBlockTableRecord
   2
*D1
   0
BLOCK_RECORD
   5
45
 100
AcDbSymbolTableRecord
 100
AcDbBlockTableRecord
   2
*D2
   0
BLOCK_RECORD
   5
46
 100
AcDbSymbolTableRecord
 100
AcDbBlockTableRecord
   2
*D3
   0
BLOCK_RECORD
   5
47
 100
AcDbSymbolTableRecord
 100
AcDbBlockTableRecord
   2
*D4
   0
BLOCK_RECORD
   5
48
 100
AcDbSymbolTableRecord
 100
AcDbBlockTableRecord
   2
*D5
   0
BLOCK_RECORD
   5
49
 100
AcDbSymbolTableRecord
 100
AcDbBlockTableRecord
   2
*D6
   0
BLOCK_RECORD
   5
4A
 100
AcDbSymbolTableRecord
 100
AcDbBlockTableRecord
   2
BLOCK002
   0
BLOCK_RECORD
   5
4B
 100
AcDbSymbolTableRecord
 100
AcDbBlockTableRecord
   2
BLOCK003
   0
BLOCK_RECORD
   5
4C
 100
AcDbSymbolTableRecord
 100
AcDbBlockTableRecord
   2
*D7
   0
BLOCK_RECORD
   5
4D
 100
AcDbSymbolTableRecord
 100
AcDbBlockTableRecord
   2
BLOCK004
   0
BLOCK_RECORD
   5
4E
 100
AcDbSymbolTableRecord
 100
AcDbBlockTableRecord
   2
*D8
   0
BLOCK_RECORD
   5
4F
 100
AcDbSymbolTableRecord
 100
AcDbBlockTableRecord
   2
*D9
   0
BLOCK_RECORD
   5
50
 100
AcDbSymbolTableRecord
 100
AcDbBlockTableRecord
   2
*D10
   0
BLOCK_RECORD
   5
51
 100
AcDbSymbolTableRecord
 100
AcDbBlockTableRecord
   2
*D11
   0
BLOCK_RECORD
   5
52
 100
AcDbSymbolTableRecord
 100
AcDbBlockTableRecord
   2
*D12
   0
BLOCK_RECORD
   5
53
 100
AcDbSymbolTableRecord
 100
AcDbBlockTableRecord
   2
*D13
   0
BLOCK_RECORD
   5
54
 100
AcDbSymbolTableRecord
 100
AcDbBlockTableRecord
   2
BLOCK005
   0
BLOCK_RECORD
   5
55
 100
AcDbSymbolTableRecord
 100
AcDbBlockTableRecord
   2
BLOCK006
   0
BLOCK_RECORD
   5
56
 100
AcDbSymbolTableRecord
 100
AcDbBlockTableRecord
   2
*D14
   0
BLOCK_RECORD
   5
57
 100
AcDbSymbolTableRecord
 100
AcDbBlockTableRecord
   2
*D15
   0
BLOCK_RECORD
   5
58
 100
AcDbSymbolTableRecord
 100
AcDbBlockTableRecord
   2
_ARCHTICK
   0
BLOCK_RECORD
   5
59
 100
AcDbSymbolTableRecord
 100
AcDbBlockTableRecord
   2
_BOXBLANK
   0
BLOCK_RECORD
   5
5A
 100
AcDbSymbolTableRecord
 100
AcDbBlockTableRecord
   2
_BOXFILLED
   0
BLOCK_RECORD
   5
5B
 100
AcDbSymbolTableRecord
 100
AcDbBlockTableRecord
   2
_CLOSED
   0
BLOCK_RECORD
   5
5C
 100
AcDbSymbolTableRecord
 100
AcDbBlockTableRecord
   2
_CLOSEDBLANK
   0
BLOCK_RECORD
   5
5D
 100
AcDbSymbolTableRecord
 100
AcDbBlockTableRecord
   2
_DATUMBLANK
   0
BLOCK_RECORD
   5
5E
 100
AcDbSymbolTableRecord
 100
AcDbBlockTableRecord
   2
_DATUMFILLED
   0
BLOCK_RECORD
   5
5F
 100
AcDbSymbolTableRecord
 100
AcDbBlockTableRecord
   2
_DOT
   0
BLOCK_RECORD
   5
60
 100
AcDbSymbolTableRecord
 100
AcDbBlockTableRecord
   2
_DOTBLANK
   0
BLOCK_RECORD
   5
61
 100
AcDbSymbolTableRecord
 100
AcDbBlockTableRecord
   2
_DOTSMALL
   0
BLOCK_RECORD
   5
62
 100
AcDbSymbolTableRecord
 100
AcDbBlockTableRecord
   2
_INTEGRAL
   0
BLOCK_RECORD
   5
63
 100
AcDbSymbolTableRecord
 100
AcDbBlockTableRecord
   2
_NONE
   0
BLOCK_RECORD
   5
64
 100
AcDbSymbolTableRecord
 100
AcDbBlockTableRecord
   2
_OBLIQUE
   0
BLOCK_RECORD
   5
65
 100
AcDbSymbolTableRecord
 100
AcDbBlockTableRecord
   2
_OPEN
   0
BLOCK_RECORD
   5
66
 100
AcDbSymbolTableRecord
 100
AcDbBlockTableRecord
   2
_OPEN30
   0
BLOCK_RECORD
   5
67
 100
AcDbSymbolTableRecord
 100
AcDbBlockTableRecord
   2
_OPEN90
   0
BLOCK_RECORD
   5
68
 100
AcDbSymbolTableRecord
 100
AcDbBlockTableRecord
   2
_ORIGIN
   0
ENDTAB
   0
ENDSEC
  0
SECTION
  2
BLOCKS
  0
BLOCK
  5
19
100
AcDbEntity
  8
0
100
AcDbBlockBegin
  2
*MODEL_SPACE
 70
     0
 10
0.0
 20
0.0
 30
0.0
  3
*MODEL_SPACE
  1

  0
ENDBLK
  5
1A
100
AcDbEntity
  8
0
100
AcDbBlockEnd
  0
BLOCK
  5
16
100
AcDbEntity
 67
     1
  8
0
100
AcDbBlockBegin
  2
*PAPER_SPACE
 70
     0
 10
0.0
 20
0.0
 30
0.0
  3
*PAPER_SPACE
  1

  0
ENDBLK
  5
17
100
AcDbEntity
 67
     1
  8
0
100
AcDbBlockEnd
   0
BLOCK
   5
69
 100
AcDbEntity
   8
0
 100
AcDbBlockBegin
   2
_ARCHTICK
  70
0
  10
0.0
  20
0.0
  30
0.0
   3
_ARCHTICK
   0
POLYLINE
   5
6A
 100
AcDbEntity
   8
0
   6
BYBLOCK
  62
0
 100
AcDb2dPolyline
  66
1
  10
0.0
  20
0.0
  30
0.0
  70
1
  40
 0.15000000000000
  41
 0.15000000000000
   0
VERTEX
   5
6B
 100
AcDbEntity
   8
0
   6
BYBLOCK
  62
0
 100
AcDbVertex
 100
AcDb2dVertex
  10
-0.50000000000000
  20
-0.50000000000000
  30
0.0
  40
 0.15000000000000
  41
 0.15000000000000
   0
VERTEX
   5
6C
 100
AcDbEntity
   8
0
   6
BYBLOCK
  62
0
 100
AcDbVertex
 100
AcDb2dVertex
  10
 0.50000000000000
  20
 0.50000000000000
  30
0.0
  40
 0.15000000000000
  41
 0.15000000000000
   0
SEQEND
   5
6D
 100
AcDbEntity
   8
0
   6
BYBLOCK
  62
0
   0
ENDBLK
   5
6E
 100
AcDbEntity
   8
0
 100
AcDbBlockEnd
   0
BLOCK
   5
6F
 100
AcDbEntity
   8
0
 100
AcDbBlockBegin
   2
_OBLIQUE
  70
0
  10
0.0
  20
0.0
  30
0.0
   3
_OBLIQUE
   0
LINE
   5
70
 100
AcDbEntity
   8
0
 100
AcDbLine
   6
BYBLOCK
  62
0
  10
-0.50000000000000
  20
-0.50000000000000
  30
0.0
  11
 0.50000000000000
  21
 0.50000000000000
  31
0.0
   0
ENDBLK
   5
71
 100
AcDbEntity
   8
0
 100
AcDbBlockEnd
   0
BLOCK
   5
72
 100
AcDbEntity
   8
0
 100
AcDbBlockBegin
   2
_BOXBLANK
  70
0
  10
0.0
  20
0.0
  30
0.0
   3
_BOXBLANK
   0
LINE
   5
73
 100
AcDbEntity
   8
0
 100
AcDbLine
   6
BYBLOCK
  62
0
  10
-0.50000000000000
  20
-0.50000000000000
  30
0.0
  11
 0.50000000000000
  21
-0.50000000000000
  31
0.0
   0
LINE
   5
74
 100
AcDbEntity
   8
0
 100
AcDbLine
   6
BYBLOCK
  62
0
  10
 0.50000000000000
  20
-0.50000000000000
  30
0.0
  11
 0.50000000000000
  21
 0.50000000000000
  31
0.0
   0
LINE
   5
75
 100
AcDbEntity
   8
0
 100
AcDbLine
   6
BYBLOCK
  62
0
  10
 0.50000000000000
  20
 0.50000000000000
  30
0.0
  11
-0.50000000000000
  21
 0.50000000000000
  31
0.0
   0
LINE
   5
76
 100
AcDbEntity
   8
0
 100
AcDbLine
   6
BYBLOCK
  62
0
  10
-0.50000000000000
  20
 0.50000000000000
  30
0.0
  11
-0.50000000000000
  21
-0.50000000000000
  31
0.0
   0
LINE
   5
77
 100
AcDbEntity
   8
0
 100
AcDbLine
   6
BYBLOCK
  62
0
  10
-0.50000000000000
  20
0.0
  30
0.0
  11
-1.0000000000000
  21
0.0
  31
0.0
   0
ENDBLK
   5
78
 100
AcDbEntity
   8
0
 100
AcDbBlockEnd
   0
BLOCK
   5
79
 100
AcDbEntity
   8
0
 100
AcDbBlockBegin
   2
_BOXFILLED
  70
0
  10
0.0
  20
0.0
  30
0.0
   3
_BOXFILLED
   0
SOLID
   5
7A
 100
AcDbEntity
   8
0
 100
AcDbTrace
   6
BYBLOCK
  62
0
  10
-0.50000000000000
  20
 0.50000000000000
  30
0.0
  11
 0.50000000000000
  21
 0.50000000000000
  31
0.0
  12
-0.50000000000000
  22
-0.50000000000000
  32
0.0
  13
 0.50000000000000
  23
-0.50000000000000
  33
0.0
   0
LINE
   5
7B
 100
AcDbEntity
   8
0
 100
AcDbLine
   6
BYBLOCK
  62
0
  10
-0.50000000000000
  20
0.0
  30
0.0
  11
-1.0000000000000
  21
0.0
  31
0.0
   0
ENDBLK
   5
7C
 100
AcDbEntity
   8
0
 100
AcDbBlockEnd
   0
BLOCK
   5
7D
 100
AcDbEntity
   8
0
 100
AcDbBlockBegin
   2
_CLOSED
  70
0
  10
0.0
  20
0.0
  30
0.0
   3
_CLOSED
   0
LINE
   5
7E
 100
AcDbEntity
   8
0
 100
AcDbLine
   6
BYBLOCK
  62
0
  10
-1.0000000000000
  20
 0.16666666666667
  30
0.0
  11
0.0
  21
0.0
  31
0.0
   0
LINE
   5
7F
 100
AcDbEntity
   8
0
 100
AcDbLine
   6
BYBLOCK
  62
0
  10
0.0
  20
0.0
  30
0.0
  11
-1.0000000000000
  21
-0.16666666666667
  31
0.0
   0
LINE
   5
80
 100
AcDbEntity
   8
0
 100
AcDbLine
   6
BYBLOCK
  62
0
  10
-1.0000000000000
  20
 0.16666666666667
  30
0.0
  11
-1.0000000000000
  21
-0.16666666666667
  31
0.0
   0
LINE
   5
81
 100
AcDbEntity
   8
0
 100
AcDbLine
   6
BYBLOCK
  62
0
  10
0.0
  20
0.0
  30
0.0
  11
-1.0000000000000
  21
0.0
  31
0.0
   0
ENDBLK
   5
82
 100
AcDbEntity
   8
0
 100
AcDbBlockEnd
   0
BLOCK
   5
83
 100
AcDbEntity
   8
0
 100
AcDbBlockBegin
   2
_OPEN
  70
0
  10
0.0
  20
0.0
  30
0.0
   3
_OPEN
   0
LINE
   5
84
 100
AcDbEntity
   8
0
 100
AcDbLine
   6
BYBLOCK
  62
0
  10
-1.0000000000000
  20
 0.16666666666667
  30
0.0
  11
0.0
  21
0.0
  31
0.0
   0
LINE
   5
85
 100
AcDbEntity
   8
0
 100
AcDbLine
   6
BYBLOCK
  62
0
  10
0.0
  20
0.0
  30
0.0
  11
-1.0000000000000
  21
-0.16666666666667
  31
0.0
   0
LINE
   5
86
 100
AcDbEntity
   8
0
 100
AcDbLine
   6
BYBLOCK
  62
0
  10
0.0
  20
0.0
  30
0.0
  11
-1.0000000000000
  21
0.0
  31
0.0
   0
ENDBLK
   5
87
 100
AcDbEntity
   8
0
 100
AcDbBlockEnd
   0
BLOCK
   5
88
 100
AcDbEntity
   8
0
 100
AcDbBlockBegin
   2
_OPEN30
  70
0
  10
0.0
  20
0.0
  30
0.0
   3
_OPEN30
   0
LINE
   5
89
 100
AcDbEntity
   8
0
 100
AcDbLine
   6
BYBLOCK
  62
0
  10
-1.0000000000000
  20
 0.26794919243110
  30
0.0
  11
0.0
  21
0.0
  31
0.0
   0
LINE
   5
8A
 100
AcDbEntity
   8
0
 100
AcDbLine
   6
BYBLOCK
  62
0
  10
0.0
  20
0.0
  30
0.0
  11
-1.0000000000000
  21
-0.26794919243110
  31
0.0
   0
LINE
   5
8B
 100
AcDbEntity
   8
0
 100
AcDbLine
   6
BYBLOCK
  62
0
  10
0.0
  20
0.0
  30
0.0
  11
-1.0000000000000
  21
0.0
  31
0.0
   0
ENDBLK
   5
8C
 100
AcDbEntity
   8
0
 100
AcDbBlockEnd
   0
BLOCK
   5
8D
 100
AcDbEntity
   8
0
 100
AcDbBlockBegin
   2
_OPEN90
  70
0
  10
0.0
  20
0.0
  30
0.0
   3
_OPEN90
   0
LINE
   5
8E
 100
AcDbEntity
   8
0
 100
AcDbLine
   6
BYBLOCK
  62
0
  10
-0.50000000000000
  20
 0.50000000000000
  30
0.0
  11
0.0
  21
0.0
  31
0.0
   0
LINE
   5
8F
 100
AcDbEntity
   8
0
 100
AcDbLine
   6
BYBLOCK
  62
0
  10
0.0
  20
0.0
  30
0.0
  11
-0.50000000000000
  21
-0.50000000000000
  31
0.0
   0
LINE
   5
90
 100
AcDbEntity
   8
0
 100
AcDbLine
   6
BYBLOCK
  62
0
  10
0.0
  20
0.0
  30
0.0
  11
-1.0000000000000
  21
0.0
  31
0.0
   0
ENDBLK
   5
91
 100
AcDbEntity
   8
0
 100
AcDbBlockEnd
   0
BLOCK
   5
92
 100
AcDbEntity
   8
0
 100
AcDbBlockBegin
   2
_CLOSEDBLANK
  70
0
  10
0.0
  20
0.0
  30
0.0
   3
_CLOSEDBLANK
   0
LINE
   5
93
 100
AcDbEntity
   8
0
 100
AcDbLine
   6
BYBLOCK
  62
0
  10
-1.0000000000000
  20
 0.16666666666667
  30
0.0
  11
0.0
  21
0.0
  31
0.0
   0
LINE
   5
94
 100
AcDbEntity
   8
0
 100
AcDbLine
   6
BYBLOCK
  62
0
  10
0.0
  20
0.0
  30
0.0
  11
-1.0000000000000
  21
-0.16666666666667
  31
0.0
   0
LINE
   5
95
 100
AcDbEntity
   8
0
 100
AcDbLine
   6
BYBLOCK
  62
0
  10
-1.0000000000000
  20
 0.16666666666667
  30
0.0
  11
-1.0000000000000
  21
-0.16666666666667
  31
0.0
   0
ENDBLK
   5
96
 100
AcDbEntity
   8
0
 100
AcDbBlockEnd
   0
BLOCK
   5
97
 100
AcDbEntity
   8
0
 100
AcDbBlockBegin
   2
_DOT
  70
0
  10
0.0
  20
0.0
  30
0.0
   3
_DOT
   0
POLYLINE
   5
98
 100
AcDbEntity
   8
0
   6
BYBLOCK
  62
0
 100
AcDb2dPolyline
  66
1
  10
0.0
  20
0.0
  30
0.0
  70
1
  40
 0.50000000000000
  41
 0.50000000000000
   0
VERTEX
   5
99
 100
AcDbEntity
   8
0
   6
BYBLOCK
  62
0
 100
AcDbVertex
 100
AcDb2dVertex
  10
-0.25000000000000
  20
0.0
  30
0.0
  42
 1.0000000000000
  40
 0.50000000000000
  41
 0.50000000000000
   0
VERTEX
   5
9A
 100
AcDbEntity
   8
0
   6
BYBLOCK
  62
0
 100
AcDbVertex
 100
AcDb2dVertex
  10
 0.25000000000000
  20
0.0
  30
0.0
  42
 1.0000000000000
  40
 0.50000000000000
  41
 0.50000000000000
   0
SEQEND
   5
9B
 100
AcDbEntity
   8
0
   6
BYBLOCK
  62
0
   0
LINE
   5
9C
 100
AcDbEntity
   8
0
 100
AcDbLine
   6
BYBLOCK
  62
0
  10
-0.50000000000000
  20
0.0
  30
0.0
  11
-1.0000000000000
  21
0.0
  31
0.0
   0
ENDBLK
   5
9D
 100
AcDbEntity
   8
0
 100
AcDbBlockEnd
   0
BLOCK
   5
9E
 100
AcDbEntity
   8
0
 100
AcDbBlockBegin
   2
_DOTSMALL
  70
0
  10
0.0
  20
0.0
  30
0.0
   3
_DOTSMALL
   0
POLYLINE
   5
9F
 100
AcDbEntity
   8
0
   6
BYBLOCK
  62
0
 100
AcDb2dPolyline
  66
1
  10
0.0
  20
0.0
  30
0.0
  70
1
  40
 0.50000000000000
  41
 0.50000000000000
   0
VERTEX
   5
A0
 100
AcDbEntity
   8
0
   6
BYBLOCK
  62
0
 100
AcDbVertex
 100
AcDb2dVertex
  10
-0.62500000000000E-1
  20
0.0
  30
0.0
  42
 1.0000000000000
  40
 0.50000000000000
  41
 0.50000000000000
   0
VERTEX
   5
A1
 100
AcDbEntity
   8
0
   6
BYBLOCK
  62
0
 100
AcDbVertex
 100
AcDb2dVertex
  10
 0.62500000000000E-1
  20
0.0
  30
0.0
  42
 1.0000000000000
  40
 0.50000000000000
  41
 0.50000000000000
   0
SEQEND
   5
A2
 100
AcDbEntity
   8
0
   6
BYBLOCK
  62
0
   0
ENDBLK
   5
A3
 100
AcDbEntity
   8
0
 100
AcDbBlockEnd
   0
BLOCK
   5
A4
 100
AcDbEntity
   8
0
 100
AcDbBlockBegin
   2
_DATUMBLANK
  70
0
  10
0.0
  20
0.0
  30
0.0
   3
_DATUMBLANK
   0
LINE
   5
A5
 100
AcDbEntity
   8
0
 100
AcDbLine
   6
BYBLOCK
  62
0
  10
0.0
  20
 0.57735027000000
  30
0.0
  11
-1.0000000000000
  21
0.0
  31
0.0
   0
LINE
   5
A6
 100
AcDbEntity
   8
0
 100
AcDbLine
   6
BYBLOCK
  62
0
  10
-1.0000000000000
  20
0.0
  30
0.0
  11
0.0
  21
-0.57735027000000
  31
0.0
   0
LINE
   5
A7
 100
AcDbEntity
   8
0
 100
AcDbLine
   6
BYBLOCK
  62
0
  10
0.0
  20
-0.57735027000000
  30
0.0
  11
0.0
  21
 0.57735027000000
  31
0.0
   0
ENDBLK
   5
A8
 100
AcDbEntity
   8
0
 100
AcDbBlockEnd
   0
BLOCK
   5
A9
 100
AcDbEntity
   8
0
 100
AcDbBlockBegin
   2
_DATUMFILLED
  70
0
  10
0.0
  20
0.0
  30
0.0
   3
_DATUMFILLED
   0
SOLID
   5
AA
 100
AcDbEntity
   8
0
 100
AcDbTrace
   6
BYBLOCK
  62
0
  10
0.0
  20
 0.57735027000000
  30
0.0
  11
-1.0000000000000
  21
0.0
  31
0.0
  12
0.0
  22
-0.57735027000000
  32
0.0
  13
0.0
  23
-0.57735027000000
  33
0.0
   0
ENDBLK
   5
AB
 100
AcDbEntity
   8
0
 100
AcDbBlockEnd
   0
BLOCK
   5
AC
 100
AcDbEntity
   8
0
 100
AcDbBlockBegin
   2
_ORIGIN
  70
0
  10
0.0
  20
0.0
  30
0.0
   3
_ORIGIN
   0
CIRCLE
   5
AD
 100
AcDbEntity
   8
0
 100
AcDbCircle
   6
BYBLOCK
  62
0
  10
0.0
  20
0.0
  30
0.0
  40
 0.50000000000000
   0
LINE
   5
AE
 100
AcDbEntity
   8
0
 100
AcDbLine
   6
BYBLOCK
  62
0
  10
0.0
  20
0.0
  30
0.0
  11
-1.0000000000000
  21
0.0
  31
0.0
   0
ENDBLK
   5
AF
 100
AcDbEntity
   8
0
 100
AcDbBlockEnd
   0
BLOCK
   5
B0
 100
AcDbEntity
   8
0
 100
AcDbBlockBegin
   2
_NONE
  70
0
  10
0.0
  20
0.0
  30
0.0
   3
_NONE
   0
CIRCLE
   5
B1
 100
AcDbEntity
   8
0
 100
AcDbCircle
   6
BYBLOCK
  62
0
  10
0.0
  20
0.0
  30
0.0
  40
 0.25000000000000
   0
ENDBLK
   5
B2
 100
AcDbEntity
   8
0
 100
AcDbBlockEnd
   0
BLOCK
   5
B3
 100
AcDbEntity
   8
0
 100
AcDbBlockBegin
   2
_DOTBLANK
  70
0
  10
0.0
  20
0.0
  30
0.0
   3
_DOTBLANK
   0
CIRCLE
   5
B4
 100
AcDbEntity
   8
0
 100
AcDbCircle
   6
BYBLOCK
  62
0
  10
0.0
  20
0.0
  30
0.0
  40
 0.50000000000000
   0
LINE
   5
B5
 100
AcDbEntity
   8
0
 100
AcDbLine
   6
BYBLOCK
  62
0
  10
-0.50000000000000
  20
0.0
  30
0.0
  11
-1.0000000000000
  21
0.0
  31
0.0
   0
ENDBLK
   5
B6
 100
AcDbEntity
   8
0
 100
AcDbBlockEnd
   0
BLOCK
   5
B7
 100
AcDbEntity
   8
0
 100
AcDbBlockBegin
   2
_INTEGRAL
  70
0
  10
0.0
  20
0.0
  30
0.0
   3
_INTEGRAL
   0
ARC
   5
B8
 100
AcDbEntity
   8
0
   6
BYBLOCK
  62
0
 100
AcDbCircle
  10
 0.44488800000000
  20
-0.91335000000000E-1
  30
0.0
  40
 0.45416700000000
 100
AcDbArc
  50
 102.00000000000
  51
 168.00000000000
   0
ARC
   5
B9
 100
AcDbEntity
   8
0
   6
BYBLOCK
  62
0
 100
AcDbCircle
  10
-0.44488800000000
  20
 0.91335000000000E-1
  30
0.0
  40
 0.45416700000000
 100
AcDbArc
  50
 282.00000000000
  51
 348.00000000000
   0
ENDBLK
   5
BA
 100
AcDbEntity
   8
0
 100
AcDbBlockEnd
   0
BLOCK
   5
BB
 100
AcDbEntity
   8
0
 100
AcDbBlockBegin
   2
BLOCK001
  70
64
  10
0.0
  20
0.0
  30
0.0
   3
BLOCK001
   0
LWPOLYLINE
   5
BC
 100
AcDbEntity
   8
LEVEL001
   6
CONTINUOUS
  62
8
 100
AcDbPolyline
  90
22
  70
1
  10
 308.57933271356
  20
 18.501906399220
  10
 311.87601195884
  20
 23.726906399220
  10
 315.22001195884
  20
 23.726906399220
  10
 311.92333271356
  20
 18.501906399220
  10
 312.56465346828
  20
 16.191906399220
  10
 335.37201195884
  20
 16.191906399220
  10
 335.37201195884
  20
 15.839906399220
  10
 312.66237853566
  20
 15.839906399220
  10
 313.54801195884
  20
 12.649906399220
  10
 309.78601195884
  20
 12.649906399220
  10
 309.12823567852
  20
 15.839906399220
  10
 308.17752139281
  20
 15.839906399220
  10
 307.69601195884
  20
 12.649906399220
  10
 304.35201195884
  20
 12.649906399220
  10
 304.83352139281
  20
 15.839906399220
  10
 303.25201195884
  20
 15.839906399220
  10
 303.25201195884
  20
 16.191906399220
  10
 304.88665346828
  20
 16.191906399220
  10
 306.02401195884
  20
 23.726906399220
  10
 309.36801195884
  20
 23.726906399220
  10
 308.23065346828
  20
 16.191906399220
  10
 309.05565346828
  20
 16.191906399220
   0
ENDBLK
   5
BD
 100
AcDbEntity
   8
0
 100
AcDbBlockEnd
   0
BLOCK
   5
BE
 100
AcDbEntity
   8
0
 100
AcDbBlockBegin
   2
*D1
  70
65
  10
0.0
  20
0.0
  30
0.0
   3
*D1
   0
LINE
   5
BF
 100
AcDbEntity
   8
LEVEL001
 100
AcDbLine
   6
CONTINUOUS
  62
2
  10
 178.59931492565
  20
 224.94795120854
  30
0.0
  11
 178.59931492565
  21
 236.82988451379
  31
0.0
   0
LINE
   5
C0
 100
AcDbEntity
   8
LEVEL001
 100
AcDbLine
   6
CONTINUOUS
  62
2
  10
 216.59931492565
  20
 224.94795120854
  30
0.0
  11
 216.59931492565
  21
 236.82988451379
  31
0.0
   0
LINE
   5
C1
 100
AcDbEntity
   8
LEVEL001
 100
AcDbLine
   6
CONTINUOUS
  62
2
  10
 178.59931492565
  20
 236.07988451379
  30
0.0
  11
 216.59931492565
  21
 236.07988451379
  31
0.0
   0
INSERT
   5
C2
 100
AcDbEntity
   8
LEVEL001
   6
CONTINUOUS
  62
2
 100
AcDbBlockReference
   2
_OPEN30
  10
 178.59931492565
  20
 236.07988451379
  30
0.0
  41
 2.0000000000000
  42
 2.0000000000000
  43
 2.0000000000000
  50
 180.00000000000
   0
INSERT
   5
C3
 100
AcDbEntity
   8
LEVEL001
   6
CONTINUOUS
  62
2
 100
AcDbBlockReference
   2
_OPEN30
  10
 216.59931492565
  20
 236.07988451379
  30
0.0
  41
 2.0000000000000
  42
 2.0000000000000
  43
 2.0000000000000
  50
0.0
   0
MTEXT
   5
C4
 100
AcDbEntity
   8
LEVEL001
  62
7
 100
AcDbMText
  10
 197.59931492565
  20
 237.79417022807
  30
0.0
  40
 4.0000000000000
  41
0.0
  71
8
  72
1
   1
\A1;38
   7
GMM001
   0
ENDBLK
   5
C5
 100
AcDbEntity
   8
0
 100
AcDbBlockEnd
   0
BLOCK
   5
C6
 100
AcDbEntity
   8
0
 100
AcDbBlockBegin
   2
*D2
  70
65
  10
0.0
  20
0.0
  30
0.0
   3
*D2
   0
LINE
   5
C7
 100
AcDbEntity
   8
LEVEL001
 100
AcDbLine
   6
CONTINUOUS
  62
2
  10
 177.59931492565
  20
 185.94795120854
  30
0.0
  11
 164.21404054412
  21
 185.94795120854
  31
0.0
   0
LINE
   5
C8
 100
AcDbEntity
   8
LEVEL001
 100
AcDbLine
   6
CONTINUOUS
  62
2
  10
 177.59931492565
  20
 223.94795120854
  30
0.0
  11
 164.21404054412
  21
 223.94795120854
  31
0.0
   0
LINE
   5
C9
 100
AcDbEntity
   8
LEVEL001
 100
AcDbLine
   6
CONTINUOUS
  62
2
  10
 164.96404054412
  20
 185.94795120854
  30
0.0
  11
 164.96404054412
  21
 223.94795120854
  31
0.0
   0
INSERT
   5
CA
 100
AcDbEntity
   8
LEVEL001
   6
CONTINUOUS
  62
2
 100
AcDbBlockReference
   2
_OPEN30
  10
 164.96404054412
  20
 185.94795120854
  30
0.0
  41
 2.0000000000000
  42
 2.0000000000000
  43
 2.0000000000000
  50
 270.00000000000
   0
INSERT
   5
CB
 100
AcDbEntity
   8
LEVEL001
   6
CONTINUOUS
  62
2
 100
AcDbBlockReference
   2
_OPEN30
  10
 164.96404054412
  20
 223.94795120854
  30
0.0
  41
 2.0000000000000
  42
 2.0000000000000
  43
 2.0000000000000
  50
 90.000000000000
   0
MTEXT
   5
CC
 100
AcDbEntity
   8
LEVEL001
  62
7
 100
AcDbMText
  10
 163.24975482983
  20
 204.94795120854
  30
0.0
  40
 4.0000000000000
  41
0.0
  71
8
  72
1
   1
\A1;38
   7
GMM001
  11
0.0
  21
 1.0000000000000
  31
0.0
   0
ENDBLK
   5
CD
 100
AcDbEntity
   8
0
 100
AcDbBlockEnd
   0
BLOCK
   5
CE
 100
AcDbEntity
   8
0
 100
AcDbBlockBegin
   2
*D3
  70
65
  10
0.0
  20
0.0
  30
0.0
   3
*D3
   0
LINE
   5
CF
 100
AcDbEntity
   8
LEVEL001
 100
AcDbLine
   6
CONTINUOUS
  62
2
  10
 389.44834548211
  20
 223.94795120852
  30
0.0
  11
 401.50906329073
  21
 223.94795120852
  31
0.0
   0
LINE
   5
D0
 100
AcDbEntity
   8
LEVEL001
 100
AcDbLine
   6
CONTINUOUS
  62
2
  10
 389.44834548211
  20
 185.94795120852
  30
0.0
  11
 401.50906329073
  21
 185.94795120852
  31
0.0
   0
LINE
   5
D1
 100
AcDbEntity
   8
LEVEL001
 100
AcDbLine
   6
CONTINUOUS
  62
2
  10
 400.75906329073
  20
 223.94795120852
  30
0.0
  11
 400.75906329073
  21
 185.94795120852
  31
0.0
   0
INSERT
   5
D2
 100
AcDbEntity
   8
LEVEL001
   6
CONTINUOUS
  62
2
 100
AcDbBlockReference
   2
_OPEN30
  10
 400.75906329073
  20
 223.94795120852
  30
0.0
  41
 2.0000000000000
  42
 2.0000000000000
  43
 2.0000000000000
  50
 90.000000000000
   0
INSERT
   5
D3
 100
AcDbEntity
   8
LEVEL001
   6
CONTINUOUS
  62
2
 100
AcDbBlockReference
   2
_OPEN30
  10
 400.75906329073
  20
 185.94795120852
  30
0.0
  41
 2.0000000000000
  42
 2.0000000000000
  43
 2.0000000000000
  50
 270.00000000000
   0
MTEXT
   5
D4
 100
AcDbEntity
   8
LEVEL001
  62
7
 100
AcDbMText
  10
 399.04477757645
  20
 204.94795120852
  30
0.0
  40
 4.0000000000000
  41
0.0
  71
8
  72
1
   1
\A1;38
   7
GMM001
  11
0.0
  21
 1.0000000000000
  31
0.0
   0
ENDBLK
   5
D5
 100
AcDbEntity
   8
0
 100
AcDbBlockEnd
   0
BLOCK
   5
D6
 100
AcDbEntity
   8
0
 100
AcDbBlockBegin
   2
*D4
  70
65
  10
0.0
  20
0.0
  30
0.0
   3
*D4
   0
LINE
   5
D7
 100
AcDbEntity
   8
LEVEL001
 100
AcDbLine
   6
CONTINUOUS
  62
2
  10
 350.44834548211
  20
 224.94795120852
  30
0.0
  11
 350.44834548211
  21
 236.82988451379
  31
0.0
   0
LINE
   5
D8
 100
AcDbEntity
   8
LEVEL001
 100
AcDbLine
   6
CONTINUOUS
  62
2
  10
 388.44834548211
  20
 224.94795120852
  30
0.0
  11
 388.44834548211
  21
 236.82988451379
  31
0.0
   0
LINE
   5
D9
 100
AcDbEntity
   8
LEVEL001
 100
AcDbLine
   6
CONTINUOUS
  62
2
  10
 350.44834548211
  20
 236.07988451379
  30
0.0
  11
 388.44834548211
  21
 236.07988451379
  31
0.0
   0
INSERT
   5
DA
 100
AcDbEntity
   8
LEVEL001
   6
CONTINUOUS
  62
2
 100
AcDbBlockReference
   2
_OPEN30
  10
 350.44834548211
  20
 236.07988451379
  30
0.0
  41
 2.0000000000000
  42
 2.0000000000000
  43
 2.0000000000000
  50
 180.00000000000
   0
INSERT
   5
DB
 100
AcDbEntity
   8
LEVEL001
   6
CONTINUOUS
  62
2
 100
AcDbBlockReference
   2
_OPEN30
  10
 388.44834548211
  20
 236.07988451379
  30
0.0
  41
 2.0000000000000
  42
 2.0000000000000
  43
 2.0000000000000
  50
0.0
   0
MTEXT
   5
DC
 100
AcDbEntity
   8
LEVEL001
  62
7
 100
AcDbMText
  10
 369.44834548211
  20
 237.79417022807
  30
0.0
  40
 4.0000000000000
  41
0.0
  71
8
  72
1
   1
\A1;38
   7
GMM001
   0
ENDBLK
   5
DD
 100
AcDbEntity
   8
0
 100
AcDbBlockEnd
   0
BLOCK
   5
DE
 100
AcDbEntity
   8
0
 100
AcDbBlockBegin
   2
*D5
  70
65
  10
0.0
  20
0.0
  30
0.0
   3
*D5
   0
POLYLINE
   5
DF
 100
AcDbEntity
   8
LEVEL001
   6
CONTINUOUS
  62
2
 100
AcDb2dPolyline
  66
1
  10
0.0
  20
0.0
  30
0.0
  70
0
   0
VERTEX
   5
E0
 100
AcDbEntity
   8
LEVEL001
   6
CONTINUOUS
  62
2
 100
AcDbVertex
 100
AcDb2dVertex
  10
 208.24775854176
  20
 212.40520596848
  30
0.0
   0
VERTEX
   5
E1
 100
AcDbEntity
   8
LEVEL001
   6
CONTINUOUS
  62
2
 100
AcDbVertex
 100
AcDb2dVertex
  10
 222.49851314467
  20
 222.38520975369
  30
0.0
   0
VERTEX
   5
E2
 100
AcDbEntity
   8
LEVEL001
   6
CONTINUOUS
  62
2
 100
AcDbVertex
 100
AcDb2dVertex
  10
 234.49851314467
  20
 222.38520975369
  30
0.0
   0
SEQEND
   5
E3
 100
AcDbEntity
   8
LEVEL001
   6
CONTINUOUS
  62
2
   0
INSERT
   5
E4
 100
AcDbEntity
   8
LEVEL001
   6
CONTINUOUS
  62
2
 100
AcDbBlockReference
   2
_OPEN30
  10
 208.24775854176
  20
 212.40520596848
  30
0.0
  41
 2.0000000000000
  42
 2.0000000000000
  43
 2.0000000000000
  50
 215.00409505884
   0
MTEXT
   5
E5
 100
AcDbEntity
   8
LEVEL001
  62
7
 100
AcDbMText
  10
 222.49851314467
  20
 224.09949546797
  30
0.0
  40
 4.0000000000000
  41
0.0
  71
7
  72
1
   1
\A1;%%c26
   7
GMM001
   0
ENDBLK
   5
E6
 100
AcDbEntity
   8
0
 100
AcDbBlockEnd
   0
BLOCK
   5
E7
 100
AcDbEntity
   8
0
 100
AcDbBlockBegin
   2
*D6
  70
65
  10
0.0
  20
0.0
  30
0.0
   3
*D6
   0
POLYLINE
   5
E8
 100
AcDbEntity
   8
LEVEL001
   6
CONTINUOUS
  62
2
 100
AcDb2dPolyline
  66
1
  10
0.0
  20
0.0
  30
0.0
  70
0
   0
VERTEX
   5
E9
 100
AcDbEntity
   8
LEVEL001
   6
CONTINUOUS
  62
2
 100
AcDbVertex
 100
AcDb2dVertex
  10
 364.37977863208
  20
 216.91915123553
  30
0.0
   0
VERTEX
   5
EA
 100
AcDbEntity
   8
LEVEL001
   6
CONTINUOUS
  62
2
 100
AcDbVertex
 100
AcDb2dVertex
  10
 353.65396168051
  20
 242.25193345573
  30
0.0
   0
VERTEX
   5
EB
 100
AcDbEntity
   8
LEVEL001
   6
CONTINUOUS
  62
2
 100
AcDbVertex
 100
AcDb2dVertex
  10
 341.65396168051
  20
 242.25193345573
  30
0.0
   0
SEQEND
   5
EC
 100
AcDbEntity
   8
LEVEL001
   6
CONTINUOUS
  62
2
   0
INSERT
   5
ED
 100
AcDbEntity
   8
LEVEL001
   6
CONTINUOUS
  62
2
 100
AcDbBlockReference
   2
_OPEN30
  10
 364.37977863208
  20
 216.91915123553
  30
0.0
  41
 2.0000000000000
  42
 2.0000000000000
  43
 2.0000000000000
  50
 292.94763997829
   0
MTEXT
   5
EE
 100
AcDbEntity
   8
LEVEL001
  62
7
 100
AcDbMText
  10
 341.65396168051
  20
 243.96621917002
  30
0.0
  40
 4.0000000000000
  41
0.0
  71
7
  72
1
   1
\A1;%%c26
   7
GMM001
   0
ENDBLK
   5
EF
 100
AcDbEntity
   8
0
 100
AcDbBlockEnd
   0
BLOCK
   5
F0
 100
AcDbEntity
   8
0
 100
AcDbBlockBegin
   2
BLOCK002
  70
64
  10
0.0
  20
0.0
  30
0.0
   3
BLOCK002
   0
LINE
   5
F1
 100
AcDbEntity
   8
LEVEL001
 100
AcDbLine
   6
CONTINUOUS
  62
1
  10
 42.911278857881
  20
 139.85706785708
  30
0.0
  11
 62.911278857881
  21
 159.85706785708
  31
0.0
   0
LINE
   5
F2
 100
AcDbEntity
   8
LEVEL001
 100
AcDbLine
   6
CONTINUOUS
  62
1
  10
 40.094114609531
  20
 139.86833073347
  30
0.0
  11
 60.082851733135
  21
 159.85706785708
  31
0.0
   0
LINE
   5
F3
 100
AcDbEntity
   8
LEVEL001
 100
AcDbLine
   6
CONTINUOUS
  62
1
  10
 40.094114609531
  20
 142.69675785822
  30
0.0
  11
 57.254424608389
  21
 159.85706785708
  31
0.0
   0
LINE
   5
F4
 100
AcDbEntity
   8
LEVEL001
 100
AcDbLine
   6
CONTINUOUS
  62
1
  10
 40.094114609531
  20
 145.52518498296
  30
0.0
  11
 54.425997483643
  21
 159.85706785708
  31
0.0
   0
LINE
   5
F5
 100
AcDbEntity
   8
LEVEL001
 100
AcDbLine
   6
CONTINUOUS
  62
1
  10
 40.094114609531
  20
 148.35361210771
  30
0.0
  11
 51.597570358897
  21
 159.85706785708
  31
0.0
   0
LINE
   5
F6
 100
AcDbEntity
   8
LEVEL001
 100
AcDbLine
   6
CONTINUOUS
  62
1
  10
 40.094114609531
  20
 151.18203923246
  30
0.0
  11
 48.769143234150
  21
 159.85706785708
  31
0.0
   0
LINE
   5
F7
 100
AcDbEntity
   8
LEVEL001
 100
AcDbLine
   6
CONTINUOUS
  62
1
  10
 40.094114609531
  20
 154.01046635720
  30
0.0
  11
 45.940716109404
  21
 159.85706785708
  31
0.0
   0
LINE
   5
F8
 100
AcDbEntity
   8
LEVEL001
 100
AcDbLine
   6
CONTINUOUS
  62
1
  10
 40.094114609531
  20
 156.83889348195
  30
0.0
  11
 43.112288984658
  21
 159.85706785708
  31
0.0
   0
LINE
   5
F9
 100
AcDbEntity
   8
LEVEL001
 100
AcDbLine
   6
CONTINUOUS
  62
1
  10
 40.094114609531
  20
 159.66732060669
  30
0.0
  11
 40.283861859912
  21
 159.85706785708
  31
0.0
   0
LINE
   5
FA
 100
AcDbEntity
   8
LEVEL001
 100
AcDbLine
   6
CONTINUOUS
  62
1
  10
 65.538695855851
  20
 139.85706785708
  30
0.0
  11
 68.094114609531
  21
 142.41248661076
  31
0.0
   0
LINE
   5
FB
 100
AcDbEntity
   8
LEVEL001
 100
AcDbLine
   6
CONTINUOUS
  62
1
  10
 62.710268731105
  20
 139.85706785708
  30
0.0
  11
 68.094114609531
  21
 145.24091373550
  31
0.0
   0
LINE
   5
FC
 100
AcDbEntity
   8
LEVEL001
 100
AcDbLine
   6
CONTINUOUS
  62
1
  10
 59.881841606359
  20
 139.85706785708
  30
0.0
  11
 68.094114609531
  21
 148.06934086025
  31
0.0
   0
LINE
   5
FD
 100
AcDbEntity
   8
LEVEL001
 100
AcDbLine
   6
CONTINUOUS
  62
1
  10
 57.053414481612
  20
 139.85706785708
  30
0.0
  11
 68.094114609531
  21
 150.89776798499
  31
0.0
   0
LINE
   5
FE
 100
AcDbEntity
   8
LEVEL001
 100
AcDbLine
   6
CONTINUOUS
  62
1
  10
 54.224987356866
  20
 139.85706785708
  30
0.0
  11
 68.094114609531
  21
 153.72619510974
  31
0.0
   0
LINE
   5
FF
 100
AcDbEntity
   8
LEVEL001
 100
AcDbLine
   6
CONTINUOUS
  62
1
  10
 51.396560232120
  20
 139.85706785708
  30
0.0
  11
 68.094114609531
  21
 156.55462223449
  31
0.0
   0
LINE
   5
100
 100
AcDbEntity
   8
LEVEL001
 100
AcDbLine
   6
CONTINUOUS
  62
1
  10
 48.568133107374
  20
 139.85706785708
  30
0.0
  11
 68.094114609531
  21
 159.38304935923
  31
0.0
   0
LINE
   5
101
 100
AcDbEntity
   8
LEVEL001
 100
AcDbLine
   6
CONTINUOUS
  62
1
  10
 45.739705982628
  20
 139.85706785708
  30
0.0
  11
 65.739705982628
  21
 159.85706785708
  31
0.0
   0
ENDBLK
   5
102
 100
AcDbEntity
   8
0
 100
AcDbBlockEnd
   0
BLOCK
   5
103
 100
AcDbEntity
   8
0
 100
AcDbBlockBegin
   2
BLOCK003
  70
64
  10
0.0
  20
0.0
  30
0.0
   3
BLOCK003
   0
LINE
   5
104
 100
AcDbEntity
   8
LEVEL001
 100
AcDbLine
   6
CONTINUOUS
  62
1
  10
 40.094114609531
  20
 235.18200097408
  30
0.0
  11
 57.228709187130
  21
 252.31659555168
  31
0.0
   0
LINE
   5
105
 100
AcDbEntity
   8
LEVEL001
 100
AcDbLine
   6
CONTINUOUS
  62
1
  10
 40.094114609531
  20
 238.01042809883
  30
0.0
  11
 54.400282062384
  21
 252.31659555168
  31
0.0
   0
LINE
   5
106
 100
AcDbEntity
   8
LEVEL001
 100
AcDbLine
   6
CONTINUOUS
  62
1
  10
 40.094114609531
  20
 240.83885522357
  30
0.0
  11
 51.571854937637
  21
 252.31659555168
  31
0.0
   0
LINE
   5
107
 100
AcDbEntity
   8
LEVEL001
 100
AcDbLine
   6
CONTINUOUS
  62
1
  10
 40.094114609531
  20
 243.66728234832
  30
0.0
  11
 48.743427812891
  21
 252.31659555168
  31
0.0
   0
LINE
   5
108
 100
AcDbEntity
   8
LEVEL001
 100
AcDbLine
   6
CONTINUOUS
  62
1
  10
 40.094114609531
  20
 246.49570947307
  30
0.0
  11
 45.915000688145
  21
 252.31659555168
  31
0.0
   0
LINE
   5
109
 100
AcDbEntity
   8
LEVEL001
 100
AcDbLine
   6
CONTINUOUS
  62
1
  10
 40.094114609531
  20
 249.32413659781
  30
0.0
  11
 43.086573563399
  21
 252.31659555168
  31
0.0
   0
LINE
   5
10A
 100
AcDbEntity
   8
LEVEL001
 100
AcDbLine
   6
CONTINUOUS
  62
1
  10
 40.094114609531
  20
 252.15256372256
  30
0.0
  11
 40.258146438653
  21
 252.31659555168
  31
0.0
   0
LINE
   5
10B
 100
AcDbEntity
   8
LEVEL001
 100
AcDbLine
   6
CONTINUOUS
  62
1
  10
 62.684553309846
  20
 232.31659555168
  30
0.0
  11
 76.094114609531
  21
 245.72615685137
  31
0.0
   0
LINE
   5
10C
 100
AcDbEntity
   8
LEVEL001
 100
AcDbLine
   6
CONTINUOUS
  62
1
  10
 59.856126185099
  20
 232.31659555168
  30
0.0
  11
 76.094114609531
  21
 248.55458397611
  31
0.0
   0
LINE
   5
10D
 100
AcDbEntity
   8
LEVEL001
 100
AcDbLine
   6
CONTINUOUS
  62
1
  10
 57.027699060353
  20
 232.31659555168
  30
0.0
  11
 76.094114609531
  21
 251.38301110086
  31
0.0
   0
LINE
   5
10E
 100
AcDbEntity
   8
LEVEL001
 100
AcDbLine
   6
CONTINUOUS
  62
1
  10
 54.199271935607
  20
 232.31659555168
  30
0.0
  11
 74.199271935607
  21
 252.31659555168
  31
0.0
   0
LINE
   5
10F
 100
AcDbEntity
   8
LEVEL001
 100
AcDbLine
   6
CONTINUOUS
  62
1
  10
 51.370844810861
  20
 232.31659555168
  30
0.0
  11
 71.370844810861
  21
 252.31659555168
  31
0.0
   0
LINE
   5
110
 100
AcDbEntity
   8
LEVEL001
 100
AcDbLine
   6
CONTINUOUS
  62
1
  10
 48.542417686115
  20
 232.31659555168
  30
0.0
  11
 68.542417686115
  21
 252.31659555168
  31
0.0
   0
LINE
   5
111
 100
AcDbEntity
   8
LEVEL001
 100
AcDbLine
   6
CONTINUOUS
  62
1
  10
 45.713990561368
  20
 232.31659555168
  30
0.0
  11
 65.713990561368
  21
 252.31659555168
  31
0.0
   0
LINE
   5
112
 100
AcDbEntity
   8
LEVEL001
 100
AcDbLine
   6
CONTINUOUS
  62
1
  10
 42.885563436622
  20
 232.31659555168
  30
0.0
  11
 62.885563436622
  21
 252.31659555168
  31
0.0
   0
LINE
   5
113
 100
AcDbEntity
   8
LEVEL001
 100
AcDbLine
   6
CONTINUOUS
  62
1
  10
 40.094114609531
  20
 232.35357384933
  30
0.0
  11
 60.057136311876
  21
 252.31659555168
  31
0.0
   0
LINE
   5
114
 100
AcDbEntity
   8
LEVEL001
 100
AcDbLine
   6
CONTINUOUS
  62
1
  10
 65.512980434592
  20
 232.31659555168
  30
0.0
  11
 76.094114609531
  21
 242.89772972662
  31
0.0
   0
LINE
   5
115
 100
AcDbEntity
   8
LEVEL001
 100
AcDbLine
   6
CONTINUOUS
  62
1
  10
 73.998261808830
  20
 232.31659555168
  30
0.0
  11
 76.094114609531
  21
 234.41244835238
  31
0.0
   0
LINE
   5
116
 100
AcDbEntity
   8
LEVEL001
 100
AcDbLine
   6
CONTINUOUS
  62
1
  10
 71.169834684084
  20
 232.31659555168
  30
0.0
  11
 76.094114609531
  21
 237.24087547713
  31
0.0
   0
LINE
   5
117
 100
AcDbEntity
   8
LEVEL001
 100
AcDbLine
   6
CONTINUOUS
  62
1
  10
 68.341407559338
  20
 232.31659555168
  30
0.0
  11
 76.094114609531
  21
 240.06930260187
  31
0.0
   0
ENDBLK
   5
118
 100
AcDbEntity
   8
0
 100
AcDbBlockEnd
   0
BLOCK
   5
119
 100
AcDbEntity
   8
0
 100
AcDbBlockBegin
   2
*D7
  70
65
  10
0.0
  20
0.0
  30
0.0
   3
*D7
   0
LINE
   5
11A
 100
AcDbEntity
   8
LEVEL001
 100
AcDbLine
   6
CONTINUOUS
  62
2
  10
 100.98332186886
  20
 149.52675685293
  30
0.0
  11
 124.54654542260
  21
 98.378827573484
  31
0.0
   0
INSERT
   5
11B
 100
AcDbEntity
   8
LEVEL001
   6
CONTINUOUS
  62
2
 100
AcDbBlockReference
   2
_OPEN30
  10
 106.07202865154
  20
 138.48086518830
  30
0.0
  41
 3.0000000000000
  42
 3.0000000000000
  43
 3.0000000000000
  50
 294.73494415184
   0
INSERT
   5
11C
 100
AcDbEntity
   8
LEVEL001
   6
CONTINUOUS
  62
2
 100
AcDbBlockReference
   2
_OPEN30
  10
 118.62466124836
  20
 111.23327052585
  30
0.0
  41
 3.0000000000000
  42
 3.0000000000000
  43
 3.0000000000000
  50
 114.73494415184
   0
MTEXT
   5
11D
 100
AcDbEntity
   8
LEVEL001
  62
7
 100
AcDbMText
  10
 124.54654542260
  20
 96.378827573484
  30
0.0
  40
 4.0000000000000
  41
0.0
  71
7
  72
1
   1
\A1;%%c30{\H0.625x;\S +0.2^ -0;} 
   7
GMM001
   0
ENDBLK
   5
11E
 100
AcDbEntity
   8
0
 100
AcDbBlockEnd
   0
BLOCK
   5
11F
 100
AcDbEntity
   8
0
 100
AcDbBlockBegin
   2
BLOCK004
  70
64
  10
0.0
  20
0.0
  30
0.0
   3
BLOCK004
   0
LINE
   5
120
 100
AcDbEntity
   8
LEVEL001
 100
AcDbLine
   6
CONTINUOUS
  62
1
  10
 42.911278857881
  20
 89.857067857075
  30
0.0
  11
 62.911278857881
  21
 109.85706785708
  31
0.0
   0
LINE
   5
121
 100
AcDbEntity
   8
LEVEL001
 100
AcDbLine
   6
CONTINUOUS
  62
1
  10
 40.094114609531
  20
 89.868330733471
  30
0.0
  11
 60.082851733135
  21
 109.85706785708
  31
0.0
   0
LINE
   5
122
 100
AcDbEntity
   8
LEVEL001
 100
AcDbLine
   6
CONTINUOUS
  62
1
  10
 40.094114609531
  20
 92.696757858217
  30
0.0
  11
 57.254424608389
  21
 109.85706785708
  31
0.0
   0
LINE
   5
123
 100
AcDbEntity
   8
LEVEL001
 100
AcDbLine
   6
CONTINUOUS
  62
1
  10
 40.094114609531
  20
 95.525184982964
  30
0.0
  11
 54.425997483643
  21
 109.85706785708
  31
0.0
   0
LINE
   5
124
 100
AcDbEntity
   8
LEVEL001
 100
AcDbLine
   6
CONTINUOUS
  62
1
  10
 40.094114609531
  20
 98.353612107710
  30
0.0
  11
 51.597570358897
  21
 109.85706785708
  31
0.0
   0
LINE
   5
125
 100
AcDbEntity
   8
LEVEL001
 100
AcDbLine
   6
CONTINUOUS
  62
1
  10
 40.094114609531
  20
 101.18203923246
  30
0.0
  11
 48.769143234150
  21
 109.85706785708
  31
0.0
   0
LINE
   5
126
 100
AcDbEntity
   8
LEVEL001
 100
AcDbLine
   6
CONTINUOUS
  62
1
  10
 40.094114609531
  20
 104.01046635720
  30
0.0
  11
 45.940716109404
  21
 109.85706785708
  31
0.0
   0
LINE
   5
127
 100
AcDbEntity
   8
LEVEL001
 100
AcDbLine
   6
CONTINUOUS
  62
1
  10
 40.094114609531
  20
 106.83889348195
  30
0.0
  11
 43.112288984658
  21
 109.85706785708
  31
0.0
   0
LINE
   5
128
 100
AcDbEntity
   8
LEVEL001
 100
AcDbLine
   6
CONTINUOUS
  62
1
  10
 40.094114609531
  20
 109.66732060669
  30
0.0
  11
 40.283861859912
  21
 109.85706785708
  31
0.0
   0
LINE
   5
129
 100
AcDbEntity
   8
LEVEL001
 100
AcDbLine
   6
CONTINUOUS
  62
1
  10
 65.538695855851
  20
 89.857067857075
  30
0.0
  11
 68.094114609531
  21
 92.412486610756
  31
0.0
   0
LINE
   5
12A
 100
AcDbEntity
   8
LEVEL001
 100
AcDbLine
   6
CONTINUOUS
  62
1
  10
 62.710268731105
  20
 89.857067857075
  30
0.0
  11
 68.094114609531
  21
 95.240913735502
  31
0.0
   0
LINE
   5
12B
 100
AcDbEntity
   8
LEVEL001
 100
AcDbLine
   6
CONTINUOUS
  62
1
  10
 59.881841606359
  20
 89.857067857075
  30
0.0
  11
 68.094114609531
  21
 98.069340860248
  31
0.0
   0
LINE
   5
12C
 100
AcDbEntity
   8
LEVEL001
 100
AcDbLine
   6
CONTINUOUS
  62
1
  10
 57.053414481612
  20
 89.857067857075
  30
0.0
  11
 68.094114609531
  21
 100.89776798499
  31
0.0
   0
LINE
   5
12D
 100
AcDbEntity
   8
LEVEL001
 100
AcDbLine
   6
CONTINUOUS
  62
1
  10
 54.224987356866
  20
 89.857067857075
  30
0.0
  11
 68.094114609531
  21
 103.72619510974
  31
0.0
   0
LINE
   5
12E
 100
AcDbEntity
   8
LEVEL001
 100
AcDbLine
   6
CONTINUOUS
  62
1
  10
 51.396560232120
  20
 89.857067857075
  30
0.0
  11
 68.094114609531
  21
 106.55462223449
  31
0.0
   0
LINE
   5
12F
 100
AcDbEntity
   8
LEVEL001
 100
AcDbLine
   6
CONTINUOUS
  62
1
  10
 48.568133107374
  20
 89.857067857075
  30
0.0
  11
 68.094114609531
  21
 109.38304935923
  31
0.0
   0
LINE
   5
130
 100
AcDbEntity
   8
LEVEL001
 100
AcDbLine
   6
CONTINUOUS
  62
1
  10
 45.739705982628
  20
 89.857067857075
  30
0.0
  11
 65.739705982628
  21
 109.85706785708
  31
0.0
   0
ENDBLK
   5
131
 100
AcDbEntity
   8
0
 100
AcDbBlockEnd
   0
BLOCK
   5
132
 100
AcDbEntity
   8
0
 100
AcDbBlockBegin
   2
*D8
  70
65
  10
0.0
  20
0.0
  30
0.0
   3
*D8
   0
LINE
   5
133
 100
AcDbEntity
   8
LEVEL001
 100
AcDbLine
   6
CONTINUOUS
  62
2
  10
 38.094114609531
  20
 236.77659555168
  30
0.0
  11
 38.094114609531
  21
 258.13818411709
  31
0.0
   0
LINE
   5
134
 100
AcDbEntity
   8
LEVEL001
 100
AcDbLine
   6
CONTINUOUS
  62
2
  10
 40.094114609531
  20
 253.31659555168
  30
0.0
  11
 40.094114609531
  21
 258.13818411709
  31
0.0
   0
LINE
   5
135
 100
AcDbEntity
   8
LEVEL001
 100
AcDbLine
   6
CONTINUOUS
  62
2
  10
 38.094114609531
  20
 257.38818411709
  30
0.0
  11
 40.094114609531
  21
 257.38818411709
  31
0.0
   0
INSERT
   5
136
 100
AcDbEntity
   8
LEVEL001
   6
CONTINUOUS
  62
2
 100
AcDbBlockReference
   2
_OPEN30
  10
 38.094114609531
  20
 257.38818411709
  30
0.0
  41
 2.0000000000000
  42
 2.0000000000000
  43
 2.0000000000000
  50
0.0
   0
LINE
   5
137
 100
AcDbEntity
   8
LEVEL001
 100
AcDbLine
   6
CONTINUOUS
  62
2
  10
 38.094114609531
  20
 257.38818411709
  30
0.0
  11
 35.594114609531
  21
 257.38818411709
  31
0.0
   0
MTEXT
   5
138
 100
AcDbEntity
   8
LEVEL001
  62
7
 100
AcDbMText
  10
 39.094114609531
  20
 259.10246983137
  30
0.0
  40
 4.0000000000000
  41
0.0
  71
8
  72
1
   1
\A1;2
   7
GMM001
   0
ENDBLK
   5
139
 100
AcDbEntity
   8
0
 100
AcDbBlockEnd
   0
BLOCK
   5
13A
 100
AcDbEntity
   8
0
 100
AcDbBlockBegin
   2
*D9
  70
65
  10
0.0
  20
0.0
  30
0.0
   3
*D9
   0
LINE
   5
13B
 100
AcDbEntity
   8
LEVEL001
 100
AcDbLine
   6
CONTINUOUS
  62
2
  10
 40.094114609531
  20
 253.31659555168
  30
0.0
  11
 40.094114609531
  21
 258.13818411709
  31
0.0
   0
LINE
   5
13C
 100
AcDbEntity
   8
LEVEL001
 100
AcDbLine
   6
CONTINUOUS
  62
2
  10
 76.094114609531
  20
 253.31659555168
  30
0.0
  11
 76.094114609531
  21
 258.13818411709
  31
0.0
   0
LINE
   5
13D
 100
AcDbEntity
   8
LEVEL001
 100
AcDbLine
   6
CONTINUOUS
  62
2
  10
 40.094114609531
  20
 257.38818411709
  30
0.0
  11
 76.094114609531
  21
 257.38818411709
  31
0.0
   0
INSERT
   5
13E
 100
AcDbEntity
   8
LEVEL001
   6
CONTINUOUS
  62
2
 100
AcDbBlockReference
   2
_OPEN30
  10
 40.094114609531
  20
 257.38818411709
  30
0.0
  41
 2.0000000000000
  42
 2.0000000000000
  43
 2.0000000000000
  50
 180.00000000000
   0
INSERT
   5
13F
 100
AcDbEntity
   8
LEVEL001
   6
CONTINUOUS
  62
2
 100
AcDbBlockReference
   2
_OPEN30
  10
 76.094114609531
  20
 257.38818411709
  30
0.0
  41
 2.0000000000000
  42
 2.0000000000000
  43
 2.0000000000000
  50
0.0
   0
MTEXT
   5
140
 100
AcDbEntity
   8
LEVEL001
  62
7
 100
AcDbMText
  10
 58.094114609531
  20
 259.10246983137
  30
0.0
  40
 4.0000000000000
  41
0.0
  71
8
  72
1
   1
\A1;36
   7
GMM001
   0
ENDBLK
   5
141
 100
AcDbEntity
   8
0
 100
AcDbBlockEnd
   0
BLOCK
   5
142
 100
AcDbEntity
   8
0
 100
AcDbBlockBegin
   2
*D10
  70
65
  10
0.0
  20
0.0
  30
0.0
   3
*D10
   0
LINE
   5
143
 100
AcDbEntity
   8
LEVEL001
 100
AcDbLine
   6
CONTINUOUS
  62
2
  10
 76.094114609531
  20
 253.31659555168
  30
0.0
  11
 76.094114609531
  21
 258.13818411709
  31
0.0
   0
LINE
   5
144
 100
AcDbEntity
   8
LEVEL001
 100
AcDbLine
   6
CONTINUOUS
  62
2
  10
 78.094114609531
  20
 236.77659555168
  30
0.0
  11
 78.094114609531
  21
 258.13818411709
  31
0.0
   0
LINE
   5
145
 100
AcDbEntity
   8
LEVEL001
 100
AcDbLine
   6
CONTINUOUS
  62
2
  10
 76.094114609531
  20
 257.38818411709
  30
0.0
  11
 78.094114609531
  21
 257.38818411709
  31
0.0
   0
INSERT
   5
146
 100
AcDbEntity
   8
LEVEL001
   6
CONTINUOUS
  62
2
 100
AcDbBlockReference
   2
_OPEN30
  10
 78.094114609531
  20
 257.38818411709
  30
0.0
  41
 2.0000000000000
  42
 2.0000000000000
  43
 2.0000000000000
  50
 180.00000000000
   0
LINE
   5
147
 100
AcDbEntity
   8
LEVEL001
 100
AcDbLine
   6
CONTINUOUS
  62
2
  10
 78.094114609531
  20
 257.38818411709
  30
0.0
  11
 80.594114609531
  21
 257.38818411709
  31
0.0
   0
MTEXT
   5
148
 100
AcDbEntity
   8
LEVEL001
  62
7
 100
AcDbMText
  10
 77.094114609531
  20
 259.10246983137
  30
0.0
  40
 4.0000000000000
  41
0.0
  71
8
  72
1
   1
\A1;2
   7
GMM001
   0
ENDBLK
   5
149
 100
AcDbEntity
   8
0
 100
AcDbBlockEnd
   0
BLOCK
   5
14A
 100
AcDbEntity
   8
0
 100
AcDbBlockBegin
   2
*D11
  70
65
  10
0.0
  20
0.0
  30
0.0
   3
*D11
   0
LINE
   5
14B
 100
AcDbEntity
   8
LEVEL001
 100
AcDbLine
   6
CONTINUOUS
  62
2
  10
 38.094114609531
  20
 144.31706785708
  30
0.0
  11
 38.094114609531
  21
 165.33477523785
  31
0.0
   0
LINE
   5
14C
 100
AcDbEntity
   8
LEVEL001
 100
AcDbLine
   6
CONTINUOUS
  62
2
  10
 40.094114609531
  20
 160.85706785708
  30
0.0
  11
 40.094114609531
  21
 165.33477523785
  31
0.0
   0
LINE
   5
14D
 100
AcDbEntity
   8
LEVEL001
 100
AcDbLine
   6
CONTINUOUS
  62
2
  10
 38.094114609531
  20
 164.58477523785
  30
0.0
  11
 40.094114609531
  21
 164.58477523785
  31
0.0
   0
INSERT
   5
14E
 100
AcDbEntity
   8
LEVEL001
   6
CONTINUOUS
  62
2
 100
AcDbBlockReference
   2
_OPEN30
  10
 38.094114609531
  20
 164.58477523785
  30
0.0
  41
 2.0000000000000
  42
 2.0000000000000
  43
 2.0000000000000
  50
0.0
   0
LINE
   5
14F
 100
AcDbEntity
   8
LEVEL001
 100
AcDbLine
   6
CONTINUOUS
  62
2
  10
 38.094114609531
  20
 164.58477523785
  30
0.0
  11
 35.594114609531
  21
 164.58477523785
  31
0.0
   0
MTEXT
   5
150
 100
AcDbEntity
   8
LEVEL001
  62
7
 100
AcDbMText
  10
 39.094114609531
  20
 166.29906095214
  30
0.0
  40
 4.0000000000000
  41
0.0
  71
8
  72
1
   1
\A1;2
   7
GMM001
   0
ENDBLK
   5
151
 100
AcDbEntity
   8
0
 100
AcDbBlockEnd
   0
BLOCK
   5
152
 100
AcDbEntity
   8
0
 100
AcDbBlockBegin
   2
*D12
  70
65
  10
0.0
  20
0.0
  30
0.0
   3
*D12
   0
LINE
   5
153
 100
AcDbEntity
   8
LEVEL001
 100
AcDbLine
   6
CONTINUOUS
  62
2
  10
 40.094114609531
  20
 160.85706785708
  30
0.0
  11
 40.094114609531
  21
 165.33477523785
  31
0.0
   0
LINE
   5
154
 100
AcDbEntity
   8
LEVEL001
 100
AcDbLine
   6
CONTINUOUS
  62
2
  10
 68.094114609531
  20
 160.85706785708
  30
0.0
  11
 68.094114609531
  21
 165.33477523785
  31
0.0
   0
LINE
   5
155
 100
AcDbEntity
   8
LEVEL001
 100
AcDbLine
   6
CONTINUOUS
  62
2
  10
 40.094114609531
  20
 164.58477523785
  30
0.0
  11
 68.094114609531
  21
 164.58477523785
  31
0.0
   0
INSERT
   5
156
 100
AcDbEntity
   8
LEVEL001
   6
CONTINUOUS
  62
2
 100
AcDbBlockReference
   2
_OPEN30
  10
 40.094114609531
  20
 164.58477523785
  30
0.0
  41
 2.0000000000000
  42
 2.0000000000000
  43
 2.0000000000000
  50
 180.00000000000
   0
INSERT
   5
157
 100
AcDbEntity
   8
LEVEL001
   6
CONTINUOUS
  62
2
 100
AcDbBlockReference
   2
_OPEN30
  10
 68.094114609531
  20
 164.58477523785
  30
0.0
  41
 2.0000000000000
  42
 2.0000000000000
  43
 2.0000000000000
  50
0.0
   0
MTEXT
   5
158
 100
AcDbEntity
   8
LEVEL001
  62
7
 100
AcDbMText
  10
 54.094114609531
  20
 166.29906095214
  30
0.0
  40
 4.0000000000000
  41
0.0
  71
8
  72
1
   1
\A1;28
   7
GMM001
   0
ENDBLK
   5
159
 100
AcDbEntity
   8
0
 100
AcDbBlockEnd
   0
BLOCK
   5
15A
 100
AcDbEntity
   8
0
 100
AcDbBlockBegin
   2
*D13
  70
65
  10
0.0
  20
0.0
  30
0.0
   3
*D13
   0
LINE
   5
15B
 100
AcDbEntity
   8
LEVEL001
 100
AcDbLine
   6
CONTINUOUS
  62
2
  10
 68.094114609531
  20
 160.85706785708
  30
0.0
  11
 68.094114609531
  21
 165.33477523785
  31
0.0
   0
LINE
   5
15C
 100
AcDbEntity
   8
LEVEL001
 100
AcDbLine
   6
CONTINUOUS
  62
2
  10
 70.094114609531
  20
 144.31706785708
  30
0.0
  11
 70.094114609531
  21
 165.33477523785
  31
0.0
   0
LINE
   5
15D
 100
AcDbEntity
   8
LEVEL001
 100
AcDbLine
   6
CONTINUOUS
  62
2
  10
 68.094114609531
  20
 164.58477523785
  30
0.0
  11
 70.094114609531
  21
 164.58477523785
  31
0.0
   0
INSERT
   5
15E
 100
AcDbEntity
   8
LEVEL001
   6
CONTINUOUS
  62
2
 100
AcDbBlockReference
   2
_OPEN30
  10
 70.094114609531
  20
 164.58477523785
  30
0.0
  41
 2.0000000000000
  42
 2.0000000000000
  43
 2.0000000000000
  50
 180.00000000000
   0
LINE
   5
15F
 100
AcDbEntity
   8
LEVEL001
 100
AcDbLine
   6
CONTINUOUS
  62
2
  10
 70.094114609531
  20
 164.58477523785
  30
0.0
  11
 72.594114609531
  21
 164.58477523785
  31
0.0
   0
MTEXT
   5
160
 100
AcDbEntity
   8
LEVEL001
  62
7
 100
AcDbMText
  10
 69.094114609531
  20
 166.29906095214
  30
0.0
  40
 4.0000000000000
  41
0.0
  71
8
  72
1
   1
\A1;2
   7
GMM001
   0
ENDBLK
   5
161
 100
AcDbEntity
   8
0
 100
AcDbBlockEnd
   0
BLOCK
   5
162
 100
AcDbEntity
   8
0
 100
AcDbBlockBegin
   2
BLOCK005
  70
64
  10
0.0
  20
0.0
  30
0.0
   3
BLOCK005
   0
LINE
   5
163
 100
AcDbEntity
   8
LEVEL001
 100
AcDbLine
   6
CONTINUOUS
  62
1
  10
 92.348344949947
  20
 132.72553962054
  30
0.0
  11
 104.47987318648
  21
 144.85706785708
  31
0.0
   0
LINE
   5
164
 100
AcDbEntity
   8
LEVEL001
 100
AcDbLine
   6
CONTINUOUS
  62
1
  10
 92.348344949947
  20
 135.55396674529
  30
0.0
  11
 101.65144606174
  21
 144.85706785708
  31
0.0
   0
LINE
   5
165
 100
AcDbEntity
   8
LEVEL001
 100
AcDbLine
   6
CONTINUOUS
  62
1
  10
 92.348344949947
  20
 138.38239387003
  30
0.0
  11
 98.823018936990
  21
 144.85706785708
  31
0.0
   0
LINE
   5
166
 100
AcDbEntity
   8
LEVEL001
 100
AcDbLine
   6
CONTINUOUS
  62
1
  10
 92.348344949947
  20
 141.21082099478
  30
0.0
  11
 95.994591812243
  21
 144.85706785708
  31
0.0
   0
LINE
   5
167
 100
AcDbEntity
   8
LEVEL001
 100
AcDbLine
   6
CONTINUOUS
  62
1
  10
 92.348344949947
  20
 144.03924811952
  30
0.0
  11
 93.166164687497
  21
 144.85706785708
  31
0.0
   0
LINE
   5
168
 100
AcDbEntity
   8
LEVEL001
 100
AcDbLine
   6
CONTINUOUS
  62
1
  10
 92.348344949947
  20
 129.89711249579
  30
0.0
  11
 107.30830031123
  21
 144.85706785708
  31
0.0
   0
LINE
   5
169
 100
AcDbEntity
   8
LEVEL001
 100
AcDbLine
   6
CONTINUOUS
  62
1
  10
 95.592571558690
  20
 104.85706785708
  30
0.0
  11
 103.48862881343
  21
 112.75312511182
  31
0.0
   0
LINE
   5
16A
 100
AcDbEntity
   8
LEVEL001
 100
AcDbLine
   6
CONTINUOUS
  62
1
  10
 124.45228769520
  20
 133.71678399359
  30
0.0
  11
 132.34834494995
  21
 141.61284124833
  31
0.0
   0
LINE
   5
16B
 100
AcDbEntity
   8
LEVEL001
 100
AcDbLine
   6
CONTINUOUS
  62
1
  10
 92.764144433944
  20
 104.85706785708
  30
0.0
  11
 101.95168068878
  21
 114.04460411191
  31
0.0
   0
LINE
   5
16C
 100
AcDbEntity
   8
LEVEL001
 100
AcDbLine
   6
CONTINUOUS
  62
1
  10
 123.16080869511
  20
 135.25373211824
  30
0.0
  11
 132.34834494995
  21
 144.44126837308
  31
0.0
   0
LINE
   5
16D
 100
AcDbEntity
   8
LEVEL001
 100
AcDbLine
   6
CONTINUOUS
  62
1
  10
 92.348344949947
  20
 107.26969549782
  30
0.0
  11
 100.60425114673
  21
 115.52560169461
  31
0.0
   0
LINE
   5
16E
 100
AcDbEntity
   8
LEVEL001
 100
AcDbLine
   6
CONTINUOUS
  62
1
  10
 121.67981111241
  20
 136.60116166029
  30
0.0
  11
 129.93571730920
  21
 144.85706785708
  31
0.0
   0
LINE
   5
16F
 100
AcDbEntity
   8
LEVEL001
 100
AcDbLine
   6
CONTINUOUS
  62
1
  10
 92.348344949947
  20
 110.09812262257
  30
0.0
  11
 99.450033942493
  21
 117.19981161512
  31
0.0
   0
LINE
   5
170
 100
AcDbEntity
   8
LEVEL001
 100
AcDbLine
   6
CONTINUOUS
  62
1
  10
 120.00560119190
  20
 137.75537886453
  30
0.0
  11
 127.10729018445
  21
 144.85706785708
  31
0.0
   0
LINE
   5
171
 100
AcDbEntity
   8
LEVEL001
 100
AcDbLine
   6
CONTINUOUS
  62
1
  10
 92.348344949947
  20
 112.92654974732
  30
0.0
  11
 98.504380513348
  21
 119.08258531072
  31
0.0
   0
LINE
   5
172
 100
AcDbEntity
   8
LEVEL001
 100
AcDbLine
   6
CONTINUOUS
  62
1
  10
 118.12282749630
  20
 138.70103229367
  30
0.0
  11
 124.27886305971
  21
 144.85706785708
  31
0.0
   0
LINE
   5
173
 100
AcDbEntity
   8
LEVEL001
 100
AcDbLine
   6
CONTINUOUS
  62
1
  10
 92.348344949947
  20
 115.75497687206
  30
0.0
  11
 97.799451169289
  21
 121.20608309141
  31
0.0
   0
LINE
   5
174
 100
AcDbEntity
   8
LEVEL001
 100
AcDbLine
   6
CONTINUOUS
  62
1
  10
 115.99932971562
  20
 139.40596163773
  30
0.0
  11
 121.45043593496
  21
 144.85706785708
  31
0.0
   0
LINE
   5
175
 100
AcDbEntity
   8
LEVEL001
 100
AcDbLine
   6
CONTINUOUS
  62
1
  10
 92.348344949947
  20
 118.58340399681
  30
0.0
  11
 97.398340413033
  21
 123.63339945990
  31
0.0
   0
LINE
   5
176
 100
AcDbEntity
   8
LEVEL001
 100
AcDbLine
   6
CONTINUOUS
  62
1
  10
 113.57201334713
  20
 139.80707239399
  30
0.0
  11
 118.62200881021
  21
 144.85706785708
  31
0.0
   0
LINE
   5
177
 100
AcDbEntity
   8
LEVEL001
 100
AcDbLine
   6
CONTINUOUS
  62
1
  10
 92.348344949947
  20
 121.41183112155
  30
0.0
  11
 97.438848020589
  21
 126.50233419220
  31
0.0
   0
LINE
   5
178
 100
AcDbEntity
   8
LEVEL001
 100
AcDbLine
   6
CONTINUOUS
  62
1
  10
 110.70307861482
  20
 139.76656478643
  30
0.0
  11
 115.79358168547
  21
 144.85706785708
  31
0.0
   0
LINE
   5
179
 100
AcDbEntity
   8
LEVEL001
 100
AcDbLine
   6
CONTINUOUS
  62
1
  10
 92.348344949947
  20
 124.24025824630
  30
0.0
  11
 98.347111419724
  21
 130.23902471608
  31
0.0
   0
LINE
   5
17A
 100
AcDbEntity
   8
LEVEL001
 100
AcDbLine
   6
CONTINUOUS
  62
1
  10
 106.96638809094
  20
 138.85830138730
  30
0.0
  11
 112.96515456072
  21
 144.85706785708
  31
0.0
   0
LINE
   5
17B
 100
AcDbEntity
   8
LEVEL001
 100
AcDbLine
   6
CONTINUOUS
  62
1
  10
 92.348344949947
  20
 127.06868537105
  30
0.0
  11
 110.13672743597
  21
 144.85706785708
  31
0.0
   0
LINE
   5
17C
 100
AcDbEntity
   8
LEVEL001
 100
AcDbLine
   6
CONTINUOUS
  62
1
  10
 121.04841568141
  20
 104.85706785708
  30
0.0
  11
 132.34834494995
  21
 116.15699712562
  31
0.0
   0
LINE
   5
17D
 100
AcDbEntity
   8
LEVEL001
 100
AcDbLine
   6
CONTINUOUS
  62
1
  10
 118.21998855666
  20
 104.85706785708
  30
0.0
  11
 132.34834494995
  21
 118.98542425036
  31
0.0
   0
LINE
   5
17E
 100
AcDbEntity
   8
LEVEL001
 100
AcDbLine
   6
CONTINUOUS
  62
1
  10
 115.39156143191
  20
 104.85706785708
  30
0.0
  11
 132.34834494995
  21
 121.81385137511
  31
0.0
   0
LINE
   5
17F
 100
AcDbEntity
   8
LEVEL001
 100
AcDbLine
   6
CONTINUOUS
  62
1
  10
 112.56313430717
  20
 104.85706785708
  30
0.0
  11
 119.24006352379
  21
 111.53399707369
  31
0.0
   0
LINE
   5
180
 100
AcDbEntity
   8
LEVEL001
 100
AcDbLine
   6
CONTINUOUS
  62
1
  10
 125.67141573333
  20
 117.96534928324
  30
0.0
  11
 132.34834494995
  21
 124.64227849985
  31
0.0
   0
LINE
   5
181
 100
AcDbEntity
   8
LEVEL001
 100
AcDbLine
   6
CONTINUOUS
  62
1
  10
 109.73470718242
  20
 104.85706785708
  30
0.0
  11
 114.96463524272
  21
 110.08699591737
  31
0.0
   0
LINE
   5
182
 100
AcDbEntity
   8
LEVEL001
 100
AcDbLine
   6
CONTINUOUS
  62
1
  10
 127.11841688965
  20
 122.24077756430
  30
0.0
  11
 132.34834494995
  21
 127.47070562460
  31
0.0
   0
LINE
   5
183
 100
AcDbEntity
   8
LEVEL001
 100
AcDbLine
   6
CONTINUOUS
  62
1
  10
 106.90628005767
  20
 104.85706785708
  30
0.0
  11
 111.91261021858
  21
 109.86339801798
  31
0.0
   0
LINE
   5
184
 100
AcDbEntity
   8
LEVEL001
 100
AcDbLine
   6
CONTINUOUS
  62
1
  10
 127.34201478904
  20
 125.29280258844
  30
0.0
  11
 132.34834494995
  21
 130.29913274935
  31
0.0
   0
LINE
   5
185
 100
AcDbEntity
   8
LEVEL001
 100
AcDbLine
   6
CONTINUOUS
  62
1
  10
 104.07785293293
  20
 104.85706785708
  30
0.0
  11
 109.37541482062
  21
 110.15462974477
  31
0.0
   0
LINE
   5
186
 100
AcDbEntity
   8
LEVEL001
 100
AcDbLine
   6
CONTINUOUS
  62
1
  10
 127.05078306225
  20
 127.82999798640
  30
0.0
  11
 132.34834494995
  21
 133.12755987409
  31
0.0
   0
LINE
   5
187
 100
AcDbEntity
   8
LEVEL001
 100
AcDbLine
   6
CONTINUOUS
  62
1
  10
 101.24942580818
  20
 104.85706785708
  30
0.0
  11
 107.17118108942
  21
 110.77882313832
  31
0.0
   0
LINE
   5
188
 100
AcDbEntity
   8
LEVEL001
 100
AcDbLine
   6
CONTINUOUS
  62
1
  10
 126.42658966871
  20
 130.03423171760
  30
0.0
  11
 132.34834494995
  21
 135.95598699884
  31
0.0
   0
LINE
   5
189
 100
AcDbEntity
   8
LEVEL001
 100
AcDbLine
   6
CONTINUOUS
  62
1
  10
 98.420998683436
  20
 104.85706785708
  30
0.0
  11
 105.22195962170
  21
 111.65802879534
  31
0.0
   0
LINE
   5
18A
 100
AcDbEntity
   8
LEVEL001
 100
AcDbLine
   6
CONTINUOUS
  62
1
  10
 125.54738401169
  20
 131.98345318532
  30
0.0
  11
 132.34834494995
  21
 138.78441412359
  31
0.0
   0
LINE
   5
18B
 100
AcDbEntity
   8
LEVEL001
 100
AcDbLine
   6
CONTINUOUS
  62
1
  10
 123.87684280615
  20
 104.85706785708
  30
0.0
  11
 132.34834494995
  21
 113.32857000087
  31
0.0
   0
LINE
   5
18C
 100
AcDbEntity
   8
LEVEL001
 100
AcDbLine
   6
CONTINUOUS
  62
1
  10
 129.53369705564
  20
 104.85706785708
  30
0.0
  11
 132.34834494995
  21
 107.67171575138
  31
0.0
   0
LINE
   5
18D
 100
AcDbEntity
   8
LEVEL001
 100
AcDbLine
   6
CONTINUOUS
  62
1
  10
 126.70526993090
  20
 104.85706785708
  30
0.0
  11
 132.34834494995
  21
 110.50014287612
  31
0.0
   0
ENDBLK
   5
18E
 100
AcDbEntity
   8
0
 100
AcDbBlockEnd
   0
BLOCK
   5
18F
 100
AcDbEntity
   8
0
 100
AcDbBlockBegin
   2
BLOCK006
  70
64
  10
0.0
  20
0.0
  30
0.0
   3
BLOCK006
   0
LINE
   5
190
 100
AcDbEntity
   8
LEVEL001
 100
AcDbLine
   6
CONTINUOUS
  62
1
  10
 40.094114609531
  20
 185.18200097408
  30
0.0
  11
 57.228709187130
  21
 202.31659555168
  31
0.0
   0
LINE
   5
191
 100
AcDbEntity
   8
LEVEL001
 100
AcDbLine
   6
CONTINUOUS
  62
1
  10
 40.094114609531
  20
 188.01042809883
  30
0.0
  11
 54.400282062384
  21
 202.31659555168
  31
0.0
   0
LINE
   5
192
 100
AcDbEntity
   8
LEVEL001
 100
AcDbLine
   6
CONTINUOUS
  62
1
  10
 40.094114609531
  20
 190.83885522357
  30
0.0
  11
 51.571854937637
  21
 202.31659555168
  31
0.0
   0
LINE
   5
193
 100
AcDbEntity
   8
LEVEL001
 100
AcDbLine
   6
CONTINUOUS
  62
1
  10
 40.094114609531
  20
 193.66728234832
  30
0.0
  11
 48.743427812891
  21
 202.31659555168
  31
0.0
   0
LINE
   5
194
 100
AcDbEntity
   8
LEVEL001
 100
AcDbLine
   6
CONTINUOUS
  62
1
  10
 40.094114609531
  20
 196.49570947307
  30
0.0
  11
 45.915000688145
  21
 202.31659555168
  31
0.0
   0
LINE
   5
195
 100
AcDbEntity
   8
LEVEL001
 100
AcDbLine
   6
CONTINUOUS
  62
1
  10
 40.094114609531
  20
 199.32413659781
  30
0.0
  11
 43.086573563399
  21
 202.31659555168
  31
0.0
   0
LINE
   5
196
 100
AcDbEntity
   8
LEVEL001
 100
AcDbLine
   6
CONTINUOUS
  62
1
  10
 40.094114609531
  20
 202.15256372256
  30
0.0
  11
 40.258146438653
  21
 202.31659555168
  31
0.0
   0
LINE
   5
197
 100
AcDbEntity
   8
LEVEL001
 100
AcDbLine
   6
CONTINUOUS
  62
1
  10
 62.684553309846
  20
 182.31659555168
  30
0.0
  11
 76.094114609531
  21
 195.72615685137
  31
0.0
   0
LINE
   5
198
 100
AcDbEntity
   8
LEVEL001
 100
AcDbLine
   6
CONTINUOUS
  62
1
  10
 59.856126185099
  20
 182.31659555168
  30
0.0
  11
 76.094114609531
  21
 198.55458397611
  31
0.0
   0
LINE
   5
199
 100
AcDbEntity
   8
LEVEL001
 100
AcDbLine
   6
CONTINUOUS
  62
1
  10
 57.027699060353
  20
 182.31659555168
  30
0.0
  11
 76.094114609531
  21
 201.38301110086
  31
0.0
   0
LINE
   5
19A
 100
AcDbEntity
   8
LEVEL001
 100
AcDbLine
   6
CONTINUOUS
  62
1
  10
 54.199271935607
  20
 182.31659555168
  30
0.0
  11
 74.199271935607
  21
 202.31659555168
  31
0.0
   0
LINE
   5
19B
 100
AcDbEntity
   8
LEVEL001
 100
AcDbLine
   6
CONTINUOUS
  62
1
  10
 51.370844810861
  20
 182.31659555168
  30
0.0
  11
 71.370844810861
  21
 202.31659555168
  31
0.0
   0
LINE
   5
19C
 100
AcDbEntity
   8
LEVEL001
 100
AcDbLine
   6
CONTINUOUS
  62
1
  10
 48.542417686115
  20
 182.31659555168
  30
0.0
  11
 68.542417686115
  21
 202.31659555168
  31
0.0
   0
LINE
   5
19D
 100
AcDbEntity
   8
LEVEL001
 100
AcDbLine
   6
CONTINUOUS
  62
1
  10
 45.713990561368
  20
 182.31659555168
  30
0.0
  11
 65.713990561368
  21
 202.31659555168
  31
0.0
   0
LINE
   5
19E
 100
AcDbEntity
   8
LEVEL001
 100
AcDbLine
   6
CONTINUOUS
  62
1
  10
 42.885563436622
  20
 182.31659555168
  30
0.0
  11
 62.885563436622
  21
 202.31659555168
  31
0.0
   0
LINE
   5
19F
 100
AcDbEntity
   8
LEVEL001
 100
AcDbLine
   6
CONTINUOUS
  62
1
  10
 40.094114609531
  20
 182.35357384933
  30
0.0
  11
 60.057136311876
  21
 202.31659555168
  31
0.0
   0
LINE
   5
1A0
 100
AcDbEntity
   8
LEVEL001
 100
AcDbLine
   6
CONTINUOUS
  62
1
  10
 65.512980434592
  20
 182.31659555168
  30
0.0
  11
 76.094114609531
  21
 192.89772972662
  31
0.0
   0
LINE
   5
1A1
 100
AcDbEntity
   8
LEVEL001
 100
AcDbLine
   6
CONTINUOUS
  62
1
  10
 73.998261808830
  20
 182.31659555168
  30
0.0
  11
 76.094114609531
  21
 184.41244835238
  31
0.0
   0
LINE
   5
1A2
 100
AcDbEntity
   8
LEVEL001
 100
AcDbLine
   6
CONTINUOUS
  62
1
  10
 71.169834684084
  20
 182.31659555168
  30
0.0
  11
 76.094114609531
  21
 187.24087547713
  31
0.0
   0
LINE
   5
1A3
 100
AcDbEntity
   8
LEVEL001
 100
AcDbLine
   6
CONTINUOUS
  62
1
  10
 68.341407559338
  20
 182.31659555168
  30
0.0
  11
 76.094114609531
  21
 190.06930260187
  31
0.0
   0
ENDBLK
   5
1A4
 100
AcDbEntity
   8
0
 100
AcDbBlockEnd
   0
BLOCK
   5
1A5
 100
AcDbEntity
   8
0
 100
AcDbBlockBegin
   2
*D14
  70
65
  10
0.0
  20
0.0
  30
0.0
   3
*D14
   0
LINE
   5
1A6
 100
AcDbEntity
   8
LEVEL001
 100
AcDbLine
   6
CONTINUOUS
  62
6
  10
 182.69931492560
  20
 143.43891610022
  30
0.0
  11
 182.69931492560
  21
 116.02551471796
  31
0.0
   0
LINE
   5
1A7
 100
AcDbEntity
   8
LEVEL001
 100
AcDbLine
   6
CONTINUOUS
  62
6
  10
 212.49931492560
  20
 143.43891610022
  30
0.0
  11
 212.49931492560
  21
 116.02551471796
  31
0.0
   0
LINE
   5
1A8
 100
AcDbEntity
   8
LEVEL001
 100
AcDbLine
   6
CONTINUOUS
  62
6
  10
 182.69931492560
  20
 117.02551471796
  30
0.0
  11
 197.59931492560
  21
 117.02551471796
  31
0.0
   0
LINE
   5
1A9
 100
AcDbEntity
   8
LEVEL001
 100
AcDbLine
   6
CONTINUOUS
  62
6
  10
 212.49931492560
  20
 117.02551471796
  30
0.0
  11
 197.59931492560
  21
 117.02551471796
  31
0.0
   0
INSERT
   5
1AA
 100
AcDbEntity
   8
LEVEL001
   6
CONTINUOUS
  62
6
 100
AcDbBlockReference
   2
_OPEN30
  10
 182.69931492560
  20
 117.02551471796
  30
0.0
  41
 3.0000000000000
  42
 3.0000000000000
  43
 3.0000000000000
  50
 180.00000000000
   0
INSERT
   5
1AB
 100
AcDbEntity
   8
LEVEL001
   6
CONTINUOUS
  62
6
 100
AcDbBlockReference
   2
_OPEN30
  10
 212.49931492560
  20
 117.02551471796
  30
0.0
  41
 3.0000000000000
  42
 3.0000000000000
  43
 3.0000000000000
  50
0.0
   0
MTEXT
   5
1AC
 100
AcDbEntity
   8
LEVEL001
  62
6
 100
AcDbMText
  10
 197.59931492560
  20
 118.73980043225
  30
0.0
  40
 4.0000000000000
  41
0.0
  71
8
  72
1
   1
\A1;%%c29.8
   7
GMM002
   0
ENDBLK
   5
1AD
 100
AcDbEntity
   8
0
 100
AcDbBlockEnd
   0
BLOCK
   5
1AE
 100
AcDbEntity
   8
0
 100
AcDbBlockBegin
   2
*D15
  70
65
  10
0.0
  20
0.0
  30
0.0
   3
*D15
   0
LINE
   5
1AF
 100
AcDbEntity
   8
LEVEL001
 100
AcDbLine
   6
CONTINUOUS
  62
6
  10
 354.54834548228
  20
 138.43891610009
  30
0.0
  11
 354.54834548228
  21
 116.02551471796
  31
0.0
   0
LINE
   5
1B0
 100
AcDbEntity
   8
LEVEL001
 100
AcDbLine
   6
CONTINUOUS
  62
6
  10
 384.34834548228
  20
 138.43891610009
  30
0.0
  11
 384.34834548228
  21
 116.02551471796
  31
0.0
   0
LINE
   5
1B1
 100
AcDbEntity
   8
LEVEL001
 100
AcDbLine
   6
CONTINUOUS
  62
6
  10
 354.54834548228
  20
 117.02551471796
  30
0.0
  11
 369.44834548228
  21
 117.02551471796
  31
0.0
   0
LINE
   5
1B2
 100
AcDbEntity
   8
LEVEL001
 100
AcDbLine
   6
CONTINUOUS
  62
6
  10
 384.34834548228
  20
 117.02551471796
  30
0.0
  11
 369.44834548228
  21
 117.02551471796
  31
0.0
   0
INSERT
   5
1B3
 100
AcDbEntity
   8
LEVEL001
   6
CONTINUOUS
  62
6
 100
AcDbBlockReference
   2
_OPEN30
  10
 354.54834548228
  20
 117.02551471796
  30
0.0
  41
 3.0000000000000
  42
 3.0000000000000
  43
 3.0000000000000
  50
 180.00000000000
   0
INSERT
   5
1B4
 100
AcDbEntity
   8
LEVEL001
   6
CONTINUOUS
  62
6
 100
AcDbBlockReference
   2
_OPEN30
  10
 384.34834548228
  20
 117.02551471796
  30
0.0
  41
 3.0000000000000
  42
 3.0000000000000
  43
 3.0000000000000
  50
0.0
   0
MTEXT
   5
1B5
 100
AcDbEntity
   8
LEVEL001
  62
6
 100
AcDbMText
  10
 369.44834548228
  20
 118.73980043225
  30
0.0
  40
 4.0000000000000
  41
0.0
  71
8
  72
1
   1
\A1;%%c29.8
   7
GMM002
   0
ENDBLK
   5
1B6
 100
AcDbEntity
   8
0
 100
AcDbBlockEnd
   0
ENDSEC
   0
SECTION
   2
ENTITIES
   0
LWPOLYLINE
   5
1B7
 100
AcDbEntity
   8
LEVEL001
   6
CONTINUOUS
  62
3
 100
AcDbPolyline
  90
4
  70
1
  10
 15.000000000000
  20
 10.623482664101
  10
 15.000000000000
  20
 277.50000000000
  10
 403.00000000000
  20
 277.50000000000
  10
 403.00000000000
  20
 10.623482664101
   0
LINE
   5
1B8
 100
AcDbEntity
   8
LEVEL001
 100
AcDbLine
   6
CONTINUOUS
  62
3
  10
 393.00000000000
  20
 20.623482664101
  30
0.0
  11
 403.00000000000
  21
 20.623482664101
  31
0.0
   0
TEXT
   5
1B9
 100
AcDbEntity
   8
LEVEL001
  62
3
 100
AcDbText
  10
 393.91826757962
  20
 21.638868601321
  30
0.0
  40
 2.5000000000000
   1
ＲＥＶ.
   7
STANDARD
  72
1
  11
 398.29326757962
  21
 22.888868601321
  31
0.0
 100
AcDbText
  73
2
   0
LINE
   5
1BA
 100
AcDbEntity
   8
LEVEL001
 100
AcDbLine
   6
CONTINUOUS
  62
3
  10
 393.00000000000
  20
 15.623482664101
  30
0.0
  11
 403.00000000000
  21
 15.623482664101
  31
0.0
   0
LINE
   5
1BB
 100
AcDbEntity
   8
LEVEL001
 100
AcDbLine
   6
CONTINUOUS
  62
3
  10
 398.00000000000
  20
 20.623482664101
  30
0.0
  11
 398.00000000000
  21
 10.623482664101
  31
0.0
   0
LINE
   5
1BC
 100
AcDbEntity
   8
LEVEL001
 100
AcDbLine
   6
CONTINUOUS
  62
3
  10
 342.00000000000
  20
 10.623482664101
  30
0.0
  11
 342.00000000000
  21
 25.623482664101
  31
0.0
   0
TEXT
   5
1BD
 100
AcDbEntity
   8
LEVEL001
  62
3
 100
AcDbText
  10
 342.91273375713
  20
 22.387068135946
  30
0.0
  40
 2.5000000000000
   1
ＫＵＲＩＫＩ　ＷＯＲＫＳ　ＤＷＧ．ＮＯ．
  41
 0.80000000000000
   7
STANDARD
 100
AcDbText
   0
LINE
   5
1BE
 100
AcDbEntity
   8
LEVEL001
 100
AcDbLine
   6
CONTINUOUS
  62
3
  10
 296.69695514066
  20
 25.623482664101
  30
0.0
  11
 296.69695514066
  21
 10.623482664101
  31
0.0
   0
LINE
   5
1BF
 100
AcDbEntity
   8
LEVEL001
 100
AcDbLine
   6
CONTINUOUS
  62
3
  10
 280.41198317335
  20
 25.623482664101
  30
0.0
  11
 280.41198317335
  21
 10.623482664101
  31
0.0
   0
TEXT
   5
1C0
 100
AcDbEntity
   8
LEVEL001
  62
3
 100
AcDbText
  10
 281.18991800322
  20
 22.471829596328
  30
0.0
  40
 2.5000000000000
   1
ＰＲＯＪＥＣＴＩＯＮ
  41
 0.76000000000000
   7
STANDARD
  72
1
  11
 288.43991800322
  21
 23.721829596328
  31
0.0
 100
AcDbText
  73
2
   0
LWPOLYLINE
   5
1C1
 100
AcDbEntity
   8
LEVEL001
   6
CONTINUOUS
  62
3
 100
AcDbPolyline
  90
4
  70
1
  10
 288.41014305184
  20
 16.991901306721
  10
 288.41014305184
  20
 14.001302906600
  10
 294.43848405007
  20
 13.203904941814
  10
 294.43848405007
  20
 17.789299271507
   0
CIRCLE
   5
1C2
 100
AcDbEntity
   8
LEVEL001
 100
AcDbCircle
   6
CONTINUOUS
  62
3
  10
 284.85876904087
  20
 15.496602106661
  30
0.0
  40
 1.4952992000607
   0
CIRCLE
   5
1C3
 100
AcDbEntity
   8
LEVEL001
 100
AcDbCircle
   6
CONTINUOUS
  62
3
  10
 284.85876904087
  20
 15.496602106661
  30
0.0
  40
 2.2926971648466
   0
LINE
   5
1C4
 100
AcDbEntity
   8
LEVEL001
 100
AcDbLine
   6
DASHDOT
  62
3
  10
 284.85876904087
  20
 18.276819797895
  30
0.0
  11
 284.85876904087
  21
 12.739086639187
  31
0.0
   0
LINE
   5
1C5
 100
AcDbEntity
   8
LEVEL001
 100
AcDbLine
   6
DASHDOT
  62
3
  10
 282.06714872566
  20
 15.496602106661
  30
0.0
  11
 295.11171244742
  21
 15.496602106661
  31
0.0
   0
LINE
   5
1C6
 100
AcDbEntity
   8
LEVEL001
 100
AcDbLine
   6
CONTINUOUS
  62
3
  10
 228.41198317335
  20
 40.623482664101
  30
0.0
  11
 403.00000000000
  21
 40.623482664101
  31
0.0
   0
LINE
   5
1C7
 100
AcDbEntity
   8
LEVEL001
 100
AcDbLine
   6
CONTINUOUS
  62
3
  10
 280.41198317335
  20
 25.623482664101
  30
0.0
  11
 280.41198317335
  21
 40.623482664101
  31
0.0
   0
LINE
   5
1C8
 100
AcDbEntity
   8
LEVEL001
 100
AcDbLine
   6
CONTINUOUS
  62
3
  10
 393.00000000000
  20
 40.623482664101
  30
0.0
  11
 393.00000000000
  21
 10.623482664101
  31
0.0
   0
TEXT
   5
1C9
 100
AcDbEntity
   8
LEVEL001
  62
3
 100
AcDbText
  10
 281.72327826531
  20
 37.573442796790
  30
0.0
  40
 2.5000000000000
   1
ＴＩＴＬＥ
  41
 0.76000000000000
   7
STANDARD
 100
AcDbText
   0
LINE
   5
1CA
 100
AcDbEntity
   8
LEVEL001
 100
AcDbLine
   6
CONTINUOUS
  62
3
  10
 342.00000000000
  20
 40.623482664101
  30
0.0
  11
 342.00000000000
  21
 25.623482664101
  31
0.0
   0
LINE
   5
1CB
 100
AcDbEntity
   8
LEVEL001
 100
AcDbLine
   6
CONTINUOUS
  62
3
  10
 342.00000000000
  20
 33.123482664101
  30
0.0
  11
 392.82654662566
  21
 33.123482664101
  31
0.0
   0
TEXT
   5
1CC
 100
AcDbEntity
   8
LEVEL001
  62
3
 100
AcDbText
  10
 393.45881737529
  20
 37.196652667621
  30
0.0
  40
 2.5000000000000
   1
ＳＣＡＬＥ
  41
 0.88000000000000
   7
STANDARD
  72
1
  11
 398.05881737529
  21
 38.446652667621
  31
0.0
 100
AcDbText
  73
2
   0
TEXT
   5
1CD
 100
AcDbEntity
   8
LEVEL001
  62
3
 100
AcDbText
  10
 342.59989527462
  20
 37.573442796790
  30
0.0
  40
 2.5000000000000
   1
ＰＴ.ＮＯ
  41
 0.76000000000000
   7
STANDARD
 100
AcDbText
   0
TEXT
   5
1CE
 100
AcDbEntity
   8
LEVEL001
  62
3
 100
AcDbText
  10
 342.59989527462
  20
 29.763824210947
  30
0.0
  40
 2.5000000000000
   1
ＰＴ.ＮＡＭＥ
  41
 0.76000000000000
   7
STANDARD
 100
AcDbText
   0
LINE
   5
1CF
 100
AcDbEntity
   8
LEVEL001
 100
AcDbLine
   6
CONTINUOUS
  62
3
  10
 400.58032447968
  20
 34.847167115437
  30
0.0
  11
 395.37930700766
  21
 27.832461499328
  31
0.0
   0
LINE
   5
1D0
 100
AcDbEntity
   8
LEVEL001
 100
AcDbLine
   6
CONTINUOUS
  62
3
  10
 280.41198317335
  20
 25.623482664101
  30
0.0
  11
 403.00000000000
  21
 25.623482664101
  31
0.0
   0
TEXT
   5
1D1
 100
AcDbEntity
   8
LEVEL001
  62
3
 100
AcDbText
  10
 266.61640595996
  20
 29.107349206730
  30
0.0
  40
 3.0000000000000
   1
ＤＷＮ．
   7
STANDARD
  72
1
  11
 272.61640595996
  21
 30.607349206730
  31
0.0
 100
AcDbText
  73
2
   0
LINE
   5
1D2
 100
AcDbEntity
   8
LEVEL001
 100
AcDbLine
   6
CONTINUOUS
  62
3
  10
 263.07864984001
  20
 32.623482664101
  30
0.0
  11
 263.07864984001
  21
 10.623482664101
  31
0.0
   0
LINE
   5
1D3
 100
AcDbEntity
   8
LEVEL001
 100
AcDbLine
   6
CONTINUOUS
  62
3
  10
 280.41198317335
  20
 32.623482664101
  30
0.0
  11
 228.41198317335
  21
 32.623482664101
  31
0.0
   0
LINE
   5
1D4
 100
AcDbEntity
   8
LEVEL001
 100
AcDbLine
   6
CONTINUOUS
  62
3
  10
 245.74531650668
  20
 32.623482664101
  30
0.0
  11
 245.74531650668
  21
 10.623482664101
  31
0.0
   0
TEXT
   5
1D5
 100
AcDbEntity
   8
LEVEL001
  62
3
 100
AcDbText
  10
 247.53332187543
  20
 29.107349206730
  30
0.0
  40
 3.0000000000000
   1
ＣＨＫＤ．
   7
STANDARD
  72
1
  11
 255.03332187543
  21
 30.607349206730
  31
0.0
 100
AcDbText
  73
2
   0
TEXT
   5
1D6
 100
AcDbEntity
   8
LEVEL001
  62
3
 100
AcDbText
  10
 230.47773031344
  20
 29.107349206730
  30
0.0
  40
 3.0000000000000
   1
ＡＰＰＤ．
   7
STANDARD
  72
1
  11
 237.97773031344
  21
 30.607349206730
  31
0.0
 100
AcDbText
  73
2
   0
TEXT
   5
1D7
 100
AcDbEntity
   8
LEVEL001
  62
3
 100
AcDbText
  10
 229.44990547429
  20
 37.426836655555
  30
0.0
  40
 2.5000000000000
   1
ＤＡＴＥ　
   7
STANDARD
  72
1
  11
 235.69990547429
  21
 38.676836655555
  31
0.0
 100
AcDbText
  73
2
   0
TEXT
   5
1D8
 100
AcDbEntity
   8
LEVEL001
  62
3
 100
AcDbText
  10
 254.08921373390
  20
 34.547198251772
  30
0.0
  40
 3.8000000000000
   1
／
  41
 0.78947368421053
   7
STANDARD
 100
AcDbText
   0
TEXT
   5
1D9
 100
AcDbEntity
   8
LEVEL001
  62
3
 100
AcDbText
  10
 266.37675801974
  20
 34.547198251772
  30
0.0
  40
 3.8000000000000
   1
／
  41
 0.78947368421053
   7
STANDARD
 100
AcDbText
   0
LINE
   5
1DA
 100
AcDbEntity
   8
LEVEL001
 100
AcDbLine
   6
CONTINUOUS
  62
8
  10
 311.87601195884
  20
 23.726906399220
  30
0.0
  11
 308.57933271356
  21
 18.501906399220
  31
0.0
   0
LINE
   5
1DB
 100
AcDbEntity
   8
LEVEL001
 100
AcDbLine
   6
CONTINUOUS
  62
8
  10
 309.78601195884
  20
 12.649906399220
  30
0.0
  11
 309.12823567852
  21
 15.839906399220
  31
0.0
   0
LINE
   5
1DC
 100
AcDbEntity
   8
LEVEL001
 100
AcDbLine
   6
CONTINUOUS
  62
8
  10
 309.05565346828
  20
 16.191906399220
  30
0.0
  11
 308.57933271356
  21
 18.501906399220
  31
0.0
   0
LINE
   5
1DD
 100
AcDbEntity
   8
LEVEL001
 100
AcDbLine
   6
CONTINUOUS
  62
8
  10
 309.36801195884
  20
 23.726906399220
  30
0.0
  11
 308.23065346828
  21
 16.191906399220
  31
0.0
   0
LINE
   5
1DE
 100
AcDbEntity
   8
LEVEL001
 100
AcDbLine
   6
CONTINUOUS
  62
8
  10
 308.17752139281
  20
 15.839906399220
  30
0.0
  11
 307.69601195884
  21
 12.649906399220
  31
0.0
   0
LINE
   5
1DF
 100
AcDbEntity
   8
LEVEL001
 100
AcDbLine
   6
CONTINUOUS
  62
8
  10
 306.02401195884
  20
 23.726906399220
  30
0.0
  11
 304.88665346828
  21
 16.191906399220
  31
0.0
   0
LINE
   5
1E0
 100
AcDbEntity
   8
LEVEL001
 100
AcDbLine
   6
CONTINUOUS
  62
8
  10
 304.83352139281
  20
 15.839906399220
  30
0.0
  11
 304.35201195884
  21
 12.649906399220
  31
0.0
   0
LWPOLYLINE
   5
1E1
 100
AcDbEntity
   8
LEVEL001
   6
CONTINUOUS
  62
8
 100
AcDbPolyline
  90
4
  70
0
  10
 304.88665346828
  20
 16.191906399220
  10
 303.25201195884
  20
 16.191906399220
  10
 303.25201195884
  20
 15.839906399220
  10
 304.83352139281
  20
 15.839906399220
   0
LINE
   5
1E2
 100
AcDbEntity
   8
LEVEL001
 100
AcDbLine
   6
CONTINUOUS
  62
8
  10
 309.05565346828
  20
 16.191906399220
  30
0.0
  11
 308.23065346828
  21
 16.191906399220
  31
0.0
   0
LINE
   5
1E3
 100
AcDbEntity
   8
LEVEL001
 100
AcDbLine
   6
CONTINUOUS
  62
8
  10
 308.17752139281
  20
 15.839906399220
  30
0.0
  11
 309.12823567852
  21
 15.839906399220
  31
0.0
   0
INSERT
   5
1E4
 100
AcDbEntity
   8
LEVEL001
 100
AcDbBlockReference
   2
BLOCK001
  10
0.0
  20
0.0
  30
0.0
   0
TEXT
   5
1E5
 100
AcDbEntity
   8
LEVEL001
  62
8
 100
AcDbText
  10
 314.65688628864
  20
 13.271725595648
  30
0.0
  40
 2.2550000000000
   1
Kuriki Manufacture Co.,Ltd
  41
 0.35365853658537
  51
 10.000000000000
   7
STANDARD
 100
AcDbText
   0
LINE
   5
1E6
 100
AcDbEntity
   8
LEVEL001
 100
AcDbLine
   6
CONTINUOUS
  62
8
  10
 315.22001195884
  20
 23.726906399220
  30
0.0
  11
 311.92333271356
  21
 18.501906399220
  31
0.0
   0
LINE
   5
1E7
 100
AcDbEntity
   8
LEVEL001
 100
AcDbLine
   6
CONTINUOUS
  62
8
  10
 334.17413629757
  20
 22.021906399220
  30
0.0
  11
 332.41413629757
  21
 22.021906399220
  31
0.0
   0
LINE
   5
1E8
 100
AcDbEntity
   8
LEVEL001
 100
AcDbLine
   6
CONTINUOUS
  62
8
  10
 334.17413629757
  20
 22.021906399220
  30
0.0
  11
 333.29413629757
  21
 16.191906399220
  31
0.0
   0
LINE
   5
1E9
 100
AcDbEntity
   8
LEVEL001
 100
AcDbLine
   6
CONTINUOUS
  62
8
  10
 332.41413629757
  20
 22.021906399220
  30
0.0
  11
 331.53413629757
  21
 16.191906399220
  31
0.0
   0
LINE
   5
1EA
 100
AcDbEntity
   8
LEVEL001
 100
AcDbLine
   6
CONTINUOUS
  62
8
  10
 333.29413629757
  20
 16.191906399220
  30
0.0
  11
 331.53413629757
  21
 16.191906399220
  31
0.0
   0
LINE
   5
1EB
 100
AcDbEntity
   8
LEVEL001
 100
AcDbLine
   6
CONTINUOUS
  62
8
  10
 329.00413629757
  20
 22.021906399220
  30
0.0
  11
 327.24413629757
  21
 22.021906399220
  31
0.0
   0
LINE
   5
1EC
 100
AcDbEntity
   8
LEVEL001
 100
AcDbLine
   6
CONTINUOUS
  62
8
  10
 329.00413629757
  20
 22.021906399220
  30
0.0
  11
 328.12413629757
  21
 16.191906399220
  31
0.0
   0
LINE
   5
1ED
 100
AcDbEntity
   8
LEVEL001
 100
AcDbLine
   6
CONTINUOUS
  62
8
  10
 327.24413629757
  20
 22.021906399220
  30
0.0
  11
 326.36413629757
  21
 16.191906399220
  31
0.0
   0
LINE
   5
1EE
 100
AcDbEntity
   8
LEVEL001
 100
AcDbLine
   6
CONTINUOUS
  62
8
  10
 328.12413629757
  20
 16.191906399220
  30
0.0
  11
 326.36413629757
  21
 16.191906399220
  31
0.0
   0
LINE
   5
1EF
 100
AcDbEntity
   8
LEVEL001
 100
AcDbLine
   6
CONTINUOUS
  62
8
  10
 326.58413629757
  20
 22.021906399220
  30
0.0
  11
 324.82413629757
  21
 22.021906399220
  31
0.0
   0
LINE
   5
1F0
 100
AcDbEntity
   8
LEVEL001
 100
AcDbLine
   6
CONTINUOUS
  62
8
  10
 326.58413629757
  20
 22.021906399220
  30
0.0
  11
 325.70413629757
  21
 16.191906399220
  31
0.0
   0
LINE
   5
1F1
 100
AcDbEntity
   8
LEVEL001
 100
AcDbLine
   6
CONTINUOUS
  62
8
  10
 324.82413629757
  20
 22.021906399220
  30
0.0
  11
 323.94413629757
  21
 16.191906399220
  31
0.0
   0
LINE
   5
1F2
 100
AcDbEntity
   8
LEVEL001
 100
AcDbLine
   6
CONTINUOUS
  62
8
  10
 325.70413629757
  20
 16.191906399220
  30
0.0
  11
 323.94413629757
  21
 16.191906399220
  31
0.0
   0
LINE
   5
1F3
 100
AcDbEntity
   8
LEVEL001
 100
AcDbLine
   6
CONTINUOUS
  62
8
  10
 332.08413629757
  20
 22.021906399220
  30
0.0
  11
 330.32413629757
  21
 22.021906399220
  31
0.0
   0
LINE
   5
1F4
 100
AcDbEntity
   8
LEVEL001
 100
AcDbLine
   6
CONTINUOUS
  62
8
  10
 330.32413629757
  20
 22.021906399220
  30
0.0
  11
 328.58904195795
  21
 19.271906399220
  31
0.0
   0
LINE
   5
1F5
 100
AcDbEntity
   8
LEVEL001
 100
AcDbLine
   6
CONTINUOUS
  62
8
  10
 329.22413629757
  20
 16.191906399220
  30
0.0
  11
 331.20413629757
  21
 16.191906399220
  31
0.0
   0
LINE
   5
1F6
 100
AcDbEntity
   8
LEVEL001
 100
AcDbLine
   6
CONTINUOUS
  62
8
  10
 329.22413629757
  20
 16.191906399220
  30
0.0
  11
 328.58904195795
  21
 19.271906399220
  31
0.0
   0
LINE
   5
1F7
 100
AcDbEntity
   8
LEVEL001
 100
AcDbLine
   6
CONTINUOUS
  62
8
  10
 332.08413629757
  20
 22.021906399220
  30
0.0
  11
 330.34904195795
  21
 19.271906399220
  31
0.0
   0
LINE
   5
1F8
 100
AcDbEntity
   8
LEVEL001
 100
AcDbLine
   6
CONTINUOUS
  62
8
  10
 330.34904195795
  20
 19.271906399220
  30
0.0
  11
 331.20413629757
  21
 16.191906399220
  31
0.0
   0
LINE
   5
1F9
 100
AcDbEntity
   8
LEVEL001
 100
AcDbLine
   6
CONTINUOUS
  62
8
  10
 321.63413629757
  20
 16.191906399220
  30
0.0
  11
 323.61413629757
  21
 16.191906399220
  31
0.0
   0
LINE
   5
1FA
 100
AcDbEntity
   8
LEVEL001
 100
AcDbLine
   6
CONTINUOUS
  62
8
  10
 319.87413629757
  20
 22.021906399220
  30
0.0
  11
 318.99413629757
  21
 16.191906399220
  31
0.0
   0
LINE
   5
1FB
 100
AcDbEntity
   8
LEVEL001
 100
AcDbLine
   6
CONTINUOUS
  62
8
  10
 320.75413629757
  20
 16.191906399220
  30
0.0
  11
 318.99413629757
  21
 16.191906399220
  31
0.0
   0
LINE
   5
1FC
 100
AcDbEntity
   8
LEVEL001
 100
AcDbLine
   6
CONTINUOUS
  62
8
  10
 321.63413629757
  20
 16.191906399220
  30
0.0
  11
 321.27122524636
  21
 17.951906399220
  31
0.0
   0
LINE
   5
1FD
 100
AcDbEntity
   8
LEVEL001
 100
AcDbLine
   6
CONTINUOUS
  62
8
  10
 322.97281554286
  20
 18.501906399220
  30
0.0
  11
 323.61413629757
  21
 16.191906399220
  31
0.0
   0
LINE
   5
1FE
 100
AcDbEntity
   8
LEVEL001
 100
AcDbLine
   6
CONTINUOUS
  62
8
  10
 321.38577335329
  20
 20.376501893337
  30
0.0
  11
 320.75413629757
  21
 16.191906399220
  31
0.0
   0
LINE
   5
1FF
 100
AcDbEntity
   8
LEVEL001
 100
AcDbLine
   6
CONTINUOUS
  62
8
  10
 321.27122524636
  20
 17.951906399220
  30
0.0
  11
 321.52571239946
  21
 19.602383443274
  31
0.0
   0
LINE
   5
200
 100
AcDbEntity
   8
LEVEL001
 100
AcDbLine
   6
CONTINUOUS
  62
8
  10
 319.21413629757
  20
 22.021906399220
  30
0.0
  11
 317.45413629757
  21
 22.021906399220
  31
0.0
   0
LINE
   5
201
 100
AcDbEntity
   8
LEVEL001
 100
AcDbLine
   6
CONTINUOUS
  62
8
  10
 316.90413629757
  20
 22.021906399220
  30
0.0
  11
 315.14413629757
  21
 22.021906399220
  31
0.0
   0
LINE
   5
202
 100
AcDbEntity
   8
LEVEL001
 100
AcDbLine
   6
CONTINUOUS
  62
8
  10
 317.45413629757
  20
 22.021906399220
  30
0.0
  11
 316.87713633427
  21
 18.199281642342
  31
0.0
   0
LINE
   5
203
 100
AcDbEntity
   8
LEVEL001
 100
AcDbLine
   6
CONTINUOUS
  62
8
  10
 316.90413629757
  20
 22.021906399220
  30
0.0
  11
 316.32651949334
  21
 18.195195071210
  31
0.0
   0
LINE
   5
204
 100
AcDbEntity
   8
LEVEL001
 100
AcDbLine
   6
CONTINUOUS
  62
8
  10
 315.14413629757
  20
 22.021906399220
  30
0.0
  11
 314.56745987001
  21
 18.201425066603
  31
0.0
   0
LINE
   5
205
 100
AcDbEntity
   8
LEVEL001
 100
AcDbLine
   6
CONTINUOUS
  62
8
  10
 319.21413629757
  20
 22.021906399220
  30
0.0
  11
 318.64759428831
  21
 18.268565587884
  31
0.0
   0
ARC
   5
206
 100
AcDbEntity
   8
LEVEL001
   6
CONTINUOUS
  62
8
 100
AcDbCircle
  10
 322.25149215145
  20
 20.281654931699
  30
0.0
  40
 1.7402514675212
 100
AcDbArc
  50
 351.41637851989
  51
 89.999999999978
   0
LINE
   5
207
 100
AcDbEntity
   8
LEVEL001
 100
AcDbLine
   6
CONTINUOUS
  62
8
  10
 322.25149215145
  20
 22.021906399220
  30
0.0
  11
 319.87413629757
  21
 22.021906399220
  31
0.0
   0
LINE
   5
208
 100
AcDbEntity
   8
LEVEL001
 100
AcDbLine
   6
CONTINUOUS
  62
8
  10
 321.38507969380
  20
 20.371906399220
  30
0.0
  11
 321.82304781223
  21
 20.371906399220
  31
0.0
   0
ARC
   5
209
 100
AcDbEntity
   8
LEVEL001
   6
CONTINUOUS
  62
8
 100
AcDbCircle
  10
 316.32557002286
  20
 17.958957507865
  30
0.0
  40
 1.7747512013310
 100
AcDbArc
  50
 172.14765871033
  51
 264.66082673530
   0
ARC
   5
20A
 100
AcDbEntity
   8
LEVEL001
   6
CONTINUOUS
  62
8
 100
AcDbCircle
  10
 316.21330743135
  20
 18.656314041926
  30
0.0
  40
 2.4649749219048
 100
AcDbArc
  50
 268.77075588816
  51
 350.94960092961
   0
ARC
   5
20B
 100
AcDbEntity
   8
LEVEL001
   6
CONTINUOUS
  62
8
 100
AcDbCircle
  10
 316.53858367491
  20
 18.165952445969
  30
0.0
  40
 0.21407089533906
 100
AcDbArc
  50
 170.68405351440
  51
 269.12700070201
   0
ARC
   5
20C
 100
AcDbEntity
   8
LEVEL001
   6
CONTINUOUS
  62
8
 100
AcDbCircle
  10
 316.57207126624
  20
 18.260968657993
  30
0.0
  40
 0.31123943135484
 100
AcDbArc
  50
 263.21905471517
  51
 348.56840050093
   0
ARC
   5
20D
 100
AcDbEntity
   8
LEVEL001
   6
CONTINUOUS
  62
8
 100
AcDbCircle
  10
 321.98449352605
  20
 20.240325896159
  30
0.0
  40
 1.9997206695528
 100
AcDbArc
  50
 299.61899079217
  51
 353.72968381427
   0
ARC
   5
20E
 100
AcDbEntity
   8
LEVEL001
   6
CONTINUOUS
  62
8
 100
AcDbCircle
  10
 321.82304781223
  20
 19.989374860182
  30
0.0
  40
 0.38253153903777
 100
AcDbArc
  50
0.0
  51
 90.000000000417
   0
ARC
   5
20F
 100
AcDbEntity
   8
LEVEL001
   6
CONTINUOUS
  62
8
 100
AcDbCircle
  10
 321.74321300411
  20
 20.071334648260
  30
0.0
  40
 0.46957432409482
 100
AcDbArc
  50
 272.95201820138
  51
 349.94807454513
   0
LINE
   5
210
 100
AcDbEntity
   8
LEVEL001
 100
AcDbLine
   6
CONTINUOUS
  62
8
  10
 321.76739591525
  20
 19.602383443274
  30
0.0
  11
 321.52571239946
  21
 19.602383443274
  31
0.0
   0
LINE
   5
211
 100
AcDbEntity
   8
LEVEL001
 100
AcDbLine
   6
CONTINUOUS
  62
8
  10
 311.92333271356
  20
 18.501906399220
  30
0.0
  11
 312.56465346828
  21
 16.191906399220
  31
0.0
   0
LINE
   5
212
 100
AcDbEntity
   8
LEVEL001
 100
AcDbLine
   6
CONTINUOUS
  62
8
  10
 312.66237853566
  20
 15.839906399220
  30
0.0
  11
 313.54801195884
  21
 12.649906399220
  31
0.0
   0
LWPOLYLINE
   5
213
 100
AcDbEntity
   8
LEVEL001
   6
CONTINUOUS
  62
8
 100
AcDbPolyline
  90
4
  70
0
  10
 312.66237853566
  20
 15.839906399220
  10
 335.37201195884
  20
 15.839906399220
  10
 335.37201195884
  20
 16.191906399220
  10
 312.56465346828
  20
 16.191906399220
   0
LINE
   5
214
 100
AcDbEntity
   8
LEVEL001
 100
AcDbLine
   6
CONTINUOUS
  62
8
  10
 309.36801195884
  20
 23.726906399220
  30
0.0
  11
 306.02401195884
  21
 23.726906399220
  31
0.0
   0
LINE
   5
215
 100
AcDbEntity
   8
LEVEL001
 100
AcDbLine
   6
CONTINUOUS
  62
8
  10
 315.22001195884
  20
 23.726906399220
  30
0.0
  11
 311.87601195884
  21
 23.726906399220
  31
0.0
   0
LINE
   5
216
 100
AcDbEntity
   8
LEVEL001
 100
AcDbLine
   6
CONTINUOUS
  62
8
  10
 307.69601195884
  20
 12.649906399220
  30
0.0
  11
 304.35201195884
  21
 12.649906399220
  31
0.0
   0
LINE
   5
217
 100
AcDbEntity
   8
LEVEL001
 100
AcDbLine
   6
CONTINUOUS
  62
8
  10
 309.78601195884
  20
 12.649906399220
  30
0.0
  11
 313.54801195884
  21
 12.649906399220
  31
0.0
   0
TEXT
   5
218
 100
AcDbEntity
   8
LEVEL001
  62
7
 100
AcDbText
  10
 393.73996445112
  20
 31.166707948577
  30
0.0
  40
 4.0000000000000
   1
１ 　
   7
STANDARD
 100
AcDbText
   0
TEXT
   5
219
 100
AcDbEntity
   8
LEVEL001
  62
7
 100
AcDbText
  10
 398.35511870750
  20
 27.158650445530
  30
0.0
  40
 4.0000000000000
   1
１ 　
   7
STANDARD
 100
AcDbText
   0
TEXT
   5
21A
 100
AcDbEntity
   8
LEVEL001
  62
7
 100
AcDbText
  10
 240.09903069972
  20
 33.998437965356
  30
0.0
  40
 4.0000000000000
   1
 '０４
  51
 15.000000000000
   7
STANDARD
 100
AcDbText
   0
CIRCLE
   5
21B
 100
AcDbEntity
   8
LEVEL001
 100
AcDbCircle
   6
CONTINUOUS
  62
7
  10
 197.59931492565
  20
 204.94795120854
  30
0.0
  40
 12.900000000000
   0
CIRCLE
   5
21C
 100
AcDbEntity
   8
LEVEL001
 100
AcDbCircle
   6
CONTINUOUS
  62
2
  10
 197.59931492565
  20
 204.94795120854
  30
0.0
  40
 12.400000000000
   0
LINE
   5
21D
 100
AcDbEntity
   8
LEVEL001
 100
AcDbLine
   6
DASHDOT
  62
2
  10
 230.71962321286
  20
 204.94795120850
  30
0.0
  11
 166.00671187265
  21
 204.94795120850
  31
0.0
   0
LINE
   5
21E
 100
AcDbEntity
   8
LEVEL001
 100
AcDbLine
   6
CONTINUOUS
  62
7
  10
 178.59931492565
  20
 204.94795120854
  30
0.0
  11
 178.59931492565
  21
 222.94795120854
  31
0.0
   0
ARC
   5
21F
 100
AcDbEntity
   8
LEVEL001
   6
CONTINUOUS
  62
7
 100
AcDbCircle
  10
 179.59931492565
  20
 222.94795120854
  30
0.0
  40
 1.0000000000000
 100
AcDbArc
  50
 90.000000000072
  51
 180.00000000000
   0
POINT
   5
220
 100
AcDbEntity
   8
LEVEL001
 100
AcDbPoint
  62
7
  10
 178.59931492565
  20
 223.94795120854
  30
0.0
   0
LINE
   5
221
 100
AcDbEntity
   8
LEVEL001
 100
AcDbLine
   6
CONTINUOUS
  62
7
  10
 197.59931492565
  20
 223.94795120854
  30
0.0
  11
 179.59931492565
  21
 223.94795120854
  31
0.0
   0
LINE
   5
222
 100
AcDbEntity
   8
LEVEL001
 100
AcDbLine
   6
CONTINUOUS
  62
7
  10
 197.59931492565
  20
 223.94795120854
  30
0.0
  11
 215.59931492565
  21
 223.94795120854
  31
0.0
   0
ARC
   5
223
 100
AcDbEntity
   8
LEVEL001
   6
CONTINUOUS
  62
7
 100
AcDbCircle
  10
 215.59931492565
  20
 222.94795120855
  30
0.0
  40
 1.0000000000000
 100
AcDbArc
  50
0.0
  51
 90.000000000000
   0
POINT
   5
224
 100
AcDbEntity
   8
LEVEL001
 100
AcDbPoint
  62
7
  10
 216.59931492565
  20
 223.94795120854
  30
0.0
   0
LINE
   5
225
 100
AcDbEntity
   8
LEVEL001
 100
AcDbLine
   6
CONTINUOUS
  62
7
  10
 216.59931492565
  20
 204.94795120854
  30
0.0
  11
 216.59931492565
  21
 222.94795120854
  31
0.0
   0
LINE
   5
226
 100
AcDbEntity
   8
LEVEL001
 100
AcDbLine
   6
CONTINUOUS
  62
7
  10
 197.59931492565
  20
 185.94795120854
  30
0.0
  11
 215.59931492565
  21
 185.94795120854
  31
0.0
   0
ARC
   5
227
 100
AcDbEntity
   8
LEVEL001
   6
CONTINUOUS
  62
7
 100
AcDbCircle
  10
 215.59931492565
  20
 186.94795120855
  30
0.0
  40
 1.0000000000000
 100
AcDbArc
  50
 270.00000000000
  51
0.0
   0
POINT
   5
228
 100
AcDbEntity
   8
LEVEL001
 100
AcDbPoint
  62
7
  10
 216.59931492565
  20
 185.94795120854
  30
0.0
   0
LINE
   5
229
 100
AcDbEntity
   8
LEVEL001
 100
AcDbLine
   6
CONTINUOUS
  62
7
  10
 216.59931492565
  20
 204.94795120854
  30
0.0
  11
 216.59931492565
  21
 186.94795120854
  31
0.0
   0
LINE
   5
22A
 100
AcDbEntity
   8
LEVEL001
 100
AcDbLine
   6
CONTINUOUS
  62
7
  10
 197.59931492565
  20
 185.94795120854
  30
0.0
  11
 179.59931492565
  21
 185.94795120854
  31
0.0
   0
ARC
   5
22B
 100
AcDbEntity
   8
LEVEL001
   6
CONTINUOUS
  62
7
 100
AcDbCircle
  10
 179.59931492565
  20
 186.94795120855
  30
0.0
  40
 1.0000000000000
 100
AcDbArc
  50
 180.00000000004
  51
 270.00000000000
   0
POINT
   5
22C
 100
AcDbEntity
   8
LEVEL001
 100
AcDbPoint
  62
7
  10
 178.59931492565
  20
 185.94795120854
  30
0.0
   0
LINE
   5
22D
 100
AcDbEntity
   8
LEVEL001
 100
AcDbLine
   6
CONTINUOUS
  62
7
  10
 178.59931492565
  20
 204.94795120854
  30
0.0
  11
 178.59931492565
  21
 186.94795120854
  31
0.0
   0
CIRCLE
   5
22E
 100
AcDbEntity
   8
LEVEL001
 100
AcDbCircle
   6
CONTINUOUS
  62
7
  10
 197.59931492565
  20
 204.94795120854
  30
0.0
  40
 13.000000000000
   0
CIRCLE
   5
22F
 100
AcDbEntity
   8
LEVEL001
 100
AcDbCircle
   6
CONTINUOUS
  62
7
  10
 369.44834548223
  20
 204.94795120854
  30
0.0
  40
 12.900000000000
   0
CIRCLE
   5
230
 100
AcDbEntity
   8
LEVEL001
 100
AcDbCircle
   6
CONTINUOUS
  62
2
  10
 369.44834548223
  20
 204.94795120854
  30
0.0
  40
 12.400000000000
   0
LINE
   5
231
 100
AcDbEntity
   8
LEVEL001
 100
AcDbLine
   6
CONTINUOUS
  62
7
  10
 350.44834548211
  20
 204.94795120852
  30
0.0
  11
 350.44834548211
  21
 222.94795120852
  31
0.0
   0
ARC
   5
232
 100
AcDbEntity
   8
LEVEL001
   6
CONTINUOUS
  62
7
 100
AcDbCircle
  10
 351.44834548210
  20
 222.94795120852
  30
0.0
  40
 1.0000000000000
 100
AcDbArc
  50
 89.999999999635
  51
 180.00000000000
   0
POINT
   5
233
 100
AcDbEntity
   8
LEVEL001
 100
AcDbPoint
  62
7
  10
 350.44834548211
  20
 223.94795120852
  30
0.0
   0
LINE
   5
234
 100
AcDbEntity
   8
LEVEL001
 100
AcDbLine
   6
CONTINUOUS
  62
7
  10
 369.44834548211
  20
 223.94795120852
  30
0.0
  11
 351.44834548211
  21
 223.94795120852
  31
0.0
   0
LINE
   5
235
 100
AcDbEntity
   8
LEVEL001
 100
AcDbLine
   6
CONTINUOUS
  62
7
  10
 369.44834548211
  20
 223.94795120852
  30
0.0
  11
 387.44834548211
  21
 223.94795120852
  31
0.0
   0
ARC
   5
236
 100
AcDbEntity
   8
LEVEL001
   6
CONTINUOUS
  62
7
 100
AcDbCircle
  10
 387.44834548211
  20
 222.94795120852
  30
0.0
  40
 1.0000000000000
 100
AcDbArc
  50
0.0
  51
 90.000000000000
   0
POINT
   5
237
 100
AcDbEntity
   8
LEVEL001
 100
AcDbPoint
  62
7
  10
 388.44834548211
  20
 223.94795120852
  30
0.0
   0
LINE
   5
238
 100
AcDbEntity
   8
LEVEL001
 100
AcDbLine
   6
CONTINUOUS
  62
7
  10
 388.44834548211
  20
 204.94795120852
  30
0.0
  11
 388.44834548211
  21
 222.94795120852
  31
0.0
   0
LINE
   5
239
 100
AcDbEntity
   8
LEVEL001
 100
AcDbLine
   6
CONTINUOUS
  62
7
  10
 369.44834548211
  20
 185.94795120852
  30
0.0
  11
 387.44834548211
  21
 185.94795120852
  31
0.0
   0
ARC
   5
23A
 100
AcDbEntity
   8
LEVEL001
   6
CONTINUOUS
  62
7
 100
AcDbCircle
  10
 387.44834548211
  20
 186.94795120851
  30
0.0
  40
 1.0000000000000
 100
AcDbArc
  50
 270.00000000000
  51
 0.37454211928914E-9
   0
POINT
   5
23B
 100
AcDbEntity
   8
LEVEL001
 100
AcDbPoint
  62
7
  10
 388.44834548211
  20
 185.94795120852
  30
0.0
   0
LINE
   5
23C
 100
AcDbEntity
   8
LEVEL001
 100
AcDbLine
   6
CONTINUOUS
  62
7
  10
 388.44834548211
  20
 204.94795120852
  30
0.0
  11
 388.44834548211
  21
 186.94795120852
  31
0.0
   0
LINE
   5
23D
 100
AcDbEntity
   8
LEVEL001
 100
AcDbLine
   6
CONTINUOUS
  62
7
  10
 369.44834548211
  20
 185.94795120852
  30
0.0
  11
 351.44834548211
  21
 185.94795120852
  31
0.0
   0
ARC
   5
23E
 100
AcDbEntity
   8
LEVEL001
   6
CONTINUOUS
  62
7
 100
AcDbCircle
  10
 351.44834548211
  20
 186.94795120852
  30
0.0
  40
 1.0000000000000
 100
AcDbArc
  50
 180.00000000036
  51
 270.00000000000
   0
POINT
   5
23F
 100
AcDbEntity
   8
LEVEL001
 100
AcDbPoint
  62
7
  10
 350.44834548211
  20
 185.94795120852
  30
0.0
   0
LINE
   5
240
 100
AcDbEntity
   8
LEVEL001
 100
AcDbLine
   6
CONTINUOUS
  62
7
  10
 350.44834548211
  20
 204.94795120852
  30
0.0
  11
 350.44834548211
  21
 186.94795120852
  31
0.0
   0
CIRCLE
   5
241
 100
AcDbEntity
   8
LEVEL001
 100
AcDbCircle
   6
CONTINUOUS
  62
7
  10
 369.44834548211
  20
 204.94795120852
  30
0.0
  40
 13.000000000000
   0
CIRCLE
   5
242
 100
AcDbEntity
   8
LEVEL001
 100
AcDbCircle
   6
DOT
  62
2
  10
 197.59931492565
  20
 204.94795120854
  30
0.0
  40
 11.300000000000
   0
DIMENSION
   5
243
 100
AcDbEntity
   8
LEVEL001
   6
CONTINUOUS
  62
2
 100
AcDbDimension
   2
*D1
  10
 216.59931492565
  20
 236.07988451379
  30
0.0
  11
 197.59931492565
  21
 236.07988451379
  31
0.0
  70
0
   3
GMM001
 100
AcDbAlignedDimension
  13
 178.59931492565
  23
 223.94795120854
  33
0.0
  14
 216.59931492565
  24
 223.94795120854
  34
0.0
 100
AcDbRotatedDimension
   0
DIMENSION
   5
244
 100
AcDbEntity
   8
LEVEL001
   6
CONTINUOUS
  62
2
 100
AcDbDimension
   2
*D2
  10
 164.96404054412
  20
 223.94795120854
  30
0.0
  11
 164.96404054412
  21
 204.94795120854
  31
0.0
  70
0
   3
GMM001
 100
AcDbAlignedDimension
  13
 178.59931492565
  23
 185.94795120854
  33
0.0
  14
 178.59931492565
  24
 223.94795120854
  34
0.0
  50
 90.000000000000
 100
AcDbRotatedDimension
   0
DIMENSION
   5
245
 100
AcDbEntity
   8
LEVEL001
   6
CONTINUOUS
  62
2
 100
AcDbDimension
   2
*D3
  10
 400.75906329073
  20
 185.94795120852
  30
0.0
  11
 400.75906329073
  21
 204.94795120852
  31
0.0
  70
0
   3
GMM001
 100
AcDbAlignedDimension
  13
 388.44834548211
  23
 223.94795120852
  33
0.0
  14
 388.44834548211
  24
 185.94795120852
  34
0.0
  50
 270.00000000000
 100
AcDbRotatedDimension
   0
DIMENSION
   5
246
 100
AcDbEntity
   8
LEVEL001
   6
CONTINUOUS
  62
2
 100
AcDbDimension
   2
*D4
  10
 388.44834548211
  20
 236.07988451379
  30
0.0
  11
 369.44834548211
  21
 236.07988451379
  31
0.0
  70
0
   3
GMM001
 100
AcDbAlignedDimension
  13
 350.44834548211
  23
 223.94795120852
  33
0.0
  14
 388.44834548211
  24
 223.94795120852
  34
0.0
 100
AcDbRotatedDimension
   0
LINE
   5
247
 100
AcDbEntity
   8
LEVEL001
 100
AcDbLine
   6
DASHDOT
  62
2
  10
 392.95392753724
  20
 204.94795120850
  30
0.0
  11
 345.27349736824
  21
 204.94795120850
  31
0.0
   0
DIMENSION
   5
248
 100
AcDbEntity
   8
LEVEL001
   6
CONTINUOUS
  62
2
 100
AcDbDimension
   2
*D5
  10
 186.95087130954
  20
 197.49069644861
  30
0.0
  11
 222.49851314467
  21
 222.38520975369
  31
0.0
  70
131
   3
GMM002
 100
AcDbDiametricDimension
  15
 208.24775854176
  25
 212.40520596848
  35
0.0
  40
 17.397829815959
   0
DIMENSION
   5
249
 100
AcDbEntity
   8
LEVEL001
   6
CONTINUOUS
  62
2
 100
AcDbDimension
   2
*D6
  10
 374.51691233214
  20
 192.97675118150
  30
0.0
  11
 341.65396168051
  21
 242.25193345573
  31
0.0
  70
131
   3
GMM002
 100
AcDbDiametricDimension
  15
 364.37977863208
  25
 216.91915123553
  35
0.0
  40
 27.509871033769
   0
TEXT
   5
24A
 100
AcDbEntity
   8
LEVEL001
  62
7
 100
AcDbText
  10
 358.48785161961
  20
 27.139058861391
  30
0.0
  40
 4.0000000000000
   1
組立図
  51
 15.000000000000
   7
STANDARD
 100
AcDbText
   0
LINE
   5
24B
 100
AcDbEntity
   8
LEVEL001
 100
AcDbLine
   6
DASHDOT
  62
2
  10
 32.461694177543
  20
 124.85706785708
  30
0.0
  11
 78.099599474928
  21
 124.85706785708
  31
0.0
   0
LINE
   5
24C
 100
AcDbEntity
   8
LEVEL001
 100
AcDbLine
   6
DIVIDE
  62
2
  10
 40.094114609531
  20
 139.85706785708
  30
0.0
  11
 68.094114609666
  21
 139.85706785708
  31
0.0
   0
LINE
   5
24D
 100
AcDbEntity
   8
LEVEL001
 100
AcDbLine
   6
DIVIDE
  62
2
  10
 40.094114609531
  20
 109.85706785708
  30
0.0
  11
 68.094114609531
  21
 109.85706785708
  31
0.0
   0
INSERT
   5
24E
 100
AcDbEntity
   8
LEVEL001
 100
AcDbBlockReference
   2
BLOCK002
  10
0.0
  20
0.0
  30
0.0
   0
LINE
   5
24F
 100
AcDbEntity
   8
LEVEL001
 100
AcDbLine
   6
DASHDOT
  62
2
  10
 32.461694177543
  20
 217.31659555168
  30
0.0
  11
 86.099599474928
  21
 217.31659555168
  31
0.0
   0
LINE
   5
250
 100
AcDbEntity
   8
LEVEL001
 100
AcDbLine
   6
DIVIDE
  62
2
  10
 76.094114609531
  20
 232.31659555168
  30
0.0
  11
 40.094114609397
  21
 232.31659555168
  31
0.0
   0
INSERT
   5
251
 100
AcDbEntity
   8
LEVEL001
 100
AcDbBlockReference
   2
BLOCK003
  10
0.0
  20
0.0
  30
0.0
   0
CIRCLE
   5
252
 100
AcDbEntity
   8
LEVEL001
 100
AcDbCircle
   6
CONTINUOUS
  62
7
  10
 112.34834494995
  20
 124.85706785708
  30
0.0
  40
 15.000000000000
   0
LINE
   5
253
 100
AcDbEntity
   8
LEVEL001
 100
AcDbLine
   6
DASHDOT
  62
2
  10
 90.348344949947
  20
 124.85706785708
  30
0.0
  11
 134.34834494995
  21
 124.85706785708
  31
0.0
   0
LINE
   5
254
 100
AcDbEntity
   8
LEVEL001
 100
AcDbLine
   6
DASHDOT
  62
2
  10
 112.34834494995
  20
 146.85706785708
  30
0.0
  11
 112.34834494995
  21
 102.85706785708
  31
0.0
   0
DIMENSION
   5
255
 100
AcDbEntity
   8
LEVEL001
   6
CONTINUOUS
  62
2
 100
AcDbDimension
   2
*D7
  10
 106.07202865154
  20
 138.48086518830
  30
0.0
  11
 124.54654542260
  21
 98.378827573484
  31
0.0
  70
131
   1
\A1;%%c30{\H0.625x;\S +0.2^ -0;} 
   3
GMM003
 100
AcDbDiametricDimension
  15
 118.62466124836
  25
 111.23327052585
  35
0.0
  40
 14.152929583263
   0
TEXT
   5
256
 100
AcDbEntity
   8
LEVEL001
  62
7
 100
AcDbText
  10
 93.553346834147
  20
 88.792769485683
  30
0.0
  40
 4.0000000000000
   1
切欠き図　Ｓ＝１／１
   7
STANDARD
 100
AcDbText
   0
LWPOLYLINE
   5
257
 100
AcDbEntity
   8
LEVEL001
   6
CONTINUOUS
  62
2
 100
AcDbPolyline
  90
4
  70
1
  10
 86.402560915552
  20
 154.60325452511
  10
 86.402560915552
  20
 83.444214164458
  10
 145.70176121610
  20
 83.444214164458
  10
 145.70176121610
  20
 154.60325452511
   0
LWPOLYLINE
   5
258
 100
AcDbEntity
   8
LEVEL001
   6
DIVIDE
  62
2
 100
AcDbPolyline
  90
4
  70
1
  10
 22.254866267484
  20
 271.95301871468
  10
 22.254866267484
  20
 74.930838519380
  10
 148.77507434913
  20
 74.930838519380
  10
 148.77507434913
  20
 271.95301871468
   0
LINE
   5
259
 100
AcDbEntity
   8
LEVEL001
 100
AcDbLine
   6
DOT
  62
2
  10
 252.33272474194
  20
 190.94795120850
  30
0.0
  11
 252.33272474194
  21
 192.04795120850
  31
0.0
   0
LINE
   5
25A
 100
AcDbEntity
   8
LEVEL001
 100
AcDbLine
   6
CONTINUOUS
  62
7
  10
 250.33272474207
  20
 192.54795120850
  30
0.0
  11
 250.33272474207
  21
 204.94795120860
  31
0.0
   0
LINE
   5
25B
 100
AcDbEntity
   8
LEVEL001
 100
AcDbLine
   6
CONTINUOUS
  62
7
  10
 250.33272474207
  20
 217.34795120850
  30
0.0
  11
 250.33272474207
  21
 204.94795120860
  31
0.0
   0
POINT
   5
25C
 100
AcDbEntity
   8
LEVEL001
 100
AcDbPoint
  62
7
  10
 250.33272474207
  20
 223.94795120864
  30
0.0
   0
LINE
   5
25D
 100
AcDbEntity
   8
LEVEL001
 100
AcDbLine
   6
CONTINUOUS
  62
7
  10
 250.83272474207
  20
 185.94795120860
  30
0.0
  11
 252.33272474207
  21
 185.94795120860
  31
0.0
   0
ARC
   5
25E
 100
AcDbEntity
   8
LEVEL001
   6
CONTINUOUS
  62
7
 100
AcDbCircle
  10
 250.83272474207
  20
 186.44795120859
  30
0.0
  40
 0.50000000000000
 100
AcDbArc
  50
 179.99999999946
  51
 270.00000000000
   0
POINT
   5
25F
 100
AcDbEntity
   8
LEVEL001
 100
AcDbPoint
  62
7
  10
 250.33272474207
  20
 185.94795120860
  30
0.0
   0
LINE
   5
260
 100
AcDbEntity
   8
LEVEL001
 100
AcDbLine
   6
CONTINUOUS
  62
7
  10
 250.33272474207
  20
 204.94795120860
  30
0.0
  11
 250.33272474207
  21
 186.44795120860
  31
0.0
   0
LINE
   5
261
 100
AcDbEntity
   8
LEVEL001
 100
AcDbLine
   6
CONTINUOUS
  62
7
  10
 250.33272474207
  20
 204.94795120860
  30
0.0
  11
 250.33272474207
  21
 223.44795120860
  31
0.0
   0
ARC
   5
262
 100
AcDbEntity
   8
LEVEL001
   6
CONTINUOUS
  62
7
 100
AcDbCircle
  10
 250.83272474207
  20
 223.44795120860
  30
0.0
  40
 0.50000000000000
 100
AcDbArc
  50
 90.000000000306
  51
 180.00000000000
   0
POINT
   5
263
 100
AcDbEntity
   8
LEVEL001
 100
AcDbPoint
  62
7
  10
 250.33272474207
  20
 223.94795120860
  30
0.0
   0
LINE
   5
264
 100
AcDbEntity
   8
LEVEL001
 100
AcDbLine
   6
CONTINUOUS
  62
7
  10
 250.83272474207
  20
 223.94795120860
  30
0.0
  11
 252.33272474207
  21
 223.94795120860
  31
0.0
   0
LINE
   5
265
 100
AcDbEntity
   8
LEVEL001
 100
AcDbLine
   6
CONTINUOUS
  62
7
  10
 318.33272474221
  20
 201.09154743644
  30
0.0
  11
 316.33272474221
  21
 201.09154743644
  31
0.0
   0
LINE
   5
266
 100
AcDbEntity
   8
LEVEL001
 100
AcDbLine
   6
CONTINUOUS
  62
7
  10
 318.33272474221
  20
 199.46873136867
  30
0.0
  11
 316.33272474221
  21
 201.09154743644
  31
0.0
   0
LINE
   5
267
 100
AcDbEntity
   8
LEVEL001
 100
AcDbLine
   6
CONTINUOUS
  62
7
  10
 313.33272474221
  20
 199.46873136867
  30
0.0
  11
 311.33272474221
  21
 201.09154743644
  31
0.0
   0
LINE
   5
268
 100
AcDbEntity
   8
LEVEL001
 100
AcDbLine
   6
CONTINUOUS
  62
7
  10
 313.33272474221
  20
 201.09154743644
  30
0.0
  11
 311.33272474221
  21
 201.09154743644
  31
0.0
   0
LINE
   5
269
 100
AcDbEntity
   8
LEVEL001
 100
AcDbLine
   6
CONTINUOUS
  62
7
  10
 318.33272474221
  20
 208.80435498054
  30
0.0
  11
 316.33272474221
  21
 208.80435498054
  31
0.0
   0
LINE
   5
26A
 100
AcDbEntity
   8
LEVEL001
 100
AcDbLine
   6
CONTINUOUS
  62
7
  10
 318.33272474221
  20
 210.42717104833
  30
0.0
  11
 316.33272474221
  21
 208.80435498054
  31
0.0
   0
LINE
   5
26B
 100
AcDbEntity
   8
LEVEL001
 100
AcDbLine
   6
CONTINUOUS
  62
7
  10
 313.33272474221
  20
 208.80435498054
  30
0.0
  11
 311.33272474221
  21
 208.80435498054
  31
0.0
   0
LINE
   5
26C
 100
AcDbEntity
   8
LEVEL001
 100
AcDbLine
   6
CONTINUOUS
  62
7
  10
 313.33272474221
  20
 210.42717104833
  30
0.0
  11
 311.33272474221
  21
 208.80435498054
  31
0.0
   0
LINE
   5
26D
 100
AcDbEntity
   8
LEVEL001
 100
AcDbLine
   6
CONTINUOUS
  62
7
  10
 316.33272474221
  20
 190.55565639678
  30
0.0
  11
 318.33272474221
  21
 190.55565639678
  31
0.0
   0
LINE
   5
26E
 100
AcDbEntity
   8
LEVEL001
 100
AcDbLine
   6
CONTINUOUS
  62
7
  10
 311.33272474221
  20
 190.55565639678
  30
0.0
  11
 313.33272474221
  21
 190.55565639678
  31
0.0
   0
LINE
   5
26F
 100
AcDbEntity
   8
LEVEL001
 100
AcDbLine
   6
CONTINUOUS
  62
7
  10
 313.33272474221
  20
 201.09154743644
  30
0.0
  11
 313.33272474221
  21
 190.55565639678
  31
0.0
   0
LINE
   5
270
 100
AcDbEntity
   8
LEVEL001
 100
AcDbLine
   6
CONTINUOUS
  62
7
  10
 311.33272474221
  20
 190.55565639678
  30
0.0
  11
 311.33272474221
  21
 201.09154743644
  31
0.0
   0
LINE
   5
271
 100
AcDbEntity
   8
LEVEL001
 100
AcDbLine
   6
CONTINUOUS
  62
7
  10
 316.33272474221
  20
 190.55565639678
  30
0.0
  11
 316.33272474221
  21
 201.09154743644
  31
0.0
   0
LINE
   5
272
 100
AcDbEntity
   8
LEVEL001
 100
AcDbLine
   6
CONTINUOUS
  62
7
  10
 318.33272474221
  20
 201.09154743644
  30
0.0
  11
 318.33272474221
  21
 190.55565639678
  31
0.0
   0
LINE
   5
273
 100
AcDbEntity
   8
LEVEL001
 100
AcDbLine
   6
CONTINUOUS
  62
7
  10
 311.33272474221
  20
 219.34024602021
  30
0.0
  11
 311.33272474221
  21
 208.80435498056
  31
0.0
   0
LINE
   5
274
 100
AcDbEntity
   8
LEVEL001
 100
AcDbLine
   6
CONTINUOUS
  62
7
  10
 313.33272474221
  20
 208.80435498056
  30
0.0
  11
 313.33272474221
  21
 219.34024602021
  31
0.0
   0
LINE
   5
275
 100
AcDbEntity
   8
LEVEL001
 100
AcDbLine
   6
CONTINUOUS
  62
7
  10
 316.33272474221
  20
 219.34024602021
  30
0.0
  11
 316.33272474221
  21
 208.80435498056
  31
0.0
   0
LINE
   5
276
 100
AcDbEntity
   8
LEVEL001
 100
AcDbLine
   6
CONTINUOUS
  62
7
  10
 318.33272474221
  20
 208.80435498056
  30
0.0
  11
 318.33272474221
  21
 219.34024602021
  31
0.0
   0
LINE
   5
277
 100
AcDbEntity
   8
LEVEL001
 100
AcDbLine
   6
CONTINUOUS
  62
7
  10
 316.33272474221
  20
 219.34024602021
  30
0.0
  11
 318.33272474221
  21
 219.34024602021
  31
0.0
   0
LINE
   5
278
 100
AcDbEntity
   8
LEVEL001
 100
AcDbLine
   6
CONTINUOUS
  62
7
  10
 322.33272474221
  20
 186.94795120850
  30
0.0
  11
 322.33272474221
  21
 204.94795120850
  31
0.0
   0
LINE
   5
279
 100
AcDbEntity
   8
LEVEL001
 100
AcDbLine
   6
CONTINUOUS
  62
7
  10
 322.33272474221
  20
 222.94795120850
  30
0.0
  11
 322.33272474221
  21
 204.94795120850
  31
0.0
   0
LINE
   5
27A
 100
AcDbEntity
   8
LEVEL001
 100
AcDbLine
   6
CONTINUOUS
  62
7
  10
 311.33272474221
  20
 219.34024602021
  30
0.0
  11
 313.33272474221
  21
 219.34024602021
  31
0.0
   0
LINE
   5
27B
 100
AcDbEntity
   8
LEVEL001
 100
AcDbLine
   6
DOT
  62
2
  10
 322.33272474221
  20
 190.94795120850
  30
0.0
  11
 322.33272474221
  21
 192.04795120850
  31
0.0
   0
LINE
   5
27C
 100
AcDbEntity
   8
LEVEL001
 100
AcDbLine
   6
CONTINUOUS
  62
7
  10
 324.33272474207
  20
 192.54795120850
  30
0.0
  11
 324.33272474207
  21
 204.94795120860
  31
0.0
   0
LINE
   5
27D
 100
AcDbEntity
   8
LEVEL001
 100
AcDbLine
   6
DOT
  62
2
  10
 322.33272474221
  20
 217.84795120850
  30
0.0
  11
 322.33272474221
  21
 218.94795120850
  31
0.0
   0
LINE
   5
27E
 100
AcDbEntity
   8
LEVEL001
 100
AcDbLine
   6
CONTINUOUS
  62
7
  10
 324.33272474207
  20
 217.34795120850
  30
0.0
  11
 324.33272474207
  21
 204.94795120860
  31
0.0
   0
POINT
   5
27F
 100
AcDbEntity
   8
LEVEL001
 100
AcDbPoint
  62
7
  10
 324.33272474207
  20
 223.94795120864
  30
0.0
   0
LINE
   5
280
 100
AcDbEntity
   8
LEVEL001
 100
AcDbLine
   6
CONTINUOUS
  62
7
  10
 322.33272474207
  20
 185.94795120864
  30
0.0
  11
 322.33272474207
  21
 204.94795120864
  31
0.0
   0
LINE
   5
281
 100
AcDbEntity
   8
LEVEL001
 100
AcDbLine
   6
CONTINUOUS
  62
7
  10
 322.33272474207
  20
 204.94795120864
  30
0.0
  11
 322.33272474207
  21
 223.94795120864
  31
0.0
   0
LINE
   5
282
 100
AcDbEntity
   8
LEVEL001
 100
AcDbLine
   6
CONTINUOUS
  62
7
  10
 323.83272474207
  20
 185.94795120860
  30
0.0
  11
 322.33272474207
  21
 185.94795120860
  31
0.0
   0
ARC
   5
283
 100
AcDbEntity
   8
LEVEL001
   6
CONTINUOUS
  62
7
 100
AcDbCircle
  10
 323.83272474207
  20
 186.44795120859
  30
0.0
  40
 0.50000000000000
 100
AcDbArc
  50
 270.00000000000
  51
 0.52761585499862E-9
   0
POINT
   5
284
 100
AcDbEntity
   8
LEVEL001
 100
AcDbPoint
  62
7
  10
 324.33272474207
  20
 185.94795120860
  30
0.0
   0
LINE
   5
285
 100
AcDbEntity
   8
LEVEL001
 100
AcDbLine
   6
CONTINUOUS
  62
7
  10
 324.33272474207
  20
 204.94795120860
  30
0.0
  11
 324.33272474207
  21
 186.44795120860
  31
0.0
   0
LINE
   5
286
 100
AcDbEntity
   8
LEVEL001
 100
AcDbLine
   6
CONTINUOUS
  62
7
  10
 324.33272474207
  20
 204.94795120860
  30
0.0
  11
 324.33272474207
  21
 223.44795120860
  31
0.0
   0
ARC
   5
287
 100
AcDbEntity
   8
LEVEL001
   6
CONTINUOUS
  62
7
 100
AcDbCircle
  10
 323.83272474207
  20
 223.44795120860
  30
0.0
  40
 0.50000000000000
 100
AcDbArc
  50
0.0
  51
 89.999999999713
   0
POINT
   5
288
 100
AcDbEntity
   8
LEVEL001
 100
AcDbPoint
  62
7
  10
 324.33272474207
  20
 223.94795120860
  30
0.0
   0
LINE
   5
289
 100
AcDbEntity
   8
LEVEL001
 100
AcDbLine
   6
CONTINUOUS
  62
7
  10
 323.83272474207
  20
 223.94795120860
  30
0.0
  11
 322.33272474207
  21
 223.94795120860
  31
0.0
   0
LINE
   5
28A
 100
AcDbEntity
   8
LEVEL001
 100
AcDbLine
   6
CONTINUOUS
  62
2
  10
 299.33272474221
  20
 206.94795120850
  30
0.0
  11
 302.33272474221
  21
 206.94795120850
  31
0.0
   0
LINE
   5
28B
 100
AcDbEntity
   8
LEVEL001
 100
AcDbLine
   6
CONTINUOUS
  62
2
  10
 299.33272474221
  20
 206.94795120850
  30
0.0
  11
 299.33272474221
  21
 207.83470255444
  31
0.0
   0
LINE
   5
28C
 100
AcDbEntity
   8
LEVEL001
 100
AcDbLine
   6
CONTINUOUS
  62
2
  10
 299.33272474221
  20
 207.83470255444
  30
0.0
  11
 294.33272474227
  21
 204.94795120853
  31
0.0
   0
LINE
   5
28D
 100
AcDbEntity
   8
LEVEL001
 100
AcDbLine
   6
CONTINUOUS
  62
2
  10
 294.33272474227
  20
 204.94795120853
  30
0.0
  11
 299.33272474221
  21
 202.06119986263
  31
0.0
   0
LINE
   5
28E
 100
AcDbEntity
   8
LEVEL001
 100
AcDbLine
   6
CONTINUOUS
  62
2
  10
 299.33272474221
  20
 202.06119986263
  30
0.0
  11
 299.33272474221
  21
 202.94795120850
  31
0.0
   0
LINE
   5
28F
 100
AcDbEntity
   8
LEVEL001
 100
AcDbLine
   6
CONTINUOUS
  62
2
  10
 299.33272474221
  20
 202.94795120850
  30
0.0
  11
 302.33272474221
  21
 202.94795120850
  31
0.0
   0
LINE
   5
290
 100
AcDbEntity
   8
LEVEL001
 100
AcDbLine
   6
CONTINUOUS
  62
2
  10
 286.93272474167
  20
 206.94795120850
  30
0.0
  11
 283.93272474167
  21
 206.94795120850
  31
0.0
   0
LINE
   5
291
 100
AcDbEntity
   8
LEVEL001
 100
AcDbLine
   6
CONTINUOUS
  62
2
  10
 286.93272474167
  20
 206.94795120850
  30
0.0
  11
 286.93272474167
  21
 207.83470255444
  31
0.0
   0
LINE
   5
292
 100
AcDbEntity
   8
LEVEL001
 100
AcDbLine
   6
CONTINUOUS
  62
2
  10
 286.93272474167
  20
 207.83470255444
  30
0.0
  11
 291.93272474160
  21
 204.94795120853
  31
0.0
   0
LINE
   5
293
 100
AcDbEntity
   8
LEVEL001
 100
AcDbLine
   6
CONTINUOUS
  62
2
  10
 291.93272474160
  20
 204.94795120853
  30
0.0
  11
 286.93272474167
  21
 202.06119986263
  31
0.0
   0
LINE
   5
294
 100
AcDbEntity
   8
LEVEL001
 100
AcDbLine
   6
CONTINUOUS
  62
2
  10
 286.93272474167
  20
 202.06119986263
  30
0.0
  11
 286.93272474167
  21
 202.94795120850
  31
0.0
   0
LINE
   5
295
 100
AcDbEntity
   8
LEVEL001
 100
AcDbLine
   6
CONTINUOUS
  62
2
  10
 286.93272474167
  20
 202.94795120850
  30
0.0
  11
 283.93272474167
  21
 202.94795120850
  31
0.0
   0
TEXT
   5
296
 100
AcDbEntity
   8
LEVEL001
  62
7
 100
AcDbText
  10
 285.04138711055
  20
 211.20950670416
  30
0.0
  40
 4.0000000000000
   1
はめ込み
   7
STANDARD
 100
AcDbText
   0
LINE
   5
297
 100
AcDbEntity
   8
LEVEL001
 100
AcDbLine
   6
CONTINUOUS
  62
7
  10
 185.19931492560
  20
 157.43891609995
  30
0.0
  11
 197.59931492570
  21
 157.43891609995
  31
0.0
   0
LINE
   5
298
 100
AcDbEntity
   8
LEVEL001
 100
AcDbLine
   6
CONTINUOUS
  62
7
  10
 209.99931492560
  20
 157.43891609995
  30
0.0
  11
 197.59931492570
  21
 157.43891609995
  31
0.0
   0
POINT
   5
299
 100
AcDbEntity
   8
LEVEL001
 100
AcDbPoint
  62
7
  10
 216.59931492575
  20
 157.43891609995
  30
0.0
   0
LINE
   5
29A
 100
AcDbEntity
   8
LEVEL001
 100
AcDbLine
   6
CONTINUOUS
  62
7
  10
 178.59931492570
  20
 156.93891609995
  30
0.0
  11
 178.59931492570
  21
 155.43891609995
  31
0.0
   0
ARC
   5
29B
 100
AcDbEntity
   8
LEVEL001
   6
CONTINUOUS
  62
7
 100
AcDbCircle
  10
 179.09931492570
  20
 156.93891609995
  30
0.0
  40
 0.50000000000000
 100
AcDbArc
  50
 90.000000000052
  51
 180.00000000000
   0
POINT
   5
29C
 100
AcDbEntity
   8
LEVEL001
 100
AcDbPoint
  62
7
  10
 178.59931492570
  20
 157.43891609995
  30
0.0
   0
LINE
   5
29D
 100
AcDbEntity
   8
LEVEL001
 100
AcDbLine
   6
CONTINUOUS
  62
7
  10
 197.59931492570
  20
 157.43891609995
  30
0.0
  11
 179.09931492570
  21
 157.43891609995
  31
0.0
   0
LINE
   5
29E
 100
AcDbEntity
   8
LEVEL001
 100
AcDbLine
   6
CONTINUOUS
  62
7
  10
 197.59931492570
  20
 157.43891609995
  30
0.0
  11
 216.09931492570
  21
 157.43891609995
  31
0.0
   0
ARC
   5
29F
 100
AcDbEntity
   8
LEVEL001
   6
CONTINUOUS
  62
7
 100
AcDbCircle
  10
 216.09931492570
  20
 156.93891609995
  30
0.0
  40
 0.50000000000000
 100
AcDbArc
  50
0.0
  51
 90.000000000000
   0
POINT
   5
2A0
 100
AcDbEntity
   8
LEVEL001
 100
AcDbPoint
  62
7
  10
 216.59931492570
  20
 157.43891609995
  30
0.0
   0
LINE
   5
2A1
 100
AcDbEntity
   8
LEVEL001
 100
AcDbLine
   6
CONTINUOUS
  62
7
  10
 216.59931492570
  20
 156.93891609995
  30
0.0
  11
 216.59931492570
  21
 155.43891609995
  31
0.0
   0
LINE
   5
2A2
 100
AcDbEntity
   8
LEVEL001
 100
AcDbLine
   6
DASHDOT
  62
2
  10
 197.59931492560
  20
 163.50764030884
  30
0.0
  11
 197.59931492560
  21
 124.53920724158
  31
0.0
   0
TEXT
   5
2A3
 100
AcDbEntity
   8
LEVEL001
  62
7
 100
AcDbText
  10
 25.925514279730
  20
 265.09680192248
  30
0.0
  40
 4.0000000000000
   1
ドア対応寸法：２８～３６ｍｍ
   7
STANDARD
 100
AcDbText
   0
LINE
   5
2A4
 100
AcDbEntity
   8
LEVEL001
 100
AcDbLine
   6
CONTINUOUS
  62
7
  10
 306.33272474207
  20
 193.64795120870
  30
0.0
  11
 306.33272474207
  21
 216.24795120870
  31
0.0
   0
INSERT
   5
2A5
 100
AcDbEntity
   8
LEVEL001
 100
AcDbBlockReference
   2
BLOCK004
  10
0.0
  20
0.0
  30
0.0
   0
LINE
   5
2A6
 100
AcDbEntity
   8
LEVEL001
 100
AcDbLine
   6
CONTINUOUS
  62
2
  10
 369.44834548224
  20
 179.38621785897
  30
0.0
  11
 369.44834548224
  21
 176.64556652881
  31
0.0
   0
LINE
   5
2A7
 100
AcDbEntity
   8
LEVEL001
 100
AcDbLine
   6
CONTINUOUS
  62
7
  10
 40.094114609531
  20
 143.85706785708
  30
0.0
  11
 40.094114609531
  21
 139.75706785708
  31
0.0
   0
LINE
   5
2A8
 100
AcDbEntity
   8
LEVEL001
 100
AcDbLine
   6
CONTINUOUS
  62
7
  10
 40.094114609531
  20
 143.30706785708
  30
0.0
  11
 40.094114609531
  21
 142.39988818004
  31
0.0
   0
LINE
   5
2A9
 100
AcDbEntity
   8
LEVEL001
 100
AcDbLine
   6
CONTINUOUS
  62
7
  10
 40.094114609531
  20
 143.30706785708
  30
0.0
  11
 40.094114609531
  21
 142.30706785708
  31
0.0
   0
LINE
   5
2AA
 100
AcDbEntity
   8
LEVEL001
 100
AcDbLine
   6
CONTINUOUS
  62
7
  10
 40.094114609531
  20
 139.75706785708
  30
0.0
  11
 40.094114609531
  21
 143.30706785708
  31
0.0
   0
LINE
   5
2AB
 100
AcDbEntity
   8
LEVEL001
 100
AcDbLine
   6
CONTINUOUS
  62
7
  10
 40.094114609531
  20
 106.40706785708
  30
0.0
  11
 40.094114609531
  21
 107.31424753411
  31
0.0
   0
LINE
   5
2AC
 100
AcDbEntity
   8
LEVEL001
 100
AcDbLine
   6
CONTINUOUS
  62
7
  10
 40.094114609531
  20
 106.40706785708
  30
0.0
  11
 40.094114609531
  21
 107.40706785708
  31
0.0
   0
LINE
   5
2AD
 100
AcDbEntity
   8
LEVEL001
 100
AcDbLine
   6
CONTINUOUS
  62
7
  10
 40.094114609531
  20
 235.76659555168
  30
0.0
  11
 40.094114609531
  21
 234.85941587465
  31
0.0
   0
LINE
   5
2AE
 100
AcDbEntity
   8
LEVEL001
 100
AcDbLine
   6
CONTINUOUS
  62
7
  10
 40.094114609531
  20
 235.76659555168
  30
0.0
  11
 40.094114609531
  21
 234.76659555168
  31
0.0
   0
LINE
   5
2AF
 100
AcDbEntity
   8
LEVEL001
 100
AcDbLine
   6
CONTINUOUS
  62
7
  10
 68.094114609531
  20
 143.85706785708
  30
0.0
  11
 68.094114609531
  21
 139.75706785708
  31
0.0
   0
LINE
   5
2B0
 100
AcDbEntity
   8
LEVEL001
 100
AcDbLine
   6
CONTINUOUS
  62
7
  10
 68.094114609531
  20
 143.30706785708
  30
0.0
  11
 68.094114609531
  21
 142.39988818004
  31
0.0
   0
LINE
   5
2B1
 100
AcDbEntity
   8
LEVEL001
 100
AcDbLine
   6
CONTINUOUS
  62
7
  10
 68.094114609531
  20
 143.30706785708
  30
0.0
  11
 68.094114609531
  21
 142.30706785708
  31
0.0
   0
LINE
   5
2B2
 100
AcDbEntity
   8
LEVEL001
 100
AcDbLine
   6
CONTINUOUS
  62
7
  10
 68.094114609531
  20
 139.75706785708
  30
0.0
  11
 68.094114609531
  21
 143.30706785708
  31
0.0
   0
LINE
   5
2B3
 100
AcDbEntity
   8
LEVEL001
 100
AcDbLine
   6
CONTINUOUS
  62
7
  10
 68.094114609531
  20
 106.40706785708
  30
0.0
  11
 68.094114609531
  21
 107.31424753411
  31
0.0
   0
LINE
   5
2B4
 100
AcDbEntity
   8
LEVEL001
 100
AcDbLine
   6
CONTINUOUS
  62
7
  10
 68.094114609531
  20
 106.40706785708
  30
0.0
  11
 68.094114609531
  21
 107.40706785708
  31
0.0
   0
LINE
   5
2B5
 100
AcDbEntity
   8
LEVEL001
 100
AcDbLine
   6
CONTINUOUS
  62
7
  10
 76.094114609531
  20
 236.31659555168
  30
0.0
  11
 76.094114609531
  21
 232.21659555168
  31
0.0
   0
LINE
   5
2B6
 100
AcDbEntity
   8
LEVEL001
 100
AcDbLine
   6
CONTINUOUS
  62
7
  10
 76.094114609531
  20
 235.76659555168
  30
0.0
  11
 76.094114609531
  21
 234.85941587465
  31
0.0
   0
LINE
   5
2B7
 100
AcDbEntity
   8
LEVEL001
 100
AcDbLine
   6
CONTINUOUS
  62
7
  10
 76.094114609531
  20
 235.76659555168
  30
0.0
  11
 76.094114609531
  21
 234.76659555168
  31
0.0
   0
LINE
   5
2B8
 100
AcDbEntity
   8
LEVEL001
 100
AcDbLine
   6
CONTINUOUS
  62
7
  10
 76.094114609531
  20
 232.21659555168
  30
0.0
  11
 76.094114609531
  21
 235.76659555168
  31
0.0
   0
LINE
   5
2B9
 100
AcDbEntity
   8
LEVEL001
 100
AcDbLine
   6
CONTINUOUS
  62
7
  10
 76.094114609531
  20
 198.86659555168
  30
0.0
  11
 76.094114609531
  21
 199.77377522871
  31
0.0
   0
LINE
   5
2BA
 100
AcDbEntity
   8
LEVEL001
 100
AcDbLine
   6
CONTINUOUS
  62
7
  10
 76.094114609531
  20
 198.86659555168
  30
0.0
  11
 76.094114609531
  21
 199.86659555168
  31
0.0
   0
CIRCLE
   5
2BB
 100
AcDbEntity
   8
LEVEL001
 100
AcDbCircle
   6
DOT
  62
2
  10
 197.59931492565
  20
 204.94795120854
  30
0.0
  40
 8.3000000000987
   0
CIRCLE
   5
2BC
 100
AcDbEntity
   8
LEVEL001
 100
AcDbCircle
   6
DOT
  62
2
  10
 369.44834548212
  20
 204.94795120852
  30
0.0
  40
 11.500000000000
   0
LINE
   5
2BD
 100
AcDbEntity
   8
LEVEL001
 100
AcDbLine
   6
DASHDOT
  62
2
  10
 299.33272474221
  20
 204.94795120850
  30
0.0
  11
 334.12654006572
  21
 204.94795120850
  31
0.0
   0
LINE
   5
2BE
 100
AcDbEntity
   8
LEVEL001
 100
AcDbLine
   6
DASHDOT
  62
2
  10
 244.26400053318
  20
 204.94795120850
  30
0.0
  11
 286.93272474167
  21
 204.94795120850
  31
0.0
   0
LINE
   5
2BF
 100
AcDbEntity
   8
LEVEL001
 100
AcDbLine
   6
CONTINUOUS
  62
7
  10
 306.33272474207
  20
 218.84795120850
  30
0.0
  11
 306.33272474207
  21
 216.24795120870
  31
0.0
   0
ARC
   5
2C0
 100
AcDbEntity
   8
LEVEL001
   6
CONTINUOUS
  62
7
 100
AcDbCircle
  10
 307.33272474207
  20
 218.84795120850
  30
0.0
  40
 1.0000000000000
 100
AcDbArc
  50
 90.000000000052
  51
 180.00000000000
   0
POINT
   5
2C1
 100
AcDbEntity
   8
LEVEL001
 100
AcDbPoint
  62
7
  10
 306.33272474207
  20
 219.84795120850
  30
0.0
   0
LINE
   5
2C2
 100
AcDbEntity
   8
LEVEL001
 100
AcDbLine
   6
CONTINUOUS
  62
7
  10
 322.33272474221
  20
 219.84795120850
  30
0.0
  11
 307.33272474207
  21
 219.84795120850
  31
0.0
   0
LINE
   5
2C3
 100
AcDbEntity
   8
LEVEL001
 100
AcDbLine
   6
CONTINUOUS
  62
7
  10
 322.33272474221
  20
 190.04795120850
  30
0.0
  11
 307.33272474207
  21
 190.04795120850
  31
0.0
   0
ARC
   5
2C4
 100
AcDbEntity
   8
LEVEL001
   6
CONTINUOUS
  62
7
 100
AcDbCircle
  10
 307.33272474207
  20
 191.04795120850
  30
0.0
  40
 1.0000000000000
 100
AcDbArc
  50
 179.99999999989
  51
 270.00000000000
   0
POINT
   5
2C5
 100
AcDbEntity
   8
LEVEL001
 100
AcDbPoint
  62
7
  10
 306.33272474207
  20
 190.04795120850
  30
0.0
   0
LINE
   5
2C6
 100
AcDbEntity
   8
LEVEL001
 100
AcDbLine
   6
CONTINUOUS
  62
7
  10
 306.33272474207
  20
 191.04795120850
  30
0.0
  11
 306.33272474207
  21
 193.64795120870
  31
0.0
   0
LINE
   5
2C7
 100
AcDbEntity
   8
LEVEL001
 100
AcDbLine
   6
DOT
  62
2
  10
 261.33272474207
  20
 217.84795120864
  30
0.0
  11
 261.33272474207
  21
 219.84795120864
  31
0.0
   0
LINE
   5
2C8
 100
AcDbEntity
   8
LEVEL001
 100
AcDbLine
   6
DOT
  62
2
  10
 252.33272474207
  20
 192.04795120854
  30
0.0
  11
 252.33272474207
  21
 191.34795120864
  31
0.0
   0
ARC
   5
2C9
 100
AcDbEntity
   8
LEVEL001
   6
CONTINUOUS
  62
7
 100
AcDbCircle
  10
 262.33272474194
  20
 191.04795120864
  30
0.0
  40
 1.0000000000000
 100
AcDbArc
  50
 270.00000000000
  51
0.0
   0
POINT
   5
2CA
 100
AcDbEntity
   8
LEVEL001
 100
AcDbPoint
  62
7
  10
 263.33272474194
  20
 190.04795120864
  30
0.0
   0
ARC
   5
2CB
 100
AcDbEntity
   8
LEVEL001
   6
CONTINUOUS
  62
7
 100
AcDbCircle
  10
 264.33272474194
  20
 217.24795120864
  30
0.0
  40
 1.0000000000000
 100
AcDbArc
  50
 179.99999999985
  51
 270.00000000000
   0
POINT
   5
2CC
 100
AcDbEntity
   8
LEVEL001
 100
AcDbPoint
  62
7
  10
 263.33272474194
  20
 216.24795120864
  30
0.0
   0
ARC
   5
2CD
 100
AcDbEntity
   8
LEVEL001
   6
CONTINUOUS
  62
7
 100
AcDbCircle
  10
 264.33272474194
  20
 192.64795120864
  30
0.0
  40
 1.0000000000000
 100
AcDbArc
  50
 89.999999999941
  51
 180.00000000000
   0
POINT
   5
2CE
 100
AcDbEntity
   8
LEVEL001
 100
AcDbPoint
  62
7
  10
 263.33272474194
  20
 193.64795120864
  30
0.0
   0
ARC
   5
2CF
 100
AcDbEntity
   8
LEVEL001
   6
CONTINUOUS
  62
7
 100
AcDbCircle
  10
 262.33272474194
  20
 218.84795120864
  30
0.0
  40
 1.0000000000000
 100
AcDbArc
  50
0.0
  51
 90.000000000026
   0
POINT
   5
2D0
 100
AcDbEntity
   8
LEVEL001
 100
AcDbPoint
  62
7
  10
 263.33272474194
  20
 219.84795120864
  30
0.0
   0
LINE
   5
2D1
 100
AcDbEntity
   8
LEVEL001
 100
AcDbLine
   6
CONTINUOUS
  62
7
  10
 263.33272474194
  20
 218.84795120864
  30
0.0
  11
 263.33272474194
  21
 204.94795120864
  31
0.0
   0
LINE
   5
2D2
 100
AcDbEntity
   8
LEVEL001
 100
AcDbLine
   6
CONTINUOUS
  62
7
  10
 263.33272474194
  20
 191.04795120864
  30
0.0
  11
 263.33272474194
  21
 204.94795120864
  31
0.0
   0
LINE
   5
2D3
 100
AcDbEntity
   8
LEVEL001
 100
AcDbLine
   6
CONTINUOUS
  62
7
  10
 256.83272474194
  20
 201.09154743658
  30
0.0
  11
 256.83272474194
  21
 190.55565639693
  31
0.0
   0
LINE
   5
2D4
 100
AcDbEntity
   8
LEVEL001
 100
AcDbLine
   6
CONTINUOUS
  62
7
  10
 256.83272474194
  20
 199.46873136882
  30
0.0
  11
 258.83272474194
  21
 201.09154743660
  31
0.0
   0
LINE
   5
2D5
 100
AcDbEntity
   8
LEVEL001
 100
AcDbLine
   6
CONTINUOUS
  62
7
  10
 258.83272474194
  20
 190.55565639693
  30
0.0
  11
 256.83272474194
  21
 190.55565639693
  31
0.0
   0
LINE
   5
2D6
 100
AcDbEntity
   8
LEVEL001
 100
AcDbLine
   6
CONTINUOUS
  62
7
  10
 258.83272474194
  20
 219.34024602036
  30
0.0
  11
 258.83272474194
  21
 208.80435498070
  31
0.0
   0
LINE
   5
2D7
 100
AcDbEntity
   8
LEVEL001
 100
AcDbLine
   6
CONTINUOUS
  62
7
  10
 256.83272474194
  20
 208.80435498070
  30
0.0
  11
 256.83272474194
  21
 219.34024602036
  31
0.0
   0
LINE
   5
2D8
 100
AcDbEntity
   8
LEVEL001
 100
AcDbLine
   6
CONTINUOUS
  62
7
  10
 256.83272474194
  20
 208.80435498068
  30
0.0
  11
 258.83272474194
  21
 208.80435498068
  31
0.0
   0
LINE
   5
2D9
 100
AcDbEntity
   8
LEVEL001
 100
AcDbLine
   6
CONTINUOUS
  62
7
  10
 256.83272474194
  20
 210.42717104847
  30
0.0
  11
 258.83272474194
  21
 208.80435498068
  31
0.0
   0
LINE
   5
2DA
 100
AcDbEntity
   8
LEVEL001
 100
AcDbLine
   6
CONTINUOUS
  62
7
  10
 258.83272474194
  20
 219.34024602036
  30
0.0
  11
 256.83272474194
  21
 219.34024602036
  31
0.0
   0
LINE
   5
2DB
 100
AcDbEntity
   8
LEVEL001
 100
AcDbLine
   6
CONTINUOUS
  62
7
  10
 258.83272474194
  20
 190.55565639693
  30
0.0
  11
 258.83272474194
  21
 201.09154743658
  31
0.0
   0
LINE
   5
2DC
 100
AcDbEntity
   8
LEVEL001
 100
AcDbLine
   6
CONTINUOUS
  62
7
  10
 256.83272474194
  20
 201.09154743660
  30
0.0
  11
 258.83272474194
  21
 201.09154743660
  31
0.0
   0
LINE
   5
2DD
 100
AcDbEntity
   8
LEVEL001
 100
AcDbLine
   6
CONTINUOUS
  62
7
  10
 256.33272474207
  20
 218.98397628700
  30
0.0
  11
 256.33272474207
  21
 218.84795120874
  31
0.0
   0
LINE
   5
2DE
 100
AcDbEntity
   8
LEVEL001
 100
AcDbLine
   6
CONTINUOUS
  62
7
  10
 278.83272474194
  20
 213.24795120864
  30
0.0
  11
 278.83272474194
  21
 196.64795120864
  31
0.0
   0
POINT
   5
2DF
 100
AcDbEntity
   8
LEVEL001
 100
AcDbPoint
  62
7
  10
 278.83272474194
  20
 216.24795120864
  30
0.0
   0
LINE
   5
2E0
 100
AcDbEntity
   8
LEVEL001
 100
AcDbLine
   6
CONTINUOUS
  62
7
  10
 278.83272474194
  20
 194.14795120864
  30
0.0
  11
 278.83272474194
  21
 196.64795120864
  31
0.0
   0
POINT
   5
2E1
 100
AcDbEntity
   8
LEVEL001
 100
AcDbPoint
  62
7
  10
 278.83272474194
  20
 193.64795120864
  30
0.0
   0
POINT
   5
2E2
 100
AcDbEntity
   8
LEVEL001
 100
AcDbPoint
  62
7
  10
 275.13272474194
  20
 195.39795120864
  30
0.0
   0
POINT
   5
2E3
 100
AcDbEntity
   8
LEVEL001
 100
AcDbPoint
  62
7
  10
 277.83272474194
  20
 195.39795120864
  30
0.0
   0
LINE
   5
2E4
 100
AcDbEntity
   8
LEVEL001
 100
AcDbLine
   6
CONTINUOUS
  62
7
  10
 278.83272474194
  20
 215.74795120864
  30
0.0
  11
 278.83272474194
  21
 213.24795120864
  31
0.0
   0
ARC
   5
2E5
 100
AcDbEntity
   8
LEVEL001
   6
CONTINUOUS
  62
7
 100
AcDbCircle
  10
 278.33272474194
  20
 215.74795120864
  30
0.0
  40
 0.50000000000000
 100
AcDbArc
  50
0.0
  51
 89.999999999870
   0
POINT
   5
2E6
 100
AcDbEntity
   8
LEVEL001
 100
AcDbPoint
  62
7
  10
 278.83272474194
  20
 216.24795120864
  30
0.0
   0
ARC
   5
2E7
 100
AcDbEntity
   8
LEVEL001
   6
CONTINUOUS
  62
7
 100
AcDbCircle
  10
 278.33272474194
  20
 215.74795120864
  30
0.0
  40
 0.50000000000000
 100
AcDbArc
  50
 90.000000000000
  51
 180.00000000012
   0
POINT
   5
2E8
 100
AcDbEntity
   8
LEVEL001
 100
AcDbPoint
  62
7
  10
 277.83272474194
  20
 216.24795120864
  30
0.0
   0
LINE
   5
2E9
 100
AcDbEntity
   8
LEVEL001
 100
AcDbLine
   6
CONTINUOUS
  62
7
  10
 277.83272474194
  20
 215.49795120864
  30
0.0
  11
 277.83272474194
  21
 215.74795120864
  31
0.0
   0
ARC
   5
2EA
 100
AcDbEntity
   8
LEVEL001
   6
CONTINUOUS
  62
7
 100
AcDbCircle
  10
 274.63272474194
  20
 215.74795120864
  30
0.0
  40
 0.50000000000000
 100
AcDbArc
  50
0.0
  51
 90.000000000221
   0
POINT
   5
2EB
 100
AcDbEntity
   8
LEVEL001
 100
AcDbPoint
  62
7
  10
 275.13272474194
  20
 216.24795120864
  30
0.0
   0
ARC
   5
2EC
 100
AcDbEntity
   8
LEVEL001
   6
CONTINUOUS
  62
7
 100
AcDbCircle
  10
 274.63272474194
  20
 194.14795120865
  30
0.0
  40
 0.50000000000000
 100
AcDbArc
  50
 270.00000000000
  51
0.0
   0
POINT
   5
2ED
 100
AcDbEntity
   8
LEVEL001
 100
AcDbPoint
  62
7
  10
 275.13272474194
  20
 193.64795120864
  30
0.0
   0
POINT
   5
2EE
 100
AcDbEntity
   8
LEVEL001
 100
AcDbPoint
  62
7
  10
 277.83272474194
  20
 193.64795120864
  30
0.0
   0
LINE
   5
2EF
 100
AcDbEntity
   8
LEVEL001
 100
AcDbLine
   6
CONTINUOUS
  62
7
  10
 277.83272474194
  20
 194.39795120864
  30
0.0
  11
 277.83272474194
  21
 194.14795120864
  31
0.0
   0
ARC
   5
2F0
 100
AcDbEntity
   8
LEVEL001
   6
CONTINUOUS
  62
7
 100
AcDbCircle
  10
 278.33272474194
  20
 194.14795120864
  30
0.0
  40
 0.50000000000000
 100
AcDbArc
  50
 180.00000000000
  51
0.0
   0
LINE
   5
2F1
 100
AcDbEntity
   8
LEVEL001
 100
AcDbLine
   6
CONTINUOUS
  62
7
  10
 277.83272474194
  20
 194.14795120864
  30
0.0
  11
 277.83272474194
  21
 204.94795120864
  31
0.0
   0
LINE
   5
2F2
 100
AcDbEntity
   8
LEVEL001
 100
AcDbLine
   6
CONTINUOUS
  62
7
  10
 277.83272474194
  20
 204.94795120864
  30
0.0
  11
 277.83272474194
  21
 215.49795120864
  31
0.0
   0
LINE
   5
2F3
 100
AcDbEntity
   8
LEVEL001
 100
AcDbLine
   6
CONTINUOUS
  62
7
  10
 275.13272474194
  20
 194.14795120864
  30
0.0
  11
 275.13272474194
  21
 204.94795120864
  31
0.0
   0
LINE
   5
2F4
 100
AcDbEntity
   8
LEVEL001
 100
AcDbLine
   6
CONTINUOUS
  62
7
  10
 275.13272474194
  20
 215.74795120864
  30
0.0
  11
 275.13272474194
  21
 204.94795120864
  31
0.0
   0
LINE
   5
2F5
 100
AcDbEntity
   8
LEVEL001
 100
AcDbLine
   6
CONTINUOUS
  62
7
  10
 264.33272474194
  20
 216.24795120864
  30
0.0
  11
 274.63272474194
  21
 216.24795120864
  31
0.0
   0
LINE
   5
2F6
 100
AcDbEntity
   8
LEVEL001
 100
AcDbLine
   6
CONTINUOUS
  62
7
  10
 264.33272474194
  20
 193.64795120864
  30
0.0
  11
 274.63272474194
  21
 193.64795120864
  31
0.0
   0
LINE
   5
2F7
 100
AcDbEntity
   8
LEVEL001
 100
AcDbLine
   6
CONTINUOUS
  62
7
  10
 252.33272474194
  20
 219.84795120864
  30
0.0
  11
 262.33272474194
  21
 219.84795120864
  31
0.0
   0
LINE
   5
2F8
 100
AcDbEntity
   8
LEVEL001
 100
AcDbLine
   6
CONTINUOUS
  62
7
  10
 252.33272474194
  20
 190.04795120864
  30
0.0
  11
 262.33272474194
  21
 190.04795120864
  31
0.0
   0
LINE
   5
2F9
 100
AcDbEntity
   8
LEVEL001
 100
AcDbLine
   6
CONTINUOUS
  62
7
  10
 252.33272474194
  20
 223.94795120860
  30
0.0
  11
 252.33272474194
  21
 204.94795120850
  31
0.0
   0
LINE
   5
2FA
 100
AcDbEntity
   8
LEVEL001
 100
AcDbLine
   6
CONTINUOUS
  62
7
  10
 252.33272474194
  20
 185.94795120860
  30
0.0
  11
 252.33272474194
  21
 204.94795120850
  31
0.0
   0
ARC
   5
2FB
 100
AcDbEntity
   8
LEVEL001
   6
CONTINUOUS
  62
7
 100
AcDbCircle
  10
 276.48272474207
  20
 215.69795120870
  30
0.0
  40
 1.2000000000000
 100
AcDbArc
  50
0.0
  51
 180.00000000000
   0
ARC
   5
2FC
 100
AcDbEntity
   8
LEVEL001
   6
CONTINUOUS
  62
7
 100
AcDbCircle
  10
 276.83272474194
  20
 215.49795120863
  30
0.0
  40
 1.0000000000000
 100
AcDbArc
  50
 328.21166939813
  51
 0.55692784694299E-9
   0
ARC
   5
2FD
 100
AcDbEntity
   8
LEVEL001
   6
CONTINUOUS
  62
7
 100
AcDbCircle
  10
 276.13272474194
  20
 215.49795120864
  30
0.0
  40
 1.0000000000000
 100
AcDbArc
  50
 179.99999999979
  51
 211.78833063154
   0
LINE
   5
2FE
 100
AcDbEntity
   8
LEVEL001
 100
AcDbLine
   6
CONTINUOUS
  62
7
  10
 275.28272474207
  20
 215.69795120870
  30
0.0
  11
 275.28272474207
  21
 204.94795120850
  31
0.0
   0
LINE
   5
2FF
 100
AcDbEntity
   8
LEVEL001
 100
AcDbLine
   6
CONTINUOUS
  62
7
  10
 277.68272474207
  20
 215.69795120870
  30
0.0
  11
 277.68272474207
  21
 204.94795120864
  31
0.0
   0
ARC
   5
300
 100
AcDbEntity
   8
LEVEL001
   6
CONTINUOUS
  62
7
 100
AcDbCircle
  10
 276.48272474207
  20
 194.19795120830
  30
0.0
  40
 1.2000000000000
 100
AcDbArc
  50
 180.00000000000
  51
0.0
   0
LINE
   5
301
 100
AcDbEntity
   8
LEVEL001
 100
AcDbLine
   6
CONTINUOUS
  62
7
  10
 277.68272474207
  20
 194.19795120830
  30
0.0
  11
 277.68272474207
  21
 204.94795120836
  31
0.0
   0
LINE
   5
302
 100
AcDbEntity
   8
LEVEL001
 100
AcDbLine
   6
CONTINUOUS
  62
7
  10
 275.28272474207
  20
 194.19795120830
  30
0.0
  11
 275.28272474207
  21
 204.94795120850
  31
0.0
   0
ARC
   5
303
 100
AcDbEntity
   8
LEVEL001
   6
CONTINUOUS
  62
7
 100
AcDbCircle
  10
 276.13272474194
  20
 194.39795120864
  30
0.0
  40
 1.0000000000000
 100
AcDbArc
  50
 148.21166936816
  51
 180.00000000000
   0
ARC
   5
304
 100
AcDbEntity
   8
LEVEL001
   6
CONTINUOUS
  62
7
 100
AcDbCircle
  10
 276.83272474194
  20
 194.39795120865
  30
0.0
  40
 1.0000000000000
 100
AcDbArc
  50
0.0
  51
 31.788330601978
   0
LINE
   5
305
 100
AcDbEntity
   8
LEVEL001
 100
AcDbLine
   6
CONTINUOUS
  62
7
  10
 194.59931492547
  20
 150.43891610009
  30
0.0
  11
 195.59931492547
  21
 150.43891610009
  31
0.0
   0
LINE
   5
306
 100
AcDbEntity
   8
LEVEL001
 100
AcDbLine
   6
CONTINUOUS
  62
7
  10
 199.59931492547
  20
 150.43891610009
  30
0.0
  11
 200.59931492547
  21
 150.43891610009
  31
0.0
   0
LINE
   5
307
 100
AcDbEntity
   8
LEVEL001
 100
AcDbLine
   6
CONTINUOUS
  62
7
  10
 183.20702011389
  20
 148.93891610009
  30
0.0
  11
 193.74291115355
  21
 148.93891610009
  31
0.0
   0
LINE
   5
308
 100
AcDbEntity
   8
LEVEL001
 100
AcDbLine
   6
CONTINUOUS
  62
7
  10
 183.20702011389
  20
 148.93891610009
  30
0.0
  11
 183.20702011389
  21
 150.93891610009
  31
0.0
   0
LINE
   5
309
 100
AcDbEntity
   8
LEVEL001
 100
AcDbLine
   6
CONTINUOUS
  62
7
  10
 193.74291115355
  20
 150.93891610009
  30
0.0
  11
 183.20702011389
  21
 150.93891610009
  31
0.0
   0
LINE
   5
30A
 100
AcDbEntity
   8
LEVEL001
 100
AcDbLine
   6
CONTINUOUS
  62
7
  10
 192.12009508578
  20
 150.93891610009
  30
0.0
  11
 193.74291115355
  21
 148.93891610009
  31
0.0
   0
LINE
   5
30B
 100
AcDbEntity
   8
LEVEL001
 100
AcDbLine
   6
CONTINUOUS
  62
7
  10
 193.74291115355
  20
 150.93891610009
  30
0.0
  11
 193.74291115355
  21
 148.93891610009
  31
0.0
   0
LINE
   5
30C
 100
AcDbEntity
   8
LEVEL001
 100
AcDbLine
   6
CONTINUOUS
  62
7
  10
 203.07853476543
  20
 150.93891610009
  30
0.0
  11
 201.45571869764
  21
 148.93891610009
  31
0.0
   0
LINE
   5
30D
 100
AcDbEntity
   8
LEVEL001
 100
AcDbLine
   6
CONTINUOUS
  62
7
  10
 211.99160973732
  20
 148.93891610009
  30
0.0
  11
 201.45571869766
  21
 148.93891610009
  31
0.0
   0
LINE
   5
30E
 100
AcDbEntity
   8
LEVEL001
 100
AcDbLine
   6
CONTINUOUS
  62
7
  10
 201.45571869764
  20
 150.93891610009
  30
0.0
  11
 201.45571869764
  21
 148.93891610009
  31
0.0
   0
LINE
   5
30F
 100
AcDbEntity
   8
LEVEL001
 100
AcDbLine
   6
CONTINUOUS
  62
7
  10
 201.45571869766
  20
 150.93891610009
  30
0.0
  11
 211.99160973732
  21
 150.93891610009
  31
0.0
   0
LINE
   5
310
 100
AcDbEntity
   8
LEVEL001
 100
AcDbLine
   6
CONTINUOUS
  62
7
  10
 211.99160973732
  20
 148.93891610009
  30
0.0
  11
 211.99160973732
  21
 150.93891610009
  31
0.0
   0
LINE
   5
311
 100
AcDbEntity
   8
LEVEL001
 100
AcDbLine
   6
CONTINUOUS
  62
7
  10
 195.59931492547
  20
 150.43891610009
  30
0.0
  11
 195.59931492547
  21
 155.43891610009
  31
0.0
   0
LINE
   5
312
 100
AcDbEntity
   8
LEVEL001
 100
AcDbLine
   6
CONTINUOUS
  62
7
  10
 199.59931492547
  20
 155.43891610009
  30
0.0
  11
 199.59931492547
  21
 150.43891610009
  31
0.0
   0
LINE
   5
313
 100
AcDbEntity
   8
LEVEL001
 100
AcDbLine
   6
CONTINUOUS
  62
7
  10
 195.59931492547
  20
 155.43891610009
  30
0.0
  11
 194.64078339324
  21
 155.43891610009
  31
0.0
   0
LINE
   5
314
 100
AcDbEntity
   8
LEVEL001
 100
AcDbLine
   6
CONTINUOUS
  62
7
  10
 199.59931492547
  20
 155.43891610009
  30
0.0
  11
 200.59931492547
  21
 155.43891610009
  31
0.0
   0
ARC
   5
315
 100
AcDbEntity
   8
LEVEL001
   6
CONTINUOUS
  62
7
 100
AcDbCircle
  10
 185.29931492580
  20
 143.43891610022
  30
0.0
  40
 1.0000000000000
 100
AcDbArc
  50
 0.20518394361057E-9
  51
 90.000000000000
   0
POINT
   5
316
 100
AcDbEntity
   8
LEVEL001
 100
AcDbPoint
  62
7
  10
 186.29931492580
  20
 144.43891610022
  30
0.0
   0
ARC
   5
317
 100
AcDbEntity
   8
LEVEL001
   6
CONTINUOUS
  62
7
 100
AcDbCircle
  10
 209.89931492580
  20
 143.43891610022
  30
0.0
  40
 1.0000000000000
 100
AcDbArc
  50
 89.999999999967
  51
 180.00000000000
   0
POINT
   5
318
 100
AcDbEntity
   8
LEVEL001
 100
AcDbPoint
  62
7
  10
 208.89931492580
  20
 144.43891610022
  30
0.0
   0
ARC
   5
319
 100
AcDbEntity
   8
LEVEL001
   6
CONTINUOUS
  62
7
 100
AcDbCircle
  10
 183.69931492560
  20
 145.43891610022
  30
0.0
  40
 1.0000000000000
 100
AcDbArc
  50
 179.99999999997
  51
 270.00000000000
   0
POINT
   5
31A
 100
AcDbEntity
   8
LEVEL001
 100
AcDbPoint
  62
7
  10
 182.69931492560
  20
 144.43891610022
  30
0.0
   0
ARC
   5
31B
 100
AcDbEntity
   8
LEVEL001
   6
CONTINUOUS
  62
7
 100
AcDbCircle
  10
 211.49931492560
  20
 145.43891610022
  30
0.0
  40
 1.0000000000000
 100
AcDbArc
  50
 270.00000000000
  51
0.0
   0
POINT
   5
31C
 100
AcDbEntity
   8
LEVEL001
 100
AcDbPoint
  62
7
  10
 212.49931492560
  20
 144.43891610022
  30
0.0
   0
LINE
   5
31D
 100
AcDbEntity
   8
LEVEL001
 100
AcDbLine
   6
CONTINUOUS
  62
7
  10
 183.69931492560
  20
 144.43891610022
  30
0.0
  11
 197.59931492560
  21
 144.43891610022
  31
0.0
   0
LINE
   5
31E
 100
AcDbEntity
   8
LEVEL001
 100
AcDbLine
   6
CONTINUOUS
  62
7
  10
 211.49931492560
  20
 144.43891610022
  30
0.0
  11
 197.59931492560
  21
 144.43891610022
  31
0.0
   0
LINE
   5
31F
 100
AcDbEntity
   8
LEVEL001
 100
AcDbLine
   6
CONTINUOUS
  62
7
  10
 205.89931492580
  20
 128.93891610022
  30
0.0
  11
 189.29931492580
  21
 128.93891610022
  31
0.0
   0
POINT
   5
320
 100
AcDbEntity
   8
LEVEL001
 100
AcDbPoint
  62
7
  10
 186.29931492580
  20
 128.93891610022
  30
0.0
   0
POINT
   5
321
 100
AcDbEntity
   8
LEVEL001
 100
AcDbPoint
  62
7
  10
 208.89931492580
  20
 128.93891610022
  30
0.0
   0
ARC
   5
322
 100
AcDbEntity
   8
LEVEL001
   6
CONTINUOUS
  62
7
 100
AcDbCircle
  10
 186.79931492580
  20
 133.13891610022
  30
0.0
  40
 0.50000000000000
 100
AcDbArc
  50
 180.00000000009
  51
 270.00000000000
   0
POINT
   5
323
 100
AcDbEntity
   8
LEVEL001
 100
AcDbPoint
  62
7
  10
 186.29931492580
  20
 132.63891610022
  30
0.0
   0
ARC
   5
324
 100
AcDbEntity
   8
LEVEL001
   6
CONTINUOUS
  62
7
 100
AcDbCircle
  10
 208.39931492580
  20
 133.13891610023
  30
0.0
  40
 0.50000000000000
 100
AcDbArc
  50
 270.00000000000
  51
0.0
   0
POINT
   5
325
 100
AcDbEntity
   8
LEVEL001
 100
AcDbPoint
  62
7
  10
 208.89931492580
  20
 132.63891610022
  30
0.0
   0
LINE
   5
326
 100
AcDbEntity
   8
LEVEL001
 100
AcDbLine
   6
CONTINUOUS
  62
7
  10
 186.29931492580
  20
 143.43891610022
  30
0.0
  11
 186.29931492580
  21
 133.13891610022
  31
0.0
   0
LINE
   5
327
 100
AcDbEntity
   8
LEVEL001
 100
AcDbLine
   6
CONTINUOUS
  62
7
  10
 208.89931492580
  20
 143.43891610022
  30
0.0
  11
 208.89931492580
  21
 133.13891610022
  31
0.0
   0
LINE
   5
328
 100
AcDbEntity
   8
LEVEL001
 100
AcDbLine
   6
CONTINUOUS
  62
7
  10
 186.79931492580
  20
 132.63891610022
  30
0.0
  11
 197.59931492560
  21
 132.63891610022
  31
0.0
   0
LINE
   5
329
 100
AcDbEntity
   8
LEVEL001
 100
AcDbLine
   6
CONTINUOUS
  62
7
  10
 208.39931492580
  20
 132.63891610022
  30
0.0
  11
 197.59931492560
  21
 132.63891610022
  31
0.0
   0
ARC
   5
32A
 100
AcDbEntity
   8
LEVEL001
   6
CONTINUOUS
  62
7
 100
AcDbCircle
  10
 186.79931492580
  20
 129.43891610022
  30
0.0
  40
 0.50000000000000
 100
AcDbArc
  50
 90.000000000098
  51
 180.00000000000
   0
POINT
   5
32B
 100
AcDbEntity
   8
LEVEL001
 100
AcDbPoint
  62
7
  10
 186.29931492580
  20
 129.93891610022
  30
0.0
   0
LINE
   5
32C
 100
AcDbEntity
   8
LEVEL001
 100
AcDbLine
   6
CONTINUOUS
  62
7
  10
 197.59931492560
  20
 129.93891610022
  30
0.0
  11
 186.79931492580
  21
 129.93891610022
  31
0.0
   0
LINE
   5
32D
 100
AcDbEntity
   8
LEVEL001
 100
AcDbLine
   6
CONTINUOUS
  62
7
  10
 208.39931492580
  20
 128.93891610022
  30
0.0
  11
 205.89931492580
  21
 128.93891610022
  31
0.0
   0
ARC
   5
32E
 100
AcDbEntity
   8
LEVEL001
   6
CONTINUOUS
  62
7
 100
AcDbCircle
  10
 208.39931492580
  20
 129.43891610023
  30
0.0
  40
 0.50000000000000
 100
AcDbArc
  50
 270.00000000000
  51
0.0
   0
POINT
   5
32F
 100
AcDbEntity
   8
LEVEL001
 100
AcDbPoint
  62
7
  10
 208.89931492580
  20
 128.93891610022
  30
0.0
   0
LINE
   5
330
 100
AcDbEntity
   8
LEVEL001
 100
AcDbLine
   6
CONTINUOUS
  62
7
  10
 197.59931492560
  20
 129.93891610022
  30
0.0
  11
 208.39931492580
  21
 129.93891610022
  31
0.0
   0
ARC
   5
331
 100
AcDbEntity
   8
LEVEL001
   6
CONTINUOUS
  62
7
 100
AcDbCircle
  10
 208.39931492580
  20
 129.43891610022
  30
0.0
  40
 0.50000000000000
 100
AcDbArc
  50
 0.24752348753022E-9
  51
 90.000000000000
   0
POINT
   5
332
 100
AcDbEntity
   8
LEVEL001
 100
AcDbPoint
  62
7
  10
 208.89931492580
  20
 129.93891610022
  30
0.0
   0
LINE
   5
333
 100
AcDbEntity
   8
LEVEL001
 100
AcDbLine
   6
CONTINUOUS
  62
7
  10
 186.79931492580
  20
 128.93891610022
  30
0.0
  11
 189.29931492580
  21
 128.93891610022
  31
0.0
   0
ARC
   5
334
 100
AcDbEntity
   8
LEVEL001
   6
CONTINUOUS
  62
7
 100
AcDbCircle
  10
 186.79931492580
  20
 129.43891610022
  30
0.0
  40
 0.50000000000000
 100
AcDbArc
  50
 180.00000000001
  51
 270.00000000000
   0
POINT
   5
335
 100
AcDbEntity
   8
LEVEL001
 100
AcDbPoint
  62
7
  10
 186.29931492580
  20
 128.93891610022
  30
0.0
   0
LINE
   5
336
 100
AcDbEntity
   8
LEVEL001
 100
AcDbLine
   6
CONTINUOUS
  62
7
  10
 194.59931492547
  20
 144.43891610022
  30
0.0
  11
 194.59931492547
  21
 155.43891610009
  31
0.0
   0
LINE
   5
337
 100
AcDbEntity
   8
LEVEL001
 100
AcDbLine
   6
CONTINUOUS
  62
7
  10
 200.59931492547
  20
 155.43891610009
  30
0.0
  11
 200.59931492547
  21
 144.43891610022
  31
0.0
   0
LINE
   5
338
 100
AcDbEntity
   8
LEVEL001
 100
AcDbLine
   6
CONTINUOUS
  62
7
  10
 212.49931492560
  20
 155.43891610009
  30
0.0
  11
 212.49931492560
  21
 145.43891610022
  31
0.0
   0
LINE
   5
339
 100
AcDbEntity
   8
LEVEL001
 100
AcDbLine
   6
CONTINUOUS
  62
7
  10
 182.69931492560
  20
 155.43891610009
  30
0.0
  11
 182.69931492560
  21
 145.43891610022
  31
0.0
   0
LINE
   5
33A
 100
AcDbEntity
   8
LEVEL001
 100
AcDbLine
   6
CONTINUOUS
  62
7
  10
 178.59931492570
  20
 155.43891610009
  30
0.0
  11
 197.59931492560
  21
 155.43891610009
  31
0.0
   0
LINE
   5
33B
 100
AcDbEntity
   8
LEVEL001
 100
AcDbLine
   6
CONTINUOUS
  62
7
  10
 216.59931492570
  20
 155.43891610009
  30
0.0
  11
 197.59931492560
  21
 155.43891610009
  31
0.0
   0
LINE
   5
33C
 100
AcDbEntity
   8
LEVEL001
 100
AcDbLine
   6
CONTINUOUS
  62
7
  10
 208.34931492580
  20
 132.48891610022
  30
0.0
  11
 197.59931492560
  21
 132.48891610022
  31
0.0
   0
LINE
   5
33D
 100
AcDbEntity
   8
LEVEL001
 100
AcDbLine
   6
CONTINUOUS
  62
7
  10
 208.34931492580
  20
 130.08891610022
  30
0.0
  11
 197.59931492560
  21
 130.08891610022
  31
0.0
   0
ARC
   5
33E
 100
AcDbEntity
   8
LEVEL001
   6
CONTINUOUS
  62
7
 100
AcDbCircle
  10
 208.14931492580
  20
 131.63891610022
  30
0.0
  40
 1.0000000000000
 100
AcDbArc
  50
 89.999999999920
  51
 121.78833061682
   0
ARC
   5
33F
 100
AcDbEntity
   8
LEVEL001
   6
CONTINUOUS
  62
7
 100
AcDbCircle
  10
 208.34931492580
  20
 131.28891610022
  30
0.0
  40
 1.2000000000000
 100
AcDbArc
  50
 270.00000000000
  51
 90.000000000000
   0
ARC
   5
340
 100
AcDbEntity
   8
LEVEL001
   6
CONTINUOUS
  62
7
 100
AcDbCircle
  10
 208.14931492579
  20
 130.93891610022
  30
0.0
  40
 1.0000000000000
 100
AcDbArc
  50
 238.21166938313
  51
 270.00000000046
   0
ARC
   5
341
 100
AcDbEntity
   8
LEVEL001
   6
CONTINUOUS
  62
7
 100
AcDbCircle
  10
 186.84931492541
  20
 131.28891610022
  30
0.0
  40
 1.2000000000000
 100
AcDbArc
  50
 90.000000000000
  51
 270.00000000000
   0
LINE
   5
342
 100
AcDbEntity
   8
LEVEL001
 100
AcDbLine
   6
CONTINUOUS
  62
7
  10
 186.84931492541
  20
 132.48891610022
  30
0.0
  11
 197.59931492560
  21
 132.48891610022
  31
0.0
   0
LINE
   5
343
 100
AcDbEntity
   8
LEVEL001
 100
AcDbLine
   6
CONTINUOUS
  62
7
  10
 197.59931492560
  20
 129.93891610022
  30
0.0
  11
 186.79931492541
  21
 129.93891610022
  31
0.0
   0
LINE
   5
344
 100
AcDbEntity
   8
LEVEL001
 100
AcDbLine
   6
CONTINUOUS
  62
7
  10
 186.84931492541
  20
 130.08891610022
  30
0.0
  11
 197.59931492560
  21
 130.08891610022
  31
0.0
   0
ARC
   5
345
 100
AcDbEntity
   8
LEVEL001
   6
CONTINUOUS
  62
7
 100
AcDbCircle
  10
 187.04931492581
  20
 131.63891610022
  30
0.0
  40
 1.0000000000000
 100
AcDbArc
  50
 58.211669383094
  51
 90.000000000466
   0
ARC
   5
346
 100
AcDbEntity
   8
LEVEL001
   6
CONTINUOUS
  62
7
 100
AcDbCircle
  10
 187.04931492580
  20
 130.93891610022
  30
0.0
  40
 1.0000000000000
 100
AcDbArc
  50
 269.99999999980
  51
 301.78833061713
   0
LINE
   5
347
 100
AcDbEntity
   8
LEVEL001
 100
AcDbLine
   6
CONTINUOUS
  62
7
  10
 40.094114609531
  20
 139.85706785708
  30
0.0
  11
 40.094114609531
  21
 159.85706785708
  31
0.0
   0
LINE
   5
348
 100
AcDbEntity
   8
LEVEL001
 100
AcDbLine
   6
CONTINUOUS
  62
7
  10
 68.094114609531
  20
 139.85706785708
  30
0.0
  11
 68.094114609531
  21
 159.85706785708
  31
0.0
   0
LINE
   5
349
 100
AcDbEntity
   8
LEVEL001
 100
AcDbLine
   6
CONTINUOUS
  62
7
  10
 40.094114609531
  20
 89.857067857075
  30
0.0
  11
 40.094114609531
  21
 109.85706785708
  31
0.0
   0
LINE
   5
34A
 100
AcDbEntity
   8
LEVEL001
 100
AcDbLine
   6
CONTINUOUS
  62
7
  10
 68.094114609531
  20
 89.857067857075
  30
0.0
  11
 68.094114609531
  21
 109.85706785708
  31
0.0
   0
LINE
   5
34B
 100
AcDbEntity
   8
LEVEL001
 100
AcDbLine
   6
CONTINUOUS
  62
7
  10
 40.094114609531
  20
 232.31659555168
  30
0.0
  11
 40.094114609531
  21
 252.31659555168
  31
0.0
   0
LINE
   5
34C
 100
AcDbEntity
   8
LEVEL001
 100
AcDbLine
   6
CONTINUOUS
  62
7
  10
 76.094114609531
  20
 232.31659555168
  30
0.0
  11
 76.094114609531
  21
 252.31659555168
  31
0.0
   0
LINE
   5
34D
 100
AcDbEntity
   8
LEVEL001
 100
AcDbLine
   6
CONTINUOUS
  62
7
  10
 40.094114609531
  20
 232.31659555168
  30
0.0
  11
 40.094114609531
  21
 252.31659555168
  31
0.0
   0
LINE
   5
34E
 100
AcDbEntity
   8
LEVEL001
 100
AcDbLine
   6
CONTINUOUS
  62
7
  10
 76.094114609531
  20
 182.31659555168
  30
0.0
  11
 76.094114609531
  21
 202.31659555168
  31
0.0
   0
LINE
   5
34F
 100
AcDbEntity
   8
LEVEL001
 100
AcDbLine
   6
CONTINUOUS
  62
7
  10
 40.094114609531
  20
 182.31659555168
  30
0.0
  11
 40.094114609531
  21
 202.31659555168
  31
0.0
   0
DIMENSION
   5
350
 100
AcDbEntity
   8
LEVEL001
   6
CONTINUOUS
  62
2
 100
AcDbDimension
   2
*D8
  10
 40.094114609531
  20
 257.38818411709
  30
0.0
  11
 39.094114609531
  21
 257.38818411709
  31
0.0
  70
0
   3
GMM004
 100
AcDbAlignedDimension
  13
 38.094114609531
  23
 235.77659555168
  33
0.0
  14
 40.094114609531
  24
 252.31659555168
  34
0.0
 100
AcDbRotatedDimension
   0
DIMENSION
   5
351
 100
AcDbEntity
   8
LEVEL001
   6
CONTINUOUS
  62
2
 100
AcDbDimension
   2
*D9
  10
 76.094114609531
  20
 257.38818411709
  30
0.0
  11
 58.094114609531
  21
 257.38818411709
  31
0.0
  70
0
   3
GMM005
 100
AcDbAlignedDimension
  13
 40.094114609531
  23
 252.31659555168
  33
0.0
  14
 76.094114609531
  24
 252.31659555168
  34
0.0
 100
AcDbRotatedDimension
   0
DIMENSION
   5
352
 100
AcDbEntity
   8
LEVEL001
   6
CONTINUOUS
  62
2
 100
AcDbDimension
   2
*D10
  10
 78.094114609531
  20
 257.38818411709
  30
0.0
  11
 77.094114609531
  21
 257.38818411709
  31
0.0
  70
0
   3
GMM006
 100
AcDbAlignedDimension
  13
 76.094114609531
  23
 252.31659555168
  33
0.0
  14
 78.094114609531
  24
 235.77659555168
  34
0.0
 100
AcDbRotatedDimension
   0
DIMENSION
   5
353
 100
AcDbEntity
   8
LEVEL001
   6
CONTINUOUS
  62
2
 100
AcDbDimension
   2
*D11
  10
 40.094114609531
  20
 164.58477523785
  30
0.0
  11
 39.094114609531
  21
 164.58477523785
  31
0.0
  70
0
   3
GMM004
 100
AcDbAlignedDimension
  13
 38.094114609531
  23
 143.31706785708
  33
0.0
  14
 40.094114609531
  24
 159.85706785708
  34
0.0
 100
AcDbRotatedDimension
   0
DIMENSION
   5
354
 100
AcDbEntity
   8
LEVEL001
   6
CONTINUOUS
  62
2
 100
AcDbDimension
   2
*D12
  10
 68.094114609531
  20
 164.58477523785
  30
0.0
  11
 54.094114609531
  21
 164.58477523785
  31
0.0
  70
0
   3
GMM005
 100
AcDbAlignedDimension
  13
 40.094114609531
  23
 159.85706785708
  33
0.0
  14
 68.094114609531
  24
 159.85706785708
  34
0.0
 100
AcDbRotatedDimension
   0
DIMENSION
   5
355
 100
AcDbEntity
   8
LEVEL001
   6
CONTINUOUS
  62
2
 100
AcDbDimension
   2
*D13
  10
 70.094114609531
  20
 164.58477523785
  30
0.0
  11
 69.094114609531
  21
 164.58477523785
  31
0.0
  70
0
   3
GMM006
 100
AcDbAlignedDimension
  13
 68.094114609531
  23
 159.85706785708
  33
0.0
  14
 70.094114609531
  24
 143.31706785708
  34
0.0
 100
AcDbRotatedDimension
   0
INSERT
   5
356
 100
AcDbEntity
   8
LEVEL001
 100
AcDbBlockReference
   2
BLOCK005
  10
0.0
  20
0.0
  30
0.0
   0
TEXT
   5
357
 100
AcDbEntity
   8
LEVEL001
  62
7
 100
AcDbText
  10
 256.89212431220
  20
 33.998437965356
  30
0.0
  40
 4.0000000000000
   1
１０
  51
 15.000000000000
   7
STANDARD
 100
AcDbText
   0
TEXT
   5
358
 100
AcDbEntity
   8
LEVEL001
  62
7
 100
AcDbText
  10
 269.11633533994
  20
 33.998437965356
  30
0.0
  40
 4.0000000000000
   1
２７
  51
 15.000000000000
   7
STANDARD
 100
AcDbText
   0
TEXT
   5
359
 100
AcDbEntity
   8
LEVEL001
  62
7
 100
AcDbText
  10
 344.01329241905
  20
 10.344329463407
  30
0.0
  40
 11.000000000000
   1
Ｋ３-００２１５８
  41
 0.50000000000000
   7
STANDARD
 100
AcDbText
   0
LINE
   5
35A
 100
AcDbEntity
   8
LEVEL001
 100
AcDbLine
   6
CONTINUOUS
  62
3
  10
 228.41198317335
  20
 40.623482664101
  30
0.0
  11
 228.41198317335
  21
 10.623482664101
  31
0.0
   0
LINE
   5
35B
 100
AcDbEntity
   8
LEVEL001
 100
AcDbLine
   6
DOT
  62
2
  10
 321.33272474207
  20
 216.44795120850
  30
0.0
  11
 306.83272474207
  21
 216.44795120850
  31
0.0
   0
ARC
   5
35C
 100
AcDbEntity
   8
LEVEL001
   6
DOT
  62
2
 100
AcDbCircle
  10
 306.83272474206
  20
 216.94795120850
  30
0.0
  40
 0.50000000000000
 100
AcDbArc
  50
 180.00000000000
  51
 270.00000000077
   0
ARC
   5
35D
 100
AcDbEntity
   8
LEVEL001
   6
DOT
  62
2
 100
AcDbCircle
  10
 321.33272474207
  20
 215.94795120850
  30
0.0
  40
 0.50000000000000
 100
AcDbArc
  50
 0.71651535864010E-10
  51
 90.000000000000
   0
LINE
   5
35E
 100
AcDbEntity
   8
LEVEL001
 100
AcDbLine
   6
DOT
  62
2
  10
 321.83272474207
  20
 215.94795120850
  30
0.0
  11
 321.83272474207
  21
 193.94795120850
  31
0.0
   0
ARC
   5
35F
 100
AcDbEntity
   8
LEVEL001
   6
DOT
  62
2
 100
AcDbCircle
  10
 321.33272474206
  20
 193.94795120850
  30
0.0
  40
 0.50000000000000
 100
AcDbArc
  50
 270.00000000090
  51
0.0
   0
LINE
   5
360
 100
AcDbEntity
   8
LEVEL001
 100
AcDbLine
   6
DOT
  62
2
  10
 321.33272474207
  20
 193.44795120850
  30
0.0
  11
 306.83272474207
  21
 193.44795120850
  31
0.0
   0
ARC
   5
361
 100
AcDbEntity
   8
LEVEL001
   6
DOT
  62
2
 100
AcDbCircle
  10
 306.83272474207
  20
 192.94795120850
  30
0.0
  40
 0.50000000000000
 100
AcDbArc
  50
 89.999999999948
  51
 180.00000000000
   0
ARC
   5
362
 100
AcDbEntity
   8
LEVEL001
   6
DOT
  62
2
 100
AcDbCircle
  10
 254.83272474194
  20
 211.24795120860
  30
0.0
  40
 2.0000000000000
 100
AcDbArc
  50
 90.000000000002
  51
 180.00000000000
   0
LINE
   5
363
 100
AcDbEntity
   8
LEVEL001
 100
AcDbLine
   6
DOT
  62
2
  10
 252.83272474194
  20
 211.24795120860
  30
0.0
  11
 252.83272474194
  21
 198.64795120860
  31
0.0
   0
ARC
   5
364
 100
AcDbEntity
   8
LEVEL001
   6
DOT
  62
2
 100
AcDbCircle
  10
 254.83272474194
  20
 198.64795120840
  30
0.0
  40
 2.0000000000000
 100
AcDbArc
  50
 180.00000000000
  51
 270.00000000002
   0
LINE
   5
365
 100
AcDbEntity
   8
LEVEL001
 100
AcDbLine
   6
DOT
  62
2
  10
 254.83272474194
  20
 196.64795120860
  30
0.0
  11
 277.83272474194
  21
 196.64795120860
  31
0.0
   0
LINE
   5
366
 100
AcDbEntity
   8
LEVEL001
 100
AcDbLine
   6
DOT
  62
2
  10
 254.83272474194
  20
 213.24795120860
  30
0.0
  11
 277.83272474194
  21
 213.24795120860
  31
0.0
   0
ARC
   5
367
 100
AcDbEntity
   8
LEVEL001
   6
DOT
  62
2
 100
AcDbCircle
  10
 277.83272474194
  20
 214.24795120860
  30
0.0
  40
 1.0000000000000
 100
AcDbArc
  50
 270.00000000000
  51
0.0
   0
ARC
   5
368
 100
AcDbEntity
   8
LEVEL001
   6
DOT
  62
2
 100
AcDbCircle
  10
 277.83272474194
  20
 195.64795120860
  30
0.0
  40
 1.0000000000000
 100
AcDbArc
  50
 0.13027551975275E-10
  51
 90.000000000000
   0
LINE
   5
369
 100
AcDbEntity
   8
LEVEL001
 100
AcDbLine
   6
DIVIDE
  62
1
  10
 255.83272474194
  20
 216.83954487815
  30
0.0
  11
 255.83272474194
  21
 209.94795120864
  31
0.0
   0
LINE
   5
36A
 100
AcDbEntity
   8
LEVEL001
 100
AcDbLine
   6
DIVIDE
  62
1
  10
 254.83272474194
  20
 209.94795120864
  30
0.0
  11
 254.83272474194
  21
 216.83954487815
  31
0.0
   0
LINE
   5
36B
 100
AcDbEntity
   8
LEVEL001
 100
AcDbLine
   6
DIVIDE
  62
1
  10
 256.33272474194
  20
 209.94795120864
  30
0.0
  11
 256.33272474194
  21
 218.98397628700
  31
0.0
   0
LINE
   5
36C
 100
AcDbEntity
   8
LEVEL001
 100
AcDbLine
   6
DIVIDE
  62
1
  10
 254.33272474207
  20
 218.84795120874
  30
0.0
  11
 254.33272474207
  21
 209.94795120864
  31
0.0
   0
LINE
   5
36D
 100
AcDbEntity
   8
LEVEL001
 100
AcDbLine
   6
DIVIDE
  62
1
  10
 254.33272474207
  20
 209.94795120864
  30
0.0
  11
 256.33272474194
  21
 209.94795120864
  31
0.0
   0
LINE
   5
36E
 100
AcDbEntity
   8
LEVEL001
 100
AcDbLine
   6
DIVIDE
  62
1
  10
 254.33272474207
  20
 218.98397628700
  30
0.0
  11
 254.33272474207
  21
 218.84795120874
  31
0.0
   0
LINE
   5
36F
 100
AcDbEntity
   8
LEVEL001
 100
AcDbLine
   6
DIVIDE
  62
1
  10
 255.83272474194
  20
 216.83954487815
  30
0.0
  11
 256.33272474207
  21
 218.98397628700
  31
0.0
   0
LINE
   5
370
 100
AcDbEntity
   8
LEVEL001
 100
AcDbLine
   6
DIVIDE
  62
1
  10
 254.83272474194
  20
 216.83954487815
  30
0.0
  11
 254.33272474207
  21
 218.98397628700
  31
0.0
   0
LINE
   5
371
 100
AcDbEntity
   8
LEVEL001
 100
AcDbLine
   6
DIVIDE
  62
1
  10
 256.33272474207
  20
 218.98397628700
  30
0.0
  11
 254.33272474207
  21
 218.98397628700
  31
0.0
   0
LINE
   5
372
 100
AcDbEntity
   8
LEVEL001
 100
AcDbLine
   6
DIVIDE
  62
1
  10
 259.33272474207
  20
 218.84795120874
  30
0.0
  11
 259.33272474207
  21
 209.94795120864
  31
0.0
   0
LINE
   5
373
 100
AcDbEntity
   8
LEVEL001
 100
AcDbLine
   6
DIVIDE
  62
1
  10
 259.33272474207
  20
 218.98397628700
  30
0.0
  11
 259.33272474207
  21
 218.84795120874
  31
0.0
   0
LINE
   5
374
 100
AcDbEntity
   8
LEVEL001
 100
AcDbLine
   6
DIVIDE
  62
1
  10
 259.33272474207
  20
 218.98397628700
  30
0.0
  11
 261.33272474207
  21
 218.98397628700
  31
0.0
   0
LINE
   5
375
 100
AcDbEntity
   8
LEVEL001
 100
AcDbLine
   6
DIVIDE
  62
1
  10
 259.83272474194
  20
 216.83954487815
  30
0.0
  11
 259.33272474207
  21
 218.98397628700
  31
0.0
   0
LINE
   5
376
 100
AcDbEntity
   8
LEVEL001
 100
AcDbLine
   6
DIVIDE
  62
1
  10
 259.33272474207
  20
 209.94795120864
  30
0.0
  11
 261.33272474194
  21
 209.94795120864
  31
0.0
   0
LINE
   5
377
 100
AcDbEntity
   8
LEVEL001
 100
AcDbLine
   6
DIVIDE
  62
1
  10
 259.83272474194
  20
 209.94795120864
  30
0.0
  11
 259.83272474194
  21
 216.83954487815
  31
0.0
   0
LINE
   5
378
 100
AcDbEntity
   8
LEVEL001
 100
AcDbLine
   6
DIVIDE
  62
1
  10
 260.83272474194
  20
 216.83954487815
  30
0.0
  11
 260.83272474194
  21
 209.94795120864
  31
0.0
   0
LINE
   5
379
 100
AcDbEntity
   8
LEVEL001
 100
AcDbLine
   6
DIVIDE
  62
1
  10
 261.33272474194
  20
 209.94795120864
  30
0.0
  11
 261.33272474194
  21
 218.98397628700
  31
0.0
   0
LINE
   5
37A
 100
AcDbEntity
   8
LEVEL001
 100
AcDbLine
   6
DIVIDE
  62
1
  10
 260.33272474194
  20
 216.83954487815
  30
0.0
  11
 260.83272474194
  21
 216.83954487815
  31
0.0
   0
LINE
   5
37B
 100
AcDbEntity
   8
LEVEL001
 100
AcDbLine
   6
DIVIDE
  62
1
  10
 260.83272474194
  20
 216.83954487815
  30
0.0
  11
 261.33272474207
  21
 218.98397628700
  31
0.0
   0
LINE
   5
37C
 100
AcDbEntity
   8
LEVEL001
 100
AcDbLine
   6
DIVIDE
  62
1
  10
 260.33272474194
  20
 216.83954487815
  30
0.0
  11
 259.83272474194
  21
 216.83954487815
  31
0.0
   0
LINE
   5
37D
 100
AcDbEntity
   8
LEVEL001
 100
AcDbLine
   6
DIVIDE
  62
1
  10
 255.33272474194
  20
 216.83954487815
  30
0.0
  11
 255.83272474194
  21
 216.83954487815
  31
0.0
   0
LINE
   5
37E
 100
AcDbEntity
   8
LEVEL001
 100
AcDbLine
   6
DIVIDE
  62
1
  10
 255.33272474194
  20
 216.83954487815
  30
0.0
  11
 254.83272474194
  21
 216.83954487815
  31
0.0
   0
LINE
   5
37F
 100
AcDbEntity
   8
LEVEL001
 100
AcDbLine
   6
DIVIDE
  62
1
  10
 255.83272474194
  20
 193.05635753914
  30
0.0
  11
 255.83272474194
  21
 199.94795120864
  31
0.0
   0
LINE
   5
380
 100
AcDbEntity
   8
LEVEL001
 100
AcDbLine
   6
DIVIDE
  62
1
  10
 254.83272474194
  20
 199.94795120864
  30
0.0
  11
 254.83272474194
  21
 193.05635753914
  31
0.0
   0
LINE
   5
381
 100
AcDbEntity
   8
LEVEL001
 100
AcDbLine
   6
DIVIDE
  62
1
  10
 256.33272474194
  20
 199.94795120864
  30
0.0
  11
 256.33272474194
  21
 190.91192613029
  31
0.0
   0
LINE
   5
382
 100
AcDbEntity
   8
LEVEL001
 100
AcDbLine
   6
DIVIDE
  62
1
  10
 254.33272474207
  20
 191.04795120854
  30
0.0
  11
 254.33272474207
  21
 199.94795120864
  31
0.0
   0
LINE
   5
383
 100
AcDbEntity
   8
LEVEL001
 100
AcDbLine
   6
DIVIDE
  62
1
  10
 254.33272474207
  20
 199.94795120864
  30
0.0
  11
 256.33272474194
  21
 199.94795120864
  31
0.0
   0
LINE
   5
384
 100
AcDbEntity
   8
LEVEL001
 100
AcDbLine
   6
DIVIDE
  62
1
  10
 259.33272474207
  20
 191.04795120854
  30
0.0
  11
 259.33272474207
  21
 199.94795120864
  31
0.0
   0
LINE
   5
385
 100
AcDbEntity
   8
LEVEL001
 100
AcDbLine
   6
DIVIDE
  62
1
  10
 259.33272474207
  20
 199.94795120864
  30
0.0
  11
 261.33272474194
  21
 199.94795120864
  31
0.0
   0
LINE
   5
386
 100
AcDbEntity
   8
LEVEL001
 100
AcDbLine
   6
DIVIDE
  62
1
  10
 259.83272474194
  20
 199.94795120864
  30
0.0
  11
 259.83272474194
  21
 193.05635753914
  31
0.0
   0
LINE
   5
387
 100
AcDbEntity
   8
LEVEL001
 100
AcDbLine
   6
DIVIDE
  62
1
  10
 260.83272474194
  20
 193.05635753914
  30
0.0
  11
 260.83272474194
  21
 199.94795120864
  31
0.0
   0
LINE
   5
388
 100
AcDbEntity
   8
LEVEL001
 100
AcDbLine
   6
DIVIDE
  62
1
  10
 261.33272474207
  20
 190.91192613029
  30
0.0
  11
 261.33272474207
  21
 199.94795120864
  31
0.0
   0
LINE
   5
389
 100
AcDbEntity
   8
LEVEL001
 100
AcDbLine
   6
DIVIDE
  62
1
  10
 259.33272474207
  20
 190.91192613029
  30
0.0
  11
 259.33272474207
  21
 191.04795120854
  31
0.0
   0
LINE
   5
38A
 100
AcDbEntity
   8
LEVEL001
 100
AcDbLine
   6
DIVIDE
  62
1
  10
 259.33272474207
  20
 190.91192613029
  30
0.0
  11
 261.33272474207
  21
 190.91192613029
  31
0.0
   0
LINE
   5
38B
 100
AcDbEntity
   8
LEVEL001
 100
AcDbLine
   6
DIVIDE
  62
1
  10
 260.33272474194
  20
 193.05635753914
  30
0.0
  11
 260.83272474194
  21
 193.05635753914
  31
0.0
   0
LINE
   5
38C
 100
AcDbEntity
   8
LEVEL001
 100
AcDbLine
   6
DIVIDE
  62
1
  10
 260.83272474194
  20
 193.05635753914
  30
0.0
  11
 261.33272474207
  21
 190.91192613029
  31
0.0
   0
LINE
   5
38D
 100
AcDbEntity
   8
LEVEL001
 100
AcDbLine
   6
DIVIDE
  62
1
  10
 260.33272474194
  20
 193.05635753914
  30
0.0
  11
 259.83272474194
  21
 193.05635753914
  31
0.0
   0
LINE
   5
38E
 100
AcDbEntity
   8
LEVEL001
 100
AcDbLine
   6
DIVIDE
  62
1
  10
 259.83272474194
  20
 193.05635753914
  30
0.0
  11
 259.33272474207
  21
 190.91192613029
  31
0.0
   0
LINE
   5
38F
 100
AcDbEntity
   8
LEVEL001
 100
AcDbLine
   6
DIVIDE
  62
1
  10
 254.33272474207
  20
 190.91192613029
  30
0.0
  11
 254.33272474207
  21
 191.04795120854
  31
0.0
   0
LINE
   5
390
 100
AcDbEntity
   8
LEVEL001
 100
AcDbLine
   6
DIVIDE
  62
1
  10
 256.33272474207
  20
 190.91192613029
  30
0.0
  11
 256.33272474207
  21
 191.04795120854
  31
0.0
   0
LINE
   5
391
 100
AcDbEntity
   8
LEVEL001
 100
AcDbLine
   6
DIVIDE
  62
1
  10
 255.33272474194
  20
 193.05635753914
  30
0.0
  11
 255.83272474194
  21
 193.05635753914
  31
0.0
   0
LINE
   5
392
 100
AcDbEntity
   8
LEVEL001
 100
AcDbLine
   6
DIVIDE
  62
1
  10
 255.83272474194
  20
 193.05635753914
  30
0.0
  11
 256.33272474207
  21
 190.91192613029
  31
0.0
   0
LINE
   5
393
 100
AcDbEntity
   8
LEVEL001
 100
AcDbLine
   6
DIVIDE
  62
1
  10
 254.83272474194
  20
 193.05635753914
  30
0.0
  11
 254.33272474207
  21
 190.91192613029
  31
0.0
   0
LINE
   5
394
 100
AcDbEntity
   8
LEVEL001
 100
AcDbLine
   6
DIVIDE
  62
1
  10
 255.33272474194
  20
 193.05635753914
  30
0.0
  11
 254.83272474194
  21
 193.05635753914
  31
0.0
   0
LINE
   5
395
 100
AcDbEntity
   8
LEVEL001
 100
AcDbLine
   6
DIVIDE
  62
1
  10
 256.33272474207
  20
 190.91192613029
  30
0.0
  11
 254.33272474207
  21
 190.91192613029
  31
0.0
   0
LINE
   5
396
 100
AcDbEntity
   8
LEVEL001
 100
AcDbLine
   6
DIVIDE
  62
1
  10
 185.70772125610
  20
 151.93891610022
  30
0.0
  11
 192.59931492560
  21
 151.93891610022
  31
0.0
   0
LINE
   5
397
 100
AcDbEntity
   8
LEVEL001
 100
AcDbLine
   6
DIVIDE
  62
1
  10
 192.59931492560
  20
 152.93891610022
  30
0.0
  11
 185.70772125610
  21
 152.93891610022
  31
0.0
   0
LINE
   5
398
 100
AcDbEntity
   8
LEVEL001
 100
AcDbLine
   6
DIVIDE
  62
1
  10
 192.59931492560
  20
 151.43891610022
  30
0.0
  11
 183.56328984725
  21
 151.43891610022
  31
0.0
   0
LINE
   5
399
 100
AcDbEntity
   8
LEVEL001
 100
AcDbLine
   6
DIVIDE
  62
1
  10
 183.69931492550
  20
 153.43891610009
  30
0.0
  11
 192.59931492560
  21
 153.43891610009
  31
0.0
   0
LINE
   5
39A
 100
AcDbEntity
   8
LEVEL001
 100
AcDbLine
   6
DIVIDE
  62
1
  10
 192.59931492560
  20
 153.43891610009
  30
0.0
  11
 192.59931492560
  21
 151.43891610022
  31
0.0
   0
POINT
   5
39B
 100
AcDbEntity
   8
LEVEL001
 100
AcDbPoint
  62
1
  10
 184.69931492550
  20
 151.43891610009
  30
0.0
   0
POINT
   5
39C
 100
AcDbEntity
   8
LEVEL001
 100
AcDbPoint
  62
1
  10
 184.69931492550
  20
 153.43891610009
  30
0.0
   0
LINE
   5
39D
 100
AcDbEntity
   8
LEVEL001
 100
AcDbLine
   6
DIVIDE
  62
1
  10
 183.56328984725
  20
 153.43891610009
  30
0.0
  11
 183.69931492550
  21
 153.43891610009
  31
0.0
   0
LINE
   5
39E
 100
AcDbEntity
   8
LEVEL001
 100
AcDbLine
   6
DIVIDE
  62
1
  10
 183.56328984725
  20
 151.43891610009
  30
0.0
  11
 183.69931492550
  21
 151.43891610009
  31
0.0
   0
LINE
   5
39F
 100
AcDbEntity
   8
LEVEL001
 100
AcDbLine
   6
DIVIDE
  62
1
  10
 185.70772125610
  20
 152.43891610022
  30
0.0
  11
 185.70772125610
  21
 151.93891610022
  31
0.0
   0
LINE
   5
3A0
 100
AcDbEntity
   8
LEVEL001
 100
AcDbLine
   6
DIVIDE
  62
1
  10
 185.70772125610
  20
 151.93891610022
  30
0.0
  11
 183.56328984725
  21
 151.43891610009
  31
0.0
   0
LINE
   5
3A1
 100
AcDbEntity
   8
LEVEL001
 100
AcDbLine
   6
DIVIDE
  62
1
  10
 185.70772125610
  20
 152.93891610022
  30
0.0
  11
 183.56328984725
  21
 153.43891610009
  31
0.0
   0
LINE
   5
3A2
 100
AcDbEntity
   8
LEVEL001
 100
AcDbLine
   6
DIVIDE
  62
1
  10
 185.70772125610
  20
 152.43891610022
  30
0.0
  11
 185.70772125610
  21
 152.93891610022
  31
0.0
   0
LINE
   5
3A3
 100
AcDbEntity
   8
LEVEL001
 100
AcDbLine
   6
DIVIDE
  62
1
  10
 183.56328984725
  20
 151.43891610009
  30
0.0
  11
 183.56328984725
  21
 153.43891610009
  31
0.0
   0
LINE
   5
3A4
 100
AcDbEntity
   8
LEVEL001
 100
AcDbLine
   6
DIVIDE
  62
1
  10
 183.69931492550
  20
 148.43891610009
  30
0.0
  11
 192.59931492560
  21
 148.43891610009
  31
0.0
   0
LINE
   5
3A5
 100
AcDbEntity
   8
LEVEL001
 100
AcDbLine
   6
DIVIDE
  62
1
  10
 192.59931492560
  20
 148.43891610009
  30
0.0
  11
 192.59931492560
  21
 146.43891610022
  31
0.0
   0
LINE
   5
3A6
 100
AcDbEntity
   8
LEVEL001
 100
AcDbLine
   6
DIVIDE
  62
1
  10
 192.59931492560
  20
 147.93891610022
  30
0.0
  11
 185.70772125610
  21
 147.93891610022
  31
0.0
   0
LINE
   5
3A7
 100
AcDbEntity
   8
LEVEL001
 100
AcDbLine
   6
DIVIDE
  62
1
  10
 185.70772125610
  20
 146.93891610022
  30
0.0
  11
 192.59931492560
  21
 146.93891610022
  31
0.0
   0
POINT
   5
3A8
 100
AcDbEntity
   8
LEVEL001
 100
AcDbPoint
  62
1
  10
 184.69931492550
  20
 148.43891610009
  30
0.0
   0
LINE
   5
3A9
 100
AcDbEntity
   8
LEVEL001
 100
AcDbLine
   6
DIVIDE
  62
1
  10
 183.56328984725
  20
 148.43891610009
  30
0.0
  11
 183.69931492550
  21
 148.43891610009
  31
0.0
   0
LINE
   5
3AA
 100
AcDbEntity
   8
LEVEL001
 100
AcDbLine
   6
DIVIDE
  62
1
  10
 183.56328984725
  20
 148.43891610009
  30
0.0
  11
 183.56328984725
  21
 146.43891610009
  31
0.0
   0
LINE
   5
3AB
 100
AcDbEntity
   8
LEVEL001
 100
AcDbLine
   6
DIVIDE
  62
1
  10
 185.70772125610
  20
 147.43891610022
  30
0.0
  11
 185.70772125610
  21
 146.93891610022
  31
0.0
   0
LINE
   5
3AC
 100
AcDbEntity
   8
LEVEL001
 100
AcDbLine
   6
DIVIDE
  62
1
  10
 185.70772125610
  20
 146.93891610022
  30
0.0
  11
 183.56328984725
  21
 146.43891610009
  31
0.0
   0
LINE
   5
3AD
 100
AcDbEntity
   8
LEVEL001
 100
AcDbLine
   6
DIVIDE
  62
1
  10
 185.70772125610
  20
 147.43891610022
  30
0.0
  11
 185.70772125610
  21
 147.93891610022
  31
0.0
   0
LINE
   5
3AE
 100
AcDbEntity
   8
LEVEL001
 100
AcDbLine
   6
DIVIDE
  62
1
  10
 185.70772125610
  20
 147.93891610022
  30
0.0
  11
 183.56328984725
  21
 148.43891610009
  31
0.0
   0
LINE
   5
3AF
 100
AcDbEntity
   8
LEVEL001
 100
AcDbLine
   6
DIVIDE
  62
1
  10
 183.56328984725
  20
 146.43891610009
  30
0.0
  11
 192.59931492560
  21
 146.43891610009
  31
0.0
   0
LINE
   5
3B0
 100
AcDbEntity
   8
LEVEL001
 100
AcDbLine
   6
DIVIDE
  62
1
  10
 209.49090859511
  20
 151.93891610022
  30
0.0
  11
 202.59931492560
  21
 151.93891610022
  31
0.0
   0
LINE
   5
3B1
 100
AcDbEntity
   8
LEVEL001
 100
AcDbLine
   6
DIVIDE
  62
1
  10
 202.59931492560
  20
 152.93891610022
  30
0.0
  11
 209.49090859511
  21
 152.93891610022
  31
0.0
   0
LINE
   5
3B2
 100
AcDbEntity
   8
LEVEL001
 100
AcDbLine
   6
DIVIDE
  62
1
  10
 202.59931492560
  20
 151.43891610022
  30
0.0
  11
 211.63534000396
  21
 151.43891610022
  31
0.0
   0
LINE
   5
3B3
 100
AcDbEntity
   8
LEVEL001
 100
AcDbLine
   6
DIVIDE
  62
1
  10
 211.49931492570
  20
 153.43891610009
  30
0.0
  11
 202.59931492560
  21
 153.43891610009
  31
0.0
   0
LINE
   5
3B4
 100
AcDbEntity
   8
LEVEL001
 100
AcDbLine
   6
DIVIDE
  62
1
  10
 202.59931492560
  20
 153.43891610009
  30
0.0
  11
 202.59931492560
  21
 151.43891610022
  31
0.0
   0
LINE
   5
3B5
 100
AcDbEntity
   8
LEVEL001
 100
AcDbLine
   6
DIVIDE
  62
1
  10
 211.63534000396
  20
 153.43891610009
  30
0.0
  11
 211.49931492570
  21
 153.43891610009
  31
0.0
   0
LINE
   5
3B6
 100
AcDbEntity
   8
LEVEL001
 100
AcDbLine
   6
DIVIDE
  62
1
  10
 211.63534000396
  20
 151.43891610009
  30
0.0
  11
 211.49931492570
  21
 151.43891610009
  31
0.0
   0
LINE
   5
3B7
 100
AcDbEntity
   8
LEVEL001
 100
AcDbLine
   6
DIVIDE
  62
1
  10
 209.49090859511
  20
 151.93891610022
  30
0.0
  11
 211.63534000396
  21
 151.43891610009
  31
0.0
   0
LINE
   5
3B8
 100
AcDbEntity
   8
LEVEL001
 100
AcDbLine
   6
DIVIDE
  62
1
  10
 209.49090859511
  20
 152.93891610022
  30
0.0
  11
 211.63534000396
  21
 153.43891610009
  31
0.0
   0
LINE
   5
3B9
 100
AcDbEntity
   8
LEVEL001
 100
AcDbLine
   6
DIVIDE
  62
1
  10
 211.63534000396
  20
 151.43891610009
  30
0.0
  11
 211.63534000396
  21
 153.43891610009
  31
0.0
   0
LINE
   5
3BA
 100
AcDbEntity
   8
LEVEL001
 100
AcDbLine
   6
DIVIDE
  62
1
  10
 209.49090859511
  20
 152.43891610022
  30
0.0
  11
 209.49090859511
  21
 151.93891610022
  31
0.0
   0
LINE
   5
3BB
 100
AcDbEntity
   8
LEVEL001
 100
AcDbLine
   6
DIVIDE
  62
1
  10
 209.49090859511
  20
 152.43891610022
  30
0.0
  11
 209.49090859511
  21
 152.93891610022
  31
0.0
   0
LINE
   5
3BC
 100
AcDbEntity
   8
LEVEL001
 100
AcDbLine
   6
DIVIDE
  62
1
  10
 211.49931492570
  20
 148.43891610009
  30
0.0
  11
 202.59931492560
  21
 148.43891610009
  31
0.0
   0
LINE
   5
3BD
 100
AcDbEntity
   8
LEVEL001
 100
AcDbLine
   6
DIVIDE
  62
1
  10
 210.49931492560
  20
 146.43891610009
  30
0.0
  11
 212.49931492560
  21
 146.43891610009
  31
0.0
   0
LINE
   5
3BE
 100
AcDbEntity
   8
LEVEL001
 100
AcDbLine
   6
DIVIDE
  62
1
  10
 211.49931492570
  20
 146.43891610009
  30
0.0
  11
 211.95931492570
  21
 146.43891610009
  31
0.0
   0
LINE
   5
3BF
 100
AcDbEntity
   8
LEVEL001
 100
AcDbLine
   6
DIVIDE
  62
1
  10
 211.63534000396
  20
 148.43891610009
  30
0.0
  11
 211.49931492570
  21
 148.43891610009
  31
0.0
   0
LINE
   5
3C0
 100
AcDbEntity
   8
LEVEL001
 100
AcDbLine
   6
DIVIDE
  62
1
  10
 211.63534000396
  20
 148.43891610009
  30
0.0
  11
 211.63534000396
  21
 146.43891610009
  31
0.0
   0
LINE
   5
3C1
 100
AcDbEntity
   8
LEVEL001
 100
AcDbLine
   6
DIVIDE
  62
1
  10
 209.49090859511
  20
 146.93891610022
  30
0.0
  11
 211.63534000396
  21
 146.43891610009
  31
0.0
   0
LINE
   5
3C2
 100
AcDbEntity
   8
LEVEL001
 100
AcDbLine
   6
DIVIDE
  62
1
  10
 209.49090859511
  20
 147.93891610022
  30
0.0
  11
 211.63534000396
  21
 148.43891610009
  31
0.0
   0
LINE
   5
3C3
 100
AcDbEntity
   8
LEVEL001
 100
AcDbLine
   6
DIVIDE
  62
1
  10
 202.59931492560
  20
 148.43891610009
  30
0.0
  11
 202.59931492560
  21
 146.43891610022
  31
0.0
   0
LINE
   5
3C4
 100
AcDbEntity
   8
LEVEL001
 100
AcDbLine
   6
DIVIDE
  62
1
  10
 202.59931492560
  20
 147.93891610022
  30
0.0
  11
 209.49090859511
  21
 147.93891610022
  31
0.0
   0
LINE
   5
3C5
 100
AcDbEntity
   8
LEVEL001
 100
AcDbLine
   6
DIVIDE
  62
1
  10
 209.49090859511
  20
 146.93891610022
  30
0.0
  11
 202.59931492560
  21
 146.93891610022
  31
0.0
   0
LINE
   5
3C6
 100
AcDbEntity
   8
LEVEL001
 100
AcDbLine
   6
DIVIDE
  62
1
  10
 209.49090859511
  20
 147.43891610022
  30
0.0
  11
 209.49090859511
  21
 146.93891610022
  31
0.0
   0
LINE
   5
3C7
 100
AcDbEntity
   8
LEVEL001
 100
AcDbLine
   6
DIVIDE
  62
1
  10
 209.49090859511
  20
 147.43891610022
  30
0.0
  11
 209.49090859511
  21
 147.93891610022
  31
0.0
   0
LINE
   5
3C8
 100
AcDbEntity
   8
LEVEL001
 100
AcDbLine
   6
DIVIDE
  62
1
  10
 202.59931492560
  20
 146.43891610022
  30
0.0
  11
 211.63534000396
  21
 146.43891610022
  31
0.0
   0
LINE
   5
3C9
 100
AcDbEntity
   8
LEVEL001
 100
AcDbLine
   6
CONTINUOUS
  62
7
  10
 199.49931492575
  20
 148.23891609995
  30
0.0
  11
 195.69931492575
  21
 148.23891609995
  31
0.0
   0
ARC
   5
3CA
 100
AcDbEntity
   8
LEVEL001
   6
CONTINUOUS
  62
7
 100
AcDbCircle
  10
 199.49931492575
  20
 149.23891609995
  30
0.0
  40
 1.0000000000000
 100
AcDbArc
  50
 270.00000000000
  51
 0.91192863826922E-10
   0
POINT
   5
3CB
 100
AcDbEntity
   8
LEVEL001
 100
AcDbPoint
  62
7
  10
 200.49931492575
  20
 148.23891609995
  30
0.0
   0
LINE
   5
3CC
 100
AcDbEntity
   8
LEVEL001
 100
AcDbLine
   6
CONTINUOUS
  62
7
  10
 200.49931492575
  20
 150.23891609995
  30
0.0
  11
 200.49931492575
  21
 149.23891609995
  31
0.0
   0
LINE
   5
3CD
 100
AcDbEntity
   8
LEVEL001
 100
AcDbLine
   6
CONTINUOUS
  62
7
  10
 199.54931492575
  20
 150.23891609995
  30
0.0
  11
 200.49931492575
  21
 150.23891609995
  31
0.0
   0
LINE
   5
3CE
 100
AcDbEntity
   8
LEVEL001
 100
AcDbLine
   6
CONTINUOUS
  62
7
  10
 199.54931492575
  20
 150.23891609995
  30
0.0
  11
 199.54931492575
  21
 155.43891609995
  31
0.0
   0
LINE
   5
3CF
 100
AcDbEntity
   8
LEVEL001
 100
AcDbLine
   6
CONTINUOUS
  62
7
  10
 194.69931492575
  20
 149.23891609995
  30
0.0
  11
 194.69931492575
  21
 150.23891609995
  31
0.0
   0
ARC
   5
3D0
 100
AcDbEntity
   8
LEVEL001
   6
CONTINUOUS
  62
7
 100
AcDbCircle
  10
 195.69931492575
  20
 149.23891609995
  30
0.0
  40
 1.0000000000000
 100
AcDbArc
  50
 180.00000000000
  51
 270.00000000001
   0
POINT
   5
3D1
 100
AcDbEntity
   8
LEVEL001
 100
AcDbPoint
  62
7
  10
 194.69931492575
  20
 148.23891609995
  30
0.0
   0
LINE
   5
3D2
 100
AcDbEntity
   8
LEVEL001
 100
AcDbLine
   6
CONTINUOUS
  62
7
  10
 194.69931492575
  20
 150.23891609995
  30
0.0
  11
 195.64931492575
  21
 150.23891609995
  31
0.0
   0
LINE
   5
3D3
 100
AcDbEntity
   8
LEVEL001
 100
AcDbLine
   6
CONTINUOUS
  62
7
  10
 195.64931492575
  20
 150.23891609995
  30
0.0
  11
 195.64931492575
  21
 155.43891609995
  31
0.0
   0
LINE
   5
3D4
 100
AcDbEntity
   8
LEVEL001
 100
AcDbLine
   6
DOT
  62
2
  10
 40.094114609531
  20
 110.85706785708
  30
0.0
  11
 40.094114609531
  21
 111.95706785708
  31
0.0
   0
LINE
   5
3D5
 100
AcDbEntity
   8
LEVEL001
 100
AcDbLine
   6
CONTINUOUS
  62
7
  10
 38.094114609666
  20
 112.45706785708
  30
0.0
  11
 38.094114609666
  21
 124.85706785717
  31
0.0
   0
LINE
   5
3D6
 100
AcDbEntity
   8
LEVEL001
 100
AcDbLine
   6
CONTINUOUS
  62
7
  10
 38.094114609666
  20
 137.25706785708
  30
0.0
  11
 38.094114609666
  21
 124.85706785717
  31
0.0
   0
POINT
   5
3D7
 100
AcDbEntity
   8
LEVEL001
 100
AcDbPoint
  62
7
  10
 38.094114609666
  20
 143.85706785722
  30
0.0
   0
LINE
   5
3D8
 100
AcDbEntity
   8
LEVEL001
 100
AcDbLine
   6
CONTINUOUS
  62
7
  10
 38.594114609666
  20
 105.85706785717
  30
0.0
  11
 40.094114609666
  21
 105.85706785717
  31
0.0
   0
ARC
   5
3D9
 100
AcDbEntity
   8
LEVEL001
   6
CONTINUOUS
  62
7
 100
AcDbCircle
  10
 38.594114609666
  20
 106.35706785717
  30
0.0
  40
 0.50000000000000
 100
AcDbArc
  50
 179.99999999995
  51
 270.00000000000
   0
POINT
   5
3DA
 100
AcDbEntity
   8
LEVEL001
 100
AcDbPoint
  62
7
  10
 38.094114609666
  20
 105.85706785717
  30
0.0
   0
LINE
   5
3DB
 100
AcDbEntity
   8
LEVEL001
 100
AcDbLine
   6
CONTINUOUS
  62
7
  10
 38.094114609666
  20
 124.85706785717
  30
0.0
  11
 38.094114609666
  21
 106.35706785717
  31
0.0
   0
LINE
   5
3DC
 100
AcDbEntity
   8
LEVEL001
 100
AcDbLine
   6
CONTINUOUS
  62
7
  10
 38.094114609666
  20
 124.85706785717
  30
0.0
  11
 38.094114609666
  21
 143.35706785717
  31
0.0
   0
ARC
   5
3DD
 100
AcDbEntity
   8
LEVEL001
   6
CONTINUOUS
  62
7
 100
AcDbCircle
  10
 38.594114609667
  20
 143.35706785717
  30
0.0
  40
 0.50000000000000
 100
AcDbArc
  50
 90.000000000111
  51
 180.00000000000
   0
POINT
   5
3DE
 100
AcDbEntity
   8
LEVEL001
 100
AcDbPoint
  62
7
  10
 38.094114609666
  20
 143.85706785717
  30
0.0
   0
LINE
   5
3DF
 100
AcDbEntity
   8
LEVEL001
 100
AcDbLine
   6
CONTINUOUS
  62
7
  10
 38.594114609666
  20
 143.85706785717
  30
0.0
  11
 40.094114609666
  21
 143.85706785717
  31
0.0
   0
LINE
   5
3E0
 100
AcDbEntity
   8
LEVEL001
 100
AcDbLine
   6
DOT
  62
2
  10
 49.094114609666
  20
 137.75706785722
  30
0.0
  11
 49.094114609666
  21
 139.75706785722
  31
0.0
   0
LINE
   5
3E1
 100
AcDbEntity
   8
LEVEL001
 100
AcDbLine
   6
DOT
  62
2
  10
 40.094114609666
  20
 111.95706785712
  30
0.0
  11
 40.094114609666
  21
 111.25706785722
  31
0.0
   0
ARC
   5
3E2
 100
AcDbEntity
   8
LEVEL001
   6
CONTINUOUS
  62
7
 100
AcDbCircle
  10
 50.094114609531
  20
 110.95706785722
  30
0.0
  40
 1.0000000000000
 100
AcDbArc
  50
 270.00000000000
  51
 0.21169771959821E-10
   0
POINT
   5
3E3
 100
AcDbEntity
   8
LEVEL001
 100
AcDbPoint
  62
7
  10
 51.094114609531
  20
 109.95706785722
  30
0.0
   0
ARC
   5
3E4
 100
AcDbEntity
   8
LEVEL001
   6
CONTINUOUS
  62
7
 100
AcDbCircle
  10
 52.094114609531
  20
 137.15706785722
  30
0.0
  40
 1.0000000000000
 100
AcDbArc
  50
 179.99999999999
  51
 270.00000000000
   0
POINT
   5
3E5
 100
AcDbEntity
   8
LEVEL001
 100
AcDbPoint
  62
7
  10
 51.094114609531
  20
 136.15706785722
  30
0.0
   0
ARC
   5
3E6
 100
AcDbEntity
   8
LEVEL001
   6
CONTINUOUS
  62
7
 100
AcDbCircle
  10
 52.094114609531
  20
 112.55706785722
  30
0.0
  40
 1.0000000000000
 100
AcDbArc
  50
 89.999999999999
  51
 180.00000000000
   0
POINT
   5
3E7
 100
AcDbEntity
   8
LEVEL001
 100
AcDbPoint
  62
7
  10
 51.094114609531
  20
 113.55706785722
  30
0.0
   0
ARC
   5
3E8
 100
AcDbEntity
   8
LEVEL001
   6
CONTINUOUS
  62
7
 100
AcDbCircle
  10
 50.094114609533
  20
 138.75706785722
  30
0.0
  40
 1.0000000000000
 100
AcDbArc
  50
0.0
  51
 90.000000000093
   0
POINT
   5
3E9
 100
AcDbEntity
   8
LEVEL001
 100
AcDbPoint
  62
7
  10
 51.094114609531
  20
 139.75706785722
  30
0.0
   0
LINE
   5
3EA
 100
AcDbEntity
   8
LEVEL001
 100
AcDbLine
   6
CONTINUOUS
  62
7
  10
 51.094114609531
  20
 138.75706785722
  30
0.0
  11
 51.094114609531
  21
 124.85706785722
  31
0.0
   0
LINE
   5
3EB
 100
AcDbEntity
   8
LEVEL001
 100
AcDbLine
   6
CONTINUOUS
  62
7
  10
 51.094114609531
  20
 110.95706785722
  30
0.0
  11
 51.094114609531
  21
 124.85706785722
  31
0.0
   0
LINE
   5
3EC
 100
AcDbEntity
   8
LEVEL001
 100
AcDbLine
   6
CONTINUOUS
  62
7
  10
 44.594114609531
  20
 121.00066408516
  30
0.0
  11
 44.594114609531
  21
 110.46477304550
  31
0.0
   0
LINE
   5
3ED
 100
AcDbEntity
   8
LEVEL001
 100
AcDbLine
   6
CONTINUOUS
  62
7
  10
 44.594114609531
  20
 119.37784801739
  30
0.0
  11
 46.594114609531
  21
 121.00066408518
  31
0.0
   0
LINE
   5
3EE
 100
AcDbEntity
   8
LEVEL001
 100
AcDbLine
   6
CONTINUOUS
  62
7
  10
 46.594114609531
  20
 110.46477304550
  30
0.0
  11
 44.594114609531
  21
 110.46477304550
  31
0.0
   0
LINE
   5
3EF
 100
AcDbEntity
   8
LEVEL001
 100
AcDbLine
   6
CONTINUOUS
  62
7
  10
 46.594114609531
  20
 139.24936266893
  30
0.0
  11
 46.594114609531
  21
 128.71347162928
  31
0.0
   0
LINE
   5
3F0
 100
AcDbEntity
   8
LEVEL001
 100
AcDbLine
   6
CONTINUOUS
  62
7
  10
 44.594114609531
  20
 128.71347162928
  30
0.0
  11
 44.594114609531
  21
 139.24936266893
  31
0.0
   0
LINE
   5
3F1
 100
AcDbEntity
   8
LEVEL001
 100
AcDbLine
   6
CONTINUOUS
  62
7
  10
 44.594114609531
  20
 128.71347162926
  30
0.0
  11
 46.594114609531
  21
 128.71347162926
  31
0.0
   0
LINE
   5
3F2
 100
AcDbEntity
   8
LEVEL001
 100
AcDbLine
   6
CONTINUOUS
  62
7
  10
 44.594114609531
  20
 130.33628769704
  30
0.0
  11
 46.594114609531
  21
 128.71347162926
  31
0.0
   0
LINE
   5
3F3
 100
AcDbEntity
   8
LEVEL001
 100
AcDbLine
   6
CONTINUOUS
  62
7
  10
 46.594114609531
  20
 139.24936266893
  30
0.0
  11
 44.594114609531
  21
 139.24936266893
  31
0.0
   0
LINE
   5
3F4
 100
AcDbEntity
   8
LEVEL001
 100
AcDbLine
   6
CONTINUOUS
  62
7
  10
 46.594114609531
  20
 110.46477304550
  30
0.0
  11
 46.594114609531
  21
 121.00066408516
  31
0.0
   0
LINE
   5
3F5
 100
AcDbEntity
   8
LEVEL001
 100
AcDbLine
   6
CONTINUOUS
  62
7
  10
 44.594114609531
  20
 121.00066408518
  30
0.0
  11
 46.594114609531
  21
 121.00066408518
  31
0.0
   0
LINE
   5
3F6
 100
AcDbEntity
   8
LEVEL001
 100
AcDbLine
   6
CONTINUOUS
  62
7
  10
 44.094114609666
  20
 138.89309293557
  30
0.0
  11
 44.094114609666
  21
 138.75706785732
  31
0.0
   0
LINE
   5
3F7
 100
AcDbEntity
   8
LEVEL001
 100
AcDbLine
   6
CONTINUOUS
  62
7
  10
 40.094114609531
  20
 139.75706785722
  30
0.0
  11
 50.094114609531
  21
 139.75706785722
  31
0.0
   0
LINE
   5
3F8
 100
AcDbEntity
   8
LEVEL001
 100
AcDbLine
   6
CONTINUOUS
  62
7
  10
 40.094114609531
  20
 109.95706785722
  30
0.0
  11
 50.094114609531
  21
 109.95706785722
  31
0.0
   0
LINE
   5
3F9
 100
AcDbEntity
   8
LEVEL001
 100
AcDbLine
   6
CONTINUOUS
  62
7
  10
 40.094114609531
  20
 143.85706785717
  30
0.0
  11
 40.094114609531
  21
 124.85706785708
  31
0.0
   0
LINE
   5
3FA
 100
AcDbEntity
   8
LEVEL001
 100
AcDbLine
   6
CONTINUOUS
  62
7
  10
 40.094114609531
  20
 105.85706785717
  30
0.0
  11
 40.094114609531
  21
 124.85706785708
  31
0.0
   0
ARC
   5
3FB
 100
AcDbEntity
   8
LEVEL001
   6
DOT
  62
2
 100
AcDbCircle
  10
 42.594114609532
  20
 131.15706785717
  30
0.0
  40
 2.0000000000000
 100
AcDbArc
  50
 90.000000000005
  51
 180.00000000000
   0
LINE
   5
3FC
 100
AcDbEntity
   8
LEVEL001
 100
AcDbLine
   6
DOT
  62
2
  10
 40.594114609531
  20
 131.15706785717
  30
0.0
  11
 40.594114609531
  21
 118.55706785717
  31
0.0
   0
ARC
   5
3FD
 100
AcDbEntity
   8
LEVEL001
   6
DOT
  62
2
 100
AcDbCircle
  10
 42.594114609532
  20
 118.55706785698
  30
0.0
  40
 2.0000000000000
 100
AcDbArc
  50
 180.00000000000
  51
 269.99999999999
   0
LINE
   5
3FE
 100
AcDbEntity
   8
LEVEL001
 100
AcDbLine
   6
DOT
  62
2
  10
 42.594114609531
  20
 133.15706785717
  30
0.0
  11
 65.594114609531
  21
 133.15706785717
  31
0.0
   0
ARC
   5
3FF
 100
AcDbEntity
   8
LEVEL001
   6
DOT
  62
2
 100
AcDbCircle
  10
 65.594114609531
  20
 134.15706785717
  30
0.0
  40
 1.0000000000000
 100
AcDbArc
  50
 270.00000000000
  51
0.0
   0
LINE
   5
400
 100
AcDbEntity
   8
LEVEL001
 100
AcDbLine
   6
DIVIDE
  62
1
  10
 43.594114609531
  20
 136.74866152673
  30
0.0
  11
 43.594114609531
  21
 129.85706785722
  31
0.0
   0
LINE
   5
401
 100
AcDbEntity
   8
LEVEL001
 100
AcDbLine
   6
DIVIDE
  62
1
  10
 42.594114609531
  20
 129.85706785722
  30
0.0
  11
 42.594114609531
  21
 136.74866152673
  31
0.0
   0
LINE
   5
402
 100
AcDbEntity
   8
LEVEL001
 100
AcDbLine
   6
DIVIDE
  62
1
  10
 44.094114609531
  20
 129.85706785722
  30
0.0
  11
 44.094114609531
  21
 138.89309293557
  31
0.0
   0
LINE
   5
403
 100
AcDbEntity
   8
LEVEL001
 100
AcDbLine
   6
DIVIDE
  62
1
  10
 42.094114609666
  20
 138.75706785732
  30
0.0
  11
 42.094114609666
  21
 129.85706785722
  31
0.0
   0
LINE
   5
404
 100
AcDbEntity
   8
LEVEL001
 100
AcDbLine
   6
DIVIDE
  62
1
  10
 42.094114609666
  20
 129.85706785722
  30
0.0
  11
 44.094114609531
  21
 129.85706785722
  31
0.0
   0
LINE
   5
405
 100
AcDbEntity
   8
LEVEL001
 100
AcDbLine
   6
DIVIDE
  62
1
  10
 42.094114609666
  20
 138.89309293557
  30
0.0
  11
 42.094114609666
  21
 138.75706785732
  31
0.0
   0
LINE
   5
406
 100
AcDbEntity
   8
LEVEL001
 100
AcDbLine
   6
DIVIDE
  62
1
  10
 43.594114609531
  20
 136.74866152673
  30
0.0
  11
 44.094114609666
  21
 138.89309293557
  31
0.0
   0
LINE
   5
407
 100
AcDbEntity
   8
LEVEL001
 100
AcDbLine
   6
DIVIDE
  62
1
  10
 42.594114609531
  20
 136.74866152673
  30
0.0
  11
 42.094114609666
  21
 138.89309293557
  31
0.0
   0
LINE
   5
408
 100
AcDbEntity
   8
LEVEL001
 100
AcDbLine
   6
DIVIDE
  62
1
  10
 44.094114609666
  20
 138.89309293557
  30
0.0
  11
 42.094114609666
  21
 138.89309293557
  31
0.0
   0
LINE
   5
409
 100
AcDbEntity
   8
LEVEL001
 100
AcDbLine
   6
DIVIDE
  62
1
  10
 47.094114609666
  20
 138.75706785732
  30
0.0
  11
 47.094114609666
  21
 129.85706785722
  31
0.0
   0
LINE
   5
40A
 100
AcDbEntity
   8
LEVEL001
 100
AcDbLine
   6
DIVIDE
  62
1
  10
 47.094114609666
  20
 138.89309293557
  30
0.0
  11
 47.094114609666
  21
 138.75706785732
  31
0.0
   0
LINE
   5
40B
 100
AcDbEntity
   8
LEVEL001
 100
AcDbLine
   6
DIVIDE
  62
1
  10
 47.094114609666
  20
 138.89309293557
  30
0.0
  11
 49.094114609666
  21
 138.89309293557
  31
0.0
   0
LINE
   5
40C
 100
AcDbEntity
   8
LEVEL001
 100
AcDbLine
   6
DIVIDE
  62
1
  10
 47.594114609532
  20
 136.74866152673
  30
0.0
  11
 47.094114609666
  21
 138.89309293557
  31
0.0
   0
LINE
   5
40D
 100
AcDbEntity
   8
LEVEL001
 100
AcDbLine
   6
DIVIDE
  62
1
  10
 47.094114609666
  20
 129.85706785722
  30
0.0
  11
 49.094114609532
  21
 129.85706785722
  31
0.0
   0
LINE
   5
40E
 100
AcDbEntity
   8
LEVEL001
 100
AcDbLine
   6
DIVIDE
  62
1
  10
 47.594114609532
  20
 129.85706785722
  30
0.0
  11
 47.594114609532
  21
 136.74866152673
  31
0.0
   0
LINE
   5
40F
 100
AcDbEntity
   8
LEVEL001
 100
AcDbLine
   6
DIVIDE
  62
1
  10
 48.594114609532
  20
 136.74866152673
  30
0.0
  11
 48.594114609532
  21
 129.85706785722
  31
0.0
   0
LINE
   5
410
 100
AcDbEntity
   8
LEVEL001
 100
AcDbLine
   6
DIVIDE
  62
1
  10
 49.094114609532
  20
 129.85706785722
  30
0.0
  11
 49.094114609532
  21
 138.89309293557
  31
0.0
   0
LINE
   5
411
 100
AcDbEntity
   8
LEVEL001
 100
AcDbLine
   6
DIVIDE
  62
1
  10
 48.094114609532
  20
 136.74866152673
  30
0.0
  11
 48.594114609532
  21
 136.74866152673
  31
0.0
   0
LINE
   5
412
 100
AcDbEntity
   8
LEVEL001
 100
AcDbLine
   6
DIVIDE
  62
1
  10
 48.594114609532
  20
 136.74866152673
  30
0.0
  11
 49.094114609666
  21
 138.89309293557
  31
0.0
   0
LINE
   5
413
 100
AcDbEntity
   8
LEVEL001
 100
AcDbLine
   6
DIVIDE
  62
1
  10
 48.094114609532
  20
 136.74866152673
  30
0.0
  11
 47.594114609532
  21
 136.74866152673
  31
0.0
   0
LINE
   5
414
 100
AcDbEntity
   8
LEVEL001
 100
AcDbLine
   6
DIVIDE
  62
1
  10
 43.094114609531
  20
 136.74866152673
  30
0.0
  11
 43.594114609531
  21
 136.74866152673
  31
0.0
   0
LINE
   5
415
 100
AcDbEntity
   8
LEVEL001
 100
AcDbLine
   6
DIVIDE
  62
1
  10
 43.094114609531
  20
 136.74866152673
  30
0.0
  11
 42.594114609531
  21
 136.74866152673
  31
0.0
   0
LINE
   5
416
 100
AcDbEntity
   8
LEVEL001
 100
AcDbLine
   6
DIVIDE
  62
1
  10
 43.594114609531
  20
 112.96547418771
  30
0.0
  11
 43.594114609531
  21
 119.85706785722
  31
0.0
   0
LINE
   5
417
 100
AcDbEntity
   8
LEVEL001
 100
AcDbLine
   6
DIVIDE
  62
1
  10
 42.594114609531
  20
 119.85706785722
  30
0.0
  11
 42.594114609531
  21
 112.96547418771
  31
0.0
   0
LINE
   5
418
 100
AcDbEntity
   8
LEVEL001
 100
AcDbLine
   6
DIVIDE
  62
1
  10
 44.094114609531
  20
 119.85706785722
  30
0.0
  11
 44.094114609531
  21
 110.82104277886
  31
0.0
   0
LINE
   5
419
 100
AcDbEntity
   8
LEVEL001
 100
AcDbLine
   6
DIVIDE
  62
1
  10
 42.094114609666
  20
 110.95706785712
  30
0.0
  11
 42.094114609666
  21
 119.85706785722
  31
0.0
   0
LINE
   5
41A
 100
AcDbEntity
   8
LEVEL001
 100
AcDbLine
   6
DIVIDE
  62
1
  10
 42.094114609666
  20
 119.85706785722
  30
0.0
  11
 44.094114609531
  21
 119.85706785722
  31
0.0
   0
LINE
   5
41B
 100
AcDbEntity
   8
LEVEL001
 100
AcDbLine
   6
DIVIDE
  62
1
  10
 47.094114609666
  20
 110.95706785712
  30
0.0
  11
 47.094114609666
  21
 119.85706785722
  31
0.0
   0
LINE
   5
41C
 100
AcDbEntity
   8
LEVEL001
 100
AcDbLine
   6
DIVIDE
  62
1
  10
 47.094114609666
  20
 119.85706785722
  30
0.0
  11
 49.094114609532
  21
 119.85706785722
  31
0.0
   0
LINE
   5
41D
 100
AcDbEntity
   8
LEVEL001
 100
AcDbLine
   6
DIVIDE
  62
1
  10
 47.594114609532
  20
 119.85706785722
  30
0.0
  11
 47.594114609532
  21
 112.96547418771
  31
0.0
   0
LINE
   5
41E
 100
AcDbEntity
   8
LEVEL001
 100
AcDbLine
   6
DIVIDE
  62
1
  10
 48.594114609532
  20
 112.96547418771
  30
0.0
  11
 48.594114609532
  21
 119.85706785722
  31
0.0
   0
LINE
   5
41F
 100
AcDbEntity
   8
LEVEL001
 100
AcDbLine
   6
DIVIDE
  62
1
  10
 49.094114609666
  20
 110.82104277886
  30
0.0
  11
 49.094114609666
  21
 119.85706785722
  31
0.0
   0
LINE
   5
420
 100
AcDbEntity
   8
LEVEL001
 100
AcDbLine
   6
DIVIDE
  62
1
  10
 47.094114609666
  20
 110.82104277886
  30
0.0
  11
 47.094114609666
  21
 110.95706785712
  31
0.0
   0
LINE
   5
421
 100
AcDbEntity
   8
LEVEL001
 100
AcDbLine
   6
DIVIDE
  62
1
  10
 47.094114609666
  20
 110.82104277886
  30
0.0
  11
 49.094114609666
  21
 110.82104277886
  31
0.0
   0
LINE
   5
422
 100
AcDbEntity
   8
LEVEL001
 100
AcDbLine
   6
DIVIDE
  62
1
  10
 48.094114609532
  20
 112.96547418771
  30
0.0
  11
 48.594114609532
  21
 112.96547418771
  31
0.0
   0
LINE
   5
423
 100
AcDbEntity
   8
LEVEL001
 100
AcDbLine
   6
DIVIDE
  62
1
  10
 48.594114609532
  20
 112.96547418771
  30
0.0
  11
 49.094114609666
  21
 110.82104277886
  31
0.0
   0
LINE
   5
424
 100
AcDbEntity
   8
LEVEL001
 100
AcDbLine
   6
DIVIDE
  62
1
  10
 48.094114609532
  20
 112.96547418771
  30
0.0
  11
 47.594114609532
  21
 112.96547418771
  31
0.0
   0
LINE
   5
425
 100
AcDbEntity
   8
LEVEL001
 100
AcDbLine
   6
DIVIDE
  62
1
  10
 47.594114609532
  20
 112.96547418771
  30
0.0
  11
 47.094114609666
  21
 110.82104277886
  31
0.0
   0
LINE
   5
426
 100
AcDbEntity
   8
LEVEL001
 100
AcDbLine
   6
DIVIDE
  62
1
  10
 42.094114609666
  20
 110.82104277886
  30
0.0
  11
 42.094114609666
  21
 110.95706785712
  31
0.0
   0
LINE
   5
427
 100
AcDbEntity
   8
LEVEL001
 100
AcDbLine
   6
DIVIDE
  62
1
  10
 44.094114609666
  20
 110.82104277886
  30
0.0
  11
 44.094114609666
  21
 110.95706785712
  31
0.0
   0
LINE
   5
428
 100
AcDbEntity
   8
LEVEL001
 100
AcDbLine
   6
DIVIDE
  62
1
  10
 43.094114609531
  20
 112.96547418771
  30
0.0
  11
 43.594114609531
  21
 112.96547418771
  31
0.0
   0
LINE
   5
429
 100
AcDbEntity
   8
LEVEL001
 100
AcDbLine
   6
DIVIDE
  62
1
  10
 43.594114609531
  20
 112.96547418771
  30
0.0
  11
 44.094114609666
  21
 110.82104277886
  31
0.0
   0
LINE
   5
42A
 100
AcDbEntity
   8
LEVEL001
 100
AcDbLine
   6
DIVIDE
  62
1
  10
 42.594114609531
  20
 112.96547418771
  30
0.0
  11
 42.094114609666
  21
 110.82104277886
  31
0.0
   0
LINE
   5
42B
 100
AcDbEntity
   8
LEVEL001
 100
AcDbLine
   6
DIVIDE
  62
1
  10
 43.094114609531
  20
 112.96547418771
  30
0.0
  11
 42.594114609531
  21
 112.96547418771
  31
0.0
   0
LINE
   5
42C
 100
AcDbEntity
   8
LEVEL001
 100
AcDbLine
   6
DIVIDE
  62
1
  10
 44.094114609666
  20
 110.82104277886
  30
0.0
  11
 42.094114609666
  21
 110.82104277886
  31
0.0
   0
LINE
   5
42D
 100
AcDbEntity
   8
LEVEL001
 100
AcDbLine
   6
CONTINUOUS
  62
7
  10
 64.094114609666
  20
 121.00066408487
  30
0.0
  11
 62.094114609666
  21
 121.00066408487
  31
0.0
   0
LINE
   5
42E
 100
AcDbEntity
   8
LEVEL001
 100
AcDbLine
   6
CONTINUOUS
  62
7
  10
 64.094114609666
  20
 119.37784801711
  30
0.0
  11
 62.094114609666
  21
 121.00066408487
  31
0.0
   0
LINE
   5
42F
 100
AcDbEntity
   8
LEVEL001
 100
AcDbLine
   6
CONTINUOUS
  62
7
  10
 59.094114609666
  20
 119.37784801711
  30
0.0
  11
 57.094114609666
  21
 121.00066408487
  31
0.0
   0
LINE
   5
430
 100
AcDbEntity
   8
LEVEL001
 100
AcDbLine
   6
CONTINUOUS
  62
7
  10
 59.094114609666
  20
 121.00066408487
  30
0.0
  11
 57.094114609666
  21
 121.00066408487
  31
0.0
   0
LINE
   5
431
 100
AcDbEntity
   8
LEVEL001
 100
AcDbLine
   6
CONTINUOUS
  62
7
  10
 64.094114609666
  20
 128.71347162897
  30
0.0
  11
 62.094114609666
  21
 128.71347162897
  31
0.0
   0
LINE
   5
432
 100
AcDbEntity
   8
LEVEL001
 100
AcDbLine
   6
CONTINUOUS
  62
7
  10
 64.094114609666
  20
 130.33628769676
  30
0.0
  11
 62.094114609666
  21
 128.71347162897
  31
0.0
   0
LINE
   5
433
 100
AcDbEntity
   8
LEVEL001
 100
AcDbLine
   6
CONTINUOUS
  62
7
  10
 59.094114609666
  20
 128.71347162897
  30
0.0
  11
 57.094114609666
  21
 128.71347162897
  31
0.0
   0
LINE
   5
434
 100
AcDbEntity
   8
LEVEL001
 100
AcDbLine
   6
CONTINUOUS
  62
7
  10
 59.094114609666
  20
 130.33628769676
  30
0.0
  11
 57.094114609666
  21
 128.71347162897
  31
0.0
   0
LINE
   5
435
 100
AcDbEntity
   8
LEVEL001
 100
AcDbLine
   6
CONTINUOUS
  62
7
  10
 62.094114609666
  20
 110.46477304522
  30
0.0
  11
 64.094114609666
  21
 110.46477304522
  31
0.0
   0
LINE
   5
436
 100
AcDbEntity
   8
LEVEL001
 100
AcDbLine
   6
CONTINUOUS
  62
7
  10
 57.094114609666
  20
 110.46477304522
  30
0.0
  11
 59.094114609666
  21
 110.46477304522
  31
0.0
   0
LINE
   5
437
 100
AcDbEntity
   8
LEVEL001
 100
AcDbLine
   6
CONTINUOUS
  62
7
  10
 59.094114609666
  20
 121.00066408487
  30
0.0
  11
 59.094114609666
  21
 110.46477304522
  31
0.0
   0
LINE
   5
438
 100
AcDbEntity
   8
LEVEL001
 100
AcDbLine
   6
CONTINUOUS
  62
7
  10
 57.094114609666
  20
 110.46477304522
  30
0.0
  11
 57.094114609666
  21
 121.00066408487
  31
0.0
   0
LINE
   5
439
 100
AcDbEntity
   8
LEVEL001
 100
AcDbLine
   6
CONTINUOUS
  62
7
  10
 62.094114609666
  20
 110.46477304522
  30
0.0
  11
 62.094114609666
  21
 121.00066408487
  31
0.0
   0
LINE
   5
43A
 100
AcDbEntity
   8
LEVEL001
 100
AcDbLine
   6
CONTINUOUS
  62
7
  10
 64.094114609666
  20
 121.00066408487
  30
0.0
  11
 64.094114609666
  21
 110.46477304522
  31
0.0
   0
LINE
   5
43B
 100
AcDbEntity
   8
LEVEL001
 100
AcDbLine
   6
CONTINUOUS
  62
7
  10
 57.094114609666
  20
 139.24936266865
  30
0.0
  11
 57.094114609666
  21
 128.71347162899
  31
0.0
   0
LINE
   5
43C
 100
AcDbEntity
   8
LEVEL001
 100
AcDbLine
   6
CONTINUOUS
  62
7
  10
 59.094114609666
  20
 128.71347162899
  30
0.0
  11
 59.094114609666
  21
 139.24936266865
  31
0.0
   0
LINE
   5
43D
 100
AcDbEntity
   8
LEVEL001
 100
AcDbLine
   6
CONTINUOUS
  62
7
  10
 62.094114609666
  20
 139.24936266865
  30
0.0
  11
 62.094114609666
  21
 128.71347162899
  31
0.0
   0
LINE
   5
43E
 100
AcDbEntity
   8
LEVEL001
 100
AcDbLine
   6
CONTINUOUS
  62
7
  10
 64.094114609666
  20
 128.71347162899
  30
0.0
  11
 64.094114609666
  21
 139.24936266865
  31
0.0
   0
LINE
   5
43F
 100
AcDbEntity
   8
LEVEL001
 100
AcDbLine
   6
CONTINUOUS
  62
7
  10
 62.094114609666
  20
 139.24936266865
  30
0.0
  11
 64.094114609666
  21
 139.24936266865
  31
0.0
   0
LINE
   5
440
 100
AcDbEntity
   8
LEVEL001
 100
AcDbLine
   6
CONTINUOUS
  62
7
  10
 68.094114609666
  20
 106.85706785693
  30
0.0
  11
 68.094114609666
  21
 124.85706785693
  31
0.0
   0
LINE
   5
441
 100
AcDbEntity
   8
LEVEL001
 100
AcDbLine
   6
CONTINUOUS
  62
7
  10
 68.094114609666
  20
 142.85706785693
  30
0.0
  11
 68.094114609666
  21
 124.85706785693
  31
0.0
   0
LINE
   5
442
 100
AcDbEntity
   8
LEVEL001
 100
AcDbLine
   6
CONTINUOUS
  62
7
  10
 57.094114609666
  20
 139.24936266865
  30
0.0
  11
 59.094114609666
  21
 139.24936266865
  31
0.0
   0
LINE
   5
443
 100
AcDbEntity
   8
LEVEL001
 100
AcDbLine
   6
DOT
  62
2
  10
 68.094114609666
  20
 110.85706785693
  30
0.0
  11
 68.094114609666
  21
 111.95706785693
  31
0.0
   0
LINE
   5
444
 100
AcDbEntity
   8
LEVEL001
 100
AcDbLine
   6
CONTINUOUS
  62
7
  10
 70.094114609531
  20
 112.45706785693
  30
0.0
  11
 70.094114609531
  21
 124.85706785703
  31
0.0
   0
LINE
   5
445
 100
AcDbEntity
   8
LEVEL001
 100
AcDbLine
   6
DOT
  62
2
  10
 68.094114609666
  20
 137.75706785693
  30
0.0
  11
 68.094114609666
  21
 138.85706785693
  31
0.0
   0
LINE
   5
446
 100
AcDbEntity
   8
LEVEL001
 100
AcDbLine
   6
CONTINUOUS
  62
7
  10
 70.094114609531
  20
 137.25706785693
  30
0.0
  11
 70.094114609531
  21
 124.85706785703
  31
0.0
   0
POINT
   5
447
 100
AcDbEntity
   8
LEVEL001
 100
AcDbPoint
  62
7
  10
 70.094114609531
  20
 143.85706785708
  30
0.0
   0
LINE
   5
448
 100
AcDbEntity
   8
LEVEL001
 100
AcDbLine
   6
CONTINUOUS
  62
7
  10
 68.094114609531
  20
 105.85706785708
  30
0.0
  11
 68.094114609531
  21
 124.85706785708
  31
0.0
   0
LINE
   5
449
 100
AcDbEntity
   8
LEVEL001
 100
AcDbLine
   6
CONTINUOUS
  62
7
  10
 68.094114609531
  20
 124.85706785708
  30
0.0
  11
 68.094114609531
  21
 143.85706785708
  31
0.0
   0
LINE
   5
44A
 100
AcDbEntity
   8
LEVEL001
 100
AcDbLine
   6
CONTINUOUS
  62
7
  10
 69.594114609531
  20
 105.85706785703
  30
0.0
  11
 68.094114609531
  21
 105.85706785703
  31
0.0
   0
ARC
   5
44B
 100
AcDbEntity
   8
LEVEL001
   6
CONTINUOUS
  62
7
 100
AcDbCircle
  10
 69.594114609531
  20
 106.35706785703
  30
0.0
  40
 0.50000000000000
 100
AcDbArc
  50
 270.00000000000
  51
0.0
   0
POINT
   5
44C
 100
AcDbEntity
   8
LEVEL001
 100
AcDbPoint
  62
7
  10
 70.094114609531
  20
 105.85706785703
  30
0.0
   0
LINE
   5
44D
 100
AcDbEntity
   8
LEVEL001
 100
AcDbLine
   6
CONTINUOUS
  62
7
  10
 70.094114609531
  20
 124.85706785703
  30
0.0
  11
 70.094114609531
  21
 106.35706785703
  31
0.0
   0
LINE
   5
44E
 100
AcDbEntity
   8
LEVEL001
 100
AcDbLine
   6
CONTINUOUS
  62
7
  10
 70.094114609531
  20
 124.85706785703
  30
0.0
  11
 70.094114609531
  21
 143.35706785703
  31
0.0
   0
ARC
   5
44F
 100
AcDbEntity
   8
LEVEL001
   6
CONTINUOUS
  62
7
 100
AcDbCircle
  10
 69.594114609534
  20
 143.35706785703
  30
0.0
  40
 0.50000000000000
 100
AcDbArc
  50
0.0
  51
 90.000000000300
   0
POINT
   5
450
 100
AcDbEntity
   8
LEVEL001
 100
AcDbPoint
  62
7
  10
 70.094114609531
  20
 143.85706785703
  30
0.0
   0
LINE
   5
451
 100
AcDbEntity
   8
LEVEL001
 100
AcDbLine
   6
CONTINUOUS
  62
7
  10
 69.594114609531
  20
 143.85706785703
  30
0.0
  11
 68.094114609531
  21
 143.85706785703
  31
0.0
   0
LINE
   5
452
 100
AcDbEntity
   8
LEVEL001
 100
AcDbLine
   6
CONTINUOUS
  62
7
  10
 52.094114609531
  20
 113.55706785713
  30
0.0
  11
 52.094114609531
  21
 136.15706785713
  31
0.0
   0
LINE
   5
453
 100
AcDbEntity
   8
LEVEL001
 100
AcDbLine
   6
CONTINUOUS
  62
7
  10
 52.094114609531
  20
 138.75706785693
  30
0.0
  11
 52.094114609531
  21
 136.15706785713
  31
0.0
   0
ARC
   5
454
 100
AcDbEntity
   8
LEVEL001
   6
CONTINUOUS
  62
7
 100
AcDbCircle
  10
 53.094114609532
  20
 138.75706785693
  30
0.0
  40
 1.0000000000000
 100
AcDbArc
  50
 90.000000000025
  51
 180.00000000000
   0
POINT
   5
455
 100
AcDbEntity
   8
LEVEL001
 100
AcDbPoint
  62
7
  10
 52.094114609531
  20
 139.75706785693
  30
0.0
   0
LINE
   5
456
 100
AcDbEntity
   8
LEVEL001
 100
AcDbLine
   6
CONTINUOUS
  62
7
  10
 68.094114609666
  20
 139.75706785693
  30
0.0
  11
 53.094114609531
  21
 139.75706785693
  31
0.0
   0
LINE
   5
457
 100
AcDbEntity
   8
LEVEL001
 100
AcDbLine
   6
CONTINUOUS
  62
7
  10
 68.094114609666
  20
 109.95706785693
  30
0.0
  11
 53.094114609531
  21
 109.95706785693
  31
0.0
   0
ARC
   5
458
 100
AcDbEntity
   8
LEVEL001
   6
CONTINUOUS
  62
7
 100
AcDbCircle
  10
 53.094114609531
  20
 110.95706785693
  30
0.0
  40
 1.0000000000000
 100
AcDbArc
  50
 180.00000000001
  51
 270.00000000000
   0
POINT
   5
459
 100
AcDbEntity
   8
LEVEL001
 100
AcDbPoint
  62
7
  10
 52.094114609531
  20
 109.95706785693
  30
0.0
   0
LINE
   5
45A
 100
AcDbEntity
   8
LEVEL001
 100
AcDbLine
   6
CONTINUOUS
  62
7
  10
 52.094114609531
  20
 110.95706785693
  30
0.0
  11
 52.094114609531
  21
 113.55706785713
  31
0.0
   0
LINE
   5
45B
 100
AcDbEntity
   8
LEVEL001
 100
AcDbLine
   6
DOT
  62
2
  10
 67.094114609531
  20
 136.35706785693
  30
0.0
  11
 52.594114609531
  21
 136.35706785693
  31
0.0
   0
ARC
   5
45C
 100
AcDbEntity
   8
LEVEL001
   6
DOT
  62
2
 100
AcDbCircle
  10
 52.594114609534
  20
 136.85706785693
  30
0.0
  40
 0.50000000000000
 100
AcDbArc
  50
 180.00000000000
  51
 269.99999999975
   0
ARC
   5
45D
 100
AcDbEntity
   8
LEVEL001
   6
DOT
  62
2
 100
AcDbCircle
  10
 67.094114609531
  20
 135.85706785693
  30
0.0
  40
 0.50000000000000
 100
AcDbArc
  50
0.0
  51
 90.000000000000
   0
LINE
   5
45E
 100
AcDbEntity
   8
LEVEL001
 100
AcDbLine
   6
DOT
  62
2
  10
 67.594114609531
  20
 135.85706785693
  30
0.0
  11
 67.594114609531
  21
 113.85706785693
  31
0.0
   0
ARC
   5
45F
 100
AcDbEntity
   8
LEVEL001
   6
DOT
  62
2
 100
AcDbCircle
  10
 67.094114609532
  20
 113.85706785693
  30
0.0
  40
 0.50000000000000
 100
AcDbArc
  50
 269.99999999990
  51
0.0
   0
LINE
   5
460
 100
AcDbEntity
   8
LEVEL001
 100
AcDbLine
   6
DOT
  62
2
  10
 67.094114609531
  20
 113.35706785693
  30
0.0
  11
 52.594114609531
  21
 113.35706785693
  31
0.0
   0
ARC
   5
461
 100
AcDbEntity
   8
LEVEL001
   6
DOT
  62
2
 100
AcDbCircle
  10
 52.594114609532
  20
 112.85706785693
  30
0.0
  40
 0.50000000000000
 100
AcDbArc
  50
 90.000000000106
  51
 180.00000000000
   0
ARC
   5
462
 100
AcDbEntity
   8
LEVEL001
   6
DOT
  62
2
 100
AcDbCircle
  10
 62.394114609533
  20
 135.65706785722
  30
0.0
  40
 0.50000000000000
 100
AcDbArc
  50
0.0
  51
 90.000000000137
   0
POINT
   5
463
 100
AcDbEntity
   8
LEVEL001
 100
AcDbPoint
  62
2
  10
 62.894114609531
  20
 136.15706785722
  30
0.0
   0
LINE
   5
464
 100
AcDbEntity
   8
LEVEL001
 100
AcDbLine
   6
DOT
  62
2
  10
 62.894114609531
  20
 135.65706785722
  30
0.0
  11
 62.894114609531
  21
 124.85706785722
  31
0.0
   0
ARC
   5
465
 100
AcDbEntity
   8
LEVEL001
   6
DOT
  62
2
 100
AcDbCircle
  10
 64.244114609666
  20
 135.60706785727
  30
0.0
  40
 1.2000000000000
 100
AcDbArc
  50
0.0
  51
 180.00000000000
   0
ARC
   5
466
 100
AcDbEntity
   8
LEVEL001
   6
DOT
  62
2
 100
AcDbCircle
  10
 63.894114609531
  20
 135.40706785722
  30
0.0
  40
 1.0000000000000
 100
AcDbArc
  50
 180.00000000002
  51
 211.78833063174
   0
LINE
   5
467
 100
AcDbEntity
   8
LEVEL001
 100
AcDbLine
   6
DOT
  62
2
  10
 63.044114609666
  20
 135.60706785727
  30
0.0
  11
 63.044114609666
  21
 124.85706785708
  31
0.0
   0
POINT
   5
468
 100
AcDbEntity
   8
LEVEL001
 100
AcDbPoint
  62
2
  10
 66.594114609531
  20
 136.15706785722
  30
0.0
   0
LINE
   5
469
 100
AcDbEntity
   8
LEVEL001
 100
AcDbLine
   6
DOT
  62
2
  10
 66.594114609531
  20
 135.65706785722
  30
0.0
  11
 66.594114609531
  21
 133.15706785722
  31
0.0
   0
ARC
   5
46A
 100
AcDbEntity
   8
LEVEL001
   6
DOT
  62
2
 100
AcDbCircle
  10
 66.094114609533
  20
 135.65706785722
  30
0.0
  40
 0.50000000000000
 100
AcDbArc
  50
0.0
  51
 90.000000000215
   0
POINT
   5
46B
 100
AcDbEntity
   8
LEVEL001
 100
AcDbPoint
  62
2
  10
 66.594114609531
  20
 136.15706785722
  30
0.0
   0
ARC
   5
46C
 100
AcDbEntity
   8
LEVEL001
   6
DOT
  62
2
 100
AcDbCircle
  10
 66.094114609531
  20
 135.65706785722
  30
0.0
  40
 0.50000000000000
 100
AcDbArc
  50
 90.000000000000
  51
 179.99999999992
   0
POINT
   5
46D
 100
AcDbEntity
   8
LEVEL001
 100
AcDbPoint
  62
2
  10
 65.594114609531
  20
 136.15706785722
  30
0.0
   0
LINE
   5
46E
 100
AcDbEntity
   8
LEVEL001
 100
AcDbLine
   6
DOT
  62
2
  10
 65.594114609531
  20
 135.40706785722
  30
0.0
  11
 65.594114609531
  21
 135.65706785722
  31
0.0
   0
LINE
   5
46F
 100
AcDbEntity
   8
LEVEL001
 100
AcDbLine
   6
DOT
  62
2
  10
 65.594114609531
  20
 124.85706785722
  30
0.0
  11
 65.594114609531
  21
 135.40706785722
  31
0.0
   0
ARC
   5
470
 100
AcDbEntity
   8
LEVEL001
   6
DOT
  62
2
 100
AcDbCircle
  10
 64.594114609531
  20
 135.40706785722
  30
0.0
  40
 1.0000000000000
 100
AcDbArc
  50
 328.21166939751
  51
0.0
   0
LINE
   5
471
 100
AcDbEntity
   8
LEVEL001
 100
AcDbLine
   6
DOT
  62
2
  10
 65.444114609666
  20
 135.60706785727
  30
0.0
  11
 65.444114609666
  21
 124.85706785722
  31
0.0
   0
LINE
   5
472
 100
AcDbEntity
   8
LEVEL001
 100
AcDbLine
   6
DOT
  62
2
  10
 52.094114609531
  20
 136.15706785722
  30
0.0
  11
 62.394114609531
  21
 136.15706785722
  31
0.0
   0
LINE
   5
473
 100
AcDbEntity
   8
LEVEL001
 100
AcDbLine
   6
DOT
  62
2
  10
 66.594114609531
  20
 114.05706785722
  30
0.0
  11
 66.594114609531
  21
 116.55706785722
  31
0.0
   0
POINT
   5
474
 100
AcDbEntity
   8
LEVEL001
 100
AcDbPoint
  62
2
  10
 65.594114609531
  20
 115.30706785722
  30
0.0
   0
LINE
   5
475
 100
AcDbEntity
   8
LEVEL001
 100
AcDbLine
   6
DOT
  62
2
  10
 65.594114609531
  20
 114.30706785722
  30
0.0
  11
 65.594114609531
  21
 114.05706785722
  31
0.0
   0
ARC
   5
476
 100
AcDbEntity
   8
LEVEL001
   6
DOT
  62
2
 100
AcDbCircle
  10
 66.094114609531
  20
 114.05706785722
  30
0.0
  40
 0.50000000000000
 100
AcDbArc
  50
 180.00000000000
  51
0.0
   0
LINE
   5
477
 100
AcDbEntity
   8
LEVEL001
 100
AcDbLine
   6
DOT
  62
2
  10
 65.594114609531
  20
 114.05706785722
  30
0.0
  11
 65.594114609531
  21
 124.85706785722
  31
0.0
   0
ARC
   5
478
 100
AcDbEntity
   8
LEVEL001
   6
DOT
  62
2
 100
AcDbCircle
  10
 64.244114609666
  20
 114.10706785688
  30
0.0
  40
 1.2000000000000
 100
AcDbArc
  50
 180.00000000000
  51
0.0
   0
LINE
   5
479
 100
AcDbEntity
   8
LEVEL001
 100
AcDbLine
   6
DOT
  62
2
  10
 65.444114609666
  20
 114.10706785688
  30
0.0
  11
 65.444114609666
  21
 124.85706785693
  31
0.0
   0
ARC
   5
47A
 100
AcDbEntity
   8
LEVEL001
   6
DOT
  62
2
 100
AcDbCircle
  10
 64.594114609531
  20
 114.30706785721
  30
0.0
  40
 1.0000000000000
 100
AcDbArc
  50
 0.19215639163530E-9
  51
 31.788330602407
   0
POINT
   5
47B
 100
AcDbEntity
   8
LEVEL001
 100
AcDbPoint
  62
2
  10
 66.594114609531
  20
 113.55706785722
  30
0.0
   0
POINT
   5
47C
 100
AcDbEntity
   8
LEVEL001
 100
AcDbPoint
  62
2
  10
 65.594114609531
  20
 113.55706785722
  30
0.0
   0
ARC
   5
47D
 100
AcDbEntity
   8
LEVEL001
   6
DOT
  62
2
 100
AcDbCircle
  10
 65.594114609531
  20
 115.55706785717
  30
0.0
  40
 1.0000000000000
 100
AcDbArc
  50
 0.26055103950549E-10
  51
 90.000000000000
   0
LINE
   5
47E
 100
AcDbEntity
   8
LEVEL001
 100
AcDbLine
   6
DOT
  62
2
  10
 66.594114609531
  20
 133.15706785722
  30
0.0
  11
 66.594114609531
  21
 116.55706785722
  31
0.0
   0
LINE
   5
47F
 100
AcDbEntity
   8
LEVEL001
 100
AcDbLine
   6
DOT
  62
2
  10
 42.594114609531
  20
 116.55706785717
  30
0.0
  11
 65.594114609531
  21
 116.55706785717
  31
0.0
   0
POINT
   5
480
 100
AcDbEntity
   8
LEVEL001
 100
AcDbPoint
  62
2
  10
 62.894114609531
  20
 115.30706785722
  30
0.0
   0
ARC
   5
481
 100
AcDbEntity
   8
LEVEL001
   6
DOT
  62
2
 100
AcDbCircle
  10
 62.394114609531
  20
 114.05706785722
  30
0.0
  40
 0.50000000000000
 100
AcDbArc
  50
 270.00000000000
  51
0.0
   0
POINT
   5
482
 100
AcDbEntity
   8
LEVEL001
 100
AcDbPoint
  62
2
  10
 62.894114609531
  20
 113.55706785722
  30
0.0
   0
LINE
   5
483
 100
AcDbEntity
   8
LEVEL001
 100
AcDbLine
   6
DOT
  62
2
  10
 62.894114609531
  20
 114.05706785722
  30
0.0
  11
 62.894114609531
  21
 124.85706785722
  31
0.0
   0
LINE
   5
484
 100
AcDbEntity
   8
LEVEL001
 100
AcDbLine
   6
DOT
  62
2
  10
 63.044114609666
  20
 114.10706785688
  30
0.0
  11
 63.044114609666
  21
 124.85706785708
  31
0.0
   0
ARC
   5
485
 100
AcDbEntity
   8
LEVEL001
   6
DOT
  62
2
 100
AcDbCircle
  10
 63.894114609531
  20
 114.30706785722
  30
0.0
  40
 1.0000000000000
 100
AcDbArc
  50
 148.21166936826
  51
 180.00000000009
   0
LINE
   5
486
 100
AcDbEntity
   8
LEVEL001
 100
AcDbLine
   6
DOT
  62
2
  10
 52.094114609531
  20
 113.55706785722
  30
0.0
  11
 62.394114609531
  21
 113.55706785722
  31
0.0
   0
LINE
   5
487
 100
AcDbEntity
   8
LEVEL001
 100
AcDbLine
   6
DIVIDE
  62
2
  10
 76.094114609531
  20
 202.31659555168
  30
0.0
  11
 40.094114609531
  21
 202.31659555168
  31
0.0
   0
INSERT
   5
488
 100
AcDbEntity
   8
LEVEL001
 100
AcDbBlockReference
   2
BLOCK006
  10
0.0
  20
0.0
  30
0.0
   0
LINE
   5
489
 100
AcDbEntity
   8
LEVEL001
 100
AcDbLine
   6
CONTINUOUS
  62
7
  10
 76.094114609531
  20
 202.31659555168
  30
0.0
  11
 76.094114609531
  21
 198.86659555168
  31
0.0
   0
LINE
   5
48A
 100
AcDbEntity
   8
LEVEL001
 100
AcDbLine
   6
CONTINUOUS
  62
7
  10
 76.094114609531
  20
 202.31659555168
  30
0.0
  11
 76.094114609531
  21
 198.31659555168
  31
0.0
   0
LINE
   5
48B
 100
AcDbEntity
   8
LEVEL001
 100
AcDbLine
   6
DOT
  62
2
  10
 40.094114609531
  20
 203.31659555168
  30
0.0
  11
 40.094114609531
  21
 204.41659555168
  31
0.0
   0
LINE
   5
48C
 100
AcDbEntity
   8
LEVEL001
 100
AcDbLine
   6
CONTINUOUS
  62
7
  10
 38.094114609666
  20
 204.91659555168
  30
0.0
  11
 38.094114609666
  21
 217.31659555178
  31
0.0
   0
LINE
   5
48D
 100
AcDbEntity
   8
LEVEL001
 100
AcDbLine
   6
CONTINUOUS
  62
7
  10
 38.094114609666
  20
 229.71659555168
  30
0.0
  11
 38.094114609666
  21
 217.31659555178
  31
0.0
   0
POINT
   5
48E
 100
AcDbEntity
   8
LEVEL001
 100
AcDbPoint
  62
7
  10
 38.094114609666
  20
 236.31659555182
  30
0.0
   0
LINE
   5
48F
 100
AcDbEntity
   8
LEVEL001
 100
AcDbLine
   6
CONTINUOUS
  62
7
  10
 38.594114609666
  20
 198.31659555178
  30
0.0
  11
 40.094114609666
  21
 198.31659555178
  31
0.0
   0
ARC
   5
490
 100
AcDbEntity
   8
LEVEL001
   6
CONTINUOUS
  62
7
 100
AcDbCircle
  10
 38.594114609666
  20
 198.81659555178
  30
0.0
  40
 0.50000000000000
 100
AcDbArc
  50
 179.99999999967
  51
 270.00000000000
   0
POINT
   5
491
 100
AcDbEntity
   8
LEVEL001
 100
AcDbPoint
  62
7
  10
 38.094114609666
  20
 198.31659555178
  30
0.0
   0
LINE
   5
492
 100
AcDbEntity
   8
LEVEL001
 100
AcDbLine
   6
CONTINUOUS
  62
7
  10
 38.094114609666
  20
 217.31659555178
  30
0.0
  11
 38.094114609666
  21
 198.81659555178
  31
0.0
   0
LINE
   5
493
 100
AcDbEntity
   8
LEVEL001
 100
AcDbLine
   6
CONTINUOUS
  62
7
  10
 38.094114609666
  20
 217.31659555178
  30
0.0
  11
 38.094114609666
  21
 235.81659555178
  31
0.0
   0
ARC
   5
494
 100
AcDbEntity
   8
LEVEL001
   6
CONTINUOUS
  62
7
 100
AcDbCircle
  10
 38.594114609664
  20
 235.81659555178
  30
0.0
  40
 0.50000000000000
 100
AcDbArc
  50
 89.999999999824
  51
 180.00000000000
   0
POINT
   5
495
 100
AcDbEntity
   8
LEVEL001
 100
AcDbPoint
  62
7
  10
 38.094114609666
  20
 236.31659555178
  30
0.0
   0
LINE
   5
496
 100
AcDbEntity
   8
LEVEL001
 100
AcDbLine
   6
CONTINUOUS
  62
7
  10
 38.594114609666
  20
 236.31659555178
  30
0.0
  11
 40.094114609666
  21
 236.31659555178
  31
0.0
   0
LINE
   5
497
 100
AcDbEntity
   8
LEVEL001
 100
AcDbLine
   6
DOT
  62
2
  10
 49.094114609666
  20
 230.21659555182
  30
0.0
  11
 49.094114609666
  21
 232.21659555182
  31
0.0
   0
LINE
   5
498
 100
AcDbEntity
   8
LEVEL001
 100
AcDbLine
   6
DOT
  62
2
  10
 40.094114609666
  20
 204.41659555172
  30
0.0
  11
 40.094114609666
  21
 203.71659555182
  31
0.0
   0
ARC
   5
499
 100
AcDbEntity
   8
LEVEL001
   6
CONTINUOUS
  62
7
 100
AcDbCircle
  10
 50.094114609531
  20
 203.41659555182
  30
0.0
  40
 1.0000000000000
 100
AcDbArc
  50
 270.00000000000
  51
 0.97706639814559E-11
   0
POINT
   5
49A
 100
AcDbEntity
   8
LEVEL001
 100
AcDbPoint
  62
7
  10
 51.094114609531
  20
 202.41659555182
  30
0.0
   0
ARC
   5
49B
 100
AcDbEntity
   8
LEVEL001
   6
CONTINUOUS
  62
7
 100
AcDbCircle
  10
 52.094114609531
  20
 229.61659555182
  30
0.0
  40
 1.0000000000000
 100
AcDbArc
  50
 179.99999999995
  51
 270.00000000000
   0
POINT
   5
49C
 100
AcDbEntity
   8
LEVEL001
 100
AcDbPoint
  62
7
  10
 51.094114609531
  20
 228.61659555182
  30
0.0
   0
ARC
   5
49D
 100
AcDbEntity
   8
LEVEL001
   6
CONTINUOUS
  62
7
 100
AcDbCircle
  10
 52.094114609533
  20
 205.01659555182
  30
0.0
  40
 1.0000000000000
 100
AcDbArc
  50
 90.000000000117
  51
 180.00000000000
   0
POINT
   5
49E
 100
AcDbEntity
   8
LEVEL001
 100
AcDbPoint
  62
7
  10
 51.094114609531
  20
 206.01659555182
  30
0.0
   0
ARC
   5
49F
 100
AcDbEntity
   8
LEVEL001
   6
CONTINUOUS
  62
7
 100
AcDbCircle
  10
 50.094114609534
  20
 231.21659555182
  30
0.0
  40
 1.0000000000000
 100
AcDbArc
  50
0.0
  51
 90.000000000132
   0
POINT
   5
4A0
 100
AcDbEntity
   8
LEVEL001
 100
AcDbPoint
  62
7
  10
 51.094114609531
  20
 232.21659555182
  30
0.0
   0
LINE
   5
4A1
 100
AcDbEntity
   8
LEVEL001
 100
AcDbLine
   6
CONTINUOUS
  62
7
  10
 51.094114609531
  20
 231.21659555182
  30
0.0
  11
 51.094114609531
  21
 217.31659555182
  31
0.0
   0
LINE
   5
4A2
 100
AcDbEntity
   8
LEVEL001
 100
AcDbLine
   6
CONTINUOUS
  62
7
  10
 51.094114609531
  20
 203.41659555182
  30
0.0
  11
 51.094114609531
  21
 217.31659555182
  31
0.0
   0
LINE
   5
4A3
 100
AcDbEntity
   8
LEVEL001
 100
AcDbLine
   6
CONTINUOUS
  62
7
  10
 44.594114609531
  20
 213.46019177976
  30
0.0
  11
 44.594114609531
  21
 202.92430074011
  31
0.0
   0
LINE
   5
4A4
 100
AcDbEntity
   8
LEVEL001
 100
AcDbLine
   6
CONTINUOUS
  62
7
  10
 44.594114609531
  20
 211.83737571200
  30
0.0
  11
 46.594114609531
  21
 213.46019177978
  31
0.0
   0
LINE
   5
4A5
 100
AcDbEntity
   8
LEVEL001
 100
AcDbLine
   6
CONTINUOUS
  62
7
  10
 46.594114609531
  20
 202.92430074011
  30
0.0
  11
 44.594114609531
  21
 202.92430074011
  31
0.0
   0
LINE
   5
4A6
 100
AcDbEntity
   8
LEVEL001
 100
AcDbLine
   6
CONTINUOUS
  62
7
  10
 46.594114609531
  20
 231.70889036354
  30
0.0
  11
 46.594114609531
  21
 221.17299932388
  31
0.0
   0
LINE
   5
4A7
 100
AcDbEntity
   8
LEVEL001
 100
AcDbLine
   6
CONTINUOUS
  62
7
  10
 44.594114609531
  20
 221.17299932388
  30
0.0
  11
 44.594114609531
  21
 231.70889036354
  31
0.0
   0
LINE
   5
4A8
 100
AcDbEntity
   8
LEVEL001
 100
AcDbLine
   6
CONTINUOUS
  62
7
  10
 44.594114609531
  20
 221.17299932386
  30
0.0
  11
 46.594114609531
  21
 221.17299932386
  31
0.0
   0
LINE
   5
4A9
 100
AcDbEntity
   8
LEVEL001
 100
AcDbLine
   6
CONTINUOUS
  62
7
  10
 44.594114609531
  20
 222.79581539165
  30
0.0
  11
 46.594114609531
  21
 221.17299932386
  31
0.0
   0
LINE
   5
4AA
 100
AcDbEntity
   8
LEVEL001
 100
AcDbLine
   6
CONTINUOUS
  62
7
  10
 46.594114609531
  20
 231.70889036354
  30
0.0
  11
 44.594114609531
  21
 231.70889036354
  31
0.0
   0
LINE
   5
4AB
 100
AcDbEntity
   8
LEVEL001
 100
AcDbLine
   6
CONTINUOUS
  62
7
  10
 46.594114609531
  20
 202.92430074011
  30
0.0
  11
 46.594114609531
  21
 213.46019177976
  31
0.0
   0
LINE
   5
4AC
 100
AcDbEntity
   8
LEVEL001
 100
AcDbLine
   6
CONTINUOUS
  62
7
  10
 44.594114609531
  20
 213.46019177978
  30
0.0
  11
 46.594114609531
  21
 213.46019177978
  31
0.0
   0
LINE
   5
4AD
 100
AcDbEntity
   8
LEVEL001
 100
AcDbLine
   6
CONTINUOUS
  62
7
  10
 44.094114609666
  20
 231.35262063018
  30
0.0
  11
 44.094114609666
  21
 231.21659555192
  31
0.0
   0
LINE
   5
4AE
 100
AcDbEntity
   8
LEVEL001
 100
AcDbLine
   6
CONTINUOUS
  62
7
  10
 40.094114609531
  20
 232.21659555182
  30
0.0
  11
 50.094114609531
  21
 232.21659555182
  31
0.0
   0
LINE
   5
4AF
 100
AcDbEntity
   8
LEVEL001
 100
AcDbLine
   6
CONTINUOUS
  62
7
  10
 40.094114609531
  20
 202.41659555182
  30
0.0
  11
 50.094114609531
  21
 202.41659555182
  31
0.0
   0
LINE
   5
4B0
 100
AcDbEntity
   8
LEVEL001
 100
AcDbLine
   6
CONTINUOUS
  62
7
  10
 40.094114609531
  20
 236.31659555178
  30
0.0
  11
 40.094114609531
  21
 217.31659555168
  31
0.0
   0
LINE
   5
4B1
 100
AcDbEntity
   8
LEVEL001
 100
AcDbLine
   6
CONTINUOUS
  62
7
  10
 40.094114609531
  20
 198.31659555178
  30
0.0
  11
 40.094114609531
  21
 217.31659555168
  31
0.0
   0
ARC
   5
4B2
 100
AcDbEntity
   8
LEVEL001
   6
DOT
  62
2
 100
AcDbCircle
  10
 42.594114609533
  20
 223.61659555178
  30
0.0
  40
 2.0000000000000
 100
AcDbArc
  50
 90.000000000037
  51
 180.00000000000
   0
LINE
   5
4B3
 100
AcDbEntity
   8
LEVEL001
 100
AcDbLine
   6
DOT
  62
2
  10
 40.594114609531
  20
 223.61659555178
  30
0.0
  11
 40.594114609531
  21
 211.01659555178
  31
0.0
   0
ARC
   5
4B4
 100
AcDbEntity
   8
LEVEL001
   6
DOT
  62
2
 100
AcDbCircle
  10
 42.594114609531
  20
 211.01659555158
  30
0.0
  40
 2.0000000000000
 100
AcDbArc
  50
 180.00000000000
  51
 270.00000000002
   0
LINE
   5
4B5
 100
AcDbEntity
   8
LEVEL001
 100
AcDbLine
   6
DOT
  62
2
  10
 42.594114609531
  20
 209.01659555178
  30
0.0
  11
 65.594114609531
  21
 209.01659555178
  31
0.0
   0
LINE
   5
4B6
 100
AcDbEntity
   8
LEVEL001
 100
AcDbLine
   6
DOT
  62
2
  10
 42.594114609531
  20
 225.61659555178
  30
0.0
  11
 65.594114609531
  21
 225.61659555178
  31
0.0
   0
LINE
   5
4B7
 100
AcDbEntity
   8
LEVEL001
 100
AcDbLine
   6
DIVIDE
  62
1
  10
 43.594114609531
  20
 229.20818922133
  30
0.0
  11
 43.594114609531
  21
 222.31659555182
  31
0.0
   0
LINE
   5
4B8
 100
AcDbEntity
   8
LEVEL001
 100
AcDbLine
   6
DIVIDE
  62
1
  10
 42.594114609531
  20
 222.31659555182
  30
0.0
  11
 42.594114609531
  21
 229.20818922133
  31
0.0
   0
LINE
   5
4B9
 100
AcDbEntity
   8
LEVEL001
 100
AcDbLine
   6
DIVIDE
  62
1
  10
 44.094114609531
  20
 222.31659555182
  30
0.0
  11
 44.094114609531
  21
 231.35262063018
  31
0.0
   0
LINE
   5
4BA
 100
AcDbEntity
   8
LEVEL001
 100
AcDbLine
   6
DIVIDE
  62
1
  10
 42.094114609666
  20
 231.21659555192
  30
0.0
  11
 42.094114609666
  21
 222.31659555182
  31
0.0
   0
LINE
   5
4BB
 100
AcDbEntity
   8
LEVEL001
 100
AcDbLine
   6
DIVIDE
  62
1
  10
 42.094114609666
  20
 222.31659555182
  30
0.0
  11
 44.094114609531
  21
 222.31659555182
  31
0.0
   0
LINE
   5
4BC
 100
AcDbEntity
   8
LEVEL001
 100
AcDbLine
   6
DIVIDE
  62
1
  10
 42.094114609666
  20
 231.35262063018
  30
0.0
  11
 42.094114609666
  21
 231.21659555192
  31
0.0
   0
LINE
   5
4BD
 100
AcDbEntity
   8
LEVEL001
 100
AcDbLine
   6
DIVIDE
  62
1
  10
 43.594114609531
  20
 229.20818922133
  30
0.0
  11
 44.094114609666
  21
 231.35262063018
  31
0.0
   0
LINE
   5
4BE
 100
AcDbEntity
   8
LEVEL001
 100
AcDbLine
   6
DIVIDE
  62
1
  10
 42.594114609531
  20
 229.20818922133
  30
0.0
  11
 42.094114609666
  21
 231.35262063018
  31
0.0
   0
LINE
   5
4BF
 100
AcDbEntity
   8
LEVEL001
 100
AcDbLine
   6
DIVIDE
  62
1
  10
 44.094114609666
  20
 231.35262063018
  30
0.0
  11
 42.094114609666
  21
 231.35262063018
  31
0.0
   0
LINE
   5
4C0
 100
AcDbEntity
   8
LEVEL001
 100
AcDbLine
   6
DIVIDE
  62
1
  10
 47.094114609666
  20
 231.21659555192
  30
0.0
  11
 47.094114609666
  21
 222.31659555182
  31
0.0
   0
LINE
   5
4C1
 100
AcDbEntity
   8
LEVEL001
 100
AcDbLine
   6
DIVIDE
  62
1
  10
 47.094114609666
  20
 231.35262063018
  30
0.0
  11
 47.094114609666
  21
 231.21659555192
  31
0.0
   0
LINE
   5
4C2
 100
AcDbEntity
   8
LEVEL001
 100
AcDbLine
   6
DIVIDE
  62
1
  10
 47.094114609666
  20
 231.35262063018
  30
0.0
  11
 49.094114609666
  21
 231.35262063018
  31
0.0
   0
LINE
   5
4C3
 100
AcDbEntity
   8
LEVEL001
 100
AcDbLine
   6
DIVIDE
  62
1
  10
 47.594114609532
  20
 229.20818922133
  30
0.0
  11
 47.094114609666
  21
 231.35262063018
  31
0.0
   0
LINE
   5
4C4
 100
AcDbEntity
   8
LEVEL001
 100
AcDbLine
   6
DIVIDE
  62
1
  10
 47.094114609666
  20
 222.31659555182
  30
0.0
  11
 49.094114609532
  21
 222.31659555182
  31
0.0
   0
LINE
   5
4C5
 100
AcDbEntity
   8
LEVEL001
 100
AcDbLine
   6
DIVIDE
  62
1
  10
 47.594114609532
  20
 222.31659555182
  30
0.0
  11
 47.594114609532
  21
 229.20818922133
  31
0.0
   0
LINE
   5
4C6
 100
AcDbEntity
   8
LEVEL001
 100
AcDbLine
   6
DIVIDE
  62
1
  10
 48.594114609532
  20
 229.20818922133
  30
0.0
  11
 48.594114609532
  21
 222.31659555182
  31
0.0
   0
LINE
   5
4C7
 100
AcDbEntity
   8
LEVEL001
 100
AcDbLine
   6
DIVIDE
  62
1
  10
 49.094114609532
  20
 222.31659555182
  30
0.0
  11
 49.094114609532
  21
 231.35262063018
  31
0.0
   0
LINE
   5
4C8
 100
AcDbEntity
   8
LEVEL001
 100
AcDbLine
   6
DIVIDE
  62
1
  10
 48.094114609532
  20
 229.20818922133
  30
0.0
  11
 48.594114609532
  21
 229.20818922133
  31
0.0
   0
LINE
   5
4C9
 100
AcDbEntity
   8
LEVEL001
 100
AcDbLine
   6
DIVIDE
  62
1
  10
 48.594114609532
  20
 229.20818922133
  30
0.0
  11
 49.094114609666
  21
 231.35262063018
  31
0.0
   0
LINE
   5
4CA
 100
AcDbEntity
   8
LEVEL001
 100
AcDbLine
   6
DIVIDE
  62
1
  10
 48.094114609532
  20
 229.20818922133
  30
0.0
  11
 47.594114609532
  21
 229.20818922133
  31
0.0
   0
LINE
   5
4CB
 100
AcDbEntity
   8
LEVEL001
 100
AcDbLine
   6
DIVIDE
  62
1
  10
 43.094114609531
  20
 229.20818922133
  30
0.0
  11
 43.594114609531
  21
 229.20818922133
  31
0.0
   0
LINE
   5
4CC
 100
AcDbEntity
   8
LEVEL001
 100
AcDbLine
   6
DIVIDE
  62
1
  10
 43.094114609531
  20
 229.20818922133
  30
0.0
  11
 42.594114609531
  21
 229.20818922133
  31
0.0
   0
LINE
   5
4CD
 100
AcDbEntity
   8
LEVEL001
 100
AcDbLine
   6
DIVIDE
  62
1
  10
 43.594114609531
  20
 205.42500188232
  30
0.0
  11
 43.594114609531
  21
 212.31659555182
  31
0.0
   0
LINE
   5
4CE
 100
AcDbEntity
   8
LEVEL001
 100
AcDbLine
   6
DIVIDE
  62
1
  10
 42.594114609531
  20
 212.31659555182
  30
0.0
  11
 42.594114609531
  21
 205.42500188232
  31
0.0
   0
LINE
   5
4CF
 100
AcDbEntity
   8
LEVEL001
 100
AcDbLine
   6
DIVIDE
  62
1
  10
 44.094114609531
  20
 212.31659555182
  30
0.0
  11
 44.094114609531
  21
 203.28057047347
  31
0.0
   0
LINE
   5
4D0
 100
AcDbEntity
   8
LEVEL001
 100
AcDbLine
   6
DIVIDE
  62
1
  10
 42.094114609666
  20
 203.41659555172
  30
0.0
  11
 42.094114609666
  21
 212.31659555182
  31
0.0
   0
LINE
   5
4D1
 100
AcDbEntity
   8
LEVEL001
 100
AcDbLine
   6
DIVIDE
  62
1
  10
 42.094114609666
  20
 212.31659555182
  30
0.0
  11
 44.094114609531
  21
 212.31659555182
  31
0.0
   0
LINE
   5
4D2
 100
AcDbEntity
   8
LEVEL001
 100
AcDbLine
   6
DIVIDE
  62
1
  10
 47.094114609666
  20
 203.41659555172
  30
0.0
  11
 47.094114609666
  21
 212.31659555182
  31
0.0
   0
LINE
   5
4D3
 100
AcDbEntity
   8
LEVEL001
 100
AcDbLine
   6
DIVIDE
  62
1
  10
 47.094114609666
  20
 212.31659555182
  30
0.0
  11
 49.094114609532
  21
 212.31659555182
  31
0.0
   0
LINE
   5
4D4
 100
AcDbEntity
   8
LEVEL001
 100
AcDbLine
   6
DIVIDE
  62
1
  10
 47.594114609532
  20
 212.31659555182
  30
0.0
  11
 47.594114609532
  21
 205.42500188232
  31
0.0
   0
LINE
   5
4D5
 100
AcDbEntity
   8
LEVEL001
 100
AcDbLine
   6
DIVIDE
  62
1
  10
 48.594114609532
  20
 205.42500188232
  30
0.0
  11
 48.594114609532
  21
 212.31659555182
  31
0.0
   0
LINE
   5
4D6
 100
AcDbEntity
   8
LEVEL001
 100
AcDbLine
   6
DIVIDE
  62
1
  10
 49.094114609666
  20
 203.28057047347
  30
0.0
  11
 49.094114609666
  21
 212.31659555182
  31
0.0
   0
LINE
   5
4D7
 100
AcDbEntity
   8
LEVEL001
 100
AcDbLine
   6
DIVIDE
  62
1
  10
 47.094114609666
  20
 203.28057047347
  30
0.0
  11
 47.094114609666
  21
 203.41659555172
  31
0.0
   0
LINE
   5
4D8
 100
AcDbEntity
   8
LEVEL001
 100
AcDbLine
   6
DIVIDE
  62
1
  10
 47.094114609666
  20
 203.28057047347
  30
0.0
  11
 49.094114609666
  21
 203.28057047347
  31
0.0
   0
LINE
   5
4D9
 100
AcDbEntity
   8
LEVEL001
 100
AcDbLine
   6
DIVIDE
  62
1
  10
 48.094114609532
  20
 205.42500188232
  30
0.0
  11
 48.594114609532
  21
 205.42500188232
  31
0.0
   0
LINE
   5
4DA
 100
AcDbEntity
   8
LEVEL001
 100
AcDbLine
   6
DIVIDE
  62
1
  10
 48.594114609532
  20
 205.42500188232
  30
0.0
  11
 49.094114609666
  21
 203.28057047347
  31
0.0
   0
LINE
   5
4DB
 100
AcDbEntity
   8
LEVEL001
 100
AcDbLine
   6
DIVIDE
  62
1
  10
 48.094114609532
  20
 205.42500188232
  30
0.0
  11
 47.594114609532
  21
 205.42500188232
  31
0.0
   0
LINE
   5
4DC
 100
AcDbEntity
   8
LEVEL001
 100
AcDbLine
   6
DIVIDE
  62
1
  10
 47.594114609532
  20
 205.42500188232
  30
0.0
  11
 47.094114609666
  21
 203.28057047347
  31
0.0
   0
LINE
   5
4DD
 100
AcDbEntity
   8
LEVEL001
 100
AcDbLine
   6
DIVIDE
  62
1
  10
 42.094114609666
  20
 203.28057047347
  30
0.0
  11
 42.094114609666
  21
 203.41659555172
  31
0.0
   0
LINE
   5
4DE
 100
AcDbEntity
   8
LEVEL001
 100
AcDbLine
   6
DIVIDE
  62
1
  10
 44.094114609666
  20
 203.28057047347
  30
0.0
  11
 44.094114609666
  21
 203.41659555172
  31
0.0
   0
LINE
   5
4DF
 100
AcDbEntity
   8
LEVEL001
 100
AcDbLine
   6
DIVIDE
  62
1
  10
 43.094114609531
  20
 205.42500188232
  30
0.0
  11
 43.594114609531
  21
 205.42500188232
  31
0.0
   0
LINE
   5
4E0
 100
AcDbEntity
   8
LEVEL001
 100
AcDbLine
   6
DIVIDE
  62
1
  10
 43.594114609531
  20
 205.42500188232
  30
0.0
  11
 44.094114609666
  21
 203.28057047347
  31
0.0
   0
LINE
   5
4E1
 100
AcDbEntity
   8
LEVEL001
 100
AcDbLine
   6
DIVIDE
  62
1
  10
 42.594114609531
  20
 205.42500188232
  30
0.0
  11
 42.094114609666
  21
 203.28057047347
  31
0.0
   0
LINE
   5
4E2
 100
AcDbEntity
   8
LEVEL001
 100
AcDbLine
   6
DIVIDE
  62
1
  10
 43.094114609531
  20
 205.42500188232
  30
0.0
  11
 42.594114609531
  21
 205.42500188232
  31
0.0
   0
LINE
   5
4E3
 100
AcDbEntity
   8
LEVEL001
 100
AcDbLine
   6
DIVIDE
  62
1
  10
 44.094114609666
  20
 203.28057047347
  30
0.0
  11
 42.094114609666
  21
 203.28057047347
  31
0.0
   0
LINE
   5
4E4
 100
AcDbEntity
   8
LEVEL001
 100
AcDbLine
   6
CONTINUOUS
  62
7
  10
 72.094114609666
  20
 213.46019177948
  30
0.0
  11
 70.094114609666
  21
 213.46019177948
  31
0.0
   0
LINE
   5
4E5
 100
AcDbEntity
   8
LEVEL001
 100
AcDbLine
   6
CONTINUOUS
  62
7
  10
 72.094114609666
  20
 211.83737571171
  30
0.0
  11
 70.094114609666
  21
 213.46019177948
  31
0.0
   0
LINE
   5
4E6
 100
AcDbEntity
   8
LEVEL001
 100
AcDbLine
   6
CONTINUOUS
  62
7
  10
 67.094114609666
  20
 211.83737571171
  30
0.0
  11
 65.094114609666
  21
 213.46019177948
  31
0.0
   0
LINE
   5
4E7
 100
AcDbEntity
   8
LEVEL001
 100
AcDbLine
   6
CONTINUOUS
  62
7
  10
 67.094114609666
  20
 213.46019177948
  30
0.0
  11
 65.094114609666
  21
 213.46019177948
  31
0.0
   0
LINE
   5
4E8
 100
AcDbEntity
   8
LEVEL001
 100
AcDbLine
   6
CONTINUOUS
  62
7
  10
 72.094114609666
  20
 221.17299932358
  30
0.0
  11
 70.094114609666
  21
 221.17299932358
  31
0.0
   0
LINE
   5
4E9
 100
AcDbEntity
   8
LEVEL001
 100
AcDbLine
   6
CONTINUOUS
  62
7
  10
 72.094114609666
  20
 222.79581539136
  30
0.0
  11
 70.094114609666
  21
 221.17299932358
  31
0.0
   0
LINE
   5
4EA
 100
AcDbEntity
   8
LEVEL001
 100
AcDbLine
   6
CONTINUOUS
  62
7
  10
 67.094114609666
  20
 221.17299932358
  30
0.0
  11
 65.094114609666
  21
 221.17299932358
  31
0.0
   0
LINE
   5
4EB
 100
AcDbEntity
   8
LEVEL001
 100
AcDbLine
   6
CONTINUOUS
  62
7
  10
 67.094114609666
  20
 222.79581539136
  30
0.0
  11
 65.094114609666
  21
 221.17299932358
  31
0.0
   0
LINE
   5
4EC
 100
AcDbEntity
   8
LEVEL001
 100
AcDbLine
   6
CONTINUOUS
  62
7
  10
 70.094114609666
  20
 202.92430073982
  30
0.0
  11
 72.094114609666
  21
 202.92430073982
  31
0.0
   0
LINE
   5
4ED
 100
AcDbEntity
   8
LEVEL001
 100
AcDbLine
   6
CONTINUOUS
  62
7
  10
 65.094114609666
  20
 202.92430073982
  30
0.0
  11
 67.094114609666
  21
 202.92430073982
  31
0.0
   0
LINE
   5
4EE
 100
AcDbEntity
   8
LEVEL001
 100
AcDbLine
   6
CONTINUOUS
  62
7
  10
 67.094114609666
  20
 213.46019177948
  30
0.0
  11
 67.094114609666
  21
 202.92430073982
  31
0.0
   0
LINE
   5
4EF
 100
AcDbEntity
   8
LEVEL001
 100
AcDbLine
   6
CONTINUOUS
  62
7
  10
 65.094114609666
  20
 202.92430073982
  30
0.0
  11
 65.094114609666
  21
 213.46019177948
  31
0.0
   0
LINE
   5
4F0
 100
AcDbEntity
   8
LEVEL001
 100
AcDbLine
   6
CONTINUOUS
  62
7
  10
 70.094114609666
  20
 202.92430073982
  30
0.0
  11
 70.094114609666
  21
 213.46019177948
  31
0.0
   0
LINE
   5
4F1
 100
AcDbEntity
   8
LEVEL001
 100
AcDbLine
   6
CONTINUOUS
  62
7
  10
 72.094114609666
  20
 213.46019177948
  30
0.0
  11
 72.094114609666
  21
 202.92430073982
  31
0.0
   0
LINE
   5
4F2
 100
AcDbEntity
   8
LEVEL001
 100
AcDbLine
   6
CONTINUOUS
  62
7
  10
 65.094114609666
  20
 231.70889036325
  30
0.0
  11
 65.094114609666
  21
 221.17299932359
  31
0.0
   0
LINE
   5
4F3
 100
AcDbEntity
   8
LEVEL001
 100
AcDbLine
   6
CONTINUOUS
  62
7
  10
 67.094114609666
  20
 221.17299932359
  30
0.0
  11
 67.094114609666
  21
 231.70889036325
  31
0.0
   0
LINE
   5
4F4
 100
AcDbEntity
   8
LEVEL001
 100
AcDbLine
   6
CONTINUOUS
  62
7
  10
 70.094114609666
  20
 231.70889036325
  30
0.0
  11
 70.094114609666
  21
 221.17299932359
  31
0.0
   0
LINE
   5
4F5
 100
AcDbEntity
   8
LEVEL001
 100
AcDbLine
   6
CONTINUOUS
  62
7
  10
 72.094114609666
  20
 221.17299932359
  30
0.0
  11
 72.094114609666
  21
 231.70889036325
  31
0.0
   0
LINE
   5
4F6
 100
AcDbEntity
   8
LEVEL001
 100
AcDbLine
   6
CONTINUOUS
  62
7
  10
 70.094114609666
  20
 231.70889036325
  30
0.0
  11
 72.094114609666
  21
 231.70889036325
  31
0.0
   0
LINE
   5
4F7
 100
AcDbEntity
   8
LEVEL001
 100
AcDbLine
   6
CONTINUOUS
  62
7
  10
 76.094114609666
  20
 199.31659555154
  30
0.0
  11
 76.094114609666
  21
 217.31659555154
  31
0.0
   0
LINE
   5
4F8
 100
AcDbEntity
   8
LEVEL001
 100
AcDbLine
   6
CONTINUOUS
  62
7
  10
 76.094114609666
  20
 235.31659555154
  30
0.0
  11
 76.094114609666
  21
 217.31659555154
  31
0.0
   0
LINE
   5
4F9
 100
AcDbEntity
   8
LEVEL001
 100
AcDbLine
   6
CONTINUOUS
  62
7
  10
 65.094114609666
  20
 231.70889036325
  30
0.0
  11
 67.094114609666
  21
 231.70889036325
  31
0.0
   0
LINE
   5
4FA
 100
AcDbEntity
   8
LEVEL001
 100
AcDbLine
   6
DOT
  62
2
  10
 76.094114609666
  20
 203.31659555154
  30
0.0
  11
 76.094114609666
  21
 204.41659555154
  31
0.0
   0
LINE
   5
4FB
 100
AcDbEntity
   8
LEVEL001
 100
AcDbLine
   6
CONTINUOUS
  62
7
  10
 78.094114609531
  20
 204.91659555154
  30
0.0
  11
 78.094114609531
  21
 217.31659555164
  31
0.0
   0
LINE
   5
4FC
 100
AcDbEntity
   8
LEVEL001
 100
AcDbLine
   6
DOT
  62
2
  10
 76.094114609666
  20
 230.21659555154
  30
0.0
  11
 76.094114609666
  21
 231.31659555154
  31
0.0
   0
LINE
   5
4FD
 100
AcDbEntity
   8
LEVEL001
 100
AcDbLine
   6
CONTINUOUS
  62
7
  10
 78.094114609531
  20
 229.71659555154
  30
0.0
  11
 78.094114609531
  21
 217.31659555164
  31
0.0
   0
POINT
   5
4FE
 100
AcDbEntity
   8
LEVEL001
 100
AcDbPoint
  62
7
  10
 78.094114609531
  20
 236.31659555168
  30
0.0
   0
LINE
   5
4FF
 100
AcDbEntity
   8
LEVEL001
 100
AcDbLine
   6
CONTINUOUS
  62
7
  10
 76.094114609531
  20
 198.31659555168
  30
0.0
  11
 76.094114609531
  21
 217.31659555168
  31
0.0
   0
LINE
   5
500
 100
AcDbEntity
   8
LEVEL001
 100
AcDbLine
   6
CONTINUOUS
  62
7
  10
 76.094114609531
  20
 217.31659555168
  30
0.0
  11
 76.094114609531
  21
 236.31659555168
  31
0.0
   0
LINE
   5
501
 100
AcDbEntity
   8
LEVEL001
 100
AcDbLine
   6
CONTINUOUS
  62
7
  10
 77.594114609531
  20
 198.31659555164
  30
0.0
  11
 76.094114609531
  21
 198.31659555164
  31
0.0
   0
ARC
   5
502
 100
AcDbEntity
   8
LEVEL001
   6
CONTINUOUS
  62
7
 100
AcDbCircle
  10
 77.594114609531
  20
 198.81659555164
  30
0.0
  40
 0.50000000000000
 100
AcDbArc
  50
 270.00000000000
  51
0.0
   0
POINT
   5
503
 100
AcDbEntity
   8
LEVEL001
 100
AcDbPoint
  62
7
  10
 78.094114609531
  20
 198.31659555164
  30
0.0
   0
LINE
   5
504
 100
AcDbEntity
   8
LEVEL001
 100
AcDbLine
   6
CONTINUOUS
  62
7
  10
 78.094114609531
  20
 217.31659555164
  30
0.0
  11
 78.094114609531
  21
 198.81659555164
  31
0.0
   0
LINE
   5
505
 100
AcDbEntity
   8
LEVEL001
 100
AcDbLine
   6
CONTINUOUS
  62
7
  10
 78.094114609531
  20
 217.31659555164
  30
0.0
  11
 78.094114609531
  21
 235.81659555164
  31
0.0
   0
ARC
   5
506
 100
AcDbEntity
   8
LEVEL001
   6
CONTINUOUS
  62
7
 100
AcDbCircle
  10
 77.594114609533
  20
 235.81659555164
  30
0.0
  40
 0.50000000000000
 100
AcDbArc
  50
0.0
  51
 90.000000000169
   0
POINT
   5
507
 100
AcDbEntity
   8
LEVEL001
 100
AcDbPoint
  62
7
  10
 78.094114609531
  20
 236.31659555164
  30
0.0
   0
LINE
   5
508
 100
AcDbEntity
   8
LEVEL001
 100
AcDbLine
   6
CONTINUOUS
  62
7
  10
 77.594114609531
  20
 236.31659555164
  30
0.0
  11
 76.094114609531
  21
 236.31659555164
  31
0.0
   0
LINE
   5
509
 100
AcDbEntity
   8
LEVEL001
 100
AcDbLine
   6
CONTINUOUS
  62
7
  10
 60.094114609531
  20
 206.01659555173
  30
0.0
  11
 60.094114609531
  21
 228.61659555173
  31
0.0
   0
LINE
   5
50A
 100
AcDbEntity
   8
LEVEL001
 100
AcDbLine
   6
CONTINUOUS
  62
7
  10
 60.094114609531
  20
 231.21659555154
  30
0.0
  11
 60.094114609531
  21
 228.61659555173
  31
0.0
   0
ARC
   5
50B
 100
AcDbEntity
   8
LEVEL001
   6
CONTINUOUS
  62
7
 100
AcDbCircle
  10
 61.094114609533
  20
 231.21659555154
  30
0.0
  40
 1.0000000000000
 100
AcDbArc
  50
 90.000000000092
  51
 180.00000000000
   0
POINT
   5
50C
 100
AcDbEntity
   8
LEVEL001
 100
AcDbPoint
  62
7
  10
 60.094114609531
  20
 232.21659555154
  30
0.0
   0
LINE
   5
50D
 100
AcDbEntity
   8
LEVEL001
 100
AcDbLine
   6
CONTINUOUS
  62
7
  10
 76.094114609666
  20
 232.21659555154
  30
0.0
  11
 61.094114609531
  21
 232.21659555154
  31
0.0
   0
LINE
   5
50E
 100
AcDbEntity
   8
LEVEL001
 100
AcDbLine
   6
CONTINUOUS
  62
7
  10
 76.094114609666
  20
 202.41659555154
  30
0.0
  11
 61.094114609531
  21
 202.41659555154
  31
0.0
   0
ARC
   5
50F
 100
AcDbEntity
   8
LEVEL001
   6
CONTINUOUS
  62
7
 100
AcDbCircle
  10
 61.094114609531
  20
 203.41659555154
  30
0.0
  40
 1.0000000000000
 100
AcDbArc
  50
 180.00000000007
  51
 270.00000000000
   0
POINT
   5
510
 100
AcDbEntity
   8
LEVEL001
 100
AcDbPoint
  62
7
  10
 60.094114609531
  20
 202.41659555154
  30
0.0
   0
LINE
   5
511
 100
AcDbEntity
   8
LEVEL001
 100
AcDbLine
   6
CONTINUOUS
  62
7
  10
 60.094114609531
  20
 203.41659555154
  30
0.0
  11
 60.094114609531
  21
 206.01659555173
  31
0.0
   0
LINE
   5
512
 100
AcDbEntity
   8
LEVEL001
 100
AcDbLine
   6
DOT
  62
2
  10
 75.094114609531
  20
 228.81659555154
  30
0.0
  11
 60.594114609531
  21
 228.81659555154
  31
0.0
   0
ARC
   5
513
 100
AcDbEntity
   8
LEVEL001
   6
DOT
  62
2
 100
AcDbCircle
  10
 60.594114609529
  20
 229.31659555154
  30
0.0
  40
 0.50000000000000
 100
AcDbArc
  50
 180.00000000000
  51
 270.00000000030
   0
ARC
   5
514
 100
AcDbEntity
   8
LEVEL001
   6
DOT
  62
2
 100
AcDbCircle
  10
 75.094114609531
  20
 228.31659555154
  30
0.0
  40
 0.50000000000000
 100
AcDbArc
  50
0.0
  51
 90.000000000000
   0
LINE
   5
515
 100
AcDbEntity
   8
LEVEL001
 100
AcDbLine
   6
DOT
  62
2
  10
 75.594114609531
  20
 228.31659555154
  30
0.0
  11
 75.594114609531
  21
 206.31659555154
  31
0.0
   0
ARC
   5
516
 100
AcDbEntity
   8
LEVEL001
   6
DOT
  62
2
 100
AcDbCircle
  10
 75.094114609528
  20
 206.31659555154
  30
0.0
  40
 0.50000000000000
 100
AcDbArc
  50
 270.00000000039
  51
0.0
   0
LINE
   5
517
 100
AcDbEntity
   8
LEVEL001
 100
AcDbLine
   6
DOT
  62
2
  10
 75.094114609531
  20
 205.81659555154
  30
0.0
  11
 60.594114609531
  21
 205.81659555154
  31
0.0
   0
ARC
   5
518
 100
AcDbEntity
   8
LEVEL001
   6
DOT
  62
2
 100
AcDbCircle
  10
 60.594114609528
  20
 205.31659555154
  30
0.0
  40
 0.50000000000000
 100
AcDbArc
  50
 89.999999999608
  51
 180.00000000000
   0
POINT
   5
519
 100
AcDbEntity
   8
LEVEL001
 100
AcDbPoint
  62
2
  10
 66.594114609531
  20
 228.61659555182
  30
0.0
   0
ARC
   5
51A
 100
AcDbEntity
   8
LEVEL001
   6
DOT
  62
2
 100
AcDbCircle
  10
 66.094114609528
  20
 228.11659555182
  30
0.0
  40
 0.50000000000000
 100
AcDbArc
  50
0.0
  51
 89.999999999665
   0
POINT
   5
51B
 100
AcDbEntity
   8
LEVEL001
 100
AcDbPoint
  62
2
  10
 66.594114609531
  20
 228.61659555182
  30
0.0
   0
ARC
   5
51C
 100
AcDbEntity
   8
LEVEL001
   6
DOT
  62
2
 100
AcDbCircle
  10
 66.094114609531
  20
 228.11659555182
  30
0.0
  40
 0.50000000000000
 100
AcDbArc
  50
 90.000000000000
  51
 179.99999999964
   0
POINT
   5
51D
 100
AcDbEntity
   8
LEVEL001
 100
AcDbPoint
  62
2
  10
 65.594114609531
  20
 228.61659555182
  30
0.0
   0
LINE
   5
51E
 100
AcDbEntity
   8
LEVEL001
 100
AcDbLine
   6
DOT
  62
2
  10
 65.594114609531
  20
 227.86659555182
  30
0.0
  11
 65.594114609531
  21
 228.11659555182
  31
0.0
   0
LINE
   5
51F
 100
AcDbEntity
   8
LEVEL001
 100
AcDbLine
   6
DOT
  62
2
  10
 65.594114609531
  20
 217.31659555182
  30
0.0
  11
 65.594114609531
  21
 227.86659555182
  31
0.0
   0
ARC
   5
520
 100
AcDbEntity
   8
LEVEL001
   6
DOT
  62
2
 100
AcDbCircle
  10
 64.594114609531
  20
 227.86659555182
  30
0.0
  40
 1.0000000000000
 100
AcDbArc
  50
 328.21166939771
  51
 0.60252427885645E-10
   0
LINE
   5
521
 100
AcDbEntity
   8
LEVEL001
 100
AcDbLine
   6
DOT
  62
2
  10
 65.444114609666
  20
 228.06659555188
  30
0.0
  11
 65.444114609666
  21
 217.31659555182
  31
0.0
   0
ARC
   5
522
 100
AcDbEntity
   8
LEVEL001
   6
DOT
  62
2
 100
AcDbCircle
  10
 62.394114609531
  20
 228.11659555182
  30
0.0
  40
 0.50000000000000
 100
AcDbArc
  50
0.0
  51
 90.000000000005
   0
POINT
   5
523
 100
AcDbEntity
   8
LEVEL001
 100
AcDbPoint
  62
2
  10
 62.894114609531
  20
 228.61659555182
  30
0.0
   0
LINE
   5
524
 100
AcDbEntity
   8
LEVEL001
 100
AcDbLine
   6
DOT
  62
2
  10
 62.894114609531
  20
 228.11659555182
  30
0.0
  11
 62.894114609531
  21
 217.31659555182
  31
0.0
   0
ARC
   5
525
 100
AcDbEntity
   8
LEVEL001
   6
DOT
  62
2
 100
AcDbCircle
  10
 64.244114609666
  20
 228.06659555188
  30
0.0
  40
 1.2000000000000
 100
AcDbArc
  50
0.0
  51
 180.00000000000
   0
ARC
   5
526
 100
AcDbEntity
   8
LEVEL001
   6
DOT
  62
2
 100
AcDbCircle
  10
 63.894114609531
  20
 227.86659555182
  30
0.0
  40
 1.0000000000000
 100
AcDbArc
  50
 180.00000000010
  51
 211.78833063181
   0
LINE
   5
527
 100
AcDbEntity
   8
LEVEL001
 100
AcDbLine
   6
DOT
  62
2
  10
 63.044114609666
  20
 228.06659555188
  30
0.0
  11
 63.044114609666
  21
 217.31659555168
  31
0.0
   0
ARC
   5
528
 100
AcDbEntity
   8
LEVEL001
   6
DOT
  62
2
 100
AcDbCircle
  10
 65.594114609531
  20
 226.61659555178
  30
0.0
  40
 1.0000000000000
 100
AcDbArc
  50
 270.00000000000
  51
0.0
   0
LINE
   5
529
 100
AcDbEntity
   8
LEVEL001
 100
AcDbLine
   6
DOT
  62
2
  10
 66.594114609531
  20
 228.11659555182
  30
0.0
  11
 66.594114609531
  21
 225.61659555182
  31
0.0
   0
LINE
   5
52A
 100
AcDbEntity
   8
LEVEL001
 100
AcDbLine
   6
DOT
  62
2
  10
 65.594114609531
  20
 206.51659555182
  30
0.0
  11
 65.594114609531
  21
 217.31659555182
  31
0.0
   0
LINE
   5
52B
 100
AcDbEntity
   8
LEVEL001
 100
AcDbLine
   6
DOT
  62
2
  10
 62.894114609531
  20
 206.51659555182
  30
0.0
  11
 62.894114609531
  21
 217.31659555182
  31
0.0
   0
LINE
   5
52C
 100
AcDbEntity
   8
LEVEL001
 100
AcDbLine
   6
DOT
  62
2
  10
 65.444114609666
  20
 206.56659555148
  30
0.0
  11
 65.444114609666
  21
 217.31659555154
  31
0.0
   0
LINE
   5
52D
 100
AcDbEntity
   8
LEVEL001
 100
AcDbLine
   6
DOT
  62
2
  10
 63.044114609666
  20
 206.56659555148
  30
0.0
  11
 63.044114609666
  21
 217.31659555168
  31
0.0
   0
POINT
   5
52E
 100
AcDbEntity
   8
LEVEL001
 100
AcDbPoint
  62
2
  10
 62.894114609531
  20
 207.76659555182
  30
0.0
   0
ARC
   5
52F
 100
AcDbEntity
   8
LEVEL001
   6
DOT
  62
2
 100
AcDbCircle
  10
 62.394114609531
  20
 206.51659555182
  30
0.0
  40
 0.50000000000000
 100
AcDbArc
  50
 270.00000000000
  51
 0.69046025468955E-9
   0
POINT
   5
530
 100
AcDbEntity
   8
LEVEL001
 100
AcDbPoint
  62
2
  10
 62.894114609531
  20
 206.01659555182
  30
0.0
   0
ARC
   5
531
 100
AcDbEntity
   8
LEVEL001
   6
DOT
  62
2
 100
AcDbCircle
  10
 64.244114609666
  20
 206.56659555148
  30
0.0
  40
 1.2000000000000
 100
AcDbArc
  50
 180.00000000000
  51
0.0
   0
ARC
   5
532
 100
AcDbEntity
   8
LEVEL001
   6
DOT
  62
2
 100
AcDbCircle
  10
 63.894114609531
  20
 206.76659555182
  30
0.0
  40
 1.0000000000000
 100
AcDbArc
  50
 148.21166936825
  51
 180.00000000008
   0
LINE
   5
533
 100
AcDbEntity
   8
LEVEL001
 100
AcDbLine
   6
DOT
  62
2
  10
 66.594114609531
  20
 206.51659555182
  30
0.0
  11
 66.594114609531
  21
 209.01659555182
  31
0.0
   0
POINT
   5
534
 100
AcDbEntity
   8
LEVEL001
 100
AcDbPoint
  62
2
  10
 66.594114609531
  20
 206.01659555182
  30
0.0
   0
POINT
   5
535
 100
AcDbEntity
   8
LEVEL001
 100
AcDbPoint
  62
2
  10
 65.594114609531
  20
 206.01659555182
  30
0.0
   0
LINE
   5
536
 100
AcDbEntity
   8
LEVEL001
 100
AcDbLine
   6
DOT
  62
2
  10
 65.594114609531
  20
 206.76659555182
  30
0.0
  11
 65.594114609531
  21
 206.51659555182
  31
0.0
   0
ARC
   5
537
 100
AcDbEntity
   8
LEVEL001
   6
DOT
  62
2
 100
AcDbCircle
  10
 66.094114609531
  20
 206.51659555182
  30
0.0
  40
 0.50000000000000
 100
AcDbArc
  50
 180.00000000000
  51
0.0
   0
ARC
   5
538
 100
AcDbEntity
   8
LEVEL001
   6
DOT
  62
2
 100
AcDbCircle
  10
 64.594114609531
  20
 206.76659555182
  30
0.0
  40
 1.0000000000000
 100
AcDbArc
  50
 0.42339543919642E-9
  51
 31.788330602603
   0
POINT
   5
539
 100
AcDbEntity
   8
LEVEL001
 100
AcDbPoint
  62
2
  10
 65.594114609531
  20
 207.76659555182
  30
0.0
   0
ARC
   5
53A
 100
AcDbEntity
   8
LEVEL001
   6
DOT
  62
2
 100
AcDbCircle
  10
 65.594114609531
  20
 208.01659555178
  30
0.0
  40
 1.0000000000000
 100
AcDbArc
  50
0.0
  51
 90.000000000000
   0
LINE
   5
53B
 100
AcDbEntity
   8
LEVEL001
 100
AcDbLine
   6
DOT
  62
2
  10
 66.594114609531
  20
 225.61659555182
  30
0.0
  11
 66.594114609531
  21
 209.01659555182
  31
0.0
   0
LINE
   5
53C
 100
AcDbEntity
   8
LEVEL001
 100
AcDbLine
   6
CONTINUOUS
  62
7
  10
 52.094114609531
  20
 206.01659555182
  30
0.0
  11
 60.094114609531
  21
 206.01659555182
  31
0.0
   0
LINE
   5
53D
 100
AcDbEntity
   8
LEVEL001
 100
AcDbLine
   6
CONTINUOUS
  62
7
  10
 52.094114609531
  20
 228.61659555182
  30
0.0
  11
 60.094114609531
  21
 228.61659555182
  31
0.0
   0
LINE
   5
53E
 100
AcDbEntity
   8
LEVEL001
 100
AcDbLine
   6
DOT
  62
7
  10
 46.594114609531
  20
 202.41659555182
  30
0.0
  11
 44.594114609531
  21
 201.91659555182
  31
0.0
   0
LINE
   5
53F
 100
AcDbEntity
   8
LEVEL001
 100
AcDbLine
   6
DOT
  62
7
  10
 44.594114609531
  20
 201.91659555182
  30
0.0
  11
 44.594114609531
  21
 202.41659555182
  31
0.0
   0
LINE
   5
540
 100
AcDbEntity
   8
LEVEL001
 100
AcDbLine
   6
DOT
  62
7
  10
 70.094114609666
  20
 202.41659555182
  30
0.0
  11
 72.094114609666
  21
 201.91659555182
  31
0.0
   0
LINE
   5
541
 100
AcDbEntity
   8
LEVEL001
 100
AcDbLine
   6
DOT
  62
7
  10
 72.094114609666
  20
 201.91659555182
  30
0.0
  11
 72.094114609666
  21
 202.41659555182
  31
0.0
   0
LINE
   5
542
 100
AcDbEntity
   8
LEVEL001
 100
AcDbLine
   6
DOT
  62
7
  10
 65.094114609666
  20
 202.41659555182
  30
0.0
  11
 67.094114609666
  21
 201.91659555182
  31
0.0
   0
LINE
   5
543
 100
AcDbEntity
   8
LEVEL001
 100
AcDbLine
   6
DOT
  62
7
  10
 67.094114609666
  20
 201.91659555182
  30
0.0
  11
 67.094114609666
  21
 202.41659555182
  31
0.0
   0
LINE
   5
544
 100
AcDbEntity
   8
LEVEL001
 100
AcDbLine
   6
DOT
  62
7
  10
 70.094114609666
  20
 232.21659555154
  30
0.0
  11
 72.094114609666
  21
 232.71659555154
  31
0.0
   0
LINE
   5
545
 100
AcDbEntity
   8
LEVEL001
 100
AcDbLine
   6
DOT
  62
7
  10
 72.094114609666
  20
 232.71659555154
  30
0.0
  11
 72.094114609666
  21
 232.21659555154
  31
0.0
   0
LINE
   5
546
 100
AcDbEntity
   8
LEVEL001
 100
AcDbLine
   6
DOT
  62
7
  10
 65.094114609666
  20
 232.21659555154
  30
0.0
  11
 67.094114609666
  21
 232.71659555154
  31
0.0
   0
LINE
   5
547
 100
AcDbEntity
   8
LEVEL001
 100
AcDbLine
   6
DOT
  62
7
  10
 67.094114609666
  20
 232.71659555154
  30
0.0
  11
 67.094114609666
  21
 232.21659555154
  31
0.0
   0
LINE
   5
548
 100
AcDbEntity
   8
LEVEL001
 100
AcDbLine
   6
DOT
  62
7
  10
 46.594114609531
  20
 232.21659555154
  30
0.0
  11
 44.594114609531
  21
 232.71659555154
  31
0.0
   0
LINE
   5
549
 100
AcDbEntity
   8
LEVEL001
 100
AcDbLine
   6
DOT
  62
7
  10
 44.594114609531
  20
 232.71659555154
  30
0.0
  11
 44.594114609531
  21
 232.21659555154
  31
0.0
   0
LINE
   5
54A
 100
AcDbEntity
   8
LEVEL001
 100
AcDbLine
   6
DOT
  62
7
  10
 57.094114609666
  20
 109.95706785722
  30
0.0
  11
 59.094114609666
  21
 109.45706785722
  31
0.0
   0
LINE
   5
54B
 100
AcDbEntity
   8
LEVEL001
 100
AcDbLine
   6
DOT
  62
7
  10
 59.094114609666
  20
 109.45706785722
  30
0.0
  11
 59.094114609666
  21
 109.95706785722
  31
0.0
   0
LINE
   5
54C
 100
AcDbEntity
   8
LEVEL001
 100
AcDbLine
   6
DOT
  62
7
  10
 62.094114609666
  20
 109.95706785722
  30
0.0
  11
 64.094114609666
  21
 109.45706785722
  31
0.0
   0
LINE
   5
54D
 100
AcDbEntity
   8
LEVEL001
 100
AcDbLine
   6
DOT
  62
7
  10
 64.094114609666
  20
 109.45706785722
  30
0.0
  11
 64.094114609666
  21
 109.95706785722
  31
0.0
   0
LINE
   5
54E
 100
AcDbEntity
   8
LEVEL001
 100
AcDbLine
   6
DOT
  62
7
  10
 62.094114609666
  20
 139.75706785693
  30
0.0
  11
 64.094114609666
  21
 140.25706785693
  31
0.0
   0
LINE
   5
54F
 100
AcDbEntity
   8
LEVEL001
 100
AcDbLine
   6
DOT
  62
7
  10
 64.094114609666
  20
 140.25706785693
  30
0.0
  11
 64.094114609666
  21
 139.75706785693
  31
0.0
   0
LINE
   5
550
 100
AcDbEntity
   8
LEVEL001
 100
AcDbLine
   6
DOT
  62
7
  10
 57.094114609666
  20
 139.75706785693
  30
0.0
  11
 59.094114609666
  21
 140.25706785693
  31
0.0
   0
LINE
   5
551
 100
AcDbEntity
   8
LEVEL001
 100
AcDbLine
   6
DOT
  62
7
  10
 59.094114609666
  20
 140.25706785693
  30
0.0
  11
 59.094114609666
  21
 139.75706785693
  31
0.0
   0
LINE
   5
552
 100
AcDbEntity
   8
LEVEL001
 100
AcDbLine
   6
DOT
  62
7
  10
 46.594114609531
  20
 139.75706785693
  30
0.0
  11
 44.594114609531
  21
 140.25706785693
  31
0.0
   0
LINE
   5
553
 100
AcDbEntity
   8
LEVEL001
 100
AcDbLine
   6
DOT
  62
7
  10
 44.594114609531
  20
 140.25706785693
  30
0.0
  11
 44.594114609531
  21
 139.75706785693
  31
0.0
   0
LINE
   5
554
 100
AcDbEntity
   8
LEVEL001
 100
AcDbLine
   6
DOT
  62
7
  10
 46.594114609531
  20
 109.95706785722
  30
0.0
  11
 44.594114609531
  21
 109.45706785722
  31
0.0
   0
LINE
   5
555
 100
AcDbEntity
   8
LEVEL001
 100
AcDbLine
   6
DOT
  62
7
  10
 44.594114609531
  20
 109.45706785722
  30
0.0
  11
 44.594114609531
  21
 109.95706785722
  31
0.0
   0
LINE
   5
556
 100
AcDbEntity
   8
LEVEL001
 100
AcDbLine
   6
DOT
  62
7
  10
 258.83272474194
  20
 219.84795120836
  30
0.0
  11
 256.83272474194
  21
 220.34795120836
  31
0.0
   0
LINE
   5
557
 100
AcDbEntity
   8
LEVEL001
 100
AcDbLine
   6
DOT
  62
7
  10
 256.83272474194
  20
 220.34795120836
  30
0.0
  11
 256.83272474194
  21
 219.84795120836
  31
0.0
   0
LINE
   5
558
 100
AcDbEntity
   8
LEVEL001
 100
AcDbLine
   6
DOT
  62
7
  10
 258.83272474194
  20
 190.04795120864
  30
0.0
  11
 256.83272474194
  21
 189.54795120864
  31
0.0
   0
LINE
   5
559
 100
AcDbEntity
   8
LEVEL001
 100
AcDbLine
   6
DOT
  62
7
  10
 256.83272474194
  20
 189.54795120864
  30
0.0
  11
 256.83272474194
  21
 190.04795120864
  31
0.0
   0
LINE
   5
55A
 100
AcDbEntity
   8
LEVEL001
 100
AcDbLine
   6
DOT
  62
7
  10
 311.33272474221
  20
 219.84795120850
  30
0.0
  11
 313.33272474221
  21
 220.34795120850
  31
0.0
   0
LINE
   5
55B
 100
AcDbEntity
   8
LEVEL001
 100
AcDbLine
   6
DOT
  62
7
  10
 313.33272474221
  20
 220.34795120850
  30
0.0
  11
 313.33272474221
  21
 219.84795120850
  31
0.0
   0
LINE
   5
55C
 100
AcDbEntity
   8
LEVEL001
 100
AcDbLine
   6
DOT
  62
7
  10
 316.33272474221
  20
 219.84795120850
  30
0.0
  11
 318.33272474221
  21
 220.34795120850
  31
0.0
   0
LINE
   5
55D
 100
AcDbEntity
   8
LEVEL001
 100
AcDbLine
   6
DOT
  62
7
  10
 318.33272474221
  20
 220.34795120850
  30
0.0
  11
 318.33272474221
  21
 219.84795120850
  31
0.0
   0
LINE
   5
55E
 100
AcDbEntity
   8
LEVEL001
 100
AcDbLine
   6
DOT
  62
7
  10
 311.33272474221
  20
 190.04795120879
  30
0.0
  11
 313.33272474221
  21
 189.54795120879
  31
0.0
   0
LINE
   5
55F
 100
AcDbEntity
   8
LEVEL001
 100
AcDbLine
   6
DOT
  62
7
  10
 313.33272474221
  20
 189.54795120879
  30
0.0
  11
 313.33272474221
  21
 190.04795120879
  31
0.0
   0
LINE
   5
560
 100
AcDbEntity
   8
LEVEL001
 100
AcDbLine
   6
DOT
  62
7
  10
 316.33272474221
  20
 190.04795120879
  30
0.0
  11
 318.33272474221
  21
 189.54795120879
  31
0.0
   0
LINE
   5
561
 100
AcDbEntity
   8
LEVEL001
 100
AcDbLine
   6
DOT
  62
7
  10
 318.33272474221
  20
 189.54795120879
  30
0.0
  11
 318.33272474221
  21
 190.04795120879
  31
0.0
   0
LINE
   5
562
 100
AcDbEntity
   8
LEVEL001
 100
AcDbLine
   6
CONTINUOUS
  62
7
  10
 373.30474925434
  20
 151.43891610022
  30
0.0
  11
 373.30474925434
  21
 149.43891610022
  31
0.0
   0
LINE
   5
563
 100
AcDbEntity
   8
LEVEL001
 100
AcDbLine
   6
CONTINUOUS
  62
7
  10
 374.92756532211
  20
 151.43891610022
  30
0.0
  11
 373.30474925434
  21
 149.43891610022
  31
0.0
   0
LINE
   5
564
 100
AcDbEntity
   8
LEVEL001
 100
AcDbLine
   6
CONTINUOUS
  62
7
  10
 374.92756532211
  20
 146.43891610022
  30
0.0
  11
 373.30474925434
  21
 144.43891610022
  31
0.0
   0
LINE
   5
565
 100
AcDbEntity
   8
LEVEL001
 100
AcDbLine
   6
CONTINUOUS
  62
7
  10
 373.30474925434
  20
 146.43891610022
  30
0.0
  11
 373.30474925434
  21
 144.43891610022
  31
0.0
   0
LINE
   5
566
 100
AcDbEntity
   8
LEVEL001
 100
AcDbLine
   6
CONTINUOUS
  62
7
  10
 365.59194171024
  20
 151.43891610022
  30
0.0
  11
 365.59194171024
  21
 149.43891610022
  31
0.0
   0
LINE
   5
567
 100
AcDbEntity
   8
LEVEL001
 100
AcDbLine
   6
CONTINUOUS
  62
7
  10
 363.96912564246
  20
 151.43891610022
  30
0.0
  11
 365.59194171024
  21
 149.43891610022
  31
0.0
   0
LINE
   5
568
 100
AcDbEntity
   8
LEVEL001
 100
AcDbLine
   6
CONTINUOUS
  62
7
  10
 365.59194171024
  20
 146.43891610022
  30
0.0
  11
 365.59194171024
  21
 144.43891610022
  31
0.0
   0
LINE
   5
569
 100
AcDbEntity
   8
LEVEL001
 100
AcDbLine
   6
CONTINUOUS
  62
7
  10
 363.96912564246
  20
 146.43891610022
  30
0.0
  11
 365.59194171024
  21
 144.43891610022
  31
0.0
   0
LINE
   5
56A
 100
AcDbEntity
   8
LEVEL001
 100
AcDbLine
   6
CONTINUOUS
  62
7
  10
 383.84064029400
  20
 149.43891610022
  30
0.0
  11
 383.84064029400
  21
 151.43891610022
  31
0.0
   0
LINE
   5
56B
 100
AcDbEntity
   8
LEVEL001
 100
AcDbLine
   6
CONTINUOUS
  62
7
  10
 383.84064029400
  20
 144.43891610022
  30
0.0
  11
 383.84064029400
  21
 146.43891610022
  31
0.0
   0
LINE
   5
56C
 100
AcDbEntity
   8
LEVEL001
 100
AcDbLine
   6
CONTINUOUS
  62
7
  10
 373.30474925434
  20
 146.43891610022
  30
0.0
  11
 383.84064029400
  21
 146.43891610022
  31
0.0
   0
LINE
   5
56D
 100
AcDbEntity
   8
LEVEL001
 100
AcDbLine
   6
CONTINUOUS
  62
7
  10
 383.84064029400
  20
 144.43891610022
  30
0.0
  11
 373.30474925434
  21
 144.43891610022
  31
0.0
   0
LINE
   5
56E
 100
AcDbEntity
   8
LEVEL001
 100
AcDbLine
   6
CONTINUOUS
  62
7
  10
 383.84064029400
  20
 149.43891610022
  30
0.0
  11
 373.30474925434
  21
 149.43891610022
  31
0.0
   0
LINE
   5
56F
 100
AcDbEntity
   8
LEVEL001
 100
AcDbLine
   6
CONTINUOUS
  62
7
  10
 373.30474925434
  20
 151.43891610022
  30
0.0
  11
 383.84064029400
  21
 151.43891610022
  31
0.0
   0
LINE
   5
570
 100
AcDbEntity
   8
LEVEL001
 100
AcDbLine
   6
CONTINUOUS
  62
7
  10
 355.05605067057
  20
 144.43891610022
  30
0.0
  11
 365.59194171022
  21
 144.43891610022
  31
0.0
   0
LINE
   5
571
 100
AcDbEntity
   8
LEVEL001
 100
AcDbLine
   6
CONTINUOUS
  62
7
  10
 365.59194171022
  20
 146.43891610022
  30
0.0
  11
 355.05605067057
  21
 146.43891610022
  31
0.0
   0
LINE
   5
572
 100
AcDbEntity
   8
LEVEL001
 100
AcDbLine
   6
CONTINUOUS
  62
7
  10
 355.05605067057
  20
 149.43891610022
  30
0.0
  11
 365.59194171022
  21
 149.43891610022
  31
0.0
   0
LINE
   5
573
 100
AcDbEntity
   8
LEVEL001
 100
AcDbLine
   6
CONTINUOUS
  62
7
  10
 365.59194171022
  20
 151.43891610022
  30
0.0
  11
 355.05605067057
  21
 151.43891610022
  31
0.0
   0
LINE
   5
574
 100
AcDbEntity
   8
LEVEL001
 100
AcDbLine
   6
CONTINUOUS
  62
7
  10
 355.05605067057
  20
 149.43891610022
  30
0.0
  11
 355.05605067057
  21
 151.43891610022
  31
0.0
   0
LINE
   5
575
 100
AcDbEntity
   8
LEVEL001
 100
AcDbLine
   6
CONTINUOUS
  62
7
  10
 387.44834548228
  20
 155.43891610022
  30
0.0
  11
 369.44834548228
  21
 155.43891610022
  31
0.0
   0
LINE
   5
576
 100
AcDbEntity
   8
LEVEL001
 100
AcDbLine
   6
CONTINUOUS
  62
7
  10
 351.44834548228
  20
 155.43891610022
  30
0.0
  11
 369.44834548228
  21
 155.43891610022
  31
0.0
   0
LINE
   5
577
 100
AcDbEntity
   8
LEVEL001
 100
AcDbLine
   6
CONTINUOUS
  62
7
  10
 355.05605067057
  20
 144.43891610022
  30
0.0
  11
 355.05605067057
  21
 146.43891610022
  31
0.0
   0
LINE
   5
578
 100
AcDbEntity
   8
LEVEL001
 100
AcDbLine
   6
DOT
  62
2
  10
 383.44834548228
  20
 155.43891610022
  30
0.0
  11
 382.34834548228
  21
 155.43891610022
  31
0.0
   0
LINE
   5
579
 100
AcDbEntity
   8
LEVEL001
 100
AcDbLine
   6
CONTINUOUS
  62
7
  10
 381.84834548228
  20
 157.43891610009
  30
0.0
  11
 369.44834548218
  21
 157.43891610009
  31
0.0
   0
LINE
   5
57A
 100
AcDbEntity
   8
LEVEL001
 100
AcDbLine
   6
DOT
  62
2
  10
 356.54834548228
  20
 155.43891610022
  30
0.0
  11
 355.44834548228
  21
 155.43891610022
  31
0.0
   0
LINE
   5
57B
 100
AcDbEntity
   8
LEVEL001
 100
AcDbLine
   6
CONTINUOUS
  62
7
  10
 357.04834548228
  20
 157.43891610009
  30
0.0
  11
 369.44834548218
  21
 157.43891610009
  31
0.0
   0
POINT
   5
57C
 100
AcDbEntity
   8
LEVEL001
 100
AcDbPoint
  62
7
  10
 350.44834548214
  20
 157.43891610009
  30
0.0
   0
LINE
   5
57D
 100
AcDbEntity
   8
LEVEL001
 100
AcDbLine
   6
CONTINUOUS
  62
7
  10
 388.44834548214
  20
 155.43891610009
  30
0.0
  11
 369.44834548214
  21
 155.43891610009
  31
0.0
   0
LINE
   5
57E
 100
AcDbEntity
   8
LEVEL001
 100
AcDbLine
   6
CONTINUOUS
  62
7
  10
 369.44834548214
  20
 155.43891610009
  30
0.0
  11
 350.44834548214
  21
 155.43891610009
  31
0.0
   0
LINE
   5
57F
 100
AcDbEntity
   8
LEVEL001
 100
AcDbLine
   6
CONTINUOUS
  62
7
  10
 388.44834548218
  20
 156.93891610009
  30
0.0
  11
 388.44834548218
  21
 155.43891610009
  31
0.0
   0
ARC
   5
580
 100
AcDbEntity
   8
LEVEL001
   6
CONTINUOUS
  62
7
 100
AcDbCircle
  10
 387.94834548218
  20
 156.93891610009
  30
0.0
  40
 0.50000000000000
 100
AcDbArc
  50
0.0
  51
 89.999999999179
   0
POINT
   5
581
 100
AcDbEntity
   8
LEVEL001
 100
AcDbPoint
  62
7
  10
 388.44834548218
  20
 157.43891610009
  30
0.0
   0
LINE
   5
582
 100
AcDbEntity
   8
LEVEL001
 100
AcDbLine
   6
CONTINUOUS
  62
7
  10
 369.44834548218
  20
 157.43891610009
  30
0.0
  11
 387.94834548218
  21
 157.43891610009
  31
0.0
   0
LINE
   5
583
 100
AcDbEntity
   8
LEVEL001
 100
AcDbLine
   6
CONTINUOUS
  62
7
  10
 369.44834548218
  20
 157.43891610009
  30
0.0
  11
 350.94834548218
  21
 157.43891610009
  31
0.0
   0
ARC
   5
584
 100
AcDbEntity
   8
LEVEL001
   6
CONTINUOUS
  62
7
 100
AcDbCircle
  10
 350.94834548218
  20
 156.93891610009
  30
0.0
  40
 0.50000000000000
 100
AcDbArc
  50
 90.000000000000
  51
 180.00000000053
   0
POINT
   5
585
 100
AcDbEntity
   8
LEVEL001
 100
AcDbPoint
  62
7
  10
 350.44834548218
  20
 157.43891610009
  30
0.0
   0
LINE
   5
586
 100
AcDbEntity
   8
LEVEL001
 100
AcDbLine
   6
CONTINUOUS
  62
7
  10
 350.44834548218
  20
 156.93891610009
  30
0.0
  11
 350.44834548218
  21
 155.43891610009
  31
0.0
   0
LINE
   5
587
 100
AcDbEntity
   8
LEVEL001
 100
AcDbLine
   6
CONTINUOUS
  62
7
  10
 380.74834548208
  20
 139.43891610009
  30
0.0
  11
 358.14834548208
  21
 139.43891610009
  31
0.0
   0
LINE
   5
588
 100
AcDbEntity
   8
LEVEL001
 100
AcDbLine
   6
CONTINUOUS
  62
7
  10
 355.54834548228
  20
 139.43891610009
  30
0.0
  11
 358.14834548208
  21
 139.43891610009
  31
0.0
   0
ARC
   5
589
 100
AcDbEntity
   8
LEVEL001
   6
CONTINUOUS
  62
7
 100
AcDbCircle
  10
 355.54834548228
  20
 140.43891610009
  30
0.0
  40
 1.0000000000000
 100
AcDbArc
  50
 179.99999999989
  51
 270.00000000000
   0
POINT
   5
58A
 100
AcDbEntity
   8
LEVEL001
 100
AcDbPoint
  62
7
  10
 354.54834548228
  20
 139.43891610009
  30
0.0
   0
LINE
   5
58B
 100
AcDbEntity
   8
LEVEL001
 100
AcDbLine
   6
CONTINUOUS
  62
7
  10
 354.54834548228
  20
 155.43891610022
  30
0.0
  11
 354.54834548228
  21
 140.43891610009
  31
0.0
   0
LINE
   5
58C
 100
AcDbEntity
   8
LEVEL001
 100
AcDbLine
   6
CONTINUOUS
  62
7
  10
 384.34834548228
  20
 155.43891610022
  30
0.0
  11
 384.34834548228
  21
 140.43891610009
  31
0.0
   0
ARC
   5
58D
 100
AcDbEntity
   8
LEVEL001
   6
CONTINUOUS
  62
7
 100
AcDbCircle
  10
 383.34834548227
  20
 140.43891610009
  30
0.0
  40
 1.0000000000000
 100
AcDbArc
  50
 270.00000000072
  51
0.0
   0
POINT
   5
58E
 100
AcDbEntity
   8
LEVEL001
 100
AcDbPoint
  62
7
  10
 384.34834548228
  20
 139.43891610009
  30
0.0
   0
LINE
   5
58F
 100
AcDbEntity
   8
LEVEL001
 100
AcDbLine
   6
CONTINUOUS
  62
7
  10
 383.34834548228
  20
 139.43891610009
  30
0.0
  11
 380.74834548208
  21
 139.43891610009
  31
0.0
   0
LINE
   5
590
 100
AcDbEntity
   8
LEVEL001
 100
AcDbLine
   6
DOT
  62
2
  10
 357.94834548228
  20
 154.43891610009
  30
0.0
  11
 357.94834548228
  21
 139.93891610009
  31
0.0
   0
ARC
   5
591
 100
AcDbEntity
   8
LEVEL001
   6
DOT
  62
2
 100
AcDbCircle
  10
 357.44834548228
  20
 139.93891610010
  30
0.0
  40
 0.50000000000000
 100
AcDbArc
  50
 270.00000000000
  51
0.0
   0
ARC
   5
592
 100
AcDbEntity
   8
LEVEL001
   6
DOT
  62
2
 100
AcDbCircle
  10
 358.44834548228
  20
 154.43891610009
  30
0.0
  40
 0.50000000000000
 100
AcDbArc
  50
 89.999999999231
  51
 180.00000000000
   0
LINE
   5
593
 100
AcDbEntity
   8
LEVEL001
 100
AcDbLine
   6
DOT
  62
2
  10
 358.44834548228
  20
 154.93891610009
  30
0.0
  11
 380.44834548228
  21
 154.93891610009
  31
0.0
   0
ARC
   5
594
 100
AcDbEntity
   8
LEVEL001
   6
DOT
  62
2
 100
AcDbCircle
  10
 380.44834548228
  20
 154.43891610008
  30
0.0
  40
 0.50000000000000
 100
AcDbArc
  50
 0.12115623337005E-8
  51
 90.000000000000
   0
LINE
   5
595
 100
AcDbEntity
   8
LEVEL001
 100
AcDbLine
   6
DOT
  62
2
  10
 380.94834548228
  20
 154.43891610009
  30
0.0
  11
 380.94834548228
  21
 139.93891610009
  31
0.0
   0
ARC
   5
596
 100
AcDbEntity
   8
LEVEL001
   6
DOT
  62
2
 100
AcDbCircle
  10
 381.44834548228
  20
 139.93891610011
  30
0.0
  40
 0.50000000000000
 100
AcDbArc
  50
 180.00000000213
  51
 270.00000000000
   0
LINE
   5
597
 100
AcDbEntity
   8
LEVEL001
 100
AcDbLine
   6
DOT
  62
7
  10
 354.54834548228
  20
 144.43891610022
  30
0.0
  11
 354.04834548228
  21
 146.43891610022
  31
0.0
   0
LINE
   5
598
 100
AcDbEntity
   8
LEVEL001
 100
AcDbLine
   6
DOT
  62
7
  10
 354.04834548228
  20
 146.43891610022
  30
0.0
  11
 354.54834548228
  21
 146.43891610022
  31
0.0
   0
LINE
   5
599
 100
AcDbEntity
   8
LEVEL001
 100
AcDbLine
   6
DOT
  62
7
  10
 354.54834548228
  20
 149.43891610022
  30
0.0
  11
 354.04834548228
  21
 151.43891610022
  31
0.0
   0
LINE
   5
59A
 100
AcDbEntity
   8
LEVEL001
 100
AcDbLine
   6
DOT
  62
7
  10
 354.04834548228
  20
 151.43891610022
  30
0.0
  11
 354.54834548228
  21
 151.43891610022
  31
0.0
   0
LINE
   5
59B
 100
AcDbEntity
   8
LEVEL001
 100
AcDbLine
   6
DOT
  62
7
  10
 384.34834548200
  20
 144.43891610022
  30
0.0
  11
 384.84834548200
  21
 146.43891610022
  31
0.0
   0
LINE
   5
59C
 100
AcDbEntity
   8
LEVEL001
 100
AcDbLine
   6
DOT
  62
7
  10
 384.84834548200
  20
 146.43891610022
  30
0.0
  11
 384.34834548200
  21
 146.43891610022
  31
0.0
   0
LINE
   5
59D
 100
AcDbEntity
   8
LEVEL001
 100
AcDbLine
   6
DOT
  62
7
  10
 384.34834548200
  20
 149.43891610022
  30
0.0
  11
 384.84834548200
  21
 151.43891610022
  31
0.0
   0
LINE
   5
59E
 100
AcDbEntity
   8
LEVEL001
 100
AcDbLine
   6
DOT
  62
7
  10
 384.84834548200
  20
 151.43891610022
  30
0.0
  11
 384.34834548200
  21
 151.43891610022
  31
0.0
   0
LINE
   5
59F
 100
AcDbEntity
   8
LEVEL001
 100
AcDbLine
   6
DOT
  62
7
  10
 212.49931492546
  20
 148.93891610009
  30
0.0
  11
 212.99931492546
  21
 150.93891610009
  31
0.0
   0
LINE
   5
5A0
 100
AcDbEntity
   8
LEVEL001
 100
AcDbLine
   6
DOT
  62
7
  10
 212.99931492546
  20
 150.93891610009
  30
0.0
  11
 212.49931492546
  21
 150.93891610009
  31
0.0
   0
LINE
   5
5A1
 100
AcDbEntity
   8
LEVEL001
 100
AcDbLine
   6
DOT
  62
7
  10
 182.69931492575
  20
 148.93891610009
  30
0.0
  11
 182.19931492575
  21
 150.93891610009
  31
0.0
   0
LINE
   5
5A2
 100
AcDbEntity
   8
LEVEL001
 100
AcDbLine
   6
DOT
  62
7
  10
 182.19931492575
  20
 150.93891610009
  30
0.0
  11
 182.69931492575
  21
 150.93891610009
  31
0.0
   0
TEXT
   5
5A3
 100
AcDbEntity
   8
LEVEL001
  62
6
 100
AcDbText
  10
 265.84066013491
  20
 13.623482664101
  30
0.0
  40
 4.0000000000000
   1
 工藤
   7
STANDARD
 100
AcDbText
   0
TEXT
   5
5A4
 100
AcDbEntity
   8
LEVEL001
  62
6
 100
AcDbText
  10
 264.54889683780
  20
 10.623482664101
  30
0.0
  40
 3.0000000000000
   1
2021.07.16
  41
 0.50000000000000
   7
STANDARD
 100
AcDbText
   0
TEXT
   5
5A5
 100
AcDbEntity
   8
LEVEL001
  62
6
 100
AcDbText
  10
 248.50597589093
  20
 13.623482664101
  30
0.0
  40
 4.0000000000000
   1
 小見
   7
STANDARD
 100
AcDbText
   0
TEXT
   5
5A6
 100
AcDbEntity
   8
LEVEL001
  62
6
 100
AcDbText
  10
 247.21556350446
  20
 10.623482664101
  30
0.0
  40
 3.0000000000000
   1
2021.07.16
  41
 0.50000000000000
   7
STANDARD
 100
AcDbText
   0
TEXT
   5
5A7
 100
AcDbEntity
   8
LEVEL001
  62
6
 100
AcDbText
  10
 231.11710809391
  20
 13.623482664101
  30
0.0
  40
 4.0000000000000
   1
 田口
   7
STANDARD
 100
AcDbText
   0
TEXT
   5
5A8
 100
AcDbEntity
   8
LEVEL001
  62
6
 100
AcDbText
  10
 229.88223017113
  20
 10.623482664101
  30
0.0
  40
 3.0000000000000
   1
2021.07.16
  41
 0.50000000000000
   7
STANDARD
 100
AcDbText
   0
TEXT
   5
5A9
 100
AcDbEntity
   8
LEVEL001
  62
7
 100
AcDbText
  10
 285.85449681501
  20
 29.663883716041
  30
0.0
  40
 4.0000000000000
   1
明かり表示レンズ□３８
  51
 15.000000000000
   7
STANDARD
 100
AcDbText
   0
TEXT
   5
5AA
 100
AcDbEntity
   8
LEVEL001
  62
2
 100
AcDbText
  10
 22.500000000000
  20
 29.623482664101
  30
0.0
  40
 4.0000000000000
   1
品番
   7
STANDARD
  11
 22.500000000000
  21
 31.623482664101
  31
0.0
 100
AcDbText
  73
2
   0
TEXT
   5
5AB
 100
AcDbEntity
   8
LEVEL001
  62
2
 100
AcDbText
  10
 24.208043221998
  20
 35.623482664101
  30
0.0
  40
 4.0000000000000
   1
表１
   7
STANDARD
  72
1
  11
 28.208043221998
  21
 37.623482664101
  31
0.0
 100
AcDbText
  73
2
   0
TEXT
   5
5AC
 100
AcDbEntity
   8
LEVEL001
  62
2
 100
AcDbText
  10
 55.500000000000
  20
 29.623482664101
  30
0.0
  40
 4.0000000000000
   1
色調
   7
STANDARD
  11
 55.500000000000
  21
 31.623482664101
  31
0.0
 100
AcDbText
  73
2
   0
LINE
   5
5AD
 100
AcDbEntity
   8
LEVEL001
 100
AcDbLine
   6
CONTINUOUS
  62
3
  10
 21.000000000000
  20
 34.623482664101
  30
0.0
  11
 106.00000000000
  21
 34.623482664101
  31
0.0
   0
LINE
   5
5AE
 100
AcDbEntity
   8
LEVEL001
 100
AcDbLine
   6
CONTINUOUS
  62
3
  10
 21.000000000000
  20
 28.623482664101
  30
0.0
  11
 106.00000000000
  21
 28.623482664101
  31
0.0
   0
LINE
   5
5AF
 100
AcDbEntity
   8
LEVEL001
 100
AcDbLine
   6
CONTINUOUS
  62
3
  10
 21.000000000000
  20
 22.623482664101
  30
0.0
  11
 106.00000000000
  21
 22.623482664101
  31
0.0
   0
LINE
   5
5B0
 100
AcDbEntity
   8
LEVEL001
 100
AcDbLine
   6
CONTINUOUS
  62
3
  10
 21.000000000000
  20
 16.623482664101
  30
0.0
  11
 106.00000000000
  21
 16.623482664101
  31
0.0
   0
TEXT
   5
5B1
 100
AcDbEntity
   8
LEVEL001
  62
2
 100
AcDbText
  10
 22.500000000000
  20
 23.623482664101
  30
0.0
  40
 4.0000000000000
   1
２５０－２１１
   7
STANDARD
  11
 22.500000000000
  21
 25.623482664101
  31
0.0
 100
AcDbText
  73
2
   0
TEXT
   5
5B2
 100
AcDbEntity
   8
LEVEL001
  62
2
 100
AcDbText
  10
 55.500000000000
  20
 23.623482664101
  30
0.0
  40
 4.0000000000000
   1
ＨＬ（ヘアラインシルバー）
   7
STANDARD
  11
 55.500000000000
  21
 25.623482664101
  31
0.0
 100
AcDbText
  73
2
   0
TEXT
   5
5B3
 100
AcDbEntity
   8
LEVEL001
  62
2
 100
AcDbText
  10
 55.500000000000
  20
 17.623482664101
  30
0.0
  40
 4.0000000000000
   1
鏡面
   7
STANDARD
  11
 55.500000000000
  21
 19.623482664101
  31
0.0
 100
AcDbText
  73
2
   0
TEXT
   5
5B4
 100
AcDbEntity
   8
LEVEL001
  62
2
 100
AcDbText
  10
 22.500000000000
  20
 17.623482664101
  30
0.0
  40
 4.0000000000000
   1
２５０－２１２
   7
STANDARD
  11
 22.500000000000
  21
 19.623482664101
  31
0.0
 100
AcDbText
  73
2
   0
LINE
   5
5B5
 100
AcDbEntity
   8
LEVEL001
 100
AcDbLine
   6
CONTINUOUS
  62
3
  10
 54.000000000000
  20
 34.623482664101
  30
0.0
  11
 54.000000000000
  21
 16.623482664101
  31
0.0
   0
LINE
   5
5B6
 100
AcDbEntity
   8
LEVEL001
 100
AcDbLine
   6
CONTINUOUS
  62
3
  10
 21.000000000000
  20
 16.623482664101
  30
0.0
  11
 21.000000000000
  21
 34.623482664101
  31
0.0
   0
LINE
   5
5B7
 100
AcDbEntity
   8
LEVEL001
 100
AcDbLine
   6
CONTINUOUS
  62
3
  10
 106.00000000000
  20
 34.623482664101
  30
0.0
  11
 106.00000000000
  21
 16.623482664101
  31
0.0
   0
TEXT
   5
5B8
 100
AcDbEntity
   8
LEVEL001
  62
7
 100
AcDbText
  10
 357.55911962103
  20
 34.412263989553
  30
0.0
  40
 4.0000000000000
   1
表１
  41
 0.75000000000000
   7
STANDARD
 100
AcDbText
   0
LINE
   5
5B9
 100
AcDbEntity
   8
LEVEL001
 100
AcDbLine
   6
CONTINUOUS
  62
7
  10
 371.44834548200
  20
 150.43891610009
  30
0.0
  11
 372.44834548200
  21
 150.43891610009
  31
0.0
   0
LINE
   5
5BA
 100
AcDbEntity
   8
LEVEL001
 100
AcDbLine
   6
CONTINUOUS
  62
7
  10
 371.44834548200
  20
 155.43891610009
  30
0.0
  11
 371.44834548200
  21
 150.43891610009
  31
0.0
   0
LINE
   5
5BB
 100
AcDbEntity
   8
LEVEL001
 100
AcDbLine
   6
CONTINUOUS
  62
7
  10
 371.34834548228
  20
 148.23891609995
  30
0.0
  11
 367.54834548228
  21
 148.23891609995
  31
0.0
   0
ARC
   5
5BC
 100
AcDbEntity
   8
LEVEL001
   6
CONTINUOUS
  62
7
 100
AcDbCircle
  10
 371.34834548228
  20
 149.23891609996
  30
0.0
  40
 1.0000000000000
 100
AcDbArc
  50
 270.00000000000
  51
0.0
   0
POINT
   5
5BD
 100
AcDbEntity
   8
LEVEL001
 100
AcDbPoint
  62
7
  10
 372.34834548228
  20
 148.23891609995
  30
0.0
   0
LINE
   5
5BE
 100
AcDbEntity
   8
LEVEL001
 100
AcDbLine
   6
CONTINUOUS
  62
7
  10
 372.34834548228
  20
 150.23891609995
  30
0.0
  11
 372.34834548228
  21
 149.23891609995
  31
0.0
   0
LINE
   5
5BF
 100
AcDbEntity
   8
LEVEL001
 100
AcDbLine
   6
CONTINUOUS
  62
7
  10
 371.39834548228
  20
 150.23891609995
  30
0.0
  11
 372.34834548228
  21
 150.23891609995
  31
0.0
   0
LINE
   5
5C0
 100
AcDbEntity
   8
LEVEL001
 100
AcDbLine
   6
CONTINUOUS
  62
7
  10
 371.39834548228
  20
 150.23891609995
  30
0.0
  11
 371.39834548228
  21
 155.43891609995
  31
0.0
   0
LINE
   5
5C1
 100
AcDbEntity
   8
LEVEL001
 100
AcDbLine
   6
CONTINUOUS
  62
7
  10
 366.44834548200
  20
 150.43891610009
  30
0.0
  11
 367.44834548200
  21
 150.43891610009
  31
0.0
   0
LINE
   5
5C2
 100
AcDbEntity
   8
LEVEL001
 100
AcDbLine
   6
CONTINUOUS
  62
7
  10
 367.44834548200
  20
 150.43891610009
  30
0.0
  11
 367.44834548200
  21
 155.43891610009
  31
0.0
   0
LINE
   5
5C3
 100
AcDbEntity
   8
LEVEL001
 100
AcDbLine
   6
CONTINUOUS
  62
7
  10
 366.54834548228
  20
 149.23891609995
  30
0.0
  11
 366.54834548228
  21
 150.23891609995
  31
0.0
   0
ARC
   5
5C4
 100
AcDbEntity
   8
LEVEL001
   6
CONTINUOUS
  62
7
 100
AcDbCircle
  10
 367.54834548228
  20
 149.23891609995
  30
0.0
  40
 1.0000000000000
 100
AcDbArc
  50
 180.00000000000
  51
 269.99999999996
   0
POINT
   5
5C5
 100
AcDbEntity
   8
LEVEL001
 100
AcDbPoint
  62
7
  10
 366.54834548228
  20
 148.23891609995
  30
0.0
   0
LINE
   5
5C6
 100
AcDbEntity
   8
LEVEL001
 100
AcDbLine
   6
CONTINUOUS
  62
7
  10
 366.54834548228
  20
 150.23891609995
  30
0.0
  11
 367.49834548228
  21
 150.23891609995
  31
0.0
   0
LINE
   5
5C7
 100
AcDbEntity
   8
LEVEL001
 100
AcDbLine
   6
CONTINUOUS
  62
7
  10
 367.49834548228
  20
 150.23891609995
  30
0.0
  11
 367.49834548228
  21
 155.43891609995
  31
0.0
   0
LINE
   5
5C8
 100
AcDbEntity
   8
LEVEL001
 100
AcDbLine
   6
CONTINUOUS
  62
7
  10
 366.44834548200
  20
 146.43891610022
  30
0.0
  11
 372.44834548200
  21
 146.43891610022
  31
0.0
   0
LINE
   5
5C9
 100
AcDbEntity
   8
LEVEL001
 100
AcDbLine
   6
CONTINUOUS
  62
7
  10
 366.44834548200
  20
 146.43891610022
  30
0.0
  11
 366.44834548200
  21
 155.43891610009
  31
0.0
   0
LINE
   5
5CA
 100
AcDbEntity
   8
LEVEL001
 100
AcDbLine
   6
CONTINUOUS
  62
7
  10
 372.44834548200
  20
 155.43891610009
  30
0.0
  11
 372.44834548200
  21
 146.43891610022
  31
0.0
   0
LINE
   5
5CB
 100
AcDbEntity
   8
LEVEL001
 100
AcDbLine
   6
DASHDOT
  62
2
  10
 197.59931492565
  20
 178.62536919469
  30
0.0
  11
 197.59931492565
  21
 231.47845960333
  31
0.0
   0
LINE
   5
5CC
 100
AcDbEntity
   8
LEVEL001
 100
AcDbLine
   6
DASHDOT
  62
2
  10
 369.44834548223
  20
 179.38621785897
  30
0.0
  11
 369.44834548223
  21
 231.47845960333
  31
0.0
   0
DIMENSION
   5
5CD
 100
AcDbEntity
   8
LEVEL001
   6
CONTINUOUS
  62
6
 100
AcDbDimension
   2
*D14
  10
 212.49931492560
  20
 117.02551471796
  30
0.0
  11
 197.59931492560
  21
 117.02551471796
  31
0.0
  70
0
   3
GMM007
 100
AcDbAlignedDimension
  13
 182.69931492560
  23
 144.43891610022
  33
0.0
  14
 212.49931492560
  24
 144.43891610022
  34
0.0
 100
AcDbRotatedDimension
   0
DIMENSION
   5
5CE
 100
AcDbEntity
   8
LEVEL001
   6
CONTINUOUS
  62
6
 100
AcDbDimension
   2
*D15
  10
 384.34834548228
  20
 117.02551471796
  30
0.0
  11
 369.44834548228
  21
 117.02551471796
  31
0.0
  70
0
   3
GMM007
 100
AcDbAlignedDimension
  13
 354.54834548228
  23
 139.43891610009
  33
0.0
  14
 384.34834548228
  24
 139.43891610009
  34
0.0
 100
AcDbRotatedDimension
   0
LINE
   5
5CF
 100
AcDbEntity
   8
LEVEL001
 100
AcDbLine
   6
DASHDOT
  62
2
  10
 369.44834548228
  20
 124.53920724158
  30
0.0
  11
 369.44834548228
  21
 163.50764030884
  31
0.0
   0
ENDSEC
  0
SECTION
  2
OBJECTS
  0
DICTIONARY
  5
C
100
AcDbDictionary
  3
ACAD_GROUP
350
D
  3
ACAD_MLINESTYLE
350
1B
  0
DICTIONARY
  5
D
102
{ACAD_REACTORS
330
C
102
}
100
AcDbDictionary
  0
DICTIONARY
  5
1B
102
{ACAD_REACTORS
330
C
102
}
100
AcDbDictionary
  3
STANDARD
350
1C
  0
MLINESTYLE
  5
1C
102
{ACAD_REACTORS
330
1B
102
}
100
AcDbMlineStyle
  2
STANDARD
 70
     0
  3

 62
   256
 51
90.0
 52
90.0
 71
     2
 49
0.5
 62
   256
  6
BYLAYER
 49
-0.5
 62
   256
  6
BYLAYER
  0
ENDSEC
   0
EOF
