   0
SECTION
   2
HEADER
   9
$ACADVER
   1
AC1015
   9
$LIMMIN
  10
0.0
  20
0.0
   9
$LIMMAX
  10
 630.00000000000
  20
 445.50000000000
   9
$EXTMIN
  10
0.0
  20
0.0
  30
0.0
   9
$EXTMAX
  10
 630.00000000000
  20
 445.50000000000
  30
0.0
   9
$LTSCALE
  40
 12.600000000000
   9
$HANDSEED
   5
316
   0
ENDSEC
   0
SECTION
   2
TABLES
  0
TABLE
  2
VPORT
  5
8
100
AcDbSymbolTable
 70
     1
  0
VPORT
  5
315
100
AcDbSymbolTableRecord
100
AcDbViewportTableRecord
  2
*ACTIVE
 70
     0
 10
0.0
 20
0.0
 11
1.0
 21
1.0
  12
 315.00000000000
  22
 222.75000000000
 13
0.0
 23
0.0
 14
1.0
 24
1.0
 15
0.0
 25
0.0
 16
0.0
 26
0.0
 36
1.0
 17
0.0
 27
0.0
 37
0.0
  40
 630.00000000000
  41
 1.4787878787879
 42
50.0
 43
0.0
 44
0.0
 50
0.0
 51
0.0
 71
     0
 72
   100
 73
     1
 74
     1
 75
     0
 76
     0
 77
     0
 78
     0
  0
ENDTAB
  0
TABLE
  2
LTYPE
  5
5
100
AcDbSymbolTable
 70
    25
  0
LTYPE
  5
12
100
AcDbSymbolTableRecord
100
AcDbLinetypeTableRecord
  2
BYBLOCK
 70
     0
  3

 72
    65
 73
     0
 40
0.0
  0
LTYPE
  5
13
100
AcDbSymbolTableRecord
100
AcDbLinetypeTableRecord
  2
BYLAYER
 70
     0
  3

 72
    65
 73
     0
 40
0.0
  0
LTYPE
  5
14
100
AcDbSymbolTableRecord
100
AcDbLinetypeTableRecord
  2
CONTINUOUS
 70
     0
  3
Solid line
 72
    65
 73
     0
 40
0.0
  0
LTYPE
  5
20
100
AcDbSymbolTableRecord
100
AcDbLinetypeTableRecord
  2
BORDER
 70
     0
  3
__ __ . __ __ . __ __ . __ __ . __ __ . __ __ .
 72
    65
 73
     6
 40
1.75
 49
0.5
 74
     0
 49
-0.25
 74
     0
 49
0.5
 74
     0
 49
-0.25
 74
     0
 49
0.0
 74
     0
 49
-0.25
 74
     0
  0
LTYPE
  5
21
100
AcDbSymbolTableRecord
100
AcDbLinetypeTableRecord
  2
BORDER2
 70
     0
  3
__.__.__.__.__.__.__.__.__.__.__.__.__.__.__.__
 72
    65
 73
     6
 40
0.875
 49
0.25
 74
     0
 49
-0.125
 74
     0
 49
0.25
 74
     0
 49
-0.125
 74
     0
 49
0.0
 74
     0
 49
-0.125
 74
     0
  0
LTYPE
  5
22
100
AcDbSymbolTableRecord
100
AcDbLinetypeTableRecord
  2
BORDERX2
 70
     0
  3
____  ____  .  ____  ____  .  ____  ____  .  __
 72
    65
 73
     6
 40
3.5
 49
1.0
 74
     0
 49
-0.5
 74
     0
 49
1.0
 74
     0
 49
-0.5
 74
     0
 49
0.0
 74
     0
 49
-0.5
 74
     0
  0
LTYPE
  5
23
100
AcDbSymbolTableRecord
100
AcDbLinetypeTableRecord
  2
CENTER
 70
     0
  3
____ _ ____ _ ____ _ ____ _ ____ _ ____ _ ____ 
 72
    65
 73
     4
 40
2.0
 49
1.25
 74
     0
 49
-0.25
 74
     0
 49
0.25
 74
     0
 49
-0.25
 74
     0
  0
LTYPE
  5
24
100
AcDbSymbolTableRecord
100
AcDbLinetypeTableRecord
  2
CENTER2
 70
     0
  3
___ _ ___ _ ___ _ ___ _ ___ _ ___ _ ___ _ ___ _
 72
    65
 73
     4
 40
1.125
 49
0.75
 74
     0
 49
-0.125
 74
     0
 49
0.125
 74
     0
 49
-0.125
 74
     0
  0
LTYPE
  5
25
100
AcDbSymbolTableRecord
100
AcDbLinetypeTableRecord
  2
CENTERX2
 70
     0
  3
________  __  ________  __  ________  __  _____
 72
    65
 73
     4
 40
4.0
 49
2.5
 74
     0
 49
-0.5
 74
     0
 49
0.5
 74
     0
 49
-0.5
 74
     0
  0
LTYPE
  5
26
100
AcDbSymbolTableRecord
100
AcDbLinetypeTableRecord
  2
DASHDOT
 70
     0
  3
__ . __ . __ . __ . __ . __ . __ . __ . __ . __
 72
    65
 73
     4
 40
1.0
 49
0.5
 74
     0
 49
-0.25
 74
     0
 49
0.0
 74
     0
 49
-0.25
 74
     0
  0
LTYPE
  5
27
100
AcDbSymbolTableRecord
100
AcDbLinetypeTableRecord
  2
DASHDOT2
 70
     0
  3
_._._._._._._._._._._._._._._._._._._._._._._._
 72
    65
 73
     4
 40
0.5
 49
0.25
 74
     0
 49
-0.125
 74
     0
 49
0.0
 74
     0
 49
-0.125
 74
     0
  0
LTYPE
  5
28
100
AcDbSymbolTableRecord
100
AcDbLinetypeTableRecord
  2
DASHDOTX2
 70
     0
  3
____  .  ____  .  ____  .  ____  .  ____  .  __
 72
    65
 73
     4
 40
2.0
 49
1.0
 74
     0
 49
-0.5
 74
     0
 49
0.0
 74
     0
 49
-0.5
 74
     0
  0
LTYPE
  5
29
100
AcDbSymbolTableRecord
100
AcDbLinetypeTableRecord
  2
DASHED
 70
     0
  3
__ __ __ __ __ __ __ __ __ __ __ __ __ __ __ __
 72
    65
 73
     2
 40
0.75
 49
0.5
 74
     0
 49
-0.25
 74
     0
  0
LTYPE
  5
2A
100
AcDbSymbolTableRecord
100
AcDbLinetypeTableRecord
  2
DASHED2
 70
     0
  3
_ _ _ _ _ _ _ _ _ _ _ _ _ _ _ _ _ _ _ _ _ _ _ _
 72
    65
 73
     2
 40
0.375
 49
0.25
 74
     0
 49
-0.125
 74
     0
  0
LTYPE
  5
2B
100
AcDbSymbolTableRecord
100
AcDbLinetypeTableRecord
  2
DASHEDX2
 70
     0
  3
____  ____  ____  ____  ____  ____  ____  ____ 
 72
    65
 73
     2
 40
1.5
 49
1.0
 74
     0
 49
-0.5
 74
     0
  0
LTYPE
  5
2C
100
AcDbSymbolTableRecord
100
AcDbLinetypeTableRecord
  2
DIVIDE
 70
     0
  3
____ . . ____ . . ____ . . ____ . . ____ . . __
 72
    65
 73
     6
 40
1.25
 49
0.5
 74
     0
 49
-0.25
 74
     0
 49
0.0
 74
     0
 49
-0.25
 74
     0
 49
0.0
 74
     0
 49
-0.25
 74
     0
  0
LTYPE
  5
2D
100
AcDbSymbolTableRecord
100
AcDbLinetypeTableRecord
  2
DIVIDE2
 70
     0
  3
__..__..__..__..__..__..__..__..__..__..__..__.
 72
    65
 73
     6
 40
0.625
 49
0.25
 74
     0
 49
-0.125
 74
     0
 49
0.0
 74
     0
 49
-0.125
 74
     0
 49
0.0
 74
     0
 49
-0.125
 74
     0
  0
LTYPE
  5
2E
100
AcDbSymbolTableRecord
100
AcDbLinetypeTableRecord
  2
DIVIDEX2
 70
     0
  3
________  .  .  ________  .  .  ________  .  . 
 72
    65
 73
     6
 40
2.5
 49
1.0
 74
     0
 49
-0.5
 74
     0
 49
0.0
 74
     0
 49
-0.5
 74
     0
 49
0.0
 74
     0
 49
-0.5
 74
     0
  0
LTYPE
  5
2F
100
AcDbSymbolTableRecord
100
AcDbLinetypeTableRecord
  2
DOT
 70
     0
  3
. . . . . . . . . . . . . . . . . . . . . . . .
 72
    65
 73
     2
 40
0.25
 49
0.0
 74
     0
 49
-0.25
 74
     0
  0
LTYPE
  5
30
100
AcDbSymbolTableRecord
100
AcDbLinetypeTableRecord
  2
DOT2
 70
     0
  3
...............................................
 72
    65
 73
     2
 40
0.125
 49
0.0
 74
     0
 49
-0.125
 74
     0
  0
LTYPE
  5
31
100
AcDbSymbolTableRecord
100
AcDbLinetypeTableRecord
  2
DOTX2
 70
     0
  3
.  .  .  .  .  .  .  .  .  .  .  .  .  .  .  . 
 72
    65
 73
     2
 40
0.5
 49
0.0
 74
     0
 49
-0.5
 74
     0
  0
LTYPE
  5
32
100
AcDbSymbolTableRecord
100
AcDbLinetypeTableRecord
  2
HIDDEN
 70
     0
  3
__ __ __ __ __ __ __ __ __ __ __ __ __ __ __ __
 72
    65
 73
     2
 40
0.375
 49
0.25
 74
     0
 49
-0.125
 74
     0
  0
LTYPE
  5
33
100
AcDbSymbolTableRecord
100
AcDbLinetypeTableRecord
  2
HIDDEN2
 70
     0
  3
_ _ _ _ _ _ _ _ _ _ _ _ _ _ _ _ _ _ _ _ _ _ _ _
 72
    65
 73
     2
 40
0.1875
 49
0.125
 74
     0
 49
-0.0625
 74
     0
  0
LTYPE
  5
34
100
AcDbSymbolTableRecord
100
AcDbLinetypeTableRecord
  2
HIDDENX2
 70
     0
  3
____ ____ ____ ____ ____ ____ ____ ____ ____ __
 72
    65
 73
     2
 40
0.75
 49
0.5
 74
     0
 49
-0.25
 74
     0
  0
LTYPE
  5
35
100
AcDbSymbolTableRecord
100
AcDbLinetypeTableRecord
  2
PHANTOM
 70
     0
  3
______  __  __  ______  __  __  ______  __  __ 
 72
    65
 73
     6
 40
2.5
 49
1.25
 74
     0
 49
-0.25
 74
     0
 49
0.25
 74
     0
 49
-0.25
 74
     0
 49
0.25
 74
     0
 49
-0.25
 74
     0
  0
LTYPE
  5
36
100
AcDbSymbolTableRecord
100
AcDbLinetypeTableRecord
  2
PHANTOM2
 70
     0
  3
___ _ _ ___ _ _ ___ _ _ ___ _ _ ___ _ _ ___ _ _
 72
    65
 73
     6
 40
1.25
 49
0.625
 74
     0
 49
-0.125
 74
     0
 49
0.125
 74
     0
 49
-0.125
 74
     0
 49
0.125
 74
     0
 49
-0.125
 74
     0
  0
LTYPE
  5
37
100
AcDbSymbolTableRecord
100
AcDbLinetypeTableRecord
  2
PHANTOMX2
 70
     0
  3
____________    ____    ____    ____________   
 72
    65
 73
     6
 40
5.0
 49
2.5
 74
     0
 49
-0.5
 74
     0
 49
0.5
 74
     0
 49
-0.5
 74
     0
 49
0.5
 74
     0
 49
-0.5
 74
     0
  0
ENDTAB
   0
TABLE
   2
LAYER
   5
2
 100
AcDbSymbolTable
  70
2
   0
LAYER
   5
E
 100
AcDbSymbolTableRecord
 100
AcDbLayerTableRecord
   2
0
  70
0
  62
7
   6
CONTINUOUS
 390
30
   0
LAYER
   5
39
 100
AcDbSymbolTableRecord
 100
AcDbLayerTableRecord
   2
LEVEL001
  70
0
  62
7
   6
CONTINUOUS
 390
30
   0
ENDTAB
  0
TABLE
  2
STYLE
  5
3
100
AcDbSymbolTable
  70
3
  0
STYLE
  5
F
100
AcDbSymbolTableRecord
100
AcDbTextStyleTableRecord
  2
STANDARD
 70
     0
 40
0.0
 41
1.0
 50
0.0
 71
     0
 42
0.2
  3
TXT
  4
BIGFONT
  0
STYLE
  5
38
100
AcDbSymbolTableRecord
100
AcDbTextStyleTableRecord
  2
STANDARD1
 70
     4
 40
0.0
 41
1.0
 50
0.0
 71
     0
 42
0.2
  3
TXT
  4
BIGFONT
   0
STYLE
   5
3A
 100
AcDbSymbolTableRecord
 100
AcDbTextStyleTableRecord
   2
GMM001
  70
0
  40
0.0
  41
 1.0000000000000
  50
0.0
  71
     0
  42
1.0
   3
txt.shx
   4
bigfont.shx
   0
ENDTAB
  0
TABLE
  2
VIEW
  5
6
100
AcDbSymbolTable
 70
     0
  0
ENDTAB
  0
TABLE
  2
UCS
  5
7
100
AcDbSymbolTable
 70
     0
  0
ENDTAB
  0
TABLE
  2
APPID
  5
9
100
AcDbSymbolTable
 70
     1
  0
APPID
  5
10
100
AcDbSymbolTableRecord
100
AcDbRegAppTableRecord
  2
ACAD
 70
     0
  0
ENDTAB
   0
TABLE
   2
DIMSTYLE
   5
A
 100
AcDbSymbolTable
  70
9
 100
AcDbDimStyleTable
  0
DIMSTYLE
105
1D
100
AcDbSymbolTableRecord
100
AcDbDimStyleTableRecord
  2
STANDARD
 70
     0
  3

  4

  5

  6

  7

 40
1.0
 41
0.18
 42
0.0625
 43
0.38
 44
0.18
 45
0.0
 46
0.0
 47
0.0
 48
0.0
140
0.18
141
0.09
142
0.0
143
25.4
144
1.0
145
0.0
146
1.0
147
0.09
 71
     0
 72
     0
 73
     1
 74
     1
 75
     0
 76
     0
 77
     0
 78
     0
170
     0
171
     2
172
     0
173
     0
174
     0
175
     0
176
     0
177
     0
178
     0
270
     2
271
     4
272
     4
273
     2
274
     2
340
F
275
     0
280
     0
281
     0
282
     0
283
     1
284
     0
285
     0
286
     0
287
     3
288
     0
   0
DIMSTYLE
 105
3B
 100
AcDbSymbolTableRecord
 100
AcDbDimStyleTableRecord
   2
GMM001
  70
0
   3

   4

   5

   6
_OPEN30
   7
_OPEN30
  40
 1.0000000000000
  41
 4.5000000000000
  42
0.0
  43
 12.000000000000
  44
 3.0000000000000
  45
0.0
  46
0.0
  47
0.0
  48
0.0
 140
 6.0000000000000
 141
 1.5000000000000
 142
0.0
 143
 0.39400000000000E-1
 144
 1.0000000000000
 145
0.0
 146
 0.62500000000000
 147
 2.5714285714286
  71
0
  72
0
  73
0
  74
0
  75
0
  76
0
  77
3
  78
8
 170
0
 171
2
 172
1
 173
1
 174
0
 175
0
 176
3
 177
3
 178
3
 270
2
 271
6
 272
0
 273
2
 274
2
 340
3A
 275
1
 280
0
 281
0
 282
0
 283
1
 284
0
 285
0
 286
0
 287
3
 288
0
   0
DIMSTYLE
 105
3C
 100
AcDbSymbolTableRecord
 100
AcDbDimStyleTableRecord
   2
GMM002
  70
0
   3
4-R<>
   4

   5

   6
_NONE
   7
_OPEN30
  40
 1.0000000000000
  41
 4.5000000000000
  42
0.0
  43
 12.000000000000
  44
 3.0000000000000
  45
0.0
  46
0.0
  47
0.0
  48
0.0
 140
 6.0000000000000
 141
 1.5000000000000
 142
0.0
 143
 0.39400000000000E-1
 144
 1.0000000000000
 145
0.0
 146
 0.62500000000000
 147
 2.5714285714286
  71
0
  72
0
  73
0
  74
0
  75
0
  76
0
  77
3
  78
8
 170
0
 171
2
 172
1
 173
1
 174
0
 175
0
 176
3
 177
3
 178
3
 270
2
 271
6
 272
0
 273
2
 274
2
 340
3A
 275
1
 280
0
 281
0
 282
0
 283
1
 284
0
 285
0
 286
0
 287
3
 288
1
   0
DIMSTYLE
 105
3D
 100
AcDbSymbolTableRecord
 100
AcDbDimStyleTableRecord
   2
GMM003
  70
0
   3

   4

   5

   6
_OPEN30
   7
_OPEN30
  40
 1.0000000000000
  41
 4.5000000000000
  42
0.0
  43
 12.000000000000
  44
 3.0000000000000
  45
0.0
  46
0.0
  47
0.0
  48
0.0
 140
 6.0000000000000
 141
 1.5000000000000
 142
0.0
 143
 0.39400000000000E-1
 144
 1.0000000000000
 145
0.0
 146
 0.62500000000000
 147
 2.5714285714286
  71
0
  72
0
  73
0
  74
0
  75
0
  76
0
  77
3
  78
8
 170
0
 171
2
 172
1
 173
1
 174
0
 175
0
 176
3
 177
3
 178
3
 270
2
 271
6
 272
0
 273
2
 274
2
 340
3A
 275
1
 280
0
 281
0
 282
0
 283
1
 284
0
 285
0
 286
0
 287
3
 288
0
   0
DIMSTYLE
 105
3E
 100
AcDbSymbolTableRecord
 100
AcDbDimStyleTableRecord
   2
GMM004
  70
0
   3

   4

   5

   6
_DOT
   7
_OPEN30
  40
 1.0000000000000
  41
 4.5000000000000
  42
0.0
  43
 12.000000000000
  44
 3.0000000000000
  45
0.0
  46
0.0
  47
0.0
  48
0.0
 140
 6.0000000000000
 141
 1.5000000000000
 142
0.0
 143
 0.39400000000000E-1
 144
 1.0000000000000
 145
0.0
 146
 0.62500000000000
 147
 2.5714285714286
  71
0
  72
0
  73
0
  74
0
  75
0
  76
0
  77
3
  78
8
 170
0
 171
2
 172
1
 173
1
 174
0
 175
0
 176
3
 177
3
 178
3
 270
2
 271
6
 272
0
 273
2
 274
2
 340
3A
 275
1
 280
0
 281
0
 282
0
 283
1
 284
0
 285
0
 286
0
 287
3
 288
0
   0
DIMSTYLE
 105
3F
 100
AcDbSymbolTableRecord
 100
AcDbDimStyleTableRecord
   2
GMM005
  70
0
   3

   4

   5

   6
_OPEN30
   7
_OPEN30
  40
 1.0000000000000
  41
 4.5000000000000
  42
0.0
  43
 12.000000000000
  44
 3.0000000000000
  45
0.0
  46
0.0
  47
0.0
  48
0.0
 140
 6.0000000000000
 141
 1.5000000000000
 142
0.0
 143
 0.39400000000000E-1
 144
 1.0000000000000
 145
0.0
 146
 0.62500000000000
 147
 2.5714285714286
  71
0
  72
0
  73
0
  74
0
  75
0
  76
0
  77
3
  78
8
 170
0
 171
2
 172
1
 173
1
 174
0
 175
0
 176
3
 177
3
 178
3
 270
2
 271
6
 272
0
 273
2
 274
2
 340
3A
 275
1
 280
0
 281
0
 282
0
 283
1
 284
0
 285
0
 286
0
 287
3
 288
1
   0
DIMSTYLE
 105
40
 100
AcDbSymbolTableRecord
 100
AcDbDimStyleTableRecord
   2
GMM006
  70
0
   3

   4

   5

   6
_OPEN30
   7
_DOT
  40
 1.0000000000000
  41
 4.5000000000000
  42
0.0
  43
 12.000000000000
  44
 3.0000000000000
  45
0.0
  46
0.0
  47
0.0
  48
0.0
 140
 6.0000000000000
 141
 1.5000000000000
 142
0.0
 143
 0.39400000000000E-1
 144
 1.0000000000000
 145
0.0
 146
 0.62500000000000
 147
 2.5714285714286
  71
0
  72
0
  73
0
  74
0
  75
0
  76
0
  77
3
  78
8
 170
0
 171
2
 172
1
 173
1
 174
0
 175
0
 176
3
 177
3
 178
3
 270
2
 271
6
 272
0
 273
2
 274
2
 340
3A
 275
1
 280
0
 281
0
 282
0
 283
1
 284
0
 285
0
 286
0
 287
3
 288
1
   0
DIMSTYLE
 105
41
 100
AcDbSymbolTableRecord
 100
AcDbDimStyleTableRecord
   2
GMM007
  70
0
   3

   4

   5

   6
_OPEN30
   7
_OPEN30
  40
 1.0000000000000
  41
 4.5000000000000
  42
0.0
  43
 12.000000000000
  44
 3.0000000000000
  45
0.0
  46
0.0
  47
0.0
  48
0.0
 140
 6.0000000000000
 141
 1.5000000000000
 142
0.0
 143
 0.39400000000000E-1
 144
 1.0000000000000
 145
0.0
 146
 0.62500000000000
 147
 2.5714285714286
  71
0
  72
0
  73
0
  74
0
  75
0
  76
0
  77
3
  78
8
 170
0
 171
2
 172
1
 173
1
 174
0
 175
0
 176
3
 177
3
 178
3
 270
2
 271
6
 272
0
 273
2
 274
2
 340
3A
 275
1
 280
0
 281
0
 282
0
 283
1
 284
0
 285
0
 286
0
 287
3
 288
1
   0
ENDTAB
  0
TABLE
  2
BLOCK_RECORD
  5
1
100
AcDbSymbolTable
 70
     0
  0
BLOCK_RECORD
  5
18
100
AcDbSymbolTableRecord
100
AcDbBlockTableRecord
  2
*MODEL_SPACE
  0
BLOCK_RECORD
  5
15
100
AcDbSymbolTableRecord
100
AcDbBlockTableRecord
  2
*PAPER_SPACE
   0
BLOCK_RECORD
   5
42
 100
AcDbSymbolTableRecord
 100
AcDbBlockTableRecord
   2
HATCH001
   0
BLOCK_RECORD
   5
43
 100
AcDbSymbolTableRecord
 100
AcDbBlockTableRecord
   2
*D1
   0
BLOCK_RECORD
   5
44
 100
AcDbSymbolTableRecord
 100
AcDbBlockTableRecord
   2
*D2
   0
BLOCK_RECORD
   5
45
 100
AcDbSymbolTableRecord
 100
AcDbBlockTableRecord
   2
*D3
   0
BLOCK_RECORD
   5
46
 100
AcDbSymbolTableRecord
 100
AcDbBlockTableRecord
   2
*D4
   0
BLOCK_RECORD
   5
47
 100
AcDbSymbolTableRecord
 100
AcDbBlockTableRecord
   2
*D5
   0
BLOCK_RECORD
   5
48
 100
AcDbSymbolTableRecord
 100
AcDbBlockTableRecord
   2
*D6
   0
BLOCK_RECORD
   5
49
 100
AcDbSymbolTableRecord
 100
AcDbBlockTableRecord
   2
*D7
   0
BLOCK_RECORD
   5
4A
 100
AcDbSymbolTableRecord
 100
AcDbBlockTableRecord
   2
*D8
   0
BLOCK_RECORD
   5
4B
 100
AcDbSymbolTableRecord
 100
AcDbBlockTableRecord
   2
*D9
   0
BLOCK_RECORD
   5
4C
 100
AcDbSymbolTableRecord
 100
AcDbBlockTableRecord
   2
*D10
   0
BLOCK_RECORD
   5
4D
 100
AcDbSymbolTableRecord
 100
AcDbBlockTableRecord
   2
*D11
   0
BLOCK_RECORD
   5
4E
 100
AcDbSymbolTableRecord
 100
AcDbBlockTableRecord
   2
*D12
   0
BLOCK_RECORD
   5
4F
 100
AcDbSymbolTableRecord
 100
AcDbBlockTableRecord
   2
*D13
   0
BLOCK_RECORD
   5
50
 100
AcDbSymbolTableRecord
 100
AcDbBlockTableRecord
   2
*D14
   0
BLOCK_RECORD
   5
51
 100
AcDbSymbolTableRecord
 100
AcDbBlockTableRecord
   2
*D15
   0
BLOCK_RECORD
   5
52
 100
AcDbSymbolTableRecord
 100
AcDbBlockTableRecord
   2
*D16
   0
BLOCK_RECORD
   5
53
 100
AcDbSymbolTableRecord
 100
AcDbBlockTableRecord
   2
_ARCHTICK
   0
BLOCK_RECORD
   5
54
 100
AcDbSymbolTableRecord
 100
AcDbBlockTableRecord
   2
_BOXBLANK
   0
BLOCK_RECORD
   5
55
 100
AcDbSymbolTableRecord
 100
AcDbBlockTableRecord
   2
_BOXFILLED
   0
BLOCK_RECORD
   5
56
 100
AcDbSymbolTableRecord
 100
AcDbBlockTableRecord
   2
_CLOSED
   0
BLOCK_RECORD
   5
57
 100
AcDbSymbolTableRecord
 100
AcDbBlockTableRecord
   2
_CLOSEDBLANK
   0
BLOCK_RECORD
   5
58
 100
AcDbSymbolTableRecord
 100
AcDbBlockTableRecord
   2
_DATUMBLANK
   0
BLOCK_RECORD
   5
59
 100
AcDbSymbolTableRecord
 100
AcDbBlockTableRecord
   2
_DATUMFILLED
   0
BLOCK_RECORD
   5
5A
 100
AcDbSymbolTableRecord
 100
AcDbBlockTableRecord
   2
_DOT
   0
BLOCK_RECORD
   5
5B
 100
AcDbSymbolTableRecord
 100
AcDbBlockTableRecord
   2
_DOTBLANK
   0
BLOCK_RECORD
   5
5C
 100
AcDbSymbolTableRecord
 100
AcDbBlockTableRecord
   2
_DOTSMALL
   0
BLOCK_RECORD
   5
5D
 100
AcDbSymbolTableRecord
 100
AcDbBlockTableRecord
   2
_INTEGRAL
   0
BLOCK_RECORD
   5
5E
 100
AcDbSymbolTableRecord
 100
AcDbBlockTableRecord
   2
_NONE
   0
BLOCK_RECORD
   5
5F
 100
AcDbSymbolTableRecord
 100
AcDbBlockTableRecord
   2
_OBLIQUE
   0
BLOCK_RECORD
   5
60
 100
AcDbSymbolTableRecord
 100
AcDbBlockTableRecord
   2
_OPEN
   0
BLOCK_RECORD
   5
61
 100
AcDbSymbolTableRecord
 100
AcDbBlockTableRecord
   2
_OPEN30
   0
BLOCK_RECORD
   5
62
 100
AcDbSymbolTableRecord
 100
AcDbBlockTableRecord
   2
_OPEN90
   0
BLOCK_RECORD
   5
63
 100
AcDbSymbolTableRecord
 100
AcDbBlockTableRecord
   2
_ORIGIN
   0
ENDTAB
   0
ENDSEC
  0
SECTION
  2
BLOCKS
  0
BLOCK
  5
19
100
AcDbEntity
  8
0
100
AcDbBlockBegin
  2
*MODEL_SPACE
 70
     0
 10
0.0
 20
0.0
 30
0.0
  3
*MODEL_SPACE
  1

  0
ENDBLK
  5
1A
100
AcDbEntity
  8
0
100
AcDbBlockEnd
  0
BLOCK
  5
16
100
AcDbEntity
 67
     1
  8
0
100
AcDbBlockBegin
  2
*PAPER_SPACE
 70
     0
 10
0.0
 20
0.0
 30
0.0
  3
*PAPER_SPACE
  1

  0
ENDBLK
  5
17
100
AcDbEntity
 67
     1
  8
0
100
AcDbBlockEnd
   0
BLOCK
   5
64
 100
AcDbEntity
   8
0
 100
AcDbBlockBegin
   2
_ARCHTICK
  70
0
  10
0.0
  20
0.0
  30
0.0
   3
_ARCHTICK
   0
POLYLINE
   5
65
 100
AcDbEntity
   8
0
   6
BYBLOCK
  62
0
 100
AcDb2dPolyline
  66
1
  10
0.0
  20
0.0
  30
0.0
  70
1
  40
 0.15000000000000
  41
 0.15000000000000
   0
VERTEX
   5
66
 100
AcDbEntity
   8
0
   6
BYBLOCK
  62
0
 100
AcDbVertex
 100
AcDb2dVertex
  10
-0.50000000000000
  20
-0.50000000000000
  30
0.0
  40
 0.15000000000000
  41
 0.15000000000000
   0
VERTEX
   5
67
 100
AcDbEntity
   8
0
   6
BYBLOCK
  62
0
 100
AcDbVertex
 100
AcDb2dVertex
  10
 0.50000000000000
  20
 0.50000000000000
  30
0.0
  40
 0.15000000000000
  41
 0.15000000000000
   0
SEQEND
   5
68
 100
AcDbEntity
   8
0
   6
BYBLOCK
  62
0
   0
ENDBLK
   5
69
 100
AcDbEntity
   8
0
 100
AcDbBlockEnd
   0
BLOCK
   5
6A
 100
AcDbEntity
   8
0
 100
AcDbBlockBegin
   2
_OBLIQUE
  70
0
  10
0.0
  20
0.0
  30
0.0
   3
_OBLIQUE
   0
LINE
   5
6B
 100
AcDbEntity
   8
0
 100
AcDbLine
   6
BYBLOCK
  62
0
  10
-0.50000000000000
  20
-0.50000000000000
  30
0.0
  11
 0.50000000000000
  21
 0.50000000000000
  31
0.0
   0
ENDBLK
   5
6C
 100
AcDbEntity
   8
0
 100
AcDbBlockEnd
   0
BLOCK
   5
6D
 100
AcDbEntity
   8
0
 100
AcDbBlockBegin
   2
_BOXBLANK
  70
0
  10
0.0
  20
0.0
  30
0.0
   3
_BOXBLANK
   0
LINE
   5
6E
 100
AcDbEntity
   8
0
 100
AcDbLine
   6
BYBLOCK
  62
0
  10
-0.50000000000000
  20
-0.50000000000000
  30
0.0
  11
 0.50000000000000
  21
-0.50000000000000
  31
0.0
   0
LINE
   5
6F
 100
AcDbEntity
   8
0
 100
AcDbLine
   6
BYBLOCK
  62
0
  10
 0.50000000000000
  20
-0.50000000000000
  30
0.0
  11
 0.50000000000000
  21
 0.50000000000000
  31
0.0
   0
LINE
   5
70
 100
AcDbEntity
   8
0
 100
AcDbLine
   6
BYBLOCK
  62
0
  10
 0.50000000000000
  20
 0.50000000000000
  30
0.0
  11
-0.50000000000000
  21
 0.50000000000000
  31
0.0
   0
LINE
   5
71
 100
AcDbEntity
   8
0
 100
AcDbLine
   6
BYBLOCK
  62
0
  10
-0.50000000000000
  20
 0.50000000000000
  30
0.0
  11
-0.50000000000000
  21
-0.50000000000000
  31
0.0
   0
LINE
   5
72
 100
AcDbEntity
   8
0
 100
AcDbLine
   6
BYBLOCK
  62
0
  10
-0.50000000000000
  20
0.0
  30
0.0
  11
-1.0000000000000
  21
0.0
  31
0.0
   0
ENDBLK
   5
73
 100
AcDbEntity
   8
0
 100
AcDbBlockEnd
   0
BLOCK
   5
74
 100
AcDbEntity
   8
0
 100
AcDbBlockBegin
   2
_BOXFILLED
  70
0
  10
0.0
  20
0.0
  30
0.0
   3
_BOXFILLED
   0
SOLID
   5
75
 100
AcDbEntity
   8
0
 100
AcDbTrace
   6
BYBLOCK
  62
0
  10
-0.50000000000000
  20
 0.50000000000000
  30
0.0
  11
 0.50000000000000
  21
 0.50000000000000
  31
0.0
  12
-0.50000000000000
  22
-0.50000000000000
  32
0.0
  13
 0.50000000000000
  23
-0.50000000000000
  33
0.0
   0
LINE
   5
76
 100
AcDbEntity
   8
0
 100
AcDbLine
   6
BYBLOCK
  62
0
  10
-0.50000000000000
  20
0.0
  30
0.0
  11
-1.0000000000000
  21
0.0
  31
0.0
   0
ENDBLK
   5
77
 100
AcDbEntity
   8
0
 100
AcDbBlockEnd
   0
BLOCK
   5
78
 100
AcDbEntity
   8
0
 100
AcDbBlockBegin
   2
_CLOSED
  70
0
  10
0.0
  20
0.0
  30
0.0
   3
_CLOSED
   0
LINE
   5
79
 100
AcDbEntity
   8
0
 100
AcDbLine
   6
BYBLOCK
  62
0
  10
-1.0000000000000
  20
 0.16666666666667
  30
0.0
  11
0.0
  21
0.0
  31
0.0
   0
LINE
   5
7A
 100
AcDbEntity
   8
0
 100
AcDbLine
   6
BYBLOCK
  62
0
  10
0.0
  20
0.0
  30
0.0
  11
-1.0000000000000
  21
-0.16666666666667
  31
0.0
   0
LINE
   5
7B
 100
AcDbEntity
   8
0
 100
AcDbLine
   6
BYBLOCK
  62
0
  10
-1.0000000000000
  20
 0.16666666666667
  30
0.0
  11
-1.0000000000000
  21
-0.16666666666667
  31
0.0
   0
LINE
   5
7C
 100
AcDbEntity
   8
0
 100
AcDbLine
   6
BYBLOCK
  62
0
  10
0.0
  20
0.0
  30
0.0
  11
-1.0000000000000
  21
0.0
  31
0.0
   0
ENDBLK
   5
7D
 100
AcDbEntity
   8
0
 100
AcDbBlockEnd
   0
BLOCK
   5
7E
 100
AcDbEntity
   8
0
 100
AcDbBlockBegin
   2
_OPEN
  70
0
  10
0.0
  20
0.0
  30
0.0
   3
_OPEN
   0
LINE
   5
7F
 100
AcDbEntity
   8
0
 100
AcDbLine
   6
BYBLOCK
  62
0
  10
-1.0000000000000
  20
 0.16666666666667
  30
0.0
  11
0.0
  21
0.0
  31
0.0
   0
LINE
   5
80
 100
AcDbEntity
   8
0
 100
AcDbLine
   6
BYBLOCK
  62
0
  10
0.0
  20
0.0
  30
0.0
  11
-1.0000000000000
  21
-0.16666666666667
  31
0.0
   0
LINE
   5
81
 100
AcDbEntity
   8
0
 100
AcDbLine
   6
BYBLOCK
  62
0
  10
0.0
  20
0.0
  30
0.0
  11
-1.0000000000000
  21
0.0
  31
0.0
   0
ENDBLK
   5
82
 100
AcDbEntity
   8
0
 100
AcDbBlockEnd
   0
BLOCK
   5
83
 100
AcDbEntity
   8
0
 100
AcDbBlockBegin
   2
_OPEN30
  70
0
  10
0.0
  20
0.0
  30
0.0
   3
_OPEN30
   0
LINE
   5
84
 100
AcDbEntity
   8
0
 100
AcDbLine
   6
BYBLOCK
  62
0
  10
-1.0000000000000
  20
 0.26794919243110
  30
0.0
  11
0.0
  21
0.0
  31
0.0
   0
LINE
   5
85
 100
AcDbEntity
   8
0
 100
AcDbLine
   6
BYBLOCK
  62
0
  10
0.0
  20
0.0
  30
0.0
  11
-1.0000000000000
  21
-0.26794919243110
  31
0.0
   0
LINE
   5
86
 100
AcDbEntity
   8
0
 100
AcDbLine
   6
BYBLOCK
  62
0
  10
0.0
  20
0.0
  30
0.0
  11
-1.0000000000000
  21
0.0
  31
0.0
   0
ENDBLK
   5
87
 100
AcDbEntity
   8
0
 100
AcDbBlockEnd
   0
BLOCK
   5
88
 100
AcDbEntity
   8
0
 100
AcDbBlockBegin
   2
_OPEN90
  70
0
  10
0.0
  20
0.0
  30
0.0
   3
_OPEN90
   0
LINE
   5
89
 100
AcDbEntity
   8
0
 100
AcDbLine
   6
BYBLOCK
  62
0
  10
-0.50000000000000
  20
 0.50000000000000
  30
0.0
  11
0.0
  21
0.0
  31
0.0
   0
LINE
   5
8A
 100
AcDbEntity
   8
0
 100
AcDbLine
   6
BYBLOCK
  62
0
  10
0.0
  20
0.0
  30
0.0
  11
-0.50000000000000
  21
-0.50000000000000
  31
0.0
   0
LINE
   5
8B
 100
AcDbEntity
   8
0
 100
AcDbLine
   6
BYBLOCK
  62
0
  10
0.0
  20
0.0
  30
0.0
  11
-1.0000000000000
  21
0.0
  31
0.0
   0
ENDBLK
   5
8C
 100
AcDbEntity
   8
0
 100
AcDbBlockEnd
   0
BLOCK
   5
8D
 100
AcDbEntity
   8
0
 100
AcDbBlockBegin
   2
_CLOSEDBLANK
  70
0
  10
0.0
  20
0.0
  30
0.0
   3
_CLOSEDBLANK
   0
LINE
   5
8E
 100
AcDbEntity
   8
0
 100
AcDbLine
   6
BYBLOCK
  62
0
  10
-1.0000000000000
  20
 0.16666666666667
  30
0.0
  11
0.0
  21
0.0
  31
0.0
   0
LINE
   5
8F
 100
AcDbEntity
   8
0
 100
AcDbLine
   6
BYBLOCK
  62
0
  10
0.0
  20
0.0
  30
0.0
  11
-1.0000000000000
  21
-0.16666666666667
  31
0.0
   0
LINE
   5
90
 100
AcDbEntity
   8
0
 100
AcDbLine
   6
BYBLOCK
  62
0
  10
-1.0000000000000
  20
 0.16666666666667
  30
0.0
  11
-1.0000000000000
  21
-0.16666666666667
  31
0.0
   0
ENDBLK
   5
91
 100
AcDbEntity
   8
0
 100
AcDbBlockEnd
   0
BLOCK
   5
92
 100
AcDbEntity
   8
0
 100
AcDbBlockBegin
   2
_DOT
  70
0
  10
0.0
  20
0.0
  30
0.0
   3
_DOT
   0
POLYLINE
   5
93
 100
AcDbEntity
   8
0
   6
BYBLOCK
  62
0
 100
AcDb2dPolyline
  66
1
  10
0.0
  20
0.0
  30
0.0
  70
1
  40
 0.50000000000000
  41
 0.50000000000000
   0
VERTEX
   5
94
 100
AcDbEntity
   8
0
   6
BYBLOCK
  62
0
 100
AcDbVertex
 100
AcDb2dVertex
  10
-0.25000000000000
  20
0.0
  30
0.0
  42
 1.0000000000000
  40
 0.50000000000000
  41
 0.50000000000000
   0
VERTEX
   5
95
 100
AcDbEntity
   8
0
   6
BYBLOCK
  62
0
 100
AcDbVertex
 100
AcDb2dVertex
  10
 0.25000000000000
  20
0.0
  30
0.0
  42
 1.0000000000000
  40
 0.50000000000000
  41
 0.50000000000000
   0
SEQEND
   5
96
 100
AcDbEntity
   8
0
   6
BYBLOCK
  62
0
   0
LINE
   5
97
 100
AcDbEntity
   8
0
 100
AcDbLine
   6
BYBLOCK
  62
0
  10
-0.50000000000000
  20
0.0
  30
0.0
  11
-1.0000000000000
  21
0.0
  31
0.0
   0
ENDBLK
   5
98
 100
AcDbEntity
   8
0
 100
AcDbBlockEnd
   0
BLOCK
   5
99
 100
AcDbEntity
   8
0
 100
AcDbBlockBegin
   2
_DOTSMALL
  70
0
  10
0.0
  20
0.0
  30
0.0
   3
_DOTSMALL
   0
POLYLINE
   5
9A
 100
AcDbEntity
   8
0
   6
BYBLOCK
  62
0
 100
AcDb2dPolyline
  66
1
  10
0.0
  20
0.0
  30
0.0
  70
1
  40
 0.50000000000000
  41
 0.50000000000000
   0
VERTEX
   5
9B
 100
AcDbEntity
   8
0
   6
BYBLOCK
  62
0
 100
AcDbVertex
 100
AcDb2dVertex
  10
-0.62500000000000E-1
  20
0.0
  30
0.0
  42
 1.0000000000000
  40
 0.50000000000000
  41
 0.50000000000000
   0
VERTEX
   5
9C
 100
AcDbEntity
   8
0
   6
BYBLOCK
  62
0
 100
AcDbVertex
 100
AcDb2dVertex
  10
 0.62500000000000E-1
  20
0.0
  30
0.0
  42
 1.0000000000000
  40
 0.50000000000000
  41
 0.50000000000000
   0
SEQEND
   5
9D
 100
AcDbEntity
   8
0
   6
BYBLOCK
  62
0
   0
ENDBLK
   5
9E
 100
AcDbEntity
   8
0
 100
AcDbBlockEnd
   0
BLOCK
   5
9F
 100
AcDbEntity
   8
0
 100
AcDbBlockBegin
   2
_DATUMBLANK
  70
0
  10
0.0
  20
0.0
  30
0.0
   3
_DATUMBLANK
   0
LINE
   5
A0
 100
AcDbEntity
   8
0
 100
AcDbLine
   6
BYBLOCK
  62
0
  10
0.0
  20
 0.57735027000000
  30
0.0
  11
-1.0000000000000
  21
0.0
  31
0.0
   0
LINE
   5
A1
 100
AcDbEntity
   8
0
 100
AcDbLine
   6
BYBLOCK
  62
0
  10
-1.0000000000000
  20
0.0
  30
0.0
  11
0.0
  21
-0.57735027000000
  31
0.0
   0
LINE
   5
A2
 100
AcDbEntity
   8
0
 100
AcDbLine
   6
BYBLOCK
  62
0
  10
0.0
  20
-0.57735027000000
  30
0.0
  11
0.0
  21
 0.57735027000000
  31
0.0
   0
ENDBLK
   5
A3
 100
AcDbEntity
   8
0
 100
AcDbBlockEnd
   0
BLOCK
   5
A4
 100
AcDbEntity
   8
0
 100
AcDbBlockBegin
   2
_DATUMFILLED
  70
0
  10
0.0
  20
0.0
  30
0.0
   3
_DATUMFILLED
   0
SOLID
   5
A5
 100
AcDbEntity
   8
0
 100
AcDbTrace
   6
BYBLOCK
  62
0
  10
0.0
  20
 0.57735027000000
  30
0.0
  11
-1.0000000000000
  21
0.0
  31
0.0
  12
0.0
  22
-0.57735027000000
  32
0.0
  13
0.0
  23
-0.57735027000000
  33
0.0
   0
ENDBLK
   5
A6
 100
AcDbEntity
   8
0
 100
AcDbBlockEnd
   0
BLOCK
   5
A7
 100
AcDbEntity
   8
0
 100
AcDbBlockBegin
   2
_ORIGIN
  70
0
  10
0.0
  20
0.0
  30
0.0
   3
_ORIGIN
   0
CIRCLE
   5
A8
 100
AcDbEntity
   8
0
 100
AcDbCircle
   6
BYBLOCK
  62
0
  10
0.0
  20
0.0
  30
0.0
  40
 0.50000000000000
   0
LINE
   5
A9
 100
AcDbEntity
   8
0
 100
AcDbLine
   6
BYBLOCK
  62
0
  10
0.0
  20
0.0
  30
0.0
  11
-1.0000000000000
  21
0.0
  31
0.0
   0
ENDBLK
   5
AA
 100
AcDbEntity
   8
0
 100
AcDbBlockEnd
   0
BLOCK
   5
AB
 100
AcDbEntity
   8
0
 100
AcDbBlockBegin
   2
_NONE
  70
0
  10
0.0
  20
0.0
  30
0.0
   3
_NONE
   0
CIRCLE
   5
AC
 100
AcDbEntity
   8
0
 100
AcDbCircle
   6
BYBLOCK
  62
0
  10
0.0
  20
0.0
  30
0.0
  40
 0.25000000000000
   0
ENDBLK
   5
AD
 100
AcDbEntity
   8
0
 100
AcDbBlockEnd
   0
BLOCK
   5
AE
 100
AcDbEntity
   8
0
 100
AcDbBlockBegin
   2
_DOTBLANK
  70
0
  10
0.0
  20
0.0
  30
0.0
   3
_DOTBLANK
   0
CIRCLE
   5
AF
 100
AcDbEntity
   8
0
 100
AcDbCircle
   6
BYBLOCK
  62
0
  10
0.0
  20
0.0
  30
0.0
  40
 0.50000000000000
   0
LINE
   5
B0
 100
AcDbEntity
   8
0
 100
AcDbLine
   6
BYBLOCK
  62
0
  10
-0.50000000000000
  20
0.0
  30
0.0
  11
-1.0000000000000
  21
0.0
  31
0.0
   0
ENDBLK
   5
B1
 100
AcDbEntity
   8
0
 100
AcDbBlockEnd
   0
BLOCK
   5
B2
 100
AcDbEntity
   8
0
 100
AcDbBlockBegin
   2
_INTEGRAL
  70
0
  10
0.0
  20
0.0
  30
0.0
   3
_INTEGRAL
   0
ARC
   5
B3
 100
AcDbEntity
   8
0
   6
BYBLOCK
  62
0
 100
AcDbCircle
  10
 0.44488800000000
  20
-0.91335000000000E-1
  30
0.0
  40
 0.45416700000000
 100
AcDbArc
  50
 102.00000000000
  51
 168.00000000000
   0
ARC
   5
B4
 100
AcDbEntity
   8
0
   6
BYBLOCK
  62
0
 100
AcDbCircle
  10
-0.44488800000000
  20
 0.91335000000000E-1
  30
0.0
  40
 0.45416700000000
 100
AcDbArc
  50
 282.00000000000
  51
 348.00000000000
   0
ENDBLK
   5
B5
 100
AcDbEntity
   8
0
 100
AcDbBlockEnd
   0
BLOCK
   5
B6
 100
AcDbEntity
   8
0
 100
AcDbBlockBegin
   2
HATCH001
  70
64
  10
0.0
  20
0.0
  30
0.0
   3
HATCH001
   0
LINE
   5
B7
 100
AcDbEntity
   8
LEVEL001
 100
AcDbLine
   6
DOT
  62
15
  10
 76.382632032205
  20
 117.14245750462
  30
0.0
  11
 83.444598347734
  21
 124.20442382015
  31
0.0
   0
LINE
   5
B8
 100
AcDbEntity
   8
LEVEL001
 100
AcDbLine
   6
DOT
  62
15
  10
 76.307256857841
  20
 113.53154843026
  30
0.0
  11
 87.055507422099
  21
 124.27979899452
  31
0.0
   0
LINE
   5
B9
 100
AcDbEntity
   8
LEVEL001
 100
AcDbLine
   6
DOT
  62
15
  10
 76.307256857841
  20
 109.99601453026
  30
0.0
  11
 81.307256857841
  21
 114.99601453026
  31
0.0
   0
LINE
   5
BA
 100
AcDbEntity
   8
LEVEL001
 100
AcDbLine
   6
DOT
  62
15
  10
 85.591041322099
  20
 119.27979899452
  30
0.0
  11
 90.591041322099
  21
 124.27979899452
  31
0.0
   0
LINE
   5
BB
 100
AcDbEntity
   8
LEVEL001
 100
AcDbLine
   6
DOT
  62
15
  10
 76.307256857841
  20
 106.46048063026
  30
0.0
  11
 81.307256857841
  21
 111.46048063026
  31
0.0
   0
LINE
   5
BC
 100
AcDbEntity
   8
LEVEL001
 100
AcDbLine
   6
DOT
  62
15
  10
 89.126575222100
  20
 119.27979899452
  30
0.0
  11
 94.126575222100
  21
 124.27979899452
  31
0.0
   0
LINE
   5
BD
 100
AcDbEntity
   8
LEVEL001
 100
AcDbLine
   6
DOT
  62
15
  10
 76.307256857841
  20
 102.92494673026
  30
0.0
  11
 81.307256857841
  21
 107.92494673026
  31
0.0
   0
LINE
   5
BE
 100
AcDbEntity
   8
LEVEL001
 100
AcDbLine
   6
DOT
  62
15
  10
 92.662109122100
  20
 119.27979899452
  30
0.0
  11
 97.662109122100
  21
 124.27979899452
  31
0.0
   0
LINE
   5
BF
 100
AcDbEntity
   8
LEVEL001
 100
AcDbLine
   6
DOT
  62
15
  10
 76.307256857841
  20
 99.389412830259
  30
0.0
  11
 81.307256857841
  21
 104.38941283026
  31
0.0
   0
LINE
   5
C0
 100
AcDbEntity
   8
LEVEL001
 100
AcDbLine
   6
DOT
  62
15
  10
 96.197643022100
  20
 119.27979899452
  30
0.0
  11
 101.19764302210
  21
 124.27979899452
  31
0.0
   0
LINE
   5
C1
 100
AcDbEntity
   8
LEVEL001
 100
AcDbLine
   6
DOT
  62
15
  10
 76.307256857841
  20
 95.853878930259
  30
0.0
  11
 81.307256857841
  21
 100.85387893026
  31
0.0
   0
LINE
   5
C2
 100
AcDbEntity
   8
LEVEL001
 100
AcDbLine
   6
DOT
  62
15
  10
 99.733176922100
  20
 119.27979899452
  30
0.0
  11
 104.73317692210
  21
 124.27979899452
  31
0.0
   0
LINE
   5
C3
 100
AcDbEntity
   8
LEVEL001
 100
AcDbLine
   6
DOT
  62
15
  10
 76.307256857841
  20
 92.318345030259
  30
0.0
  11
 81.307256857841
  21
 97.318345030259
  31
0.0
   0
LINE
   5
C4
 100
AcDbEntity
   8
LEVEL001
 100
AcDbLine
   6
DOT
  62
15
  10
 103.26871082210
  20
 119.27979899452
  30
0.0
  11
 108.26871082210
  21
 124.27979899452
  31
0.0
   0
LINE
   5
C5
 100
AcDbEntity
   8
LEVEL001
 100
AcDbLine
   6
DOT
  62
15
  10
 76.462305911518
  20
 88.937860183936
  30
0.0
  11
 81.307256857841
  21
 93.782811130259
  31
0.0
   0
LINE
   5
C6
 100
AcDbEntity
   8
LEVEL001
 100
AcDbLine
   6
DOT
  62
15
  10
 106.80424472210
  20
 119.27979899452
  30
0.0
  11
 111.80424472210
  21
 124.27979899452
  31
0.0
   0
LINE
   5
C7
 100
AcDbEntity
   8
LEVEL001
 100
AcDbLine
   6
DOT
  62
15
  10
 77.431730059624
  20
 86.371750432042
  30
0.0
  11
 81.307431254937
  21
 90.247451627355
  31
0.0
   0
LINE
   5
C8
 100
AcDbEntity
   8
LEVEL001
 100
AcDbLine
   6
DOT
  62
15
  10
 110.33977862210
  20
 119.27979899452
  30
0.0
  11
 115.33977862210
  21
 124.27979899452
  31
0.0
   0
LINE
   5
C9
 100
AcDbEntity
   8
LEVEL001
 100
AcDbLine
   6
DOT
  62
15
  10
 79.014572221470
  20
 84.419058693888
  30
0.0
  11
 82.489064865457
  21
 87.893551337875
  31
0.0
   0
LINE
   5
CA
 100
AcDbEntity
   8
LEVEL001
 100
AcDbLine
   6
DOT
  62
15
  10
 113.87531252210
  20
 119.27979899452
  30
0.0
  11
 118.87531252210
  21
 124.27979899452
  31
0.0
   0
LINE
   5
CB
 100
AcDbEntity
   8
LEVEL001
 100
AcDbLine
   6
DOT
  62
15
  10
 81.148155360784
  20
 83.017107933202
  30
0.0
  11
 85.410846422100
  21
 87.279798994518
  31
0.0
   0
LINE
   5
CC
 100
AcDbEntity
   8
LEVEL001
 100
AcDbLine
   6
DOT
  62
15
  10
 117.41084642210
  20
 119.27979899452
  30
0.0
  11
 122.41084642210
  21
 124.27979899452
  31
0.0
   0
LINE
   5
CD
 100
AcDbEntity
   8
LEVEL001
 100
AcDbLine
   6
DOT
  62
15
  10
 83.967487781962
  20
 82.300906454380
  30
0.0
  11
 88.946380322100
  21
 87.279798994518
  31
0.0
   0
LINE
   5
CE
 100
AcDbEntity
   8
LEVEL001
 100
AcDbLine
   6
DOT
  62
15
  10
 120.94638032210
  20
 119.27979899452
  30
0.0
  11
 125.94638032210
  21
 124.27979899452
  31
0.0
   0
LINE
   5
CF
 100
AcDbEntity
   8
LEVEL001
 100
AcDbLine
   6
DOT
  62
15
  10
 87.481914222100
  20
 82.279798994518
  30
0.0
  11
 92.481914222100
  21
 87.279798994518
  31
0.0
   0
LINE
   5
D0
 100
AcDbEntity
   8
LEVEL001
 100
AcDbLine
   6
DOT
  62
15
  10
 124.48191422210
  20
 119.27979899452
  30
0.0
  11
 129.48191422210
  21
 124.27979899452
  31
0.0
   0
LINE
   5
D1
 100
AcDbEntity
   8
LEVEL001
 100
AcDbLine
   6
DOT
  62
15
  10
 91.017448122100
  20
 82.279798994518
  30
0.0
  11
 96.017448122100
  21
 87.279798994518
  31
0.0
   0
LINE
   5
D2
 100
AcDbEntity
   8
LEVEL001
 100
AcDbLine
   6
DOT
  62
15
  10
 128.01744812210
  20
 119.27979899452
  30
0.0
  11
 133.01744812210
  21
 124.27979899452
  31
0.0
   0
LINE
   5
D3
 100
AcDbEntity
   8
LEVEL001
 100
AcDbLine
   6
DOT
  62
15
  10
 94.552982022100
  20
 82.279798994518
  30
0.0
  11
 99.552982022100
  21
 87.279798994518
  31
0.0
   0
LINE
   5
D4
 100
AcDbEntity
   8
LEVEL001
 100
AcDbLine
   6
DOT
  62
15
  10
 131.55298202210
  20
 119.27979899452
  30
0.0
  11
 136.55298202210
  21
 124.27979899452
  31
0.0
   0
LINE
   5
D5
 100
AcDbEntity
   8
LEVEL001
 100
AcDbLine
   6
DOT
  62
15
  10
 98.088515922100
  20
 82.279798994518
  30
0.0
  11
 103.08851592210
  21
 87.279798994518
  31
0.0
   0
LINE
   5
D6
 100
AcDbEntity
   8
LEVEL001
 100
AcDbLine
   6
DOT
  62
15
  10
 135.08851592210
  20
 119.27979899452
  30
0.0
  11
 140.08851592210
  21
 124.27979899452
  31
0.0
   0
LINE
   5
D7
 100
AcDbEntity
   8
LEVEL001
 100
AcDbLine
   6
DOT
  62
15
  10
 101.62404982210
  20
 82.279798994518
  30
0.0
  11
 106.62404982210
  21
 87.279798994518
  31
0.0
   0
LINE
   5
D8
 100
AcDbEntity
   8
LEVEL001
 100
AcDbLine
   6
DOT
  62
15
  10
 138.62404982210
  20
 119.27979899452
  30
0.0
  11
 143.62404982210
  21
 124.27979899452
  31
0.0
   0
LINE
   5
D9
 100
AcDbEntity
   8
LEVEL001
 100
AcDbLine
   6
DOT
  62
15
  10
 105.15958372210
  20
 82.279798994518
  30
0.0
  11
 110.15958372210
  21
 87.279798994518
  31
0.0
   0
LINE
   5
DA
 100
AcDbEntity
   8
LEVEL001
 100
AcDbLine
   6
DOT
  62
15
  10
 142.15958372210
  20
 119.27979899452
  30
0.0
  11
 147.15958372210
  21
 124.27979899452
  31
0.0
   0
LINE
   5
DB
 100
AcDbEntity
   8
LEVEL001
 100
AcDbLine
   6
DOT
  62
15
  10
 108.69511762210
  20
 82.279798994518
  30
0.0
  11
 113.69511762210
  21
 87.279798994518
  31
0.0
   0
LINE
   5
DC
 100
AcDbEntity
   8
LEVEL001
 100
AcDbLine
   6
DOT
  62
15
  10
 145.69511762210
  20
 119.27979899452
  30
0.0
  11
 150.69511762210
  21
 124.27979899452
  31
0.0
   0
LINE
   5
DD
 100
AcDbEntity
   8
LEVEL001
 100
AcDbLine
   6
DOT
  62
15
  10
 112.23065152210
  20
 82.279798994518
  30
0.0
  11
 117.23065152210
  21
 87.279798994518
  31
0.0
   0
LINE
   5
DE
 100
AcDbEntity
   8
LEVEL001
 100
AcDbLine
   6
DOT
  62
15
  10
 149.23065152210
  20
 119.27979899452
  30
0.0
  11
 154.23065152210
  21
 124.27979899452
  31
0.0
   0
LINE
   5
DF
 100
AcDbEntity
   8
LEVEL001
 100
AcDbLine
   6
DOT
  62
15
  10
 115.76618542210
  20
 82.279798994518
  30
0.0
  11
 120.76618542210
  21
 87.279798994518
  31
0.0
   0
LINE
   5
E0
 100
AcDbEntity
   8
LEVEL001
 100
AcDbLine
   6
DOT
  62
15
  10
 152.76618542210
  20
 119.27979899452
  30
0.0
  11
 157.76618542210
  21
 124.27979899452
  31
0.0
   0
LINE
   5
E1
 100
AcDbEntity
   8
LEVEL001
 100
AcDbLine
   6
DOT
  62
15
  10
 119.30171932210
  20
 82.279798994518
  30
0.0
  11
 124.30171932210
  21
 87.279798994518
  31
0.0
   0
LINE
   5
E2
 100
AcDbEntity
   8
LEVEL001
 100
AcDbLine
   6
DOT
  62
15
  10
 156.30171932210
  20
 119.27979899452
  30
0.0
  11
 161.30171932210
  21
 124.27979899452
  31
0.0
   0
LINE
   5
E3
 100
AcDbEntity
   8
LEVEL001
 100
AcDbLine
   6
DOT
  62
15
  10
 122.83725322210
  20
 82.279798994518
  30
0.0
  11
 127.83725322210
  21
 87.279798994518
  31
0.0
   0
LINE
   5
E4
 100
AcDbEntity
   8
LEVEL001
 100
AcDbLine
   6
DOT
  62
15
  10
 159.83725322210
  20
 119.27979899452
  30
0.0
  11
 164.83725322210
  21
 124.27979899452
  31
0.0
   0
LINE
   5
E5
 100
AcDbEntity
   8
LEVEL001
 100
AcDbLine
   6
DOT
  62
15
  10
 126.37278712210
  20
 82.279798994518
  30
0.0
  11
 131.37278712210
  21
 87.279798994518
  31
0.0
   0
LINE
   5
E6
 100
AcDbEntity
   8
LEVEL001
 100
AcDbLine
   6
DOT
  62
15
  10
 163.37278712210
  20
 119.27979899452
  30
0.0
  11
 168.37278712210
  21
 124.27979899452
  31
0.0
   0
LINE
   5
E7
 100
AcDbEntity
   8
LEVEL001
 100
AcDbLine
   6
DOT
  62
15
  10
 129.90832102210
  20
 82.279798994518
  30
0.0
  11
 134.90832102210
  21
 87.279798994518
  31
0.0
   0
LINE
   5
E8
 100
AcDbEntity
   8
LEVEL001
 100
AcDbLine
   6
DOT
  62
15
  10
 166.90832102210
  20
 119.27979899452
  30
0.0
  11
 171.90832102210
  21
 124.27979899452
  31
0.0
   0
LINE
   5
E9
 100
AcDbEntity
   8
LEVEL001
 100
AcDbLine
   6
DOT
  62
15
  10
 133.44385492210
  20
 82.279798994518
  30
0.0
  11
 138.44385492210
  21
 87.279798994518
  31
0.0
   0
LINE
   5
EA
 100
AcDbEntity
   8
LEVEL001
 100
AcDbLine
   6
DOT
  62
15
  10
 170.44385492210
  20
 119.27979899452
  30
0.0
  11
 175.44385492210
  21
 124.27979899452
  31
0.0
   0
LINE
   5
EB
 100
AcDbEntity
   8
LEVEL001
 100
AcDbLine
   6
DOT
  62
15
  10
 136.97938882210
  20
 82.279798994518
  30
0.0
  11
 141.97938882210
  21
 87.279798994518
  31
0.0
   0
LINE
   5
EC
 100
AcDbEntity
   8
LEVEL001
 100
AcDbLine
   6
DOT
  62
15
  10
 173.97938882210
  20
 119.27979899452
  30
0.0
  11
 178.97938882210
  21
 124.27979899452
  31
0.0
   0
LINE
   5
ED
 100
AcDbEntity
   8
LEVEL001
 100
AcDbLine
   6
DOT
  62
15
  10
 140.51492272210
  20
 82.279798994518
  30
0.0
  11
 145.51492272210
  21
 87.279798994518
  31
0.0
   0
LINE
   5
EE
 100
AcDbEntity
   8
LEVEL001
 100
AcDbLine
   6
DOT
  62
15
  10
 177.51492272210
  20
 119.27979899452
  30
0.0
  11
 182.51492272210
  21
 124.27979899452
  31
0.0
   0
LINE
   5
EF
 100
AcDbEntity
   8
LEVEL001
 100
AcDbLine
   6
DOT
  62
15
  10
 144.05045662210
  20
 82.279798994518
  30
0.0
  11
 149.05045662210
  21
 87.279798994518
  31
0.0
   0
LINE
   5
F0
 100
AcDbEntity
   8
LEVEL001
 100
AcDbLine
   6
DOT
  62
15
  10
 181.05045662210
  20
 119.27979899452
  30
0.0
  11
 186.05045662210
  21
 124.27979899452
  31
0.0
   0
LINE
   5
F1
 100
AcDbEntity
   8
LEVEL001
 100
AcDbLine
   6
DOT
  62
15
  10
 147.58599052210
  20
 82.279798994518
  30
0.0
  11
 152.58599052210
  21
 87.279798994518
  31
0.0
   0
LINE
   5
F2
 100
AcDbEntity
   8
LEVEL001
 100
AcDbLine
   6
DOT
  62
15
  10
 184.58599052210
  20
 119.27979899452
  30
0.0
  11
 189.58599052210
  21
 124.27979899452
  31
0.0
   0
LINE
   5
F3
 100
AcDbEntity
   8
LEVEL001
 100
AcDbLine
   6
DOT
  62
15
  10
 151.12152442210
  20
 82.279798994518
  30
0.0
  11
 156.12152442210
  21
 87.279798994518
  31
0.0
   0
LINE
   5
F4
 100
AcDbEntity
   8
LEVEL001
 100
AcDbLine
   6
DOT
  62
15
  10
 188.12152442210
  20
 119.27979899452
  30
0.0
  11
 193.12152442210
  21
 124.27979899452
  31
0.0
   0
LINE
   5
F5
 100
AcDbEntity
   8
LEVEL001
 100
AcDbLine
   6
DOT
  62
15
  10
 154.65705832210
  20
 82.279798994518
  30
0.0
  11
 159.65705832210
  21
 87.279798994518
  31
0.0
   0
LINE
   5
F6
 100
AcDbEntity
   8
LEVEL001
 100
AcDbLine
   6
DOT
  62
15
  10
 191.65705832210
  20
 119.27979899452
  30
0.0
  11
 196.65705832210
  21
 124.27979899452
  31
0.0
   0
LINE
   5
F7
 100
AcDbEntity
   8
LEVEL001
 100
AcDbLine
   6
DOT
  62
15
  10
 158.19259222210
  20
 82.279798994518
  30
0.0
  11
 163.19259222210
  21
 87.279798994518
  31
0.0
   0
LINE
   5
F8
 100
AcDbEntity
   8
LEVEL001
 100
AcDbLine
   6
DOT
  62
15
  10
 195.19259222210
  20
 119.27979899452
  30
0.0
  11
 200.19259222210
  21
 124.27979899452
  31
0.0
   0
LINE
   5
F9
 100
AcDbEntity
   8
LEVEL001
 100
AcDbLine
   6
DOT
  62
15
  10
 161.72812612210
  20
 82.279798994518
  30
0.0
  11
 166.72812612210
  21
 87.279798994518
  31
0.0
   0
LINE
   5
FA
 100
AcDbEntity
   8
LEVEL001
 100
AcDbLine
   6
DOT
  62
15
  10
 198.72812612210
  20
 119.27979899452
  30
0.0
  11
 203.72812612210
  21
 124.27979899452
  31
0.0
   0
LINE
   5
FB
 100
AcDbEntity
   8
LEVEL001
 100
AcDbLine
   6
DOT
  62
15
  10
 165.26366002210
  20
 82.279798994518
  30
0.0
  11
 170.26366002210
  21
 87.279798994518
  31
0.0
   0
LINE
   5
FC
 100
AcDbEntity
   8
LEVEL001
 100
AcDbLine
   6
DOT
  62
15
  10
 202.26366002210
  20
 119.27979899452
  30
0.0
  11
 207.26366002210
  21
 124.27979899452
  31
0.0
   0
LINE
   5
FD
 100
AcDbEntity
   8
LEVEL001
 100
AcDbLine
   6
DOT
  62
15
  10
 168.79919392210
  20
 82.279798994518
  30
0.0
  11
 173.79919392210
  21
 87.279798994518
  31
0.0
   0
LINE
   5
FE
 100
AcDbEntity
   8
LEVEL001
 100
AcDbLine
   6
DOT
  62
15
  10
 205.79919392210
  20
 119.27979899452
  30
0.0
  11
 210.79919392210
  21
 124.27979899452
  31
0.0
   0
LINE
   5
FF
 100
AcDbEntity
   8
LEVEL001
 100
AcDbLine
   6
DOT
  62
15
  10
 172.33472782210
  20
 82.279798994518
  30
0.0
  11
 177.33472782210
  21
 87.279798994518
  31
0.0
   0
LINE
   5
100
 100
AcDbEntity
   8
LEVEL001
 100
AcDbLine
   6
DOT
  62
15
  10
 209.33472782210
  20
 119.27979899452
  30
0.0
  11
 214.33472782210
  21
 124.27979899452
  31
0.0
   0
LINE
   5
101
 100
AcDbEntity
   8
LEVEL001
 100
AcDbLine
   6
DOT
  62
15
  10
 175.87026172210
  20
 82.279798994518
  30
0.0
  11
 180.87026172210
  21
 87.279798994518
  31
0.0
   0
LINE
   5
102
 100
AcDbEntity
   8
LEVEL001
 100
AcDbLine
   6
DOT
  62
15
  10
 212.87026172210
  20
 119.27979899452
  30
0.0
  11
 217.87026172210
  21
 124.27979899452
  31
0.0
   0
LINE
   5
103
 100
AcDbEntity
   8
LEVEL001
 100
AcDbLine
   6
DOT
  62
15
  10
 179.40579562210
  20
 82.279798994518
  30
0.0
  11
 184.40579562210
  21
 87.279798994518
  31
0.0
   0
LINE
   5
104
 100
AcDbEntity
   8
LEVEL001
 100
AcDbLine
   6
DOT
  62
15
  10
 216.40579562210
  20
 119.27979899452
  30
0.0
  11
 221.40579562210
  21
 124.27979899452
  31
0.0
   0
LINE
   5
105
 100
AcDbEntity
   8
LEVEL001
 100
AcDbLine
   6
DOT
  62
15
  10
 182.94132952210
  20
 82.279798994518
  30
0.0
  11
 187.94132952210
  21
 87.279798994518
  31
0.0
   0
LINE
   5
106
 100
AcDbEntity
   8
LEVEL001
 100
AcDbLine
   6
DOT
  62
15
  10
 219.94132952210
  20
 119.27979899452
  30
0.0
  11
 224.94132952210
  21
 124.27979899452
  31
0.0
   0
LINE
   5
107
 100
AcDbEntity
   8
LEVEL001
 100
AcDbLine
   6
DOT
  62
15
  10
 186.47686342210
  20
 82.279798994518
  30
0.0
  11
 191.47686342210
  21
 87.279798994518
  31
0.0
   0
LINE
   5
108
 100
AcDbEntity
   8
LEVEL001
 100
AcDbLine
   6
DOT
  62
15
  10
 223.47686342210
  20
 119.27979899452
  30
0.0
  11
 228.47686342210
  21
 124.27979899452
  31
0.0
   0
LINE
   5
109
 100
AcDbEntity
   8
LEVEL001
 100
AcDbLine
   6
DOT
  62
15
  10
 190.01239732210
  20
 82.279798994518
  30
0.0
  11
 195.01239732210
  21
 87.279798994518
  31
0.0
   0
LINE
   5
10A
 100
AcDbEntity
   8
LEVEL001
 100
AcDbLine
   6
DOT
  62
15
  10
 227.01239732210
  20
 119.27979899452
  30
0.0
  11
 232.01239732210
  21
 124.27979899452
  31
0.0
   0
LINE
   5
10B
 100
AcDbEntity
   8
LEVEL001
 100
AcDbLine
   6
DOT
  62
15
  10
 193.54793122210
  20
 82.279798994518
  30
0.0
  11
 198.54793122210
  21
 87.279798994518
  31
0.0
   0
LINE
   5
10C
 100
AcDbEntity
   8
LEVEL001
 100
AcDbLine
   6
DOT
  62
15
  10
 230.54793122210
  20
 119.27979899452
  30
0.0
  11
 235.53413698359
  21
 124.26600475601
  31
0.0
   0
LINE
   5
10D
 100
AcDbEntity
   8
LEVEL001
 100
AcDbLine
   6
DOT
  62
15
  10
 197.08346512210
  20
 82.279798994518
  30
0.0
  11
 202.08346512210
  21
 87.279798994518
  31
0.0
   0
LINE
   5
10E
 100
AcDbEntity
   8
LEVEL001
 100
AcDbLine
   6
DOT
  62
15
  10
 234.08346512210
  20
 119.27979899452
  30
0.0
  11
 238.38329679717
  21
 123.57963066959
  31
0.0
   0
LINE
   5
10F
 100
AcDbEntity
   8
LEVEL001
 100
AcDbLine
   6
DOT
  62
15
  10
 200.61899902210
  20
 82.279798994518
  30
0.0
  11
 205.61899902210
  21
 87.279798994518
  31
0.0
   0
LINE
   5
110
 100
AcDbEntity
   8
LEVEL001
 100
AcDbLine
   6
DOT
  62
15
  10
 237.05634921062
  20
 118.71714918303
  30
0.0
  11
 240.53659986726
  21
 122.19739983967
  31
0.0
   0
LINE
   5
111
 100
AcDbEntity
   8
LEVEL001
 100
AcDbLine
   6
DOT
  62
15
  10
 204.15453292210
  20
 82.279798994518
  30
0.0
  11
 209.15453292210
  21
 87.279798994518
  31
0.0
   0
LINE
   5
112
 100
AcDbEntity
   8
LEVEL001
 100
AcDbLine
   6
DOT
  62
15
  10
 238.30355338865
  20
 116.42881946107
  30
0.0
  11
 242.13814729317
  21
 120.26341336558
  31
0.0
   0
LINE
   5
113
 100
AcDbEntity
   8
LEVEL001
 100
AcDbLine
   6
DOT
  62
15
  10
 207.69006682210
  20
 82.279798994518
  30
0.0
  11
 212.69006682210
  21
 87.279798994518
  31
0.0
   0
LINE
   5
114
 100
AcDbEntity
   8
LEVEL001
 100
AcDbLine
   6
DOT
  62
15
  10
 238.30725685784
  20
 112.89698903026
  30
0.0
  11
 243.13191733605
  21
 117.72164950847
  31
0.0
   0
LINE
   5
115
 100
AcDbEntity
   8
LEVEL001
 100
AcDbLine
   6
DOT
  62
15
  10
 211.22560072210
  20
 82.279798994518
  30
0.0
  11
 216.22560072210
  21
 87.279798994518
  31
0.0
   0
LINE
   5
116
 100
AcDbEntity
   8
LEVEL001
 100
AcDbLine
   6
DOT
  62
15
  10
 238.30725685784
  20
 109.36145513026
  30
0.0
  11
 243.30725685784
  21
 114.36145513026
  31
0.0
   0
LINE
   5
117
 100
AcDbEntity
   8
LEVEL001
 100
AcDbLine
   6
DOT
  62
15
  10
 214.76113462210
  20
 82.279798994518
  30
0.0
  11
 219.76113462210
  21
 87.279798994518
  31
0.0
   0
LINE
   5
118
 100
AcDbEntity
   8
LEVEL001
 100
AcDbLine
   6
DOT
  62
15
  10
 238.30725685784
  20
 105.82592123026
  30
0.0
  11
 243.30725685784
  21
 110.82592123026
  31
0.0
   0
LINE
   5
119
 100
AcDbEntity
   8
LEVEL001
 100
AcDbLine
   6
DOT
  62
15
  10
 218.29666852210
  20
 82.279798994518
  30
0.0
  11
 223.29666852210
  21
 87.279798994518
  31
0.0
   0
LINE
   5
11A
 100
AcDbEntity
   8
LEVEL001
 100
AcDbLine
   6
DOT
  62
15
  10
 238.30725685784
  20
 102.29038733026
  30
0.0
  11
 243.30725685784
  21
 107.29038733026
  31
0.0
   0
LINE
   5
11B
 100
AcDbEntity
   8
LEVEL001
 100
AcDbLine
   6
DOT
  62
15
  10
 221.83220242210
  20
 82.279798994518
  30
0.0
  11
 226.83220242210
  21
 87.279798994518
  31
0.0
   0
LINE
   5
11C
 100
AcDbEntity
   8
LEVEL001
 100
AcDbLine
   6
DOT
  62
15
  10
 238.30725685784
  20
 98.754853430258
  30
0.0
  11
 243.30725685784
  21
 103.75485343026
  31
0.0
   0
LINE
   5
11D
 100
AcDbEntity
   8
LEVEL001
 100
AcDbLine
   6
DOT
  62
15
  10
 225.36773632210
  20
 82.279798994518
  30
0.0
  11
 230.36773632210
  21
 87.279798994518
  31
0.0
   0
LINE
   5
11E
 100
AcDbEntity
   8
LEVEL001
 100
AcDbLine
   6
DOT
  62
15
  10
 238.30725685784
  20
 95.219319530258
  30
0.0
  11
 243.30725685784
  21
 100.21931953026
  31
0.0
   0
LINE
   5
11F
 100
AcDbEntity
   8
LEVEL001
 100
AcDbLine
   6
DOT
  62
15
  10
 228.90327022210
  20
 82.279798994518
  30
0.0
  11
 233.90327022210
  21
 87.279798994518
  31
0.0
   0
LINE
   5
120
 100
AcDbEntity
   8
LEVEL001
 100
AcDbLine
   6
DOT
  62
15
  10
 238.30725685784
  20
 91.683785630258
  30
0.0
  11
 243.30725685784
  21
 96.683785630258
  31
0.0
   0
LINE
   5
121
 100
AcDbEntity
   8
LEVEL001
 100
AcDbLine
   6
DOT
  62
15
  10
 232.43880412210
  20
 82.279798994518
  30
0.0
  11
 243.30725685784
  21
 93.148251730258
  31
0.0
   0
LINE
   5
122
 100
AcDbEntity
   8
LEVEL001
 100
AcDbLine
   6
DOT
  62
15
  10
 236.03214038617
  20
 82.337601358584
  30
0.0
  11
 243.24945449377
  21
 89.554915466191
  31
0.0
   0
ENDBLK
   5
123
 100
AcDbEntity
   8
0
 100
AcDbBlockEnd
   0
BLOCK
   5
124
 100
AcDbEntity
   8
0
 100
AcDbBlockBegin
   2
*D1
  70
65
  10
0.0
  20
0.0
  30
0.0
   3
*D1
   0
LINE
   5
125
 100
AcDbEntity
   8
LEVEL001
 100
AcDbLine
   6
CONTINUOUS
  62
3
  10
 81.307256857841
  20
 119.31696713611
  30
0.0
  11
 81.307256857841
  21
 142.12708261672
  31
0.0
   0
LINE
   5
126
 100
AcDbEntity
   8
LEVEL001
 100
AcDbLine
   6
CONTINUOUS
  62
3
  10
 238.30725685784
  20
 119.31696713611
  30
0.0
  11
 238.30725685784
  21
 142.12708261672
  31
0.0
   0
LINE
   5
127
 100
AcDbEntity
   8
LEVEL001
 100
AcDbLine
   6
CONTINUOUS
  62
3
  10
 81.307256857841
  20
 139.12708261672
  30
0.0
  11
 159.80725685784
  21
 139.12708261672
  31
0.0
   0
LINE
   5
128
 100
AcDbEntity
   8
LEVEL001
 100
AcDbLine
   6
CONTINUOUS
  62
3
  10
 238.30725685784
  20
 139.12708261672
  30
0.0
  11
 159.80725685784
  21
 139.12708261672
  31
0.0
   0
INSERT
   5
129
 100
AcDbEntity
   8
LEVEL001
   6
CONTINUOUS
  62
3
 100
AcDbBlockReference
   2
_OPEN30
  10
 81.307256857841
  20
 139.12708261672
  30
0.0
  41
 4.5000000000000
  42
 4.5000000000000
  43
 4.5000000000000
  50
 180.00000000000
   0
INSERT
   5
12A
 100
AcDbEntity
   8
LEVEL001
   6
CONTINUOUS
  62
3
 100
AcDbBlockReference
   2
_OPEN30
  10
 238.30725685784
  20
 139.12708261672
  30
0.0
  41
 4.5000000000000
  42
 4.5000000000000
  43
 4.5000000000000
  50
0.0
   0
MTEXT
   5
12B
 100
AcDbEntity
   8
LEVEL001
  62
3
 100
AcDbMText
  10
 159.80725685784
  20
 141.69851118814
  30
0.0
  40
 6.0000000000000
  41
0.0
  71
8
  72
1
   1
\A1;314
   7
GMM001
   0
ENDBLK
   5
12C
 100
AcDbEntity
   8
0
 100
AcDbBlockEnd
   0
BLOCK
   5
12D
 100
AcDbEntity
   8
0
 100
AcDbBlockBegin
   2
*D2
  70
65
  10
0.0
  20
0.0
  30
0.0
   3
*D2
   0
LINE
   5
12E
 100
AcDbEntity
   8
LEVEL001
 100
AcDbLine
   6
CONTINUOUS
  62
3
  10
 215.79477692011
  20
 94.136544967317
  30
0.0
  11
 236.29895511611
  21
 117.40520317283
  31
0.0
   0
LINE
   5
12F
 100
AcDbEntity
   8
LEVEL001
 100
AcDbLine
   6
CONTINUOUS
  62
3
  10
 236.29895511611
  20
 117.40520317283
  30
0.0
  11
 237.29065337437
  21
 118.53060735114
  31
0.0
   0
INSERT
   5
130
 100
AcDbEntity
   8
LEVEL001
   6
CONTINUOUS
  62
3
 100
AcDbBlockReference
   2
_OPEN30
  10
 237.29065337437
  20
 118.53060735114
  30
0.0
  41
 4.5000000000000
  42
 4.5000000000000
  43
 4.5000000000000
  50
 48.613724063647
   0
MTEXT
   5
131
 100
AcDbEntity
   8
LEVEL001
  62
3
 100
AcDbMText
  10
 229.73268474667
  20
 113.84306597728
  30
0.0
  40
 6.0000000000000
  41
0.0
  71
9
  72
1
   1
\A1;4-R6
   7
GMM001
  11
 0.66113217217654
  21
 0.75026945220576
  31
0.0
   0
ENDBLK
   5
132
 100
AcDbEntity
   8
0
 100
AcDbBlockEnd
   0
BLOCK
   5
133
 100
AcDbEntity
   8
0
 100
AcDbBlockBegin
   2
*D3
  70
65
  10
0.0
  20
0.0
  30
0.0
   3
*D3
   0
LINE
   5
134
 100
AcDbEntity
   8
LEVEL001
 100
AcDbLine
   6
CONTINUOUS
  62
3
  10
 238.81168163660
  20
 119.27979899452
  30
0.0
  11
 265.42301099925
  21
 119.27979899452
  31
0.0
   0
LINE
   5
135
 100
AcDbEntity
   8
LEVEL001
 100
AcDbLine
   6
CONTINUOUS
  62
3
  10
 238.81168163660
  20
 87.279798994518
  30
0.0
  11
 265.42301099925
  21
 87.279798994518
  31
0.0
   0
LINE
   5
136
 100
AcDbEntity
   8
LEVEL001
 100
AcDbLine
   6
CONTINUOUS
  62
3
  10
 262.42301099925
  20
 119.27979899452
  30
0.0
  11
 262.42301099925
  21
 103.27979899452
  31
0.0
   0
LINE
   5
137
 100
AcDbEntity
   8
LEVEL001
 100
AcDbLine
   6
CONTINUOUS
  62
3
  10
 262.42301099925
  20
 87.279798994518
  30
0.0
  11
 262.42301099925
  21
 103.27979899452
  31
0.0
   0
INSERT
   5
138
 100
AcDbEntity
   8
LEVEL001
   6
CONTINUOUS
  62
3
 100
AcDbBlockReference
   2
_OPEN30
  10
 262.42301099925
  20
 119.27979899452
  30
0.0
  41
 4.5000000000000
  42
 4.5000000000000
  43
 4.5000000000000
  50
 90.000000000000
   0
INSERT
   5
139
 100
AcDbEntity
   8
LEVEL001
   6
CONTINUOUS
  62
3
 100
AcDbBlockReference
   2
_OPEN30
  10
 262.42301099925
  20
 87.279798994518
  30
0.0
  41
 4.5000000000000
  42
 4.5000000000000
  43
 4.5000000000000
  50
 270.00000000000
   0
MTEXT
   5
13A
 100
AcDbEntity
   8
LEVEL001
  62
3
 100
AcDbMText
  10
 259.85158242782
  20
 103.27979899452
  30
0.0
  40
 6.0000000000000
  41
0.0
  71
8
  72
1
   1
\A1;64
   7
GMM001
  11
0.0
  21
 1.0000000000000
  31
0.0
   0
ENDBLK
   5
13B
 100
AcDbEntity
   8
0
 100
AcDbBlockEnd
   0
BLOCK
   5
13C
 100
AcDbEntity
   8
0
 100
AcDbBlockBegin
   2
*D4
  70
65
  10
0.0
  20
0.0
  30
0.0
   3
*D4
   0
LINE
   5
13D
 100
AcDbEntity
   8
LEVEL001
 100
AcDbLine
   6
CONTINUOUS
  62
3
  10
 415.12023836799
  20
 277.58839158378
  30
0.0
  11
 449.21877181040
  21
 277.58839158378
  31
0.0
   0
LINE
   5
13E
 100
AcDbEntity
   8
LEVEL001
 100
AcDbLine
   6
CONTINUOUS
  62
3
  10
 415.12023836799
  20
 361.58839158378
  30
0.0
  11
 449.21877181040
  21
 361.58839158378
  31
0.0
   0
LINE
   5
13F
 100
AcDbEntity
   8
LEVEL001
 100
AcDbLine
   6
CONTINUOUS
  62
3
  10
 446.21877181040
  20
 277.58839158378
  30
0.0
  11
 446.21877181040
  21
 319.58839158378
  31
0.0
   0
LINE
   5
140
 100
AcDbEntity
   8
LEVEL001
 100
AcDbLine
   6
CONTINUOUS
  62
3
  10
 446.21877181040
  20
 361.58839158378
  30
0.0
  11
 446.21877181040
  21
 319.58839158378
  31
0.0
   0
INSERT
   5
141
 100
AcDbEntity
   8
LEVEL001
   6
CONTINUOUS
  62
3
 100
AcDbBlockReference
   2
_OPEN30
  10
 446.21877181040
  20
 277.58839158378
  30
0.0
  41
 4.5000000000000
  42
 4.5000000000000
  43
 4.5000000000000
  50
 270.00000000000
   0
INSERT
   5
142
 100
AcDbEntity
   8
LEVEL001
   6
CONTINUOUS
  62
3
 100
AcDbBlockReference
   2
_OPEN30
  10
 446.21877181040
  20
 361.58839158378
  30
0.0
  41
 4.5000000000000
  42
 4.5000000000000
  43
 4.5000000000000
  50
 90.000000000000
   0
MTEXT
   5
143
 100
AcDbEntity
   8
LEVEL001
  62
3
 100
AcDbMText
  10
 443.64734323897
  20
 319.58839158378
  30
0.0
  40
 6.0000000000000
  41
0.0
  71
8
  72
1
   1
\A1;84
   7
GMM001
  11
0.0
  21
 1.0000000000000
  31
0.0
   0
ENDBLK
   5
144
 100
AcDbEntity
   8
0
 100
AcDbBlockEnd
   0
BLOCK
   5
145
 100
AcDbEntity
   8
0
 100
AcDbBlockBegin
   2
*D5
  70
65
  10
0.0
  20
0.0
  30
0.0
   3
*D5
   0
LINE
   5
146
 100
AcDbEntity
   8
LEVEL001
 100
AcDbLine
   6
CONTINUOUS
  62
3
  10
 415.12023836799
  20
 277.58839158378
  30
0.0
  11
 415.12023836799
  21
 237.37283043386
  31
0.0
   0
LINE
   5
147
 100
AcDbEntity
   8
LEVEL001
 100
AcDbLine
   6
CONTINUOUS
  62
3
  10
 81.120238367988
  20
 277.58839158378
  30
0.0
  11
 81.120238367988
  21
 237.37283043386
  31
0.0
   0
LINE
   5
148
 100
AcDbEntity
   8
LEVEL001
 100
AcDbLine
   6
CONTINUOUS
  62
3
  10
 415.12023836799
  20
 240.37283043386
  30
0.0
  11
 248.12023836799
  21
 240.37283043386
  31
0.0
   0
LINE
   5
149
 100
AcDbEntity
   8
LEVEL001
 100
AcDbLine
   6
CONTINUOUS
  62
3
  10
 81.120238367988
  20
 240.37283043386
  30
0.0
  11
 248.12023836799
  21
 240.37283043386
  31
0.0
   0
INSERT
   5
14A
 100
AcDbEntity
   8
LEVEL001
   6
CONTINUOUS
  62
3
 100
AcDbBlockReference
   2
_OPEN30
  10
 415.12023836799
  20
 240.37283043386
  30
0.0
  41
 4.5000000000000
  42
 4.5000000000000
  43
 4.5000000000000
  50
0.0
   0
INSERT
   5
14B
 100
AcDbEntity
   8
LEVEL001
   6
CONTINUOUS
  62
3
 100
AcDbBlockReference
   2
_OPEN30
  10
 81.120238367988
  20
 240.37283043386
  30
0.0
  41
 4.5000000000000
  42
 4.5000000000000
  43
 4.5000000000000
  50
 180.00000000000
   0
MTEXT
   5
14C
 100
AcDbEntity
   8
LEVEL001
  62
3
 100
AcDbMText
  10
 248.12023836799
  20
 242.94425900529
  30
0.0
  40
 6.0000000000000
  41
0.0
  71
8
  72
1
   1
\A1;334
   7
GMM001
   0
ENDBLK
   5
14D
 100
AcDbEntity
   8
0
 100
AcDbBlockEnd
   0
BLOCK
   5
14E
 100
AcDbEntity
   8
0
 100
AcDbBlockBegin
   2
*D6
  70
65
  10
0.0
  20
0.0
  30
0.0
   3
*D6
   0
LINE
   5
14F
 100
AcDbEntity
   8
LEVEL001
 100
AcDbLine
   6
CONTINUOUS
  62
3
  10
 476.95476498539
  20
 288.08839158360
  30
0.0
  11
 499.81420925550
  21
 288.08839158360
  31
0.0
   0
LINE
   5
150
 100
AcDbEntity
   8
LEVEL001
 100
AcDbLine
   6
CONTINUOUS
  62
3
  10
 476.95476498539
  20
 351.08839158378
  30
0.0
  11
 499.81420925550
  21
 351.08839158378
  31
0.0
   0
LINE
   5
151
 100
AcDbEntity
   8
LEVEL001
 100
AcDbLine
   6
CONTINUOUS
  62
3
  10
 496.81420925550
  20
 288.08839158360
  30
0.0
  11
 496.81420925550
  21
 319.58839158369
  31
0.0
   0
LINE
   5
152
 100
AcDbEntity
   8
LEVEL001
 100
AcDbLine
   6
CONTINUOUS
  62
3
  10
 496.81420925550
  20
 351.08839158378
  30
0.0
  11
 496.81420925550
  21
 319.58839158369
  31
0.0
   0
INSERT
   5
153
 100
AcDbEntity
   8
LEVEL001
   6
CONTINUOUS
  62
3
 100
AcDbBlockReference
   2
_OPEN30
  10
 496.81420925550
  20
 288.08839158360
  30
0.0
  41
 4.5000000000000
  42
 4.5000000000000
  43
 4.5000000000000
  50
 270.00000000000
   0
INSERT
   5
154
 100
AcDbEntity
   8
LEVEL001
   6
CONTINUOUS
  62
3
 100
AcDbBlockReference
   2
_OPEN30
  10
 496.81420925550
  20
 351.08839158378
  30
0.0
  41
 4.5000000000000
  42
 4.5000000000000
  43
 4.5000000000000
  50
 90.000000000000
   0
MTEXT
   5
155
 100
AcDbEntity
   8
LEVEL001
  62
3
 100
AcDbMText
  10
 494.24278068407
  20
 319.58839158369
  30
0.0
  40
 6.0000000000000
  41
0.0
  71
8
  72
1
   1
\A1;63
   7
GMM001
  11
0.0
  21
 1.0000000000000
  31
0.0
   0
ENDBLK
   5
156
 100
AcDbEntity
   8
0
 100
AcDbBlockEnd
   0
BLOCK
   5
157
 100
AcDbEntity
   8
0
 100
AcDbBlockBegin
   2
*D7
  70
65
  10
0.0
  20
0.0
  30
0.0
   3
*D7
   0
LINE
   5
158
 100
AcDbEntity
   8
LEVEL001
 100
AcDbLine
   6
CONTINUOUS
  62
3
  10
 470.95476498539
  20
 262.88104770957
  30
0.0
  11
 470.95476498539
  21
 251.77737577246
  31
0.0
   0
LINE
   5
159
 100
AcDbEntity
   8
LEVEL001
 100
AcDbLine
   6
CONTINUOUS
  62
3
  10
 476.95476498539
  20
 287.28839158378
  30
0.0
  11
 476.95476498539
  21
 251.77737577246
  31
0.0
   0
LINE
   5
15A
 100
AcDbEntity
   8
LEVEL001
 100
AcDbLine
   6
CONTINUOUS
  62
3
  10
 470.95476498539
  20
 254.77737577246
  30
0.0
  11
 473.95476498539
  21
 254.77737577246
  31
0.0
   0
LINE
   5
15B
 100
AcDbEntity
   8
LEVEL001
 100
AcDbLine
   6
CONTINUOUS
  62
3
  10
 482.57976498539
  20
 254.77737577246
  30
0.0
  11
 473.95476498539
  21
 254.77737577246
  31
0.0
   0
INSERT
   5
15C
 100
AcDbEntity
   8
LEVEL001
   6
CONTINUOUS
  62
3
 100
AcDbBlockReference
   2
_DOT
  10
 470.95476498539
  20
 254.77737577246
  30
0.0
  41
 1.2000000000000
  42
 1.2000000000000
  43
 1.2000000000000
  50
 180.00000000000
   0
INSERT
   5
15D
 100
AcDbEntity
   8
LEVEL001
   6
CONTINUOUS
  62
3
 100
AcDbBlockReference
   2
_OPEN30
  10
 476.95476498539
  20
 254.77737577246
  30
0.0
  41
 4.5000000000000
  42
 4.5000000000000
  43
 4.5000000000000
  50
 180.00000000000
   0
MTEXT
   5
15E
 100
AcDbEntity
   8
LEVEL001
  62
3
 100
AcDbMText
  10
 473.95476498539
  20
 257.34880434389
  30
0.0
  40
 6.0000000000000
  41
0.0
  71
8
  72
1
   1
\A1;6
   7
GMM001
   0
ENDBLK
   5
15F
 100
AcDbEntity
   8
0
 100
AcDbBlockEnd
   0
BLOCK
   5
160
 100
AcDbEntity
   8
0
 100
AcDbBlockBegin
   2
*D8
  70
65
  10
0.0
  20
0.0
  30
0.0
   3
*D8
   0
LINE
   5
161
 100
AcDbEntity
   8
LEVEL001
 100
AcDbLine
   6
CONTINUOUS
  62
3
  10
 469.45476498539
  20
 251.77737577246
  30
0.0
  11
 469.45476498539
  21
 237.37283043386
  31
0.0
   0
LINE
   5
162
 100
AcDbEntity
   8
LEVEL001
 100
AcDbLine
   6
CONTINUOUS
  62
3
  10
 476.95476498539
  20
 251.77737577246
  30
0.0
  11
 476.95476498539
  21
 237.37283043386
  31
0.0
   0
LINE
   5
163
 100
AcDbEntity
   8
LEVEL001
 100
AcDbLine
   6
CONTINUOUS
  62
3
  10
 450.59680038362
  20
 240.37283043386
  30
0.0
  11
 473.20476498539
  21
 240.37283043386
  31
0.0
   0
LINE
   5
164
 100
AcDbEntity
   8
LEVEL001
 100
AcDbLine
   6
CONTINUOUS
  62
3
  10
 482.57976498539
  20
 240.37283043386
  30
0.0
  11
 473.20476498539
  21
 240.37283043386
  31
0.0
   0
INSERT
   5
165
 100
AcDbEntity
   8
LEVEL001
   6
CONTINUOUS
  62
3
 100
AcDbBlockReference
   2
_OPEN30
  10
 469.45476498539
  20
 240.37283043386
  30
0.0
  41
 4.5000000000000
  42
 4.5000000000000
  43
 4.5000000000000
  50
0.0
   0
INSERT
   5
166
 100
AcDbEntity
   8
LEVEL001
   6
CONTINUOUS
  62
3
 100
AcDbBlockReference
   2
_OPEN30
  10
 476.95476498539
  20
 240.37283043386
  30
0.0
  41
 4.5000000000000
  42
 4.5000000000000
  43
 4.5000000000000
  50
 180.00000000000
   0
MTEXT
   5
167
 100
AcDbEntity
   8
LEVEL001
  62
3
 100
AcDbMText
  10
 458.09680038362
  20
 242.94425900529
  30
0.0
  40
 6.0000000000000
  41
0.0
  71
8
  72
1
   1
\A1;7.5
   7
GMM001
   0
ENDBLK
   5
168
 100
AcDbEntity
   8
0
 100
AcDbBlockEnd
   0
BLOCK
   5
169
 100
AcDbEntity
   8
0
 100
AcDbBlockBegin
   2
*D9
  70
65
  10
0.0
  20
0.0
  30
0.0
   3
*D9
   0
LINE
   5
16A
 100
AcDbEntity
   8
LEVEL001
 100
AcDbLine
   6
CONTINUOUS
  62
3
  10
 469.45476498539
  20
 277.58839158378
  30
0.0
  11
 469.45476498539
  21
 251.77737577246
  31
0.0
   0
LINE
   5
16B
 100
AcDbEntity
   8
LEVEL001
 100
AcDbLine
   6
CONTINUOUS
  62
3
  10
 470.95476498539
  20
 277.58839158378
  30
0.0
  11
 470.95476498539
  21
 251.77737577246
  31
0.0
   0
LINE
   5
16C
 100
AcDbEntity
   8
LEVEL001
 100
AcDbLine
   6
CONTINUOUS
  62
3
  10
 450.86759684380
  20
 254.77737577246
  30
0.0
  11
 470.20476498539
  21
 254.77737577246
  31
0.0
   0
LINE
   5
16D
 100
AcDbEntity
   8
LEVEL001
 100
AcDbLine
   6
CONTINUOUS
  62
3
  10
 470.95476498539
  20
 254.77737577246
  30
0.0
  11
 470.20476498539
  21
 254.77737577246
  31
0.0
   0
INSERT
   5
16E
 100
AcDbEntity
   8
LEVEL001
   6
CONTINUOUS
  62
3
 100
AcDbBlockReference
   2
_OPEN30
  10
 469.45476498539
  20
 254.77737577246
  30
0.0
  41
 4.5000000000000
  42
 4.5000000000000
  43
 4.5000000000000
  50
0.0
   0
INSERT
   5
16F
 100
AcDbEntity
   8
LEVEL001
   6
CONTINUOUS
  62
3
 100
AcDbBlockReference
   2
_DOT
  10
 470.95476498539
  20
 254.77737577246
  30
0.0
  41
 1.2000000000000
  42
 1.2000000000000
  43
 1.2000000000000
  50
0.0
   0
MTEXT
   5
170
 100
AcDbEntity
   8
LEVEL001
  62
3
 100
AcDbMText
  10
 458.36759684380
  20
 257.34880434389
  30
0.0
  40
 6.0000000000000
  41
0.0
  71
8
  72
1
   1
\A1;1.5
   7
GMM001
   0
ENDBLK
   5
171
 100
AcDbEntity
   8
0
 100
AcDbBlockEnd
   0
BLOCK
   5
172
 100
AcDbEntity
   8
0
 100
AcDbBlockBegin
   2
*D10
  70
65
  10
0.0
  20
0.0
  30
0.0
   3
*D10
   0
LINE
   5
173
 100
AcDbEntity
   8
LEVEL001
 100
AcDbLine
   6
CONTINUOUS
  62
3
  10
 470.95476498539
  20
 277.58839158378
  30
0.0
  11
 499.81420925550
  21
 277.58839158378
  31
0.0
   0
LINE
   5
174
 100
AcDbEntity
   8
LEVEL001
 100
AcDbLine
   6
CONTINUOUS
  62
3
  10
 496.81420925550
  20
 255.30948302912
  30
0.0
  11
 496.81420925550
  21
 282.83839158369
  31
0.0
   0
LINE
   5
175
 100
AcDbEntity
   8
LEVEL001
 100
AcDbLine
   6
CONTINUOUS
  62
3
  10
 496.81420925550
  20
 293.71339158360
  30
0.0
  11
 496.81420925550
  21
 282.83839158369
  31
0.0
   0
INSERT
   5
176
 100
AcDbEntity
   8
LEVEL001
   6
CONTINUOUS
  62
3
 100
AcDbBlockReference
   2
_OPEN30
  10
 496.81420925550
  20
 277.58839158378
  30
0.0
  41
 4.5000000000000
  42
 4.5000000000000
  43
 4.5000000000000
  50
 90.000000000000
   0
INSERT
   5
177
 100
AcDbEntity
   8
LEVEL001
   6
CONTINUOUS
  62
3
 100
AcDbBlockReference
   2
_OPEN30
  10
 496.81420925550
  20
 288.08839158360
  30
0.0
  41
 4.5000000000000
  42
 4.5000000000000
  43
 4.5000000000000
  50
 270.00000000000
   0
MTEXT
   5
178
 100
AcDbEntity
   8
LEVEL001
  62
3
 100
AcDbMText
  10
 494.24278068407
  20
 265.80948302912
  30
0.0
  40
 6.0000000000000
  41
0.0
  71
8
  72
1
   1
\A1;10.5
   7
GMM001
  11
0.0
  21
 1.0000000000000
  31
0.0
   0
ENDBLK
   5
179
 100
AcDbEntity
   8
0
 100
AcDbBlockEnd
   0
BLOCK
   5
17A
 100
AcDbEntity
   8
0
 100
AcDbBlockBegin
   2
*D11
  70
65
  10
0.0
  20
0.0
  30
0.0
   3
*D11
   0
LINE
   5
17B
 100
AcDbEntity
   8
LEVEL001
 100
AcDbLine
   6
CONTINUOUS
  62
3
  10
 470.95476498539
  20
 361.58839158378
  30
0.0
  11
 499.81420925550
  21
 361.58839158378
  31
0.0
   0
LINE
   5
17C
 100
AcDbEntity
   8
LEVEL001
 100
AcDbLine
   6
CONTINUOUS
  62
3
  10
 496.81420925550
  20
 383.65963052184
  30
0.0
  11
 496.81420925550
  21
 356.33839158378
  31
0.0
   0
LINE
   5
17D
 100
AcDbEntity
   8
LEVEL001
 100
AcDbLine
   6
CONTINUOUS
  62
3
  10
 496.81420925550
  20
 345.46339158378
  30
0.0
  11
 496.81420925550
  21
 356.33839158378
  31
0.0
   0
INSERT
   5
17E
 100
AcDbEntity
   8
LEVEL001
   6
CONTINUOUS
  62
3
 100
AcDbBlockReference
   2
_OPEN30
  10
 496.81420925550
  20
 361.58839158378
  30
0.0
  41
 4.5000000000000
  42
 4.5000000000000
  43
 4.5000000000000
  50
 270.00000000000
   0
INSERT
   5
17F
 100
AcDbEntity
   8
LEVEL001
   6
CONTINUOUS
  62
3
 100
AcDbBlockReference
   2
_OPEN30
  10
 496.81420925550
  20
 351.08839158378
  30
0.0
  41
 4.5000000000000
  42
 4.5000000000000
  43
 4.5000000000000
  50
 90.000000000000
   0
MTEXT
   5
180
 100
AcDbEntity
   8
LEVEL001
  62
3
 100
AcDbMText
  10
 494.24278068407
  20
 373.15963052184
  30
0.0
  40
 6.0000000000000
  41
0.0
  71
8
  72
1
   1
\A1;10.5
   7
GMM001
  11
0.0
  21
 1.0000000000000
  31
0.0
   0
ENDBLK
   5
181
 100
AcDbEntity
   8
0
 100
AcDbBlockEnd
   0
BLOCK
   5
182
 100
AcDbEntity
   8
0
 100
AcDbBlockBegin
   2
*D12
  70
65
  10
0.0
  20
0.0
  30
0.0
   3
*D12
   0
LINE
   5
183
 100
AcDbEntity
   8
LEVEL001
 100
AcDbLine
   6
CONTINUOUS
  62
3
  10
 404.62023836799
  20
 212.83413629203
  30
0.0
  11
 404.62023836799
  21
 186.44644300715
  31
0.0
   0
LINE
   5
184
 100
AcDbEntity
   8
LEVEL001
 100
AcDbLine
   6
CONTINUOUS
  62
3
  10
 91.620238367988
  20
 212.83413629083
  30
0.0
  11
 91.620238367988
  21
 186.44644300715
  31
0.0
   0
LINE
   5
185
 100
AcDbEntity
   8
LEVEL001
 100
AcDbLine
   6
CONTINUOUS
  62
3
  10
 404.62023836799
  20
 189.44644300715
  30
0.0
  11
 248.12023836799
  21
 189.44644300715
  31
0.0
   0
LINE
   5
186
 100
AcDbEntity
   8
LEVEL001
 100
AcDbLine
   6
CONTINUOUS
  62
3
  10
 91.620238367988
  20
 189.44644300715
  30
0.0
  11
 248.12023836799
  21
 189.44644300715
  31
0.0
   0
INSERT
   5
187
 100
AcDbEntity
   8
LEVEL001
   6
CONTINUOUS
  62
3
 100
AcDbBlockReference
   2
_OPEN30
  10
 404.62023836799
  20
 189.44644300715
  30
0.0
  41
 4.5000000000000
  42
 4.5000000000000
  43
 4.5000000000000
  50
0.0
   0
INSERT
   5
188
 100
AcDbEntity
   8
LEVEL001
   6
CONTINUOUS
  62
3
 100
AcDbBlockReference
   2
_OPEN30
  10
 91.620238367988
  20
 189.44644300715
  30
0.0
  41
 4.5000000000000
  42
 4.5000000000000
  43
 4.5000000000000
  50
 180.00000000000
   0
MTEXT
   5
189
 100
AcDbEntity
   8
LEVEL001
  62
3
 100
AcDbMText
  10
 248.12023836799
  20
 192.01787157858
  30
0.0
  40
 6.0000000000000
  41
0.0
  71
8
  72
1
   1
\A1;313
   7
GMM001
   0
ENDBLK
   5
18A
 100
AcDbEntity
   8
0
 100
AcDbBlockEnd
   0
BLOCK
   5
18B
 100
AcDbEntity
   8
0
 100
AcDbBlockBegin
   2
*D13
  70
65
  10
0.0
  20
0.0
  30
0.0
   3
*D13
   0
LINE
   5
18C
 100
AcDbEntity
   8
LEVEL001
 100
AcDbLine
   6
CONTINUOUS
  62
3
  10
 81.120238367988
  20
 218.83413629083
  30
0.0
  11
 81.120238367988
  21
 186.44644300715
  31
0.0
   0
LINE
   5
18D
 100
AcDbEntity
   8
LEVEL001
 100
AcDbLine
   6
CONTINUOUS
  62
3
  10
 57.647229518427
  20
 189.44644300715
  30
0.0
  11
 86.370238367988
  21
 189.44644300715
  31
0.0
   0
LINE
   5
18E
 100
AcDbEntity
   8
LEVEL001
 100
AcDbLine
   6
CONTINUOUS
  62
3
  10
 97.245238367988
  20
 189.44644300715
  30
0.0
  11
 86.370238367988
  21
 189.44644300715
  31
0.0
   0
INSERT
   5
18F
 100
AcDbEntity
   8
LEVEL001
   6
CONTINUOUS
  62
3
 100
AcDbBlockReference
   2
_OPEN30
  10
 81.120238367988
  20
 189.44644300715
  30
0.0
  41
 4.5000000000000
  42
 4.5000000000000
  43
 4.5000000000000
  50
0.0
   0
INSERT
   5
190
 100
AcDbEntity
   8
LEVEL001
   6
CONTINUOUS
  62
3
 100
AcDbBlockReference
   2
_OPEN30
  10
 91.620238367988
  20
 189.44644300715
  30
0.0
  41
 4.5000000000000
  42
 4.5000000000000
  43
 4.5000000000000
  50
 180.00000000000
   0
MTEXT
   5
191
 100
AcDbEntity
   8
LEVEL001
  62
3
 100
AcDbMText
  10
 68.147229518427
  20
 192.01787157858
  30
0.0
  40
 6.0000000000000
  41
0.0
  71
8
  72
1
   1
\A1;10.5
   7
GMM001
   0
ENDBLK
   5
192
 100
AcDbEntity
   8
0
 100
AcDbBlockEnd
   0
BLOCK
   5
193
 100
AcDbEntity
   8
0
 100
AcDbBlockBegin
   2
*D14
  70
65
  10
0.0
  20
0.0
  30
0.0
   3
*D14
   0
LINE
   5
194
 100
AcDbEntity
   8
LEVEL001
 100
AcDbLine
   6
CONTINUOUS
  62
3
  10
 415.12023836799
  20
 218.83413629083
  30
0.0
  11
 415.12023836799
  21
 186.44644300715
  31
0.0
   0
LINE
   5
195
 100
AcDbEntity
   8
LEVEL001
 100
AcDbLine
   6
CONTINUOUS
  62
3
  10
 398.99523836799
  20
 189.44644300715
  30
0.0
  11
 409.87023836799
  21
 189.44644300715
  31
0.0
   0
LINE
   5
196
 100
AcDbEntity
   8
LEVEL001
 100
AcDbLine
   6
CONTINUOUS
  62
3
  10
 438.94368969542
  20
 189.44644300715
  30
0.0
  11
 409.87023836799
  21
 189.44644300715
  31
0.0
   0
INSERT
   5
197
 100
AcDbEntity
   8
LEVEL001
   6
CONTINUOUS
  62
3
 100
AcDbBlockReference
   2
_OPEN30
  10
 404.62023836799
  20
 189.44644300715
  30
0.0
  41
 4.5000000000000
  42
 4.5000000000000
  43
 4.5000000000000
  50
0.0
   0
INSERT
   5
198
 100
AcDbEntity
   8
LEVEL001
   6
CONTINUOUS
  62
3
 100
AcDbBlockReference
   2
_OPEN30
  10
 415.12023836799
  20
 189.44644300715
  30
0.0
  41
 4.5000000000000
  42
 4.5000000000000
  43
 4.5000000000000
  50
 180.00000000000
   0
MTEXT
   5
199
 100
AcDbEntity
   8
LEVEL001
  62
3
 100
AcDbMText
  10
 428.44368969542
  20
 192.01787157858
  30
0.0
  40
 6.0000000000000
  41
0.0
  71
8
  72
1
   1
\A1;10.5
   7
GMM001
   0
ENDBLK
   5
19A
 100
AcDbEntity
   8
0
 100
AcDbBlockEnd
   0
BLOCK
   5
19B
 100
AcDbEntity
   8
0
 100
AcDbBlockBegin
   2
*D15
  70
65
  10
0.0
  20
0.0
  30
0.0
   3
*D15
   0
LINE
   5
19C
 100
AcDbEntity
   8
LEVEL001
 100
AcDbLine
   6
CONTINUOUS
  62
3
  10
 403.12023836799
  20
 349.58839158378
  30
0.0
  11
 435.33183046111
  21
 349.58839158378
  31
0.0
   0
LINE
   5
19D
 100
AcDbEntity
   8
LEVEL001
 100
AcDbLine
   6
CONTINUOUS
  62
3
  10
 403.12023836799
  20
 289.58839158378
  30
0.0
  11
 435.33183046111
  21
 289.58839158378
  31
0.0
   0
LINE
   5
19E
 100
AcDbEntity
   8
LEVEL001
 100
AcDbLine
   6
CONTINUOUS
  62
3
  10
 432.33183046111
  20
 349.58839158378
  30
0.0
  11
 432.33183046111
  21
 319.58839158378
  31
0.0
   0
LINE
   5
19F
 100
AcDbEntity
   8
LEVEL001
 100
AcDbLine
   6
CONTINUOUS
  62
3
  10
 432.33183046111
  20
 289.58839158378
  30
0.0
  11
 432.33183046111
  21
 319.58839158378
  31
0.0
   0
INSERT
   5
1A0
 100
AcDbEntity
   8
LEVEL001
   6
CONTINUOUS
  62
3
 100
AcDbBlockReference
   2
_OPEN30
  10
 432.33183046111
  20
 349.58839158378
  30
0.0
  41
 4.5000000000000
  42
 4.5000000000000
  43
 4.5000000000000
  50
 90.000000000000
   0
INSERT
   5
1A1
 100
AcDbEntity
   8
LEVEL001
   6
CONTINUOUS
  62
3
 100
AcDbBlockReference
   2
_OPEN30
  10
 432.33183046111
  20
 289.58839158378
  30
0.0
  41
 4.5000000000000
  42
 4.5000000000000
  43
 4.5000000000000
  50
 270.00000000000
   0
MTEXT
   5
1A2
 100
AcDbEntity
   8
LEVEL001
  62
3
 100
AcDbMText
  10
 429.76040188968
  20
 319.58839158378
  30
0.0
  40
 6.0000000000000
  41
0.0
  71
8
  72
1
   1
\A1;60
   7
GMM001
  11
0.0
  21
 1.0000000000000
  31
0.0
   0
ENDBLK
   5
1A3
 100
AcDbEntity
   8
0
 100
AcDbBlockEnd
   0
BLOCK
   5
1A4
 100
AcDbEntity
   8
0
 100
AcDbBlockBegin
   2
*D16
  70
65
  10
0.0
  20
0.0
  30
0.0
   3
*D16
   0
LINE
   5
1A5
 100
AcDbEntity
   8
LEVEL001
 100
AcDbLine
   6
CONTINUOUS
  62
3
  10
 93.120238367988
  20
 289.58839158378
  30
0.0
  11
 93.120238367988
  21
 250.81771631383
  31
0.0
   0
LINE
   5
1A6
 100
AcDbEntity
   8
LEVEL001
 100
AcDbLine
   6
CONTINUOUS
  62
3
  10
 403.12023836799
  20
 289.58839158378
  30
0.0
  11
 403.12023836799
  21
 250.81771631383
  31
0.0
   0
LINE
   5
1A7
 100
AcDbEntity
   8
LEVEL001
 100
AcDbLine
   6
CONTINUOUS
  62
3
  10
 93.120238367988
  20
 253.81771631383
  30
0.0
  11
 248.12023836799
  21
 253.81771631383
  31
0.0
   0
LINE
   5
1A8
 100
AcDbEntity
   8
LEVEL001
 100
AcDbLine
   6
CONTINUOUS
  62
3
  10
 403.12023836799
  20
 253.81771631383
  30
0.0
  11
 248.12023836799
  21
 253.81771631383
  31
0.0
   0
INSERT
   5
1A9
 100
AcDbEntity
   8
LEVEL001
   6
CONTINUOUS
  62
3
 100
AcDbBlockReference
   2
_OPEN30
  10
 93.120238367988
  20
 253.81771631383
  30
0.0
  41
 4.5000000000000
  42
 4.5000000000000
  43
 4.5000000000000
  50
 180.00000000000
   0
INSERT
   5
1AA
 100
AcDbEntity
   8
LEVEL001
   6
CONTINUOUS
  62
3
 100
AcDbBlockReference
   2
_OPEN30
  10
 403.12023836799
  20
 253.81771631383
  30
0.0
  41
 4.5000000000000
  42
 4.5000000000000
  43
 4.5000000000000
  50
0.0
   0
MTEXT
   5
1AB
 100
AcDbEntity
   8
LEVEL001
  62
3
 100
AcDbMText
  10
 248.12023836799
  20
 256.38914488526
  30
0.0
  40
 6.0000000000000
  41
0.0
  71
8
  72
1
   1
\A1;310
   7
GMM001
   0
ENDBLK
   5
1AC
 100
AcDbEntity
   8
0
 100
AcDbBlockEnd
   0
ENDSEC
   0
SECTION
   2
ENTITIES
   0
ARC
   5
1AD
 100
AcDbEntity
   8
LEVEL001
   6
CONTINUOUS
  62
7
 100
AcDbCircle
  10
 235.30725685784
  20
 116.27979899452
  30
0.0
  40
 3.0000000000000
 100
AcDbArc
  50
0.0
  51
 89.999999999998
   0
LINE
   5
1AE
 100
AcDbEntity
   8
LEVEL001
 100
AcDbLine
   6
CONTINUOUS
  62
7
  10
 235.30725685784
  20
 119.27979899452
  30
0.0
  11
 159.80725685784
  21
 119.27979899452
  31
0.0
   0
LINE
   5
1AF
 100
AcDbEntity
   8
LEVEL001
 100
AcDbLine
   6
CONTINUOUS
  62
7
  10
 159.80725685784
  20
 119.27979899452
  30
0.0
  11
 84.307256857841
  21
 119.27979899452
  31
0.0
   0
ARC
   5
1B0
 100
AcDbEntity
   8
LEVEL001
   6
CONTINUOUS
  62
7
 100
AcDbCircle
  10
 84.307256857841
  20
 116.27979899452
  30
0.0
  40
 3.0000000000000
 100
AcDbArc
  50
 90.000000000000
  51
 180.00000000000
   0
LINE
   5
1B1
 100
AcDbEntity
   8
LEVEL001
 100
AcDbLine
   6
CONTINUOUS
  62
7
  10
 159.80725685784
  20
 87.279798994518
  30
0.0
  11
 235.30725685784
  21
 87.279798994518
  31
0.0
   0
ARC
   5
1B2
 100
AcDbEntity
   8
LEVEL001
   6
CONTINUOUS
  62
7
 100
AcDbCircle
  10
 235.30725685784
  20
 90.279798994518
  30
0.0
  40
 3.0000000000000
 100
AcDbArc
  50
 270.00000000000
  51
 0.54281466563644E-12
   0
ARC
   5
1B3
 100
AcDbEntity
   8
LEVEL001
   6
CONTINUOUS
  62
7
 100
AcDbCircle
  10
 84.307256857840
  20
 90.279798994518
  30
0.0
  40
 3.0000000000000
 100
AcDbArc
  50
 180.00000000000
  51
 270.00000000000
   0
LINE
   5
1B4
 100
AcDbEntity
   8
LEVEL001
 100
AcDbLine
   6
CONTINUOUS
  62
7
  10
 84.307256857841
  20
 87.279798994518
  30
0.0
  11
 159.80725685784
  21
 87.279798994518
  31
0.0
   0
LINE
   5
1B5
 100
AcDbEntity
   8
LEVEL001
 100
AcDbLine
   6
CONTINUOUS
  62
7
  10
 238.30725685784
  20
 90.279798994518
  30
0.0
  11
 238.30725685784
  21
 116.27979899452
  31
0.0
   0
LINE
   5
1B6
 100
AcDbEntity
   8
LEVEL001
 100
AcDbLine
   6
CONTINUOUS
  62
7
  10
 81.307256857841
  20
 116.27979899452
  30
0.0
  11
 81.307256857841
  21
 90.279798994518
  31
0.0
   0
INSERT
   5
1B7
 100
AcDbEntity
   8
LEVEL001
 100
AcDbBlockReference
   2
HATCH001
  10
0.0
  20
0.0
  30
0.0
   0
LINE
   5
1B8
 100
AcDbEntity
   8
LEVEL001
 100
AcDbLine
   6
DASHDOT
  62
3
  10
 159.80725685784
  20
 126.85788095312
  30
0.0
  11
 159.80725685784
  21
 78.107438475248
  31
0.0
   0
DIMENSION
   5
1B9
 100
AcDbEntity
   8
LEVEL001
   6
CONTINUOUS
  62
3
 100
AcDbDimension
   2
*D1
  10
 238.30725685784
  20
 139.12708261672
  30
0.0
  11
 159.80725685784
  21
 139.12708261672
  31
0.0
  70
0
   1
\A1;314
   3
GMM001
 100
AcDbAlignedDimension
  13
 81.307256857841
  23
 119.31696713611
  33
0.0
  14
 238.30725685784
  24
 119.31696713611
  34
0.0
 100
AcDbRotatedDimension
   0
DIMENSION
   5
1BA
 100
AcDbEntity
   8
LEVEL001
   6
CONTINUOUS
  62
3
 100
AcDbDimension
   2
*D2
  10
 235.30725685784
  20
 116.27979899452
  30
0.0
  11
 231.66194905234
  21
 112.14301182026
  31
0.0
  70
132
   1
\A1;4-R6
   3
GMM002
 100
AcDbRadialDimension
  15
 237.29065337437
  25
 118.53060735114
  35
0.0
  40
 8.8935894839415
   0
DIMENSION
   5
1BB
 100
AcDbEntity
   8
LEVEL001
   6
CONTINUOUS
  62
3
 100
AcDbDimension
   2
*D3
  10
 262.42301099925
  20
 87.279798994518
  30
0.0
  11
 262.42301099925
  21
 103.27979899452
  31
0.0
  70
0
   1
\A1;64
   3
GMM001
 100
AcDbAlignedDimension
  13
 238.81168163660
  23
 119.27979899452
  33
0.0
  14
 238.81168163660
  24
 87.279798994518
  34
0.0
  50
 270.00000000000
 100
AcDbRotatedDimension
   0
LINE
   5
1BC
 100
AcDbEntity
   8
LEVEL001
 100
AcDbLine
   6
DASHDOT
  62
3
  10
 69.446019848803
  20
 103.02979899452
  30
0.0
  11
 210.03434244399
  21
 103.02979899452
  31
0.0
   0
LINE
   5
1BD
 100
AcDbEntity
   8
LEVEL001
 100
AcDbLine
   6
DASHDOT
  62
3
  10
 220.50388341514
  20
 103.02979899452
  30
0.0
  11
 250.50796675146
  21
 103.02979899452
  31
0.0
   0
TEXT
   5
1BE
 100
AcDbEntity
   8
LEVEL001
  62
7
 100
AcDbText
  10
 138.60449243034
  20
 63.593617896586
  30
0.0
  40
 6.7500000000000
   1
掘り込み参考図
   7
STANDARD
 100
AcDbText
   0
TEXT
   5
1BF
 100
AcDbEntity
   8
LEVEL001
  62
7
 100
AcDbText
  10
 138.60449243034
  20
 54.593617896586
  30
0.0
  40
 6.7500000000000
   1
（Ｓ＝１：３）
   7
STANDARD
 100
AcDbText
   0
LINE
   5
1C0
 100
AcDbEntity
   8
LEVEL001
 100
AcDbLine
   6
CONTINUOUS
  62
7
  10
 248.12023836799
  20
 361.58839158378
  30
0.0
  11
 410.12023836799
  21
 361.58839158378
  31
0.0
   0
ARC
   5
1C1
 100
AcDbEntity
   8
LEVEL001
   6
CONTINUOUS
  62
7
 100
AcDbCircle
  10
 410.12023836799
  20
 356.58839158378
  30
0.0
  40
 5.0000000000000
 100
AcDbArc
  50
 0.11724796777747E-10
  51
 90.000000000000
   0
POINT
   5
1C2
 100
AcDbEntity
   8
LEVEL001
 100
AcDbPoint
  62
7
  10
 415.12023836799
  20
 361.58839158378
  30
0.0
   0
LINE
   5
1C3
 100
AcDbEntity
   8
LEVEL001
 100
AcDbLine
   6
CONTINUOUS
  62
7
  10
 410.12023836799
  20
 277.58839158378
  30
0.0
  11
 248.12023836799
  21
 277.58839158378
  31
0.0
   0
POINT
   5
1C4
 100
AcDbEntity
   8
LEVEL001
 100
AcDbPoint
  62
7
  10
 415.12023836799
  20
 277.58839158378
  30
0.0
   0
ARC
   5
1C5
 100
AcDbEntity
   8
LEVEL001
   6
CONTINUOUS
  62
7
 100
AcDbCircle
  10
 410.12023836799
  20
 282.58839158378
  30
0.0
  40
 5.0000000000000
 100
AcDbArc
  50
 269.99999999997
  51
0.0
   0
LINE
   5
1C6
 100
AcDbEntity
   8
LEVEL001
 100
AcDbLine
   6
CONTINUOUS
  62
7
  10
 415.12023836799
  20
 356.58839158378
  30
0.0
  11
 415.12023836799
  21
 282.58839158378
  31
0.0
   0
LINE
   5
1C7
 100
AcDbEntity
   8
LEVEL001
 100
AcDbLine
   6
CONTINUOUS
  62
2
  10
 403.12023836799
  20
 337.58839158378
  30
0.0
  11
 248.12023836799
  21
 337.58839158378
  31
0.0
   0
LINE
   5
1C8
 100
AcDbEntity
   8
LEVEL001
 100
AcDbLine
   6
CONTINUOUS
  62
7
  10
 403.12023836799
  20
 338.58839158378
  30
0.0
  11
 248.12023836799
  21
 338.58839158378
  31
0.0
   0
LINE
   5
1C9
 100
AcDbEntity
   8
LEVEL001
 100
AcDbLine
   6
CONTINUOUS
  62
7
  10
 403.12023836799
  20
 339.58839158378
  30
0.0
  11
 248.12023836799
  21
 339.58839158378
  31
0.0
   0
LINE
   5
1CA
 100
AcDbEntity
   8
LEVEL001
 100
AcDbLine
   6
CONTINUOUS
  62
2
  10
 403.12023836799
  20
 327.58839158378
  30
0.0
  11
 248.12023836799
  21
 327.58839158378
  31
0.0
   0
LINE
   5
1CB
 100
AcDbEntity
   8
LEVEL001
 100
AcDbLine
   6
CONTINUOUS
  62
7
  10
 403.12023836799
  20
 328.58839158378
  30
0.0
  11
 248.12023836799
  21
 328.58839158378
  31
0.0
   0
LINE
   5
1CC
 100
AcDbEntity
   8
LEVEL001
 100
AcDbLine
   6
CONTINUOUS
  62
7
  10
 403.12023836799
  20
 329.58839158378
  30
0.0
  11
 248.12023836799
  21
 329.58839158378
  31
0.0
   0
LINE
   5
1CD
 100
AcDbEntity
   8
LEVEL001
 100
AcDbLine
   6
CONTINUOUS
  62
2
  10
 403.12023836799
  20
 317.58839158378
  30
0.0
  11
 248.12023836799
  21
 317.58839158378
  31
0.0
   0
LINE
   5
1CE
 100
AcDbEntity
   8
LEVEL001
 100
AcDbLine
   6
CONTINUOUS
  62
7
  10
 403.12023836799
  20
 318.58839158378
  30
0.0
  11
 248.12023836799
  21
 318.58839158378
  31
0.0
   0
LINE
   5
1CF
 100
AcDbEntity
   8
LEVEL001
 100
AcDbLine
   6
CONTINUOUS
  62
7
  10
 403.12023836799
  20
 319.58839158378
  30
0.0
  11
 248.12023836799
  21
 319.58839158378
  31
0.0
   0
LINE
   5
1D0
 100
AcDbEntity
   8
LEVEL001
 100
AcDbLine
   6
CONTINUOUS
  62
2
  10
 403.12023836799
  20
 307.58839158378
  30
0.0
  11
 248.12023836799
  21
 307.58839158378
  31
0.0
   0
LINE
   5
1D1
 100
AcDbEntity
   8
LEVEL001
 100
AcDbLine
   6
CONTINUOUS
  62
7
  10
 403.12023836799
  20
 308.58839158378
  30
0.0
  11
 248.12023836799
  21
 308.58839158378
  31
0.0
   0
LINE
   5
1D2
 100
AcDbEntity
   8
LEVEL001
 100
AcDbLine
   6
CONTINUOUS
  62
7
  10
 403.12023836799
  20
 309.58839158378
  30
0.0
  11
 248.12023836799
  21
 309.58839158378
  31
0.0
   0
LINE
   5
1D3
 100
AcDbEntity
   8
LEVEL001
 100
AcDbLine
   6
CONTINUOUS
  62
2
  10
 403.12023836799
  20
 297.58839158378
  30
0.0
  11
 248.12023836799
  21
 297.58839158378
  31
0.0
   0
LINE
   5
1D4
 100
AcDbEntity
   8
LEVEL001
 100
AcDbLine
   6
CONTINUOUS
  62
7
  10
 403.12023836799
  20
 298.58839158378
  30
0.0
  11
 248.12023836799
  21
 298.58839158378
  31
0.0
   0
LINE
   5
1D5
 100
AcDbEntity
   8
LEVEL001
 100
AcDbLine
   6
CONTINUOUS
  62
7
  10
 403.12023836799
  20
 299.58839158378
  30
0.0
  11
 248.12023836799
  21
 299.58839158378
  31
0.0
   0
LINE
   5
1D6
 100
AcDbEntity
   8
LEVEL001
 100
AcDbLine
   6
CONTINUOUS
  62
2
  10
 297.62023836799
  20
 337.58839158378
  30
0.0
  11
 297.62023836799
  21
 338.58839158378
  31
0.0
   0
LINE
   5
1D7
 100
AcDbEntity
   8
LEVEL001
 100
AcDbLine
   6
CONTINUOUS
  62
2
  10
 298.62023836799
  20
 337.58839158378
  30
0.0
  11
 298.62023836799
  21
 338.58839158378
  31
0.0
   0
LINE
   5
1D8
 100
AcDbEntity
   8
LEVEL001
 100
AcDbLine
   6
CONTINUOUS
  62
2
  10
 297.62023836799
  20
 327.58839158378
  30
0.0
  11
 297.62023836799
  21
 328.58839158378
  31
0.0
   0
LINE
   5
1D9
 100
AcDbEntity
   8
LEVEL001
 100
AcDbLine
   6
CONTINUOUS
  62
2
  10
 298.62023836799
  20
 327.58839158378
  30
0.0
  11
 298.62023836799
  21
 328.58839158378
  31
0.0
   0
LINE
   5
1DA
 100
AcDbEntity
   8
LEVEL001
 100
AcDbLine
   6
CONTINUOUS
  62
2
  10
 297.62023836799
  20
 317.58839158378
  30
0.0
  11
 297.62023836799
  21
 318.58839158378
  31
0.0
   0
LINE
   5
1DB
 100
AcDbEntity
   8
LEVEL001
 100
AcDbLine
   6
CONTINUOUS
  62
2
  10
 298.62023836799
  20
 317.58839158378
  30
0.0
  11
 298.62023836799
  21
 318.58839158378
  31
0.0
   0
LINE
   5
1DC
 100
AcDbEntity
   8
LEVEL001
 100
AcDbLine
   6
CONTINUOUS
  62
2
  10
 297.62023836799
  20
 307.58839158378
  30
0.0
  11
 297.62023836799
  21
 308.58839158378
  31
0.0
   0
LINE
   5
1DD
 100
AcDbEntity
   8
LEVEL001
 100
AcDbLine
   6
CONTINUOUS
  62
2
  10
 298.62023836799
  20
 307.58839158378
  30
0.0
  11
 298.62023836799
  21
 308.58839158378
  31
0.0
   0
LINE
   5
1DE
 100
AcDbEntity
   8
LEVEL001
 100
AcDbLine
   6
CONTINUOUS
  62
2
  10
 297.62023836799
  20
 297.58839158378
  30
0.0
  11
 297.62023836799
  21
 298.58839158378
  31
0.0
   0
LINE
   5
1DF
 100
AcDbEntity
   8
LEVEL001
 100
AcDbLine
   6
CONTINUOUS
  62
2
  10
 298.62023836799
  20
 297.58839158378
  30
0.0
  11
 298.62023836799
  21
 298.58839158378
  31
0.0
   0
LINE
   5
1E0
 100
AcDbEntity
   8
LEVEL001
 100
AcDbLine
   6
CONTINUOUS
  62
7
  10
 297.62023836799
  20
 333.33839158435
  30
0.0
  11
 297.62023836799
  21
 337.58839158378
  31
0.0
   0
LINE
   5
1E1
 100
AcDbEntity
   8
LEVEL001
 100
AcDbLine
   6
CONTINUOUS
  62
7
  10
 298.62023836799
  20
 333.33839158435
  30
0.0
  11
 298.62023836799
  21
 337.58839158378
  31
0.0
   0
LINE
   5
1E2
 100
AcDbEntity
   8
LEVEL001
 100
AcDbLine
   6
CONTINUOUS
  62
7
  10
 297.62023836799
  20
 333.33839158435
  30
0.0
  11
 298.12023836799
  21
 333.33839158435
  31
0.0
   0
LINE
   5
1E3
 100
AcDbEntity
   8
LEVEL001
 100
AcDbLine
   6
CONTINUOUS
  62
7
  10
 298.12023836799
  20
 333.33839158435
  30
0.0
  11
 298.62023836799
  21
 333.33839158435
  31
0.0
   0
LINE
   5
1E4
 100
AcDbEntity
   8
LEVEL001
 100
AcDbLine
   6
CONTINUOUS
  62
7
  10
 297.62023836799
  20
 323.33839158435
  30
0.0
  11
 297.62023836799
  21
 327.58839158378
  31
0.0
   0
LINE
   5
1E5
 100
AcDbEntity
   8
LEVEL001
 100
AcDbLine
   6
CONTINUOUS
  62
7
  10
 298.62023836799
  20
 323.33839158435
  30
0.0
  11
 298.62023836799
  21
 327.58839158378
  31
0.0
   0
LINE
   5
1E6
 100
AcDbEntity
   8
LEVEL001
 100
AcDbLine
   6
CONTINUOUS
  62
7
  10
 297.62023836799
  20
 323.33839158435
  30
0.0
  11
 298.12023836799
  21
 323.33839158435
  31
0.0
   0
LINE
   5
1E7
 100
AcDbEntity
   8
LEVEL001
 100
AcDbLine
   6
CONTINUOUS
  62
7
  10
 298.12023836799
  20
 323.33839158435
  30
0.0
  11
 298.62023836799
  21
 323.33839158435
  31
0.0
   0
LINE
   5
1E8
 100
AcDbEntity
   8
LEVEL001
 100
AcDbLine
   6
CONTINUOUS
  62
7
  10
 297.62023836799
  20
 313.33839158435
  30
0.0
  11
 297.62023836799
  21
 317.58839158378
  31
0.0
   0
LINE
   5
1E9
 100
AcDbEntity
   8
LEVEL001
 100
AcDbLine
   6
CONTINUOUS
  62
7
  10
 298.62023836799
  20
 313.33839158435
  30
0.0
  11
 298.62023836799
  21
 317.58839158378
  31
0.0
   0
LINE
   5
1EA
 100
AcDbEntity
   8
LEVEL001
 100
AcDbLine
   6
CONTINUOUS
  62
7
  10
 297.62023836799
  20
 313.33839158435
  30
0.0
  11
 298.12023836799
  21
 313.33839158435
  31
0.0
   0
LINE
   5
1EB
 100
AcDbEntity
   8
LEVEL001
 100
AcDbLine
   6
CONTINUOUS
  62
7
  10
 298.12023836799
  20
 313.33839158435
  30
0.0
  11
 298.62023836799
  21
 313.33839158435
  31
0.0
   0
LINE
   5
1EC
 100
AcDbEntity
   8
LEVEL001
 100
AcDbLine
   6
CONTINUOUS
  62
7
  10
 297.62023836799
  20
 303.33839158435
  30
0.0
  11
 297.62023836799
  21
 307.58839158378
  31
0.0
   0
LINE
   5
1ED
 100
AcDbEntity
   8
LEVEL001
 100
AcDbLine
   6
CONTINUOUS
  62
7
  10
 298.62023836799
  20
 303.33839158435
  30
0.0
  11
 298.62023836799
  21
 307.58839158378
  31
0.0
   0
LINE
   5
1EE
 100
AcDbEntity
   8
LEVEL001
 100
AcDbLine
   6
CONTINUOUS
  62
7
  10
 298.12023836799
  20
 303.33839158435
  30
0.0
  11
 298.62023836799
  21
 303.33839158435
  31
0.0
   0
LINE
   5
1EF
 100
AcDbEntity
   8
LEVEL001
 100
AcDbLine
   6
CONTINUOUS
  62
7
  10
 297.62023836799
  20
 303.33839158435
  30
0.0
  11
 298.12023836799
  21
 303.33839158435
  31
0.0
   0
LINE
   5
1F0
 100
AcDbEntity
   8
LEVEL001
 100
AcDbLine
   6
CONTINUOUS
  62
7
  10
 297.62023836799
  20
 293.33839158435
  30
0.0
  11
 297.62023836799
  21
 297.58839158378
  31
0.0
   0
LINE
   5
1F1
 100
AcDbEntity
   8
LEVEL001
 100
AcDbLine
   6
CONTINUOUS
  62
7
  10
 298.62023836799
  20
 293.33839158435
  30
0.0
  11
 298.62023836799
  21
 297.58839158378
  31
0.0
   0
LINE
   5
1F2
 100
AcDbEntity
   8
LEVEL001
 100
AcDbLine
   6
DASHDOT
  62
2
  10
 298.12023836799
  20
 364.50360645494
  30
0.0
  11
 298.12023836799
  21
 273.20508416137
  31
0.0
   0
LINE
   5
1F3
 100
AcDbEntity
   8
LEVEL001
 100
AcDbLine
   6
CONTINUOUS
  62
7
  10
 297.62023836799
  20
 345.33839158435
  30
0.0
  11
 297.62023836799
  21
 349.58839158378
  31
0.0
   0
LINE
   5
1F4
 100
AcDbEntity
   8
LEVEL001
 100
AcDbLine
   6
CONTINUOUS
  62
7
  10
 298.62023836799
  20
 345.33839158435
  30
0.0
  11
 298.62023836799
  21
 349.58839158378
  31
0.0
   0
LINE
   5
1F5
 100
AcDbEntity
   8
LEVEL001
 100
AcDbLine
   6
CONTINUOUS
  62
7
  10
 297.62023836799
  20
 345.33839158435
  30
0.0
  11
 298.12023836799
  21
 345.33839158435
  31
0.0
   0
LINE
   5
1F6
 100
AcDbEntity
   8
LEVEL001
 100
AcDbLine
   6
CONTINUOUS
  62
7
  10
 298.12023836799
  20
 345.33839158435
  30
0.0
  11
 298.62023836799
  21
 345.33839158435
  31
0.0
   0
LINE
   5
1F7
 100
AcDbEntity
   8
LEVEL001
 100
AcDbLine
   6
CONTINUOUS
  62
7
  10
 297.62023836799
  20
 293.33839158435
  30
0.0
  11
 298.12023836799
  21
 293.33839158435
  31
0.0
   0
LINE
   5
1F8
 100
AcDbEntity
   8
LEVEL001
 100
AcDbLine
   6
CONTINUOUS
  62
7
  10
 298.12023836799
  20
 293.33839158435
  30
0.0
  11
 298.62023836799
  21
 293.33839158435
  31
0.0
   0
LINE
   5
1F9
 100
AcDbEntity
   8
LEVEL001
 100
AcDbLine
   6
CONTINUOUS
  62
7
  10
 248.12023836799
  20
 346.58839158378
  30
0.0
  11
 297.62023836799
  21
 346.58839158378
  31
0.0
   0
LINE
   5
1FA
 100
AcDbEntity
   8
LEVEL001
 100
AcDbLine
   6
CONTINUOUS
  62
7
  10
 298.62023836799
  20
 346.58839158378
  30
0.0
  11
 396.62023836799
  21
 346.58839158378
  31
0.0
   0
LINE
   5
1FB
 100
AcDbEntity
   8
LEVEL001
 100
AcDbLine
   6
DASHDOT
  62
2
  10
 248.12023836799
  20
 370.39119998671
  30
0.0
  11
 248.12023836799
  21
 265.60889910176
  31
0.0
   0
LINE
   5
1FC
 100
AcDbEntity
   8
LEVEL001
 100
AcDbLine
   6
DASHDOT
  62
2
  10
 394.62023836799
  20
 343.58839158378
  30
0.0
  11
 406.83471829109
  21
 343.58839158378
  31
0.0
   0
LINE
   5
1FD
 100
AcDbEntity
   8
LEVEL001
 100
AcDbLine
   6
CONTINUOUS
  62
7
  10
 396.62023836799
  20
 346.58839158378
  30
0.0
  11
 402.86287905511
  21
 346.58839158378
  31
0.0
   0
LINE
   5
1FE
 100
AcDbEntity
   8
LEVEL001
 100
AcDbLine
   6
DASHDOT
  62
2
  10
 396.62023836799
  20
 353.48900784596
  30
0.0
  11
 396.62023836799
  21
 342.17163948351
  31
0.0
   0
LINE
   5
1FF
 100
AcDbEntity
   8
LEVEL001
 100
AcDbLine
   6
DOT
  62
1
  10
 248.12023836799
  20
 351.08839158378
  30
0.0
  11
 398.62023836799
  21
 351.08839158378
  31
0.0
   0
ARC
   5
200
 100
AcDbEntity
   8
LEVEL001
   6
DOT
  62
1
 100
AcDbCircle
  10
 398.62023836799
  20
 345.08839158378
  30
0.0
  40
 6.0000000000000
 100
AcDbArc
  50
0.0
  51
 90.000000000000
   0
POINT
   5
201
 100
AcDbEntity
   8
LEVEL001
 100
AcDbPoint
  62
1
  10
 404.62023836799
  20
 351.08839158378
  30
0.0
   0
LINE
   5
202
 100
AcDbEntity
   8
LEVEL001
 100
AcDbLine
   6
DOT
  62
1
  10
 404.62023836799
  20
 344.38839158354
  30
0.0
  11
 405.42023836775
  21
 343.58839158378
  31
0.0
   0
LINE
   5
203
 100
AcDbEntity
   8
LEVEL001
 100
AcDbLine
   6
DOT
  62
1
  10
 404.62023836799
  20
 345.08839158378
  30
0.0
  11
 404.62023836799
  21
 294.08839158378
  31
0.0
   0
LINE
   5
204
 100
AcDbEntity
   8
LEVEL001
 100
AcDbLine
   6
DOT
  62
1
  10
 405.42023836774
  20
 343.58839158378
  30
0.0
  11
 404.62023836799
  21
 342.78839158403
  31
0.0
   0
LINE
   5
205
 100
AcDbEntity
   8
LEVEL001
 100
AcDbLine
   6
DOT
  62
1
  10
 396.62023836799
  20
 351.88839158353
  30
0.0
  11
 397.42023836774
  21
 351.08839158378
  31
0.0
   0
LINE
   5
206
 100
AcDbEntity
   8
LEVEL001
 100
AcDbLine
   6
DOT
  62
1
  10
 395.82023836823
  20
 351.08839158378
  30
0.0
  11
 396.62023836799
  21
 351.88839158354
  31
0.0
   0
LINE
   5
207
 100
AcDbEntity
   8
LEVEL001
 100
AcDbLine
   6
DOT
  62
1
  10
 298.12023836799
  20
 351.88839158353
  30
0.0
  11
 298.92023836774
  21
 351.08839158378
  31
0.0
   0
LINE
   5
208
 100
AcDbEntity
   8
LEVEL001
 100
AcDbLine
   6
DOT
  62
1
  10
 297.32023836823
  20
 351.08839158378
  30
0.0
  11
 298.12023836799
  21
 351.88839158354
  31
0.0
   0
LINE
   5
209
 100
AcDbEntity
   8
LEVEL001
 100
AcDbLine
   6
DOT
  62
1
  10
 398.62023836799
  20
 288.08839158378
  30
0.0
  11
 248.12023836799
  21
 288.08839158378
  31
0.0
   0
ARC
   5
20A
 100
AcDbEntity
   8
LEVEL001
   6
DOT
  62
1
 100
AcDbCircle
  10
 398.62023836799
  20
 294.08839158378
  30
0.0
  40
 6.0000000000000
 100
AcDbArc
  50
 270.00000000000
  51
 0.32568879938186E-11
   0
POINT
   5
20B
 100
AcDbEntity
   8
LEVEL001
 100
AcDbPoint
  62
1
  10
 404.62023836799
  20
 288.08839158378
  30
0.0
   0
LINE
   5
20C
 100
AcDbEntity
   8
LEVEL001
 100
AcDbLine
   6
DOT
  62
1
  10
 395.82023836823
  20
 288.08839158378
  30
0.0
  11
 396.62023836799
  21
 287.28839158402
  31
0.0
   0
LINE
   5
20D
 100
AcDbEntity
   8
LEVEL001
 100
AcDbLine
   6
DOT
  62
1
  10
 396.62023836799
  20
 287.28839158403
  30
0.0
  11
 397.42023836774
  21
 288.08839158378
  31
0.0
   0
LINE
   5
20E
 100
AcDbEntity
   8
LEVEL001
 100
AcDbLine
   6
DOT
  62
1
  10
 404.62023836799
  20
 294.78839158402
  30
0.0
  11
 405.42023836775
  21
 295.58839158378
  31
0.0
   0
LINE
   5
20F
 100
AcDbEntity
   8
LEVEL001
 100
AcDbLine
   6
DOT
  62
1
  10
 405.42023836774
  20
 295.58839158378
  30
0.0
  11
 404.62023836799
  21
 296.38839158353
  31
0.0
   0
LINE
   5
210
 100
AcDbEntity
   8
LEVEL001
 100
AcDbLine
   6
DOT
  62
1
  10
 298.12023836799
  20
 287.28839158403
  30
0.0
  11
 298.92023836774
  21
 288.08839158378
  31
0.0
   0
LINE
   5
211
 100
AcDbEntity
   8
LEVEL001
 100
AcDbLine
   6
DOT
  62
1
  10
 297.32023836823
  20
 288.08839158378
  30
0.0
  11
 298.12023836799
  21
 287.28839158402
  31
0.0
   0
LINE
   5
212
 100
AcDbEntity
   8
LEVEL001
 100
AcDbLine
   6
DOT
  62
1
  10
 297.62023836799
  20
 338.58839158378
  30
0.0
  11
 297.62023836799
  21
 345.33839158435
  31
0.0
   0
LINE
   5
213
 100
AcDbEntity
   8
LEVEL001
 100
AcDbLine
   6
DOT
  62
1
  10
 298.62023836799
  20
 338.58839158378
  30
0.0
  11
 298.62023836799
  21
 345.33839158435
  31
0.0
   0
LINE
   5
214
 100
AcDbEntity
   8
LEVEL001
 100
AcDbLine
   6
DOT
  62
1
  10
 297.62023836799
  20
 328.58839158378
  30
0.0
  11
 297.62023836799
  21
 333.33839158435
  31
0.0
   0
LINE
   5
215
 100
AcDbEntity
   8
LEVEL001
 100
AcDbLine
   6
DOT
  62
1
  10
 298.62023836799
  20
 328.58839158378
  30
0.0
  11
 298.62023836799
  21
 333.33839158435
  31
0.0
   0
LINE
   5
216
 100
AcDbEntity
   8
LEVEL001
 100
AcDbLine
   6
DOT
  62
1
  10
 297.62023836799
  20
 318.58839158378
  30
0.0
  11
 297.62023836799
  21
 323.33839158435
  31
0.0
   0
LINE
   5
217
 100
AcDbEntity
   8
LEVEL001
 100
AcDbLine
   6
DOT
  62
1
  10
 298.62023836799
  20
 318.58839158378
  30
0.0
  11
 298.62023836799
  21
 323.33839158435
  31
0.0
   0
LINE
   5
218
 100
AcDbEntity
   8
LEVEL001
 100
AcDbLine
   6
DOT
  62
1
  10
 298.62023836799
  20
 308.58839158378
  30
0.0
  11
 298.62023836799
  21
 313.33839158435
  31
0.0
   0
LINE
   5
219
 100
AcDbEntity
   8
LEVEL001
 100
AcDbLine
   6
DOT
  62
1
  10
 297.62023836799
  20
 308.58839158378
  30
0.0
  11
 297.62023836799
  21
 313.33839158435
  31
0.0
   0
LINE
   5
21A
 100
AcDbEntity
   8
LEVEL001
 100
AcDbLine
   6
DOT
  62
1
  10
 297.62023836799
  20
 298.58839158378
  30
0.0
  11
 297.62023836799
  21
 303.33839158435
  31
0.0
   0
LINE
   5
21B
 100
AcDbEntity
   8
LEVEL001
 100
AcDbLine
   6
DOT
  62
1
  10
 298.62023836799
  20
 298.58839158378
  30
0.0
  11
 298.62023836799
  21
 303.33839158435
  31
0.0
   0
LINE
   5
21C
 100
AcDbEntity
   8
LEVEL001
 100
AcDbLine
   6
DOT
  62
1
  10
 297.62023836799
  20
 288.08839158378
  30
0.0
  11
 297.62023836799
  21
 293.33839158435
  31
0.0
   0
LINE
   5
21D
 100
AcDbEntity
   8
LEVEL001
 100
AcDbLine
   6
DOT
  62
1
  10
 298.62023836799
  20
 288.08839158378
  30
0.0
  11
 298.62023836799
  21
 293.33839158435
  31
0.0
   0
LINE
   5
21E
 100
AcDbEntity
   8
LEVEL001
 100
AcDbLine
   6
CONTINUOUS
  62
7
  10
 248.12023836799
  20
 361.58839158378
  30
0.0
  11
 86.120238367988
  21
 361.58839158378
  31
0.0
   0
ARC
   5
21F
 100
AcDbEntity
   8
LEVEL001
   6
CONTINUOUS
  62
7
 100
AcDbCircle
  10
 86.120238367988
  20
 356.58839158378
  30
0.0
  40
 5.0000000000000
 100
AcDbArc
  50
 90.000000000000
  51
 179.99999999999
   0
LINE
   5
220
 100
AcDbEntity
   8
LEVEL001
 100
AcDbLine
   6
CONTINUOUS
  62
7
  10
 86.120238367988
  20
 277.58839158378
  30
0.0
  11
 248.12023836799
  21
 277.58839158378
  31
0.0
   0
ARC
   5
221
 100
AcDbEntity
   8
LEVEL001
   6
CONTINUOUS
  62
7
 100
AcDbCircle
  10
 86.120238367987
  20
 282.58839158378
  30
0.0
  40
 5.0000000000000
 100
AcDbArc
  50
 180.00000000000
  51
 270.00000000001
   0
LINE
   5
222
 100
AcDbEntity
   8
LEVEL001
 100
AcDbLine
   6
CONTINUOUS
  62
2
  10
 93.120238367988
  20
 337.58839158378
  30
0.0
  11
 248.12023836799
  21
 337.58839158378
  31
0.0
   0
LINE
   5
223
 100
AcDbEntity
   8
LEVEL001
 100
AcDbLine
   6
CONTINUOUS
  62
7
  10
 93.120238367988
  20
 338.58839158378
  30
0.0
  11
 248.12023836799
  21
 338.58839158378
  31
0.0
   0
LINE
   5
224
 100
AcDbEntity
   8
LEVEL001
 100
AcDbLine
   6
CONTINUOUS
  62
7
  10
 93.120238367988
  20
 339.58839158378
  30
0.0
  11
 248.12023836799
  21
 339.58839158378
  31
0.0
   0
LINE
   5
225
 100
AcDbEntity
   8
LEVEL001
 100
AcDbLine
   6
CONTINUOUS
  62
2
  10
 93.120238367988
  20
 327.58839158378
  30
0.0
  11
 248.12023836799
  21
 327.58839158378
  31
0.0
   0
LINE
   5
226
 100
AcDbEntity
   8
LEVEL001
 100
AcDbLine
   6
CONTINUOUS
  62
7
  10
 93.120238367988
  20
 328.58839158378
  30
0.0
  11
 248.12023836799
  21
 328.58839158378
  31
0.0
   0
LINE
   5
227
 100
AcDbEntity
   8
LEVEL001
 100
AcDbLine
   6
CONTINUOUS
  62
7
  10
 93.120238367988
  20
 329.58839158378
  30
0.0
  11
 248.12023836799
  21
 329.58839158378
  31
0.0
   0
LINE
   5
228
 100
AcDbEntity
   8
LEVEL001
 100
AcDbLine
   6
CONTINUOUS
  62
2
  10
 93.120238367988
  20
 317.58839158378
  30
0.0
  11
 248.12023836799
  21
 317.58839158378
  31
0.0
   0
LINE
   5
229
 100
AcDbEntity
   8
LEVEL001
 100
AcDbLine
   6
CONTINUOUS
  62
7
  10
 93.120238367988
  20
 318.58839158378
  30
0.0
  11
 248.12023836799
  21
 318.58839158378
  31
0.0
   0
LINE
   5
22A
 100
AcDbEntity
   8
LEVEL001
 100
AcDbLine
   6
CONTINUOUS
  62
7
  10
 93.120238367988
  20
 319.58839158378
  30
0.0
  11
 248.12023836799
  21
 319.58839158378
  31
0.0
   0
LINE
   5
22B
 100
AcDbEntity
   8
LEVEL001
 100
AcDbLine
   6
CONTINUOUS
  62
2
  10
 93.120238367988
  20
 307.58839158378
  30
0.0
  11
 248.12023836799
  21
 307.58839158378
  31
0.0
   0
LINE
   5
22C
 100
AcDbEntity
   8
LEVEL001
 100
AcDbLine
   6
CONTINUOUS
  62
7
  10
 93.120238367988
  20
 308.58839158378
  30
0.0
  11
 248.12023836799
  21
 308.58839158378
  31
0.0
   0
LINE
   5
22D
 100
AcDbEntity
   8
LEVEL001
 100
AcDbLine
   6
CONTINUOUS
  62
7
  10
 93.120238367988
  20
 309.58839158378
  30
0.0
  11
 248.12023836799
  21
 309.58839158378
  31
0.0
   0
LINE
   5
22E
 100
AcDbEntity
   8
LEVEL001
 100
AcDbLine
   6
CONTINUOUS
  62
2
  10
 93.120238367988
  20
 297.58839158378
  30
0.0
  11
 248.12023836799
  21
 297.58839158378
  31
0.0
   0
LINE
   5
22F
 100
AcDbEntity
   8
LEVEL001
 100
AcDbLine
   6
CONTINUOUS
  62
7
  10
 93.120238367988
  20
 298.58839158378
  30
0.0
  11
 248.12023836799
  21
 298.58839158378
  31
0.0
   0
LINE
   5
230
 100
AcDbEntity
   8
LEVEL001
 100
AcDbLine
   6
CONTINUOUS
  62
7
  10
 93.120238367988
  20
 299.58839158378
  30
0.0
  11
 248.12023836799
  21
 299.58839158378
  31
0.0
   0
LINE
   5
231
 100
AcDbEntity
   8
LEVEL001
 100
AcDbLine
   6
CONTINUOUS
  62
2
  10
 198.62023836799
  20
 337.58839158378
  30
0.0
  11
 198.62023836799
  21
 338.58839158378
  31
0.0
   0
LINE
   5
232
 100
AcDbEntity
   8
LEVEL001
 100
AcDbLine
   6
CONTINUOUS
  62
2
  10
 197.62023836799
  20
 337.58839158378
  30
0.0
  11
 197.62023836799
  21
 338.58839158378
  31
0.0
   0
LINE
   5
233
 100
AcDbEntity
   8
LEVEL001
 100
AcDbLine
   6
CONTINUOUS
  62
2
  10
 198.62023836799
  20
 327.58839158378
  30
0.0
  11
 198.62023836799
  21
 328.58839158378
  31
0.0
   0
LINE
   5
234
 100
AcDbEntity
   8
LEVEL001
 100
AcDbLine
   6
CONTINUOUS
  62
2
  10
 197.62023836799
  20
 327.58839158378
  30
0.0
  11
 197.62023836799
  21
 328.58839158378
  31
0.0
   0
LINE
   5
235
 100
AcDbEntity
   8
LEVEL001
 100
AcDbLine
   6
CONTINUOUS
  62
2
  10
 198.62023836799
  20
 317.58839158378
  30
0.0
  11
 198.62023836799
  21
 318.58839158378
  31
0.0
   0
LINE
   5
236
 100
AcDbEntity
   8
LEVEL001
 100
AcDbLine
   6
CONTINUOUS
  62
2
  10
 197.62023836799
  20
 317.58839158378
  30
0.0
  11
 197.62023836799
  21
 318.58839158378
  31
0.0
   0
LINE
   5
237
 100
AcDbEntity
   8
LEVEL001
 100
AcDbLine
   6
CONTINUOUS
  62
2
  10
 198.62023836799
  20
 307.58839158378
  30
0.0
  11
 198.62023836799
  21
 308.58839158378
  31
0.0
   0
LINE
   5
238
 100
AcDbEntity
   8
LEVEL001
 100
AcDbLine
   6
CONTINUOUS
  62
2
  10
 197.62023836799
  20
 307.58839158378
  30
0.0
  11
 197.62023836799
  21
 308.58839158378
  31
0.0
   0
LINE
   5
239
 100
AcDbEntity
   8
LEVEL001
 100
AcDbLine
   6
CONTINUOUS
  62
2
  10
 198.62023836799
  20
 297.58839158378
  30
0.0
  11
 198.62023836799
  21
 298.58839158378
  31
0.0
   0
LINE
   5
23A
 100
AcDbEntity
   8
LEVEL001
 100
AcDbLine
   6
CONTINUOUS
  62
2
  10
 197.62023836799
  20
 297.58839158378
  30
0.0
  11
 197.62023836799
  21
 298.58839158378
  31
0.0
   0
LINE
   5
23B
 100
AcDbEntity
   8
LEVEL001
 100
AcDbLine
   6
CONTINUOUS
  62
7
  10
 198.62023836799
  20
 333.33839158435
  30
0.0
  11
 198.62023836799
  21
 337.58839158378
  31
0.0
   0
LINE
   5
23C
 100
AcDbEntity
   8
LEVEL001
 100
AcDbLine
   6
CONTINUOUS
  62
7
  10
 197.62023836799
  20
 333.33839158435
  30
0.0
  11
 197.62023836799
  21
 337.58839158378
  31
0.0
   0
LINE
   5
23D
 100
AcDbEntity
   8
LEVEL001
 100
AcDbLine
   6
CONTINUOUS
  62
7
  10
 198.62023836799
  20
 333.33839158435
  30
0.0
  11
 198.12023836799
  21
 333.33839158435
  31
0.0
   0
LINE
   5
23E
 100
AcDbEntity
   8
LEVEL001
 100
AcDbLine
   6
CONTINUOUS
  62
7
  10
 198.12023836799
  20
 333.33839158435
  30
0.0
  11
 197.62023836799
  21
 333.33839158435
  31
0.0
   0
LINE
   5
23F
 100
AcDbEntity
   8
LEVEL001
 100
AcDbLine
   6
CONTINUOUS
  62
7
  10
 198.62023836799
  20
 323.33839158435
  30
0.0
  11
 198.62023836799
  21
 327.58839158378
  31
0.0
   0
LINE
   5
240
 100
AcDbEntity
   8
LEVEL001
 100
AcDbLine
   6
CONTINUOUS
  62
7
  10
 197.62023836799
  20
 323.33839158435
  30
0.0
  11
 197.62023836799
  21
 327.58839158378
  31
0.0
   0
LINE
   5
241
 100
AcDbEntity
   8
LEVEL001
 100
AcDbLine
   6
CONTINUOUS
  62
7
  10
 198.62023836799
  20
 323.33839158435
  30
0.0
  11
 198.12023836799
  21
 323.33839158435
  31
0.0
   0
LINE
   5
242
 100
AcDbEntity
   8
LEVEL001
 100
AcDbLine
   6
CONTINUOUS
  62
7
  10
 198.12023836799
  20
 323.33839158435
  30
0.0
  11
 197.62023836799
  21
 323.33839158435
  31
0.0
   0
LINE
   5
243
 100
AcDbEntity
   8
LEVEL001
 100
AcDbLine
   6
CONTINUOUS
  62
7
  10
 198.62023836799
  20
 313.33839158435
  30
0.0
  11
 198.62023836799
  21
 317.58839158378
  31
0.0
   0
LINE
   5
244
 100
AcDbEntity
   8
LEVEL001
 100
AcDbLine
   6
CONTINUOUS
  62
7
  10
 197.62023836799
  20
 313.33839158435
  30
0.0
  11
 197.62023836799
  21
 317.58839158378
  31
0.0
   0
LINE
   5
245
 100
AcDbEntity
   8
LEVEL001
 100
AcDbLine
   6
CONTINUOUS
  62
7
  10
 198.62023836799
  20
 313.33839158435
  30
0.0
  11
 198.12023836799
  21
 313.33839158435
  31
0.0
   0
LINE
   5
246
 100
AcDbEntity
   8
LEVEL001
 100
AcDbLine
   6
CONTINUOUS
  62
7
  10
 198.12023836799
  20
 313.33839158435
  30
0.0
  11
 197.62023836799
  21
 313.33839158435
  31
0.0
   0
LINE
   5
247
 100
AcDbEntity
   8
LEVEL001
 100
AcDbLine
   6
CONTINUOUS
  62
7
  10
 198.62023836799
  20
 303.33839158435
  30
0.0
  11
 198.62023836799
  21
 307.58839158378
  31
0.0
   0
LINE
   5
248
 100
AcDbEntity
   8
LEVEL001
 100
AcDbLine
   6
CONTINUOUS
  62
7
  10
 197.62023836799
  20
 303.33839158435
  30
0.0
  11
 197.62023836799
  21
 307.58839158378
  31
0.0
   0
LINE
   5
249
 100
AcDbEntity
   8
LEVEL001
 100
AcDbLine
   6
CONTINUOUS
  62
7
  10
 198.12023836799
  20
 303.33839158435
  30
0.0
  11
 197.62023836799
  21
 303.33839158435
  31
0.0
   0
LINE
   5
24A
 100
AcDbEntity
   8
LEVEL001
 100
AcDbLine
   6
CONTINUOUS
  62
7
  10
 198.62023836799
  20
 303.33839158435
  30
0.0
  11
 198.12023836799
  21
 303.33839158435
  31
0.0
   0
LINE
   5
24B
 100
AcDbEntity
   8
LEVEL001
 100
AcDbLine
   6
CONTINUOUS
  62
7
  10
 198.62023836799
  20
 293.33839158435
  30
0.0
  11
 198.62023836799
  21
 297.58839158378
  31
0.0
   0
LINE
   5
24C
 100
AcDbEntity
   8
LEVEL001
 100
AcDbLine
   6
CONTINUOUS
  62
7
  10
 197.62023836799
  20
 293.33839158435
  30
0.0
  11
 197.62023836799
  21
 297.58839158378
  31
0.0
   0
LINE
   5
24D
 100
AcDbEntity
   8
LEVEL001
 100
AcDbLine
   6
DASHDOT
  62
2
  10
 198.12023836799
  20
 364.50360645494
  30
0.0
  11
 198.12023836799
  21
 273.20508416137
  31
0.0
   0
LINE
   5
24E
 100
AcDbEntity
   8
LEVEL001
 100
AcDbLine
   6
CONTINUOUS
  62
7
  10
 198.62023836799
  20
 345.33839158435
  30
0.0
  11
 198.62023836799
  21
 349.58839158378
  31
0.0
   0
LINE
   5
24F
 100
AcDbEntity
   8
LEVEL001
 100
AcDbLine
   6
CONTINUOUS
  62
7
  10
 197.62023836799
  20
 345.33839158435
  30
0.0
  11
 197.62023836799
  21
 349.58839158378
  31
0.0
   0
LINE
   5
250
 100
AcDbEntity
   8
LEVEL001
 100
AcDbLine
   6
CONTINUOUS
  62
7
  10
 198.62023836799
  20
 345.33839158435
  30
0.0
  11
 198.12023836799
  21
 345.33839158435
  31
0.0
   0
LINE
   5
251
 100
AcDbEntity
   8
LEVEL001
 100
AcDbLine
   6
CONTINUOUS
  62
7
  10
 198.12023836799
  20
 345.33839158435
  30
0.0
  11
 197.62023836799
  21
 345.33839158435
  31
0.0
   0
LINE
   5
252
 100
AcDbEntity
   8
LEVEL001
 100
AcDbLine
   6
CONTINUOUS
  62
7
  10
 198.62023836799
  20
 293.33839158435
  30
0.0
  11
 198.12023836799
  21
 293.33839158435
  31
0.0
   0
LINE
   5
253
 100
AcDbEntity
   8
LEVEL001
 100
AcDbLine
   6
CONTINUOUS
  62
7
  10
 198.12023836799
  20
 293.33839158435
  30
0.0
  11
 197.62023836799
  21
 293.33839158435
  31
0.0
   0
LINE
   5
254
 100
AcDbEntity
   8
LEVEL001
 100
AcDbLine
   6
CONTINUOUS
  62
7
  10
 248.12023836799
  20
 346.58839158378
  30
0.0
  11
 198.62023836799
  21
 346.58839158378
  31
0.0
   0
LINE
   5
255
 100
AcDbEntity
   8
LEVEL001
 100
AcDbLine
   6
CONTINUOUS
  62
7
  10
 197.62023836799
  20
 346.58839158378
  30
0.0
  11
 99.620238367988
  21
 346.58839158378
  31
0.0
   0
LINE
   5
256
 100
AcDbEntity
   8
LEVEL001
 100
AcDbLine
   6
DASHDOT
  62
2
  10
 101.62023836799
  20
 343.58839158378
  30
0.0
  11
 89.405758444890
  21
 343.58839158378
  31
0.0
   0
LINE
   5
257
 100
AcDbEntity
   8
LEVEL001
 100
AcDbLine
   6
CONTINUOUS
  62
7
  10
 99.620238367988
  20
 346.58839158378
  30
0.0
  11
 93.377597680868
  21
 346.58839158378
  31
0.0
   0
LINE
   5
258
 100
AcDbEntity
   8
LEVEL001
 100
AcDbLine
   6
DASHDOT
  62
2
  10
 99.620238367988
  20
 353.48900784596
  30
0.0
  11
 99.620238367988
  21
 342.17163948351
  31
0.0
   0
LINE
   5
259
 100
AcDbEntity
   8
LEVEL001
 100
AcDbLine
   6
DOT
  62
1
  10
 248.12023836799
  20
 351.08839158378
  30
0.0
  11
 97.620238367988
  21
 351.08839158378
  31
0.0
   0
ARC
   5
25A
 100
AcDbEntity
   8
LEVEL001
   6
DOT
  62
1
 100
AcDbCircle
  10
 97.620238367988
  20
 345.08839158378
  30
0.0
  40
 6.0000000000000
 100
AcDbArc
  50
 90.000000000000
  51
 179.99999999999
   0
POINT
   5
25B
 100
AcDbEntity
   8
LEVEL001
 100
AcDbPoint
  62
1
  10
 91.620238367988
  20
 351.08839158378
  30
0.0
   0
LINE
   5
25C
 100
AcDbEntity
   8
LEVEL001
 100
AcDbLine
   6
DOT
  62
1
  10
 91.620238367988
  20
 344.38839158354
  30
0.0
  11
 90.820238368229
  21
 343.58839158378
  31
0.0
   0
LINE
   5
25D
 100
AcDbEntity
   8
LEVEL001
 100
AcDbLine
   6
DOT
  62
1
  10
 91.620238367988
  20
 345.08839158378
  30
0.0
  11
 91.620238367988
  21
 294.08839158378
  31
0.0
   0
LINE
   5
25E
 100
AcDbEntity
   8
LEVEL001
 100
AcDbLine
   6
DOT
  62
1
  10
 90.820238368238
  20
 343.58839158378
  30
0.0
  11
 91.620238367988
  21
 342.78839158403
  31
0.0
   0
LINE
   5
25F
 100
AcDbEntity
   8
LEVEL001
 100
AcDbLine
   6
DOT
  62
1
  10
 99.620238367988
  20
 351.88839158353
  30
0.0
  11
 98.820238368238
  21
 351.08839158378
  31
0.0
   0
LINE
   5
260
 100
AcDbEntity
   8
LEVEL001
 100
AcDbLine
   6
DOT
  62
1
  10
 100.42023836775
  20
 351.08839158378
  30
0.0
  11
 99.620238367988
  21
 351.88839158354
  31
0.0
   0
LINE
   5
261
 100
AcDbEntity
   8
LEVEL001
 100
AcDbLine
   6
DOT
  62
1
  10
 198.12023836799
  20
 351.88839158353
  30
0.0
  11
 197.32023836824
  21
 351.08839158378
  31
0.0
   0
LINE
   5
262
 100
AcDbEntity
   8
LEVEL001
 100
AcDbLine
   6
DOT
  62
1
  10
 198.92023836775
  20
 351.08839158378
  30
0.0
  11
 198.12023836799
  21
 351.88839158354
  31
0.0
   0
LINE
   5
263
 100
AcDbEntity
   8
LEVEL001
 100
AcDbLine
   6
DOT
  62
1
  10
 97.620238367988
  20
 288.08839158378
  30
0.0
  11
 248.12023836799
  21
 288.08839158378
  31
0.0
   0
ARC
   5
264
 100
AcDbEntity
   8
LEVEL001
   6
DOT
  62
1
 100
AcDbCircle
  10
 97.620238367988
  20
 294.08839158378
  30
0.0
  40
 6.0000000000000
 100
AcDbArc
  50
 180.00000000000
  51
 270.00000000000
   0
POINT
   5
265
 100
AcDbEntity
   8
LEVEL001
 100
AcDbPoint
  62
1
  10
 91.620238367988
  20
 288.08839158378
  30
0.0
   0
LINE
   5
266
 100
AcDbEntity
   8
LEVEL001
 100
AcDbLine
   6
DOT
  62
1
  10
 100.42023836775
  20
 288.08839158378
  30
0.0
  11
 99.620238367988
  21
 287.28839158402
  31
0.0
   0
LINE
   5
267
 100
AcDbEntity
   8
LEVEL001
 100
AcDbLine
   6
DOT
  62
1
  10
 99.620238367988
  20
 287.28839158403
  30
0.0
  11
 98.820238368238
  21
 288.08839158378
  31
0.0
   0
LINE
   5
268
 100
AcDbEntity
   8
LEVEL001
 100
AcDbLine
   6
DOT
  62
1
  10
 91.620238367988
  20
 294.78839158402
  30
0.0
  11
 90.820238368229
  21
 295.58839158378
  31
0.0
   0
LINE
   5
269
 100
AcDbEntity
   8
LEVEL001
 100
AcDbLine
   6
DOT
  62
1
  10
 90.820238368238
  20
 295.58839158378
  30
0.0
  11
 91.620238367988
  21
 296.38839158353
  31
0.0
   0
LINE
   5
26A
 100
AcDbEntity
   8
LEVEL001
 100
AcDbLine
   6
DASHDOT
  62
2
  10
 101.62023836799
  20
 295.58839158378
  30
0.0
  11
 87.881181958163
  21
 295.58839158378
  31
0.0
   0
LINE
   5
26B
 100
AcDbEntity
   8
LEVEL001
 100
AcDbLine
   6
DOT
  62
1
  10
 198.12023836799
  20
 287.28839158403
  30
0.0
  11
 197.32023836824
  21
 288.08839158378
  31
0.0
   0
LINE
   5
26C
 100
AcDbEntity
   8
LEVEL001
 100
AcDbLine
   6
DOT
  62
1
  10
 198.92023836775
  20
 288.08839158378
  30
0.0
  11
 198.12023836799
  21
 287.28839158402
  31
0.0
   0
LINE
   5
26D
 100
AcDbEntity
   8
LEVEL001
 100
AcDbLine
   6
DOT
  62
1
  10
 198.62023836799
  20
 338.58839158378
  30
0.0
  11
 198.62023836799
  21
 345.33839158435
  31
0.0
   0
LINE
   5
26E
 100
AcDbEntity
   8
LEVEL001
 100
AcDbLine
   6
DOT
  62
1
  10
 197.62023836799
  20
 338.58839158378
  30
0.0
  11
 197.62023836799
  21
 345.33839158435
  31
0.0
   0
LINE
   5
26F
 100
AcDbEntity
   8
LEVEL001
 100
AcDbLine
   6
DOT
  62
1
  10
 198.62023836799
  20
 328.58839158378
  30
0.0
  11
 198.62023836799
  21
 333.33839158435
  31
0.0
   0
LINE
   5
270
 100
AcDbEntity
   8
LEVEL001
 100
AcDbLine
   6
DOT
  62
1
  10
 197.62023836799
  20
 328.58839158378
  30
0.0
  11
 197.62023836799
  21
 333.33839158435
  31
0.0
   0
LINE
   5
271
 100
AcDbEntity
   8
LEVEL001
 100
AcDbLine
   6
DOT
  62
1
  10
 198.62023836799
  20
 318.58839158378
  30
0.0
  11
 198.62023836799
  21
 323.33839158435
  31
0.0
   0
LINE
   5
272
 100
AcDbEntity
   8
LEVEL001
 100
AcDbLine
   6
DOT
  62
1
  10
 197.62023836799
  20
 318.58839158378
  30
0.0
  11
 197.62023836799
  21
 323.33839158435
  31
0.0
   0
LINE
   5
273
 100
AcDbEntity
   8
LEVEL001
 100
AcDbLine
   6
DOT
  62
1
  10
 197.62023836799
  20
 308.58839158378
  30
0.0
  11
 197.62023836799
  21
 313.33839158435
  31
0.0
   0
LINE
   5
274
 100
AcDbEntity
   8
LEVEL001
 100
AcDbLine
   6
DOT
  62
1
  10
 198.62023836799
  20
 308.58839158378
  30
0.0
  11
 198.62023836799
  21
 313.33839158435
  31
0.0
   0
LINE
   5
275
 100
AcDbEntity
   8
LEVEL001
 100
AcDbLine
   6
DOT
  62
1
  10
 198.62023836799
  20
 298.58839158378
  30
0.0
  11
 198.62023836799
  21
 303.33839158435
  31
0.0
   0
LINE
   5
276
 100
AcDbEntity
   8
LEVEL001
 100
AcDbLine
   6
DOT
  62
1
  10
 197.62023836799
  20
 298.58839158378
  30
0.0
  11
 197.62023836799
  21
 303.33839158435
  31
0.0
   0
LINE
   5
277
 100
AcDbEntity
   8
LEVEL001
 100
AcDbLine
   6
DOT
  62
1
  10
 198.62023836799
  20
 288.08839158378
  30
0.0
  11
 198.62023836799
  21
 293.33839158435
  31
0.0
   0
LINE
   5
278
 100
AcDbEntity
   8
LEVEL001
 100
AcDbLine
   6
DOT
  62
1
  10
 197.62023836799
  20
 288.08839158378
  30
0.0
  11
 197.62023836799
  21
 293.33839158435
  31
0.0
   0
POINT
   5
279
 100
AcDbEntity
   8
LEVEL001
 100
AcDbPoint
  62
7
  10
 81.120238367988
  20
 361.58839158378
  30
0.0
   0
POINT
   5
27A
 100
AcDbEntity
   8
LEVEL001
 100
AcDbPoint
  62
7
  10
 81.120238367988
  20
 277.58839158378
  30
0.0
   0
LINE
   5
27B
 100
AcDbEntity
   8
LEVEL001
 100
AcDbLine
   6
CONTINUOUS
  62
7
  10
 81.120238367988
  20
 356.58839158378
  30
0.0
  11
 81.120238367988
  21
 282.58839158378
  31
0.0
   0
LINE
   5
27C
 100
AcDbEntity
   8
LEVEL001
 100
AcDbLine
   6
DASHDOT
  62
2
  10
 396.62023836799
  20
 285.36037035404
  30
0.0
  11
 396.62023836799
  21
 297.04178628324
  31
0.0
   0
LINE
   5
27D
 100
AcDbEntity
   8
LEVEL001
 100
AcDbLine
   6
DASHDOT
  62
2
  10
 394.62023836799
  20
 295.58839158378
  30
0.0
  11
 407.62203591576
  21
 295.58839158378
  31
0.0
   0
LINE
   5
27E
 100
AcDbEntity
   8
LEVEL001
 100
AcDbLine
   6
DASHDOT
  62
2
  10
 99.620238367988
  20
 284.44741133528
  30
0.0
  11
 99.620238367988
  21
 296.59555802929
  31
0.0
   0
LINE
   5
27F
 100
AcDbEntity
   8
LEVEL001
 100
AcDbLine
   6
CONTINUOUS
  62
7
  10
 398.62023836799
  20
 289.58839158378
  30
0.0
  11
 248.12023836799
  21
 289.58839158378
  31
0.0
   0
ARC
   5
280
 100
AcDbEntity
   8
LEVEL001
   6
CONTINUOUS
  62
7
 100
AcDbCircle
  10
 398.62023836799
  20
 294.08839158378
  30
0.0
  40
 4.5000000000000
 100
AcDbArc
  50
 270.00000000000
  51
0.0
   0
POINT
   5
281
 100
AcDbEntity
   8
LEVEL001
 100
AcDbPoint
  62
7
  10
 403.12023836799
  20
 289.58839158378
  30
0.0
   0
LINE
   5
282
 100
AcDbEntity
   8
LEVEL001
 100
AcDbLine
   6
CONTINUOUS
  62
7
  10
 248.12023836799
  20
 349.58839158378
  30
0.0
  11
 398.62023836799
  21
 349.58839158378
  31
0.0
   0
ARC
   5
283
 100
AcDbEntity
   8
LEVEL001
   6
CONTINUOUS
  62
7
 100
AcDbCircle
  10
 398.62023836799
  20
 345.08839158378
  30
0.0
  40
 4.5000000000000
 100
AcDbArc
  50
 0.28950115500610E-11
  51
 90.000000000000
   0
POINT
   5
284
 100
AcDbEntity
   8
LEVEL001
 100
AcDbPoint
  62
7
  10
 403.12023836799
  20
 349.58839158378
  30
0.0
   0
LINE
   5
285
 100
AcDbEntity
   8
LEVEL001
 100
AcDbLine
   6
CONTINUOUS
  62
7
  10
 403.12023836799
  20
 345.08839158378
  30
0.0
  11
 403.12023836799
  21
 294.08839158378
  31
0.0
   0
DIMENSION
   5
286
 100
AcDbEntity
   8
LEVEL001
   6
CONTINUOUS
  62
3
 100
AcDbDimension
   2
*D4
  10
 446.21877181040
  20
 361.58839158378
  30
0.0
  11
 446.21877181040
  21
 319.58839158378
  31
0.0
  70
0
   3
GMM003
 100
AcDbAlignedDimension
  13
 415.12023836799
  23
 277.58839158378
  33
0.0
  14
 415.12023836799
  24
 361.58839158378
  34
0.0
  50
 90.000000000000
 100
AcDbRotatedDimension
   0
ARC
   5
287
 100
AcDbEntity
   8
LEVEL001
   6
CONTINUOUS
  62
7
 100
AcDbCircle
  10
 97.620238367988
  20
 294.08839158378
  30
0.0
  40
 4.5000000000000
 100
AcDbArc
  50
 180.00000000000
  51
 270.00000000000
   0
POINT
   5
288
 100
AcDbEntity
   8
LEVEL001
 100
AcDbPoint
  62
7
  10
 93.120238367988
  20
 289.58839158378
  30
0.0
   0
LINE
   5
289
 100
AcDbEntity
   8
LEVEL001
 100
AcDbLine
   6
CONTINUOUS
  62
7
  10
 97.620238367988
  20
 289.58839158378
  30
0.0
  11
 248.12023836799
  21
 289.58839158378
  31
0.0
   0
LINE
   5
28A
 100
AcDbEntity
   8
LEVEL001
 100
AcDbLine
   6
CONTINUOUS
  62
7
  10
 248.12023836799
  20
 349.58839158378
  30
0.0
  11
 97.620238367988
  21
 349.58839158378
  31
0.0
   0
ARC
   5
28B
 100
AcDbEntity
   8
LEVEL001
   6
CONTINUOUS
  62
7
 100
AcDbCircle
  10
 97.620238367988
  20
 345.08839158378
  30
0.0
  40
 4.5000000000000
 100
AcDbArc
  50
 90.000000000000
  51
 180.00000000001
   0
POINT
   5
28C
 100
AcDbEntity
   8
LEVEL001
 100
AcDbPoint
  62
7
  10
 93.120238367988
  20
 349.58839158378
  30
0.0
   0
LINE
   5
28D
 100
AcDbEntity
   8
LEVEL001
 100
AcDbLine
   6
CONTINUOUS
  62
7
  10
 93.120238367988
  20
 345.08839158378
  30
0.0
  11
 93.120238367988
  21
 294.08839158378
  31
0.0
   0
DIMENSION
   5
28E
 100
AcDbEntity
   8
LEVEL001
   6
CONTINUOUS
  62
3
 100
AcDbDimension
   2
*D5
  10
 81.120238367988
  20
 240.37283043386
  30
0.0
  11
 248.12023836799
  21
 240.37283043386
  31
0.0
  70
0
   3
GMM003
 100
AcDbAlignedDimension
  13
 415.12023836799
  23
 277.58839158378
  33
0.0
  14
 81.120238367988
  24
 277.58839158378
  34
0.0
  50
 180.00000000000
 100
AcDbRotatedDimension
   0
LINE
   5
28F
 100
AcDbEntity
   8
LEVEL001
 100
AcDbLine
   6
CONTINUOUS
  62
7
  10
 476.95476498419
  20
 347.42506081789
  30
0.0
  11
 476.95476498419
  21
 288.08839158240
  31
0.0
   0
POLYLINE
   5
290
 100
AcDbEntity
   8
LEVEL001
   6
CONTINUOUS
  62
7
 100
AcDb2dPolyline
  66
1
  10
0.0
  20
0.0
  30
0.0
  70
0
   0
VERTEX
   5
291
 100
AcDbEntity
   8
LEVEL001
   6
CONTINUOUS
  62
7
 100
AcDbVertex
 100
AcDb2dVertex
  10
 470.95476498539
  20
 277.58839158378
  30
0.0
   0
VERTEX
   5
292
 100
AcDbEntity
   8
LEVEL001
   6
CONTINUOUS
  62
7
 100
AcDbVertex
 100
AcDb2dVertex
  10
 470.95476498539
  20
 288.08839158378
  30
0.0
   0
VERTEX
   5
293
 100
AcDbEntity
   8
LEVEL001
   6
CONTINUOUS
  62
7
 100
AcDbVertex
 100
AcDb2dVertex
  10
 476.95476498539
  20
 288.08839158360
  30
0.0
   0
SEQEND
   5
294
 100
AcDbEntity
   8
LEVEL001
   6
CONTINUOUS
  62
7
   0
POLYLINE
   5
295
 100
AcDbEntity
   8
LEVEL001
   6
CONTINUOUS
  62
7
 100
AcDb2dPolyline
  66
1
  10
0.0
  20
0.0
  30
0.0
  70
0
   0
VERTEX
   5
296
 100
AcDbEntity
   8
LEVEL001
   6
CONTINUOUS
  62
7
 100
AcDbVertex
 100
AcDb2dVertex
  10
 470.95476498539
  20
 361.58839158378
  30
0.0
   0
VERTEX
   5
297
 100
AcDbEntity
   8
LEVEL001
   6
CONTINUOUS
  62
7
 100
AcDbVertex
 100
AcDb2dVertex
  10
 470.95476498539
  20
 351.08839158378
  30
0.0
   0
VERTEX
   5
298
 100
AcDbEntity
   8
LEVEL001
   6
CONTINUOUS
  62
7
 100
AcDbVertex
 100
AcDb2dVertex
  10
 476.95476498539
  20
 351.08839158378
  30
0.0
   0
VERTEX
   5
299
 100
AcDbEntity
   8
LEVEL001
   6
CONTINUOUS
  62
7
 100
AcDbVertex
 100
AcDb2dVertex
  10
 476.95476498268
  20
 346.58839158378
  30
0.0
   0
SEQEND
   5
29A
 100
AcDbEntity
   8
LEVEL001
   6
CONTINUOUS
  62
7
   0
LINE
   5
29B
 100
AcDbEntity
   8
LEVEL001
 100
AcDbLine
   6
CONTINUOUS
  62
7
  10
 469.45476498539
  20
 288.58839158378
  30
0.0
  11
 469.45476498539
  21
 350.08839158378
  31
0.0
   0
POLYLINE
   5
29C
 100
AcDbEntity
   8
LEVEL001
   6
DOT
  62
1
 100
AcDb2dPolyline
  66
1
  10
0.0
  20
0.0
  30
0.0
  70
0
   0
VERTEX
   5
29D
 100
AcDbEntity
   8
LEVEL001
   6
DOT
  62
1
 100
AcDbVertex
 100
AcDb2dVertex
  10
 475.75476498419
  20
 346.78839158323
  30
0.0
   0
VERTEX
   5
29E
 100
AcDbEntity
   8
LEVEL001
   6
DOT
  62
1
 100
AcDbVertex
 100
AcDb2dVertex
  10
 470.95476498551
  20
 339.58839158378
  30
0.0
   0
VERTEX
   5
29F
 100
AcDbEntity
   8
LEVEL001
   6
DOT
  62
1
 100
AcDbVertex
 100
AcDb2dVertex
  10
 470.95476498539
  20
 338.58839158378
  30
0.0
   0
VERTEX
   5
2A0
 100
AcDbEntity
   8
LEVEL001
   6
DOT
  62
1
 100
AcDbVertex
 100
AcDb2dVertex
  10
 471.73031882916
  20
 338.58839158378
  30
0.0
   0
VERTEX
   5
2A1
 100
AcDbEntity
   8
LEVEL001
   6
DOT
  62
1
 100
AcDbVertex
 100
AcDb2dVertex
  10
 476.39698549489
  20
 345.58839158378
  30
0.0
   0
VERTEX
   5
2A2
 100
AcDbEntity
   8
LEVEL001
   6
DOT
  62
1
 100
AcDbVertex
 100
AcDb2dVertex
  10
 476.95476498419
  20
 345.58839158378
  30
0.0
   0
VERTEX
   5
2A3
 100
AcDbEntity
   8
LEVEL001
   6
DOT
  62
1
 100
AcDbVertex
 100
AcDb2dVertex
  10
 476.95476498419
  20
 347.58839158378
  30
0.0
   0
SEQEND
   5
2A4
 100
AcDbEntity
   8
LEVEL001
   6
DOT
  62
1
   0
POLYLINE
   5
2A5
 100
AcDbEntity
   8
LEVEL001
   6
DOT
  62
1
 100
AcDb2dPolyline
  66
1
  10
0.0
  20
0.0
  30
0.0
  70
0
   0
VERTEX
   5
2A6
 100
AcDbEntity
   8
LEVEL001
   6
DOT
  62
1
 100
AcDbVertex
 100
AcDb2dVertex
  10
 476.95476498419
  20
 327.58839158378
  30
0.0
   0
VERTEX
   5
2A7
 100
AcDbEntity
   8
LEVEL001
   6
DOT
  62
1
 100
AcDbVertex
 100
AcDb2dVertex
  10
 476.28809831778
  20
 327.58839158378
  30
0.0
   0
VERTEX
   5
2A8
 100
AcDbEntity
   8
LEVEL001
   6
DOT
  62
1
 100
AcDbVertex
 100
AcDb2dVertex
  10
 470.95476498551
  20
 319.58839158378
  30
0.0
   0
VERTEX
   5
2A9
 100
AcDbEntity
   8
LEVEL001
   6
DOT
  62
1
 100
AcDbVertex
 100
AcDb2dVertex
  10
 470.95476498539
  20
 318.58839158378
  30
0.0
   0
VERTEX
   5
2AA
 100
AcDbEntity
   8
LEVEL001
   6
DOT
  62
1
 100
AcDbVertex
 100
AcDb2dVertex
  10
 471.73031882916
  20
 318.58839158378
  30
0.0
   0
VERTEX
   5
2AB
 100
AcDbEntity
   8
LEVEL001
   6
DOT
  62
1
 100
AcDbVertex
 100
AcDb2dVertex
  10
 476.39698549489
  20
 325.58839158378
  30
0.0
   0
VERTEX
   5
2AC
 100
AcDbEntity
   8
LEVEL001
   6
DOT
  62
1
 100
AcDbVertex
 100
AcDb2dVertex
  10
 476.95476498419
  20
 325.58839158378
  30
0.0
   0
VERTEX
   5
2AD
 100
AcDbEntity
   8
LEVEL001
   6
DOT
  62
1
 100
AcDbVertex
 100
AcDb2dVertex
  10
 476.95476498419
  20
 327.58839158378
  30
0.0
   0
SEQEND
   5
2AE
 100
AcDbEntity
   8
LEVEL001
   6
DOT
  62
1
   0
POLYLINE
   5
2AF
 100
AcDbEntity
   8
LEVEL001
   6
DOT
  62
1
 100
AcDb2dPolyline
  66
1
  10
0.0
  20
0.0
  30
0.0
  70
0
   0
VERTEX
   5
2B0
 100
AcDbEntity
   8
LEVEL001
   6
DOT
  62
1
 100
AcDbVertex
 100
AcDb2dVertex
  10
 476.95476498419
  20
 337.58839158378
  30
0.0
   0
VERTEX
   5
2B1
 100
AcDbEntity
   8
LEVEL001
   6
DOT
  62
1
 100
AcDbVertex
 100
AcDb2dVertex
  10
 476.28809831778
  20
 337.58839158378
  30
0.0
   0
VERTEX
   5
2B2
 100
AcDbEntity
   8
LEVEL001
   6
DOT
  62
1
 100
AcDbVertex
 100
AcDb2dVertex
  10
 470.95476498551
  20
 329.58839158378
  30
0.0
   0
VERTEX
   5
2B3
 100
AcDbEntity
   8
LEVEL001
   6
DOT
  62
1
 100
AcDbVertex
 100
AcDb2dVertex
  10
 470.95476498539
  20
 328.58839158378
  30
0.0
   0
VERTEX
   5
2B4
 100
AcDbEntity
   8
LEVEL001
   6
DOT
  62
1
 100
AcDbVertex
 100
AcDb2dVertex
  10
 471.73031882916
  20
 328.58839158378
  30
0.0
   0
VERTEX
   5
2B5
 100
AcDbEntity
   8
LEVEL001
   6
DOT
  62
1
 100
AcDbVertex
 100
AcDb2dVertex
  10
 476.39698549489
  20
 335.58839158378
  30
0.0
   0
VERTEX
   5
2B6
 100
AcDbEntity
   8
LEVEL001
   6
DOT
  62
1
 100
AcDbVertex
 100
AcDb2dVertex
  10
 476.95476498419
  20
 335.58839158378
  30
0.0
   0
VERTEX
   5
2B7
 100
AcDbEntity
   8
LEVEL001
   6
DOT
  62
1
 100
AcDbVertex
 100
AcDb2dVertex
  10
 476.95476498419
  20
 337.58839158378
  30
0.0
   0
SEQEND
   5
2B8
 100
AcDbEntity
   8
LEVEL001
   6
DOT
  62
1
   0
POLYLINE
   5
2B9
 100
AcDbEntity
   8
LEVEL001
   6
DOT
  62
1
 100
AcDb2dPolyline
  66
1
  10
0.0
  20
0.0
  30
0.0
  70
0
   0
VERTEX
   5
2BA
 100
AcDbEntity
   8
LEVEL001
   6
DOT
  62
1
 100
AcDbVertex
 100
AcDb2dVertex
  10
 476.95476498419
  20
 317.58839158378
  30
0.0
   0
VERTEX
   5
2BB
 100
AcDbEntity
   8
LEVEL001
   6
DOT
  62
1
 100
AcDbVertex
 100
AcDb2dVertex
  10
 476.28809831778
  20
 317.58839158378
  30
0.0
   0
VERTEX
   5
2BC
 100
AcDbEntity
   8
LEVEL001
   6
DOT
  62
1
 100
AcDbVertex
 100
AcDb2dVertex
  10
 470.95476498551
  20
 309.58839158378
  30
0.0
   0
VERTEX
   5
2BD
 100
AcDbEntity
   8
LEVEL001
   6
DOT
  62
1
 100
AcDbVertex
 100
AcDb2dVertex
  10
 470.95476498539
  20
 308.58839158378
  30
0.0
   0
VERTEX
   5
2BE
 100
AcDbEntity
   8
LEVEL001
   6
DOT
  62
1
 100
AcDbVertex
 100
AcDb2dVertex
  10
 471.73031882916
  20
 308.58839158378
  30
0.0
   0
VERTEX
   5
2BF
 100
AcDbEntity
   8
LEVEL001
   6
DOT
  62
1
 100
AcDbVertex
 100
AcDb2dVertex
  10
 476.39698549489
  20
 315.58839158378
  30
0.0
   0
VERTEX
   5
2C0
 100
AcDbEntity
   8
LEVEL001
   6
DOT
  62
1
 100
AcDbVertex
 100
AcDb2dVertex
  10
 476.95476498419
  20
 315.58839158378
  30
0.0
   0
VERTEX
   5
2C1
 100
AcDbEntity
   8
LEVEL001
   6
DOT
  62
1
 100
AcDbVertex
 100
AcDb2dVertex
  10
 476.95476498419
  20
 317.58839158378
  30
0.0
   0
SEQEND
   5
2C2
 100
AcDbEntity
   8
LEVEL001
   6
DOT
  62
1
   0
LINE
   5
2C3
 100
AcDbEntity
   8
LEVEL001
 100
AcDbLine
   6
DOT
  62
1
  10
 471.73031882916
  20
 338.58839158378
  30
0.0
  11
 476.28809831778
  21
 337.58839158378
  31
0.0
   0
LINE
   5
2C4
 100
AcDbEntity
   8
LEVEL001
 100
AcDbLine
   6
DOT
  62
1
  10
 471.73031882916
  20
 328.58839158378
  30
0.0
  11
 476.28809831778
  21
 327.58839158378
  31
0.0
   0
LINE
   5
2C5
 100
AcDbEntity
   8
LEVEL001
 100
AcDbLine
   6
DOT
  62
1
  10
 471.73031882916
  20
 318.58839158378
  30
0.0
  11
 476.28809831778
  21
 317.58839158378
  31
0.0
   0
POLYLINE
   5
2C6
 100
AcDbEntity
   8
LEVEL001
   6
DOT
  62
1
 100
AcDb2dPolyline
  66
1
  10
0.0
  20
0.0
  30
0.0
  70
0
   0
VERTEX
   5
2C7
 100
AcDbEntity
   8
LEVEL001
   6
DOT
  62
1
 100
AcDbVertex
 100
AcDb2dVertex
  10
 476.95476498419
  20
 307.58839158378
  30
0.0
   0
VERTEX
   5
2C8
 100
AcDbEntity
   8
LEVEL001
   6
DOT
  62
1
 100
AcDbVertex
 100
AcDb2dVertex
  10
 476.28809831778
  20
 307.58839158378
  30
0.0
   0
VERTEX
   5
2C9
 100
AcDbEntity
   8
LEVEL001
   6
DOT
  62
1
 100
AcDbVertex
 100
AcDb2dVertex
  10
 470.95476498551
  20
 299.58839158378
  30
0.0
   0
VERTEX
   5
2CA
 100
AcDbEntity
   8
LEVEL001
   6
DOT
  62
1
 100
AcDbVertex
 100
AcDb2dVertex
  10
 470.95476498539
  20
 298.58839158378
  30
0.0
   0
VERTEX
   5
2CB
 100
AcDbEntity
   8
LEVEL001
   6
DOT
  62
1
 100
AcDbVertex
 100
AcDb2dVertex
  10
 471.73031882916
  20
 298.58839158378
  30
0.0
   0
VERTEX
   5
2CC
 100
AcDbEntity
   8
LEVEL001
   6
DOT
  62
1
 100
AcDbVertex
 100
AcDb2dVertex
  10
 476.39698549489
  20
 305.58839158378
  30
0.0
   0
VERTEX
   5
2CD
 100
AcDbEntity
   8
LEVEL001
   6
DOT
  62
1
 100
AcDbVertex
 100
AcDb2dVertex
  10
 476.95476498419
  20
 305.58839158378
  30
0.0
   0
VERTEX
   5
2CE
 100
AcDbEntity
   8
LEVEL001
   6
DOT
  62
1
 100
AcDbVertex
 100
AcDb2dVertex
  10
 476.95476498419
  20
 307.58839158378
  30
0.0
   0
SEQEND
   5
2CF
 100
AcDbEntity
   8
LEVEL001
   6
DOT
  62
1
   0
LINE
   5
2D0
 100
AcDbEntity
   8
LEVEL001
 100
AcDbLine
   6
DOT
  62
1
  10
 471.73031882916
  20
 308.58839158378
  30
0.0
  11
 476.28809831778
  21
 307.58839158378
  31
0.0
   0
LINE
   5
2D1
 100
AcDbEntity
   8
LEVEL001
 100
AcDbLine
   6
DOT
  62
1
  10
 471.73031882916
  20
 298.58839158378
  30
0.0
  11
 476.28809831778
  21
 297.58839158378
  31
0.0
   0
POLYLINE
   5
2D2
 100
AcDbEntity
   8
LEVEL001
   6
DOT
  62
1
 100
AcDb2dPolyline
  66
1
  10
0.0
  20
0.0
  30
0.0
  70
0
   0
VERTEX
   5
2D3
 100
AcDbEntity
   8
LEVEL001
   6
DOT
  62
1
 100
AcDbVertex
 100
AcDb2dVertex
  10
 472.39698549569
  20
 289.58839158378
  30
0.0
   0
VERTEX
   5
2D4
 100
AcDbEntity
   8
LEVEL001
   6
DOT
  62
1
 100
AcDbVertex
 100
AcDb2dVertex
  10
 476.39698549489
  20
 295.58839158378
  30
0.0
   0
VERTEX
   5
2D5
 100
AcDbEntity
   8
LEVEL001
   6
DOT
  62
1
 100
AcDbVertex
 100
AcDb2dVertex
  10
 476.95476498419
  20
 295.58839158378
  30
0.0
   0
VERTEX
   5
2D6
 100
AcDbEntity
   8
LEVEL001
   6
DOT
  62
1
 100
AcDbVertex
 100
AcDb2dVertex
  10
 476.95476498419
  20
 297.58839158378
  30
0.0
   0
VERTEX
   5
2D7
 100
AcDbEntity
   8
LEVEL001
   6
DOT
  62
1
 100
AcDbVertex
 100
AcDb2dVertex
  10
 476.28809831778
  20
 297.58839158378
  30
0.0
   0
VERTEX
   5
2D8
 100
AcDbEntity
   8
LEVEL001
   6
DOT
  62
1
 100
AcDbVertex
 100
AcDb2dVertex
  10
 470.95476498551
  20
 289.58839158378
  30
0.0
   0
VERTEX
   5
2D9
 100
AcDbEntity
   8
LEVEL001
   6
DOT
  62
1
 100
AcDbVertex
 100
AcDb2dVertex
  10
 470.95476498527
  20
 287.58839158378
  30
0.0
   0
SEQEND
   5
2DA
 100
AcDbEntity
   8
LEVEL001
   6
DOT
  62
1
   0
LINE
   5
2DB
 100
AcDbEntity
   8
LEVEL001
 100
AcDbLine
   6
DOT
  62
1
  10
 476.95476498539
  20
 289.58839158378
  30
0.0
  11
 472.39698549569
  21
 289.58839158378
  31
0.0
   0
LINE
   5
2DC
 100
AcDbEntity
   8
LEVEL001
 100
AcDbLine
   6
DOT
  62
1
  10
 475.75476498419
  20
 349.58839158378
  30
0.0
  11
 475.75476498419
  21
 346.78839158323
  31
0.0
   0
LINE
   5
2DD
 100
AcDbEntity
   8
LEVEL001
 100
AcDbLine
   6
DOT
  62
1
  10
 475.75476498419
  20
 349.58839158378
  30
0.0
  11
 470.45476498539
  21
 349.58839158378
  31
0.0
   0
ARC
   5
2DE
 100
AcDbEntity
   8
LEVEL001
   6
DOT
  62
1
 100
AcDbCircle
  10
 470.45476498538
  20
 288.58839158378
  30
0.0
  40
 1.0000000000000
 100
AcDbArc
  50
 89.999999999492
  51
 180.00000000000
   0
LINE
   5
2DF
 100
AcDbEntity
   8
LEVEL001
 100
AcDbLine
   6
DOT
  62
1
  10
 470.45476498539
  20
 289.58839158378
  30
0.0
  11
 470.95476498545
  21
 289.58839158378
  31
0.0
   0
ARC
   5
2E0
 100
AcDbEntity
   8
LEVEL001
   6
DOT
  62
1
 100
AcDbCircle
  10
 470.45476498538
  20
 350.58839158378
  30
0.0
  40
 1.0000000000000
 100
AcDbArc
  50
 180.00000000000
  51
 270.00000000050
   0
LINE
   5
2E1
 100
AcDbEntity
   8
LEVEL001
 100
AcDbLine
   6
CONTINUOUS
  62
7
  10
 470.95476498539
  20
 288.08839158378
  30
0.0
  11
 470.95476498539
  21
 351.58839158378
  31
0.0
   0
DIMENSION
   5
2E2
 100
AcDbEntity
   8
LEVEL001
   6
CONTINUOUS
  62
3
 100
AcDbDimension
   2
*D6
  10
 496.81420925550
  20
 351.08839158378
  30
0.0
  11
 496.81420925550
  21
 319.58839158369
  31
0.0
  70
0
   3
GMM003
 100
AcDbAlignedDimension
  13
 476.95476498539
  23
 288.08839158360
  33
0.0
  14
 476.95476498539
  24
 351.08839158378
  34
0.0
  50
 90.000000000000
 100
AcDbRotatedDimension
   0
LINE
   5
2E3
 100
AcDbEntity
   8
LEVEL001
 100
AcDbLine
   6
CONTINUOUS
  62
15
  10
 470.95476498539
  20
 351.88839158378
  30
0.0
  11
 476.15476498557
  21
 351.88839158378
  31
0.0
   0
LINE
   5
2E4
 100
AcDbEntity
   8
LEVEL001
 100
AcDbLine
   6
CONTINUOUS
  62
15
  10
 476.15476498557
  20
 351.88839158378
  30
0.0
  11
 476.95476498419
  21
 351.08839158516
  31
0.0
   0
POINT
   5
2E5
 100
AcDbEntity
   8
LEVEL001
 100
AcDbPoint
  62
15
  10
 476.95476498419
  20
 351.88839158264
  30
0.0
   0
LINE
   5
2E6
 100
AcDbEntity
   8
LEVEL001
 100
AcDbLine
   6
CONTINUOUS
  62
15
  10
 470.95476498539
  20
 287.28839158378
  30
0.0
  11
 476.15476498557
  21
 287.28839158378
  31
0.0
   0
LINE
   5
2E7
 100
AcDbEntity
   8
LEVEL001
 100
AcDbLine
   6
CONTINUOUS
  62
15
  10
 476.15476498557
  20
 287.28839158378
  30
0.0
  11
 476.95476498419
  21
 288.08839158240
  31
0.0
   0
POINT
   5
2E8
 100
AcDbEntity
   8
LEVEL001
 100
AcDbPoint
  62
15
  10
 476.95476498539
  20
 287.28839158378
  30
0.0
   0
DIMENSION
   5
2E9
 100
AcDbEntity
   8
LEVEL001
   6
CONTINUOUS
  62
3
 100
AcDbDimension
   2
*D7
  10
 476.95476498539
  20
 254.77737577246
  30
0.0
  11
 473.95476498539
  21
 254.77737577246
  31
0.0
  70
0
   3
GMM004
 100
AcDbAlignedDimension
  13
 470.95476498539
  23
 262.88104770957
  33
0.0
  14
 476.95476498539
  24
 287.28839158378
  34
0.0
 100
AcDbRotatedDimension
   0
DIMENSION
   5
2EA
 100
AcDbEntity
   8
LEVEL001
   6
CONTINUOUS
  62
3
 100
AcDbDimension
   2
*D8
  10
 476.95476498539
  20
 240.37283043386
  30
0.0
  11
 458.09680038362
  21
 240.37283043386
  31
0.0
  70
128
   3
GMM005
 100
AcDbAlignedDimension
  13
 469.45476498539
  23
 251.77737577246
  33
0.0
  14
 476.95476498539
  24
 251.77737577246
  34
0.0
 100
AcDbRotatedDimension
   0
ARC
   5
2EB
 100
AcDbEntity
   8
LEVEL001
   6
CONTINUOUS
  62
7
 100
AcDbCircle
  10
 470.95476498539
  20
 360.08839158377
  30
0.0
  40
 1.5000000000000
 100
AcDbArc
  50
 90.000000000000
  51
 179.99999999975
   0
POINT
   5
2EC
 100
AcDbEntity
   8
LEVEL001
 100
AcDbPoint
  62
7
  10
 469.45476498539
  20
 361.58839158378
  30
0.0
   0
LINE
   5
2ED
 100
AcDbEntity
   8
LEVEL001
 100
AcDbLine
   6
CONTINUOUS
  62
7
  10
 469.45476498539
  20
 350.08839158378
  30
0.0
  11
 469.45476498539
  21
 360.08839158378
  31
0.0
   0
LINE
   5
2EE
 100
AcDbEntity
   8
LEVEL001
 100
AcDbLine
   6
CONTINUOUS
  62
7
  10
 469.45476498539
  20
 288.58839158378
  30
0.0
  11
 469.45476498539
  21
 279.08839158378
  31
0.0
   0
ARC
   5
2EF
 100
AcDbEntity
   8
LEVEL001
   6
CONTINUOUS
  62
7
 100
AcDbCircle
  10
 470.95476498538
  20
 279.08839158378
  30
0.0
  40
 1.5000000000000
 100
AcDbArc
  50
 180.00000000000
  51
 270.00000000033
   0
POINT
   5
2F0
 100
AcDbEntity
   8
LEVEL001
 100
AcDbPoint
  62
7
  10
 469.45476498539
  20
 277.58839158378
  30
0.0
   0
DIMENSION
   5
2F1
 100
AcDbEntity
   8
LEVEL001
   6
CONTINUOUS
  62
3
 100
AcDbDimension
   2
*D9
  10
 470.95476498539
  20
 254.77737577246
  30
0.0
  11
 458.36759684380
  21
 254.77737577246
  31
0.0
  70
128
   3
GMM006
 100
AcDbAlignedDimension
  13
 469.45476498539
  23
 277.58839158378
  33
0.0
  14
 470.95476498539
  24
 277.58839158378
  34
0.0
 100
AcDbRotatedDimension
   0
DIMENSION
   5
2F2
 100
AcDbEntity
   8
LEVEL001
   6
CONTINUOUS
  62
3
 100
AcDbDimension
   2
*D10
  10
 496.81420925550
  20
 288.08839158360
  30
0.0
  11
 496.81420925550
  21
 265.80948302912
  31
0.0
  70
128
   3
GMM007
 100
AcDbAlignedDimension
  13
 470.95476498539
  23
 277.58839158378
  33
0.0
  14
 496.81420925550
  24
 288.08839158360
  34
0.0
  50
 90.000000000000
 100
AcDbRotatedDimension
   0
DIMENSION
   5
2F3
 100
AcDbEntity
   8
LEVEL001
   6
CONTINUOUS
  62
3
 100
AcDbDimension
   2
*D11
  10
 496.81420925550
  20
 351.08839158378
  30
0.0
  11
 496.81420925550
  21
 373.15963052184
  31
0.0
  70
128
   3
GMM007
 100
AcDbAlignedDimension
  13
 470.95476498539
  23
 361.58839158378
  33
0.0
  14
 496.81420925550
  24
 351.08839158378
  34
0.0
  50
 270.00000000000
 100
AcDbRotatedDimension
   0
LINE
   5
2F4
 100
AcDbEntity
   8
LEVEL001
 100
AcDbLine
   6
CONTINUOUS
  62
7
  10
 81.120238367988
  20
 218.83413629083
  30
0.0
  11
 415.12023836799
  21
 218.83413629083
  31
0.0
   0
LINE
   5
2F5
 100
AcDbEntity
   8
LEVEL001
 100
AcDbLine
   6
CONTINUOUS
  62
7
  10
 91.620238367988
  20
 212.83413629083
  30
0.0
  11
 404.62023836799
  21
 212.83413629083
  31
0.0
   0
LINE
   5
2F6
 100
AcDbEntity
   8
LEVEL001
 100
AcDbLine
   6
CONTINUOUS
  62
7
  10
 91.620238367988
  20
 218.83413629083
  30
0.0
  11
 91.620238367988
  21
 212.83413629083
  31
0.0
   0
LINE
   5
2F7
 100
AcDbEntity
   8
LEVEL001
 100
AcDbLine
   6
CONTINUOUS
  62
7
  10
 404.62023836799
  20
 218.83413629083
  30
0.0
  11
 404.62023836799
  21
 212.83413629083
  31
0.0
   0
LINE
   5
2F8
 100
AcDbEntity
   8
LEVEL001
 100
AcDbLine
   6
CONTINUOUS
  62
15
  10
 405.42023836661
  20
 218.83413629083
  30
0.0
  11
 405.42023836661
  21
 213.63413629065
  31
0.0
   0
POINT
   5
2F9
 100
AcDbEntity
   8
LEVEL001
 100
AcDbPoint
  62
15
  10
 405.42023836661
  20
 212.83413629083
  30
0.0
   0
LINE
   5
2FA
 100
AcDbEntity
   8
LEVEL001
 100
AcDbLine
   6
CONTINUOUS
  62
15
  10
 405.42023836661
  20
 213.63413629065
  30
0.0
  11
 404.62023836799
  21
 212.83413629203
  31
0.0
   0
ARC
   5
2FB
 100
AcDbEntity
   8
LEVEL001
   6
CONTINUOUS
  62
7
 100
AcDbCircle
  10
 413.62023836799
  20
 218.83413629083
  30
0.0
  40
 1.5000000000000
 100
AcDbArc
  50
 0.13461803707784E-9
  51
 90.000000000000
   0
POINT
   5
2FC
 100
AcDbEntity
   8
LEVEL001
 100
AcDbPoint
  62
7
  10
 415.12023836799
  20
 220.33413629083
  30
0.0
   0
LINE
   5
2FD
 100
AcDbEntity
   8
LEVEL001
 100
AcDbLine
   6
CONTINUOUS
  62
7
  10
 82.620238367988
  20
 220.33413629083
  30
0.0
  11
 413.62023836799
  21
 220.33413629083
  31
0.0
   0
ARC
   5
2FE
 100
AcDbEntity
   8
LEVEL001
   6
CONTINUOUS
  62
7
 100
AcDbCircle
  10
 82.620238367988
  20
 218.83413629083
  30
0.0
  40
 1.5000000000000
 100
AcDbArc
  50
 90.000000000000
  51
 180.00000000002
   0
POINT
   5
2FF
 100
AcDbEntity
   8
LEVEL001
 100
AcDbPoint
  62
7
  10
 81.120238367988
  20
 220.33413629083
  30
0.0
   0
LINE
   5
300
 100
AcDbEntity
   8
LEVEL001
 100
AcDbLine
   6
DASHDOT
  62
2
  10
 248.12023836799
  20
 229.51332388050
  30
0.0
  11
 248.12023836799
  21
 205.89292038293
  31
0.0
   0
LINE
   5
301
 100
AcDbEntity
   8
LEVEL001
 100
AcDbLine
   6
DASHDOT
  62
2
  10
 298.12023836799
  20
 222.40262049863
  30
0.0
  11
 298.12023836799
  21
 208.98846120659
  31
0.0
   0
LINE
   5
302
 100
AcDbEntity
   8
LEVEL001
 100
AcDbLine
   6
CONTINUOUS
  62
15
  10
 297.32023836823
  20
 218.83413629083
  30
0.0
  11
 297.32023836823
  21
 212.83413629083
  31
0.0
   0
LINE
   5
303
 100
AcDbEntity
   8
LEVEL001
 100
AcDbLine
   6
CONTINUOUS
  62
15
  10
 298.92023836774
  20
 218.83413629083
  30
0.0
  11
 298.92023836774
  21
 212.83413629083
  31
0.0
   0
LINE
   5
304
 100
AcDbEntity
   8
LEVEL001
 100
AcDbLine
   6
DASHDOT
  62
2
  10
 396.62023836799
  20
 222.40262049863
  30
0.0
  11
 396.62023836799
  21
 208.98846120659
  31
0.0
   0
LINE
   5
305
 100
AcDbEntity
   8
LEVEL001
 100
AcDbLine
   6
CONTINUOUS
  62
15
  10
 395.82023836823
  20
 218.83413629083
  30
0.0
  11
 395.82023836823
  21
 212.83413629083
  31
0.0
   0
LINE
   5
306
 100
AcDbEntity
   8
LEVEL001
 100
AcDbLine
   6
CONTINUOUS
  62
15
  10
 397.42023836774
  20
 218.83413629083
  30
0.0
  11
 397.42023836774
  21
 212.83413629083
  31
0.0
   0
LINE
   5
307
 100
AcDbEntity
   8
LEVEL001
 100
AcDbLine
   6
DASHDOT
  62
2
  10
 198.12023836799
  20
 222.40262049863
  30
0.0
  11
 198.12023836799
  21
 208.98846120659
  31
0.0
   0
LINE
   5
308
 100
AcDbEntity
   8
LEVEL001
 100
AcDbLine
   6
CONTINUOUS
  62
15
  10
 198.92023836775
  20
 218.83413629083
  30
0.0
  11
 198.92023836775
  21
 212.83413629083
  31
0.0
   0
LINE
   5
309
 100
AcDbEntity
   8
LEVEL001
 100
AcDbLine
   6
CONTINUOUS
  62
15
  10
 197.32023836824
  20
 218.83413629083
  30
0.0
  11
 197.32023836824
  21
 212.83413629083
  31
0.0
   0
LINE
   5
30A
 100
AcDbEntity
   8
LEVEL001
 100
AcDbLine
   6
DASHDOT
  62
2
  10
 99.620238367988
  20
 222.40262049863
  30
0.0
  11
 99.620238367988
  21
 208.98846120659
  31
0.0
   0
LINE
   5
30B
 100
AcDbEntity
   8
LEVEL001
 100
AcDbLine
   6
CONTINUOUS
  62
15
  10
 100.42023836775
  20
 218.83413629083
  30
0.0
  11
 100.42023836775
  21
 212.83413629083
  31
0.0
   0
LINE
   5
30C
 100
AcDbEntity
   8
LEVEL001
 100
AcDbLine
   6
CONTINUOUS
  62
15
  10
 98.820238368238
  20
 218.83413629083
  30
0.0
  11
 98.820238368238
  21
 212.83413629083
  31
0.0
   0
DIMENSION
   5
30D
 100
AcDbEntity
   8
LEVEL001
   6
CONTINUOUS
  62
3
 100
AcDbDimension
   2
*D12
  10
 91.620238367988
  20
 189.44644300715
  30
0.0
  11
 248.12023836799
  21
 189.44644300715
  31
0.0
  70
0
   3
GMM003
 100
AcDbAlignedDimension
  13
 404.62023836799
  23
 212.83413629203
  33
0.0
  14
 91.620238367988
  24
 212.83413629083
  34
0.0
  50
 180.00000000000
 100
AcDbRotatedDimension
   0
LINE
   5
30E
 100
AcDbEntity
   8
LEVEL001
 100
AcDbLine
   6
CONTINUOUS
  62
15
  10
 90.820238369369
  20
 218.83413629083
  30
0.0
  11
 90.820238369369
  21
 213.63413629065
  31
0.0
   0
POINT
   5
30F
 100
AcDbEntity
   8
LEVEL001
 100
AcDbPoint
  62
15
  10
 90.820238369369
  20
 212.83413629083
  30
0.0
   0
LINE
   5
310
 100
AcDbEntity
   8
LEVEL001
 100
AcDbLine
   6
CONTINUOUS
  62
15
  10
 90.820238369369
  20
 213.63413629065
  30
0.0
  11
 91.620238367988
  21
 212.83413629203
  31
0.0
   0
DIMENSION
   5
311
 100
AcDbEntity
   8
LEVEL001
   6
CONTINUOUS
  62
3
 100
AcDbDimension
   2
*D13
  10
 91.620238367988
  20
 189.44644300715
  30
0.0
  11
 68.147229518427
  21
 189.44644300715
  31
0.0
  70
128
   3
GMM005
 100
AcDbAlignedDimension
  13
 81.120238367988
  23
 218.83413629083
  33
0.0
  14
 91.620238367988
  24
 189.44644300715
  34
0.0
 100
AcDbRotatedDimension
   0
DIMENSION
   5
312
 100
AcDbEntity
   8
LEVEL001
   6
CONTINUOUS
  62
3
 100
AcDbDimension
   2
*D14
  10
 415.12023836799
  20
 189.44644300715
  30
0.0
  11
 428.44368969542
  21
 189.44644300715
  31
0.0
  70
128
   3
GMM005
 100
AcDbAlignedDimension
  13
 404.62023836799
  23
 189.44644300715
  33
0.0
  14
 415.12023836799
  24
 218.83413629083
  34
0.0
 100
AcDbRotatedDimension
   0
DIMENSION
   5
313
 100
AcDbEntity
   8
LEVEL001
   6
CONTINUOUS
  62
3
 100
AcDbDimension
   2
*D15
  10
 432.33183046111
  20
 289.58839158378
  30
0.0
  11
 432.33183046111
  21
 319.58839158378
  31
0.0
  70
0
   3
GMM003
 100
AcDbAlignedDimension
  13
 403.12023836799
  23
 349.58839158378
  33
0.0
  14
 403.12023836799
  24
 289.58839158378
  34
0.0
  50
 270.00000000000
 100
AcDbRotatedDimension
   0
DIMENSION
   5
314
 100
AcDbEntity
   8
LEVEL001
   6
CONTINUOUS
  62
3
 100
AcDbDimension
   2
*D16
  10
 403.12023836799
  20
 253.81771631383
  30
0.0
  11
 248.12023836799
  21
 253.81771631383
  31
0.0
  70
0
   3
GMM003
 100
AcDbAlignedDimension
  13
 93.120238367988
  23
 289.58839158378
  33
0.0
  14
 403.12023836799
  24
 289.58839158378
  34
0.0
 100
AcDbRotatedDimension
   0
ENDSEC
  0
SECTION
  2
OBJECTS
  0
DICTIONARY
  5
C
100
AcDbDictionary
  3
ACAD_GROUP
350
D
  3
ACAD_MLINESTYLE
350
1B
  0
DICTIONARY
  5
D
102
{ACAD_REACTORS
330
C
102
}
100
AcDbDictionary
  0
DICTIONARY
  5
1B
102
{ACAD_REACTORS
330
C
102
}
100
AcDbDictionary
  3
STANDARD
350
1C
  0
MLINESTYLE
  5
1C
102
{ACAD_REACTORS
330
1B
102
}
100
AcDbMlineStyle
  2
STANDARD
 70
     0
  3

 62
   256
 51
90.0
 52
90.0
 71
     2
 49
0.5
 62
   256
  6
BYLAYER
 49
-0.5
 62
   256
  6
BYLAYER
  0
ENDSEC
   0
EOF
