   0
SECTION
   2
HEADER
   9
$ACADVER
   1
AC1015
   9
$LIMMIN
  10
0.0
  20
0.0
   9
$LIMMAX
  10
 420.00000000000
  20
 297.00000000000
   9
$EXTMIN
  10
0.0
  20
0.0
  30
0.0
   9
$EXTMAX
  10
 420.00000000000
  20
 297.00000000000
  30
0.0
   9
$LTSCALE
  40
 8.4000000000000
   9
$HANDSEED
   5
50B
   0
ENDSEC
   0
SECTION
   2
TABLES
  0
TABLE
  2
VPORT
  5
8
100
AcDbSymbolTable
 70
     1
  0
VPORT
  5
50A
100
AcDbSymbolTableRecord
100
AcDbViewportTableRecord
  2
*ACTIVE
 70
     0
 10
0.0
 20
0.0
 11
1.0
 21
1.0
  12
 210.00000000000
  22
 148.50000000000
 13
0.0
 23
0.0
 14
1.0
 24
1.0
 15
0.0
 25
0.0
 16
0.0
 26
0.0
 36
1.0
 17
0.0
 27
0.0
 37
0.0
  40
 420.00000000000
  41
 1.4787878787879
 42
50.0
 43
0.0
 44
0.0
 50
0.0
 51
0.0
 71
     0
 72
   100
 73
     1
 74
     1
 75
     0
 76
     0
 77
     0
 78
     0
  0
ENDTAB
  0
TABLE
  2
LTYPE
  5
5
100
AcDbSymbolTable
 70
    25
  0
LTYPE
  5
12
100
AcDbSymbolTableRecord
100
AcDbLinetypeTableRecord
  2
BYBLOCK
 70
     0
  3

 72
    65
 73
     0
 40
0.0
  0
LTYPE
  5
13
100
AcDbSymbolTableRecord
100
AcDbLinetypeTableRecord
  2
BYLAYER
 70
     0
  3

 72
    65
 73
     0
 40
0.0
  0
LTYPE
  5
14
100
AcDbSymbolTableRecord
100
AcDbLinetypeTableRecord
  2
CONTINUOUS
 70
     0
  3
Solid line
 72
    65
 73
     0
 40
0.0
  0
LTYPE
  5
20
100
AcDbSymbolTableRecord
100
AcDbLinetypeTableRecord
  2
BORDER
 70
     0
  3
__ __ . __ __ . __ __ . __ __ . __ __ . __ __ .
 72
    65
 73
     6
 40
1.75
 49
0.5
 74
     0
 49
-0.25
 74
     0
 49
0.5
 74
     0
 49
-0.25
 74
     0
 49
0.0
 74
     0
 49
-0.25
 74
     0
  0
LTYPE
  5
21
100
AcDbSymbolTableRecord
100
AcDbLinetypeTableRecord
  2
BORDER2
 70
     0
  3
__.__.__.__.__.__.__.__.__.__.__.__.__.__.__.__
 72
    65
 73
     6
 40
0.875
 49
0.25
 74
     0
 49
-0.125
 74
     0
 49
0.25
 74
     0
 49
-0.125
 74
     0
 49
0.0
 74
     0
 49
-0.125
 74
     0
  0
LTYPE
  5
22
100
AcDbSymbolTableRecord
100
AcDbLinetypeTableRecord
  2
BORDERX2
 70
     0
  3
____  ____  .  ____  ____  .  ____  ____  .  __
 72
    65
 73
     6
 40
3.5
 49
1.0
 74
     0
 49
-0.5
 74
     0
 49
1.0
 74
     0
 49
-0.5
 74
     0
 49
0.0
 74
     0
 49
-0.5
 74
     0
  0
LTYPE
  5
23
100
AcDbSymbolTableRecord
100
AcDbLinetypeTableRecord
  2
CENTER
 70
     0
  3
____ _ ____ _ ____ _ ____ _ ____ _ ____ _ ____ 
 72
    65
 73
     4
 40
2.0
 49
1.25
 74
     0
 49
-0.25
 74
     0
 49
0.25
 74
     0
 49
-0.25
 74
     0
  0
LTYPE
  5
24
100
AcDbSymbolTableRecord
100
AcDbLinetypeTableRecord
  2
CENTER2
 70
     0
  3
___ _ ___ _ ___ _ ___ _ ___ _ ___ _ ___ _ ___ _
 72
    65
 73
     4
 40
1.125
 49
0.75
 74
     0
 49
-0.125
 74
     0
 49
0.125
 74
     0
 49
-0.125
 74
     0
  0
LTYPE
  5
25
100
AcDbSymbolTableRecord
100
AcDbLinetypeTableRecord
  2
CENTERX2
 70
     0
  3
________  __  ________  __  ________  __  _____
 72
    65
 73
     4
 40
4.0
 49
2.5
 74
     0
 49
-0.5
 74
     0
 49
0.5
 74
     0
 49
-0.5
 74
     0
  0
LTYPE
  5
26
100
AcDbSymbolTableRecord
100
AcDbLinetypeTableRecord
  2
DASHDOT
 70
     0
  3
__ . __ . __ . __ . __ . __ . __ . __ . __ . __
 72
    65
 73
     4
 40
1.0
 49
0.5
 74
     0
 49
-0.25
 74
     0
 49
0.0
 74
     0
 49
-0.25
 74
     0
  0
LTYPE
  5
27
100
AcDbSymbolTableRecord
100
AcDbLinetypeTableRecord
  2
DASHDOT2
 70
     0
  3
_._._._._._._._._._._._._._._._._._._._._._._._
 72
    65
 73
     4
 40
0.5
 49
0.25
 74
     0
 49
-0.125
 74
     0
 49
0.0
 74
     0
 49
-0.125
 74
     0
  0
LTYPE
  5
28
100
AcDbSymbolTableRecord
100
AcDbLinetypeTableRecord
  2
DASHDOTX2
 70
     0
  3
____  .  ____  .  ____  .  ____  .  ____  .  __
 72
    65
 73
     4
 40
2.0
 49
1.0
 74
     0
 49
-0.5
 74
     0
 49
0.0
 74
     0
 49
-0.5
 74
     0
  0
LTYPE
  5
29
100
AcDbSymbolTableRecord
100
AcDbLinetypeTableRecord
  2
DASHED
 70
     0
  3
__ __ __ __ __ __ __ __ __ __ __ __ __ __ __ __
 72
    65
 73
     2
 40
0.75
 49
0.5
 74
     0
 49
-0.25
 74
     0
  0
LTYPE
  5
2A
100
AcDbSymbolTableRecord
100
AcDbLinetypeTableRecord
  2
DASHED2
 70
     0
  3
_ _ _ _ _ _ _ _ _ _ _ _ _ _ _ _ _ _ _ _ _ _ _ _
 72
    65
 73
     2
 40
0.375
 49
0.25
 74
     0
 49
-0.125
 74
     0
  0
LTYPE
  5
2B
100
AcDbSymbolTableRecord
100
AcDbLinetypeTableRecord
  2
DASHEDX2
 70
     0
  3
____  ____  ____  ____  ____  ____  ____  ____ 
 72
    65
 73
     2
 40
1.5
 49
1.0
 74
     0
 49
-0.5
 74
     0
  0
LTYPE
  5
2C
100
AcDbSymbolTableRecord
100
AcDbLinetypeTableRecord
  2
DIVIDE
 70
     0
  3
____ . . ____ . . ____ . . ____ . . ____ . . __
 72
    65
 73
     6
 40
1.25
 49
0.5
 74
     0
 49
-0.25
 74
     0
 49
0.0
 74
     0
 49
-0.25
 74
     0
 49
0.0
 74
     0
 49
-0.25
 74
     0
  0
LTYPE
  5
2D
100
AcDbSymbolTableRecord
100
AcDbLinetypeTableRecord
  2
DIVIDE2
 70
     0
  3
__..__..__..__..__..__..__..__..__..__..__..__.
 72
    65
 73
     6
 40
0.625
 49
0.25
 74
     0
 49
-0.125
 74
     0
 49
0.0
 74
     0
 49
-0.125
 74
     0
 49
0.0
 74
     0
 49
-0.125
 74
     0
  0
LTYPE
  5
2E
100
AcDbSymbolTableRecord
100
AcDbLinetypeTableRecord
  2
DIVIDEX2
 70
     0
  3
________  .  .  ________  .  .  ________  .  . 
 72
    65
 73
     6
 40
2.5
 49
1.0
 74
     0
 49
-0.5
 74
     0
 49
0.0
 74
     0
 49
-0.5
 74
     0
 49
0.0
 74
     0
 49
-0.5
 74
     0
  0
LTYPE
  5
2F
100
AcDbSymbolTableRecord
100
AcDbLinetypeTableRecord
  2
DOT
 70
     0
  3
. . . . . . . . . . . . . . . . . . . . . . . .
 72
    65
 73
     2
 40
0.25
 49
0.0
 74
     0
 49
-0.25
 74
     0
  0
LTYPE
  5
30
100
AcDbSymbolTableRecord
100
AcDbLinetypeTableRecord
  2
DOT2
 70
     0
  3
...............................................
 72
    65
 73
     2
 40
0.125
 49
0.0
 74
     0
 49
-0.125
 74
     0
  0
LTYPE
  5
31
100
AcDbSymbolTableRecord
100
AcDbLinetypeTableRecord
  2
DOTX2
 70
     0
  3
.  .  .  .  .  .  .  .  .  .  .  .  .  .  .  . 
 72
    65
 73
     2
 40
0.5
 49
0.0
 74
     0
 49
-0.5
 74
     0
  0
LTYPE
  5
32
100
AcDbSymbolTableRecord
100
AcDbLinetypeTableRecord
  2
HIDDEN
 70
     0
  3
__ __ __ __ __ __ __ __ __ __ __ __ __ __ __ __
 72
    65
 73
     2
 40
0.375
 49
0.25
 74
     0
 49
-0.125
 74
     0
  0
LTYPE
  5
33
100
AcDbSymbolTableRecord
100
AcDbLinetypeTableRecord
  2
HIDDEN2
 70
     0
  3
_ _ _ _ _ _ _ _ _ _ _ _ _ _ _ _ _ _ _ _ _ _ _ _
 72
    65
 73
     2
 40
0.1875
 49
0.125
 74
     0
 49
-0.0625
 74
     0
  0
LTYPE
  5
34
100
AcDbSymbolTableRecord
100
AcDbLinetypeTableRecord
  2
HIDDENX2
 70
     0
  3
____ ____ ____ ____ ____ ____ ____ ____ ____ __
 72
    65
 73
     2
 40
0.75
 49
0.5
 74
     0
 49
-0.25
 74
     0
  0
LTYPE
  5
35
100
AcDbSymbolTableRecord
100
AcDbLinetypeTableRecord
  2
PHANTOM
 70
     0
  3
______  __  __  ______  __  __  ______  __  __ 
 72
    65
 73
     6
 40
2.5
 49
1.25
 74
     0
 49
-0.25
 74
     0
 49
0.25
 74
     0
 49
-0.25
 74
     0
 49
0.25
 74
     0
 49
-0.25
 74
     0
  0
LTYPE
  5
36
100
AcDbSymbolTableRecord
100
AcDbLinetypeTableRecord
  2
PHANTOM2
 70
     0
  3
___ _ _ ___ _ _ ___ _ _ ___ _ _ ___ _ _ ___ _ _
 72
    65
 73
     6
 40
1.25
 49
0.625
 74
     0
 49
-0.125
 74
     0
 49
0.125
 74
     0
 49
-0.125
 74
     0
 49
0.125
 74
     0
 49
-0.125
 74
     0
  0
LTYPE
  5
37
100
AcDbSymbolTableRecord
100
AcDbLinetypeTableRecord
  2
PHANTOMX2
 70
     0
  3
____________    ____    ____    ____________   
 72
    65
 73
     6
 40
5.0
 49
2.5
 74
     0
 49
-0.5
 74
     0
 49
0.5
 74
     0
 49
-0.5
 74
     0
 49
0.5
 74
     0
 49
-0.5
 74
     0
  0
ENDTAB
   0
TABLE
   2
LAYER
   5
2
 100
AcDbSymbolTable
  70
2
   0
LAYER
   5
E
 100
AcDbSymbolTableRecord
 100
AcDbLayerTableRecord
   2
0
  70
0
  62
7
   6
CONTINUOUS
 390
30
   0
LAYER
   5
39
 100
AcDbSymbolTableRecord
 100
AcDbLayerTableRecord
   2
LEVEL001
  70
0
  62
7
   6
CONTINUOUS
 390
30
   0
ENDTAB
  0
TABLE
  2
STYLE
  5
3
100
AcDbSymbolTable
  70
3
  0
STYLE
  5
F
100
AcDbSymbolTableRecord
100
AcDbTextStyleTableRecord
  2
STANDARD
 70
     0
 40
0.0
 41
1.0
 50
0.0
 71
     0
 42
0.2
  3
TXT
  4
BIGFONT
  0
STYLE
  5
38
100
AcDbSymbolTableRecord
100
AcDbTextStyleTableRecord
  2
STANDARD1
 70
     4
 40
0.0
 41
1.0
 50
0.0
 71
     0
 42
0.2
  3
TXT
  4
BIGFONT
   0
STYLE
   5
3A
 100
AcDbSymbolTableRecord
 100
AcDbTextStyleTableRecord
   2
GMM001
  70
0
  40
0.0
  41
 1.0000000000000
  50
0.0
  71
     0
  42
1.0
   3
txt.shx
   4
bigfont.shx
   0
ENDTAB
  0
TABLE
  2
VIEW
  5
6
100
AcDbSymbolTable
 70
     0
  0
ENDTAB
  0
TABLE
  2
UCS
  5
7
100
AcDbSymbolTable
 70
     0
  0
ENDTAB
  0
TABLE
  2
APPID
  5
9
100
AcDbSymbolTable
 70
     1
  0
APPID
  5
10
100
AcDbSymbolTableRecord
100
AcDbRegAppTableRecord
  2
ACAD
 70
     0
  0
ENDTAB
   0
TABLE
   2
DIMSTYLE
   5
A
 100
AcDbSymbolTable
  70
8
 100
AcDbDimStyleTable
  0
DIMSTYLE
105
1D
100
AcDbSymbolTableRecord
100
AcDbDimStyleTableRecord
  2
STANDARD
 70
     0
  3

  4

  5

  6

  7

 40
1.0
 41
0.18
 42
0.0625
 43
0.38
 44
0.18
 45
0.0
 46
0.0
 47
0.0
 48
0.0
140
0.18
141
0.09
142
0.0
143
25.4
144
1.0
145
0.0
146
1.0
147
0.09
 71
     0
 72
     0
 73
     1
 74
     1
 75
     0
 76
     0
 77
     0
 78
     0
170
     0
171
     2
172
     0
173
     0
174
     0
175
     0
176
     0
177
     0
178
     0
270
     2
271
     4
272
     4
273
     2
274
     2
340
F
275
     0
280
     0
281
     0
282
     0
283
     1
284
     0
285
     0
286
     0
287
     3
288
     0
   0
DIMSTYLE
 105
3B
 100
AcDbSymbolTableRecord
 100
AcDbDimStyleTableRecord
   2
GMM001
  70
0
   3
扉厚:27～34<>
   4

   5

   6
_OPEN30
   7
_OPEN30
  40
 1.0000000000000
  41
 3.0000000000000
  42
 1.5000000000000
  43
 8.0000000000000
  44
 1.5000000000000
  45
0.0
  46
0.0
  47
0.0
  48
0.0
 140
 4.0000000000000
 141
 1.0000000000000
 142
0.0
 143
 0.39400000000000E-1
 144
 1.0000000000000
 145
0.0
 146
 0.62500000000000
 147
 1.7142857142857
  71
0
  72
0
  73
0
  74
0
  75
0
  76
0
  77
3
  78
8
 170
0
 171
2
 172
1
 173
1
 174
0
 175
0
 176
2
 177
2
 178
2
 270
2
 271
6
 272
0
 273
2
 274
2
 340
3A
 275
1
 280
0
 281
0
 282
0
 283
1
 284
0
 285
0
 286
0
 287
3
 288
0
   0
DIMSTYLE
 105
3C
 100
AcDbSymbolTableRecord
 100
AcDbDimStyleTableRecord
   2
GMM002
  70
0
   3

   4

   5

   6
_OPEN30
   7
_OPEN30
  40
 1.0000000000000
  41
 3.0000000000000
  42
 1.5000000000000
  43
 8.0000000000000
  44
 1.5000000000000
  45
0.0
  46
0.0
  47
0.0
  48
0.0
 140
 4.0000000000000
 141
 1.0000000000000
 142
0.0
 143
 0.39400000000000E-1
 144
 1.0000000000000
 145
0.0
 146
 0.62500000000000
 147
 1.7142857142857
  71
0
  72
0
  73
0
  74
0
  75
0
  76
0
  77
3
  78
8
 170
0
 171
2
 172
1
 173
1
 174
0
 175
0
 176
2
 177
2
 178
2
 270
2
 271
6
 272
0
 273
2
 274
2
 340
3A
 275
1
 280
0
 281
0
 282
0
 283
1
 284
0
 285
0
 286
0
 287
3
 288
0
   0
DIMSTYLE
 105
3D
 100
AcDbSymbolTableRecord
 100
AcDbDimStyleTableRecord
   2
GMM003
  70
0
   3
R<>
   4

   5

   6
_NONE
   7
_OPEN30
  40
 1.0000000000000
  41
 3.0000000000000
  42
 1.5000000000000
  43
 8.0000000000000
  44
 1.5000000000000
  45
0.0
  46
0.0
  47
0.0
  48
0.0
 140
 4.0000000000000
 141
 1.0000000000000
 142
0.0
 143
 0.39400000000000E-1
 144
 1.0000000000000
 145
0.0
 146
 0.62500000000000
 147
 1.7142857142857
  71
0
  72
0
  73
0
  74
0
  75
0
  76
0
  77
3
  78
8
 170
0
 171
2
 172
1
 173
1
 174
0
 175
0
 176
2
 177
2
 178
2
 270
2
 271
6
 272
0
 273
2
 274
2
 340
3A
 275
1
 280
0
 281
0
 282
0
 283
1
 284
0
 285
0
 286
0
 287
3
 288
1
   0
DIMSTYLE
 105
3E
 100
AcDbSymbolTableRecord
 100
AcDbDimStyleTableRecord
   2
GMM004
  70
0
   3
27～34<>
   4

   5

   6
_OPEN30
   7
_OPEN30
  40
 1.0000000000000
  41
 3.0000000000000
  42
 1.5000000000000
  43
 8.0000000000000
  44
 1.5000000000000
  45
0.0
  46
0.0
  47
0.0
  48
0.0
 140
 4.0000000000000
 141
 1.0000000000000
 142
0.0
 143
 0.39400000000000E-1
 144
 1.0000000000000
 145
0.0
 146
 0.62500000000000
 147
 1.7142857142857
  71
0
  72
0
  73
0
  74
0
  75
0
  76
0
  77
3
  78
8
 170
0
 171
2
 172
1
 173
1
 174
0
 175
0
 176
2
 177
2
 178
2
 270
2
 271
6
 272
0
 273
2
 274
2
 340
3A
 275
1
 280
0
 281
0
 282
0
 283
1
 284
0
 285
0
 286
0
 287
3
 288
0
   0
DIMSTYLE
 105
3F
 100
AcDbSymbolTableRecord
 100
AcDbDimStyleTableRecord
   2
GMM005
  70
0
   3

   4

   5

   6
_OPEN30
   7
_OPEN30
  40
 1.0000000000000
  41
 3.0000000000000
  42
 1.5000000000000
  43
 8.0000000000000
  44
 1.5000000000000
  45
0.0
  46
0.0
  47
0.0
  48
0.0
 140
 4.0000000000000
 141
 1.0000000000000
 142
0.0
 143
 0.39400000000000E-1
 144
 1.0000000000000
 145
0.0
 146
 0.62500000000000
 147
 1.7142857142857
  71
0
  72
0
  73
0
  74
0
  75
0
  76
0
  77
3
  78
8
 170
0
 171
2
 172
1
 173
1
 174
0
 175
0
 176
2
 177
2
 178
2
 270
2
 271
6
 272
0
 273
2
 274
2
 340
3A
 275
1
 280
0
 281
0
 282
0
 283
1
 284
0
 285
0
 286
0
 287
3
 288
1
   0
DIMSTYLE
 105
40
 100
AcDbSymbolTableRecord
 100
AcDbDimStyleTableRecord
   2
GMM006
  70
0
   3
(<>
   4

   5

   6
_OPEN30
   7
_OPEN30
  40
 1.0000000000000
  41
 3.0000000000000
  42
 1.5000000000000
  43
 8.0000000000000
  44
 1.5000000000000
  45
0.0
  46
0.0
  47
0.0
  48
0.0
 140
 4.0000000000000
 141
 1.0000000000000
 142
0.0
 143
 0.39400000000000E-1
 144
 1.0000000000000
 145
0.0
 146
 0.62500000000000
 147
 1.7142857142857
  71
0
  72
0
  73
0
  74
0
  75
0
  76
0
  77
3
  78
8
 170
0
 171
2
 172
1
 173
1
 174
0
 175
0
 176
2
 177
2
 178
2
 270
2
 271
6
 272
0
 273
2
 274
2
 340
3A
 275
1
 280
0
 281
0
 282
0
 283
1
 284
0
 285
0
 286
0
 287
3
 288
0
   0
ENDTAB
  0
TABLE
  2
BLOCK_RECORD
  5
1
100
AcDbSymbolTable
 70
     0
  0
BLOCK_RECORD
  5
18
100
AcDbSymbolTableRecord
100
AcDbBlockTableRecord
  2
*MODEL_SPACE
  0
BLOCK_RECORD
  5
15
100
AcDbSymbolTableRecord
100
AcDbBlockTableRecord
  2
*PAPER_SPACE
   0
BLOCK_RECORD
   5
41
 100
AcDbSymbolTableRecord
 100
AcDbBlockTableRecord
   2
HATCH001
   0
BLOCK_RECORD
   5
42
 100
AcDbSymbolTableRecord
 100
AcDbBlockTableRecord
   2
HATCH002
   0
BLOCK_RECORD
   5
43
 100
AcDbSymbolTableRecord
 100
AcDbBlockTableRecord
   2
*D1
   0
BLOCK_RECORD
   5
44
 100
AcDbSymbolTableRecord
 100
AcDbBlockTableRecord
   2
*D2
   0
BLOCK_RECORD
   5
45
 100
AcDbSymbolTableRecord
 100
AcDbBlockTableRecord
   2
*D3
   0
BLOCK_RECORD
   5
46
 100
AcDbSymbolTableRecord
 100
AcDbBlockTableRecord
   2
*D4
   0
BLOCK_RECORD
   5
47
 100
AcDbSymbolTableRecord
 100
AcDbBlockTableRecord
   2
*D5
   0
BLOCK_RECORD
   5
48
 100
AcDbSymbolTableRecord
 100
AcDbBlockTableRecord
   2
*D6
   0
BLOCK_RECORD
   5
49
 100
AcDbSymbolTableRecord
 100
AcDbBlockTableRecord
   2
*D7
   0
BLOCK_RECORD
   5
4A
 100
AcDbSymbolTableRecord
 100
AcDbBlockTableRecord
   2
*D8
   0
BLOCK_RECORD
   5
4B
 100
AcDbSymbolTableRecord
 100
AcDbBlockTableRecord
   2
*D9
   0
BLOCK_RECORD
   5
4C
 100
AcDbSymbolTableRecord
 100
AcDbBlockTableRecord
   2
*D10
   0
BLOCK_RECORD
   5
4D
 100
AcDbSymbolTableRecord
 100
AcDbBlockTableRecord
   2
*D11
   0
BLOCK_RECORD
   5
4E
 100
AcDbSymbolTableRecord
 100
AcDbBlockTableRecord
   2
*D12
   0
BLOCK_RECORD
   5
4F
 100
AcDbSymbolTableRecord
 100
AcDbBlockTableRecord
   2
*D13
   0
BLOCK_RECORD
   5
50
 100
AcDbSymbolTableRecord
 100
AcDbBlockTableRecord
   2
*D14
   0
BLOCK_RECORD
   5
51
 100
AcDbSymbolTableRecord
 100
AcDbBlockTableRecord
   2
*D15
   0
BLOCK_RECORD
   5
52
 100
AcDbSymbolTableRecord
 100
AcDbBlockTableRecord
   2
*D16
   0
BLOCK_RECORD
   5
53
 100
AcDbSymbolTableRecord
 100
AcDbBlockTableRecord
   2
*D17
   0
BLOCK_RECORD
   5
54
 100
AcDbSymbolTableRecord
 100
AcDbBlockTableRecord
   2
*D18
   0
BLOCK_RECORD
   5
55
 100
AcDbSymbolTableRecord
 100
AcDbBlockTableRecord
   2
*D19
   0
BLOCK_RECORD
   5
56
 100
AcDbSymbolTableRecord
 100
AcDbBlockTableRecord
   2
*D20
   0
BLOCK_RECORD
   5
57
 100
AcDbSymbolTableRecord
 100
AcDbBlockTableRecord
   2
*D21
   0
BLOCK_RECORD
   5
58
 100
AcDbSymbolTableRecord
 100
AcDbBlockTableRecord
   2
*D22
   0
BLOCK_RECORD
   5
59
 100
AcDbSymbolTableRecord
 100
AcDbBlockTableRecord
   2
*D23
   0
BLOCK_RECORD
   5
5A
 100
AcDbSymbolTableRecord
 100
AcDbBlockTableRecord
   2
*D24
   0
BLOCK_RECORD
   5
5B
 100
AcDbSymbolTableRecord
 100
AcDbBlockTableRecord
   2
*D25
   0
BLOCK_RECORD
   5
5C
 100
AcDbSymbolTableRecord
 100
AcDbBlockTableRecord
   2
*D26
   0
BLOCK_RECORD
   5
5D
 100
AcDbSymbolTableRecord
 100
AcDbBlockTableRecord
   2
*D27
   0
BLOCK_RECORD
   5
5E
 100
AcDbSymbolTableRecord
 100
AcDbBlockTableRecord
   2
*D28
   0
BLOCK_RECORD
   5
5F
 100
AcDbSymbolTableRecord
 100
AcDbBlockTableRecord
   2
HATCH003
   0
BLOCK_RECORD
   5
60
 100
AcDbSymbolTableRecord
 100
AcDbBlockTableRecord
   2
HATCH004
   0
BLOCK_RECORD
   5
61
 100
AcDbSymbolTableRecord
 100
AcDbBlockTableRecord
   2
*D29
   0
BLOCK_RECORD
   5
62
 100
AcDbSymbolTableRecord
 100
AcDbBlockTableRecord
   2
*D30
   0
BLOCK_RECORD
   5
63
 100
AcDbSymbolTableRecord
 100
AcDbBlockTableRecord
   2
*D31
   0
BLOCK_RECORD
   5
64
 100
AcDbSymbolTableRecord
 100
AcDbBlockTableRecord
   2
*D32
   0
BLOCK_RECORD
   5
65
 100
AcDbSymbolTableRecord
 100
AcDbBlockTableRecord
   2
*D33
   0
BLOCK_RECORD
   5
66
 100
AcDbSymbolTableRecord
 100
AcDbBlockTableRecord
   2
*D34
   0
BLOCK_RECORD
   5
67
 100
AcDbSymbolTableRecord
 100
AcDbBlockTableRecord
   2
*D35
   0
BLOCK_RECORD
   5
68
 100
AcDbSymbolTableRecord
 100
AcDbBlockTableRecord
   2
*D36
   0
BLOCK_RECORD
   5
69
 100
AcDbSymbolTableRecord
 100
AcDbBlockTableRecord
   2
*D37
   0
BLOCK_RECORD
   5
6A
 100
AcDbSymbolTableRecord
 100
AcDbBlockTableRecord
   2
*D38
   0
BLOCK_RECORD
   5
6B
 100
AcDbSymbolTableRecord
 100
AcDbBlockTableRecord
   2
*D39
   0
BLOCK_RECORD
   5
6C
 100
AcDbSymbolTableRecord
 100
AcDbBlockTableRecord
   2
*D40
   0
BLOCK_RECORD
   5
6D
 100
AcDbSymbolTableRecord
 100
AcDbBlockTableRecord
   2
*D41
   0
BLOCK_RECORD
   5
6E
 100
AcDbSymbolTableRecord
 100
AcDbBlockTableRecord
   2
*D42
   0
BLOCK_RECORD
   5
6F
 100
AcDbSymbolTableRecord
 100
AcDbBlockTableRecord
   2
*D43
   0
BLOCK_RECORD
   5
70
 100
AcDbSymbolTableRecord
 100
AcDbBlockTableRecord
   2
*D44
   0
BLOCK_RECORD
   5
71
 100
AcDbSymbolTableRecord
 100
AcDbBlockTableRecord
   2
*D45
   0
BLOCK_RECORD
   5
72
 100
AcDbSymbolTableRecord
 100
AcDbBlockTableRecord
   2
*D46
   0
BLOCK_RECORD
   5
73
 100
AcDbSymbolTableRecord
 100
AcDbBlockTableRecord
   2
*D47
   0
BLOCK_RECORD
   5
74
 100
AcDbSymbolTableRecord
 100
AcDbBlockTableRecord
   2
*D48
   0
BLOCK_RECORD
   5
75
 100
AcDbSymbolTableRecord
 100
AcDbBlockTableRecord
   2
*D49
   0
BLOCK_RECORD
   5
76
 100
AcDbSymbolTableRecord
 100
AcDbBlockTableRecord
   2
*D50
   0
BLOCK_RECORD
   5
77
 100
AcDbSymbolTableRecord
 100
AcDbBlockTableRecord
   2
*D51
   0
BLOCK_RECORD
   5
78
 100
AcDbSymbolTableRecord
 100
AcDbBlockTableRecord
   2
*D52
   0
BLOCK_RECORD
   5
79
 100
AcDbSymbolTableRecord
 100
AcDbBlockTableRecord
   2
_ARCHTICK
   0
BLOCK_RECORD
   5
7A
 100
AcDbSymbolTableRecord
 100
AcDbBlockTableRecord
   2
_BOXBLANK
   0
BLOCK_RECORD
   5
7B
 100
AcDbSymbolTableRecord
 100
AcDbBlockTableRecord
   2
_BOXFILLED
   0
BLOCK_RECORD
   5
7C
 100
AcDbSymbolTableRecord
 100
AcDbBlockTableRecord
   2
_CLOSED
   0
BLOCK_RECORD
   5
7D
 100
AcDbSymbolTableRecord
 100
AcDbBlockTableRecord
   2
_CLOSEDBLANK
   0
BLOCK_RECORD
   5
7E
 100
AcDbSymbolTableRecord
 100
AcDbBlockTableRecord
   2
_DATUMBLANK
   0
BLOCK_RECORD
   5
7F
 100
AcDbSymbolTableRecord
 100
AcDbBlockTableRecord
   2
_DATUMFILLED
   0
BLOCK_RECORD
   5
80
 100
AcDbSymbolTableRecord
 100
AcDbBlockTableRecord
   2
_DOT
   0
BLOCK_RECORD
   5
81
 100
AcDbSymbolTableRecord
 100
AcDbBlockTableRecord
   2
_DOTBLANK
   0
BLOCK_RECORD
   5
82
 100
AcDbSymbolTableRecord
 100
AcDbBlockTableRecord
   2
_DOTSMALL
   0
BLOCK_RECORD
   5
83
 100
AcDbSymbolTableRecord
 100
AcDbBlockTableRecord
   2
_INTEGRAL
   0
BLOCK_RECORD
   5
84
 100
AcDbSymbolTableRecord
 100
AcDbBlockTableRecord
   2
_NONE
   0
BLOCK_RECORD
   5
85
 100
AcDbSymbolTableRecord
 100
AcDbBlockTableRecord
   2
_OBLIQUE
   0
BLOCK_RECORD
   5
86
 100
AcDbSymbolTableRecord
 100
AcDbBlockTableRecord
   2
_OPEN
   0
BLOCK_RECORD
   5
87
 100
AcDbSymbolTableRecord
 100
AcDbBlockTableRecord
   2
_OPEN30
   0
BLOCK_RECORD
   5
88
 100
AcDbSymbolTableRecord
 100
AcDbBlockTableRecord
   2
_OPEN90
   0
BLOCK_RECORD
   5
89
 100
AcDbSymbolTableRecord
 100
AcDbBlockTableRecord
   2
_ORIGIN
   0
ENDTAB
   0
ENDSEC
  0
SECTION
  2
BLOCKS
  0
BLOCK
  5
19
100
AcDbEntity
  8
0
100
AcDbBlockBegin
  2
*MODEL_SPACE
 70
     0
 10
0.0
 20
0.0
 30
0.0
  3
*MODEL_SPACE
  1

  0
ENDBLK
  5
1A
100
AcDbEntity
  8
0
100
AcDbBlockEnd
  0
BLOCK
  5
16
100
AcDbEntity
 67
     1
  8
0
100
AcDbBlockBegin
  2
*PAPER_SPACE
 70
     0
 10
0.0
 20
0.0
 30
0.0
  3
*PAPER_SPACE
  1

  0
ENDBLK
  5
17
100
AcDbEntity
 67
     1
  8
0
100
AcDbBlockEnd
   0
BLOCK
   5
8A
 100
AcDbEntity
   8
0
 100
AcDbBlockBegin
   2
_ARCHTICK
  70
0
  10
0.0
  20
0.0
  30
0.0
   3
_ARCHTICK
   0
POLYLINE
   5
8B
 100
AcDbEntity
   8
0
   6
BYBLOCK
  62
0
 100
AcDb2dPolyline
  66
1
  10
0.0
  20
0.0
  30
0.0
  70
1
  40
 0.15000000000000
  41
 0.15000000000000
   0
VERTEX
   5
8C
 100
AcDbEntity
   8
0
   6
BYBLOCK
  62
0
 100
AcDbVertex
 100
AcDb2dVertex
  10
-0.50000000000000
  20
-0.50000000000000
  30
0.0
  40
 0.15000000000000
  41
 0.15000000000000
   0
VERTEX
   5
8D
 100
AcDbEntity
   8
0
   6
BYBLOCK
  62
0
 100
AcDbVertex
 100
AcDb2dVertex
  10
 0.50000000000000
  20
 0.50000000000000
  30
0.0
  40
 0.15000000000000
  41
 0.15000000000000
   0
SEQEND
   5
8E
 100
AcDbEntity
   8
0
   6
BYBLOCK
  62
0
   0
ENDBLK
   5
8F
 100
AcDbEntity
   8
0
 100
AcDbBlockEnd
   0
BLOCK
   5
90
 100
AcDbEntity
   8
0
 100
AcDbBlockBegin
   2
_OBLIQUE
  70
0
  10
0.0
  20
0.0
  30
0.0
   3
_OBLIQUE
   0
LINE
   5
91
 100
AcDbEntity
   8
0
 100
AcDbLine
   6
BYBLOCK
  62
0
  10
-0.50000000000000
  20
-0.50000000000000
  30
0.0
  11
 0.50000000000000
  21
 0.50000000000000
  31
0.0
   0
ENDBLK
   5
92
 100
AcDbEntity
   8
0
 100
AcDbBlockEnd
   0
BLOCK
   5
93
 100
AcDbEntity
   8
0
 100
AcDbBlockBegin
   2
_BOXBLANK
  70
0
  10
0.0
  20
0.0
  30
0.0
   3
_BOXBLANK
   0
LINE
   5
94
 100
AcDbEntity
   8
0
 100
AcDbLine
   6
BYBLOCK
  62
0
  10
-0.50000000000000
  20
-0.50000000000000
  30
0.0
  11
 0.50000000000000
  21
-0.50000000000000
  31
0.0
   0
LINE
   5
95
 100
AcDbEntity
   8
0
 100
AcDbLine
   6
BYBLOCK
  62
0
  10
 0.50000000000000
  20
-0.50000000000000
  30
0.0
  11
 0.50000000000000
  21
 0.50000000000000
  31
0.0
   0
LINE
   5
96
 100
AcDbEntity
   8
0
 100
AcDbLine
   6
BYBLOCK
  62
0
  10
 0.50000000000000
  20
 0.50000000000000
  30
0.0
  11
-0.50000000000000
  21
 0.50000000000000
  31
0.0
   0
LINE
   5
97
 100
AcDbEntity
   8
0
 100
AcDbLine
   6
BYBLOCK
  62
0
  10
-0.50000000000000
  20
 0.50000000000000
  30
0.0
  11
-0.50000000000000
  21
-0.50000000000000
  31
0.0
   0
LINE
   5
98
 100
AcDbEntity
   8
0
 100
AcDbLine
   6
BYBLOCK
  62
0
  10
-0.50000000000000
  20
0.0
  30
0.0
  11
-1.0000000000000
  21
0.0
  31
0.0
   0
ENDBLK
   5
99
 100
AcDbEntity
   8
0
 100
AcDbBlockEnd
   0
BLOCK
   5
9A
 100
AcDbEntity
   8
0
 100
AcDbBlockBegin
   2
_BOXFILLED
  70
0
  10
0.0
  20
0.0
  30
0.0
   3
_BOXFILLED
   0
SOLID
   5
9B
 100
AcDbEntity
   8
0
 100
AcDbTrace
   6
BYBLOCK
  62
0
  10
-0.50000000000000
  20
 0.50000000000000
  30
0.0
  11
 0.50000000000000
  21
 0.50000000000000
  31
0.0
  12
-0.50000000000000
  22
-0.50000000000000
  32
0.0
  13
 0.50000000000000
  23
-0.50000000000000
  33
0.0
   0
LINE
   5
9C
 100
AcDbEntity
   8
0
 100
AcDbLine
   6
BYBLOCK
  62
0
  10
-0.50000000000000
  20
0.0
  30
0.0
  11
-1.0000000000000
  21
0.0
  31
0.0
   0
ENDBLK
   5
9D
 100
AcDbEntity
   8
0
 100
AcDbBlockEnd
   0
BLOCK
   5
9E
 100
AcDbEntity
   8
0
 100
AcDbBlockBegin
   2
_CLOSED
  70
0
  10
0.0
  20
0.0
  30
0.0
   3
_CLOSED
   0
LINE
   5
9F
 100
AcDbEntity
   8
0
 100
AcDbLine
   6
BYBLOCK
  62
0
  10
-1.0000000000000
  20
 0.16666666666667
  30
0.0
  11
0.0
  21
0.0
  31
0.0
   0
LINE
   5
A0
 100
AcDbEntity
   8
0
 100
AcDbLine
   6
BYBLOCK
  62
0
  10
0.0
  20
0.0
  30
0.0
  11
-1.0000000000000
  21
-0.16666666666667
  31
0.0
   0
LINE
   5
A1
 100
AcDbEntity
   8
0
 100
AcDbLine
   6
BYBLOCK
  62
0
  10
-1.0000000000000
  20
 0.16666666666667
  30
0.0
  11
-1.0000000000000
  21
-0.16666666666667
  31
0.0
   0
LINE
   5
A2
 100
AcDbEntity
   8
0
 100
AcDbLine
   6
BYBLOCK
  62
0
  10
0.0
  20
0.0
  30
0.0
  11
-1.0000000000000
  21
0.0
  31
0.0
   0
ENDBLK
   5
A3
 100
AcDbEntity
   8
0
 100
AcDbBlockEnd
   0
BLOCK
   5
A4
 100
AcDbEntity
   8
0
 100
AcDbBlockBegin
   2
_OPEN
  70
0
  10
0.0
  20
0.0
  30
0.0
   3
_OPEN
   0
LINE
   5
A5
 100
AcDbEntity
   8
0
 100
AcDbLine
   6
BYBLOCK
  62
0
  10
-1.0000000000000
  20
 0.16666666666667
  30
0.0
  11
0.0
  21
0.0
  31
0.0
   0
LINE
   5
A6
 100
AcDbEntity
   8
0
 100
AcDbLine
   6
BYBLOCK
  62
0
  10
0.0
  20
0.0
  30
0.0
  11
-1.0000000000000
  21
-0.16666666666667
  31
0.0
   0
LINE
   5
A7
 100
AcDbEntity
   8
0
 100
AcDbLine
   6
BYBLOCK
  62
0
  10
0.0
  20
0.0
  30
0.0
  11
-1.0000000000000
  21
0.0
  31
0.0
   0
ENDBLK
   5
A8
 100
AcDbEntity
   8
0
 100
AcDbBlockEnd
   0
BLOCK
   5
A9
 100
AcDbEntity
   8
0
 100
AcDbBlockBegin
   2
_OPEN30
  70
0
  10
0.0
  20
0.0
  30
0.0
   3
_OPEN30
   0
LINE
   5
AA
 100
AcDbEntity
   8
0
 100
AcDbLine
   6
BYBLOCK
  62
0
  10
-1.0000000000000
  20
 0.26794919243110
  30
0.0
  11
0.0
  21
0.0
  31
0.0
   0
LINE
   5
AB
 100
AcDbEntity
   8
0
 100
AcDbLine
   6
BYBLOCK
  62
0
  10
0.0
  20
0.0
  30
0.0
  11
-1.0000000000000
  21
-0.26794919243110
  31
0.0
   0
LINE
   5
AC
 100
AcDbEntity
   8
0
 100
AcDbLine
   6
BYBLOCK
  62
0
  10
0.0
  20
0.0
  30
0.0
  11
-1.0000000000000
  21
0.0
  31
0.0
   0
ENDBLK
   5
AD
 100
AcDbEntity
   8
0
 100
AcDbBlockEnd
   0
BLOCK
   5
AE
 100
AcDbEntity
   8
0
 100
AcDbBlockBegin
   2
_OPEN90
  70
0
  10
0.0
  20
0.0
  30
0.0
   3
_OPEN90
   0
LINE
   5
AF
 100
AcDbEntity
   8
0
 100
AcDbLine
   6
BYBLOCK
  62
0
  10
-0.50000000000000
  20
 0.50000000000000
  30
0.0
  11
0.0
  21
0.0
  31
0.0
   0
LINE
   5
B0
 100
AcDbEntity
   8
0
 100
AcDbLine
   6
BYBLOCK
  62
0
  10
0.0
  20
0.0
  30
0.0
  11
-0.50000000000000
  21
-0.50000000000000
  31
0.0
   0
LINE
   5
B1
 100
AcDbEntity
   8
0
 100
AcDbLine
   6
BYBLOCK
  62
0
  10
0.0
  20
0.0
  30
0.0
  11
-1.0000000000000
  21
0.0
  31
0.0
   0
ENDBLK
   5
B2
 100
AcDbEntity
   8
0
 100
AcDbBlockEnd
   0
BLOCK
   5
B3
 100
AcDbEntity
   8
0
 100
AcDbBlockBegin
   2
_CLOSEDBLANK
  70
0
  10
0.0
  20
0.0
  30
0.0
   3
_CLOSEDBLANK
   0
LINE
   5
B4
 100
AcDbEntity
   8
0
 100
AcDbLine
   6
BYBLOCK
  62
0
  10
-1.0000000000000
  20
 0.16666666666667
  30
0.0
  11
0.0
  21
0.0
  31
0.0
   0
LINE
   5
B5
 100
AcDbEntity
   8
0
 100
AcDbLine
   6
BYBLOCK
  62
0
  10
0.0
  20
0.0
  30
0.0
  11
-1.0000000000000
  21
-0.16666666666667
  31
0.0
   0
LINE
   5
B6
 100
AcDbEntity
   8
0
 100
AcDbLine
   6
BYBLOCK
  62
0
  10
-1.0000000000000
  20
 0.16666666666667
  30
0.0
  11
-1.0000000000000
  21
-0.16666666666667
  31
0.0
   0
ENDBLK
   5
B7
 100
AcDbEntity
   8
0
 100
AcDbBlockEnd
   0
BLOCK
   5
B8
 100
AcDbEntity
   8
0
 100
AcDbBlockBegin
   2
_DOT
  70
0
  10
0.0
  20
0.0
  30
0.0
   3
_DOT
   0
POLYLINE
   5
B9
 100
AcDbEntity
   8
0
   6
BYBLOCK
  62
0
 100
AcDb2dPolyline
  66
1
  10
0.0
  20
0.0
  30
0.0
  70
1
  40
 0.50000000000000
  41
 0.50000000000000
   0
VERTEX
   5
BA
 100
AcDbEntity
   8
0
   6
BYBLOCK
  62
0
 100
AcDbVertex
 100
AcDb2dVertex
  10
-0.25000000000000
  20
0.0
  30
0.0
  42
 1.0000000000000
  40
 0.50000000000000
  41
 0.50000000000000
   0
VERTEX
   5
BB
 100
AcDbEntity
   8
0
   6
BYBLOCK
  62
0
 100
AcDbVertex
 100
AcDb2dVertex
  10
 0.25000000000000
  20
0.0
  30
0.0
  42
 1.0000000000000
  40
 0.50000000000000
  41
 0.50000000000000
   0
SEQEND
   5
BC
 100
AcDbEntity
   8
0
   6
BYBLOCK
  62
0
   0
LINE
   5
BD
 100
AcDbEntity
   8
0
 100
AcDbLine
   6
BYBLOCK
  62
0
  10
-0.50000000000000
  20
0.0
  30
0.0
  11
-1.0000000000000
  21
0.0
  31
0.0
   0
ENDBLK
   5
BE
 100
AcDbEntity
   8
0
 100
AcDbBlockEnd
   0
BLOCK
   5
BF
 100
AcDbEntity
   8
0
 100
AcDbBlockBegin
   2
_DOTSMALL
  70
0
  10
0.0
  20
0.0
  30
0.0
   3
_DOTSMALL
   0
POLYLINE
   5
C0
 100
AcDbEntity
   8
0
   6
BYBLOCK
  62
0
 100
AcDb2dPolyline
  66
1
  10
0.0
  20
0.0
  30
0.0
  70
1
  40
 0.50000000000000
  41
 0.50000000000000
   0
VERTEX
   5
C1
 100
AcDbEntity
   8
0
   6
BYBLOCK
  62
0
 100
AcDbVertex
 100
AcDb2dVertex
  10
-0.62500000000000E-1
  20
0.0
  30
0.0
  42
 1.0000000000000
  40
 0.50000000000000
  41
 0.50000000000000
   0
VERTEX
   5
C2
 100
AcDbEntity
   8
0
   6
BYBLOCK
  62
0
 100
AcDbVertex
 100
AcDb2dVertex
  10
 0.62500000000000E-1
  20
0.0
  30
0.0
  42
 1.0000000000000
  40
 0.50000000000000
  41
 0.50000000000000
   0
SEQEND
   5
C3
 100
AcDbEntity
   8
0
   6
BYBLOCK
  62
0
   0
ENDBLK
   5
C4
 100
AcDbEntity
   8
0
 100
AcDbBlockEnd
   0
BLOCK
   5
C5
 100
AcDbEntity
   8
0
 100
AcDbBlockBegin
   2
_DATUMBLANK
  70
0
  10
0.0
  20
0.0
  30
0.0
   3
_DATUMBLANK
   0
LINE
   5
C6
 100
AcDbEntity
   8
0
 100
AcDbLine
   6
BYBLOCK
  62
0
  10
0.0
  20
 0.57735027000000
  30
0.0
  11
-1.0000000000000
  21
0.0
  31
0.0
   0
LINE
   5
C7
 100
AcDbEntity
   8
0
 100
AcDbLine
   6
BYBLOCK
  62
0
  10
-1.0000000000000
  20
0.0
  30
0.0
  11
0.0
  21
-0.57735027000000
  31
0.0
   0
LINE
   5
C8
 100
AcDbEntity
   8
0
 100
AcDbLine
   6
BYBLOCK
  62
0
  10
0.0
  20
-0.57735027000000
  30
0.0
  11
0.0
  21
 0.57735027000000
  31
0.0
   0
ENDBLK
   5
C9
 100
AcDbEntity
   8
0
 100
AcDbBlockEnd
   0
BLOCK
   5
CA
 100
AcDbEntity
   8
0
 100
AcDbBlockBegin
   2
_DATUMFILLED
  70
0
  10
0.0
  20
0.0
  30
0.0
   3
_DATUMFILLED
   0
SOLID
   5
CB
 100
AcDbEntity
   8
0
 100
AcDbTrace
   6
BYBLOCK
  62
0
  10
0.0
  20
 0.57735027000000
  30
0.0
  11
-1.0000000000000
  21
0.0
  31
0.0
  12
0.0
  22
-0.57735027000000
  32
0.0
  13
0.0
  23
-0.57735027000000
  33
0.0
   0
ENDBLK
   5
CC
 100
AcDbEntity
   8
0
 100
AcDbBlockEnd
   0
BLOCK
   5
CD
 100
AcDbEntity
   8
0
 100
AcDbBlockBegin
   2
_ORIGIN
  70
0
  10
0.0
  20
0.0
  30
0.0
   3
_ORIGIN
   0
CIRCLE
   5
CE
 100
AcDbEntity
   8
0
 100
AcDbCircle
   6
BYBLOCK
  62
0
  10
0.0
  20
0.0
  30
0.0
  40
 0.50000000000000
   0
LINE
   5
CF
 100
AcDbEntity
   8
0
 100
AcDbLine
   6
BYBLOCK
  62
0
  10
0.0
  20
0.0
  30
0.0
  11
-1.0000000000000
  21
0.0
  31
0.0
   0
ENDBLK
   5
D0
 100
AcDbEntity
   8
0
 100
AcDbBlockEnd
   0
BLOCK
   5
D1
 100
AcDbEntity
   8
0
 100
AcDbBlockBegin
   2
_NONE
  70
0
  10
0.0
  20
0.0
  30
0.0
   3
_NONE
   0
CIRCLE
   5
D2
 100
AcDbEntity
   8
0
 100
AcDbCircle
   6
BYBLOCK
  62
0
  10
0.0
  20
0.0
  30
0.0
  40
 0.25000000000000
   0
ENDBLK
   5
D3
 100
AcDbEntity
   8
0
 100
AcDbBlockEnd
   0
BLOCK
   5
D4
 100
AcDbEntity
   8
0
 100
AcDbBlockBegin
   2
_DOTBLANK
  70
0
  10
0.0
  20
0.0
  30
0.0
   3
_DOTBLANK
   0
CIRCLE
   5
D5
 100
AcDbEntity
   8
0
 100
AcDbCircle
   6
BYBLOCK
  62
0
  10
0.0
  20
0.0
  30
0.0
  40
 0.50000000000000
   0
LINE
   5
D6
 100
AcDbEntity
   8
0
 100
AcDbLine
   6
BYBLOCK
  62
0
  10
-0.50000000000000
  20
0.0
  30
0.0
  11
-1.0000000000000
  21
0.0
  31
0.0
   0
ENDBLK
   5
D7
 100
AcDbEntity
   8
0
 100
AcDbBlockEnd
   0
BLOCK
   5
D8
 100
AcDbEntity
   8
0
 100
AcDbBlockBegin
   2
_INTEGRAL
  70
0
  10
0.0
  20
0.0
  30
0.0
   3
_INTEGRAL
   0
ARC
   5
D9
 100
AcDbEntity
   8
0
   6
BYBLOCK
  62
0
 100
AcDbCircle
  10
 0.44488800000000
  20
-0.91335000000000E-1
  30
0.0
  40
 0.45416700000000
 100
AcDbArc
  50
 102.00000000000
  51
 168.00000000000
   0
ARC
   5
DA
 100
AcDbEntity
   8
0
   6
BYBLOCK
  62
0
 100
AcDbCircle
  10
-0.44488800000000
  20
 0.91335000000000E-1
  30
0.0
  40
 0.45416700000000
 100
AcDbArc
  50
 282.00000000000
  51
 348.00000000000
   0
ENDBLK
   5
DB
 100
AcDbEntity
   8
0
 100
AcDbBlockEnd
   0
BLOCK
   5
DC
 100
AcDbEntity
   8
0
 100
AcDbBlockBegin
   2
HATCH001
  70
64
  10
0.0
  20
0.0
  30
0.0
   3
HATCH001
   0
LINE
   5
DD
 100
AcDbEntity
   8
LEVEL001
 100
AcDbLine
   6
CONTINUOUS
  62
2
  10
 354.59670016456
  20
 111.06173377185
  30
0.0
  11
 355.65828448389
  21
 112.12331809118
  31
0.0
   0
LINE
   5
DE
 100
AcDbEntity
   8
LEVEL001
 100
AcDbLine
   6
CONTINUOUS
  62
2
  10
 354.59670016456
  20
 106.81909309185
  30
0.0
  11
 359.90092516389
  21
 112.12331809118
  31
0.0
   0
LINE
   5
DF
 100
AcDbEntity
   8
LEVEL001
 100
AcDbLine
   6
CONTINUOUS
  62
2
  10
 354.59670016456
  20
 102.57645241185
  30
0.0
  11
 364.14356584389
  21
 112.12331809118
  31
0.0
   0
LINE
   5
E0
 100
AcDbEntity
   8
LEVEL001
 100
AcDbLine
   6
CONTINUOUS
  62
2
  10
 354.59670016456
  20
 98.333811731852
  30
0.0
  11
 368.38620652389
  21
 112.12331809118
  31
0.0
   0
LINE
   5
E1
 100
AcDbEntity
   8
LEVEL001
 100
AcDbLine
   6
CONTINUOUS
  62
2
  10
 358.04478676421
  20
 97.539257651494
  30
0.0
  11
 372.62884720389
  21
 112.12331809118
  31
0.0
   0
LINE
   5
E2
 100
AcDbEntity
   8
LEVEL001
 100
AcDbLine
   6
CONTINUOUS
  62
2
  10
 362.28742744421
  20
 97.539257651494
  30
0.0
  11
 376.87148788389
  21
 112.12331809118
  31
0.0
   0
LINE
   5
E3
 100
AcDbEntity
   8
LEVEL001
 100
AcDbLine
   6
CONTINUOUS
  62
2
  10
 366.53006812421
  20
 97.539257651494
  30
0.0
  11
 381.11412856389
  21
 112.12331809118
  31
0.0
   0
LINE
   5
E4
 100
AcDbEntity
   8
LEVEL001
 100
AcDbLine
   6
CONTINUOUS
  62
2
  10
 370.77270880421
  20
 97.539257651494
  30
0.0
  11
 385.35676924389
  21
 112.12331809118
  31
0.0
   0
LINE
   5
E5
 100
AcDbEntity
   8
LEVEL001
 100
AcDbLine
   6
CONTINUOUS
  62
2
  10
 375.01534948421
  20
 97.539257651494
  30
0.0
  11
 387.59670016456
  21
 110.12060833185
  31
0.0
   0
LINE
   5
E6
 100
AcDbEntity
   8
LEVEL001
 100
AcDbLine
   6
CONTINUOUS
  62
2
  10
 379.25799016421
  20
 97.539257651494
  30
0.0
  11
 387.59670016456
  21
 105.87796765185
  31
0.0
   0
LINE
   5
E7
 100
AcDbEntity
   8
LEVEL001
 100
AcDbLine
   6
CONTINUOUS
  62
2
  10
 383.50063084421
  20
 97.539257651494
  30
0.0
  11
 387.59670016456
  21
 101.63532697185
  31
0.0
   0
ENDBLK
   5
E8
 100
AcDbEntity
   8
0
 100
AcDbBlockEnd
   0
BLOCK
   5
E9
 100
AcDbEntity
   8
0
 100
AcDbBlockBegin
   2
HATCH002
  70
64
  10
0.0
  20
0.0
  30
0.0
   3
HATCH002
   0
LINE
   5
EA
 100
AcDbEntity
   8
LEVEL001
 100
AcDbLine
   6
CONTINUOUS
  62
2
  10
 354.59670016456
  20
 251.06887621185
  30
0.0
  11
 358.52590016450
  21
 254.99807621179
  31
0.0
   0
LINE
   5
EB
 100
AcDbEntity
   8
LEVEL001
 100
AcDbLine
   6
CONTINUOUS
  62
2
  10
 354.59670016456
  20
 246.82623553185
  30
0.0
  11
 362.76854084450
  21
 254.99807621179
  31
0.0
   0
LINE
   5
EC
 100
AcDbEntity
   8
LEVEL001
 100
AcDbLine
   6
CONTINUOUS
  62
2
  10
 354.59670016456
  20
 242.58359485185
  30
0.0
  11
 367.01118152450
  21
 254.99807621179
  31
0.0
   0
LINE
   5
ED
 100
AcDbEntity
   8
LEVEL001
 100
AcDbLine
   6
CONTINUOUS
  62
2
  10
 358.37906408389
  20
 242.12331809118
  30
0.0
  11
 371.25382220450
  21
 254.99807621179
  31
0.0
   0
LINE
   5
EE
 100
AcDbEntity
   8
LEVEL001
 100
AcDbLine
   6
CONTINUOUS
  62
2
  10
 362.62170476389
  20
 242.12331809118
  30
0.0
  11
 375.49646288450
  21
 254.99807621179
  31
0.0
   0
LINE
   5
EF
 100
AcDbEntity
   8
LEVEL001
 100
AcDbLine
   6
CONTINUOUS
  62
2
  10
 366.86434544389
  20
 242.12331809118
  30
0.0
  11
 379.73910356450
  21
 254.99807621179
  31
0.0
   0
LINE
   5
F0
 100
AcDbEntity
   8
LEVEL001
 100
AcDbLine
   6
CONTINUOUS
  62
2
  10
 371.10698612389
  20
 242.12331809118
  30
0.0
  11
 383.98174424450
  21
 254.99807621179
  31
0.0
   0
LINE
   5
F1
 100
AcDbEntity
   8
LEVEL001
 100
AcDbLine
   6
CONTINUOUS
  62
2
  10
 375.34962680389
  20
 242.12331809118
  30
0.0
  11
 387.59670016456
  21
 254.37039145185
  31
0.0
   0
LINE
   5
F2
 100
AcDbEntity
   8
LEVEL001
 100
AcDbLine
   6
CONTINUOUS
  62
2
  10
 379.59226748389
  20
 242.12331809118
  30
0.0
  11
 387.59670016456
  21
 250.12775077185
  31
0.0
   0
LINE
   5
F3
 100
AcDbEntity
   8
LEVEL001
 100
AcDbLine
   6
CONTINUOUS
  62
2
  10
 383.83490816389
  20
 242.12331809118
  30
0.0
  11
 387.59670016456
  21
 245.88511009185
  31
0.0
   0
ENDBLK
   5
F4
 100
AcDbEntity
   8
0
 100
AcDbBlockEnd
   0
BLOCK
   5
F5
 100
AcDbEntity
   8
0
 100
AcDbBlockBegin
   2
*D1
  70
65
  10
0.0
  20
0.0
  30
0.0
   3
*D1
   0
LINE
   5
F6
 100
AcDbEntity
   8
LEVEL001
 100
AcDbLine
   6
CONTINUOUS
  62
2
  10
 354.59670016456
  20
 96.039257651494
  30
0.0
  11
 354.59670016456
  21
 84.451996595224
  31
0.0
   0
LINE
   5
F7
 100
AcDbEntity
   8
LEVEL001
 100
AcDbLine
   6
CONTINUOUS
  62
2
  10
 387.59670016456
  20
 95.905566346616
  30
0.0
  11
 387.59670016456
  21
 84.451996595224
  31
0.0
   0
LINE
   5
F8
 100
AcDbEntity
   8
LEVEL001
 100
AcDbLine
   6
CONTINUOUS
  62
2
  10
 354.59670016456
  20
 85.951996595224
  30
0.0
  11
 371.09670016456
  21
 85.951996595224
  31
0.0
   0
LINE
   5
F9
 100
AcDbEntity
   8
LEVEL001
 100
AcDbLine
   6
CONTINUOUS
  62
2
  10
 387.59670016456
  20
 85.951996595224
  30
0.0
  11
 371.09670016456
  21
 85.951996595224
  31
0.0
   0
INSERT
   5
FA
 100
AcDbEntity
   8
LEVEL001
   6
CONTINUOUS
  62
2
 100
AcDbBlockReference
   2
_OPEN30
  10
 354.59670016456
  20
 85.951996595224
  30
0.0
  41
 3.0000000000000
  42
 3.0000000000000
  43
 3.0000000000000
  50
 180.00000000000
   0
INSERT
   5
FB
 100
AcDbEntity
   8
LEVEL001
   6
CONTINUOUS
  62
2
 100
AcDbBlockReference
   2
_OPEN30
  10
 387.59670016456
  20
 85.951996595224
  30
0.0
  41
 3.0000000000000
  42
 3.0000000000000
  43
 3.0000000000000
  50
0.0
   0
MTEXT
   5
FC
 100
AcDbEntity
   8
LEVEL001
  62
2
 100
AcDbMText
  10
 371.09670016456
  20
 87.666282309509
  30
0.0
  40
 4.0000000000000
  41
0.0
  71
8
  72
1
   1
\A1;扉厚:27～34
   7
GMM001
   0
ENDBLK
   5
FD
 100
AcDbEntity
   8
0
 100
AcDbBlockEnd
   0
BLOCK
   5
FE
 100
AcDbEntity
   8
0
 100
AcDbBlockBegin
   2
*D2
  70
65
  10
0.0
  20
0.0
  30
0.0
   3
*D2
   0
LINE
   5
FF
 100
AcDbEntity
   8
LEVEL001
 100
AcDbLine
   6
CONTINUOUS
  62
2
  10
 304.34653765021
  20
 110.62331809118
  30
0.0
  11
 304.34653765021
  21
 93.067637512294
  31
0.0
   0
LINE
   5
100
 100
AcDbEntity
   8
LEVEL001
 100
AcDbLine
   6
CONTINUOUS
  62
2
  10
 334.34653765021
  20
 110.62331809118
  30
0.0
  11
 334.34653765021
  21
 93.067637512294
  31
0.0
   0
LINE
   5
101
 100
AcDbEntity
   8
LEVEL001
 100
AcDbLine
   6
CONTINUOUS
  62
2
  10
 304.34653765021
  20
 94.567637512294
  30
0.0
  11
 319.34653765021
  21
 94.567637512294
  31
0.0
   0
LINE
   5
102
 100
AcDbEntity
   8
LEVEL001
 100
AcDbLine
   6
CONTINUOUS
  62
2
  10
 334.34653765021
  20
 94.567637512294
  30
0.0
  11
 319.34653765021
  21
 94.567637512294
  31
0.0
   0
INSERT
   5
103
 100
AcDbEntity
   8
LEVEL001
   6
CONTINUOUS
  62
2
 100
AcDbBlockReference
   2
_OPEN30
  10
 304.34653765021
  20
 94.567637512294
  30
0.0
  41
 3.0000000000000
  42
 3.0000000000000
  43
 3.0000000000000
  50
 180.00000000000
   0
INSERT
   5
104
 100
AcDbEntity
   8
LEVEL001
   6
CONTINUOUS
  62
2
 100
AcDbBlockReference
   2
_OPEN30
  10
 334.34653765021
  20
 94.567637512294
  30
0.0
  41
 3.0000000000000
  42
 3.0000000000000
  43
 3.0000000000000
  50
0.0
   0
MTEXT
   5
105
 100
AcDbEntity
   8
LEVEL001
  62
2
 100
AcDbMText
  10
 319.34653765021
  20
 96.281923226579
  30
0.0
  40
 4.0000000000000
  41
0.0
  71
8
  72
1
   1
\A1;30
   7
GMM001
   0
ENDBLK
   5
106
 100
AcDbEntity
   8
0
 100
AcDbBlockEnd
   0
BLOCK
   5
107
 100
AcDbEntity
   8
0
 100
AcDbBlockBegin
   2
*D3
  70
65
  10
0.0
  20
0.0
  30
0.0
   3
*D3
   0
LINE
   5
108
 100
AcDbEntity
   8
LEVEL001
 100
AcDbLine
   6
CONTINUOUS
  62
2
  10
 319.34653765021
  20
 227.12331809118
  30
0.0
  11
 315.17426993884
  21
 233.35566773996
  31
0.0
   0
LINE
   5
109
 100
AcDbEntity
   8
LEVEL001
 100
AcDbLine
   6
CONTINUOUS
  62
2
  10
 315.17426993884
  20
 233.35566773996
  30
0.0
  11
 302.32973608676
  21
 252.54226639081
  31
0.0
   0
INSERT
   5
10A
 100
AcDbEntity
   8
LEVEL001
   6
CONTINUOUS
  62
2
 100
AcDbBlockReference
   2
_OPEN30
  10
 311.00200222748
  20
 239.58801738875
  30
0.0
  41
 3.0000000000000
  42
 3.0000000000000
  43
 3.0000000000000
  50
 303.80046513412
   0
MTEXT
   5
10B
 100
AcDbEntity
   8
LEVEL001
  62
2
 100
AcDbMText
  10
 310.42990148752
  20
 243.52416814392
  30
0.0
  40
 4.0000000000000
  41
0.0
  71
9
  72
1
   1
\A1;R15
   7
GMM001
  11
 0.55630236151517
  21
-0.83097995317134
  31
0.0
   0
ENDBLK
   5
10C
 100
AcDbEntity
   8
0
 100
AcDbBlockEnd
   0
BLOCK
   5
10D
 100
AcDbEntity
   8
0
 100
AcDbBlockBegin
   2
*D4
  70
65
  10
0.0
  20
0.0
  30
0.0
   3
*D4
   0
LINE
   5
10E
 100
AcDbEntity
   8
LEVEL001
 100
AcDbLine
   6
CONTINUOUS
  62
2
  10
 319.34653765021
  20
 127.12331809118
  30
0.0
  11
 323.93452182093
  21
 121.19032548633
  31
0.0
   0
LINE
   5
10F
 100
AcDbEntity
   8
LEVEL001
 100
AcDbLine
   6
CONTINUOUS
  62
2
  10
 323.93452182093
  20
 121.19032548633
  30
0.0
  11
 342.19692819423
  21
 97.574131984421
  31
0.0
   0
INSERT
   5
110
 100
AcDbEntity
   8
LEVEL001
   6
CONTINUOUS
  62
2
 100
AcDbBlockReference
   2
_OPEN30
  10
 328.52250599166
  20
 115.25733288148
  30
0.0
  41
 3.0000000000000
  42
 3.0000000000000
  43
 3.0000000000000
  50
 127.71478718273
   0
MTEXT
   5
111
 100
AcDbEntity
   8
LEVEL001
  62
2
 100
AcDbMText
  10
 336.21226611646
  20
 108.11560224834
  30
0.0
  40
 4.0000000000000
  41
0.0
  71
7
  72
1
   1
\A1;R15
   7
GMM001
  11
 0.61173122276319
  21
-0.79106568064646
  31
0.0
   0
ENDBLK
   5
112
 100
AcDbEntity
   8
0
 100
AcDbBlockEnd
   0
BLOCK
   5
113
 100
AcDbEntity
   8
0
 100
AcDbBlockBegin
   2
*D5
  70
65
  10
0.0
  20
0.0
  30
0.0
   3
*D5
   0
LINE
   5
114
 100
AcDbEntity
   8
LEVEL001
 100
AcDbLine
   6
CONTINUOUS
  62
2
  10
 302.84653765021
  20
 112.12331809118
  30
0.0
  11
 285.50574047383
  21
 112.12331809118
  31
0.0
   0
LINE
   5
115
 100
AcDbEntity
   8
LEVEL001
 100
AcDbLine
   6
CONTINUOUS
  62
2
  10
 302.84653765021
  20
 242.12331809118
  30
0.0
  11
 285.50574047383
  21
 242.12331809118
  31
0.0
   0
LINE
   5
116
 100
AcDbEntity
   8
LEVEL001
 100
AcDbLine
   6
CONTINUOUS
  62
2
  10
 287.00574047383
  20
 112.12331809118
  30
0.0
  11
 287.00574047383
  21
 177.12331809118
  31
0.0
   0
LINE
   5
117
 100
AcDbEntity
   8
LEVEL001
 100
AcDbLine
   6
CONTINUOUS
  62
2
  10
 287.00574047383
  20
 242.12331809118
  30
0.0
  11
 287.00574047383
  21
 177.12331809118
  31
0.0
   0
INSERT
   5
118
 100
AcDbEntity
   8
LEVEL001
   6
CONTINUOUS
  62
2
 100
AcDbBlockReference
   2
_OPEN30
  10
 287.00574047383
  20
 112.12331809118
  30
0.0
  41
 3.0000000000000
  42
 3.0000000000000
  43
 3.0000000000000
  50
 270.00000000000
   0
INSERT
   5
119
 100
AcDbEntity
   8
LEVEL001
   6
CONTINUOUS
  62
2
 100
AcDbBlockReference
   2
_OPEN30
  10
 287.00574047383
  20
 242.12331809118
  30
0.0
  41
 3.0000000000000
  42
 3.0000000000000
  43
 3.0000000000000
  50
 90.000000000000
   0
MTEXT
   5
11A
 100
AcDbEntity
   8
LEVEL001
  62
2
 100
AcDbMText
  10
 285.29145475954
  20
 177.12331809118
  30
0.0
  40
 4.0000000000000
  41
0.0
  71
8
  72
1
   1
\A1;130
   7
GMM001
  11
0.0
  21
 1.0000000000000
  31
0.0
   0
ENDBLK
   5
11B
 100
AcDbEntity
   8
0
 100
AcDbBlockEnd
   0
BLOCK
   5
11C
 100
AcDbEntity
   8
0
 100
AcDbBlockBegin
   2
*D6
  70
65
  10
0.0
  20
0.0
  30
0.0
   3
*D6
   0
LINE
   5
11D
 100
AcDbEntity
   8
LEVEL001
 100
AcDbLine
   6
CONTINUOUS
  62
2
  10
 147.53300249143
  20
 111.42331809118
  30
0.0
  11
 147.53300249143
  21
 92.263136300249
  31
0.0
   0
LINE
   5
11E
 100
AcDbEntity
   8
LEVEL001
 100
AcDbLine
   6
CONTINUOUS
  62
2
  10
 160.53300249143
  20
 105.62331809118
  30
0.0
  11
 160.53300249143
  21
 92.263136300249
  31
0.0
   0
LINE
   5
11F
 100
AcDbEntity
   8
LEVEL001
 100
AcDbLine
   6
CONTINUOUS
  62
2
  10
 147.53300249143
  20
 93.763136300249
  30
0.0
  11
 154.03300249143
  21
 93.763136300249
  31
0.0
   0
LINE
   5
120
 100
AcDbEntity
   8
LEVEL001
 100
AcDbLine
   6
CONTINUOUS
  62
2
  10
 160.53300249143
  20
 93.763136300249
  30
0.0
  11
 154.03300249143
  21
 93.763136300249
  31
0.0
   0
INSERT
   5
121
 100
AcDbEntity
   8
LEVEL001
   6
CONTINUOUS
  62
2
 100
AcDbBlockReference
   2
_OPEN30
  10
 147.53300249143
  20
 93.763136300249
  30
0.0
  41
 3.0000000000000
  42
 3.0000000000000
  43
 3.0000000000000
  50
 180.00000000000
   0
INSERT
   5
122
 100
AcDbEntity
   8
LEVEL001
   6
CONTINUOUS
  62
2
 100
AcDbBlockReference
   2
_OPEN30
  10
 160.53300249143
  20
 93.763136300249
  30
0.0
  41
 3.0000000000000
  42
 3.0000000000000
  43
 3.0000000000000
  50
0.0
   0
MTEXT
   5
123
 100
AcDbEntity
   8
LEVEL001
  62
2
 100
AcDbMText
  10
 154.03300249143
  20
 95.477422014535
  30
0.0
  40
 4.0000000000000
  41
0.0
  71
8
  72
1
   1
\A1;13
   7
GMM001
   0
ENDBLK
   5
124
 100
AcDbEntity
   8
0
 100
AcDbBlockEnd
   0
BLOCK
   5
125
 100
AcDbEntity
   8
0
 100
AcDbBlockBegin
   2
*D7
  70
65
  10
0.0
  20
0.0
  30
0.0
   3
*D7
   0
LINE
   5
126
 100
AcDbEntity
   8
LEVEL001
 100
AcDbLine
   6
CONTINUOUS
  62
2
  10
 131.53300249143
  20
 105.62331809118
  30
0.0
  11
 131.53300249143
  21
 92.263136300249
  31
0.0
   0
LINE
   5
127
 100
AcDbEntity
   8
LEVEL001
 100
AcDbLine
   6
CONTINUOUS
  62
2
  10
 144.53300249143
  20
 111.42331809118
  30
0.0
  11
 144.53300249143
  21
 92.263136300249
  31
0.0
   0
LINE
   5
128
 100
AcDbEntity
   8
LEVEL001
 100
AcDbLine
   6
CONTINUOUS
  62
2
  10
 131.53300249143
  20
 93.763136300249
  30
0.0
  11
 138.03300249143
  21
 93.763136300249
  31
0.0
   0
LINE
   5
129
 100
AcDbEntity
   8
LEVEL001
 100
AcDbLine
   6
CONTINUOUS
  62
2
  10
 144.53300249143
  20
 93.763136300249
  30
0.0
  11
 138.03300249143
  21
 93.763136300249
  31
0.0
   0
INSERT
   5
12A
 100
AcDbEntity
   8
LEVEL001
   6
CONTINUOUS
  62
2
 100
AcDbBlockReference
   2
_OPEN30
  10
 131.53300249143
  20
 93.763136300249
  30
0.0
  41
 3.0000000000000
  42
 3.0000000000000
  43
 3.0000000000000
  50
 180.00000000000
   0
INSERT
   5
12B
 100
AcDbEntity
   8
LEVEL001
   6
CONTINUOUS
  62
2
 100
AcDbBlockReference
   2
_OPEN30
  10
 144.53300249143
  20
 93.763136300249
  30
0.0
  41
 3.0000000000000
  42
 3.0000000000000
  43
 3.0000000000000
  50
0.0
   0
MTEXT
   5
12C
 100
AcDbEntity
   8
LEVEL001
  62
2
 100
AcDbMText
  10
 138.03300249143
  20
 95.477422014535
  30
0.0
  40
 4.0000000000000
  41
0.0
  71
8
  72
1
   1
\A1;13
   7
GMM001
   0
ENDBLK
   5
12D
 100
AcDbEntity
   8
0
 100
AcDbBlockEnd
   0
BLOCK
   5
12E
 100
AcDbEntity
   8
0
 100
AcDbBlockBegin
   2
*D8
  70
65
  10
0.0
  20
0.0
  30
0.0
   3
*D8
   0
LINE
   5
12F
 100
AcDbEntity
   8
LEVEL001
 100
AcDbLine
   6
CONTINUOUS
  62
2
  10
 131.53300249143
  20
 83.205030130952
  30
0.0
  11
 146.03300249143
  21
 83.205030130952
  31
0.0
   0
LINE
   5
130
 100
AcDbEntity
   8
LEVEL001
 100
AcDbLine
   6
CONTINUOUS
  62
2
  10
 160.53300249143
  20
 83.205030130952
  30
0.0
  11
 146.03300249143
  21
 83.205030130952
  31
0.0
   0
INSERT
   5
131
 100
AcDbEntity
   8
LEVEL001
   6
CONTINUOUS
  62
2
 100
AcDbBlockReference
   2
_OPEN30
  10
 131.53300249143
  20
 83.205030130952
  30
0.0
  41
 3.0000000000000
  42
 3.0000000000000
  43
 3.0000000000000
  50
 180.00000000000
   0
INSERT
   5
132
 100
AcDbEntity
   8
LEVEL001
   6
CONTINUOUS
  62
2
 100
AcDbBlockReference
   2
_OPEN30
  10
 160.53300249143
  20
 83.205030130952
  30
0.0
  41
 3.0000000000000
  42
 3.0000000000000
  43
 3.0000000000000
  50
0.0
   0
MTEXT
   5
133
 100
AcDbEntity
   8
LEVEL001
  62
2
 100
AcDbMText
  10
 146.03300249143
  20
 84.919315845237
  30
0.0
  40
 4.0000000000000
  41
0.0
  71
8
  72
1
   1
\A1;27～34
   7
GMM001
   0
ENDBLK
   5
134
 100
AcDbEntity
   8
0
 100
AcDbBlockEnd
   0
BLOCK
   5
135
 100
AcDbEntity
   8
0
 100
AcDbBlockBegin
   2
*D9
  70
65
  10
0.0
  20
0.0
  30
0.0
   3
*D9
   0
LINE
   5
136
 100
AcDbEntity
   8
LEVEL001
 100
AcDbLine
   6
CONTINUOUS
  62
2
  10
 130.03300249143
  20
 105.62331809118
  30
0.0
  11
 130.03300249143
  21
 81.705030130952
  31
0.0
   0
LINE
   5
137
 100
AcDbEntity
   8
LEVEL001
 100
AcDbLine
   6
CONTINUOUS
  62
2
  10
 131.53300249143
  20
 90.763136300249
  30
0.0
  11
 131.53300249143
  21
 81.705030130952
  31
0.0
   0
LINE
   5
138
 100
AcDbEntity
   8
LEVEL001
 100
AcDbLine
   6
CONTINUOUS
  62
2
  10
 118.58644581998
  20
 83.205030130952
  30
0.0
  11
 130.78300249143
  21
 83.205030130952
  31
0.0
   0
LINE
   5
139
 100
AcDbEntity
   8
LEVEL001
 100
AcDbLine
   6
CONTINUOUS
  62
2
  10
 135.28300249143
  20
 83.205030130952
  30
0.0
  11
 130.78300249143
  21
 83.205030130952
  31
0.0
   0
INSERT
   5
13A
 100
AcDbEntity
   8
LEVEL001
   6
CONTINUOUS
  62
2
 100
AcDbBlockReference
   2
_OPEN30
  10
 130.03300249143
  20
 83.205030130952
  30
0.0
  41
 3.0000000000000
  42
 3.0000000000000
  43
 3.0000000000000
  50
0.0
   0
INSERT
   5
13B
 100
AcDbEntity
   8
LEVEL001
   6
CONTINUOUS
  62
2
 100
AcDbBlockReference
   2
_OPEN30
  10
 131.53300249143
  20
 83.205030130952
  30
0.0
  41
 3.0000000000000
  42
 3.0000000000000
  43
 3.0000000000000
  50
 180.00000000000
   0
MTEXT
   5
13C
 100
AcDbEntity
   8
LEVEL001
  62
2
 100
AcDbMText
  10
 123.58644581998
  20
 84.919315845237
  30
0.0
  40
 4.0000000000000
  41
0.0
  71
8
  72
1
   1
\A1;1.5
   7
GMM001
   0
ENDBLK
   5
13D
 100
AcDbEntity
   8
0
 100
AcDbBlockEnd
   0
BLOCK
   5
13E
 100
AcDbEntity
   8
0
 100
AcDbBlockBegin
   2
*D10
  70
65
  10
0.0
  20
0.0
  30
0.0
   3
*D10
   0
LINE
   5
13F
 100
AcDbEntity
   8
LEVEL001
 100
AcDbLine
   6
CONTINUOUS
  62
2
  10
 162.03300249143
  20
 105.62331809118
  30
0.0
  11
 162.03300249143
  21
 81.705030130952
  31
0.0
   0
LINE
   5
140
 100
AcDbEntity
   8
LEVEL001
 100
AcDbLine
   6
CONTINUOUS
  62
2
  10
 160.53300249143
  20
 90.763136300249
  30
0.0
  11
 160.53300249143
  21
 81.705030130952
  31
0.0
   0
LINE
   5
141
 100
AcDbEntity
   8
LEVEL001
 100
AcDbLine
   6
CONTINUOUS
  62
2
  10
 174.48960220449
  20
 83.205030130952
  30
0.0
  11
 161.28300249143
  21
 83.205030130952
  31
0.0
   0
LINE
   5
142
 100
AcDbEntity
   8
LEVEL001
 100
AcDbLine
   6
CONTINUOUS
  62
2
  10
 156.78300249143
  20
 83.205030130952
  30
0.0
  11
 161.28300249143
  21
 83.205030130952
  31
0.0
   0
INSERT
   5
143
 100
AcDbEntity
   8
LEVEL001
   6
CONTINUOUS
  62
2
 100
AcDbBlockReference
   2
_OPEN30
  10
 162.03300249143
  20
 83.205030130952
  30
0.0
  41
 3.0000000000000
  42
 3.0000000000000
  43
 3.0000000000000
  50
 180.00000000000
   0
INSERT
   5
144
 100
AcDbEntity
   8
LEVEL001
   6
CONTINUOUS
  62
2
 100
AcDbBlockReference
   2
_OPEN30
  10
 160.53300249143
  20
 83.205030130952
  30
0.0
  41
 3.0000000000000
  42
 3.0000000000000
  43
 3.0000000000000
  50
0.0
   0
MTEXT
   5
145
 100
AcDbEntity
   8
LEVEL001
  62
2
 100
AcDbMText
  10
 169.48960220449
  20
 84.919315845237
  30
0.0
  40
 4.0000000000000
  41
0.0
  71
8
  72
1
   1
\A1;1.5
   7
GMM001
   0
ENDBLK
   5
146
 100
AcDbEntity
   8
0
 100
AcDbBlockEnd
   0
BLOCK
   5
147
 100
AcDbEntity
   8
0
 100
AcDbBlockBegin
   2
*D11
  70
65
  10
0.0
  20
0.0
  30
0.0
   3
*D11
   0
LINE
   5
148
 100
AcDbEntity
   8
LEVEL001
 100
AcDbLine
   6
CONTINUOUS
  62
2
  10
 130.03300249143
  20
 248.62331809118
  30
0.0
  11
 130.03300249143
  21
 258.80290506528
  31
0.0
   0
LINE
   5
149
 100
AcDbEntity
   8
LEVEL001
 100
AcDbLine
   6
CONTINUOUS
  62
2
  10
 144.53300249143
  20
 242.82331809118
  30
0.0
  11
 144.53300249143
  21
 258.80290506528
  31
0.0
   0
LINE
   5
14A
 100
AcDbEntity
   8
LEVEL001
 100
AcDbLine
   6
CONTINUOUS
  62
2
  10
 130.03300249143
  20
 257.30290506528
  30
0.0
  11
 137.28300249143
  21
 257.30290506528
  31
0.0
   0
LINE
   5
14B
 100
AcDbEntity
   8
LEVEL001
 100
AcDbLine
   6
CONTINUOUS
  62
2
  10
 144.53300249143
  20
 257.30290506528
  30
0.0
  11
 137.28300249143
  21
 257.30290506528
  31
0.0
   0
INSERT
   5
14C
 100
AcDbEntity
   8
LEVEL001
   6
CONTINUOUS
  62
2
 100
AcDbBlockReference
   2
_OPEN30
  10
 130.03300249143
  20
 257.30290506528
  30
0.0
  41
 3.0000000000000
  42
 3.0000000000000
  43
 3.0000000000000
  50
 180.00000000000
   0
INSERT
   5
14D
 100
AcDbEntity
   8
LEVEL001
   6
CONTINUOUS
  62
2
 100
AcDbBlockReference
   2
_OPEN30
  10
 144.53300249143
  20
 257.30290506528
  30
0.0
  41
 3.0000000000000
  42
 3.0000000000000
  43
 3.0000000000000
  50
0.0
   0
MTEXT
   5
14E
 100
AcDbEntity
   8
LEVEL001
  62
2
 100
AcDbMText
  10
 137.28300249143
  20
 259.01719077957
  30
0.0
  40
 4.0000000000000
  41
0.0
  71
8
  72
1
   1
\A1;14.5
   7
GMM001
   0
ENDBLK
   5
14F
 100
AcDbEntity
   8
0
 100
AcDbBlockEnd
   0
BLOCK
   5
150
 100
AcDbEntity
   8
0
 100
AcDbBlockBegin
   2
*D12
  70
65
  10
0.0
  20
0.0
  30
0.0
   3
*D12
   0
LINE
   5
151
 100
AcDbEntity
   8
LEVEL001
 100
AcDbLine
   6
CONTINUOUS
  62
2
  10
 147.53300249143
  20
 242.82331809118
  30
0.0
  11
 147.53300249143
  21
 258.80290506528
  31
0.0
   0
LINE
   5
152
 100
AcDbEntity
   8
LEVEL001
 100
AcDbLine
   6
CONTINUOUS
  62
2
  10
 162.03300249143
  20
 248.62331809117
  30
0.0
  11
 162.03300249143
  21
 258.80290506528
  31
0.0
   0
LINE
   5
153
 100
AcDbEntity
   8
LEVEL001
 100
AcDbLine
   6
CONTINUOUS
  62
2
  10
 147.53300249143
  20
 257.30290506528
  30
0.0
  11
 154.78300249143
  21
 257.30290506528
  31
0.0
   0
LINE
   5
154
 100
AcDbEntity
   8
LEVEL001
 100
AcDbLine
   6
CONTINUOUS
  62
2
  10
 162.03300249143
  20
 257.30290506528
  30
0.0
  11
 154.78300249143
  21
 257.30290506528
  31
0.0
   0
INSERT
   5
155
 100
AcDbEntity
   8
LEVEL001
   6
CONTINUOUS
  62
2
 100
AcDbBlockReference
   2
_OPEN30
  10
 147.53300249143
  20
 257.30290506528
  30
0.0
  41
 3.0000000000000
  42
 3.0000000000000
  43
 3.0000000000000
  50
 180.00000000000
   0
INSERT
   5
156
 100
AcDbEntity
   8
LEVEL001
   6
CONTINUOUS
  62
2
 100
AcDbBlockReference
   2
_OPEN30
  10
 162.03300249143
  20
 257.30290506528
  30
0.0
  41
 3.0000000000000
  42
 3.0000000000000
  43
 3.0000000000000
  50
0.0
   0
MTEXT
   5
157
 100
AcDbEntity
   8
LEVEL001
  62
2
 100
AcDbMText
  10
 154.78300249143
  20
 259.01719077957
  30
0.0
  40
 4.0000000000000
  41
0.0
  71
8
  72
1
   1
\A1;14.5
   7
GMM001
   0
ENDBLK
   5
158
 100
AcDbEntity
   8
0
 100
AcDbBlockEnd
   0
BLOCK
   5
159
 100
AcDbEntity
   8
0
 100
AcDbBlockBegin
   2
*D13
  70
65
  10
0.0
  20
0.0
  30
0.0
   3
*D13
   0
POLYLINE
   5
15A
 100
AcDbEntity
   8
LEVEL001
   6
CONTINUOUS
  62
2
 100
AcDb2dPolyline
  66
1
  10
0.0
  20
0.0
  30
0.0
  70
0
   0
VERTEX
   5
15B
 100
AcDbEntity
   8
LEVEL001
   6
CONTINUOUS
  62
2
 100
AcDbVertex
 100
AcDb2dVertex
  10
 70.322466884293
  20
 238.37331809118
  30
0.0
   0
VERTEX
   5
15C
 100
AcDbEntity
   8
LEVEL001
   6
CONTINUOUS
  62
2
 100
AcDbVertex
 100
AcDb2dVertex
  10
 80.156678339866
  20
 256.45623582242
  30
0.0
   0
VERTEX
   5
15D
 100
AcDbEntity
   8
LEVEL001
   6
CONTINUOUS
  62
2
 100
AcDbVertex
 100
AcDb2dVertex
  10
 108.15667833987
  20
 256.45623582242
  30
0.0
   0
SEQEND
   5
15E
 100
AcDbEntity
   8
LEVEL001
   6
CONTINUOUS
  62
2
   0
INSERT
   5
15F
 100
AcDbEntity
   8
LEVEL001
   6
CONTINUOUS
  62
2
 100
AcDbBlockReference
   2
_OPEN30
  10
 70.322466884293
  20
 238.37331809118
  30
0.0
  41
 3.0000000000000
  42
 3.0000000000000
  43
 3.0000000000000
  50
 241.46088981681
   0
MTEXT
   5
160
 100
AcDbEntity
   8
LEVEL001
  62
2
 100
AcDbMText
  10
 80.156678339866
  20
 258.17052153671
  30
0.0
  40
 4.0000000000000
  41
0.0
  71
7
  72
1
   1
\A1;２－Ｍ４タップ
   7
GMM001
   0
ENDBLK
   5
161
 100
AcDbEntity
   8
0
 100
AcDbBlockEnd
   0
BLOCK
   5
162
 100
AcDbEntity
   8
0
 100
AcDbBlockBegin
   2
*D14
  70
65
  10
0.0
  20
0.0
  30
0.0
   3
*D14
   0
LINE
   5
163
 100
AcDbEntity
   8
LEVEL001
 100
AcDbLine
   6
CONTINUOUS
  62
2
  10
 63.646710419086
  20
 238.37331809118
  30
0.0
  11
 37.674921936484
  21
 238.37331809118
  31
0.0
   0
LINE
   5
164
 100
AcDbEntity
   8
LEVEL001
 100
AcDbLine
   6
CONTINUOUS
  62
2
  10
 63.646710419086
  20
 115.87331809118
  30
0.0
  11
 37.674921936484
  21
 115.87331809118
  31
0.0
   0
LINE
   5
165
 100
AcDbEntity
   8
LEVEL001
 100
AcDbLine
   6
CONTINUOUS
  62
2
  10
 39.174921936484
  20
 238.37331809118
  30
0.0
  11
 39.174921936484
  21
 177.12331809118
  31
0.0
   0
LINE
   5
166
 100
AcDbEntity
   8
LEVEL001
 100
AcDbLine
   6
CONTINUOUS
  62
2
  10
 39.174921936484
  20
 115.87331809118
  30
0.0
  11
 39.174921936484
  21
 177.12331809118
  31
0.0
   0
INSERT
   5
167
 100
AcDbEntity
   8
LEVEL001
   6
CONTINUOUS
  62
2
 100
AcDbBlockReference
   2
_OPEN30
  10
 39.174921936484
  20
 238.37331809118
  30
0.0
  41
 3.0000000000000
  42
 3.0000000000000
  43
 3.0000000000000
  50
 90.000000000000
   0
INSERT
   5
168
 100
AcDbEntity
   8
LEVEL001
   6
CONTINUOUS
  62
2
 100
AcDbBlockReference
   2
_OPEN30
  10
 39.174921936484
  20
 115.87331809118
  30
0.0
  41
 3.0000000000000
  42
 3.0000000000000
  43
 3.0000000000000
  50
 270.00000000000
   0
MTEXT
   5
169
 100
AcDbEntity
   8
LEVEL001
  62
2
 100
AcDbMText
  10
 37.460636222198
  20
 177.12331809118
  30
0.0
  40
 4.0000000000000
  41
0.0
  71
8
  72
1
   1
\A1;122.5
   7
GMM001
  11
0.0
  21
 1.0000000000000
  31
0.0
   0
ENDBLK
   5
16A
 100
AcDbEntity
   8
0
 100
AcDbBlockEnd
   0
BLOCK
   5
16B
 100
AcDbEntity
   8
0
 100
AcDbBlockBegin
   2
*D15
  70
65
  10
0.0
  20
0.0
  30
0.0
   3
*D15
   0
LINE
   5
16C
 100
AcDbEntity
   8
LEVEL001
 100
AcDbLine
   6
CONTINUOUS
  62
2
  10
 57.322466884293
  20
 129.01463803379
  30
0.0
  11
 57.322466884293
  21
 92.263136300249
  31
0.0
   0
LINE
   5
16D
 100
AcDbEntity
   8
LEVEL001
 100
AcDbLine
   6
CONTINUOUS
  62
2
  10
 83.322466884293
  20
 129.01463803379
  30
0.0
  11
 83.322466884293
  21
 92.263136300249
  31
0.0
   0
LINE
   5
16E
 100
AcDbEntity
   8
LEVEL001
 100
AcDbLine
   6
CONTINUOUS
  62
2
  10
 57.322466884293
  20
 93.763136300249
  30
0.0
  11
 70.322466884293
  21
 93.763136300249
  31
0.0
   0
LINE
   5
16F
 100
AcDbEntity
   8
LEVEL001
 100
AcDbLine
   6
CONTINUOUS
  62
2
  10
 83.322466884293
  20
 93.763136300249
  30
0.0
  11
 70.322466884293
  21
 93.763136300249
  31
0.0
   0
INSERT
   5
170
 100
AcDbEntity
   8
LEVEL001
   6
CONTINUOUS
  62
2
 100
AcDbBlockReference
   2
_OPEN30
  10
 57.322466884293
  20
 93.763136300249
  30
0.0
  41
 3.0000000000000
  42
 3.0000000000000
  43
 3.0000000000000
  50
 180.00000000000
   0
INSERT
   5
171
 100
AcDbEntity
   8
LEVEL001
   6
CONTINUOUS
  62
2
 100
AcDbBlockReference
   2
_OPEN30
  10
 83.322466884293
  20
 93.763136300249
  30
0.0
  41
 3.0000000000000
  42
 3.0000000000000
  43
 3.0000000000000
  50
0.0
   0
MTEXT
   5
172
 100
AcDbEntity
   8
LEVEL001
  62
2
 100
AcDbMText
  10
 70.322466884293
  20
 95.477422014535
  30
0.0
  40
 4.0000000000000
  41
0.0
  71
8
  72
1
   1
\A1;(26)
   7
GMM001
   0
ENDBLK
   5
173
 100
AcDbEntity
   8
0
 100
AcDbBlockEnd
   0
BLOCK
   5
174
 100
AcDbEntity
   8
0
 100
AcDbBlockBegin
   2
*D16
  70
65
  10
0.0
  20
0.0
  30
0.0
   3
*D16
   0
LINE
   5
175
 100
AcDbEntity
   8
LEVEL001
 100
AcDbLine
   6
CONTINUOUS
  62
2
  10
 50.322466884293
  20
 120.62092689079
  30
0.0
  11
 50.322466884293
  21
 81.705030130952
  31
0.0
   0
LINE
   5
176
 100
AcDbEntity
   8
LEVEL001
 100
AcDbLine
   6
CONTINUOUS
  62
2
  10
 90.322466884293
  20
 120.62092689079
  30
0.0
  11
 90.322466884293
  21
 81.705030130952
  31
0.0
   0
LINE
   5
177
 100
AcDbEntity
   8
LEVEL001
 100
AcDbLine
   6
CONTINUOUS
  62
2
  10
 50.322466884293
  20
 83.205030130952
  30
0.0
  11
 70.322466884293
  21
 83.205030130952
  31
0.0
   0
LINE
   5
178
 100
AcDbEntity
   8
LEVEL001
 100
AcDbLine
   6
CONTINUOUS
  62
2
  10
 90.322466884293
  20
 83.205030130952
  30
0.0
  11
 70.322466884293
  21
 83.205030130952
  31
0.0
   0
INSERT
   5
179
 100
AcDbEntity
   8
LEVEL001
   6
CONTINUOUS
  62
2
 100
AcDbBlockReference
   2
_OPEN30
  10
 50.322466884293
  20
 83.205030130952
  30
0.0
  41
 3.0000000000000
  42
 3.0000000000000
  43
 3.0000000000000
  50
 180.00000000000
   0
INSERT
   5
17A
 100
AcDbEntity
   8
LEVEL001
   6
CONTINUOUS
  62
2
 100
AcDbBlockReference
   2
_OPEN30
  10
 90.322466884293
  20
 83.205030130952
  30
0.0
  41
 3.0000000000000
  42
 3.0000000000000
  43
 3.0000000000000
  50
0.0
   0
MTEXT
   5
17B
 100
AcDbEntity
   8
LEVEL001
  62
2
 100
AcDbMText
  10
 70.322466884293
  20
 84.919315845237
  30
0.0
  40
 4.0000000000000
  41
0.0
  71
8
  72
1
   1
\A1;40
   7
GMM001
   0
ENDBLK
   5
17C
 100
AcDbEntity
   8
0
 100
AcDbBlockEnd
   0
BLOCK
   5
17D
 100
AcDbEntity
   8
0
 100
AcDbBlockBegin
   2
*D17
  70
65
  10
0.0
  20
0.0
  30
0.0
   3
*D17
   0
LINE
   5
17E
 100
AcDbEntity
   8
LEVEL001
 100
AcDbLine
   6
CONTINUOUS
  62
2
  10
 76.888166349758
  20
 107.12331809118
  30
0.0
  11
 115.23143983101
  21
 107.12331809118
  31
0.0
   0
LINE
   5
17F
 100
AcDbEntity
   8
LEVEL001
 100
AcDbLine
   6
CONTINUOUS
  62
2
  10
 76.888166349758
  20
 247.12331809118
  30
0.0
  11
 115.23143983101
  21
 247.12331809118
  31
0.0
   0
LINE
   5
180
 100
AcDbEntity
   8
LEVEL001
 100
AcDbLine
   6
CONTINUOUS
  62
2
  10
 113.73143983101
  20
 107.12331809118
  30
0.0
  11
 113.73143983101
  21
 177.12331809118
  31
0.0
   0
LINE
   5
181
 100
AcDbEntity
   8
LEVEL001
 100
AcDbLine
   6
CONTINUOUS
  62
2
  10
 113.73143983101
  20
 247.12331809118
  30
0.0
  11
 113.73143983101
  21
 177.12331809118
  31
0.0
   0
INSERT
   5
182
 100
AcDbEntity
   8
LEVEL001
   6
CONTINUOUS
  62
2
 100
AcDbBlockReference
   2
_OPEN30
  10
 113.73143983101
  20
 107.12331809118
  30
0.0
  41
 3.0000000000000
  42
 3.0000000000000
  43
 3.0000000000000
  50
 270.00000000000
   0
INSERT
   5
183
 100
AcDbEntity
   8
LEVEL001
   6
CONTINUOUS
  62
2
 100
AcDbBlockReference
   2
_OPEN30
  10
 113.73143983101
  20
 247.12331809118
  30
0.0
  41
 3.0000000000000
  42
 3.0000000000000
  43
 3.0000000000000
  50
 90.000000000000
   0
MTEXT
   5
184
 100
AcDbEntity
   8
LEVEL001
  62
2
 100
AcDbMText
  10
 112.01715411672
  20
 177.12331809118
  30
0.0
  40
 4.0000000000000
  41
0.0
  71
8
  72
1
   1
\A1;140
   7
GMM001
  11
0.0
  21
 1.0000000000000
  31
0.0
   0
ENDBLK
   5
185
 100
AcDbEntity
   8
0
 100
AcDbBlockEnd
   0
BLOCK
   5
186
 100
AcDbEntity
   8
0
 100
AcDbBlockBegin
   2
*D18
  70
65
  10
0.0
  20
0.0
  30
0.0
   3
*D18
   0
LINE
   5
187
 100
AcDbEntity
   8
LEVEL001
 100
AcDbLine
   6
CONTINUOUS
  62
2
  10
 77.591706637411
  20
 120.87331809118
  30
0.0
  11
 105.85697785110
  21
 120.87331809118
  31
0.0
   0
LINE
   5
188
 100
AcDbEntity
   8
LEVEL001
 100
AcDbLine
   6
CONTINUOUS
  62
2
  10
 77.591706637411
  20
 233.37331809118
  30
0.0
  11
 105.85697785110
  21
 233.37331809118
  31
0.0
   0
LINE
   5
189
 100
AcDbEntity
   8
LEVEL001
 100
AcDbLine
   6
CONTINUOUS
  62
2
  10
 104.35697785110
  20
 120.87331809118
  30
0.0
  11
 104.35697785110
  21
 177.12331809118
  31
0.0
   0
LINE
   5
18A
 100
AcDbEntity
   8
LEVEL001
 100
AcDbLine
   6
CONTINUOUS
  62
2
  10
 104.35697785110
  20
 233.37331809118
  30
0.0
  11
 104.35697785110
  21
 177.12331809118
  31
0.0
   0
INSERT
   5
18B
 100
AcDbEntity
   8
LEVEL001
   6
CONTINUOUS
  62
2
 100
AcDbBlockReference
   2
_OPEN30
  10
 104.35697785110
  20
 120.87331809118
  30
0.0
  41
 3.0000000000000
  42
 3.0000000000000
  43
 3.0000000000000
  50
 270.00000000000
   0
INSERT
   5
18C
 100
AcDbEntity
   8
LEVEL001
   6
CONTINUOUS
  62
2
 100
AcDbBlockReference
   2
_OPEN30
  10
 104.35697785110
  20
 233.37331809118
  30
0.0
  41
 3.0000000000000
  42
 3.0000000000000
  43
 3.0000000000000
  50
 90.000000000000
   0
MTEXT
   5
18D
 100
AcDbEntity
   8
LEVEL001
  62
2
 100
AcDbMText
  10
 102.64269213681
  20
 177.12331809118
  30
0.0
  40
 4.0000000000000
  41
0.0
  71
8
  72
1
   1
\A1;(112.5)
   7
GMM001
  11
0.0
  21
 1.0000000000000
  31
0.0
   0
ENDBLK
   5
18E
 100
AcDbEntity
   8
0
 100
AcDbBlockEnd
   0
BLOCK
   5
18F
 100
AcDbEntity
   8
0
 100
AcDbBlockBegin
   2
*D19
  70
65
  10
0.0
  20
0.0
  30
0.0
   3
*D19
   0
LINE
   5
190
 100
AcDbEntity
   8
LEVEL001
 100
AcDbLine
   6
CONTINUOUS
  62
2
  10
 70.322466884293
  20
 227.12331809118
  30
0.0
  11
 64.917470606117
  21
 235.53676062280
  31
0.0
   0
LINE
   5
191
 100
AcDbEntity
   8
LEVEL001
 100
AcDbLine
   6
CONTINUOUS
  62
2
  10
 64.917470606117
  20
 235.53676062280
  30
0.0
  11
 51.353797491099
  21
 256.65003774598
  31
0.0
   0
INSERT
   5
192
 100
AcDbEntity
   8
LEVEL001
   6
CONTINUOUS
  62
2
 100
AcDbBlockReference
   2
_OPEN30
  10
 59.512474327941
  20
 243.95020315442
  30
0.0
  41
 3.0000000000000
  42
 3.0000000000000
  43
 3.0000000000000
  50
 302.71765715495
   0
MTEXT
   5
193
 100
AcDbEntity
   8
LEVEL001
  62
2
 100
AcDbMText
  10
 59.282097458902
  20
 247.48047749858
  30
0.0
  40
 4.0000000000000
  41
0.0
  71
9
  72
1
   1
\A1;R20
   7
GMM001
  11
 0.54049962781759
  21
-0.84134425316219
  31
0.0
   0
ENDBLK
   5
194
 100
AcDbEntity
   8
0
 100
AcDbBlockEnd
   0
BLOCK
   5
195
 100
AcDbEntity
   8
0
 100
AcDbBlockBegin
   2
*D20
  70
65
  10
0.0
  20
0.0
  30
0.0
   3
*D20
   0
LINE
   5
196
 100
AcDbEntity
   8
LEVEL001
 100
AcDbLine
   6
CONTINUOUS
  62
2
  10
 70.322466884293
  20
 220.37331809118
  30
0.0
  11
 64.896441588501
  21
 225.18172213924
  31
0.0
   0
LINE
   5
197
 100
AcDbEntity
   8
LEVEL001
 100
AcDbLine
   6
CONTINUOUS
  62
2
  10
 64.896441588501
  20
 225.18172213924
  30
0.0
  11
 37.738426756933
  21
 249.24845632028
  31
0.0
   0
INSERT
   5
198
 100
AcDbEntity
   8
LEVEL001
   6
CONTINUOUS
  62
2
 100
AcDbBlockReference
   2
_OPEN30
  10
 59.470416292709
  20
 229.99012618730
  30
0.0
  41
 3.0000000000000
  42
 3.0000000000000
  43
 3.0000000000000
  50
 318.45346336271
   0
MTEXT
   5
199
 100
AcDbEntity
   8
LEVEL001
  62
2
 100
AcDbMText
  10
 52.346900369674
  20
 238.59335077336
  30
0.0
  40
 4.0000000000000
  41
0.0
  71
9
  72
1
   1
\A1;R14.5
   7
GMM001
  11
 0.74841728217825
  21
-0.66322814456032
  31
0.0
   0
ENDBLK
   5
19A
 100
AcDbEntity
   8
0
 100
AcDbBlockEnd
   0
BLOCK
   5
19B
 100
AcDbEntity
   8
0
 100
AcDbBlockBegin
   2
*D21
  70
65
  10
0.0
  20
0.0
  30
0.0
   3
*D21
   0
LINE
   5
19C
 100
AcDbEntity
   8
LEVEL001
 100
AcDbLine
   6
CONTINUOUS
  62
2
  10
 208.46306622971
  20
 238.37331809118
  30
0.0
  11
 182.49127774711
  21
 238.37331809118
  31
0.0
   0
LINE
   5
19D
 100
AcDbEntity
   8
LEVEL001
 100
AcDbLine
   6
CONTINUOUS
  62
2
  10
 208.46306622971
  20
 115.87331809118
  30
0.0
  11
 182.49127774711
  21
 115.87331809118
  31
0.0
   0
LINE
   5
19E
 100
AcDbEntity
   8
LEVEL001
 100
AcDbLine
   6
CONTINUOUS
  62
2
  10
 183.99127774711
  20
 238.37331809118
  30
0.0
  11
 183.99127774711
  21
 177.12331809118
  31
0.0
   0
LINE
   5
19F
 100
AcDbEntity
   8
LEVEL001
 100
AcDbLine
   6
CONTINUOUS
  62
2
  10
 183.99127774711
  20
 115.87331809118
  30
0.0
  11
 183.99127774711
  21
 177.12331809118
  31
0.0
   0
INSERT
   5
1A0
 100
AcDbEntity
   8
LEVEL001
   6
CONTINUOUS
  62
2
 100
AcDbBlockReference
   2
_OPEN30
  10
 183.99127774711
  20
 238.37331809118
  30
0.0
  41
 3.0000000000000
  42
 3.0000000000000
  43
 3.0000000000000
  50
 90.000000000000
   0
INSERT
   5
1A1
 100
AcDbEntity
   8
LEVEL001
   6
CONTINUOUS
  62
2
 100
AcDbBlockReference
   2
_OPEN30
  10
 183.99127774711
  20
 115.87331809118
  30
0.0
  41
 3.0000000000000
  42
 3.0000000000000
  43
 3.0000000000000
  50
 270.00000000000
   0
MTEXT
   5
1A2
 100
AcDbEntity
   8
LEVEL001
  62
2
 100
AcDbMText
  10
 182.27699203282
  20
 177.12331809118
  30
0.0
  40
 4.0000000000000
  41
0.0
  71
8
  72
1
   1
\A1;122.5
   7
GMM001
  11
0.0
  21
 1.0000000000000
  31
0.0
   0
ENDBLK
   5
1A3
 100
AcDbEntity
   8
0
 100
AcDbBlockEnd
   0
BLOCK
   5
1A4
 100
AcDbEntity
   8
0
 100
AcDbBlockBegin
   2
*D22
  70
65
  10
0.0
  20
0.0
  30
0.0
   3
*D22
   0
LINE
   5
1A5
 100
AcDbEntity
   8
LEVEL001
 100
AcDbLine
   6
CONTINUOUS
  62
2
  10
 202.13882269492
  20
 129.01463803379
  30
0.0
  11
 202.13882269492
  21
 92.263136300249
  31
0.0
   0
LINE
   5
1A6
 100
AcDbEntity
   8
LEVEL001
 100
AcDbLine
   6
CONTINUOUS
  62
2
  10
 228.13882269492
  20
 129.01463803379
  30
0.0
  11
 228.13882269492
  21
 92.263136300249
  31
0.0
   0
LINE
   5
1A7
 100
AcDbEntity
   8
LEVEL001
 100
AcDbLine
   6
CONTINUOUS
  62
2
  10
 202.13882269492
  20
 93.763136300249
  30
0.0
  11
 215.13882269492
  21
 93.763136300249
  31
0.0
   0
LINE
   5
1A8
 100
AcDbEntity
   8
LEVEL001
 100
AcDbLine
   6
CONTINUOUS
  62
2
  10
 228.13882269492
  20
 93.763136300249
  30
0.0
  11
 215.13882269492
  21
 93.763136300249
  31
0.0
   0
INSERT
   5
1A9
 100
AcDbEntity
   8
LEVEL001
   6
CONTINUOUS
  62
2
 100
AcDbBlockReference
   2
_OPEN30
  10
 202.13882269492
  20
 93.763136300249
  30
0.0
  41
 3.0000000000000
  42
 3.0000000000000
  43
 3.0000000000000
  50
 180.00000000000
   0
INSERT
   5
1AA
 100
AcDbEntity
   8
LEVEL001
   6
CONTINUOUS
  62
2
 100
AcDbBlockReference
   2
_OPEN30
  10
 228.13882269492
  20
 93.763136300249
  30
0.0
  41
 3.0000000000000
  42
 3.0000000000000
  43
 3.0000000000000
  50
0.0
   0
MTEXT
   5
1AB
 100
AcDbEntity
   8
LEVEL001
  62
2
 100
AcDbMText
  10
 215.13882269492
  20
 95.477422014535
  30
0.0
  40
 4.0000000000000
  41
0.0
  71
8
  72
1
   1
\A1;(26)
   7
GMM001
   0
ENDBLK
   5
1AC
 100
AcDbEntity
   8
0
 100
AcDbBlockEnd
   0
BLOCK
   5
1AD
 100
AcDbEntity
   8
0
 100
AcDbBlockBegin
   2
*D23
  70
65
  10
0.0
  20
0.0
  30
0.0
   3
*D23
   0
LINE
   5
1AE
 100
AcDbEntity
   8
LEVEL001
 100
AcDbLine
   6
CONTINUOUS
  62
2
  10
 195.13882269492
  20
 120.62092689079
  30
0.0
  11
 195.13882269492
  21
 81.705030130952
  31
0.0
   0
LINE
   5
1AF
 100
AcDbEntity
   8
LEVEL001
 100
AcDbLine
   6
CONTINUOUS
  62
2
  10
 235.13882269492
  20
 120.62092689079
  30
0.0
  11
 235.13882269492
  21
 81.705030130952
  31
0.0
   0
LINE
   5
1B0
 100
AcDbEntity
   8
LEVEL001
 100
AcDbLine
   6
CONTINUOUS
  62
2
  10
 195.13882269492
  20
 83.205030130952
  30
0.0
  11
 215.13882269492
  21
 83.205030130952
  31
0.0
   0
LINE
   5
1B1
 100
AcDbEntity
   8
LEVEL001
 100
AcDbLine
   6
CONTINUOUS
  62
2
  10
 235.13882269492
  20
 83.205030130952
  30
0.0
  11
 215.13882269492
  21
 83.205030130952
  31
0.0
   0
INSERT
   5
1B2
 100
AcDbEntity
   8
LEVEL001
   6
CONTINUOUS
  62
2
 100
AcDbBlockReference
   2
_OPEN30
  10
 195.13882269492
  20
 83.205030130952
  30
0.0
  41
 3.0000000000000
  42
 3.0000000000000
  43
 3.0000000000000
  50
 180.00000000000
   0
INSERT
   5
1B3
 100
AcDbEntity
   8
LEVEL001
   6
CONTINUOUS
  62
2
 100
AcDbBlockReference
   2
_OPEN30
  10
 235.13882269492
  20
 83.205030130952
  30
0.0
  41
 3.0000000000000
  42
 3.0000000000000
  43
 3.0000000000000
  50
0.0
   0
MTEXT
   5
1B4
 100
AcDbEntity
   8
LEVEL001
  62
2
 100
AcDbMText
  10
 215.13882269492
  20
 84.919315845237
  30
0.0
  40
 4.0000000000000
  41
0.0
  71
8
  72
1
   1
\A1;40
   7
GMM001
   0
ENDBLK
   5
1B5
 100
AcDbEntity
   8
0
 100
AcDbBlockEnd
   0
BLOCK
   5
1B6
 100
AcDbEntity
   8
0
 100
AcDbBlockBegin
   2
*D24
  70
65
  10
0.0
  20
0.0
  30
0.0
   3
*D24
   0
LINE
   5
1B7
 100
AcDbEntity
   8
LEVEL001
 100
AcDbLine
   6
CONTINUOUS
  62
2
  10
 221.70452216038
  20
 107.12331809118
  30
0.0
  11
 260.04779564163
  21
 107.12331809118
  31
0.0
   0
LINE
   5
1B8
 100
AcDbEntity
   8
LEVEL001
 100
AcDbLine
   6
CONTINUOUS
  62
2
  10
 221.70452216038
  20
 247.12331809118
  30
0.0
  11
 260.04779564163
  21
 247.12331809118
  31
0.0
   0
LINE
   5
1B9
 100
AcDbEntity
   8
LEVEL001
 100
AcDbLine
   6
CONTINUOUS
  62
2
  10
 258.54779564163
  20
 107.12331809118
  30
0.0
  11
 258.54779564163
  21
 177.12331809118
  31
0.0
   0
LINE
   5
1BA
 100
AcDbEntity
   8
LEVEL001
 100
AcDbLine
   6
CONTINUOUS
  62
2
  10
 258.54779564163
  20
 247.12331809118
  30
0.0
  11
 258.54779564163
  21
 177.12331809118
  31
0.0
   0
INSERT
   5
1BB
 100
AcDbEntity
   8
LEVEL001
   6
CONTINUOUS
  62
2
 100
AcDbBlockReference
   2
_OPEN30
  10
 258.54779564163
  20
 107.12331809118
  30
0.0
  41
 3.0000000000000
  42
 3.0000000000000
  43
 3.0000000000000
  50
 270.00000000000
   0
INSERT
   5
1BC
 100
AcDbEntity
   8
LEVEL001
   6
CONTINUOUS
  62
2
 100
AcDbBlockReference
   2
_OPEN30
  10
 258.54779564163
  20
 247.12331809118
  30
0.0
  41
 3.0000000000000
  42
 3.0000000000000
  43
 3.0000000000000
  50
 90.000000000000
   0
MTEXT
   5
1BD
 100
AcDbEntity
   8
LEVEL001
  62
2
 100
AcDbMText
  10
 256.83350992735
  20
 177.12331809118
  30
0.0
  40
 4.0000000000000
  41
0.0
  71
8
  72
1
   1
\A1;140
   7
GMM001
  11
0.0
  21
 1.0000000000000
  31
0.0
   0
ENDBLK
   5
1BE
 100
AcDbEntity
   8
0
 100
AcDbBlockEnd
   0
BLOCK
   5
1BF
 100
AcDbEntity
   8
0
 100
AcDbBlockBegin
   2
*D25
  70
65
  10
0.0
  20
0.0
  30
0.0
   3
*D25
   0
LINE
   5
1C0
 100
AcDbEntity
   8
LEVEL001
 100
AcDbLine
   6
CONTINUOUS
  62
2
  10
 222.40806244803
  20
 120.87331809118
  30
0.0
  11
 250.67333366172
  21
 120.87331809118
  31
0.0
   0
LINE
   5
1C1
 100
AcDbEntity
   8
LEVEL001
 100
AcDbLine
   6
CONTINUOUS
  62
2
  10
 222.40806244803
  20
 233.37331809118
  30
0.0
  11
 250.67333366172
  21
 233.37331809118
  31
0.0
   0
LINE
   5
1C2
 100
AcDbEntity
   8
LEVEL001
 100
AcDbLine
   6
CONTINUOUS
  62
2
  10
 249.17333366172
  20
 120.87331809118
  30
0.0
  11
 249.17333366172
  21
 177.12331809118
  31
0.0
   0
LINE
   5
1C3
 100
AcDbEntity
   8
LEVEL001
 100
AcDbLine
   6
CONTINUOUS
  62
2
  10
 249.17333366172
  20
 233.37331809118
  30
0.0
  11
 249.17333366172
  21
 177.12331809118
  31
0.0
   0
INSERT
   5
1C4
 100
AcDbEntity
   8
LEVEL001
   6
CONTINUOUS
  62
2
 100
AcDbBlockReference
   2
_OPEN30
  10
 249.17333366172
  20
 120.87331809118
  30
0.0
  41
 3.0000000000000
  42
 3.0000000000000
  43
 3.0000000000000
  50
 270.00000000000
   0
INSERT
   5
1C5
 100
AcDbEntity
   8
LEVEL001
   6
CONTINUOUS
  62
2
 100
AcDbBlockReference
   2
_OPEN30
  10
 249.17333366172
  20
 233.37331809118
  30
0.0
  41
 3.0000000000000
  42
 3.0000000000000
  43
 3.0000000000000
  50
 90.000000000000
   0
MTEXT
   5
1C6
 100
AcDbEntity
   8
LEVEL001
  62
2
 100
AcDbMText
  10
 247.45904794743
  20
 177.12331809118
  30
0.0
  40
 4.0000000000000
  41
0.0
  71
8
  72
1
   1
\A1;(112.5)
   7
GMM001
  11
0.0
  21
 1.0000000000000
  31
0.0
   0
ENDBLK
   5
1C7
 100
AcDbEntity
   8
0
 100
AcDbBlockEnd
   0
BLOCK
   5
1C8
 100
AcDbEntity
   8
0
 100
AcDbBlockBegin
   2
*D26
  70
65
  10
0.0
  20
0.0
  30
0.0
   3
*D26
   0
LINE
   5
1C9
 100
AcDbEntity
   8
LEVEL001
 100
AcDbLine
   6
CONTINUOUS
  62
2
  10
 215.13882269492
  20
 227.12331809118
  30
0.0
  11
 209.73382641674
  21
 235.53676062280
  31
0.0
   0
LINE
   5
1CA
 100
AcDbEntity
   8
LEVEL001
 100
AcDbLine
   6
CONTINUOUS
  62
2
  10
 209.73382641674
  20
 235.53676062280
  30
0.0
  11
 196.17015330172
  21
 256.65003774598
  31
0.0
   0
INSERT
   5
1CB
 100
AcDbEntity
   8
LEVEL001
   6
CONTINUOUS
  62
2
 100
AcDbBlockReference
   2
_OPEN30
  10
 204.32883013856
  20
 243.95020315442
  30
0.0
  41
 3.0000000000000
  42
 3.0000000000000
  43
 3.0000000000000
  50
 302.71765715495
   0
MTEXT
   5
1CC
 100
AcDbEntity
   8
LEVEL001
  62
2
 100
AcDbMText
  10
 204.09845326953
  20
 247.48047749858
  30
0.0
  40
 4.0000000000000
  41
0.0
  71
9
  72
1
   1
\A1;R20
   7
GMM001
  11
 0.54049962781758
  21
-0.84134425316220
  31
0.0
   0
ENDBLK
   5
1CD
 100
AcDbEntity
   8
0
 100
AcDbBlockEnd
   0
BLOCK
   5
1CE
 100
AcDbEntity
   8
0
 100
AcDbBlockBegin
   2
*D27
  70
65
  10
0.0
  20
0.0
  30
0.0
   3
*D27
   0
LINE
   5
1CF
 100
AcDbEntity
   8
LEVEL001
 100
AcDbLine
   6
CONTINUOUS
  62
2
  10
 215.13882269492
  20
 220.37331809118
  30
0.0
  11
 209.71279739912
  21
 225.18172213924
  31
0.0
   0
LINE
   5
1D0
 100
AcDbEntity
   8
LEVEL001
 100
AcDbLine
   6
CONTINUOUS
  62
2
  10
 209.71279739912
  20
 225.18172213924
  30
0.0
  11
 182.55478256756
  21
 249.24845632028
  31
0.0
   0
INSERT
   5
1D1
 100
AcDbEntity
   8
LEVEL001
   6
CONTINUOUS
  62
2
 100
AcDbBlockReference
   2
_OPEN30
  10
 204.28677210333
  20
 229.99012618730
  30
0.0
  41
 3.0000000000000
  42
 3.0000000000000
  43
 3.0000000000000
  50
 318.45346336271
   0
MTEXT
   5
1D2
 100
AcDbEntity
   8
LEVEL001
  62
2
 100
AcDbMText
  10
 197.16325618030
  20
 238.59335077336
  30
0.0
  40
 4.0000000000000
  41
0.0
  71
9
  72
1
   1
\A1;R14.5
   7
GMM001
  11
 0.74841728217825
  21
-0.66322814456032
  31
0.0
   0
ENDBLK
   5
1D3
 100
AcDbEntity
   8
0
 100
AcDbBlockEnd
   0
BLOCK
   5
1D4
 100
AcDbEntity
   8
0
 100
AcDbBlockBegin
   2
*D28
  70
65
  10
0.0
  20
0.0
  30
0.0
   3
*D28
   0
POLYLINE
   5
1D5
 100
AcDbEntity
   8
LEVEL001
   6
CONTINUOUS
  62
2
 100
AcDb2dPolyline
  66
1
  10
0.0
  20
0.0
  30
0.0
  70
0
   0
VERTEX
   5
1D6
 100
AcDbEntity
   8
LEVEL001
   6
CONTINUOUS
  62
2
 100
AcDbVertex
 100
AcDb2dVertex
  10
 215.13882269492
  20
 238.37331809118
  30
0.0
   0
VERTEX
   5
1D7
 100
AcDbEntity
   8
LEVEL001
   6
CONTINUOUS
  62
2
 100
AcDbVertex
 100
AcDb2dVertex
  10
 224.28072382768
  20
 258.65606375535
  30
0.0
   0
VERTEX
   5
1D8
 100
AcDbEntity
   8
LEVEL001
   6
CONTINUOUS
  62
2
 100
AcDbVertex
 100
AcDb2dVertex
  10
 270.28072382768
  20
 258.65606375535
  30
0.0
   0
SEQEND
   5
1D9
 100
AcDbEntity
   8
LEVEL001
   6
CONTINUOUS
  62
2
   0
INSERT
   5
1DA
 100
AcDbEntity
   8
LEVEL001
   6
CONTINUOUS
  62
2
 100
AcDbBlockReference
   2
_OPEN30
  10
 215.13882269492
  20
 238.37331809118
  30
0.0
  41
 3.0000000000000
  42
 3.0000000000000
  43
 3.0000000000000
  50
 245.73781234504
   0
MTEXT
   5
1DB
 100
AcDbEntity
   8
LEVEL001
  62
2
 100
AcDbMText
  10
 224.28072382768
  20
 260.37034946964
  30
0.0
  40
 4.0000000000000
  41
0.0
  71
7
  72
1
   1
\A1;２－%%c４.４穴 %%c６.５皿
   7
GMM001
   0
ENDBLK
   5
1DC
 100
AcDbEntity
   8
0
 100
AcDbBlockEnd
   0
BLOCK
   5
1DD
 100
AcDbEntity
   8
0
 100
AcDbBlockBegin
   2
HATCH003
  70
64
  10
0.0
  20
0.0
  30
0.0
   3
HATCH003
   0
LINE
   5
1DE
 100
AcDbEntity
   8
LEVEL001
 100
AcDbLine
   6
CONTINUOUS
  62
2
  10
 354.59670016456
  20
-218.48046847707
  30
0.0
  11
 355.65828448389
  21
-217.41888415775
  31
0.0
   0
LINE
   5
1DF
 100
AcDbEntity
   8
LEVEL001
 100
AcDbLine
   6
CONTINUOUS
  62
2
  10
 354.59670016456
  20
-222.72310915707
  30
0.0
  11
 359.90092516389
  21
-217.41888415775
  31
0.0
   0
LINE
   5
1E0
 100
AcDbEntity
   8
LEVEL001
 100
AcDbLine
   6
CONTINUOUS
  62
2
  10
 354.59670016456
  20
-226.96574983707
  30
0.0
  11
 364.14356584389
  21
-217.41888415775
  31
0.0
   0
LINE
   5
1E1
 100
AcDbEntity
   8
LEVEL001
 100
AcDbLine
   6
CONTINUOUS
  62
2
  10
 354.59670016456
  20
-231.20839051707
  30
0.0
  11
 368.38620652389
  21
-217.41888415775
  31
0.0
   0
LINE
   5
1E2
 100
AcDbEntity
   8
LEVEL001
 100
AcDbLine
   6
CONTINUOUS
  62
2
  10
 358.04478676421
  20
-232.00294459743
  30
0.0
  11
 372.62884720389
  21
-217.41888415775
  31
0.0
   0
LINE
   5
1E3
 100
AcDbEntity
   8
LEVEL001
 100
AcDbLine
   6
CONTINUOUS
  62
2
  10
 362.28742744421
  20
-232.00294459743
  30
0.0
  11
 376.87148788389
  21
-217.41888415775
  31
0.0
   0
LINE
   5
1E4
 100
AcDbEntity
   8
LEVEL001
 100
AcDbLine
   6
CONTINUOUS
  62
2
  10
 366.53006812421
  20
-232.00294459743
  30
0.0
  11
 381.11412856389
  21
-217.41888415775
  31
0.0
   0
LINE
   5
1E5
 100
AcDbEntity
   8
LEVEL001
 100
AcDbLine
   6
CONTINUOUS
  62
2
  10
 370.77270880421
  20
-232.00294459743
  30
0.0
  11
 385.35676924389
  21
-217.41888415775
  31
0.0
   0
LINE
   5
1E6
 100
AcDbEntity
   8
LEVEL001
 100
AcDbLine
   6
CONTINUOUS
  62
2
  10
 375.01534948421
  20
-232.00294459743
  30
0.0
  11
 387.59670016456
  21
-219.42159391707
  31
0.0
   0
LINE
   5
1E7
 100
AcDbEntity
   8
LEVEL001
 100
AcDbLine
   6
CONTINUOUS
  62
2
  10
 379.25799016421
  20
-232.00294459743
  30
0.0
  11
 387.59670016456
  21
-223.66423459707
  31
0.0
   0
LINE
   5
1E8
 100
AcDbEntity
   8
LEVEL001
 100
AcDbLine
   6
CONTINUOUS
  62
2
  10
 383.50063084421
  20
-232.00294459743
  30
0.0
  11
 387.59670016456
  21
-227.90687527707
  31
0.0
   0
ENDBLK
   5
1E9
 100
AcDbEntity
   8
0
 100
AcDbBlockEnd
   0
BLOCK
   5
1EA
 100
AcDbEntity
   8
0
 100
AcDbBlockBegin
   2
HATCH004
  70
64
  10
0.0
  20
0.0
  30
0.0
   3
HATCH004
   0
LINE
   5
1EB
 100
AcDbEntity
   8
LEVEL001
 100
AcDbLine
   6
CONTINUOUS
  62
2
  10
 354.59670016456
  20
-78.473326037073
  30
0.0
  11
 358.52590016450
  21
-74.544126037133
  31
0.0
   0
LINE
   5
1EC
 100
AcDbEntity
   8
LEVEL001
 100
AcDbLine
   6
CONTINUOUS
  62
2
  10
 354.59670016456
  20
-82.715966717073
  30
0.0
  11
 362.76854084450
  21
-74.544126037133
  31
0.0
   0
LINE
   5
1ED
 100
AcDbEntity
   8
LEVEL001
 100
AcDbLine
   6
CONTINUOUS
  62
2
  10
 354.59670016456
  20
-86.958607397073
  30
0.0
  11
 367.01118152450
  21
-74.544126037133
  31
0.0
   0
LINE
   5
1EE
 100
AcDbEntity
   8
LEVEL001
 100
AcDbLine
   6
CONTINUOUS
  62
2
  10
 358.37906408389
  20
-87.418884157749
  30
0.0
  11
 371.25382220450
  21
-74.544126037133
  31
0.0
   0
LINE
   5
1EF
 100
AcDbEntity
   8
LEVEL001
 100
AcDbLine
   6
CONTINUOUS
  62
2
  10
 362.62170476389
  20
-87.418884157749
  30
0.0
  11
 375.49646288450
  21
-74.544126037133
  31
0.0
   0
LINE
   5
1F0
 100
AcDbEntity
   8
LEVEL001
 100
AcDbLine
   6
CONTINUOUS
  62
2
  10
 366.86434544389
  20
-87.418884157749
  30
0.0
  11
 379.73910356450
  21
-74.544126037133
  31
0.0
   0
LINE
   5
1F1
 100
AcDbEntity
   8
LEVEL001
 100
AcDbLine
   6
CONTINUOUS
  62
2
  10
 371.10698612389
  20
-87.418884157749
  30
0.0
  11
 383.98174424450
  21
-74.544126037133
  31
0.0
   0
LINE
   5
1F2
 100
AcDbEntity
   8
LEVEL001
 100
AcDbLine
   6
CONTINUOUS
  62
2
  10
 375.34962680389
  20
-87.418884157749
  30
0.0
  11
 387.59670016456
  21
-75.171810797073
  31
0.0
   0
LINE
   5
1F3
 100
AcDbEntity
   8
LEVEL001
 100
AcDbLine
   6
CONTINUOUS
  62
2
  10
 379.59226748389
  20
-87.418884157749
  30
0.0
  11
 387.59670016456
  21
-79.414451477073
  31
0.0
   0
LINE
   5
1F4
 100
AcDbEntity
   8
LEVEL001
 100
AcDbLine
   6
CONTINUOUS
  62
2
  10
 383.83490816389
  20
-87.418884157749
  30
0.0
  11
 387.59670016456
  21
-83.657092157073
  31
0.0
   0
ENDBLK
   5
1F5
 100
AcDbEntity
   8
0
 100
AcDbBlockEnd
   0
BLOCK
   5
1F6
 100
AcDbEntity
   8
0
 100
AcDbBlockBegin
   2
*D29
  70
65
  10
0.0
  20
0.0
  30
0.0
   3
*D29
   0
LINE
   5
1F7
 100
AcDbEntity
   8
LEVEL001
 100
AcDbLine
   6
CONTINUOUS
  62
2
  10
 354.59670016456
  20
-233.50294459743
  30
0.0
  11
 354.59670016456
  21
-245.09020565370
  31
0.0
   0
LINE
   5
1F8
 100
AcDbEntity
   8
LEVEL001
 100
AcDbLine
   6
CONTINUOUS
  62
2
  10
 387.59670016456
  20
-233.63663590231
  30
0.0
  11
 387.59670016456
  21
-245.09020565370
  31
0.0
   0
LINE
   5
1F9
 100
AcDbEntity
   8
LEVEL001
 100
AcDbLine
   6
CONTINUOUS
  62
2
  10
 354.59670016456
  20
-243.59020565370
  30
0.0
  11
 371.09670016456
  21
-243.59020565370
  31
0.0
   0
LINE
   5
1FA
 100
AcDbEntity
   8
LEVEL001
 100
AcDbLine
   6
CONTINUOUS
  62
2
  10
 387.59670016456
  20
-243.59020565370
  30
0.0
  11
 371.09670016456
  21
-243.59020565370
  31
0.0
   0
INSERT
   5
1FB
 100
AcDbEntity
   8
LEVEL001
   6
CONTINUOUS
  62
2
 100
AcDbBlockReference
   2
_OPEN30
  10
 354.59670016456
  20
-243.59020565370
  30
0.0
  41
 3.0000000000000
  42
 3.0000000000000
  43
 3.0000000000000
  50
 180.00000000000
   0
INSERT
   5
1FC
 100
AcDbEntity
   8
LEVEL001
   6
CONTINUOUS
  62
2
 100
AcDbBlockReference
   2
_OPEN30
  10
 387.59670016456
  20
-243.59020565370
  30
0.0
  41
 3.0000000000000
  42
 3.0000000000000
  43
 3.0000000000000
  50
0.0
   0
MTEXT
   5
1FD
 100
AcDbEntity
   8
LEVEL001
  62
2
 100
AcDbMText
  10
 371.09670016456
  20
-241.87591993942
  30
0.0
  40
 4.0000000000000
  41
0.0
  71
8
  72
1
   1
\A1;扉厚:27～34
   7
GMM001
   0
ENDBLK
   5
1FE
 100
AcDbEntity
   8
0
 100
AcDbBlockEnd
   0
BLOCK
   5
1FF
 100
AcDbEntity
   8
0
 100
AcDbBlockBegin
   2
*D30
  70
65
  10
0.0
  20
0.0
  30
0.0
   3
*D30
   0
LINE
   5
200
 100
AcDbEntity
   8
LEVEL001
 100
AcDbLine
   6
CONTINUOUS
  62
2
  10
 304.34653765021
  20
-218.91888415775
  30
0.0
  11
 304.34653765021
  21
-236.47456473663
  31
0.0
   0
LINE
   5
201
 100
AcDbEntity
   8
LEVEL001
 100
AcDbLine
   6
CONTINUOUS
  62
2
  10
 334.34653765021
  20
-218.91888415775
  30
0.0
  11
 334.34653765021
  21
-236.47456473663
  31
0.0
   0
LINE
   5
202
 100
AcDbEntity
   8
LEVEL001
 100
AcDbLine
   6
CONTINUOUS
  62
2
  10
 304.34653765021
  20
-234.97456473663
  30
0.0
  11
 319.34653765021
  21
-234.97456473663
  31
0.0
   0
LINE
   5
203
 100
AcDbEntity
   8
LEVEL001
 100
AcDbLine
   6
CONTINUOUS
  62
2
  10
 334.34653765021
  20
-234.97456473663
  30
0.0
  11
 319.34653765021
  21
-234.97456473663
  31
0.0
   0
INSERT
   5
204
 100
AcDbEntity
   8
LEVEL001
   6
CONTINUOUS
  62
2
 100
AcDbBlockReference
   2
_OPEN30
  10
 304.34653765021
  20
-234.97456473663
  30
0.0
  41
 3.0000000000000
  42
 3.0000000000000
  43
 3.0000000000000
  50
 180.00000000000
   0
INSERT
   5
205
 100
AcDbEntity
   8
LEVEL001
   6
CONTINUOUS
  62
2
 100
AcDbBlockReference
   2
_OPEN30
  10
 334.34653765021
  20
-234.97456473663
  30
0.0
  41
 3.0000000000000
  42
 3.0000000000000
  43
 3.0000000000000
  50
0.0
   0
MTEXT
   5
206
 100
AcDbEntity
   8
LEVEL001
  62
2
 100
AcDbMText
  10
 319.34653765021
  20
-233.26027902235
  30
0.0
  40
 4.0000000000000
  41
0.0
  71
8
  72
1
   1
\A1;30
   7
GMM001
   0
ENDBLK
   5
207
 100
AcDbEntity
   8
0
 100
AcDbBlockEnd
   0
BLOCK
   5
208
 100
AcDbEntity
   8
0
 100
AcDbBlockBegin
   2
*D31
  70
65
  10
0.0
  20
0.0
  30
0.0
   3
*D31
   0
LINE
   5
209
 100
AcDbEntity
   8
LEVEL001
 100
AcDbLine
   6
CONTINUOUS
  62
2
  10
 319.34653765021
  20
-102.41888415775
  30
0.0
  11
 315.17426993884
  21
-96.186534508964
  31
0.0
   0
LINE
   5
20A
 100
AcDbEntity
   8
LEVEL001
 100
AcDbLine
   6
CONTINUOUS
  62
2
  10
 315.17426993884
  20
-96.186534508964
  30
0.0
  11
 302.32973608676
  21
-76.999935858114
  31
0.0
   0
INSERT
   5
20B
 100
AcDbEntity
   8
LEVEL001
   6
CONTINUOUS
  62
2
 100
AcDbBlockReference
   2
_OPEN30
  10
 311.00200222748
  20
-89.954184860179
  30
0.0
  41
 3.0000000000000
  42
 3.0000000000000
  43
 3.0000000000000
  50
 303.80046513412
   0
MTEXT
   5
20C
 100
AcDbEntity
   8
LEVEL001
  62
2
 100
AcDbMText
  10
 310.42990148752
  20
-86.018034105002
  30
0.0
  40
 4.0000000000000
  41
0.0
  71
9
  72
1
   1
\A1;R15
   7
GMM001
  11
 0.55630236151518
  21
-0.83097995317134
  31
0.0
   0
ENDBLK
   5
20D
 100
AcDbEntity
   8
0
 100
AcDbBlockEnd
   0
BLOCK
   5
20E
 100
AcDbEntity
   8
0
 100
AcDbBlockBegin
   2
*D32
  70
65
  10
0.0
  20
0.0
  30
0.0
   3
*D32
   0
LINE
   5
20F
 100
AcDbEntity
   8
LEVEL001
 100
AcDbLine
   6
CONTINUOUS
  62
2
  10
 319.34653765021
  20
-202.41888415775
  30
0.0
  11
 323.93452182093
  21
-208.35187676260
  31
0.0
   0
LINE
   5
210
 100
AcDbEntity
   8
LEVEL001
 100
AcDbLine
   6
CONTINUOUS
  62
2
  10
 323.93452182093
  20
-208.35187676260
  30
0.0
  11
 342.19692819423
  21
-231.96807026450
  31
0.0
   0
INSERT
   5
211
 100
AcDbEntity
   8
LEVEL001
   6
CONTINUOUS
  62
2
 100
AcDbBlockReference
   2
_OPEN30
  10
 328.52250599166
  20
-214.28486936745
  30
0.0
  41
 3.0000000000000
  42
 3.0000000000000
  43
 3.0000000000000
  50
 127.71478718273
   0
MTEXT
   5
212
 100
AcDbEntity
   8
LEVEL001
  62
2
 100
AcDbMText
  10
 336.21226611646
  20
-221.42660000058
  30
0.0
  40
 4.0000000000000
  41
0.0
  71
7
  72
1
   1
\A1;R15
   7
GMM001
  11
 0.61173122276319
  21
-0.79106568064646
  31
0.0
   0
ENDBLK
   5
213
 100
AcDbEntity
   8
0
 100
AcDbBlockEnd
   0
BLOCK
   5
214
 100
AcDbEntity
   8
0
 100
AcDbBlockBegin
   2
*D33
  70
65
  10
0.0
  20
0.0
  30
0.0
   3
*D33
   0
LINE
   5
215
 100
AcDbEntity
   8
LEVEL001
 100
AcDbLine
   6
CONTINUOUS
  62
2
  10
 302.84653765021
  20
-217.41888415775
  30
0.0
  11
 285.50574047383
  21
-217.41888415775
  31
0.0
   0
LINE
   5
216
 100
AcDbEntity
   8
LEVEL001
 100
AcDbLine
   6
CONTINUOUS
  62
2
  10
 302.84653765021
  20
-87.418884157749
  30
0.0
  11
 285.50574047383
  21
-87.418884157749
  31
0.0
   0
LINE
   5
217
 100
AcDbEntity
   8
LEVEL001
 100
AcDbLine
   6
CONTINUOUS
  62
2
  10
 287.00574047383
  20
-217.41888415775
  30
0.0
  11
 287.00574047383
  21
-152.41888415775
  31
0.0
   0
LINE
   5
218
 100
AcDbEntity
   8
LEVEL001
 100
AcDbLine
   6
CONTINUOUS
  62
2
  10
 287.00574047383
  20
-87.418884157749
  30
0.0
  11
 287.00574047383
  21
-152.41888415775
  31
0.0
   0
INSERT
   5
219
 100
AcDbEntity
   8
LEVEL001
   6
CONTINUOUS
  62
2
 100
AcDbBlockReference
   2
_OPEN30
  10
 287.00574047383
  20
-217.41888415775
  30
0.0
  41
 3.0000000000000
  42
 3.0000000000000
  43
 3.0000000000000
  50
 270.00000000000
   0
INSERT
   5
21A
 100
AcDbEntity
   8
LEVEL001
   6
CONTINUOUS
  62
2
 100
AcDbBlockReference
   2
_OPEN30
  10
 287.00574047383
  20
-87.418884157749
  30
0.0
  41
 3.0000000000000
  42
 3.0000000000000
  43
 3.0000000000000
  50
 90.000000000000
   0
MTEXT
   5
21B
 100
AcDbEntity
   8
LEVEL001
  62
2
 100
AcDbMText
  10
 285.29145475954
  20
-152.41888415775
  30
0.0
  40
 4.0000000000000
  41
0.0
  71
8
  72
1
   1
\A1;130
   7
GMM001
  11
0.0
  21
 1.0000000000000
  31
0.0
   0
ENDBLK
   5
21C
 100
AcDbEntity
   8
0
 100
AcDbBlockEnd
   0
BLOCK
   5
21D
 100
AcDbEntity
   8
0
 100
AcDbBlockBegin
   2
*D34
  70
65
  10
0.0
  20
0.0
  30
0.0
   3
*D34
   0
LINE
   5
21E
 100
AcDbEntity
   8
LEVEL001
 100
AcDbLine
   6
CONTINUOUS
  62
2
  10
 91.822466884293
  20
-222.41888415775
  30
0.0
  11
 115.23143983101
  21
-222.41888415775
  31
0.0
   0
LINE
   5
21F
 100
AcDbEntity
   8
LEVEL001
 100
AcDbLine
   6
CONTINUOUS
  62
2
  10
 91.822466884293
  20
-82.418884157749
  30
0.0
  11
 115.23143983101
  21
-82.418884157749
  31
0.0
   0
LINE
   5
220
 100
AcDbEntity
   8
LEVEL001
 100
AcDbLine
   6
CONTINUOUS
  62
2
  10
 113.73143983101
  20
-222.41888415775
  30
0.0
  11
 113.73143983101
  21
-152.41888415775
  31
0.0
   0
LINE
   5
221
 100
AcDbEntity
   8
LEVEL001
 100
AcDbLine
   6
CONTINUOUS
  62
2
  10
 113.73143983101
  20
-82.418884157749
  30
0.0
  11
 113.73143983101
  21
-152.41888415775
  31
0.0
   0
INSERT
   5
222
 100
AcDbEntity
   8
LEVEL001
   6
CONTINUOUS
  62
2
 100
AcDbBlockReference
   2
_OPEN30
  10
 113.73143983101
  20
-222.41888415775
  30
0.0
  41
 3.0000000000000
  42
 3.0000000000000
  43
 3.0000000000000
  50
 270.00000000000
   0
INSERT
   5
223
 100
AcDbEntity
   8
LEVEL001
   6
CONTINUOUS
  62
2
 100
AcDbBlockReference
   2
_OPEN30
  10
 113.73143983101
  20
-82.418884157749
  30
0.0
  41
 3.0000000000000
  42
 3.0000000000000
  43
 3.0000000000000
  50
 90.000000000000
   0
MTEXT
   5
224
 100
AcDbEntity
   8
LEVEL001
  62
2
 100
AcDbMText
  10
 112.01715411672
  20
-152.41888415775
  30
0.0
  40
 4.0000000000000
  41
0.0
  71
8
  72
1
   1
\A1;140
   7
GMM001
  11
0.0
  21
 1.0000000000000
  31
0.0
   0
ENDBLK
   5
225
 100
AcDbEntity
   8
0
 100
AcDbBlockEnd
   0
BLOCK
   5
226
 100
AcDbEntity
   8
0
 100
AcDbBlockBegin
   2
*D35
  70
65
  10
0.0
  20
0.0
  30
0.0
   3
*D35
   0
LINE
   5
227
 100
AcDbEntity
   8
LEVEL001
 100
AcDbLine
   6
CONTINUOUS
  62
2
  10
 147.53300249143
  20
-218.11888415775
  30
0.0
  11
 147.53300249143
  21
-237.27906594868
  31
0.0
   0
LINE
   5
228
 100
AcDbEntity
   8
LEVEL001
 100
AcDbLine
   6
CONTINUOUS
  62
2
  10
 160.53300249143
  20
-223.91888415775
  30
0.0
  11
 160.53300249143
  21
-237.27906594868
  31
0.0
   0
LINE
   5
229
 100
AcDbEntity
   8
LEVEL001
 100
AcDbLine
   6
CONTINUOUS
  62
2
  10
 147.53300249143
  20
-235.77906594868
  30
0.0
  11
 154.03300249143
  21
-235.77906594868
  31
0.0
   0
LINE
   5
22A
 100
AcDbEntity
   8
LEVEL001
 100
AcDbLine
   6
CONTINUOUS
  62
2
  10
 160.53300249143
  20
-235.77906594868
  30
0.0
  11
 154.03300249143
  21
-235.77906594868
  31
0.0
   0
INSERT
   5
22B
 100
AcDbEntity
   8
LEVEL001
   6
CONTINUOUS
  62
2
 100
AcDbBlockReference
   2
_OPEN30
  10
 147.53300249143
  20
-235.77906594868
  30
0.0
  41
 3.0000000000000
  42
 3.0000000000000
  43
 3.0000000000000
  50
 180.00000000000
   0
INSERT
   5
22C
 100
AcDbEntity
   8
LEVEL001
   6
CONTINUOUS
  62
2
 100
AcDbBlockReference
   2
_OPEN30
  10
 160.53300249143
  20
-235.77906594868
  30
0.0
  41
 3.0000000000000
  42
 3.0000000000000
  43
 3.0000000000000
  50
0.0
   0
MTEXT
   5
22D
 100
AcDbEntity
   8
LEVEL001
  62
2
 100
AcDbMText
  10
 154.03300249143
  20
-234.06478023439
  30
0.0
  40
 4.0000000000000
  41
0.0
  71
8
  72
1
   1
\A1;13
   7
GMM001
   0
ENDBLK
   5
22E
 100
AcDbEntity
   8
0
 100
AcDbBlockEnd
   0
BLOCK
   5
22F
 100
AcDbEntity
   8
0
 100
AcDbBlockBegin
   2
*D36
  70
65
  10
0.0
  20
0.0
  30
0.0
   3
*D36
   0
LINE
   5
230
 100
AcDbEntity
   8
LEVEL001
 100
AcDbLine
   6
CONTINUOUS
  62
2
  10
 131.53300249143
  20
-223.91888415775
  30
0.0
  11
 131.53300249143
  21
-237.27906594868
  31
0.0
   0
LINE
   5
231
 100
AcDbEntity
   8
LEVEL001
 100
AcDbLine
   6
CONTINUOUS
  62
2
  10
 144.53300249143
  20
-218.11888415775
  30
0.0
  11
 144.53300249143
  21
-237.27906594868
  31
0.0
   0
LINE
   5
232
 100
AcDbEntity
   8
LEVEL001
 100
AcDbLine
   6
CONTINUOUS
  62
2
  10
 131.53300249143
  20
-235.77906594868
  30
0.0
  11
 138.03300249143
  21
-235.77906594868
  31
0.0
   0
LINE
   5
233
 100
AcDbEntity
   8
LEVEL001
 100
AcDbLine
   6
CONTINUOUS
  62
2
  10
 144.53300249143
  20
-235.77906594868
  30
0.0
  11
 138.03300249143
  21
-235.77906594868
  31
0.0
   0
INSERT
   5
234
 100
AcDbEntity
   8
LEVEL001
   6
CONTINUOUS
  62
2
 100
AcDbBlockReference
   2
_OPEN30
  10
 131.53300249143
  20
-235.77906594868
  30
0.0
  41
 3.0000000000000
  42
 3.0000000000000
  43
 3.0000000000000
  50
 180.00000000000
   0
INSERT
   5
235
 100
AcDbEntity
   8
LEVEL001
   6
CONTINUOUS
  62
2
 100
AcDbBlockReference
   2
_OPEN30
  10
 144.53300249143
  20
-235.77906594868
  30
0.0
  41
 3.0000000000000
  42
 3.0000000000000
  43
 3.0000000000000
  50
0.0
   0
MTEXT
   5
236
 100
AcDbEntity
   8
LEVEL001
  62
2
 100
AcDbMText
  10
 138.03300249143
  20
-234.06478023439
  30
0.0
  40
 4.0000000000000
  41
0.0
  71
8
  72
1
   1
\A1;13
   7
GMM001
   0
ENDBLK
   5
237
 100
AcDbEntity
   8
0
 100
AcDbBlockEnd
   0
BLOCK
   5
238
 100
AcDbEntity
   8
0
 100
AcDbBlockBegin
   2
*D37
  70
65
  10
0.0
  20
0.0
  30
0.0
   3
*D37
   0
LINE
   5
239
 100
AcDbEntity
   8
LEVEL001
 100
AcDbLine
   6
CONTINUOUS
  62
2
  10
 131.53300249143
  20
-246.33717211797
  30
0.0
  11
 146.03300249143
  21
-246.33717211797
  31
0.0
   0
LINE
   5
23A
 100
AcDbEntity
   8
LEVEL001
 100
AcDbLine
   6
CONTINUOUS
  62
2
  10
 160.53300249143
  20
-246.33717211797
  30
0.0
  11
 146.03300249143
  21
-246.33717211797
  31
0.0
   0
INSERT
   5
23B
 100
AcDbEntity
   8
LEVEL001
   6
CONTINUOUS
  62
2
 100
AcDbBlockReference
   2
_OPEN30
  10
 131.53300249143
  20
-246.33717211797
  30
0.0
  41
 3.0000000000000
  42
 3.0000000000000
  43
 3.0000000000000
  50
 180.00000000000
   0
INSERT
   5
23C
 100
AcDbEntity
   8
LEVEL001
   6
CONTINUOUS
  62
2
 100
AcDbBlockReference
   2
_OPEN30
  10
 160.53300249143
  20
-246.33717211797
  30
0.0
  41
 3.0000000000000
  42
 3.0000000000000
  43
 3.0000000000000
  50
0.0
   0
MTEXT
   5
23D
 100
AcDbEntity
   8
LEVEL001
  62
2
 100
AcDbMText
  10
 146.03300249143
  20
-244.62288640369
  30
0.0
  40
 4.0000000000000
  41
0.0
  71
8
  72
1
   1
\A1;27～34
   7
GMM001
   0
ENDBLK
   5
23E
 100
AcDbEntity
   8
0
 100
AcDbBlockEnd
   0
BLOCK
   5
23F
 100
AcDbEntity
   8
0
 100
AcDbBlockBegin
   2
*D38
  70
65
  10
0.0
  20
0.0
  30
0.0
   3
*D38
   0
LINE
   5
240
 100
AcDbEntity
   8
LEVEL001
 100
AcDbLine
   6
CONTINUOUS
  62
2
  10
 130.03300249143
  20
-223.91888415775
  30
0.0
  11
 130.03300249143
  21
-247.83717211797
  31
0.0
   0
LINE
   5
241
 100
AcDbEntity
   8
LEVEL001
 100
AcDbLine
   6
CONTINUOUS
  62
2
  10
 131.53300249143
  20
-238.77906594868
  30
0.0
  11
 131.53300249143
  21
-247.83717211797
  31
0.0
   0
LINE
   5
242
 100
AcDbEntity
   8
LEVEL001
 100
AcDbLine
   6
CONTINUOUS
  62
2
  10
 118.58644581998
  20
-246.33717211797
  30
0.0
  11
 130.78300249143
  21
-246.33717211797
  31
0.0
   0
LINE
   5
243
 100
AcDbEntity
   8
LEVEL001
 100
AcDbLine
   6
CONTINUOUS
  62
2
  10
 135.28300249143
  20
-246.33717211797
  30
0.0
  11
 130.78300249143
  21
-246.33717211797
  31
0.0
   0
INSERT
   5
244
 100
AcDbEntity
   8
LEVEL001
   6
CONTINUOUS
  62
2
 100
AcDbBlockReference
   2
_OPEN30
  10
 130.03300249143
  20
-246.33717211797
  30
0.0
  41
 3.0000000000000
  42
 3.0000000000000
  43
 3.0000000000000
  50
0.0
   0
INSERT
   5
245
 100
AcDbEntity
   8
LEVEL001
   6
CONTINUOUS
  62
2
 100
AcDbBlockReference
   2
_OPEN30
  10
 131.53300249143
  20
-246.33717211797
  30
0.0
  41
 3.0000000000000
  42
 3.0000000000000
  43
 3.0000000000000
  50
 180.00000000000
   0
MTEXT
   5
246
 100
AcDbEntity
   8
LEVEL001
  62
2
 100
AcDbMText
  10
 123.58644581998
  20
-244.62288640369
  30
0.0
  40
 4.0000000000000
  41
0.0
  71
8
  72
1
   1
\A1;1.5
   7
GMM001
   0
ENDBLK
   5
247
 100
AcDbEntity
   8
0
 100
AcDbBlockEnd
   0
BLOCK
   5
248
 100
AcDbEntity
   8
0
 100
AcDbBlockBegin
   2
*D39
  70
65
  10
0.0
  20
0.0
  30
0.0
   3
*D39
   0
LINE
   5
249
 100
AcDbEntity
   8
LEVEL001
 100
AcDbLine
   6
CONTINUOUS
  62
2
  10
 50.322466884293
  20
-223.91888415775
  30
0.0
  11
 50.322466884293
  21
-247.83717211797
  31
0.0
   0
LINE
   5
24A
 100
AcDbEntity
   8
LEVEL001
 100
AcDbLine
   6
CONTINUOUS
  62
2
  10
 90.322466884293
  20
-223.91888415775
  30
0.0
  11
 90.322466884293
  21
-247.83717211797
  31
0.0
   0
LINE
   5
24B
 100
AcDbEntity
   8
LEVEL001
 100
AcDbLine
   6
CONTINUOUS
  62
2
  10
 50.322466884293
  20
-246.33717211797
  30
0.0
  11
 70.322466884293
  21
-246.33717211797
  31
0.0
   0
LINE
   5
24C
 100
AcDbEntity
   8
LEVEL001
 100
AcDbLine
   6
CONTINUOUS
  62
2
  10
 90.322466884293
  20
-246.33717211797
  30
0.0
  11
 70.322466884293
  21
-246.33717211797
  31
0.0
   0
INSERT
   5
24D
 100
AcDbEntity
   8
LEVEL001
   6
CONTINUOUS
  62
2
 100
AcDbBlockReference
   2
_OPEN30
  10
 50.322466884293
  20
-246.33717211797
  30
0.0
  41
 3.0000000000000
  42
 3.0000000000000
  43
 3.0000000000000
  50
 180.00000000000
   0
INSERT
   5
24E
 100
AcDbEntity
   8
LEVEL001
   6
CONTINUOUS
  62
2
 100
AcDbBlockReference
   2
_OPEN30
  10
 90.322466884293
  20
-246.33717211797
  30
0.0
  41
 3.0000000000000
  42
 3.0000000000000
  43
 3.0000000000000
  50
0.0
   0
MTEXT
   5
24F
 100
AcDbEntity
   8
LEVEL001
  62
2
 100
AcDbMText
  10
 70.322466884293
  20
-244.62288640369
  30
0.0
  40
 4.0000000000000
  41
0.0
  71
8
  72
1
   1
\A1;40
   7
GMM001
   0
ENDBLK
   5
250
 100
AcDbEntity
   8
0
 100
AcDbBlockEnd
   0
BLOCK
   5
251
 100
AcDbEntity
   8
0
 100
AcDbBlockBegin
   2
*D40
  70
65
  10
0.0
  20
0.0
  30
0.0
   3
*D40
   0
LINE
   5
252
 100
AcDbEntity
   8
LEVEL001
 100
AcDbLine
   6
CONTINUOUS
  62
2
  10
 162.03300249143
  20
-223.91888415775
  30
0.0
  11
 162.03300249143
  21
-247.83717211797
  31
0.0
   0
LINE
   5
253
 100
AcDbEntity
   8
LEVEL001
 100
AcDbLine
   6
CONTINUOUS
  62
2
  10
 160.53300249143
  20
-238.77906594868
  30
0.0
  11
 160.53300249143
  21
-247.83717211797
  31
0.0
   0
LINE
   5
254
 100
AcDbEntity
   8
LEVEL001
 100
AcDbLine
   6
CONTINUOUS
  62
2
  10
 174.48960220449
  20
-246.33717211797
  30
0.0
  11
 161.28300249143
  21
-246.33717211797
  31
0.0
   0
LINE
   5
255
 100
AcDbEntity
   8
LEVEL001
 100
AcDbLine
   6
CONTINUOUS
  62
2
  10
 156.78300249143
  20
-246.33717211797
  30
0.0
  11
 161.28300249143
  21
-246.33717211797
  31
0.0
   0
INSERT
   5
256
 100
AcDbEntity
   8
LEVEL001
   6
CONTINUOUS
  62
2
 100
AcDbBlockReference
   2
_OPEN30
  10
 162.03300249143
  20
-246.33717211797
  30
0.0
  41
 3.0000000000000
  42
 3.0000000000000
  43
 3.0000000000000
  50
 180.00000000000
   0
INSERT
   5
257
 100
AcDbEntity
   8
LEVEL001
   6
CONTINUOUS
  62
2
 100
AcDbBlockReference
   2
_OPEN30
  10
 160.53300249143
  20
-246.33717211797
  30
0.0
  41
 3.0000000000000
  42
 3.0000000000000
  43
 3.0000000000000
  50
0.0
   0
MTEXT
   5
258
 100
AcDbEntity
   8
LEVEL001
  62
2
 100
AcDbMText
  10
 169.48960220449
  20
-244.62288640369
  30
0.0
  40
 4.0000000000000
  41
0.0
  71
8
  72
1
   1
\A1;1.5
   7
GMM001
   0
ENDBLK
   5
259
 100
AcDbEntity
   8
0
 100
AcDbBlockEnd
   0
BLOCK
   5
25A
 100
AcDbEntity
   8
0
 100
AcDbBlockBegin
   2
*D41
  70
65
  10
0.0
  20
0.0
  30
0.0
   3
*D41
   0
LINE
   5
25B
 100
AcDbEntity
   8
LEVEL001
 100
AcDbLine
   6
CONTINUOUS
  62
2
  10
 130.03300249143
  20
-80.918884157749
  30
0.0
  11
 130.03300249143
  21
-70.739297183644
  31
0.0
   0
LINE
   5
25C
 100
AcDbEntity
   8
LEVEL001
 100
AcDbLine
   6
CONTINUOUS
  62
2
  10
 144.53300249143
  20
-86.718884157749
  30
0.0
  11
 144.53300249143
  21
-70.739297183644
  31
0.0
   0
LINE
   5
25D
 100
AcDbEntity
   8
LEVEL001
 100
AcDbLine
   6
CONTINUOUS
  62
2
  10
 130.03300249143
  20
-72.239297183644
  30
0.0
  11
 137.28300249143
  21
-72.239297183644
  31
0.0
   0
LINE
   5
25E
 100
AcDbEntity
   8
LEVEL001
 100
AcDbLine
   6
CONTINUOUS
  62
2
  10
 144.53300249143
  20
-72.239297183644
  30
0.0
  11
 137.28300249143
  21
-72.239297183644
  31
0.0
   0
INSERT
   5
25F
 100
AcDbEntity
   8
LEVEL001
   6
CONTINUOUS
  62
2
 100
AcDbBlockReference
   2
_OPEN30
  10
 130.03300249143
  20
-72.239297183644
  30
0.0
  41
 3.0000000000000
  42
 3.0000000000000
  43
 3.0000000000000
  50
 180.00000000000
   0
INSERT
   5
260
 100
AcDbEntity
   8
LEVEL001
   6
CONTINUOUS
  62
2
 100
AcDbBlockReference
   2
_OPEN30
  10
 144.53300249143
  20
-72.239297183644
  30
0.0
  41
 3.0000000000000
  42
 3.0000000000000
  43
 3.0000000000000
  50
0.0
   0
MTEXT
   5
261
 100
AcDbEntity
   8
LEVEL001
  62
2
 100
AcDbMText
  10
 137.28300249143
  20
-70.525011469359
  30
0.0
  40
 4.0000000000000
  41
0.0
  71
8
  72
1
   1
\A1;14.5
   7
GMM001
   0
ENDBLK
   5
262
 100
AcDbEntity
   8
0
 100
AcDbBlockEnd
   0
BLOCK
   5
263
 100
AcDbEntity
   8
0
 100
AcDbBlockBegin
   2
*D42
  70
65
  10
0.0
  20
0.0
  30
0.0
   3
*D42
   0
LINE
   5
264
 100
AcDbEntity
   8
LEVEL001
 100
AcDbLine
   6
CONTINUOUS
  62
2
  10
 147.53300249143
  20
-86.718884157749
  30
0.0
  11
 147.53300249143
  21
-70.739297183644
  31
0.0
   0
LINE
   5
265
 100
AcDbEntity
   8
LEVEL001
 100
AcDbLine
   6
CONTINUOUS
  62
2
  10
 162.03300249143
  20
-80.918884157752
  30
0.0
  11
 162.03300249143
  21
-70.739297183644
  31
0.0
   0
LINE
   5
266
 100
AcDbEntity
   8
LEVEL001
 100
AcDbLine
   6
CONTINUOUS
  62
2
  10
 147.53300249143
  20
-72.239297183644
  30
0.0
  11
 154.78300249143
  21
-72.239297183644
  31
0.0
   0
LINE
   5
267
 100
AcDbEntity
   8
LEVEL001
 100
AcDbLine
   6
CONTINUOUS
  62
2
  10
 162.03300249143
  20
-72.239297183644
  30
0.0
  11
 154.78300249143
  21
-72.239297183644
  31
0.0
   0
INSERT
   5
268
 100
AcDbEntity
   8
LEVEL001
   6
CONTINUOUS
  62
2
 100
AcDbBlockReference
   2
_OPEN30
  10
 147.53300249143
  20
-72.239297183644
  30
0.0
  41
 3.0000000000000
  42
 3.0000000000000
  43
 3.0000000000000
  50
 180.00000000000
   0
INSERT
   5
269
 100
AcDbEntity
   8
LEVEL001
   6
CONTINUOUS
  62
2
 100
AcDbBlockReference
   2
_OPEN30
  10
 162.03300249143
  20
-72.239297183644
  30
0.0
  41
 3.0000000000000
  42
 3.0000000000000
  43
 3.0000000000000
  50
0.0
   0
MTEXT
   5
26A
 100
AcDbEntity
   8
LEVEL001
  62
2
 100
AcDbMText
  10
 154.78300249143
  20
-70.525011469359
  30
0.0
  40
 4.0000000000000
  41
0.0
  71
8
  72
1
   1
\A1;14.5
   7
GMM001
   0
ENDBLK
   5
26B
 100
AcDbEntity
   8
0
 100
AcDbBlockEnd
   0
BLOCK
   5
26C
 100
AcDbEntity
   8
0
 100
AcDbBlockBegin
   2
*D43
  70
65
  10
0.0
  20
0.0
  30
0.0
   3
*D43
   0
LINE
   5
26D
 100
AcDbEntity
   8
LEVEL001
 100
AcDbLine
   6
CONTINUOUS
  62
2
  10
 195.13882269492
  20
-223.91888415775
  30
0.0
  11
 195.13882269492
  21
-247.83717211797
  31
0.0
   0
LINE
   5
26E
 100
AcDbEntity
   8
LEVEL001
 100
AcDbLine
   6
CONTINUOUS
  62
2
  10
 235.13882269492
  20
-223.91888415775
  30
0.0
  11
 235.13882269492
  21
-247.83717211797
  31
0.0
   0
LINE
   5
26F
 100
AcDbEntity
   8
LEVEL001
 100
AcDbLine
   6
CONTINUOUS
  62
2
  10
 195.13882269492
  20
-246.33717211797
  30
0.0
  11
 215.13882269492
  21
-246.33717211797
  31
0.0
   0
LINE
   5
270
 100
AcDbEntity
   8
LEVEL001
 100
AcDbLine
   6
CONTINUOUS
  62
2
  10
 235.13882269492
  20
-246.33717211797
  30
0.0
  11
 215.13882269492
  21
-246.33717211797
  31
0.0
   0
INSERT
   5
271
 100
AcDbEntity
   8
LEVEL001
   6
CONTINUOUS
  62
2
 100
AcDbBlockReference
   2
_OPEN30
  10
 195.13882269492
  20
-246.33717211797
  30
0.0
  41
 3.0000000000000
  42
 3.0000000000000
  43
 3.0000000000000
  50
 180.00000000000
   0
INSERT
   5
272
 100
AcDbEntity
   8
LEVEL001
   6
CONTINUOUS
  62
2
 100
AcDbBlockReference
   2
_OPEN30
  10
 235.13882269492
  20
-246.33717211797
  30
0.0
  41
 3.0000000000000
  42
 3.0000000000000
  43
 3.0000000000000
  50
0.0
   0
MTEXT
   5
273
 100
AcDbEntity
   8
LEVEL001
  62
2
 100
AcDbMText
  10
 215.13882269492
  20
-244.62288640369
  30
0.0
  40
 4.0000000000000
  41
0.0
  71
8
  72
1
   1
\A1;40
   7
GMM001
   0
ENDBLK
   5
274
 100
AcDbEntity
   8
0
 100
AcDbBlockEnd
   0
BLOCK
   5
275
 100
AcDbEntity
   8
0
 100
AcDbBlockBegin
   2
*D44
  70
65
  10
0.0
  20
0.0
  30
0.0
   3
*D44
   0
LINE
   5
276
 100
AcDbEntity
   8
LEVEL001
 100
AcDbLine
   6
CONTINUOUS
  62
2
  10
 236.63882269492
  20
-82.418884157749
  30
0.0
  11
 260.62506266404
  21
-82.418884157749
  31
0.0
   0
LINE
   5
277
 100
AcDbEntity
   8
LEVEL001
 100
AcDbLine
   6
CONTINUOUS
  62
2
  10
 236.63882269492
  20
-222.41888415775
  30
0.0
  11
 260.62506266404
  21
-222.41888415775
  31
0.0
   0
LINE
   5
278
 100
AcDbEntity
   8
LEVEL001
 100
AcDbLine
   6
CONTINUOUS
  62
2
  10
 259.12506266404
  20
-82.418884157749
  30
0.0
  11
 259.12506266404
  21
-152.41888415775
  31
0.0
   0
LINE
   5
279
 100
AcDbEntity
   8
LEVEL001
 100
AcDbLine
   6
CONTINUOUS
  62
2
  10
 259.12506266404
  20
-222.41888415775
  30
0.0
  11
 259.12506266404
  21
-152.41888415775
  31
0.0
   0
INSERT
   5
27A
 100
AcDbEntity
   8
LEVEL001
   6
CONTINUOUS
  62
2
 100
AcDbBlockReference
   2
_OPEN30
  10
 259.12506266404
  20
-82.418884157749
  30
0.0
  41
 3.0000000000000
  42
 3.0000000000000
  43
 3.0000000000000
  50
 90.000000000000
   0
INSERT
   5
27B
 100
AcDbEntity
   8
LEVEL001
   6
CONTINUOUS
  62
2
 100
AcDbBlockReference
   2
_OPEN30
  10
 259.12506266404
  20
-222.41888415775
  30
0.0
  41
 3.0000000000000
  42
 3.0000000000000
  43
 3.0000000000000
  50
 270.00000000000
   0
MTEXT
   5
27C
 100
AcDbEntity
   8
LEVEL001
  62
2
 100
AcDbMText
  10
 257.41077694976
  20
-152.41888415775
  30
0.0
  40
 4.0000000000000
  41
0.0
  71
8
  72
1
   1
\A1;140
   7
GMM001
  11
0.0
  21
 1.0000000000000
  31
0.0
   0
ENDBLK
   5
27D
 100
AcDbEntity
   8
0
 100
AcDbBlockEnd
   0
BLOCK
   5
27E
 100
AcDbEntity
   8
0
 100
AcDbBlockBegin
   2
*D45
  70
65
  10
0.0
  20
0.0
  30
0.0
   3
*D45
   0
POLYLINE
   5
27F
 100
AcDbEntity
   8
LEVEL001
   6
CONTINUOUS
  62
2
 100
AcDb2dPolyline
  66
1
  10
0.0
  20
0.0
  30
0.0
  70
0
   0
VERTEX
   5
280
 100
AcDbEntity
   8
LEVEL001
   6
CONTINUOUS
  62
2
 100
AcDbVertex
 100
AcDb2dVertex
  10
 70.322466884293
  20
-91.168884157749
  30
0.0
   0
VERTEX
   5
281
 100
AcDbEntity
   8
LEVEL001
   6
CONTINUOUS
  62
2
 100
AcDbVertex
 100
AcDb2dVertex
  10
 80.156678339866
  20
-73.085966426504
  30
0.0
   0
VERTEX
   5
282
 100
AcDbEntity
   8
LEVEL001
   6
CONTINUOUS
  62
2
 100
AcDbVertex
 100
AcDb2dVertex
  10
 108.15667833987
  20
-73.085966426504
  30
0.0
   0
SEQEND
   5
283
 100
AcDbEntity
   8
LEVEL001
   6
CONTINUOUS
  62
2
   0
INSERT
   5
284
 100
AcDbEntity
   8
LEVEL001
   6
CONTINUOUS
  62
2
 100
AcDbBlockReference
   2
_OPEN30
  10
 70.322466884293
  20
-91.168884157749
  30
0.0
  41
 3.0000000000000
  42
 3.0000000000000
  43
 3.0000000000000
  50
 241.46088981681
   0
MTEXT
   5
285
 100
AcDbEntity
   8
LEVEL001
  62
2
 100
AcDbMText
  10
 80.156678339866
  20
-71.371680712218
  30
0.0
  40
 4.0000000000000
  41
0.0
  71
7
  72
1
   1
\A1;２－Ｍ４タップ
   7
GMM001
   0
ENDBLK
   5
286
 100
AcDbEntity
   8
0
 100
AcDbBlockEnd
   0
BLOCK
   5
287
 100
AcDbEntity
   8
0
 100
AcDbBlockBegin
   2
*D46
  70
65
  10
0.0
  20
0.0
  30
0.0
   3
*D46
   0
POLYLINE
   5
288
 100
AcDbEntity
   8
LEVEL001
   6
CONTINUOUS
  62
2
 100
AcDb2dPolyline
  66
1
  10
0.0
  20
0.0
  30
0.0
  70
0
   0
VERTEX
   5
289
 100
AcDbEntity
   8
LEVEL001
   6
CONTINUOUS
  62
2
 100
AcDbVertex
 100
AcDb2dVertex
  10
 215.13882269492
  20
-91.168884157749
  30
0.0
   0
VERTEX
   5
28A
 100
AcDbEntity
   8
LEVEL001
   6
CONTINUOUS
  62
2
 100
AcDbVertex
 100
AcDb2dVertex
  10
 224.28072382768
  20
-70.886138493574
  30
0.0
   0
VERTEX
   5
28B
 100
AcDbEntity
   8
LEVEL001
   6
CONTINUOUS
  62
2
 100
AcDbVertex
 100
AcDb2dVertex
  10
 270.28072382768
  20
-70.886138493574
  30
0.0
   0
SEQEND
   5
28C
 100
AcDbEntity
   8
LEVEL001
   6
CONTINUOUS
  62
2
   0
INSERT
   5
28D
 100
AcDbEntity
   8
LEVEL001
   6
CONTINUOUS
  62
2
 100
AcDbBlockReference
   2
_OPEN30
  10
 215.13882269492
  20
-91.168884157749
  30
0.0
  41
 3.0000000000000
  42
 3.0000000000000
  43
 3.0000000000000
  50
 245.73781234504
   0
MTEXT
   5
28E
 100
AcDbEntity
   8
LEVEL001
  62
2
 100
AcDbMText
  10
 224.28072382768
  20
-69.171852779288
  30
0.0
  40
 4.0000000000000
  41
0.0
  71
7
  72
1
   1
\A1;２－%%c４.４穴 %%c６.５皿
   7
GMM001
   0
ENDBLK
   5
28F
 100
AcDbEntity
   8
0
 100
AcDbBlockEnd
   0
BLOCK
   5
290
 100
AcDbEntity
   8
0
 100
AcDbBlockBegin
   2
*D47
  70
65
  10
0.0
  20
0.0
  30
0.0
   3
*D47
   0
LINE
   5
291
 100
AcDbEntity
   8
LEVEL001
 100
AcDbLine
   6
CONTINUOUS
  62
2
  10
 84.822466884293
  20
-96.168884157749
  30
0.0
  11
 105.85697785110
  21
-96.168884157749
  31
0.0
   0
LINE
   5
292
 100
AcDbEntity
   8
LEVEL001
 100
AcDbLine
   6
CONTINUOUS
  62
2
  10
 84.822466884293
  20
-208.66888415775
  30
0.0
  11
 105.85697785110
  21
-208.66888415775
  31
0.0
   0
LINE
   5
293
 100
AcDbEntity
   8
LEVEL001
 100
AcDbLine
   6
CONTINUOUS
  62
2
  10
 104.35697785110
  20
-96.168884157749
  30
0.0
  11
 104.35697785110
  21
-152.41888415775
  31
0.0
   0
LINE
   5
294
 100
AcDbEntity
   8
LEVEL001
 100
AcDbLine
   6
CONTINUOUS
  62
2
  10
 104.35697785110
  20
-208.66888415775
  30
0.0
  11
 104.35697785110
  21
-152.41888415775
  31
0.0
   0
INSERT
   5
295
 100
AcDbEntity
   8
LEVEL001
   6
CONTINUOUS
  62
2
 100
AcDbBlockReference
   2
_OPEN30
  10
 104.35697785110
  20
-96.168884157749
  30
0.0
  41
 3.0000000000000
  42
 3.0000000000000
  43
 3.0000000000000
  50
 90.000000000000
   0
INSERT
   5
296
 100
AcDbEntity
   8
LEVEL001
   6
CONTINUOUS
  62
2
 100
AcDbBlockReference
   2
_OPEN30
  10
 104.35697785110
  20
-208.66888415775
  30
0.0
  41
 3.0000000000000
  42
 3.0000000000000
  43
 3.0000000000000
  50
 270.00000000000
   0
MTEXT
   5
297
 100
AcDbEntity
   8
LEVEL001
  62
2
 100
AcDbMText
  10
 102.64269213681
  20
-152.41888415775
  30
0.0
  40
 4.0000000000000
  41
0.0
  71
8
  72
1
   1
\A1;(112.5)
   7
GMM001
  11
0.0
  21
 1.0000000000000
  31
0.0
   0
ENDBLK
   5
298
 100
AcDbEntity
   8
0
 100
AcDbBlockEnd
   0
BLOCK
   5
299
 100
AcDbEntity
   8
0
 100
AcDbBlockBegin
   2
*D48
  70
65
  10
0.0
  20
0.0
  30
0.0
   3
*D48
   0
LINE
   5
29A
 100
AcDbEntity
   8
LEVEL001
 100
AcDbLine
   6
CONTINUOUS
  62
2
  10
 229.63882269492
  20
-208.66888415775
  30
0.0
  11
 250.11430226232
  21
-208.66888415775
  31
0.0
   0
LINE
   5
29B
 100
AcDbEntity
   8
LEVEL001
 100
AcDbLine
   6
CONTINUOUS
  62
2
  10
 229.63882269492
  20
-96.168884157749
  30
0.0
  11
 250.11430226232
  21
-96.168884157749
  31
0.0
   0
LINE
   5
29C
 100
AcDbEntity
   8
LEVEL001
 100
AcDbLine
   6
CONTINUOUS
  62
2
  10
 248.61430226232
  20
-208.66888415775
  30
0.0
  11
 248.61430226232
  21
-152.41888415775
  31
0.0
   0
LINE
   5
29D
 100
AcDbEntity
   8
LEVEL001
 100
AcDbLine
   6
CONTINUOUS
  62
2
  10
 248.61430226232
  20
-96.168884157749
  30
0.0
  11
 248.61430226232
  21
-152.41888415775
  31
0.0
   0
INSERT
   5
29E
 100
AcDbEntity
   8
LEVEL001
   6
CONTINUOUS
  62
2
 100
AcDbBlockReference
   2
_OPEN30
  10
 248.61430226232
  20
-208.66888415775
  30
0.0
  41
 3.0000000000000
  42
 3.0000000000000
  43
 3.0000000000000
  50
 270.00000000000
   0
INSERT
   5
29F
 100
AcDbEntity
   8
LEVEL001
   6
CONTINUOUS
  62
2
 100
AcDbBlockReference
   2
_OPEN30
  10
 248.61430226232
  20
-96.168884157749
  30
0.0
  41
 3.0000000000000
  42
 3.0000000000000
  43
 3.0000000000000
  50
 90.000000000000
   0
MTEXT
   5
2A0
 100
AcDbEntity
   8
LEVEL001
  62
2
 100
AcDbMText
  10
 246.90001654803
  20
-152.41888415775
  30
0.0
  40
 4.0000000000000
  41
0.0
  71
8
  72
1
   1
\A1;(112.5)
   7
GMM001
  11
0.0
  21
 1.0000000000000
  31
0.0
   0
ENDBLK
   5
2A1
 100
AcDbEntity
   8
0
 100
AcDbBlockEnd
   0
BLOCK
   5
2A2
 100
AcDbEntity
   8
0
 100
AcDbBlockBegin
   2
*D49
  70
65
  10
0.0
  20
0.0
  30
0.0
   3
*D49
   0
LINE
   5
2A3
 100
AcDbEntity
   8
LEVEL001
 100
AcDbLine
   6
CONTINUOUS
  62
2
  10
 202.13882269492
  20
-210.16888415775
  30
0.0
  11
 202.13882269492
  21
-237.27906594868
  31
0.0
   0
LINE
   5
2A4
 100
AcDbEntity
   8
LEVEL001
 100
AcDbLine
   6
CONTINUOUS
  62
2
  10
 228.13882269492
  20
-210.16888415775
  30
0.0
  11
 228.13882269492
  21
-237.27906594868
  31
0.0
   0
LINE
   5
2A5
 100
AcDbEntity
   8
LEVEL001
 100
AcDbLine
   6
CONTINUOUS
  62
2
  10
 202.13882269492
  20
-235.77906594868
  30
0.0
  11
 215.13882269492
  21
-235.77906594868
  31
0.0
   0
LINE
   5
2A6
 100
AcDbEntity
   8
LEVEL001
 100
AcDbLine
   6
CONTINUOUS
  62
2
  10
 228.13882269492
  20
-235.77906594868
  30
0.0
  11
 215.13882269492
  21
-235.77906594868
  31
0.0
   0
INSERT
   5
2A7
 100
AcDbEntity
   8
LEVEL001
   6
CONTINUOUS
  62
2
 100
AcDbBlockReference
   2
_OPEN30
  10
 202.13882269492
  20
-235.77906594868
  30
0.0
  41
 3.0000000000000
  42
 3.0000000000000
  43
 3.0000000000000
  50
 180.00000000000
   0
INSERT
   5
2A8
 100
AcDbEntity
   8
LEVEL001
   6
CONTINUOUS
  62
2
 100
AcDbBlockReference
   2
_OPEN30
  10
 228.13882269492
  20
-235.77906594868
  30
0.0
  41
 3.0000000000000
  42
 3.0000000000000
  43
 3.0000000000000
  50
0.0
   0
MTEXT
   5
2A9
 100
AcDbEntity
   8
LEVEL001
  62
2
 100
AcDbMText
  10
 215.13882269492
  20
-234.06478023439
  30
0.0
  40
 4.0000000000000
  41
0.0
  71
8
  72
1
   1
\A1;(26)
   7
GMM001
   0
ENDBLK
   5
2AA
 100
AcDbEntity
   8
0
 100
AcDbBlockEnd
   0
BLOCK
   5
2AB
 100
AcDbEntity
   8
0
 100
AcDbBlockBegin
   2
*D50
  70
65
  10
0.0
  20
0.0
  30
0.0
   3
*D50
   0
LINE
   5
2AC
 100
AcDbEntity
   8
LEVEL001
 100
AcDbLine
   6
CONTINUOUS
  62
2
  10
 57.322466884293
  20
-210.16888415775
  30
0.0
  11
 57.322466884293
  21
-237.27906594868
  31
0.0
   0
LINE
   5
2AD
 100
AcDbEntity
   8
LEVEL001
 100
AcDbLine
   6
CONTINUOUS
  62
2
  10
 83.322466884293
  20
-210.16888415775
  30
0.0
  11
 83.322466884293
  21
-237.27906594868
  31
0.0
   0
LINE
   5
2AE
 100
AcDbEntity
   8
LEVEL001
 100
AcDbLine
   6
CONTINUOUS
  62
2
  10
 57.322466884293
  20
-235.77906594868
  30
0.0
  11
 70.322466884293
  21
-235.77906594868
  31
0.0
   0
LINE
   5
2AF
 100
AcDbEntity
   8
LEVEL001
 100
AcDbLine
   6
CONTINUOUS
  62
2
  10
 83.322466884293
  20
-235.77906594868
  30
0.0
  11
 70.322466884293
  21
-235.77906594868
  31
0.0
   0
INSERT
   5
2B0
 100
AcDbEntity
   8
LEVEL001
   6
CONTINUOUS
  62
2
 100
AcDbBlockReference
   2
_OPEN30
  10
 57.322466884293
  20
-235.77906594868
  30
0.0
  41
 3.0000000000000
  42
 3.0000000000000
  43
 3.0000000000000
  50
 180.00000000000
   0
INSERT
   5
2B1
 100
AcDbEntity
   8
LEVEL001
   6
CONTINUOUS
  62
2
 100
AcDbBlockReference
   2
_OPEN30
  10
 83.322466884293
  20
-235.77906594868
  30
0.0
  41
 3.0000000000000
  42
 3.0000000000000
  43
 3.0000000000000
  50
0.0
   0
MTEXT
   5
2B2
 100
AcDbEntity
   8
LEVEL001
  62
2
 100
AcDbMText
  10
 70.322466884293
  20
-234.06478023439
  30
0.0
  40
 4.0000000000000
  41
0.0
  71
8
  72
1
   1
\A1;(26)
   7
GMM001
   0
ENDBLK
   5
2B3
 100
AcDbEntity
   8
0
 100
AcDbBlockEnd
   0
BLOCK
   5
2B4
 100
AcDbEntity
   8
0
 100
AcDbBlockBegin
   2
*D51
  70
65
  10
0.0
  20
0.0
  30
0.0
   3
*D51
   0
LINE
   5
2B5
 100
AcDbEntity
   8
LEVEL001
 100
AcDbLine
   6
CONTINUOUS
  62
2
  10
 208.46306622971
  20
-213.66888415775
  30
0.0
  11
 182.56253551851
  21
-213.66888415775
  31
0.0
   0
LINE
   5
2B6
 100
AcDbEntity
   8
LEVEL001
 100
AcDbLine
   6
CONTINUOUS
  62
2
  10
 208.46306622971
  20
-91.168884157749
  30
0.0
  11
 182.56253551851
  21
-91.168884157749
  31
0.0
   0
LINE
   5
2B7
 100
AcDbEntity
   8
LEVEL001
 100
AcDbLine
   6
CONTINUOUS
  62
2
  10
 184.06253551851
  20
-213.66888415775
  30
0.0
  11
 184.06253551851
  21
-152.41888415775
  31
0.0
   0
LINE
   5
2B8
 100
AcDbEntity
   8
LEVEL001
 100
AcDbLine
   6
CONTINUOUS
  62
2
  10
 184.06253551851
  20
-91.168884157749
  30
0.0
  11
 184.06253551851
  21
-152.41888415775
  31
0.0
   0
INSERT
   5
2B9
 100
AcDbEntity
   8
LEVEL001
   6
CONTINUOUS
  62
2
 100
AcDbBlockReference
   2
_OPEN30
  10
 184.06253551851
  20
-213.66888415775
  30
0.0
  41
 3.0000000000000
  42
 3.0000000000000
  43
 3.0000000000000
  50
 270.00000000000
   0
INSERT
   5
2BA
 100
AcDbEntity
   8
LEVEL001
   6
CONTINUOUS
  62
2
 100
AcDbBlockReference
   2
_OPEN30
  10
 184.06253551851
  20
-91.168884157749
  30
0.0
  41
 3.0000000000000
  42
 3.0000000000000
  43
 3.0000000000000
  50
 90.000000000000
   0
MTEXT
   5
2BB
 100
AcDbEntity
   8
LEVEL001
  62
2
 100
AcDbMText
  10
 182.34824980422
  20
-152.41888415775
  30
0.0
  40
 4.0000000000000
  41
0.0
  71
8
  72
1
   1
\A1;122.5
   7
GMM001
  11
0.0
  21
 1.0000000000000
  31
0.0
   0
ENDBLK
   5
2BC
 100
AcDbEntity
   8
0
 100
AcDbBlockEnd
   0
BLOCK
   5
2BD
 100
AcDbEntity
   8
0
 100
AcDbBlockBegin
   2
*D52
  70
65
  10
0.0
  20
0.0
  30
0.0
   3
*D52
   0
LINE
   5
2BE
 100
AcDbEntity
   8
LEVEL001
 100
AcDbLine
   6
CONTINUOUS
  62
2
  10
 63.646710419086
  20
-91.168884157749
  30
0.0
  11
 37.674921936484
  21
-91.168884157749
  31
0.0
   0
LINE
   5
2BF
 100
AcDbEntity
   8
LEVEL001
 100
AcDbLine
   6
CONTINUOUS
  62
2
  10
 63.646710419086
  20
-213.66888415775
  30
0.0
  11
 37.674921936484
  21
-213.66888415775
  31
0.0
   0
LINE
   5
2C0
 100
AcDbEntity
   8
LEVEL001
 100
AcDbLine
   6
CONTINUOUS
  62
2
  10
 39.174921936484
  20
-91.168884157749
  30
0.0
  11
 39.174921936484
  21
-152.41888415775
  31
0.0
   0
LINE
   5
2C1
 100
AcDbEntity
   8
LEVEL001
 100
AcDbLine
   6
CONTINUOUS
  62
2
  10
 39.174921936484
  20
-213.66888415775
  30
0.0
  11
 39.174921936484
  21
-152.41888415775
  31
0.0
   0
INSERT
   5
2C2
 100
AcDbEntity
   8
LEVEL001
   6
CONTINUOUS
  62
2
 100
AcDbBlockReference
   2
_OPEN30
  10
 39.174921936484
  20
-91.168884157749
  30
0.0
  41
 3.0000000000000
  42
 3.0000000000000
  43
 3.0000000000000
  50
 90.000000000000
   0
INSERT
   5
2C3
 100
AcDbEntity
   8
LEVEL001
   6
CONTINUOUS
  62
2
 100
AcDbBlockReference
   2
_OPEN30
  10
 39.174921936484
  20
-213.66888415775
  30
0.0
  41
 3.0000000000000
  42
 3.0000000000000
  43
 3.0000000000000
  50
 270.00000000000
   0
MTEXT
   5
2C4
 100
AcDbEntity
   8
LEVEL001
  62
2
 100
AcDbMText
  10
 37.460636222198
  20
-152.41888415775
  30
0.0
  40
 4.0000000000000
  41
0.0
  71
8
  72
1
   1
\A1;122.5
   7
GMM001
  11
0.0
  21
 1.0000000000000
  31
0.0
   0
ENDBLK
   5
2C5
 100
AcDbEntity
   8
0
 100
AcDbBlockEnd
   0
ENDSEC
   0
SECTION
   2
ENTITIES
   0
LINE
   5
2C6
 100
AcDbEntity
   8
LEVEL001
 100
AcDbLine
   6
CONTINUOUS
  62
7
  10
 387.59670016456
  20
 242.12331809118
  30
0.0
  11
 354.59670016456
  21
 242.12331809118
  31
0.0
   0
LINE
   5
2C7
 100
AcDbEntity
   8
LEVEL001
 100
AcDbLine
   6
CONTINUOUS
  62
7
  10
 387.59670016456
  20
 112.12331809118
  30
0.0
  11
 354.59670016456
  21
 112.12331809118
  31
0.0
   0
LINE
   5
2C8
 100
AcDbEntity
   8
LEVEL001
 100
AcDbLine
   6
CONTINUOUS
  62
15
  10
 354.59670016456
  20
 112.12331809118
  30
0.0
  11
 354.59670016456
  21
 242.12331809118
  31
0.0
   0
LINE
   5
2C9
 100
AcDbEntity
   8
LEVEL001
 100
AcDbLine
   6
CONTINUOUS
  62
15
  10
 387.59670016456
  20
 242.12331809118
  30
0.0
  11
 387.59670016456
  21
 112.12331809118
  31
0.0
   0
LINE
   5
2CA
 100
AcDbEntity
   8
LEVEL001
 100
AcDbLine
   6
CONTINUOUS
  62
7
  10
 387.59670016456
  20
 97.405566346616
  30
0.0
  11
 387.59670016456
  21
 112.12331809118
  31
0.0
   0
LINE
   5
2CB
 100
AcDbEntity
   8
LEVEL001
 100
AcDbLine
   6
CONTINUOUS
  62
7
  10
 354.59670016456
  20
 97.539257651494
  30
0.0
  11
 354.59670016456
  21
 112.12331809118
  31
0.0
   0
INSERT
   5
2CC
 100
AcDbEntity
   8
LEVEL001
 100
AcDbBlockReference
   2
HATCH001
  10
0.0
  20
0.0
  30
0.0
   0
LINE
   5
2CD
 100
AcDbEntity
   8
LEVEL001
 100
AcDbLine
   6
CONTINUOUS
  62
7
  10
 354.59670016456
  20
 242.12331809118
  30
0.0
  11
 354.59670016456
  21
 254.99807621179
  31
0.0
   0
LINE
   5
2CE
 100
AcDbEntity
   8
LEVEL001
 100
AcDbLine
   6
CONTINUOUS
  62
7
  10
 387.59670016456
  20
 242.12331809118
  30
0.0
  11
 387.59670016456
  21
 254.99807621179
  31
0.0
   0
INSERT
   5
2CF
 100
AcDbEntity
   8
LEVEL001
 100
AcDbBlockReference
   2
HATCH002
  10
0.0
  20
0.0
  30
0.0
   0
DIMENSION
   5
2D0
 100
AcDbEntity
   8
LEVEL001
   6
CONTINUOUS
  62
2
 100
AcDbDimension
   2
*D1
  10
 387.59670016456
  20
 85.951996595224
  30
0.0
  11
 371.09670016456
  21
 85.951996595224
  31
0.0
  70
0
   1
\A1;扉厚:27～34
   3
GMM001
 100
AcDbAlignedDimension
  13
 354.59670016456
  23
 97.539257651494
  33
0.0
  14
 387.59670016456
  24
 97.405566346616
  34
0.0
 100
AcDbRotatedDimension
   0
ARC
   5
2D1
 100
AcDbEntity
   8
LEVEL001
   6
CONTINUOUS
  62
7
 100
AcDbCircle
  10
 319.34653765021
  20
 127.12331809118
  30
0.0
  40
 15.000000000000
 100
AcDbArc
  50
 180.00000000000
  51
 270.00000000000
   0
POINT
   5
2D2
 100
AcDbEntity
   8
LEVEL001
 100
AcDbPoint
  62
7
  10
 304.34653765021
  20
 112.12331809118
  30
0.0
   0
LINE
   5
2D3
 100
AcDbEntity
   8
LEVEL001
 100
AcDbLine
   6
CONTINUOUS
  62
7
  10
 334.34653765021
  20
 127.12331809118
  30
0.0
  11
 334.34653765021
  21
 177.12331809118
  31
0.0
   0
ARC
   5
2D4
 100
AcDbEntity
   8
LEVEL001
   6
CONTINUOUS
  62
7
 100
AcDbCircle
  10
 319.34653765021
  20
 127.12331809118
  30
0.0
  40
 15.000000000000
 100
AcDbArc
  50
 270.00000000000
  51
0.0
   0
POINT
   5
2D5
 100
AcDbEntity
   8
LEVEL001
 100
AcDbPoint
  62
7
  10
 334.34653765021
  20
 112.12331809118
  30
0.0
   0
ARC
   5
2D6
 100
AcDbEntity
   8
LEVEL001
   6
CONTINUOUS
  62
7
 100
AcDbCircle
  10
 319.34653765021
  20
 227.12331809118
  30
0.0
  40
 15.000000000000
 100
AcDbArc
  50
 0.43425173250915E-12
  51
 90.000000000000
   0
POINT
   5
2D7
 100
AcDbEntity
   8
LEVEL001
 100
AcDbPoint
  62
7
  10
 334.34653765021
  20
 242.12331809118
  30
0.0
   0
LINE
   5
2D8
 100
AcDbEntity
   8
LEVEL001
 100
AcDbLine
   6
CONTINUOUS
  62
7
  10
 334.34653765021
  20
 177.12331809118
  30
0.0
  11
 334.34653765021
  21
 227.12331809118
  31
0.0
   0
LINE
   5
2D9
 100
AcDbEntity
   8
LEVEL001
 100
AcDbLine
   6
CONTINUOUS
  62
7
  10
 304.34653765021
  20
 177.12331809118
  30
0.0
  11
 304.34653765021
  21
 227.12331809118
  31
0.0
   0
ARC
   5
2DA
 100
AcDbEntity
   8
LEVEL001
   6
CONTINUOUS
  62
7
 100
AcDbCircle
  10
 319.34653765021
  20
 227.12331809118
  30
0.0
  40
 15.000000000000
 100
AcDbArc
  50
 90.000000000000
  51
 180.00000000000
   0
POINT
   5
2DB
 100
AcDbEntity
   8
LEVEL001
 100
AcDbPoint
  62
7
  10
 304.34653765021
  20
 242.12331809118
  30
0.0
   0
LINE
   5
2DC
 100
AcDbEntity
   8
LEVEL001
 100
AcDbLine
   6
CONTINUOUS
  62
7
  10
 304.34653765021
  20
 127.12331809118
  30
0.0
  11
 304.34653765021
  21
 177.12331809118
  31
0.0
   0
LINE
   5
2DD
 100
AcDbEntity
   8
LEVEL001
 100
AcDbLine
   6
DASHDOT
  62
3
  10
 296.29902369563
  20
 177.12331809118
  30
0.0
  11
 342.74522168702
  21
 177.12331809118
  31
0.0
   0
DIMENSION
   5
2DE
 100
AcDbEntity
   8
LEVEL001
   6
CONTINUOUS
  62
2
 100
AcDbDimension
   2
*D2
  10
 334.34653765021
  20
 94.567637512294
  30
0.0
  11
 319.34653765021
  21
 94.567637512294
  31
0.0
  70
0
   3
GMM002
 100
AcDbAlignedDimension
  13
 304.34653765021
  23
 112.12331809118
  33
0.0
  14
 334.34653765021
  24
 112.12331809118
  34
0.0
 100
AcDbRotatedDimension
   0
LINE
   5
2DF
 100
AcDbEntity
   8
LEVEL001
 100
AcDbLine
   6
DASHDOT
  62
3
  10
 319.34653765021
  20
 103.94209949221
  30
0.0
  11
 319.34653765021
  21
 252.85087456744
  31
0.0
   0
DIMENSION
   5
2E0
 100
AcDbEntity
   8
LEVEL001
   6
CONTINUOUS
  62
2
 100
AcDbDimension
   2
*D3
  10
 319.34653765021
  20
 227.12331809118
  30
0.0
  11
 309.00536442494
  21
 242.57050695275
  31
0.0
  70
132
   3
GMM003
 100
AcDbRadialDimension
  15
 311.00200222748
  25
 239.58801738875
  35
0.0
  40
 3.9775095253372
   0
DIMENSION
   5
2E1
 100
AcDbEntity
   8
LEVEL001
   6
CONTINUOUS
  62
2
 100
AcDbDimension
   2
*D4
  10
 319.34653765021
  20
 127.12331809118
  30
0.0
  11
 334.85615352107
  21
 107.06692015218
  31
0.0
  70
132
   3
GMM003
 100
AcDbRadialDimension
  15
 328.52250599166
  25
 115.25733288148
  35
0.0
  40
 10.494604671607
   0
DIMENSION
   5
2E2
 100
AcDbEntity
   8
LEVEL001
   6
CONTINUOUS
  62
2
 100
AcDbDimension
   2
*D5
  10
 287.00574047383
  20
 242.12331809118
  30
0.0
  11
 287.00574047383
  21
 177.12331809118
  31
0.0
  70
0
   3
GMM002
 100
AcDbAlignedDimension
  13
 304.34653765021
  23
 112.12331809118
  33
0.0
  14
 304.34653765021
  24
 242.12331809118
  34
0.0
  50
 90.000000000000
 100
AcDbRotatedDimension
   0
LINE
   5
2E3
 100
AcDbEntity
   8
LEVEL001
 100
AcDbLine
   6
DASHDOT
  62
3
  10
 348.88919289385
  20
 177.12331809118
  30
0.0
  11
 393.20483134436
  21
 177.12331809118
  31
0.0
   0
TEXT
   5
2E4
 100
AcDbEntity
   8
LEVEL001
  62
7
 100
AcDbText
  10
 331.36905139127
  20
 73.015246585974
  30
0.0
  40
 4.5000000000000
   1
参考掘込図
   7
STANDARD
 100
AcDbText
   0
LINE
   5
2E5
 100
AcDbEntity
   8
LEVEL001
 100
AcDbLine
   6
CONTINUOUS
  62
7
  10
 328.70020902632
  20
 71.301850451085
  30
0.0
  11
 355.46634962891
  21
 71.301850451085
  31
0.0
   0
LINE
   5
2E6
 100
AcDbEntity
   8
LEVEL001
 100
AcDbLine
   6
DASHDOT
  62
3
  10
 165.73049169660
  20
 177.12331809118
  30
0.0
  11
 125.74165063172
  21
 177.12331809118
  31
0.0
   0
ARC
   5
2E7
 100
AcDbEntity
   8
LEVEL001
   6
CONTINUOUS
  62
7
 100
AcDbCircle
  10
 131.03300249143
  20
 108.12331809118
  30
0.0
  40
 1.0000000000000
 100
AcDbArc
  50
 180.00000000000
  51
 270.00000000000
   0
POINT
   5
2E8
 100
AcDbEntity
   8
LEVEL001
 100
AcDbPoint
  62
7
  10
 130.03300249143
  20
 107.12331809118
  30
0.0
   0
LINE
   5
2E9
 100
AcDbEntity
   8
LEVEL001
 100
AcDbLine
   6
DOT
  62
1
  10
 144.03300249143
  20
 114.22331809118
  30
0.0
  11
 144.03300249143
  21
 113.87331809118
  31
0.0
   0
LINE
   5
2EA
 100
AcDbEntity
   8
LEVEL001
 100
AcDbLine
   6
DOT
  62
1
  10
 144.03300249143
  20
 114.22331809118
  30
0.0
  11
 132.83300249143
  21
 114.22331809118
  31
0.0
   0
LINE
   5
2EB
 100
AcDbEntity
   8
LEVEL001
 100
AcDbLine
   6
DOT
  62
1
  10
 144.03300249143
  20
 113.87331809118
  30
0.0
  11
 132.83300249143
  21
 113.87331809118
  31
0.0
   0
LINE
   5
2EC
 100
AcDbEntity
   8
LEVEL001
 100
AcDbLine
   6
DOT
  62
1
  10
 132.83300249143
  20
 114.22331809118
  30
0.0
  11
 131.83300249143
  21
 114.22331809118
  31
0.0
   0
LINE
   5
2ED
 100
AcDbEntity
   8
LEVEL001
 100
AcDbLine
   6
DOT
  62
1
  10
 132.48300249134
  20
 114.22331809118
  30
0.0
  11
 132.83300249134
  21
 113.87331809118
  31
0.0
   0
LINE
   5
2EE
 100
AcDbEntity
   8
LEVEL001
 100
AcDbLine
   6
DOT
  62
1
  10
 144.03300249143
  20
 117.52331809118
  30
0.0
  11
 132.83300249143
  21
 117.52331809118
  31
0.0
   0
LINE
   5
2EF
 100
AcDbEntity
   8
LEVEL001
 100
AcDbLine
   6
DOT
  62
1
  10
 144.03300249143
  20
 117.87331809118
  30
0.0
  11
 132.83300249143
  21
 117.87331809118
  31
0.0
   0
LINE
   5
2F0
 100
AcDbEntity
   8
LEVEL001
 100
AcDbLine
   6
DOT
  62
1
  10
 132.83300249143
  20
 117.52331809118
  30
0.0
  11
 131.83300249143
  21
 117.52331809118
  31
0.0
   0
LINE
   5
2F1
 100
AcDbEntity
   8
LEVEL001
 100
AcDbLine
   6
DOT
  62
1
  10
 132.48300249134
  20
 117.52331809118
  30
0.0
  11
 132.83300249134
  21
 117.87331809118
  31
0.0
   0
LINE
   5
2F2
 100
AcDbEntity
   8
LEVEL001
 100
AcDbLine
   6
DOT
  62
1
  10
 144.03300249143
  20
 117.87331809118
  30
0.0
  11
 144.53300249143
  21
 118.37331809118
  31
0.0
   0
LINE
   5
2F3
 100
AcDbEntity
   8
LEVEL001
 100
AcDbLine
   6
DOT
  62
1
  10
 144.03300249143
  20
 117.87331809118
  30
0.0
  11
 144.03300249143
  21
 114.22331809118
  31
0.0
   0
LINE
   5
2F4
 100
AcDbEntity
   8
LEVEL001
 100
AcDbLine
   6
DOT
  62
1
  10
 132.83300249143
  20
 117.87331809118
  30
0.0
  11
 132.83300249143
  21
 113.87331809118
  31
0.0
   0
LINE
   5
2F5
 100
AcDbEntity
   8
LEVEL001
 100
AcDbLine
   6
DOT
  62
1
  10
 131.83300249143
  20
 117.52331809118
  30
0.0
  11
 131.83300249143
  21
 114.22331809118
  31
0.0
   0
LINE
   5
2F6
 100
AcDbEntity
   8
LEVEL001
 100
AcDbLine
   6
DOT
  62
1
  10
 132.48300249134
  20
 117.52331809118
  30
0.0
  11
 132.48300249134
  21
 114.22331809118
  31
0.0
   0
ARC
   5
2F7
 100
AcDbEntity
   8
LEVEL001
   6
CONTINUOUS
  62
7
 100
AcDbCircle
  10
 143.53300249143
  20
 113.90084904957
  30
0.0
  40
 1.0000000000000
 100
AcDbArc
  50
 271.30195267258
  51
0.0
   0
POINT
   5
2F8
 100
AcDbEntity
   8
LEVEL001
 100
AcDbPoint
  62
7
  10
 144.53300249143
  20
 112.92331809118
  30
0.0
   0
LINE
   5
2F9
 100
AcDbEntity
   8
LEVEL001
 100
AcDbLine
   6
CONTINUOUS
  62
7
  10
 144.53300249143
  20
 177.12331809118
  30
0.0
  11
 144.53300249143
  21
 113.90084904957
  31
0.0
   0
LINE
   5
2FA
 100
AcDbEntity
   8
LEVEL001
 100
AcDbLine
   6
DOT
  62
1
  10
 144.03300249143
  20
 113.87331809117
  30
0.0
  11
 144.43571525733
  21
 113.47060532528
  31
0.0
   0
LINE
   5
2FB
 100
AcDbEntity
   8
LEVEL001
 100
AcDbLine
   6
CONTINUOUS
  62
7
  10
 130.03300249143
  20
 177.12331809118
  30
0.0
  11
 130.03300249143
  21
 108.12331809118
  31
0.0
   0
ARC
   5
2FC
 100
AcDbEntity
   8
LEVEL001
   6
CONTINUOUS
  62
7
 100
AcDbCircle
  10
 161.03300249143
  20
 108.12331809118
  30
0.0
  40
 1.0000000000000
 100
AcDbArc
  50
 270.00000000000
  51
0.0
   0
POINT
   5
2FD
 100
AcDbEntity
   8
LEVEL001
 100
AcDbPoint
  62
7
  10
 162.03300249143
  20
 107.12331809118
  30
0.0
   0
LINE
   5
2FE
 100
AcDbEntity
   8
LEVEL001
 100
AcDbLine
   6
CONTINUOUS
  62
7
  10
 162.03300249143
  20
 108.12331809118
  30
0.0
  11
 162.03300249143
  21
 177.12331809118
  31
0.0
   0
ARC
   5
2FF
 100
AcDbEntity
   8
LEVEL001
   6
CONTINUOUS
  62
7
 100
AcDbCircle
  10
 148.53300249143
  20
 113.90084904957
  30
0.0
  40
 1.0000000000000
 100
AcDbArc
  50
 180.00000000000
  51
 268.69804732742
   0
POINT
   5
300
 100
AcDbEntity
   8
LEVEL001
 100
AcDbPoint
  62
7
  10
 147.53300249143
  20
 112.92331809118
  30
0.0
   0
LINE
   5
301
 100
AcDbEntity
   8
LEVEL001
 100
AcDbLine
   6
DOT
  62
1
  10
 162.03300249132
  20
 112.62331809118
  30
0.0
  11
 160.98300249132
  21
 113.67331809118
  31
0.0
   0
LINE
   5
302
 100
AcDbEntity
   8
LEVEL001
 100
AcDbLine
   6
DOT
  62
1
  10
 147.53300249143
  20
 118.07331809118
  30
0.0
  11
 160.98300249132
  21
 118.07331809118
  31
0.0
   0
LINE
   5
303
 100
AcDbEntity
   8
LEVEL001
 100
AcDbLine
   6
DOT
  62
1
  10
 162.03300249132
  20
 119.12331809118
  30
0.0
  11
 160.98300249132
  21
 118.07331809118
  31
0.0
   0
LINE
   5
304
 100
AcDbEntity
   8
LEVEL001
 100
AcDbLine
   6
DOT
  62
1
  10
 147.55923164417
  20
 113.67331809118
  30
0.0
  11
 160.98300249132
  21
 113.67331809118
  31
0.0
   0
LINE
   5
305
 100
AcDbEntity
   8
LEVEL001
 100
AcDbLine
   6
DOT
  62
1
  10
 160.98300249132
  20
 113.67331809118
  30
0.0
  11
 160.98300249132
  21
 118.07331809118
  31
0.0
   0
LINE
   5
306
 100
AcDbEntity
   8
LEVEL001
 100
AcDbLine
   6
CONTINUOUS
  62
7
  10
 147.53300249143
  20
 113.90084904957
  30
0.0
  11
 147.53300249143
  21
 177.12331809118
  31
0.0
   0
LINE
   5
307
 100
AcDbEntity
   8
LEVEL001
 100
AcDbLine
   6
DASHDOT
  62
3
  10
 128.06779648761
  20
 115.87331809118
  30
0.0
  11
 164.68894178403
  21
 115.87331809118
  31
0.0
   0
LINE
   5
308
 100
AcDbEntity
   8
LEVEL001
 100
AcDbLine
   6
CONTINUOUS
  62
7
  10
 131.53300249143
  20
 107.12331809118
  30
0.0
  11
 131.53300249143
  21
 177.12331809118
  31
0.0
   0
LINE
   5
309
 100
AcDbEntity
   8
LEVEL001
 100
AcDbLine
   6
CONTINUOUS
  62
7
  10
 160.53300249143
  20
 177.12331809118
  30
0.0
  11
 160.53300249143
  21
 107.12331809118
  31
0.0
   0
LINE
   5
30A
 100
AcDbEntity
   8
LEVEL001
 100
AcDbLine
   6
CONTINUOUS
  62
7
  10
 131.53300249143
  20
 112.62786354572
  30
0.0
  11
 143.55572389679
  21
 112.90110721402
  31
0.0
   0
LINE
   5
30B
 100
AcDbEntity
   8
LEVEL001
 100
AcDbLine
   6
CONTINUOUS
  62
7
  10
 160.53300249143
  20
 112.62786354572
  30
0.0
  11
 148.51028108608
  21
 112.90110721402
  31
0.0
   0
LINE
   5
30C
 100
AcDbEntity
   8
LEVEL001
 100
AcDbLine
   6
CONTINUOUS
  62
15
  10
 161.03300249143
  20
 107.12331809118
  30
0.0
  11
 161.03300249143
  21
 177.12331809118
  31
0.0
   0
LINE
   5
30D
 100
AcDbEntity
   8
LEVEL001
 100
AcDbLine
   6
CONTINUOUS
  62
15
  10
 131.03300249143
  20
 177.12331809118
  30
0.0
  11
 131.03300249143
  21
 107.12331809118
  31
0.0
   0
LINE
   5
30E
 100
AcDbEntity
   8
LEVEL001
 100
AcDbLine
   6
CONTINUOUS
  62
7
  10
 131.53300249143
  20
 107.12331809118
  30
0.0
  11
 131.03300249143
  21
 107.12331809118
  31
0.0
   0
LINE
   5
30F
 100
AcDbEntity
   8
LEVEL001
 100
AcDbLine
   6
CONTINUOUS
  62
7
  10
 160.53300249143
  20
 107.12331809118
  30
0.0
  11
 161.03300249143
  21
 107.12331809118
  31
0.0
   0
DIMENSION
   5
310
 100
AcDbEntity
   8
LEVEL001
   6
CONTINUOUS
  62
2
 100
AcDbDimension
   2
*D6
  10
 160.53300249143
  20
 93.763136300249
  30
0.0
  11
 154.03300249143
  21
 93.763136300249
  31
0.0
  70
0
   3
GMM002
 100
AcDbAlignedDimension
  13
 147.53300249143
  23
 112.92331809118
  33
0.0
  14
 160.53300249143
  24
 107.12331809118
  34
0.0
 100
AcDbRotatedDimension
   0
DIMENSION
   5
311
 100
AcDbEntity
   8
LEVEL001
   6
CONTINUOUS
  62
2
 100
AcDbDimension
   2
*D7
  10
 144.53300249143
  20
 93.763136300249
  30
0.0
  11
 138.03300249143
  21
 93.763136300249
  31
0.0
  70
0
   3
GMM002
 100
AcDbAlignedDimension
  13
 131.53300249143
  23
 107.12331809118
  33
0.0
  14
 144.53300249143
  24
 112.92331809118
  34
0.0
 100
AcDbRotatedDimension
   0
DIMENSION
   5
312
 100
AcDbEntity
   8
LEVEL001
   6
CONTINUOUS
  62
2
 100
AcDbDimension
   2
*D8
  10
 160.53300249143
  20
 83.205030130952
  30
0.0
  11
 146.03300249143
  21
 83.205030130952
  31
0.0
  70
0
   1
\A1;27～34
   3
GMM004
 100
AcDbAlignedDimension
  13
 131.53300249143
  23
 83.205030130952
  33
0.0
  14
 160.53300249143
  24
 83.205030130952
  34
0.0
 100
AcDbRotatedDimension
   0
DIMENSION
   5
313
 100
AcDbEntity
   8
LEVEL001
   6
CONTINUOUS
  62
2
 100
AcDbDimension
   2
*D9
  10
 131.53300249143
  20
 83.205030130952
  30
0.0
  11
 123.58644581998
  21
 83.205030130952
  31
0.0
  70
128
   3
GMM005
 100
AcDbAlignedDimension
  13
 130.03300249143
  23
 107.12331809118
  33
0.0
  14
 131.53300249143
  24
 92.263136300249
  34
0.0
 100
AcDbRotatedDimension
   0
DIMENSION
   5
314
 100
AcDbEntity
   8
LEVEL001
   6
CONTINUOUS
  62
2
 100
AcDbDimension
   2
*D10
  10
 160.53300249143
  20
 83.205030130952
  30
0.0
  11
 169.48960220449
  21
 83.205030130952
  31
0.0
  70
128
   3
GMM005
 100
AcDbAlignedDimension
  13
 162.03300249143
  23
 107.12331809118
  33
0.0
  14
 160.53300249143
  24
 92.263136300249
  34
0.0
  50
 180.00000000000
 100
AcDbRotatedDimension
   0
DIMENSION
   5
315
 100
AcDbEntity
   8
LEVEL001
   6
CONTINUOUS
  62
2
 100
AcDbDimension
   2
*D11
  10
 144.53300249143
  20
 257.30290506528
  30
0.0
  11
 137.28300249143
  21
 257.30290506528
  31
0.0
  70
0
   3
GMM002
 100
AcDbAlignedDimension
  13
 130.03300249143
  23
 247.12331809118
  33
0.0
  14
 144.53300249143
  24
 241.32331809118
  34
0.0
 100
AcDbRotatedDimension
   0
DIMENSION
   5
316
 100
AcDbEntity
   8
LEVEL001
   6
CONTINUOUS
  62
2
 100
AcDbDimension
   2
*D12
  10
 162.03300249143
  20
 257.30290506528
  30
0.0
  11
 154.78300249143
  21
 257.30290506528
  31
0.0
  70
0
   3
GMM002
 100
AcDbAlignedDimension
  13
 147.53300249143
  23
 241.32331809118
  33
0.0
  14
 162.03300249143
  24
 247.12331809117
  34
0.0
 100
AcDbRotatedDimension
   0
INSERT
   5
317
 100
AcDbEntity
   8
LEVEL001
 100
AcDbBlockReference
   2
*D13
  10
0.0
  20
0.0
  30
0.0
   0
DIMENSION
   5
318
 100
AcDbEntity
   8
LEVEL001
   6
CONTINUOUS
  62
2
 100
AcDbDimension
   2
*D14
  10
 39.174921936484
  20
 115.87331809118
  30
0.0
  11
 39.174921936484
  21
 177.12331809118
  31
0.0
  70
0
   3
GMM002
 100
AcDbAlignedDimension
  13
 65.146710419086
  23
 238.37331809118
  33
0.0
  14
 65.146710419086
  24
 115.87331809118
  34
0.0
  50
 270.00000000000
 100
AcDbRotatedDimension
   0
POINT
   5
319
 100
AcDbEntity
   8
LEVEL001
 100
AcDbPoint
  62
7
  10
 147.53300249143
  20
 119.66877263663
  30
0.0
   0
ARC
   5
31A
 100
AcDbEntity
   8
LEVEL001
   6
CONTINUOUS
  62
7
 100
AcDbCircle
  10
 148.53300249143
  20
 120.64630359502
  30
0.0
  40
 1.0000000000000
 100
AcDbArc
  50
 180.00000000000
  51
 268.69804732742
   0
ARC
   5
31B
 100
AcDbEntity
   8
LEVEL001
   6
CONTINUOUS
  62
7
 100
AcDbCircle
  10
 143.53300249143
  20
 120.64630359502
  30
0.0
  40
 1.0000000000000
 100
AcDbArc
  50
 271.30195267258
  51
0.0
   0
POINT
   5
31C
 100
AcDbEntity
   8
LEVEL001
 100
AcDbPoint
  62
7
  10
 144.53300249143
  20
 119.66877263663
  30
0.0
   0
LINE
   5
31D
 100
AcDbEntity
   8
LEVEL001
 100
AcDbLine
   6
CONTINUOUS
  62
7
  10
 131.53300249143
  20
 119.37331809118
  30
0.0
  11
 143.55572389679
  21
 119.64656175948
  31
0.0
   0
LINE
   5
31E
 100
AcDbEntity
   8
LEVEL001
 100
AcDbLine
   6
CONTINUOUS
  62
7
  10
 160.53300249143
  20
 119.37331809118
  30
0.0
  11
 148.51028108608
  21
 119.64656175948
  31
0.0
   0
ARC
   5
31F
 100
AcDbEntity
   8
LEVEL001
   6
DOT
  62
1
 100
AcDbCircle
  10
 131.03300249143
  20
 119.89578713278
  30
0.0
  40
 1.0000000000000
 100
AcDbArc
  50
 91.301952672578
  51
 180.00000000000
   0
POINT
   5
320
 100
AcDbEntity
   8
LEVEL001
 100
AcDbPoint
  62
1
  10
 130.03300249143
  20
 120.87331809118
  30
0.0
   0
ARC
   5
321
 100
AcDbEntity
   8
LEVEL001
   6
DOT
  62
1
 100
AcDbCircle
  10
 142.03300249143
  20
 122.14630359502
  30
0.0
  40
 1.0000000000000
 100
AcDbArc
  50
 271.30195267258
  51
0.0
   0
POINT
   5
322
 100
AcDbEntity
   8
LEVEL001
 100
AcDbPoint
  62
1
  10
 143.03300249143
  20
 121.16877263663
  30
0.0
   0
LINE
   5
323
 100
AcDbEntity
   8
LEVEL001
 100
AcDbLine
   6
DOT
  62
1
  10
 131.01028108608
  20
 120.89552896833
  30
0.0
  11
 142.05572389679
  21
 121.14656175948
  31
0.0
   0
ARC
   5
324
 100
AcDbEntity
   8
LEVEL001
   6
DOT
  62
1
 100
AcDbCircle
  10
 150.03300249143
  20
 122.14630359502
  30
0.0
  40
 1.0000000000000
 100
AcDbArc
  50
 180.00000000000
  51
 268.69804732742
   0
POINT
   5
325
 100
AcDbEntity
   8
LEVEL001
 100
AcDbPoint
  62
1
  10
 149.03300249143
  20
 121.16877263663
  30
0.0
   0
LINE
   5
326
 100
AcDbEntity
   8
LEVEL001
 100
AcDbLine
   6
DOT
  62
1
  10
 161.05572389679
  20
 120.89552896833
  30
0.0
  11
 150.01028108608
  21
 121.14656175948
  31
0.0
   0
ARC
   5
327
 100
AcDbEntity
   8
LEVEL001
   6
DOT
  62
1
 100
AcDbCircle
  10
 161.03300249143
  20
 119.89578713278
  30
0.0
  40
 1.0000000000000
 100
AcDbArc
  50
0.0
  51
 88.698047327420
   0
POINT
   5
328
 100
AcDbEntity
   8
LEVEL001
 100
AcDbPoint
  62
1
  10
 162.03300249143
  20
 120.87331809118
  30
0.0
   0
LINE
   5
329
 100
AcDbEntity
   8
LEVEL001
 100
AcDbLine
   6
DOT
  62
1
  10
 143.03300249143
  20
 122.14630359502
  30
0.0
  11
 143.03300249143
  21
 177.12331809118
  31
0.0
   0
LINE
   5
32A
 100
AcDbEntity
   8
LEVEL001
 100
AcDbLine
   6
DOT
  62
1
  10
 149.03300249143
  20
 122.14630359502
  30
0.0
  11
 149.03300249143
  21
 177.12331809118
  31
0.0
   0
ARC
   5
32B
 100
AcDbEntity
   8
LEVEL001
   6
CONTINUOUS
  62
7
 100
AcDbCircle
  10
 131.03300249143
  20
 246.12331809118
  30
0.0
  40
 1.0000000000000
 100
AcDbArc
  50
 90.000000000000
  51
 180.00000000000
   0
POINT
   5
32C
 100
AcDbEntity
   8
LEVEL001
 100
AcDbPoint
  62
7
  10
 130.03300249143
  20
 247.12331809118
  30
0.0
   0
LINE
   5
32D
 100
AcDbEntity
   8
LEVEL001
 100
AcDbLine
   6
DOT
  62
1
  10
 144.03300249143
  20
 240.02331809118
  30
0.0
  11
 144.03300249143
  21
 240.37331809118
  31
0.0
   0
LINE
   5
32E
 100
AcDbEntity
   8
LEVEL001
 100
AcDbLine
   6
DOT
  62
1
  10
 144.03300249143
  20
 240.02331809118
  30
0.0
  11
 132.83300249143
  21
 240.02331809118
  31
0.0
   0
LINE
   5
32F
 100
AcDbEntity
   8
LEVEL001
 100
AcDbLine
   6
DOT
  62
1
  10
 144.03300249143
  20
 240.37331809118
  30
0.0
  11
 132.83300249143
  21
 240.37331809118
  31
0.0
   0
LINE
   5
330
 100
AcDbEntity
   8
LEVEL001
 100
AcDbLine
   6
DOT
  62
1
  10
 132.83300249143
  20
 240.02331809118
  30
0.0
  11
 131.83300249143
  21
 240.02331809118
  31
0.0
   0
LINE
   5
331
 100
AcDbEntity
   8
LEVEL001
 100
AcDbLine
   6
DOT
  62
1
  10
 132.48300249134
  20
 240.02331809118
  30
0.0
  11
 132.83300249134
  21
 240.37331809118
  31
0.0
   0
LINE
   5
332
 100
AcDbEntity
   8
LEVEL001
 100
AcDbLine
   6
DOT
  62
1
  10
 144.03300249143
  20
 236.72331809118
  30
0.0
  11
 132.83300249143
  21
 236.72331809118
  31
0.0
   0
LINE
   5
333
 100
AcDbEntity
   8
LEVEL001
 100
AcDbLine
   6
DOT
  62
1
  10
 144.03300249143
  20
 236.37331809118
  30
0.0
  11
 132.83300249143
  21
 236.37331809118
  31
0.0
   0
LINE
   5
334
 100
AcDbEntity
   8
LEVEL001
 100
AcDbLine
   6
DOT
  62
1
  10
 132.83300249143
  20
 236.72331809118
  30
0.0
  11
 131.83300249143
  21
 236.72331809118
  31
0.0
   0
LINE
   5
335
 100
AcDbEntity
   8
LEVEL001
 100
AcDbLine
   6
DOT
  62
1
  10
 132.48300249134
  20
 236.72331809118
  30
0.0
  11
 132.83300249134
  21
 236.37331809118
  31
0.0
   0
LINE
   5
336
 100
AcDbEntity
   8
LEVEL001
 100
AcDbLine
   6
DOT
  62
1
  10
 144.03300249143
  20
 236.37331809117
  30
0.0
  11
 144.53300249143
  21
 235.87331809117
  31
0.0
   0
LINE
   5
337
 100
AcDbEntity
   8
LEVEL001
 100
AcDbLine
   6
DOT
  62
1
  10
 144.03300249143
  20
 236.37331809117
  30
0.0
  11
 144.03300249143
  21
 240.02331809118
  31
0.0
   0
LINE
   5
338
 100
AcDbEntity
   8
LEVEL001
 100
AcDbLine
   6
DOT
  62
1
  10
 132.83300249143
  20
 236.37331809118
  30
0.0
  11
 132.83300249143
  21
 240.37331809118
  31
0.0
   0
LINE
   5
339
 100
AcDbEntity
   8
LEVEL001
 100
AcDbLine
   6
DOT
  62
1
  10
 131.83300249143
  20
 236.72331809118
  30
0.0
  11
 131.83300249143
  21
 240.02331809118
  31
0.0
   0
LINE
   5
33A
 100
AcDbEntity
   8
LEVEL001
 100
AcDbLine
   6
DOT
  62
1
  10
 132.48300249134
  20
 236.72331809118
  30
0.0
  11
 132.48300249134
  21
 240.02331809118
  31
0.0
   0
ARC
   5
33B
 100
AcDbEntity
   8
LEVEL001
   6
CONTINUOUS
  62
7
 100
AcDbCircle
  10
 143.53300249143
  20
 240.34578713278
  30
0.0
  40
 1.0000000000000
 100
AcDbArc
  50
0.0
  51
 88.698047327422
   0
POINT
   5
33C
 100
AcDbEntity
   8
LEVEL001
 100
AcDbPoint
  62
7
  10
 144.53300249143
  20
 241.32331809118
  30
0.0
   0
LINE
   5
33D
 100
AcDbEntity
   8
LEVEL001
 100
AcDbLine
   6
CONTINUOUS
  62
7
  10
 144.53300249143
  20
 177.12331809118
  30
0.0
  11
 144.53300249143
  21
 240.34578713278
  31
0.0
   0
LINE
   5
33E
 100
AcDbEntity
   8
LEVEL001
 100
AcDbLine
   6
DOT
  62
1
  10
 144.03300249143
  20
 240.37331809118
  30
0.0
  11
 144.43571525733
  21
 240.77603085708
  31
0.0
   0
LINE
   5
33F
 100
AcDbEntity
   8
LEVEL001
 100
AcDbLine
   6
CONTINUOUS
  62
7
  10
 130.03300249143
  20
 177.12331809118
  30
0.0
  11
 130.03300249143
  21
 246.12331809118
  31
0.0
   0
ARC
   5
340
 100
AcDbEntity
   8
LEVEL001
   6
CONTINUOUS
  62
7
 100
AcDbCircle
  10
 161.03300249143
  20
 246.12331809117
  30
0.0
  40
 1.0000000000000
 100
AcDbArc
  50
0.0
  51
 90.000000000000
   0
POINT
   5
341
 100
AcDbEntity
   8
LEVEL001
 100
AcDbPoint
  62
7
  10
 162.03300249143
  20
 247.12331809117
  30
0.0
   0
LINE
   5
342
 100
AcDbEntity
   8
LEVEL001
 100
AcDbLine
   6
CONTINUOUS
  62
7
  10
 162.03300249143
  20
 246.12331809117
  30
0.0
  11
 162.03300249143
  21
 177.12331809118
  31
0.0
   0
ARC
   5
343
 100
AcDbEntity
   8
LEVEL001
   6
CONTINUOUS
  62
7
 100
AcDbCircle
  10
 148.53300249143
  20
 240.34578713278
  30
0.0
  40
 1.0000000000000
 100
AcDbArc
  50
 91.301952672578
  51
 180.00000000000
   0
POINT
   5
344
 100
AcDbEntity
   8
LEVEL001
 100
AcDbPoint
  62
7
  10
 147.53300249143
  20
 241.32331809118
  30
0.0
   0
LINE
   5
345
 100
AcDbEntity
   8
LEVEL001
 100
AcDbLine
   6
DOT
  62
1
  10
 162.03300249132
  20
 241.62331809118
  30
0.0
  11
 160.98300249132
  21
 240.57331809118
  31
0.0
   0
LINE
   5
346
 100
AcDbEntity
   8
LEVEL001
 100
AcDbLine
   6
DOT
  62
1
  10
 147.53300249143
  20
 236.17331809118
  30
0.0
  11
 160.98300249132
  21
 236.17331809118
  31
0.0
   0
LINE
   5
347
 100
AcDbEntity
   8
LEVEL001
 100
AcDbLine
   6
DOT
  62
1
  10
 162.03300249132
  20
 235.12331809118
  30
0.0
  11
 160.98300249132
  21
 236.17331809118
  31
0.0
   0
LINE
   5
348
 100
AcDbEntity
   8
LEVEL001
 100
AcDbLine
   6
DOT
  62
1
  10
 147.55923164417
  20
 240.57331809118
  30
0.0
  11
 160.98300249132
  21
 240.57331809118
  31
0.0
   0
LINE
   5
349
 100
AcDbEntity
   8
LEVEL001
 100
AcDbLine
   6
DOT
  62
1
  10
 160.98300249132
  20
 240.57331809118
  30
0.0
  11
 160.98300249132
  21
 236.17331809118
  31
0.0
   0
LINE
   5
34A
 100
AcDbEntity
   8
LEVEL001
 100
AcDbLine
   6
CONTINUOUS
  62
7
  10
 147.53300249143
  20
 240.34578713278
  30
0.0
  11
 147.53300249143
  21
 177.12331809118
  31
0.0
   0
LINE
   5
34B
 100
AcDbEntity
   8
LEVEL001
 100
AcDbLine
   6
DASHDOT
  62
3
  10
 128.06779648761
  20
 238.37331809118
  30
0.0
  11
 164.68894178403
  21
 238.37331809118
  31
0.0
   0
LINE
   5
34C
 100
AcDbEntity
   8
LEVEL001
 100
AcDbLine
   6
CONTINUOUS
  62
7
  10
 131.53300249143
  20
 247.12331809118
  30
0.0
  11
 131.53300249143
  21
 177.12331809118
  31
0.0
   0
LINE
   5
34D
 100
AcDbEntity
   8
LEVEL001
 100
AcDbLine
   6
CONTINUOUS
  62
7
  10
 160.53300249143
  20
 177.12331809118
  30
0.0
  11
 160.53300249143
  21
 247.12331809117
  31
0.0
   0
LINE
   5
34E
 100
AcDbEntity
   8
LEVEL001
 100
AcDbLine
   6
CONTINUOUS
  62
7
  10
 131.53300249143
  20
 241.61877263663
  30
0.0
  11
 143.55572389679
  21
 241.34552896833
  31
0.0
   0
LINE
   5
34F
 100
AcDbEntity
   8
LEVEL001
 100
AcDbLine
   6
CONTINUOUS
  62
7
  10
 160.53300249143
  20
 241.61877263663
  30
0.0
  11
 148.51028108608
  21
 241.34552896833
  31
0.0
   0
LINE
   5
350
 100
AcDbEntity
   8
LEVEL001
 100
AcDbLine
   6
CONTINUOUS
  62
15
  10
 161.03300249143
  20
 247.12331809117
  30
0.0
  11
 161.03300249143
  21
 177.12331809118
  31
0.0
   0
LINE
   5
351
 100
AcDbEntity
   8
LEVEL001
 100
AcDbLine
   6
CONTINUOUS
  62
15
  10
 131.03300249143
  20
 177.12331809118
  30
0.0
  11
 131.03300249143
  21
 247.12331809118
  31
0.0
   0
LINE
   5
352
 100
AcDbEntity
   8
LEVEL001
 100
AcDbLine
   6
CONTINUOUS
  62
7
  10
 131.53300249143
  20
 247.12331809118
  30
0.0
  11
 131.03300249143
  21
 247.12331809118
  31
0.0
   0
LINE
   5
353
 100
AcDbEntity
   8
LEVEL001
 100
AcDbLine
   6
CONTINUOUS
  62
7
  10
 160.53300249143
  20
 247.12331809117
  30
0.0
  11
 161.03300249143
  21
 247.12331809117
  31
0.0
   0
POINT
   5
354
 100
AcDbEntity
   8
LEVEL001
 100
AcDbPoint
  62
7
  10
 147.53300249143
  20
 234.57786354572
  30
0.0
   0
ARC
   5
355
 100
AcDbEntity
   8
LEVEL001
   6
CONTINUOUS
  62
7
 100
AcDbCircle
  10
 148.53300249143
  20
 233.60033258733
  30
0.0
  40
 1.0000000000000
 100
AcDbArc
  50
 91.301952672578
  51
 180.00000000000
   0
ARC
   5
356
 100
AcDbEntity
   8
LEVEL001
   6
CONTINUOUS
  62
7
 100
AcDbCircle
  10
 143.53300249143
  20
 233.60033258733
  30
0.0
  40
 1.0000000000000
 100
AcDbArc
  50
0.0
  51
 88.698047327422
   0
POINT
   5
357
 100
AcDbEntity
   8
LEVEL001
 100
AcDbPoint
  62
7
  10
 144.53300249143
  20
 234.57786354572
  30
0.0
   0
LINE
   5
358
 100
AcDbEntity
   8
LEVEL001
 100
AcDbLine
   6
CONTINUOUS
  62
7
  10
 131.53300249143
  20
 234.87331809118
  30
0.0
  11
 143.55572389679
  21
 234.60007442287
  31
0.0
   0
LINE
   5
359
 100
AcDbEntity
   8
LEVEL001
 100
AcDbLine
   6
CONTINUOUS
  62
7
  10
 160.53300249143
  20
 234.87331809118
  30
0.0
  11
 148.51028108608
  21
 234.60007442287
  31
0.0
   0
ARC
   5
35A
 100
AcDbEntity
   8
LEVEL001
   6
DOT
  62
1
 100
AcDbCircle
  10
 131.03300249143
  20
 234.35084904957
  30
0.0
  40
 1.0000000000000
 100
AcDbArc
  50
 180.00000000000
  51
 268.69804732742
   0
POINT
   5
35B
 100
AcDbEntity
   8
LEVEL001
 100
AcDbPoint
  62
1
  10
 130.03300249143
  20
 233.37331809118
  30
0.0
   0
ARC
   5
35C
 100
AcDbEntity
   8
LEVEL001
   6
DOT
  62
1
 100
AcDbCircle
  10
 142.03300249143
  20
 232.10033258733
  30
0.0
  40
 1.0000000000000
 100
AcDbArc
  50
0.0
  51
 88.698047327424
   0
POINT
   5
35D
 100
AcDbEntity
   8
LEVEL001
 100
AcDbPoint
  62
1
  10
 143.03300249143
  20
 233.07786354572
  30
0.0
   0
LINE
   5
35E
 100
AcDbEntity
   8
LEVEL001
 100
AcDbLine
   6
DOT
  62
1
  10
 131.01028108608
  20
 233.35110721402
  30
0.0
  11
 142.05572389679
  21
 233.10007442287
  31
0.0
   0
ARC
   5
35F
 100
AcDbEntity
   8
LEVEL001
   6
DOT
  62
1
 100
AcDbCircle
  10
 150.03300249143
  20
 232.10033258733
  30
0.0
  40
 1.0000000000000
 100
AcDbArc
  50
 91.301952672576
  51
 180.00000000000
   0
POINT
   5
360
 100
AcDbEntity
   8
LEVEL001
 100
AcDbPoint
  62
1
  10
 149.03300249143
  20
 233.07786354572
  30
0.0
   0
LINE
   5
361
 100
AcDbEntity
   8
LEVEL001
 100
AcDbLine
   6
DOT
  62
1
  10
 161.05572389679
  20
 233.35110721402
  30
0.0
  11
 150.01028108608
  21
 233.10007442287
  31
0.0
   0
ARC
   5
362
 100
AcDbEntity
   8
LEVEL001
   6
DOT
  62
1
 100
AcDbCircle
  10
 161.03300249143
  20
 234.35084904957
  30
0.0
  40
 1.0000000000000
 100
AcDbArc
  50
 271.30195267258
  51
0.0
   0
POINT
   5
363
 100
AcDbEntity
   8
LEVEL001
 100
AcDbPoint
  62
1
  10
 162.03300249143
  20
 233.37331809118
  30
0.0
   0
LINE
   5
364
 100
AcDbEntity
   8
LEVEL001
 100
AcDbLine
   6
DOT
  62
1
  10
 143.03300249143
  20
 232.10033258733
  30
0.0
  11
 143.03300249143
  21
 177.12331809118
  31
0.0
   0
LINE
   5
365
 100
AcDbEntity
   8
LEVEL001
 100
AcDbLine
   6
DOT
  62
1
  10
 149.03300249143
  20
 232.10033258733
  30
0.0
  11
 149.03300249143
  21
 177.12331809118
  31
0.0
   0
ARC
   5
366
 100
AcDbEntity
   8
LEVEL001
   6
CONTINUOUS
  62
7
 100
AcDbCircle
  10
 70.322466884293
  20
 127.12331809118
  30
0.0
  40
 20.000000000000
 100
AcDbArc
  50
 180.00000000000
  51
 270.00000000000
   0
ARC
   5
367
 100
AcDbEntity
   8
LEVEL001
   6
CONTINUOUS
  62
7
 100
AcDbCircle
  10
 70.322466884293
  20
 227.12331809118
  30
0.0
  40
 20.000000000000
 100
AcDbArc
  50
 90.000000000000
  51
 180.00000000000
   0
ARC
   5
368
 100
AcDbEntity
   8
LEVEL001
   6
CONTINUOUS
  62
7
 100
AcDbCircle
  10
 70.322466884293
  20
 227.12331809118
  30
0.0
  40
 20.000000000000
 100
AcDbArc
  50
0.0
  51
 90.000000000000
   0
ARC
   5
369
 100
AcDbEntity
   8
LEVEL001
   6
CONTINUOUS
  62
7
 100
AcDbCircle
  10
 70.322466884293
  20
 127.12331809118
  30
0.0
  40
 20.000000000000
 100
AcDbArc
  50
 270.00000000000
  51
0.0
   0
LINE
   5
36A
 100
AcDbEntity
   8
LEVEL001
 100
AcDbLine
   6
CONTINUOUS
  62
7
  10
 50.322466884293
  20
 227.12331809118
  30
0.0
  11
 50.322466884293
  21
 177.12331809118
  31
0.0
   0
LINE
   5
36B
 100
AcDbEntity
   8
LEVEL001
 100
AcDbLine
   6
CONTINUOUS
  62
7
  10
 90.322466884293
  20
 227.12331809118
  30
0.0
  11
 90.322466884293
  21
 177.12331809118
  31
0.0
   0
LINE
   5
36C
 100
AcDbEntity
   8
LEVEL001
 100
AcDbLine
   6
CONTINUOUS
  62
7
  10
 90.322466884293
  20
 177.12331809118
  30
0.0
  11
 90.322466884293
  21
 127.12331809118
  31
0.0
   0
LINE
   5
36D
 100
AcDbEntity
   8
LEVEL001
 100
AcDbLine
   6
CONTINUOUS
  62
7
  10
 50.322466884293
  20
 177.12331809118
  30
0.0
  11
 50.322466884293
  21
 127.12331809118
  31
0.0
   0
ARC
   5
36E
 100
AcDbEntity
   8
LEVEL001
   6
CONTINUOUS
  62
7
 100
AcDbCircle
  10
 70.322466884293
  20
 220.37331809118
  30
0.0
  40
 13.000000000000
 100
AcDbArc
  50
 90.000000000000
  51
 180.00000000000
   0
ARC
   5
36F
 100
AcDbEntity
   8
LEVEL001
   6
CONTINUOUS
  62
7
 100
AcDbCircle
  10
 70.322466884293
  20
 133.87331809118
  30
0.0
  40
 13.000000000000
 100
AcDbArc
  50
 180.00000000000
  51
 270.00000000000
   0
LINE
   5
370
 100
AcDbEntity
   8
LEVEL001
 100
AcDbLine
   6
CONTINUOUS
  62
7
  10
 57.322466884293
  20
 177.12331809118
  30
0.0
  11
 57.322466884293
  21
 133.87331809118
  31
0.0
   0
ARC
   5
371
 100
AcDbEntity
   8
LEVEL001
   6
CONTINUOUS
  62
7
 100
AcDbCircle
  10
 70.322466884293
  20
 133.87331809118
  30
0.0
  40
 13.000000000000
 100
AcDbArc
  50
 270.00000000000
  51
0.0
   0
LINE
   5
372
 100
AcDbEntity
   8
LEVEL001
 100
AcDbLine
   6
CONTINUOUS
  62
7
  10
 83.322466884293
  20
 177.12331809118
  30
0.0
  11
 83.322466884293
  21
 133.87331809118
  31
0.0
   0
LINE
   5
373
 100
AcDbEntity
   8
LEVEL001
 100
AcDbLine
   6
DOT
  62
1
  10
 67.072466884293
  20
 238.37331809118
  30
0.0
  11
 67.072466884293
  21
 235.27927327694
  31
0.0
   0
ARC
   5
374
 100
AcDbEntity
   8
LEVEL001
   6
DOT
  62
1
 100
AcDbCircle
  10
 66.072466884298
  20
 235.27927327694
  30
0.0
  40
 1.0000000000000
 100
AcDbArc
  50
 285.91396068592
  51
0.0
   0
ARC
   5
375
 100
AcDbEntity
   8
LEVEL001
   6
DOT
  62
1
 100
AcDbCircle
  10
 70.322466884293
  20
 220.37331809118
  30
0.0
  40
 14.500000000000
 100
AcDbArc
  50
 105.91396068618
  51
 180.00000000000
   0
LINE
   5
376
 100
AcDbEntity
   8
LEVEL001
 100
AcDbLine
   6
DOT
  62
1
  10
 73.572466884293
  20
 238.37331809118
  30
0.0
  11
 73.572466884293
  21
 235.27927327694
  31
0.0
   0
ARC
   5
377
 100
AcDbEntity
   8
LEVEL001
   6
DOT
  62
1
 100
AcDbCircle
  10
 74.572466884290
  20
 235.27927327694
  30
0.0
  40
 1.0000000000000
 100
AcDbArc
  50
 180.00000000006
  51
 254.08603931405
   0
ARC
   5
378
 100
AcDbEntity
   8
LEVEL001
   6
DOT
  62
1
 100
AcDbCircle
  10
 70.322466884293
  20
 220.37331809118
  30
0.0
  40
 14.500000000000
 100
AcDbArc
  50
 0.56153241272735E-12
  51
 74.086039313819
   0
ARC
   5
379
 100
AcDbEntity
   8
LEVEL001
   6
DOT
  62
1
 100
AcDbCircle
  10
 70.322466884293
  20
 238.37331809118
  30
0.0
  40
 3.2500000000000
 100
AcDbArc
  50
0.0
  51
 180.00000000000
   0
LINE
   5
37A
 100
AcDbEntity
   8
LEVEL001
 100
AcDbLine
   6
DOT
  62
1
  10
 55.822466884293
  20
 177.12331809118
  30
0.0
  11
 55.822466884293
  21
 133.87331809118
  31
0.0
   0
LINE
   5
37B
 100
AcDbEntity
   8
LEVEL001
 100
AcDbLine
   6
DOT
  62
1
  10
 84.822466884293
  20
 177.12331809118
  30
0.0
  11
 84.822466884293
  21
 133.87331809118
  31
0.0
   0
ARC
   5
37C
 100
AcDbEntity
   8
LEVEL001
   6
DOT
  62
1
 100
AcDbCircle
  10
 70.322466884293
  20
 133.87331809118
  30
0.0
  40
 14.500000000000
 100
AcDbArc
  50
 285.91396068618
  51
0.0
   0
ARC
   5
37D
 100
AcDbEntity
   8
LEVEL001
   6
DOT
  62
1
 100
AcDbCircle
  10
 70.322466884293
  20
 133.87331809118
  30
0.0
  40
 14.500000000000
 100
AcDbArc
  50
 180.00000000000
  51
 254.08603931382
   0
LINE
   5
37E
 100
AcDbEntity
   8
LEVEL001
 100
AcDbLine
   6
DOT
  62
1
  10
 55.822466884293
  20
 220.37331809118
  30
0.0
  11
 55.822466884293
  21
 177.12331809118
  31
0.0
   0
LINE
   5
37F
 100
AcDbEntity
   8
LEVEL001
 100
AcDbLine
   6
DOT
  62
1
  10
 84.822466884293
  20
 220.37331809118
  30
0.0
  11
 84.822466884293
  21
 177.12331809118
  31
0.0
   0
ARC
   5
380
 100
AcDbEntity
   8
LEVEL001
   6
DOT
  62
1
 100
AcDbCircle
  10
 66.072466884293
  20
 118.96736290541
  30
0.0
  40
 1.0000000000000
 100
AcDbArc
  50
0.0
  51
 74.086039313793
   0
LINE
   5
381
 100
AcDbEntity
   8
LEVEL001
 100
AcDbLine
   6
DOT
  62
1
  10
 67.072466884293
  20
 118.91736290541
  30
0.0
  11
 67.072466884293
  21
 115.87331809118
  31
0.0
   0
ARC
   5
382
 100
AcDbEntity
   8
LEVEL001
   6
DOT
  62
1
 100
AcDbCircle
  10
 70.322466884293
  20
 115.87331809118
  30
0.0
  40
 3.2500000000000
 100
AcDbArc
  50
 180.00000000000
  51
0.0
   0
ARC
   5
383
 100
AcDbEntity
   8
LEVEL001
   6
DOT
  62
1
 100
AcDbCircle
  10
 74.572466884293
  20
 118.96736290541
  30
0.0
  40
 1.0000000000000
 100
AcDbArc
  50
 105.91396068618
  51
 180.00000000000
   0
LINE
   5
384
 100
AcDbEntity
   8
LEVEL001
 100
AcDbLine
   6
DOT
  62
1
  10
 73.572466884293
  20
 118.91736290541
  30
0.0
  11
 73.572466884293
  21
 115.87331809118
  31
0.0
   0
ARC
   5
385
 100
AcDbEntity
   8
LEVEL001
   6
CONTINUOUS
  62
7
 100
AcDbCircle
  10
 70.322466884293
  20
 220.37331809118
  30
0.0
  40
 13.000000000000
 100
AcDbArc
  50
0.0
  51
 90.000000000000
   0
LINE
   5
386
 100
AcDbEntity
   8
LEVEL001
 100
AcDbLine
   6
CONTINUOUS
  62
7
  10
 57.322466884293
  20
 220.37331809118
  30
0.0
  11
 57.322466884293
  21
 177.12331809118
  31
0.0
   0
LINE
   5
387
 100
AcDbEntity
   8
LEVEL001
 100
AcDbLine
   6
CONTINUOUS
  62
7
  10
 83.322466884293
  20
 220.37331809118
  30
0.0
  11
 83.322466884293
  21
 177.12331809118
  31
0.0
   0
CIRCLE
   5
388
 100
AcDbEntity
   8
LEVEL001
 100
AcDbCircle
   6
DOT
  62
1
  10
 70.322466884293
  20
 238.37331809118
  30
0.0
  40
 2.0000000000000
   0
CIRCLE
   5
389
 100
AcDbEntity
   8
LEVEL001
 100
AcDbCircle
   6
DOT
  62
1
  10
 70.322466884293
  20
 238.37331809118
  30
0.0
  40
 1.6500000000000
   0
CIRCLE
   5
38A
 100
AcDbEntity
   8
LEVEL001
 100
AcDbCircle
   6
DOT
  62
1
  10
 70.322466884293
  20
 115.87371552253
  30
0.0
  40
 2.0000000000000
   0
CIRCLE
   5
38B
 100
AcDbEntity
   8
LEVEL001
 100
AcDbCircle
   6
DOT
  62
1
  10
 70.322466884293
  20
 115.87371552253
  30
0.0
  40
 1.6500000000000
   0
DIMENSION
   5
38C
 100
AcDbEntity
   8
LEVEL001
   6
CONTINUOUS
  62
2
 100
AcDbDimension
   2
*D15
  10
 83.322466884293
  20
 93.763136300249
  30
0.0
  11
 70.322466884293
  21
 93.763136300249
  31
0.0
  70
0
   1
\A1;(26)
   3
GMM006
 100
AcDbAlignedDimension
  13
 57.322466884293
  23
 130.51463803379
  33
0.0
  14
 83.322466884293
  24
 130.51463803379
  34
0.0
 100
AcDbRotatedDimension
   0
DIMENSION
   5
38D
 100
AcDbEntity
   8
LEVEL001
   6
CONTINUOUS
  62
2
 100
AcDbDimension
   2
*D16
  10
 90.322466884293
  20
 83.205030130952
  30
0.0
  11
 70.322466884293
  21
 83.205030130952
  31
0.0
  70
0
   3
GMM002
 100
AcDbAlignedDimension
  13
 50.322466884293
  23
 122.12092689079
  33
0.0
  14
 90.322466884293
  24
 122.12092689079
  34
0.0
 100
AcDbRotatedDimension
   0
DIMENSION
   5
38E
 100
AcDbEntity
   8
LEVEL001
   6
CONTINUOUS
  62
2
 100
AcDbDimension
   2
*D17
  10
 113.73143983101
  20
 247.12331809118
  30
0.0
  11
 113.73143983101
  21
 177.12331809118
  31
0.0
  70
0
   3
GMM002
 100
AcDbAlignedDimension
  13
 75.388166349758
  23
 107.12331809118
  33
0.0
  14
 75.388166349758
  24
 247.12331809118
  34
0.0
  50
 90.000000000000
 100
AcDbRotatedDimension
   0
DIMENSION
   5
38F
 100
AcDbEntity
   8
LEVEL001
   6
CONTINUOUS
  62
2
 100
AcDbDimension
   2
*D18
  10
 104.35697785110
  20
 233.37331809118
  30
0.0
  11
 104.35697785110
  21
 177.12331809118
  31
0.0
  70
0
   1
\A1;(112.5)
   3
GMM006
 100
AcDbAlignedDimension
  13
 76.091706637411
  23
 120.87331809118
  33
0.0
  14
 76.091706637411
  24
 233.37331809118
  34
0.0
  50
 90.000000000000
 100
AcDbRotatedDimension
   0
LINE
   5
390
 100
AcDbEntity
   8
LEVEL001
 100
AcDbLine
   6
DASHDOT
  62
3
  10
 75.437750004627
  20
 238.37331809118
  30
0.0
  11
 65.245371537633
  21
 238.37331809118
  31
0.0
   0
LINE
   5
391
 100
AcDbEntity
   8
LEVEL001
 100
AcDbLine
   6
DASHDOT
  62
3
  10
 75.437750004628
  20
 115.87331809118
  30
0.0
  11
 65.245371537633
  21
 115.87331809118
  31
0.0
   0
LINE
   5
392
 100
AcDbEntity
   8
LEVEL001
 100
AcDbLine
   6
DASHDOT
  62
3
  10
 94.605902627082
  20
 177.12331809118
  30
0.0
  11
 45.579225416144
  21
 177.12331809118
  31
0.0
   0
LINE
   5
393
 100
AcDbEntity
   8
LEVEL001
 100
AcDbLine
   6
DASHDOT
  62
3
  10
 70.322466884293
  20
 254.51109074642
  30
0.0
  11
 70.322466884293
  21
 100.81418532970
  31
0.0
   0
DIMENSION
   5
394
 100
AcDbEntity
   8
LEVEL001
   6
CONTINUOUS
  62
2
 100
AcDbDimension
   2
*D19
  10
 70.322466884293
  20
 227.12331809118
  30
0.0
  11
 57.839793024910
  21
 246.55390670804
  31
0.0
  70
132
   3
GMM003
 100
AcDbRadialDimension
  15
 59.512474327941
  25
 243.95020315442
  35
0.0
  40
 3.5377832673627
   0
DIMENSION
   5
395
 100
AcDbEntity
   8
LEVEL001
   6
CONTINUOUS
  62
2
 100
AcDbDimension
   2
*D20
  10
 70.322466884293
  20
 220.37331809118
  30
0.0
  11
 51.209937836142
  21
 237.31034971819
  31
0.0
  70
132
   3
GMM003
 100
AcDbRadialDimension
  15
 59.470416292709
  25
 229.99012618730
  35
0.0
  40
 11.169599472849
   0
DIMENSION
   5
396
 100
AcDbEntity
   8
LEVEL001
   6
CONTINUOUS
  62
2
 100
AcDbDimension
   2
*D21
  10
 183.99127774711
  20
 115.87331809118
  30
0.0
  11
 183.99127774711
  21
 177.12331809118
  31
0.0
  70
0
   3
GMM002
 100
AcDbAlignedDimension
  13
 209.96306622971
  23
 238.37331809118
  33
0.0
  14
 209.96306622971
  24
 115.87331809118
  34
0.0
  50
 270.00000000000
 100
AcDbRotatedDimension
   0
ARC
   5
397
 100
AcDbEntity
   8
LEVEL001
   6
CONTINUOUS
  62
7
 100
AcDbCircle
  10
 215.13882269492
  20
 127.12331809118
  30
0.0
  40
 20.000000000000
 100
AcDbArc
  50
 180.00000000000
  51
 270.00000000000
   0
ARC
   5
398
 100
AcDbEntity
   8
LEVEL001
   6
CONTINUOUS
  62
7
 100
AcDbCircle
  10
 215.13882269492
  20
 227.12331809118
  30
0.0
  40
 20.000000000000
 100
AcDbArc
  50
 90.000000000000
  51
 180.00000000000
   0
ARC
   5
399
 100
AcDbEntity
   8
LEVEL001
   6
CONTINUOUS
  62
7
 100
AcDbCircle
  10
 215.13882269492
  20
 227.12331809118
  30
0.0
  40
 20.000000000000
 100
AcDbArc
  50
0.0
  51
 90.000000000000
   0
ARC
   5
39A
 100
AcDbEntity
   8
LEVEL001
   6
CONTINUOUS
  62
7
 100
AcDbCircle
  10
 215.13882269492
  20
 127.12331809118
  30
0.0
  40
 20.000000000000
 100
AcDbArc
  50
 270.00000000000
  51
0.0
   0
LINE
   5
39B
 100
AcDbEntity
   8
LEVEL001
 100
AcDbLine
   6
CONTINUOUS
  62
7
  10
 195.13882269492
  20
 227.12331809118
  30
0.0
  11
 195.13882269492
  21
 177.12331809118
  31
0.0
   0
LINE
   5
39C
 100
AcDbEntity
   8
LEVEL001
 100
AcDbLine
   6
CONTINUOUS
  62
7
  10
 235.13882269492
  20
 227.12331809118
  30
0.0
  11
 235.13882269492
  21
 177.12331809118
  31
0.0
   0
LINE
   5
39D
 100
AcDbEntity
   8
LEVEL001
 100
AcDbLine
   6
CONTINUOUS
  62
7
  10
 235.13882269492
  20
 177.12331809118
  30
0.0
  11
 235.13882269492
  21
 127.12331809118
  31
0.0
   0
LINE
   5
39E
 100
AcDbEntity
   8
LEVEL001
 100
AcDbLine
   6
CONTINUOUS
  62
7
  10
 195.13882269492
  20
 177.12331809118
  30
0.0
  11
 195.13882269492
  21
 127.12331809118
  31
0.0
   0
ARC
   5
39F
 100
AcDbEntity
   8
LEVEL001
   6
CONTINUOUS
  62
7
 100
AcDbCircle
  10
 215.13882269492
  20
 220.37331809118
  30
0.0
  40
 13.000000000000
 100
AcDbArc
  50
 90.000000000000
  51
 180.00000000000
   0
ARC
   5
3A0
 100
AcDbEntity
   8
LEVEL001
   6
CONTINUOUS
  62
7
 100
AcDbCircle
  10
 215.13882269492
  20
 133.87331809118
  30
0.0
  40
 13.000000000000
 100
AcDbArc
  50
 180.00000000000
  51
 270.00000000000
   0
LINE
   5
3A1
 100
AcDbEntity
   8
LEVEL001
 100
AcDbLine
   6
CONTINUOUS
  62
7
  10
 202.13882269492
  20
 177.12331809118
  30
0.0
  11
 202.13882269492
  21
 133.87331809118
  31
0.0
   0
ARC
   5
3A2
 100
AcDbEntity
   8
LEVEL001
   6
CONTINUOUS
  62
7
 100
AcDbCircle
  10
 215.13882269492
  20
 133.87331809118
  30
0.0
  40
 13.000000000000
 100
AcDbArc
  50
 270.00000000000
  51
0.0
   0
LINE
   5
3A3
 100
AcDbEntity
   8
LEVEL001
 100
AcDbLine
   6
CONTINUOUS
  62
7
  10
 228.13882269492
  20
 177.12331809118
  30
0.0
  11
 228.13882269492
  21
 133.87331809118
  31
0.0
   0
LINE
   5
3A4
 100
AcDbEntity
   8
LEVEL001
 100
AcDbLine
   6
DOT
  62
1
  10
 211.88882269492
  20
 238.37331809118
  30
0.0
  11
 211.88882269492
  21
 235.27927327694
  31
0.0
   0
ARC
   5
3A5
 100
AcDbEntity
   8
LEVEL001
   6
DOT
  62
1
 100
AcDbCircle
  10
 210.88882269492
  20
 235.27927327694
  30
0.0
  40
 1.0000000000000
 100
AcDbArc
  50
 285.91396068592
  51
0.0
   0
ARC
   5
3A6
 100
AcDbEntity
   8
LEVEL001
   6
DOT
  62
1
 100
AcDbCircle
  10
 215.13882269492
  20
 220.37331809118
  30
0.0
  40
 14.500000000000
 100
AcDbArc
  50
 105.91396068618
  51
 180.00000000000
   0
LINE
   5
3A7
 100
AcDbEntity
   8
LEVEL001
 100
AcDbLine
   6
DOT
  62
1
  10
 218.38882269492
  20
 238.37331809118
  30
0.0
  11
 218.38882269492
  21
 235.27927327694
  31
0.0
   0
ARC
   5
3A8
 100
AcDbEntity
   8
LEVEL001
   6
DOT
  62
1
 100
AcDbCircle
  10
 219.38882269491
  20
 235.27927327694
  30
0.0
  40
 1.0000000000000
 100
AcDbArc
  50
 180.00000000006
  51
 254.08603931405
   0
ARC
   5
3A9
 100
AcDbEntity
   8
LEVEL001
   6
DOT
  62
1
 100
AcDbCircle
  10
 215.13882269492
  20
 220.37331809118
  30
0.0
  40
 14.500000000000
 100
AcDbArc
  50
 0.56153241272735E-12
  51
 74.086039313819
   0
ARC
   5
3AA
 100
AcDbEntity
   8
LEVEL001
   6
DOT
  62
1
 100
AcDbCircle
  10
 215.13882269492
  20
 238.37331809118
  30
0.0
  40
 3.2500000000000
 100
AcDbArc
  50
0.0
  51
 180.00000000000
   0
LINE
   5
3AB
 100
AcDbEntity
   8
LEVEL001
 100
AcDbLine
   6
DOT
  62
1
  10
 200.63882269492
  20
 177.12331809118
  30
0.0
  11
 200.63882269492
  21
 133.87331809118
  31
0.0
   0
LINE
   5
3AC
 100
AcDbEntity
   8
LEVEL001
 100
AcDbLine
   6
DOT
  62
1
  10
 229.63882269492
  20
 177.12331809118
  30
0.0
  11
 229.63882269492
  21
 133.87331809118
  31
0.0
   0
ARC
   5
3AD
 100
AcDbEntity
   8
LEVEL001
   6
DOT
  62
1
 100
AcDbCircle
  10
 215.13882269492
  20
 133.87331809118
  30
0.0
  40
 14.500000000000
 100
AcDbArc
  50
 285.91396068618
  51
0.0
   0
ARC
   5
3AE
 100
AcDbEntity
   8
LEVEL001
   6
DOT
  62
1
 100
AcDbCircle
  10
 215.13882269492
  20
 133.87331809118
  30
0.0
  40
 14.500000000000
 100
AcDbArc
  50
 180.00000000000
  51
 254.08603931382
   0
LINE
   5
3AF
 100
AcDbEntity
   8
LEVEL001
 100
AcDbLine
   6
DOT
  62
1
  10
 200.63882269492
  20
 220.37331809118
  30
0.0
  11
 200.63882269492
  21
 177.12331809118
  31
0.0
   0
LINE
   5
3B0
 100
AcDbEntity
   8
LEVEL001
 100
AcDbLine
   6
DOT
  62
1
  10
 229.63882269492
  20
 220.37331809118
  30
0.0
  11
 229.63882269492
  21
 177.12331809118
  31
0.0
   0
ARC
   5
3B1
 100
AcDbEntity
   8
LEVEL001
   6
DOT
  62
1
 100
AcDbCircle
  10
 210.88882269492
  20
 118.96736290541
  30
0.0
  40
 1.0000000000000
 100
AcDbArc
  50
0.0
  51
 74.086039313793
   0
LINE
   5
3B2
 100
AcDbEntity
   8
LEVEL001
 100
AcDbLine
   6
DOT
  62
1
  10
 211.88882269492
  20
 118.91736290541
  30
0.0
  11
 211.88882269492
  21
 115.87331809118
  31
0.0
   0
ARC
   5
3B3
 100
AcDbEntity
   8
LEVEL001
   6
DOT
  62
1
 100
AcDbCircle
  10
 215.13882269492
  20
 115.87331809118
  30
0.0
  40
 3.2500000000000
 100
AcDbArc
  50
 180.00000000000
  51
0.0
   0
ARC
   5
3B4
 100
AcDbEntity
   8
LEVEL001
   6
DOT
  62
1
 100
AcDbCircle
  10
 219.38882269492
  20
 118.96736290541
  30
0.0
  40
 1.0000000000000
 100
AcDbArc
  50
 105.91396068618
  51
 180.00000000000
   0
LINE
   5
3B5
 100
AcDbEntity
   8
LEVEL001
 100
AcDbLine
   6
DOT
  62
1
  10
 218.38882269492
  20
 118.91736290541
  30
0.0
  11
 218.38882269492
  21
 115.87331809118
  31
0.0
   0
ARC
   5
3B6
 100
AcDbEntity
   8
LEVEL001
   6
CONTINUOUS
  62
7
 100
AcDbCircle
  10
 215.13882269492
  20
 220.37331809118
  30
0.0
  40
 13.000000000000
 100
AcDbArc
  50
0.0
  51
 90.000000000000
   0
LINE
   5
3B7
 100
AcDbEntity
   8
LEVEL001
 100
AcDbLine
   6
CONTINUOUS
  62
7
  10
 202.13882269492
  20
 220.37331809118
  30
0.0
  11
 202.13882269492
  21
 177.12331809118
  31
0.0
   0
LINE
   5
3B8
 100
AcDbEntity
   8
LEVEL001
 100
AcDbLine
   6
CONTINUOUS
  62
7
  10
 228.13882269492
  20
 220.37331809118
  30
0.0
  11
 228.13882269492
  21
 177.12331809118
  31
0.0
   0
DIMENSION
   5
3B9
 100
AcDbEntity
   8
LEVEL001
   6
CONTINUOUS
  62
2
 100
AcDbDimension
   2
*D22
  10
 228.13882269492
  20
 93.763136300249
  30
0.0
  11
 215.13882269492
  21
 93.763136300249
  31
0.0
  70
0
   1
\A1;(26)
   3
GMM006
 100
AcDbAlignedDimension
  13
 202.13882269492
  23
 130.51463803379
  33
0.0
  14
 228.13882269492
  24
 130.51463803379
  34
0.0
 100
AcDbRotatedDimension
   0
DIMENSION
   5
3BA
 100
AcDbEntity
   8
LEVEL001
   6
CONTINUOUS
  62
2
 100
AcDbDimension
   2
*D23
  10
 235.13882269492
  20
 83.205030130952
  30
0.0
  11
 215.13882269492
  21
 83.205030130952
  31
0.0
  70
0
   3
GMM002
 100
AcDbAlignedDimension
  13
 195.13882269492
  23
 122.12092689079
  33
0.0
  14
 235.13882269492
  24
 122.12092689079
  34
0.0
 100
AcDbRotatedDimension
   0
DIMENSION
   5
3BB
 100
AcDbEntity
   8
LEVEL001
   6
CONTINUOUS
  62
2
 100
AcDbDimension
   2
*D24
  10
 258.54779564163
  20
 247.12331809118
  30
0.0
  11
 258.54779564163
  21
 177.12331809118
  31
0.0
  70
0
   3
GMM002
 100
AcDbAlignedDimension
  13
 220.20452216038
  23
 107.12331809118
  33
0.0
  14
 220.20452216038
  24
 247.12331809118
  34
0.0
  50
 90.000000000000
 100
AcDbRotatedDimension
   0
DIMENSION
   5
3BC
 100
AcDbEntity
   8
LEVEL001
   6
CONTINUOUS
  62
2
 100
AcDbDimension
   2
*D25
  10
 249.17333366172
  20
 233.37331809118
  30
0.0
  11
 249.17333366172
  21
 177.12331809118
  31
0.0
  70
0
   1
\A1;(112.5)
   3
GMM006
 100
AcDbAlignedDimension
  13
 220.90806244803
  23
 120.87331809118
  33
0.0
  14
 220.90806244803
  24
 233.37331809118
  34
0.0
  50
 90.000000000000
 100
AcDbRotatedDimension
   0
LINE
   5
3BD
 100
AcDbEntity
   8
LEVEL001
 100
AcDbLine
   6
DASHDOT
  62
3
  10
 220.25410581525
  20
 115.87331809118
  30
0.0
  11
 210.06172734826
  21
 115.87331809118
  31
0.0
   0
LINE
   5
3BE
 100
AcDbEntity
   8
LEVEL001
 100
AcDbLine
   6
DASHDOT
  62
3
  10
 239.42225843770
  20
 177.12331809118
  30
0.0
  11
 190.39558122677
  21
 177.12331809118
  31
0.0
   0
LINE
   5
3BF
 100
AcDbEntity
   8
LEVEL001
 100
AcDbLine
   6
DASHDOT
  62
3
  10
 215.13882269492
  20
 254.51109074642
  30
0.0
  11
 215.13882269492
  21
 100.81418532970
  31
0.0
   0
DIMENSION
   5
3C0
 100
AcDbEntity
   8
LEVEL001
   6
CONTINUOUS
  62
2
 100
AcDbDimension
   2
*D26
  10
 215.13882269492
  20
 227.12331809118
  30
0.0
  11
 202.65614883553
  21
 246.55390670804
  31
0.0
  70
132
   3
GMM003
 100
AcDbRadialDimension
  15
 204.32883013856
  25
 243.95020315442
  35
0.0
  40
 3.5377832673627
   0
DIMENSION
   5
3C1
 100
AcDbEntity
   8
LEVEL001
   6
CONTINUOUS
  62
2
 100
AcDbDimension
   2
*D27
  10
 215.13882269492
  20
 220.37331809118
  30
0.0
  11
 196.02629364676
  21
 237.31034971819
  31
0.0
  70
132
   3
GMM003
 100
AcDbRadialDimension
  15
 204.28677210333
  25
 229.99012618730
  35
0.0
  40
 11.169599472849
   0
CIRCLE
   5
3C2
 100
AcDbEntity
   8
LEVEL001
 100
AcDbCircle
   6
CONTINUOUS
  62
15
  10
 215.13882269492
  20
 115.87371552253
  30
0.0
  40
 2.0000000000000
   0
CIRCLE
   5
3C3
 100
AcDbEntity
   8
LEVEL001
 100
AcDbCircle
   6
CONTINUOUS
  62
15
  10
 215.13882269492
  20
 115.87371552253
  30
0.0
  40
 1.6500000000000
   0
CIRCLE
   5
3C4
 100
AcDbEntity
   8
LEVEL001
 100
AcDbCircle
   6
CONTINUOUS
  62
7
  10
 215.13882269492
  20
 115.87331809118
  30
0.0
  40
 2.2000000000000
   0
CIRCLE
   5
3C5
 100
AcDbEntity
   8
LEVEL001
 100
AcDbCircle
   6
CONTINUOUS
  62
7
  10
 215.13882269492
  20
 115.87331809118
  30
0.0
  40
 3.2500000000000
   0
LINE
   5
3C6
 100
AcDbEntity
   8
LEVEL001
 100
AcDbLine
   6
DASHDOT
  62
3
  10
 220.25410581525
  20
 238.37331809118
  30
0.0
  11
 210.06172734826
  21
 238.37331809118
  31
0.0
   0
CIRCLE
   5
3C7
 100
AcDbEntity
   8
LEVEL001
 100
AcDbCircle
   6
CONTINUOUS
  62
15
  10
 215.13882269492
  20
 238.37292065982
  30
0.0
  40
 2.0000000000000
   0
CIRCLE
   5
3C8
 100
AcDbEntity
   8
LEVEL001
 100
AcDbCircle
   6
CONTINUOUS
  62
15
  10
 215.13882269492
  20
 238.37292065982
  30
0.0
  40
 1.6500000000000
   0
CIRCLE
   5
3C9
 100
AcDbEntity
   8
LEVEL001
 100
AcDbCircle
   6
CONTINUOUS
  62
7
  10
 215.13882269492
  20
 238.37331809118
  30
0.0
  40
 2.2000000000000
   0
CIRCLE
   5
3CA
 100
AcDbEntity
   8
LEVEL001
 100
AcDbCircle
   6
CONTINUOUS
  62
7
  10
 215.13882269492
  20
 238.37331809118
  30
0.0
  40
 3.2500000000000
   0
INSERT
   5
3CB
 100
AcDbEntity
   8
LEVEL001
 100
AcDbBlockReference
   2
*D28
  10
0.0
  20
0.0
  30
0.0
   0
TEXT
   5
3CC
 100
AcDbEntity
   8
LEVEL001
  62
7
 100
AcDbText
  10
 211.30018482025
  20
 73.015246585974
  30
0.0
  40
 4.5000000000000
   1
穴側
   7
STANDARD
 100
AcDbText
   0
LINE
   5
3CD
 100
AcDbEntity
   8
LEVEL001
 100
AcDbLine
   6
CONTINUOUS
  62
7
  10
 209.52531488631
  20
 71.301850451085
  30
0.0
  11
 222.46649135690
  21
 71.301850451085
  31
0.0
   0
TEXT
   5
3CE
 100
AcDbEntity
   8
LEVEL001
  62
7
 100
AcDbText
  10
 61.403484676771
  20
 73.015246585974
  30
0.0
  40
 4.5000000000000
   1
タップ側
   7
STANDARD
 100
AcDbText
   0
LINE
   5
3CF
 100
AcDbEntity
   8
LEVEL001
 100
AcDbLine
   6
CONTINUOUS
  62
7
  10
 59.628614742840
  20
 71.301850451085
  30
0.0
  11
 80.648024820288
  21
 71.301850451085
  31
0.0
   0
LINE
   5
3D0
 100
AcDbEntity
   8
LEVEL001
 100
AcDbLine
   6
CONTINUOUS
  62
7
  10
 387.59670016456
  20
-87.418884157749
  30
0.0
  11
 354.59670016456
  21
-87.418884157749
  31
0.0
   0
LINE
   5
3D1
 100
AcDbEntity
   8
LEVEL001
 100
AcDbLine
   6
CONTINUOUS
  62
7
  10
 387.59670016456
  20
-217.41888415775
  30
0.0
  11
 354.59670016456
  21
-217.41888415775
  31
0.0
   0
LINE
   5
3D2
 100
AcDbEntity
   8
LEVEL001
 100
AcDbLine
   6
CONTINUOUS
  62
15
  10
 354.59670016456
  20
-217.41888415775
  30
0.0
  11
 354.59670016456
  21
-87.418884157749
  31
0.0
   0
LINE
   5
3D3
 100
AcDbEntity
   8
LEVEL001
 100
AcDbLine
   6
CONTINUOUS
  62
15
  10
 387.59670016456
  20
-87.418884157749
  30
0.0
  11
 387.59670016456
  21
-217.41888415775
  31
0.0
   0
LINE
   5
3D4
 100
AcDbEntity
   8
LEVEL001
 100
AcDbLine
   6
CONTINUOUS
  62
7
  10
 387.59670016456
  20
-232.13663590231
  30
0.0
  11
 387.59670016456
  21
-217.41888415775
  31
0.0
   0
LINE
   5
3D5
 100
AcDbEntity
   8
LEVEL001
 100
AcDbLine
   6
CONTINUOUS
  62
7
  10
 354.59670016456
  20
-232.00294459743
  30
0.0
  11
 354.59670016456
  21
-217.41888415775
  31
0.0
   0
INSERT
   5
3D6
 100
AcDbEntity
   8
LEVEL001
 100
AcDbBlockReference
   2
HATCH003
  10
0.0
  20
0.0
  30
0.0
   0
LINE
   5
3D7
 100
AcDbEntity
   8
LEVEL001
 100
AcDbLine
   6
CONTINUOUS
  62
7
  10
 354.59670016456
  20
-87.418884157749
  30
0.0
  11
 354.59670016456
  21
-74.544126037133
  31
0.0
   0
LINE
   5
3D8
 100
AcDbEntity
   8
LEVEL001
 100
AcDbLine
   6
CONTINUOUS
  62
7
  10
 387.59670016456
  20
-87.418884157749
  30
0.0
  11
 387.59670016456
  21
-74.544126037133
  31
0.0
   0
INSERT
   5
3D9
 100
AcDbEntity
   8
LEVEL001
 100
AcDbBlockReference
   2
HATCH004
  10
0.0
  20
0.0
  30
0.0
   0
DIMENSION
   5
3DA
 100
AcDbEntity
   8
LEVEL001
   6
CONTINUOUS
  62
2
 100
AcDbDimension
   2
*D29
  10
 387.59670016456
  20
-243.59020565370
  30
0.0
  11
 371.09670016456
  21
-243.59020565370
  31
0.0
  70
0
   1
\A1;扉厚:27～34
   3
GMM001
 100
AcDbAlignedDimension
  13
 354.59670016456
  23
-232.00294459743
  33
0.0
  14
 387.59670016456
  24
-232.13663590231
  34
0.0
 100
AcDbRotatedDimension
   0
ARC
   5
3DB
 100
AcDbEntity
   8
LEVEL001
   6
CONTINUOUS
  62
7
 100
AcDbCircle
  10
 319.34653765021
  20
-202.41888415775
  30
0.0
  40
 15.000000000000
 100
AcDbArc
  50
 180.00000000000
  51
 270.00000000000
   0
POINT
   5
3DC
 100
AcDbEntity
   8
LEVEL001
 100
AcDbPoint
  62
7
  10
 304.34653765021
  20
-217.41888415775
  30
0.0
   0
LINE
   5
3DD
 100
AcDbEntity
   8
LEVEL001
 100
AcDbLine
   6
CONTINUOUS
  62
7
  10
 334.34653765021
  20
-202.41888415775
  30
0.0
  11
 334.34653765021
  21
-152.41888415775
  31
0.0
   0
ARC
   5
3DE
 100
AcDbEntity
   8
LEVEL001
   6
CONTINUOUS
  62
7
 100
AcDbCircle
  10
 319.34653765021
  20
-202.41888415775
  30
0.0
  40
 15.000000000000
 100
AcDbArc
  50
 270.00000000000
  51
0.0
   0
POINT
   5
3DF
 100
AcDbEntity
   8
LEVEL001
 100
AcDbPoint
  62
7
  10
 334.34653765021
  20
-217.41888415775
  30
0.0
   0
ARC
   5
3E0
 100
AcDbEntity
   8
LEVEL001
   6
CONTINUOUS
  62
7
 100
AcDbCircle
  10
 319.34653765021
  20
-102.41888415775
  30
0.0
  40
 15.000000000000
 100
AcDbArc
  50
 0.65137759876373E-12
  51
 90.000000000000
   0
POINT
   5
3E1
 100
AcDbEntity
   8
LEVEL001
 100
AcDbPoint
  62
7
  10
 334.34653765021
  20
-87.418884157749
  30
0.0
   0
LINE
   5
3E2
 100
AcDbEntity
   8
LEVEL001
 100
AcDbLine
   6
CONTINUOUS
  62
7
  10
 334.34653765021
  20
-152.41888415775
  30
0.0
  11
 334.34653765021
  21
-102.41888415775
  31
0.0
   0
LINE
   5
3E3
 100
AcDbEntity
   8
LEVEL001
 100
AcDbLine
   6
CONTINUOUS
  62
7
  10
 304.34653765021
  20
-152.41888415775
  30
0.0
  11
 304.34653765021
  21
-102.41888415775
  31
0.0
   0
ARC
   5
3E4
 100
AcDbEntity
   8
LEVEL001
   6
CONTINUOUS
  62
7
 100
AcDbCircle
  10
 319.34653765021
  20
-102.41888415775
  30
0.0
  40
 15.000000000000
 100
AcDbArc
  50
 90.000000000001
  51
 180.00000000000
   0
POINT
   5
3E5
 100
AcDbEntity
   8
LEVEL001
 100
AcDbPoint
  62
7
  10
 304.34653765021
  20
-87.418884157749
  30
0.0
   0
LINE
   5
3E6
 100
AcDbEntity
   8
LEVEL001
 100
AcDbLine
   6
CONTINUOUS
  62
7
  10
 304.34653765021
  20
-202.41888415775
  30
0.0
  11
 304.34653765021
  21
-152.41888415775
  31
0.0
   0
LINE
   5
3E7
 100
AcDbEntity
   8
LEVEL001
 100
AcDbLine
   6
DASHDOT
  62
3
  10
 296.29902369563
  20
-152.41888415775
  30
0.0
  11
 342.74522168702
  21
-152.41888415775
  31
0.0
   0
DIMENSION
   5
3E8
 100
AcDbEntity
   8
LEVEL001
   6
CONTINUOUS
  62
2
 100
AcDbDimension
   2
*D30
  10
 334.34653765021
  20
-234.97456473663
  30
0.0
  11
 319.34653765021
  21
-234.97456473663
  31
0.0
  70
0
   3
GMM002
 100
AcDbAlignedDimension
  13
 304.34653765021
  23
-217.41888415775
  33
0.0
  14
 334.34653765021
  24
-217.41888415775
  34
0.0
 100
AcDbRotatedDimension
   0
LINE
   5
3E9
 100
AcDbEntity
   8
LEVEL001
 100
AcDbLine
   6
DASHDOT
  62
3
  10
 319.34653765021
  20
-225.60010275672
  30
0.0
  11
 319.34653765021
  21
-76.691327681480
  31
0.0
   0
DIMENSION
   5
3EA
 100
AcDbEntity
   8
LEVEL001
   6
CONTINUOUS
  62
2
 100
AcDbDimension
   2
*D31
  10
 319.34653765021
  20
-102.41888415775
  30
0.0
  11
 309.00536442494
  21
-86.971695296170
  31
0.0
  70
132
   3
GMM003
 100
AcDbRadialDimension
  15
 311.00200222748
  25
-89.954184860179
  35
0.0
  40
 3.9775095253372
   0
DIMENSION
   5
3EB
 100
AcDbEntity
   8
LEVEL001
   6
CONTINUOUS
  62
2
 100
AcDbDimension
   2
*D32
  10
 319.34653765021
  20
-202.41888415775
  30
0.0
  11
 334.85615352107
  21
-222.47528209675
  31
0.0
  70
132
   3
GMM003
 100
AcDbRadialDimension
  15
 328.52250599166
  25
-214.28486936745
  35
0.0
  40
 10.494604671607
   0
DIMENSION
   5
3EC
 100
AcDbEntity
   8
LEVEL001
   6
CONTINUOUS
  62
2
 100
AcDbDimension
   2
*D33
  10
 287.00574047383
  20
-87.418884157749
  30
0.0
  11
 287.00574047383
  21
-152.41888415775
  31
0.0
  70
0
   3
GMM002
 100
AcDbAlignedDimension
  13
 304.34653765021
  23
-217.41888415775
  33
0.0
  14
 304.34653765021
  24
-87.418884157749
  34
0.0
  50
 90.000000000000
 100
AcDbRotatedDimension
   0
LINE
   5
3ED
 100
AcDbEntity
   8
LEVEL001
 100
AcDbLine
   6
DASHDOT
  62
3
  10
 348.88919289385
  20
-152.41888415775
  30
0.0
  11
 393.20483134436
  21
-152.41888415775
  31
0.0
   0
TEXT
   5
3EE
 100
AcDbEntity
   8
LEVEL001
  62
7
 100
AcDbText
  10
 331.36905139127
  20
-256.52695566295
  30
0.0
  40
 4.5000000000000
   1
参考掘込図
   7
STANDARD
 100
AcDbText
   0
LINE
   5
3EF
 100
AcDbEntity
   8
LEVEL001
 100
AcDbLine
   6
CONTINUOUS
  62
7
  10
 328.70020902632
  20
-258.24035179784
  30
0.0
  11
 355.46634962891
  21
-258.24035179784
  31
0.0
   0
LINE
   5
3F0
 100
AcDbEntity
   8
LEVEL001
 100
AcDbLine
   6
DASHDOT
  62
3
  10
 165.73049169660
  20
-152.41888415775
  30
0.0
  11
 125.74165063172
  21
-152.41888415775
  31
0.0
   0
ARC
   5
3F1
 100
AcDbEntity
   8
LEVEL001
   6
CONTINUOUS
  62
7
 100
AcDbCircle
  10
 131.03300249143
  20
-221.41888415775
  30
0.0
  40
 1.0000000000000
 100
AcDbArc
  50
 179.99999999998
  51
 270.00000000000
   0
POINT
   5
3F2
 100
AcDbEntity
   8
LEVEL001
 100
AcDbPoint
  62
7
  10
 130.03300249143
  20
-222.41888415775
  30
0.0
   0
LINE
   5
3F3
 100
AcDbEntity
   8
LEVEL001
 100
AcDbLine
   6
DOT
  62
1
  10
 144.03300249143
  20
-215.31888415775
  30
0.0
  11
 144.03300249143
  21
-215.66888415775
  31
0.0
   0
LINE
   5
3F4
 100
AcDbEntity
   8
LEVEL001
 100
AcDbLine
   6
DOT
  62
1
  10
 144.03300249143
  20
-215.31888415775
  30
0.0
  11
 132.83300249143
  21
-215.31888415775
  31
0.0
   0
LINE
   5
3F5
 100
AcDbEntity
   8
LEVEL001
 100
AcDbLine
   6
DOT
  62
1
  10
 144.03300249143
  20
-215.66888415775
  30
0.0
  11
 132.83300249143
  21
-215.66888415775
  31
0.0
   0
LINE
   5
3F6
 100
AcDbEntity
   8
LEVEL001
 100
AcDbLine
   6
DOT
  62
1
  10
 132.83300249143
  20
-215.31888415775
  30
0.0
  11
 131.83300249143
  21
-215.31888415775
  31
0.0
   0
LINE
   5
3F7
 100
AcDbEntity
   8
LEVEL001
 100
AcDbLine
   6
DOT
  62
1
  10
 132.48300249134
  20
-215.31888415775
  30
0.0
  11
 132.83300249134
  21
-215.66888415775
  31
0.0
   0
LINE
   5
3F8
 100
AcDbEntity
   8
LEVEL001
 100
AcDbLine
   6
DOT
  62
1
  10
 144.03300249143
  20
-212.01888415775
  30
0.0
  11
 132.83300249143
  21
-212.01888415775
  31
0.0
   0
LINE
   5
3F9
 100
AcDbEntity
   8
LEVEL001
 100
AcDbLine
   6
DOT
  62
1
  10
 144.03300249143
  20
-211.66888415775
  30
0.0
  11
 132.83300249143
  21
-211.66888415775
  31
0.0
   0
LINE
   5
3FA
 100
AcDbEntity
   8
LEVEL001
 100
AcDbLine
   6
DOT
  62
1
  10
 132.83300249143
  20
-212.01888415775
  30
0.0
  11
 131.83300249143
  21
-212.01888415775
  31
0.0
   0
LINE
   5
3FB
 100
AcDbEntity
   8
LEVEL001
 100
AcDbLine
   6
DOT
  62
1
  10
 132.48300249134
  20
-212.01888415775
  30
0.0
  11
 132.83300249134
  21
-211.66888415775
  31
0.0
   0
LINE
   5
3FC
 100
AcDbEntity
   8
LEVEL001
 100
AcDbLine
   6
DOT
  62
1
  10
 144.03300249143
  20
-211.66888415774
  30
0.0
  11
 144.53300249143
  21
-211.16888415774
  31
0.0
   0
LINE
   5
3FD
 100
AcDbEntity
   8
LEVEL001
 100
AcDbLine
   6
DOT
  62
1
  10
 144.03300249143
  20
-211.66888415774
  30
0.0
  11
 144.03300249143
  21
-215.31888415775
  31
0.0
   0
LINE
   5
3FE
 100
AcDbEntity
   8
LEVEL001
 100
AcDbLine
   6
DOT
  62
1
  10
 132.83300249143
  20
-211.66888415775
  30
0.0
  11
 132.83300249143
  21
-215.66888415775
  31
0.0
   0
LINE
   5
3FF
 100
AcDbEntity
   8
LEVEL001
 100
AcDbLine
   6
DOT
  62
1
  10
 131.83300249143
  20
-212.01888415775
  30
0.0
  11
 131.83300249143
  21
-215.31888415775
  31
0.0
   0
LINE
   5
400
 100
AcDbEntity
   8
LEVEL001
 100
AcDbLine
   6
DOT
  62
1
  10
 132.48300249134
  20
-212.01888415775
  30
0.0
  11
 132.48300249134
  21
-215.31888415775
  31
0.0
   0
ARC
   5
401
 100
AcDbEntity
   8
LEVEL001
   6
CONTINUOUS
  62
7
 100
AcDbCircle
  10
 143.53300249143
  20
-215.64135319936
  30
0.0
  40
 1.0000000000000
 100
AcDbArc
  50
 271.30195267258
  51
 0.99335083811469E-10
   0
POINT
   5
402
 100
AcDbEntity
   8
LEVEL001
 100
AcDbPoint
  62
7
  10
 144.53300249143
  20
-216.61888415775
  30
0.0
   0
LINE
   5
403
 100
AcDbEntity
   8
LEVEL001
 100
AcDbLine
   6
CONTINUOUS
  62
7
  10
 144.53300249143
  20
-152.41888415775
  30
0.0
  11
 144.53300249143
  21
-215.64135319936
  31
0.0
   0
LINE
   5
404
 100
AcDbEntity
   8
LEVEL001
 100
AcDbLine
   6
DOT
  62
1
  10
 144.03300249143
  20
-215.66888415776
  30
0.0
  11
 144.43571525733
  21
-216.07159692365
  31
0.0
   0
LINE
   5
405
 100
AcDbEntity
   8
LEVEL001
 100
AcDbLine
   6
CONTINUOUS
  62
7
  10
 130.03300249143
  20
-152.41888415775
  30
0.0
  11
 130.03300249143
  21
-221.41888415775
  31
0.0
   0
ARC
   5
406
 100
AcDbEntity
   8
LEVEL001
   6
CONTINUOUS
  62
7
 100
AcDbCircle
  10
 161.03300249143
  20
-221.41888415775
  30
0.0
  40
 1.0000000000000
 100
AcDbArc
  50
 270.00000000000
  51
 0.48853319907280E-11
   0
POINT
   5
407
 100
AcDbEntity
   8
LEVEL001
 100
AcDbPoint
  62
7
  10
 162.03300249143
  20
-222.41888415775
  30
0.0
   0
LINE
   5
408
 100
AcDbEntity
   8
LEVEL001
 100
AcDbLine
   6
CONTINUOUS
  62
7
  10
 162.03300249143
  20
-221.41888415775
  30
0.0
  11
 162.03300249143
  21
-152.41888415775
  31
0.0
   0
ARC
   5
409
 100
AcDbEntity
   8
LEVEL001
   6
CONTINUOUS
  62
7
 100
AcDbCircle
  10
 148.53300249143
  20
-215.64135319936
  30
0.0
  40
 1.0000000000000
 100
AcDbArc
  50
 179.99999999995
  51
 268.69804732742
   0
POINT
   5
40A
 100
AcDbEntity
   8
LEVEL001
 100
AcDbPoint
  62
7
  10
 147.53300249143
  20
-216.61888415775
  30
0.0
   0
LINE
   5
40B
 100
AcDbEntity
   8
LEVEL001
 100
AcDbLine
   6
DOT
  62
1
  10
 162.03300249132
  20
-216.91888415775
  30
0.0
  11
 160.98300249132
  21
-215.86888415775
  31
0.0
   0
LINE
   5
40C
 100
AcDbEntity
   8
LEVEL001
 100
AcDbLine
   6
DOT
  62
1
  10
 147.53300249143
  20
-211.46888415775
  30
0.0
  11
 160.98300249132
  21
-211.46888415775
  31
0.0
   0
LINE
   5
40D
 100
AcDbEntity
   8
LEVEL001
 100
AcDbLine
   6
DOT
  62
1
  10
 162.03300249132
  20
-210.41888415775
  30
0.0
  11
 160.98300249132
  21
-211.46888415775
  31
0.0
   0
LINE
   5
40E
 100
AcDbEntity
   8
LEVEL001
 100
AcDbLine
   6
DOT
  62
1
  10
 147.55923164417
  20
-215.86888415775
  30
0.0
  11
 160.98300249132
  21
-215.86888415775
  31
0.0
   0
LINE
   5
40F
 100
AcDbEntity
   8
LEVEL001
 100
AcDbLine
   6
DOT
  62
1
  10
 160.98300249132
  20
-215.86888415775
  30
0.0
  11
 160.98300249132
  21
-211.46888415775
  31
0.0
   0
LINE
   5
410
 100
AcDbEntity
   8
LEVEL001
 100
AcDbLine
   6
CONTINUOUS
  62
7
  10
 147.53300249143
  20
-215.64135319936
  30
0.0
  11
 147.53300249143
  21
-152.41888415775
  31
0.0
   0
LINE
   5
411
 100
AcDbEntity
   8
LEVEL001
 100
AcDbLine
   6
DASHDOT
  62
3
  10
 128.06779648761
  20
-213.66888415775
  30
0.0
  11
 164.68894178403
  21
-213.66888415775
  31
0.0
   0
LINE
   5
412
 100
AcDbEntity
   8
LEVEL001
 100
AcDbLine
   6
DASHDOT
  62
3
  10
 209.96306622971
  20
-91.168884157749
  30
0.0
  11
 219.89515613884
  21
-91.168884157749
  31
0.0
   0
LINE
   5
413
 100
AcDbEntity
   8
LEVEL001
 100
AcDbLine
   6
CONTINUOUS
  62
7
  10
 215.13882269492
  20
-82.418884157749
  30
0.0
  11
 197.13882269492
  21
-82.418884157749
  31
0.0
   0
ARC
   5
414
 100
AcDbEntity
   8
LEVEL001
   6
CONTINUOUS
  62
7
 100
AcDbCircle
  10
 197.13882269492
  20
-84.418884157748
  30
0.0
  40
 2.0000000000000
 100
AcDbArc
  50
 90.000000000000
  51
 180.00000000005
   0
POINT
   5
415
 100
AcDbEntity
   8
LEVEL001
 100
AcDbPoint
  62
7
  10
 195.13882269492
  20
-82.418884157749
  30
0.0
   0
ARC
   5
416
 100
AcDbEntity
   8
LEVEL001
   6
CONTINUOUS
  62
7
 100
AcDbCircle
  10
 233.13882269492
  20
-84.418884157749
  30
0.0
  40
 2.0000000000000
 100
AcDbArc
  50
0.0
  51
 89.999999999992
   0
POINT
   5
417
 100
AcDbEntity
   8
LEVEL001
 100
AcDbPoint
  62
7
  10
 235.13882269492
  20
-82.418884157749
  30
0.0
   0
LINE
   5
418
 100
AcDbEntity
   8
LEVEL001
 100
AcDbLine
   6
CONTINUOUS
  62
7
  10
 233.13882269492
  20
-82.418884157749
  30
0.0
  11
 215.13882269492
  21
-82.418884157749
  31
0.0
   0
ARC
   5
419
 100
AcDbEntity
   8
LEVEL001
   6
DOT
  62
1
 100
AcDbCircle
  10
 215.13882269492
  20
-91.168884157749
  30
0.0
  40
 3.2500000000000
 100
AcDbArc
  50
0.0
  51
 180.00000000000
   0
LINE
   5
41A
 100
AcDbEntity
   8
LEVEL001
 100
AcDbLine
   6
DOT
  62
1
  10
 211.88882269492
  20
-92.668884157749
  30
0.0
  11
 211.88882269492
  21
-91.168884157749
  31
0.0
   0
LINE
   5
41B
 100
AcDbEntity
   8
LEVEL001
 100
AcDbLine
   6
DOT
  62
1
  10
 218.38882269492
  20
-92.668884157749
  30
0.0
  11
 218.38882269492
  21
-91.168884157749
  31
0.0
   0
ARC
   5
41C
 100
AcDbEntity
   8
LEVEL001
   6
DOT
  62
1
 100
AcDbCircle
  10
 220.38882269492
  20
-92.668884157749
  30
0.0
  40
 2.0000000000000
 100
AcDbArc
  50
 180.00000000000
  51
 270.00000000001
   0
ARC
   5
41D
 100
AcDbEntity
   8
LEVEL001
   6
DOT
  62
1
 100
AcDbCircle
  10
 209.88882269492
  20
-92.668884157748
  30
0.0
  40
 2.0000000000000
 100
AcDbArc
  50
 270.00000000000
  51
0.0
   0
POINT
   5
41E
 100
AcDbEntity
   8
LEVEL001
 100
AcDbPoint
  62
1
  10
 218.38882269492
  20
-94.668884157749
  30
0.0
   0
POINT
   5
41F
 100
AcDbEntity
   8
LEVEL001
 100
AcDbPoint
  62
1
  10
 211.88882269492
  20
-94.668884157749
  30
0.0
   0
ARC
   5
420
 100
AcDbEntity
   8
LEVEL001
   6
CONTINUOUS
  62
7
 100
AcDbCircle
  10
 206.63882269492
  20
-100.66888415775
  30
0.0
  40
 4.5000000000000
 100
AcDbArc
  50
 90.000000000000
  51
 179.99999999999
   0
POINT
   5
421
 100
AcDbEntity
   8
LEVEL001
 100
AcDbPoint
  62
7
  10
 202.13882269492
  20
-96.168884157749
  30
0.0
   0
LINE
   5
422
 100
AcDbEntity
   8
LEVEL001
 100
AcDbLine
   6
CONTINUOUS
  62
7
  10
 202.13882269492
  20
-152.41888415775
  30
0.0
  11
 202.13882269492
  21
-100.66888415775
  31
0.0
   0
LINE
   5
423
 100
AcDbEntity
   8
LEVEL001
 100
AcDbLine
   6
CONTINUOUS
  62
7
  10
 223.63882269492
  20
-96.168884157749
  30
0.0
  11
 206.63882269492
  21
-96.168884157749
  31
0.0
   0
ARC
   5
424
 100
AcDbEntity
   8
LEVEL001
   6
CONTINUOUS
  62
7
 100
AcDbCircle
  10
 223.63882269492
  20
-100.66888415775
  30
0.0
  40
 4.5000000000000
 100
AcDbArc
  50
 0.65137759876373E-11
  51
 90.000000000000
   0
POINT
   5
425
 100
AcDbEntity
   8
LEVEL001
 100
AcDbPoint
  62
7
  10
 228.13882269492
  20
-96.168884157749
  30
0.0
   0
LINE
   5
426
 100
AcDbEntity
   8
LEVEL001
 100
AcDbLine
   6
CONTINUOUS
  62
7
  10
 228.13882269492
  20
-152.41888415775
  30
0.0
  11
 228.13882269492
  21
-100.66888415775
  31
0.0
   0
LINE
   5
427
 100
AcDbEntity
   8
LEVEL001
 100
AcDbLine
   6
CONTINUOUS
  62
7
  10
 195.13882269492
  20
-152.41888415775
  30
0.0
  11
 195.13882269492
  21
-84.418884157749
  31
0.0
   0
LINE
   5
428
 100
AcDbEntity
   8
LEVEL001
 100
AcDbLine
   6
CONTINUOUS
  62
7
  10
 235.13882269492
  20
-152.41888415775
  30
0.0
  11
 235.13882269492
  21
-84.418884157749
  31
0.0
   0
LINE
   5
429
 100
AcDbEntity
   8
LEVEL001
 100
AcDbLine
   6
DASHDOT
  62
3
  10
 190.85538695213
  20
-152.41888415775
  30
0.0
  11
 241.24976016876
  21
-152.41888415775
  31
0.0
   0
LINE
   5
42A
 100
AcDbEntity
   8
LEVEL001
 100
AcDbLine
   6
DASHDOT
  62
3
  10
 209.96306622971
  20
-213.66888415775
  30
0.0
  11
 219.89515613884
  21
-213.66888415775
  31
0.0
   0
LINE
   5
42B
 100
AcDbEntity
   8
LEVEL001
 100
AcDbLine
   6
CONTINUOUS
  62
7
  10
 215.13882269492
  20
-222.41888415775
  30
0.0
  11
 197.13882269492
  21
-222.41888415775
  31
0.0
   0
ARC
   5
42C
 100
AcDbEntity
   8
LEVEL001
   6
CONTINUOUS
  62
7
 100
AcDbCircle
  10
 197.13882269492
  20
-220.41888415775
  30
0.0
  40
 2.0000000000000
 100
AcDbArc
  50
 179.99999999998
  51
 270.00000000000
   0
POINT
   5
42D
 100
AcDbEntity
   8
LEVEL001
 100
AcDbPoint
  62
7
  10
 195.13882269492
  20
-222.41888415775
  30
0.0
   0
ARC
   5
42E
 100
AcDbEntity
   8
LEVEL001
   6
CONTINUOUS
  62
7
 100
AcDbCircle
  10
 233.13882269492
  20
-220.41888415775
  30
0.0
  40
 2.0000000000000
 100
AcDbArc
  50
 269.99999999998
  51
0.0
   0
POINT
   5
42F
 100
AcDbEntity
   8
LEVEL001
 100
AcDbPoint
  62
7
  10
 235.13882269492
  20
-222.41888415775
  30
0.0
   0
LINE
   5
430
 100
AcDbEntity
   8
LEVEL001
 100
AcDbLine
   6
CONTINUOUS
  62
7
  10
 233.13882269492
  20
-222.41888415775
  30
0.0
  11
 215.13882269492
  21
-222.41888415775
  31
0.0
   0
ARC
   5
431
 100
AcDbEntity
   8
LEVEL001
   6
DOT
  62
1
 100
AcDbCircle
  10
 215.13882269492
  20
-213.66888415775
  30
0.0
  40
 3.2500000000000
 100
AcDbArc
  50
 180.00000000000
  51
0.0
   0
LINE
   5
432
 100
AcDbEntity
   8
LEVEL001
 100
AcDbLine
   6
DOT
  62
1
  10
 211.88882269492
  20
-212.16888415775
  30
0.0
  11
 211.88882269492
  21
-213.66888415775
  31
0.0
   0
LINE
   5
433
 100
AcDbEntity
   8
LEVEL001
 100
AcDbLine
   6
DOT
  62
1
  10
 218.38882269492
  20
-212.16888415775
  30
0.0
  11
 218.38882269492
  21
-213.66888415775
  31
0.0
   0
ARC
   5
434
 100
AcDbEntity
   8
LEVEL001
   6
DOT
  62
1
 100
AcDbCircle
  10
 220.38882269492
  20
-212.16888415775
  30
0.0
  40
 2.0000000000000
 100
AcDbArc
  50
 90.000000000008
  51
 180.00000000000
   0
ARC
   5
435
 100
AcDbEntity
   8
LEVEL001
   6
DOT
  62
1
 100
AcDbCircle
  10
 209.88882269492
  20
-212.16888415775
  30
0.0
  40
 2.0000000000000
 100
AcDbArc
  50
 0.29311991944368E-10
  51
 90.000000000000
   0
POINT
   5
436
 100
AcDbEntity
   8
LEVEL001
 100
AcDbPoint
  62
1
  10
 218.38882269492
  20
-210.16888415775
  30
0.0
   0
POINT
   5
437
 100
AcDbEntity
   8
LEVEL001
 100
AcDbPoint
  62
1
  10
 211.88882269492
  20
-210.16888415775
  30
0.0
   0
ARC
   5
438
 100
AcDbEntity
   8
LEVEL001
   6
CONTINUOUS
  62
7
 100
AcDbCircle
  10
 206.63882269492
  20
-204.16888415775
  30
0.0
  40
 4.5000000000000
 100
AcDbArc
  50
 180.00000000000
  51
 270.00000000000
   0
POINT
   5
439
 100
AcDbEntity
   8
LEVEL001
 100
AcDbPoint
  62
7
  10
 202.13882269492
  20
-208.66888415775
  30
0.0
   0
LINE
   5
43A
 100
AcDbEntity
   8
LEVEL001
 100
AcDbLine
   6
CONTINUOUS
  62
7
  10
 202.13882269492
  20
-152.41888415775
  30
0.0
  11
 202.13882269492
  21
-204.16888415775
  31
0.0
   0
LINE
   5
43B
 100
AcDbEntity
   8
LEVEL001
 100
AcDbLine
   6
CONTINUOUS
  62
7
  10
 223.63882269492
  20
-208.66888415775
  30
0.0
  11
 206.63882269492
  21
-208.66888415775
  31
0.0
   0
ARC
   5
43C
 100
AcDbEntity
   8
LEVEL001
   6
CONTINUOUS
  62
7
 100
AcDbCircle
  10
 223.63882269492
  20
-204.16888415775
  30
0.0
  40
 4.5000000000000
 100
AcDbArc
  50
 270.00000000000
  51
0.0
   0
POINT
   5
43D
 100
AcDbEntity
   8
LEVEL001
 100
AcDbPoint
  62
7
  10
 228.13882269492
  20
-208.66888415775
  30
0.0
   0
LINE
   5
43E
 100
AcDbEntity
   8
LEVEL001
 100
AcDbLine
   6
CONTINUOUS
  62
7
  10
 228.13882269492
  20
-152.41888415775
  30
0.0
  11
 228.13882269492
  21
-204.16888415775
  31
0.0
   0
LINE
   5
43F
 100
AcDbEntity
   8
LEVEL001
 100
AcDbLine
   6
CONTINUOUS
  62
7
  10
 195.13882269492
  20
-152.41888415775
  30
0.0
  11
 195.13882269492
  21
-220.41888415775
  31
0.0
   0
LINE
   5
440
 100
AcDbEntity
   8
LEVEL001
 100
AcDbLine
   6
CONTINUOUS
  62
7
  10
 235.13882269492
  20
-152.41888415775
  30
0.0
  11
 235.13882269492
  21
-220.41888415775
  31
0.0
   0
LINE
   5
441
 100
AcDbEntity
   8
LEVEL001
 100
AcDbLine
   6
DASHDOT
  62
3
  10
 215.13882269492
  20
-229.21022270157
  30
0.0
  11
 215.13882269492
  21
-73.868068154644
  31
0.0
   0
LINE
   5
442
 100
AcDbEntity
   8
LEVEL001
 100
AcDbLine
   6
DASHDOT
  62
3
  10
 65.146710419086
  20
-91.168884157749
  30
0.0
  11
 75.078800328220
  21
-91.168884157749
  31
0.0
   0
LINE
   5
443
 100
AcDbEntity
   8
LEVEL001
 100
AcDbLine
   6
CONTINUOUS
  62
7
  10
 70.322466884293
  20
-82.418884157749
  30
0.0
  11
 52.322466884293
  21
-82.418884157749
  31
0.0
   0
ARC
   5
444
 100
AcDbEntity
   8
LEVEL001
   6
CONTINUOUS
  62
7
 100
AcDbCircle
  10
 52.322466884293
  20
-84.418884157748
  30
0.0
  40
 2.0000000000000
 100
AcDbArc
  50
 90.000000000000
  51
 180.00000000005
   0
POINT
   5
445
 100
AcDbEntity
   8
LEVEL001
 100
AcDbPoint
  62
7
  10
 50.322466884293
  20
-82.418884157749
  30
0.0
   0
ARC
   5
446
 100
AcDbEntity
   8
LEVEL001
   6
CONTINUOUS
  62
7
 100
AcDbCircle
  10
 88.322466884291
  20
-84.418884157749
  30
0.0
  40
 2.0000000000000
 100
AcDbArc
  50
0.0
  51
 89.999999999941
   0
POINT
   5
447
 100
AcDbEntity
   8
LEVEL001
 100
AcDbPoint
  62
7
  10
 90.322466884293
  20
-82.418884157749
  30
0.0
   0
LINE
   5
448
 100
AcDbEntity
   8
LEVEL001
 100
AcDbLine
   6
CONTINUOUS
  62
7
  10
 88.322466884293
  20
-82.418884157749
  30
0.0
  11
 70.322466884293
  21
-82.418884157749
  31
0.0
   0
ARC
   5
449
 100
AcDbEntity
   8
LEVEL001
   6
DOT
  62
1
 100
AcDbCircle
  10
 70.322466884293
  20
-91.168884157749
  30
0.0
  40
 3.2500000000000
 100
AcDbArc
  50
0.0
  51
 180.00000000000
   0
CIRCLE
   5
44A
 100
AcDbEntity
   8
LEVEL001
 100
AcDbCircle
   6
DOT
  62
1
  10
 70.322466884293
  20
-91.168884157749
  30
0.0
  40
 2.0000000000000
   0
CIRCLE
   5
44B
 100
AcDbEntity
   8
LEVEL001
 100
AcDbCircle
   6
DOT
  62
1
  10
 70.322466884293
  20
-91.168884157749
  30
0.0
  40
 1.6500000000000
   0
LINE
   5
44C
 100
AcDbEntity
   8
LEVEL001
 100
AcDbLine
   6
DOT
  62
1
  10
 67.072466884293
  20
-92.668884157749
  30
0.0
  11
 67.072466884293
  21
-91.168884157749
  31
0.0
   0
LINE
   5
44D
 100
AcDbEntity
   8
LEVEL001
 100
AcDbLine
   6
DOT
  62
1
  10
 73.572466884293
  20
-92.668884157749
  30
0.0
  11
 73.572466884293
  21
-91.168884157749
  31
0.0
   0
ARC
   5
44E
 100
AcDbEntity
   8
LEVEL001
   6
DOT
  62
1
 100
AcDbCircle
  10
 75.572466884293
  20
-92.668884157749
  30
0.0
  40
 2.0000000000000
 100
AcDbArc
  50
 180.00000000000
  51
 270.00000000001
   0
ARC
   5
44F
 100
AcDbEntity
   8
LEVEL001
   6
DOT
  62
1
 100
AcDbCircle
  10
 65.072466884293
  20
-92.668884157748
  30
0.0
  40
 2.0000000000000
 100
AcDbArc
  50
 270.00000000000
  51
0.0
   0
POINT
   5
450
 100
AcDbEntity
   8
LEVEL001
 100
AcDbPoint
  62
1
  10
 73.572466884293
  20
-94.668884157749
  30
0.0
   0
POINT
   5
451
 100
AcDbEntity
   8
LEVEL001
 100
AcDbPoint
  62
1
  10
 67.072466884293
  20
-94.668884157749
  30
0.0
   0
ARC
   5
452
 100
AcDbEntity
   8
LEVEL001
   6
CONTINUOUS
  62
7
 100
AcDbCircle
  10
 61.822466884293
  20
-100.66888415775
  30
0.0
  40
 4.5000000000000
 100
AcDbArc
  50
 90.000000000000
  51
 180.00000000000
   0
POINT
   5
453
 100
AcDbEntity
   8
LEVEL001
 100
AcDbPoint
  62
7
  10
 57.322466884293
  20
-96.168884157749
  30
0.0
   0
LINE
   5
454
 100
AcDbEntity
   8
LEVEL001
 100
AcDbLine
   6
CONTINUOUS
  62
7
  10
 57.322466884293
  20
-152.41888415775
  30
0.0
  11
 57.322466884293
  21
-100.66888415775
  31
0.0
   0
LINE
   5
455
 100
AcDbEntity
   8
LEVEL001
 100
AcDbLine
   6
CONTINUOUS
  62
7
  10
 78.822466884293
  20
-96.168884157749
  30
0.0
  11
 61.822466884293
  21
-96.168884157749
  31
0.0
   0
ARC
   5
456
 100
AcDbEntity
   8
LEVEL001
   6
CONTINUOUS
  62
7
 100
AcDbCircle
  10
 78.822466884293
  20
-100.66888415775
  30
0.0
  40
 4.5000000000000
 100
AcDbArc
  50
 0.43425173250915E-11
  51
 90.000000000000
   0
POINT
   5
457
 100
AcDbEntity
   8
LEVEL001
 100
AcDbPoint
  62
7
  10
 83.322466884293
  20
-96.168884157749
  30
0.0
   0
LINE
   5
458
 100
AcDbEntity
   8
LEVEL001
 100
AcDbLine
   6
CONTINUOUS
  62
7
  10
 83.322466884293
  20
-152.41888415775
  30
0.0
  11
 83.322466884293
  21
-100.66888415775
  31
0.0
   0
LINE
   5
459
 100
AcDbEntity
   8
LEVEL001
 100
AcDbLine
   6
CONTINUOUS
  62
7
  10
 50.322466884293
  20
-152.41888415775
  30
0.0
  11
 50.322466884293
  21
-84.418884157749
  31
0.0
   0
LINE
   5
45A
 100
AcDbEntity
   8
LEVEL001
 100
AcDbLine
   6
CONTINUOUS
  62
7
  10
 90.322466884293
  20
-152.41888415775
  30
0.0
  11
 90.322466884293
  21
-84.418884157749
  31
0.0
   0
LINE
   5
45B
 100
AcDbEntity
   8
LEVEL001
 100
AcDbLine
   6
DASHDOT
  62
3
  10
 46.039031141505
  20
-152.41888415775
  30
0.0
  11
 96.433404358134
  21
-152.41888415775
  31
0.0
   0
LINE
   5
45C
 100
AcDbEntity
   8
LEVEL001
 100
AcDbLine
   6
DASHDOT
  62
3
  10
 65.146710419086
  20
-213.66888415775
  30
0.0
  11
 75.078800328220
  21
-213.66888415775
  31
0.0
   0
LINE
   5
45D
 100
AcDbEntity
   8
LEVEL001
 100
AcDbLine
   6
CONTINUOUS
  62
7
  10
 70.322466884293
  20
-222.41888415775
  30
0.0
  11
 52.322466884293
  21
-222.41888415775
  31
0.0
   0
ARC
   5
45E
 100
AcDbEntity
   8
LEVEL001
   6
CONTINUOUS
  62
7
 100
AcDbCircle
  10
 52.322466884293
  20
-220.41888415775
  30
0.0
  40
 2.0000000000000
 100
AcDbArc
  50
 180.00000000001
  51
 270.00000000000
   0
POINT
   5
45F
 100
AcDbEntity
   8
LEVEL001
 100
AcDbPoint
  62
7
  10
 50.322466884293
  20
-222.41888415775
  30
0.0
   0
ARC
   5
460
 100
AcDbEntity
   8
LEVEL001
   6
CONTINUOUS
  62
7
 100
AcDbCircle
  10
 88.322466884293
  20
-220.41888415775
  30
0.0
  40
 2.0000000000000
 100
AcDbArc
  50
 270.00000000000
  51
0.0
   0
POINT
   5
461
 100
AcDbEntity
   8
LEVEL001
 100
AcDbPoint
  62
7
  10
 90.322466884293
  20
-222.41888415775
  30
0.0
   0
LINE
   5
462
 100
AcDbEntity
   8
LEVEL001
 100
AcDbLine
   6
CONTINUOUS
  62
7
  10
 88.322466884293
  20
-222.41888415775
  30
0.0
  11
 70.322466884293
  21
-222.41888415775
  31
0.0
   0
ARC
   5
463
 100
AcDbEntity
   8
LEVEL001
   6
DOT
  62
1
 100
AcDbCircle
  10
 70.322466884293
  20
-213.66888415775
  30
0.0
  40
 3.2500000000000
 100
AcDbArc
  50
 180.00000000000
  51
0.0
   0
CIRCLE
   5
464
 100
AcDbEntity
   8
LEVEL001
 100
AcDbCircle
   6
DOT
  62
1
  10
 70.322466884293
  20
-213.66888415775
  30
0.0
  40
 2.0000000000000
   0
CIRCLE
   5
465
 100
AcDbEntity
   8
LEVEL001
 100
AcDbCircle
   6
DOT
  62
1
  10
 70.322466884293
  20
-213.66888415775
  30
0.0
  40
 1.6500000000000
   0
LINE
   5
466
 100
AcDbEntity
   8
LEVEL001
 100
AcDbLine
   6
DOT
  62
1
  10
 67.072466884293
  20
-212.16888415775
  30
0.0
  11
 67.072466884293
  21
-213.66888415775
  31
0.0
   0
LINE
   5
467
 100
AcDbEntity
   8
LEVEL001
 100
AcDbLine
   6
DOT
  62
1
  10
 73.572466884293
  20
-212.16888415775
  30
0.0
  11
 73.572466884293
  21
-213.66888415775
  31
0.0
   0
ARC
   5
468
 100
AcDbEntity
   8
LEVEL001
   6
DOT
  62
1
 100
AcDbCircle
  10
 75.572466884293
  20
-212.16888415775
  30
0.0
  40
 2.0000000000000
 100
AcDbArc
  50
 89.999999999984
  51
 180.00000000000
   0
ARC
   5
469
 100
AcDbEntity
   8
LEVEL001
   6
DOT
  62
1
 100
AcDbCircle
  10
 65.072466884293
  20
-212.16888415775
  30
0.0
  40
 2.0000000000000
 100
AcDbArc
  50
 0.65137759876373E-11
  51
 90.000000000000
   0
POINT
   5
46A
 100
AcDbEntity
   8
LEVEL001
 100
AcDbPoint
  62
1
  10
 73.572466884293
  20
-210.16888415775
  30
0.0
   0
POINT
   5
46B
 100
AcDbEntity
   8
LEVEL001
 100
AcDbPoint
  62
1
  10
 67.072466884293
  20
-210.16888415775
  30
0.0
   0
ARC
   5
46C
 100
AcDbEntity
   8
LEVEL001
   6
CONTINUOUS
  62
7
 100
AcDbCircle
  10
 61.822466884293
  20
-204.16888415775
  30
0.0
  40
 4.5000000000000
 100
AcDbArc
  50
 180.00000000000
  51
 270.00000000000
   0
POINT
   5
46D
 100
AcDbEntity
   8
LEVEL001
 100
AcDbPoint
  62
7
  10
 57.322466884293
  20
-208.66888415775
  30
0.0
   0
LINE
   5
46E
 100
AcDbEntity
   8
LEVEL001
 100
AcDbLine
   6
CONTINUOUS
  62
7
  10
 57.322466884293
  20
-152.41888415775
  30
0.0
  11
 57.322466884293
  21
-204.16888415775
  31
0.0
   0
LINE
   5
46F
 100
AcDbEntity
   8
LEVEL001
 100
AcDbLine
   6
CONTINUOUS
  62
7
  10
 78.822466884293
  20
-208.66888415775
  30
0.0
  11
 61.822466884293
  21
-208.66888415775
  31
0.0
   0
ARC
   5
470
 100
AcDbEntity
   8
LEVEL001
   6
CONTINUOUS
  62
7
 100
AcDbCircle
  10
 78.822466884293
  20
-204.16888415775
  30
0.0
  40
 4.5000000000000
 100
AcDbArc
  50
 270.00000000000
  51
 0.14475057750305E-11
   0
POINT
   5
471
 100
AcDbEntity
   8
LEVEL001
 100
AcDbPoint
  62
7
  10
 83.322466884293
  20
-208.66888415775
  30
0.0
   0
LINE
   5
472
 100
AcDbEntity
   8
LEVEL001
 100
AcDbLine
   6
CONTINUOUS
  62
7
  10
 83.322466884293
  20
-152.41888415775
  30
0.0
  11
 83.322466884293
  21
-204.16888415775
  31
0.0
   0
LINE
   5
473
 100
AcDbEntity
   8
LEVEL001
 100
AcDbLine
   6
CONTINUOUS
  62
7
  10
 50.322466884293
  20
-152.41888415775
  30
0.0
  11
 50.322466884293
  21
-220.41888415775
  31
0.0
   0
LINE
   5
474
 100
AcDbEntity
   8
LEVEL001
 100
AcDbLine
   6
CONTINUOUS
  62
7
  10
 90.322466884293
  20
-152.41888415775
  30
0.0
  11
 90.322466884293
  21
-220.41888415775
  31
0.0
   0
LINE
   5
475
 100
AcDbEntity
   8
LEVEL001
 100
AcDbLine
   6
DASHDOT
  62
3
  10
 70.322466884293
  20
-229.21022270157
  30
0.0
  11
 70.322466884293
  21
-73.868068154644
  31
0.0
   0
DIMENSION
   5
476
 100
AcDbEntity
   8
LEVEL001
   6
CONTINUOUS
  62
2
 100
AcDbDimension
   2
*D34
  10
 113.73143983101
  20
-82.418884157749
  30
0.0
  11
 113.73143983101
  21
-152.41888415775
  31
0.0
  70
0
   3
GMM002
 100
AcDbAlignedDimension
  13
 90.322466884293
  23
-222.41888415775
  33
0.0
  14
 90.322466884293
  24
-82.418884157749
  34
0.0
  50
 90.000000000000
 100
AcDbRotatedDimension
   0
LINE
   5
477
 100
AcDbEntity
   8
LEVEL001
 100
AcDbLine
   6
CONTINUOUS
  62
7
  10
 131.53300249143
  20
-222.41888415775
  30
0.0
  11
 131.53300249143
  21
-152.41888415775
  31
0.0
   0
LINE
   5
478
 100
AcDbEntity
   8
LEVEL001
 100
AcDbLine
   6
CONTINUOUS
  62
7
  10
 160.53300249143
  20
-152.41888415775
  30
0.0
  11
 160.53300249143
  21
-222.41888415775
  31
0.0
   0
LINE
   5
479
 100
AcDbEntity
   8
LEVEL001
 100
AcDbLine
   6
CONTINUOUS
  62
7
  10
 131.53300249143
  20
-216.91433870320
  30
0.0
  11
 143.55572389679
  21
-216.64109503490
  31
0.0
   0
LINE
   5
47A
 100
AcDbEntity
   8
LEVEL001
 100
AcDbLine
   6
CONTINUOUS
  62
7
  10
 160.53300249143
  20
-216.91433870320
  30
0.0
  11
 148.51028108608
  21
-216.64109503490
  31
0.0
   0
LINE
   5
47B
 100
AcDbEntity
   8
LEVEL001
 100
AcDbLine
   6
CONTINUOUS
  62
15
  10
 161.03300249143
  20
-222.41888415775
  30
0.0
  11
 161.03300249143
  21
-152.41888415775
  31
0.0
   0
LINE
   5
47C
 100
AcDbEntity
   8
LEVEL001
 100
AcDbLine
   6
CONTINUOUS
  62
15
  10
 131.03300249143
  20
-152.41888415775
  30
0.0
  11
 131.03300249143
  21
-222.41888415775
  31
0.0
   0
LINE
   5
47D
 100
AcDbEntity
   8
LEVEL001
 100
AcDbLine
   6
CONTINUOUS
  62
7
  10
 131.53300249143
  20
-222.41888415775
  30
0.0
  11
 131.03300249143
  21
-222.41888415775
  31
0.0
   0
LINE
   5
47E
 100
AcDbEntity
   8
LEVEL001
 100
AcDbLine
   6
CONTINUOUS
  62
7
  10
 160.53300249143
  20
-222.41888415775
  30
0.0
  11
 161.03300249143
  21
-222.41888415775
  31
0.0
   0
DIMENSION
   5
47F
 100
AcDbEntity
   8
LEVEL001
   6
CONTINUOUS
  62
2
 100
AcDbDimension
   2
*D35
  10
 160.53300249143
  20
-235.77906594868
  30
0.0
  11
 154.03300249143
  21
-235.77906594868
  31
0.0
  70
0
   3
GMM002
 100
AcDbAlignedDimension
  13
 147.53300249143
  23
-216.61888415775
  33
0.0
  14
 160.53300249143
  24
-222.41888415775
  34
0.0
 100
AcDbRotatedDimension
   0
DIMENSION
   5
480
 100
AcDbEntity
   8
LEVEL001
   6
CONTINUOUS
  62
2
 100
AcDbDimension
   2
*D36
  10
 144.53300249143
  20
-235.77906594868
  30
0.0
  11
 138.03300249143
  21
-235.77906594868
  31
0.0
  70
0
   3
GMM002
 100
AcDbAlignedDimension
  13
 131.53300249143
  23
-222.41888415775
  33
0.0
  14
 144.53300249143
  24
-216.61888415775
  34
0.0
 100
AcDbRotatedDimension
   0
DIMENSION
   5
481
 100
AcDbEntity
   8
LEVEL001
   6
CONTINUOUS
  62
2
 100
AcDbDimension
   2
*D37
  10
 160.53300249143
  20
-246.33717211797
  30
0.0
  11
 146.03300249143
  21
-246.33717211797
  31
0.0
  70
0
   1
\A1;27～34
   3
GMM004
 100
AcDbAlignedDimension
  13
 131.53300249143
  23
-246.33717211797
  33
0.0
  14
 160.53300249143
  24
-246.33717211797
  34
0.0
 100
AcDbRotatedDimension
   0
DIMENSION
   5
482
 100
AcDbEntity
   8
LEVEL001
   6
CONTINUOUS
  62
2
 100
AcDbDimension
   2
*D38
  10
 131.53300249143
  20
-246.33717211797
  30
0.0
  11
 123.58644581998
  21
-246.33717211797
  31
0.0
  70
128
   3
GMM005
 100
AcDbAlignedDimension
  13
 130.03300249143
  23
-222.41888415775
  33
0.0
  14
 131.53300249143
  24
-237.27906594868
  34
0.0
 100
AcDbRotatedDimension
   0
DIMENSION
   5
483
 100
AcDbEntity
   8
LEVEL001
   6
CONTINUOUS
  62
2
 100
AcDbDimension
   2
*D39
  10
 90.322466884293
  20
-246.33717211797
  30
0.0
  11
 70.322466884293
  21
-246.33717211797
  31
0.0
  70
0
   3
GMM002
 100
AcDbAlignedDimension
  13
 50.322466884293
  23
-222.41888415775
  33
0.0
  14
 90.322466884293
  24
-222.41888415775
  34
0.0
 100
AcDbRotatedDimension
   0
DIMENSION
   5
484
 100
AcDbEntity
   8
LEVEL001
   6
CONTINUOUS
  62
2
 100
AcDbDimension
   2
*D40
  10
 160.53300249143
  20
-246.33717211797
  30
0.0
  11
 169.48960220449
  21
-246.33717211797
  31
0.0
  70
128
   3
GMM005
 100
AcDbAlignedDimension
  13
 162.03300249143
  23
-222.41888415775
  33
0.0
  14
 160.53300249143
  24
-237.27906594868
  34
0.0
  50
 180.00000000000
 100
AcDbRotatedDimension
   0
DIMENSION
   5
485
 100
AcDbEntity
   8
LEVEL001
   6
CONTINUOUS
  62
2
 100
AcDbDimension
   2
*D41
  10
 144.53300249143
  20
-72.239297183644
  30
0.0
  11
 137.28300249143
  21
-72.239297183644
  31
0.0
  70
0
   3
GMM002
 100
AcDbAlignedDimension
  13
 130.03300249143
  23
-82.418884157749
  33
0.0
  14
 144.53300249143
  24
-88.218884157749
  34
0.0
 100
AcDbRotatedDimension
   0
DIMENSION
   5
486
 100
AcDbEntity
   8
LEVEL001
   6
CONTINUOUS
  62
2
 100
AcDbDimension
   2
*D42
  10
 162.03300249143
  20
-72.239297183644
  30
0.0
  11
 154.78300249143
  21
-72.239297183644
  31
0.0
  70
0
   3
GMM002
 100
AcDbAlignedDimension
  13
 147.53300249143
  23
-88.218884157749
  33
0.0
  14
 162.03300249143
  24
-82.418884157752
  34
0.0
 100
AcDbRotatedDimension
   0
DIMENSION
   5
487
 100
AcDbEntity
   8
LEVEL001
   6
CONTINUOUS
  62
2
 100
AcDbDimension
   2
*D43
  10
 235.13882269492
  20
-246.33717211797
  30
0.0
  11
 215.13882269492
  21
-246.33717211797
  31
0.0
  70
0
   3
GMM002
 100
AcDbAlignedDimension
  13
 195.13882269492
  23
-222.41888415775
  33
0.0
  14
 235.13882269492
  24
-222.41888415775
  34
0.0
 100
AcDbRotatedDimension
   0
DIMENSION
   5
488
 100
AcDbEntity
   8
LEVEL001
   6
CONTINUOUS
  62
2
 100
AcDbDimension
   2
*D44
  10
 259.12506266404
  20
-222.41888415775
  30
0.0
  11
 259.12506266404
  21
-152.41888415775
  31
0.0
  70
0
   3
GMM002
 100
AcDbAlignedDimension
  13
 235.13882269492
  23
-82.418884157749
  33
0.0
  14
 235.13882269492
  24
-222.41888415775
  34
0.0
  50
 270.00000000000
 100
AcDbRotatedDimension
   0
INSERT
   5
489
 100
AcDbEntity
   8
LEVEL001
 100
AcDbBlockReference
   2
*D45
  10
0.0
  20
0.0
  30
0.0
   0
CIRCLE
   5
48A
 100
AcDbEntity
   8
LEVEL001
 100
AcDbCircle
   6
CONTINUOUS
  62
7
  10
 215.13882269492
  20
-91.168884157749
  30
0.0
  40
 3.2500000000000
   0
CIRCLE
   5
48B
 100
AcDbEntity
   8
LEVEL001
 100
AcDbCircle
   6
CONTINUOUS
  62
7
  10
 215.13882269492
  20
-91.168884157749
  30
0.0
  40
 2.2000000000000
   0
INSERT
   5
48C
 100
AcDbEntity
   8
LEVEL001
 100
AcDbBlockReference
   2
*D46
  10
0.0
  20
0.0
  30
0.0
   0
DIMENSION
   5
48D
 100
AcDbEntity
   8
LEVEL001
   6
CONTINUOUS
  62
2
 100
AcDbDimension
   2
*D47
  10
 104.35697785110
  20
-208.66888415775
  30
0.0
  11
 104.35697785110
  21
-152.41888415775
  31
0.0
  70
0
   1
\A1;(112.5)
   3
GMM006
 100
AcDbAlignedDimension
  13
 83.322466884293
  23
-96.168884157749
  33
0.0
  14
 83.322466884293
  24
-208.66888415775
  34
0.0
  50
 270.00000000000
 100
AcDbRotatedDimension
   0
DIMENSION
   5
48E
 100
AcDbEntity
   8
LEVEL001
   6
CONTINUOUS
  62
2
 100
AcDbDimension
   2
*D48
  10
 248.61430226232
  20
-96.168884157749
  30
0.0
  11
 248.61430226232
  21
-152.41888415775
  31
0.0
  70
0
   1
\A1;(112.5)
   3
GMM006
 100
AcDbAlignedDimension
  13
 228.13882269492
  23
-208.66888415775
  33
0.0
  14
 228.13882269492
  24
-96.168884157749
  34
0.0
  50
 90.000000000000
 100
AcDbRotatedDimension
   0
DIMENSION
   5
48F
 100
AcDbEntity
   8
LEVEL001
   6
CONTINUOUS
  62
2
 100
AcDbDimension
   2
*D49
  10
 228.13882269492
  20
-235.77906594868
  30
0.0
  11
 215.13882269492
  21
-235.77906594868
  31
0.0
  70
0
   1
\A1;(26)
   3
GMM006
 100
AcDbAlignedDimension
  13
 202.13882269492
  23
-208.66888415775
  33
0.0
  14
 228.13882269492
  24
-208.66888415775
  34
0.0
 100
AcDbRotatedDimension
   0
DIMENSION
   5
490
 100
AcDbEntity
   8
LEVEL001
   6
CONTINUOUS
  62
2
 100
AcDbDimension
   2
*D50
  10
 83.322466884293
  20
-235.77906594868
  30
0.0
  11
 70.322466884293
  21
-235.77906594868
  31
0.0
  70
0
   1
\A1;(26)
   3
GMM006
 100
AcDbAlignedDimension
  13
 57.322466884293
  23
-208.66888415775
  33
0.0
  14
 83.322466884293
  24
-208.66888415775
  34
0.0
 100
AcDbRotatedDimension
   0
CIRCLE
   5
491
 100
AcDbEntity
   8
LEVEL001
 100
AcDbCircle
   6
CONTINUOUS
  62
15
  10
 215.13882269492
  20
-91.168884157749
  30
0.0
  40
 2.0000000000000
   0
CIRCLE
   5
492
 100
AcDbEntity
   8
LEVEL001
 100
AcDbCircle
   6
CONTINUOUS
  62
15
  10
 215.13882269492
  20
-91.168884157749
  30
0.0
  40
 1.6500000000000
   0
CIRCLE
   5
493
 100
AcDbEntity
   8
LEVEL001
 100
AcDbCircle
   6
CONTINUOUS
  62
7
  10
 215.13882269492
  20
-213.66888415775
  30
0.0
  40
 2.2000000000000
   0
CIRCLE
   5
494
 100
AcDbEntity
   8
LEVEL001
 100
AcDbCircle
   6
CONTINUOUS
  62
15
  10
 215.13882269492
  20
-213.66888415775
  30
0.0
  40
 2.0000000000000
   0
CIRCLE
   5
495
 100
AcDbEntity
   8
LEVEL001
 100
AcDbCircle
   6
CONTINUOUS
  62
15
  10
 215.13882269492
  20
-213.66888415775
  30
0.0
  40
 1.6500000000000
   0
CIRCLE
   5
496
 100
AcDbEntity
   8
LEVEL001
 100
AcDbCircle
   6
CONTINUOUS
  62
7
  10
 215.13882269492
  20
-213.66888415775
  30
0.0
  40
 3.2500000000000
   0
DIMENSION
   5
497
 100
AcDbEntity
   8
LEVEL001
   6
CONTINUOUS
  62
2
 100
AcDbDimension
   2
*D51
  10
 184.06253551851
  20
-91.168884157749
  30
0.0
  11
 184.06253551851
  21
-152.41888415775
  31
0.0
  70
0
   3
GMM002
 100
AcDbAlignedDimension
  13
 209.96306622971
  23
-213.66888415775
  33
0.0
  14
 209.96306622971
  24
-91.168884157749
  34
0.0
  50
 90.000000000000
 100
AcDbRotatedDimension
   0
DIMENSION
   5
498
 100
AcDbEntity
   8
LEVEL001
   6
CONTINUOUS
  62
2
 100
AcDbDimension
   2
*D52
  10
 39.174921936484
  20
-213.66888415775
  30
0.0
  11
 39.174921936484
  21
-152.41888415775
  31
0.0
  70
0
   3
GMM002
 100
AcDbAlignedDimension
  13
 65.146710419086
  23
-91.168884157749
  33
0.0
  14
 65.146710419086
  24
-213.66888415775
  34
0.0
  50
 270.00000000000
 100
AcDbRotatedDimension
   0
LINE
   5
499
 100
AcDbEntity
   8
LEVEL001
 100
AcDbLine
   6
DOT
  62
1
  10
 200.63882269492
  20
-152.41888415775
  30
0.0
  11
 200.63882269492
  21
-100.66888415775
  31
0.0
   0
ARC
   5
49A
 100
AcDbEntity
   8
LEVEL001
   6
DOT
  62
1
 100
AcDbCircle
  10
 206.63882269492
  20
-100.66888415775
  30
0.0
  40
 6.0000000000000
 100
AcDbArc
  50
 89.999999999999
  51
 180.00000000000
   0
POINT
   5
49B
 100
AcDbEntity
   8
LEVEL001
 100
AcDbPoint
  62
1
  10
 200.63882269492
  20
-94.668884157749
  30
0.0
   0
LINE
   5
49C
 100
AcDbEntity
   8
LEVEL001
 100
AcDbLine
   6
DOT
  62
1
  10
 209.88882269492
  20
-94.668884157749
  30
0.0
  11
 206.63882269492
  21
-94.668884157749
  31
0.0
   0
LINE
   5
49D
 100
AcDbEntity
   8
LEVEL001
 100
AcDbLine
   6
DOT
  62
1
  10
 223.63882269492
  20
-94.668884157749
  30
0.0
  11
 220.38882269492
  21
-94.668884157749
  31
0.0
   0
ARC
   5
49E
 100
AcDbEntity
   8
LEVEL001
   6
DOT
  62
1
 100
AcDbCircle
  10
 223.63882269492
  20
-100.66888415775
  30
0.0
  40
 6.0000000000000
 100
AcDbArc
  50
 0.27140733281822E-11
  51
 90.000000000000
   0
POINT
   5
49F
 100
AcDbEntity
   8
LEVEL001
 100
AcDbPoint
  62
1
  10
 229.63882269492
  20
-94.668884157749
  30
0.0
   0
LINE
   5
4A0
 100
AcDbEntity
   8
LEVEL001
 100
AcDbLine
   6
DOT
  62
1
  10
 229.63882269492
  20
-152.41888415775
  30
0.0
  11
 229.63882269492
  21
-100.66888415775
  31
0.0
   0
LINE
   5
4A1
 100
AcDbEntity
   8
LEVEL001
 100
AcDbLine
   6
DOT
  62
1
  10
 200.63882269492
  20
-152.41888415775
  30
0.0
  11
 200.63882269492
  21
-204.16888415775
  31
0.0
   0
ARC
   5
4A2
 100
AcDbEntity
   8
LEVEL001
   6
DOT
  62
1
 100
AcDbCircle
  10
 206.63882269492
  20
-204.16888415775
  30
0.0
  40
 6.0000000000000
 100
AcDbArc
  50
 180.00000000000
  51
 270.00000000000
   0
POINT
   5
4A3
 100
AcDbEntity
   8
LEVEL001
 100
AcDbPoint
  62
1
  10
 200.63882269492
  20
-210.16888415775
  30
0.0
   0
LINE
   5
4A4
 100
AcDbEntity
   8
LEVEL001
 100
AcDbLine
   6
DOT
  62
1
  10
 209.88882269492
  20
-210.16888415775
  30
0.0
  11
 206.63882269492
  21
-210.16888415775
  31
0.0
   0
LINE
   5
4A5
 100
AcDbEntity
   8
LEVEL001
 100
AcDbLine
   6
DOT
  62
1
  10
 223.63882269492
  20
-210.16888415775
  30
0.0
  11
 220.38882269492
  21
-210.16888415775
  31
0.0
   0
ARC
   5
4A6
 100
AcDbEntity
   8
LEVEL001
   6
DOT
  62
1
 100
AcDbCircle
  10
 223.63882269492
  20
-204.16888415775
  30
0.0
  40
 6.0000000000000
 100
AcDbArc
  50
 270.00000000000
  51
0.0
   0
POINT
   5
4A7
 100
AcDbEntity
   8
LEVEL001
 100
AcDbPoint
  62
1
  10
 229.63882269492
  20
-210.16888415775
  30
0.0
   0
LINE
   5
4A8
 100
AcDbEntity
   8
LEVEL001
 100
AcDbLine
   6
DOT
  62
1
  10
 229.63882269492
  20
-152.41888415775
  30
0.0
  11
 229.63882269492
  21
-204.16888415775
  31
0.0
   0
POINT
   5
4A9
 100
AcDbEntity
   8
LEVEL001
 100
AcDbPoint
  62
7
  10
 147.53300249143
  20
-209.87342961229
  30
0.0
   0
ARC
   5
4AA
 100
AcDbEntity
   8
LEVEL001
   6
CONTINUOUS
  62
7
 100
AcDbCircle
  10
 148.53300249143
  20
-208.89589865390
  30
0.0
  40
 1.0000000000000
 100
AcDbArc
  50
 179.99999999998
  51
 268.69804732742
   0
ARC
   5
4AB
 100
AcDbEntity
   8
LEVEL001
   6
CONTINUOUS
  62
7
 100
AcDbCircle
  10
 143.53300249143
  20
-208.89589865390
  30
0.0
  40
 1.0000000000000
 100
AcDbArc
  50
 271.30195267258
  51
 0.73279979860919E-10
   0
POINT
   5
4AC
 100
AcDbEntity
   8
LEVEL001
 100
AcDbPoint
  62
7
  10
 144.53300249143
  20
-209.87342961229
  30
0.0
   0
LINE
   5
4AD
 100
AcDbEntity
   8
LEVEL001
 100
AcDbLine
   6
CONTINUOUS
  62
7
  10
 131.53300249143
  20
-210.16888415775
  30
0.0
  11
 143.55572389679
  21
-209.89564048945
  31
0.0
   0
LINE
   5
4AE
 100
AcDbEntity
   8
LEVEL001
 100
AcDbLine
   6
CONTINUOUS
  62
7
  10
 160.53300249143
  20
-210.16888415775
  30
0.0
  11
 148.51028108608
  21
-209.89564048945
  31
0.0
   0
ARC
   5
4AF
 100
AcDbEntity
   8
LEVEL001
   6
DOT
  62
1
 100
AcDbCircle
  10
 131.03300249143
  20
-209.64641511614
  30
0.0
  40
 1.0000000000000
 100
AcDbArc
  50
 91.301952672579
  51
 180.00000000006
   0
POINT
   5
4B0
 100
AcDbEntity
   8
LEVEL001
 100
AcDbPoint
  62
1
  10
 130.03300249143
  20
-208.66888415775
  30
0.0
   0
ARC
   5
4B1
 100
AcDbEntity
   8
LEVEL001
   6
DOT
  62
1
 100
AcDbCircle
  10
 142.03300249143
  20
-207.39589865390
  30
0.0
  40
 1.0000000000000
 100
AcDbArc
  50
 271.30195267255
  51
0.0
   0
POINT
   5
4B2
 100
AcDbEntity
   8
LEVEL001
 100
AcDbPoint
  62
1
  10
 143.03300249143
  20
-208.37342961229
  30
0.0
   0
LINE
   5
4B3
 100
AcDbEntity
   8
LEVEL001
 100
AcDbLine
   6
DOT
  62
1
  10
 131.01028108608
  20
-208.64667328060
  30
0.0
  11
 142.05572389679
  21
-208.39564048945
  31
0.0
   0
ARC
   5
4B4
 100
AcDbEntity
   8
LEVEL001
   6
DOT
  62
1
 100
AcDbCircle
  10
 150.03300249143
  20
-207.39589865390
  30
0.0
  40
 1.0000000000000
 100
AcDbArc
  50
 180.00000000000
  51
 268.69804732745
   0
POINT
   5
4B5
 100
AcDbEntity
   8
LEVEL001
 100
AcDbPoint
  62
1
  10
 149.03300249143
  20
-208.37342961229
  30
0.0
   0
LINE
   5
4B6
 100
AcDbEntity
   8
LEVEL001
 100
AcDbLine
   6
DOT
  62
1
  10
 161.05572389679
  20
-208.64667328060
  30
0.0
  11
 150.01028108608
  21
-208.39564048945
  31
0.0
   0
ARC
   5
4B7
 100
AcDbEntity
   8
LEVEL001
   6
DOT
  62
1
 100
AcDbCircle
  10
 161.03300249143
  20
-209.64641511614
  30
0.0
  40
 1.0000000000000
 100
AcDbArc
  50
0.0
  51
 88.698047327419
   0
POINT
   5
4B8
 100
AcDbEntity
   8
LEVEL001
 100
AcDbPoint
  62
1
  10
 162.03300249143
  20
-208.66888415775
  30
0.0
   0
LINE
   5
4B9
 100
AcDbEntity
   8
LEVEL001
 100
AcDbLine
   6
DOT
  62
1
  10
 143.03300249143
  20
-207.39589865390
  30
0.0
  11
 143.03300249143
  21
-152.41888415775
  31
0.0
   0
LINE
   5
4BA
 100
AcDbEntity
   8
LEVEL001
 100
AcDbLine
   6
DOT
  62
1
  10
 149.03300249143
  20
-207.39589865390
  30
0.0
  11
 149.03300249143
  21
-152.41888415775
  31
0.0
   0
ARC
   5
4BB
 100
AcDbEntity
   8
LEVEL001
   6
CONTINUOUS
  62
7
 100
AcDbCircle
  10
 131.03300249143
  20
-83.418884157746
  30
0.0
  40
 1.0000000000000
 100
AcDbArc
  50
 90.000000000000
  51
 180.00000000019
   0
POINT
   5
4BC
 100
AcDbEntity
   8
LEVEL001
 100
AcDbPoint
  62
7
  10
 130.03300249143
  20
-82.418884157749
  30
0.0
   0
LINE
   5
4BD
 100
AcDbEntity
   8
LEVEL001
 100
AcDbLine
   6
DOT
  62
1
  10
 144.03300249143
  20
-89.518884157749
  30
0.0
  11
 144.03300249143
  21
-89.168884157749
  31
0.0
   0
LINE
   5
4BE
 100
AcDbEntity
   8
LEVEL001
 100
AcDbLine
   6
DOT
  62
1
  10
 144.03300249143
  20
-89.518884157749
  30
0.0
  11
 132.83300249143
  21
-89.518884157749
  31
0.0
   0
LINE
   5
4BF
 100
AcDbEntity
   8
LEVEL001
 100
AcDbLine
   6
DOT
  62
1
  10
 144.03300249143
  20
-89.168884157749
  30
0.0
  11
 132.83300249143
  21
-89.168884157749
  31
0.0
   0
LINE
   5
4C0
 100
AcDbEntity
   8
LEVEL001
 100
AcDbLine
   6
DOT
  62
1
  10
 132.83300249143
  20
-89.518884157749
  30
0.0
  11
 131.83300249143
  21
-89.518884157749
  31
0.0
   0
LINE
   5
4C1
 100
AcDbEntity
   8
LEVEL001
 100
AcDbLine
   6
DOT
  62
1
  10
 132.48300249134
  20
-89.518884157749
  30
0.0
  11
 132.83300249134
  21
-89.168884157749
  31
0.0
   0
LINE
   5
4C2
 100
AcDbEntity
   8
LEVEL001
 100
AcDbLine
   6
DOT
  62
1
  10
 144.03300249143
  20
-92.818884157749
  30
0.0
  11
 132.83300249143
  21
-92.818884157749
  31
0.0
   0
LINE
   5
4C3
 100
AcDbEntity
   8
LEVEL001
 100
AcDbLine
   6
DOT
  62
1
  10
 144.03300249143
  20
-93.168884157749
  30
0.0
  11
 132.83300249143
  21
-93.168884157749
  31
0.0
   0
LINE
   5
4C4
 100
AcDbEntity
   8
LEVEL001
 100
AcDbLine
   6
DOT
  62
1
  10
 132.83300249143
  20
-92.818884157749
  30
0.0
  11
 131.83300249143
  21
-92.818884157749
  31
0.0
   0
LINE
   5
4C5
 100
AcDbEntity
   8
LEVEL001
 100
AcDbLine
   6
DOT
  62
1
  10
 132.48300249134
  20
-92.818884157749
  30
0.0
  11
 132.83300249134
  21
-93.168884157749
  31
0.0
   0
LINE
   5
4C6
 100
AcDbEntity
   8
LEVEL001
 100
AcDbLine
   6
DOT
  62
1
  10
 144.03300249143
  20
-93.168884157758
  30
0.0
  11
 144.53300249143
  21
-93.668884157758
  31
0.0
   0
LINE
   5
4C7
 100
AcDbEntity
   8
LEVEL001
 100
AcDbLine
   6
DOT
  62
1
  10
 144.03300249143
  20
-93.168884157758
  30
0.0
  11
 144.03300249143
  21
-89.518884157749
  31
0.0
   0
LINE
   5
4C8
 100
AcDbEntity
   8
LEVEL001
 100
AcDbLine
   6
DOT
  62
1
  10
 132.83300249143
  20
-93.168884157749
  30
0.0
  11
 132.83300249143
  21
-89.168884157749
  31
0.0
   0
LINE
   5
4C9
 100
AcDbEntity
   8
LEVEL001
 100
AcDbLine
   6
DOT
  62
1
  10
 131.83300249143
  20
-92.818884157749
  30
0.0
  11
 131.83300249143
  21
-89.518884157749
  31
0.0
   0
LINE
   5
4CA
 100
AcDbEntity
   8
LEVEL001
 100
AcDbLine
   6
DOT
  62
1
  10
 132.48300249134
  20
-92.818884157749
  30
0.0
  11
 132.48300249134
  21
-89.518884157750
  31
0.0
   0
ARC
   5
4CB
 100
AcDbEntity
   8
LEVEL001
   6
CONTINUOUS
  62
7
 100
AcDbCircle
  10
 143.53300249143
  20
-89.196415116143
  30
0.0
  40
 1.0000000000000
 100
AcDbArc
  50
0.0
  51
 88.698047327421
   0
POINT
   5
4CC
 100
AcDbEntity
   8
LEVEL001
 100
AcDbPoint
  62
7
  10
 144.53300249143
  20
-88.218884157749
  30
0.0
   0
LINE
   5
4CD
 100
AcDbEntity
   8
LEVEL001
 100
AcDbLine
   6
CONTINUOUS
  62
7
  10
 144.53300249143
  20
-152.41888415775
  30
0.0
  11
 144.53300249143
  21
-89.196415116143
  31
0.0
   0
LINE
   5
4CE
 100
AcDbEntity
   8
LEVEL001
 100
AcDbLine
   6
DOT
  62
1
  10
 144.03300249143
  20
-89.168884157741
  30
0.0
  11
 144.43571525733
  21
-88.766171391849
  31
0.0
   0
LINE
   5
4CF
 100
AcDbEntity
   8
LEVEL001
 100
AcDbLine
   6
CONTINUOUS
  62
7
  10
 130.03300249143
  20
-152.41888415775
  30
0.0
  11
 130.03300249143
  21
-83.418884157749
  31
0.0
   0
ARC
   5
4D0
 100
AcDbEntity
   8
LEVEL001
   6
CONTINUOUS
  62
7
 100
AcDbCircle
  10
 161.03300249143
  20
-83.418884157754
  30
0.0
  40
 1.0000000000000
 100
AcDbArc
  50
 0.14655995972184E-9
  51
 90.000000000000
   0
POINT
   5
4D1
 100
AcDbEntity
   8
LEVEL001
 100
AcDbPoint
  62
7
  10
 162.03300249143
  20
-82.418884157752
  30
0.0
   0
LINE
   5
4D2
 100
AcDbEntity
   8
LEVEL001
 100
AcDbLine
   6
CONTINUOUS
  62
7
  10
 162.03300249143
  20
-83.418884157752
  30
0.0
  11
 162.03300249143
  21
-152.41888415775
  31
0.0
   0
ARC
   5
4D3
 100
AcDbEntity
   8
LEVEL001
   6
CONTINUOUS
  62
7
 100
AcDbCircle
  10
 148.53300249143
  20
-89.196415116145
  30
0.0
  40
 1.0000000000000
 100
AcDbArc
  50
 91.301952672575
  51
 179.99999999988
   0
POINT
   5
4D4
 100
AcDbEntity
   8
LEVEL001
 100
AcDbPoint
  62
7
  10
 147.53300249143
  20
-88.218884157749
  30
0.0
   0
LINE
   5
4D5
 100
AcDbEntity
   8
LEVEL001
 100
AcDbLine
   6
DOT
  62
1
  10
 162.03300249132
  20
-87.918884157749
  30
0.0
  11
 160.98300249132
  21
-88.968884157750
  31
0.0
   0
LINE
   5
4D6
 100
AcDbEntity
   8
LEVEL001
 100
AcDbLine
   6
DOT
  62
1
  10
 147.53300249143
  20
-93.368884157749
  30
0.0
  11
 160.98300249132
  21
-93.368884157749
  31
0.0
   0
LINE
   5
4D7
 100
AcDbEntity
   8
LEVEL001
 100
AcDbLine
   6
DOT
  62
1
  10
 162.03300249132
  20
-94.418884157749
  30
0.0
  11
 160.98300249132
  21
-93.368884157749
  31
0.0
   0
LINE
   5
4D8
 100
AcDbEntity
   8
LEVEL001
 100
AcDbLine
   6
DOT
  62
1
  10
 147.55923164417
  20
-88.968884157750
  30
0.0
  11
 160.98300249132
  21
-88.968884157750
  31
0.0
   0
LINE
   5
4D9
 100
AcDbEntity
   8
LEVEL001
 100
AcDbLine
   6
DOT
  62
1
  10
 160.98300249132
  20
-88.968884157750
  30
0.0
  11
 160.98300249132
  21
-93.368884157749
  31
0.0
   0
LINE
   5
4DA
 100
AcDbEntity
   8
LEVEL001
 100
AcDbLine
   6
CONTINUOUS
  62
7
  10
 147.53300249143
  20
-89.196415116143
  30
0.0
  11
 147.53300249143
  21
-152.41888415775
  31
0.0
   0
LINE
   5
4DB
 100
AcDbEntity
   8
LEVEL001
 100
AcDbLine
   6
DASHDOT
  62
3
  10
 128.06779648761
  20
-91.168884157749
  30
0.0
  11
 164.68894178403
  21
-91.168884157749
  31
0.0
   0
LINE
   5
4DC
 100
AcDbEntity
   8
LEVEL001
 100
AcDbLine
   6
CONTINUOUS
  62
7
  10
 131.53300249143
  20
-82.418884157749
  30
0.0
  11
 131.53300249143
  21
-152.41888415775
  31
0.0
   0
LINE
   5
4DD
 100
AcDbEntity
   8
LEVEL001
 100
AcDbLine
   6
CONTINUOUS
  62
7
  10
 160.53300249143
  20
-152.41888415775
  30
0.0
  11
 160.53300249143
  21
-82.418884157752
  31
0.0
   0
LINE
   5
4DE
 100
AcDbEntity
   8
LEVEL001
 100
AcDbLine
   6
CONTINUOUS
  62
7
  10
 131.53300249143
  20
-87.923429612295
  30
0.0
  11
 143.55572389679
  21
-88.196673280598
  31
0.0
   0
LINE
   5
4DF
 100
AcDbEntity
   8
LEVEL001
 100
AcDbLine
   6
CONTINUOUS
  62
7
  10
 160.53300249143
  20
-87.923429612295
  30
0.0
  11
 148.51028108608
  21
-88.196673280598
  31
0.0
   0
LINE
   5
4E0
 100
AcDbEntity
   8
LEVEL001
 100
AcDbLine
   6
CONTINUOUS
  62
15
  10
 161.03300249143
  20
-82.418884157752
  30
0.0
  11
 161.03300249143
  21
-152.41888415775
  31
0.0
   0
LINE
   5
4E1
 100
AcDbEntity
   8
LEVEL001
 100
AcDbLine
   6
CONTINUOUS
  62
15
  10
 131.03300249143
  20
-152.41888415775
  30
0.0
  11
 131.03300249143
  21
-82.418884157749
  31
0.0
   0
LINE
   5
4E2
 100
AcDbEntity
   8
LEVEL001
 100
AcDbLine
   6
CONTINUOUS
  62
7
  10
 131.53300249143
  20
-82.418884157749
  30
0.0
  11
 131.03300249143
  21
-82.418884157749
  31
0.0
   0
LINE
   5
4E3
 100
AcDbEntity
   8
LEVEL001
 100
AcDbLine
   6
CONTINUOUS
  62
7
  10
 160.53300249143
  20
-82.418884157752
  30
0.0
  11
 161.03300249143
  21
-82.418884157752
  31
0.0
   0
POINT
   5
4E4
 100
AcDbEntity
   8
LEVEL001
 100
AcDbPoint
  62
7
  10
 147.53300249143
  20
-94.964338703204
  30
0.0
   0
ARC
   5
4E5
 100
AcDbEntity
   8
LEVEL001
   6
CONTINUOUS
  62
7
 100
AcDbCircle
  10
 148.53300249143
  20
-95.941869661598
  30
0.0
  40
 1.0000000000000
 100
AcDbArc
  50
 91.301952672578
  51
 180.00000000001
   0
ARC
   5
4E6
 100
AcDbEntity
   8
LEVEL001
   6
CONTINUOUS
  62
7
 100
AcDbCircle
  10
 143.53300249143
  20
-95.941869661599
  30
0.0
  40
 1.0000000000000
 100
AcDbArc
  50
 0.43967987916552E-10
  51
 88.698047327423
   0
POINT
   5
4E7
 100
AcDbEntity
   8
LEVEL001
 100
AcDbPoint
  62
7
  10
 144.53300249143
  20
-94.964338703204
  30
0.0
   0
LINE
   5
4E8
 100
AcDbEntity
   8
LEVEL001
 100
AcDbLine
   6
CONTINUOUS
  62
7
  10
 131.53300249143
  20
-94.668884157749
  30
0.0
  11
 143.55572389679
  21
-94.942127826053
  31
0.0
   0
LINE
   5
4E9
 100
AcDbEntity
   8
LEVEL001
 100
AcDbLine
   6
CONTINUOUS
  62
7
  10
 160.53300249143
  20
-94.668884157749
  30
0.0
  11
 148.51028108608
  21
-94.942127826053
  31
0.0
   0
ARC
   5
4EA
 100
AcDbEntity
   8
LEVEL001
   6
DOT
  62
1
 100
AcDbCircle
  10
 131.03300249143
  20
-95.191353199353
  30
0.0
  40
 1.0000000000000
 100
AcDbArc
  50
 180.00000000014
  51
 268.69804732743
   0
POINT
   5
4EB
 100
AcDbEntity
   8
LEVEL001
 100
AcDbPoint
  62
1
  10
 130.03300249143
  20
-96.168884157749
  30
0.0
   0
ARC
   5
4EC
 100
AcDbEntity
   8
LEVEL001
   6
DOT
  62
1
 100
AcDbCircle
  10
 142.03300249143
  20
-97.441869661598
  30
0.0
  40
 1.0000000000000
 100
AcDbArc
  50
 0.16284439969103E-11
  51
 88.698047327459
   0
POINT
   5
4ED
 100
AcDbEntity
   8
LEVEL001
 100
AcDbPoint
  62
1
  10
 143.03300249143
  20
-96.464338703204
  30
0.0
   0
LINE
   5
4EE
 100
AcDbEntity
   8
LEVEL001
 100
AcDbLine
   6
DOT
  62
1
  10
 131.01028108608
  20
-96.191095034901
  30
0.0
  11
 142.05572389679
  21
-96.442127826053
  31
0.0
   0
ARC
   5
4EF
 100
AcDbEntity
   8
LEVEL001
   6
DOT
  62
1
 100
AcDbCircle
  10
 150.03300249143
  20
-97.441869661598
  30
0.0
  40
 1.0000000000000
 100
AcDbArc
  50
 91.301952672531
  51
 180.00000000000
   0
POINT
   5
4F0
 100
AcDbEntity
   8
LEVEL001
 100
AcDbPoint
  62
1
  10
 149.03300249143
  20
-96.464338703204
  30
0.0
   0
LINE
   5
4F1
 100
AcDbEntity
   8
LEVEL001
 100
AcDbLine
   6
DOT
  62
1
  10
 161.05572389679
  20
-96.191095034900
  30
0.0
  11
 150.01028108608
  21
-96.442127826053
  31
0.0
   0
ARC
   5
4F2
 100
AcDbEntity
   8
LEVEL001
   6
DOT
  62
1
 100
AcDbCircle
  10
 161.03300249143
  20
-95.191353199355
  30
0.0
  40
 1.0000000000000
 100
AcDbArc
  50
 271.30195267258
  51
0.0
   0
POINT
   5
4F3
 100
AcDbEntity
   8
LEVEL001
 100
AcDbPoint
  62
1
  10
 162.03300249143
  20
-96.168884157749
  30
0.0
   0
LINE
   5
4F4
 100
AcDbEntity
   8
LEVEL001
 100
AcDbLine
   6
DOT
  62
1
  10
 143.03300249143
  20
-97.441869661598
  30
0.0
  11
 143.03300249143
  21
-152.41888415775
  31
0.0
   0
LINE
   5
4F5
 100
AcDbEntity
   8
LEVEL001
 100
AcDbLine
   6
DOT
  62
1
  10
 149.03300249143
  20
-97.441869661598
  30
0.0
  11
 149.03300249143
  21
-152.41888415775
  31
0.0
   0
LINE
   5
4F6
 100
AcDbEntity
   8
LEVEL001
 100
AcDbLine
   6
DOT
  62
1
  10
 55.822466884293
  20
-152.41888415775
  30
0.0
  11
 55.822466884293
  21
-204.16888415775
  31
0.0
   0
ARC
   5
4F7
 100
AcDbEntity
   8
LEVEL001
   6
DOT
  62
1
 100
AcDbCircle
  10
 61.822466884293
  20
-204.16888415775
  30
0.0
  40
 6.0000000000000
 100
AcDbArc
  50
 180.00000000000
  51
 270.00000000000
   0
POINT
   5
4F8
 100
AcDbEntity
   8
LEVEL001
 100
AcDbPoint
  62
1
  10
 55.822466884293
  20
-210.16888415775
  30
0.0
   0
LINE
   5
4F9
 100
AcDbEntity
   8
LEVEL001
 100
AcDbLine
   6
DOT
  62
1
  10
 65.072466884293
  20
-210.16888415775
  30
0.0
  11
 61.822466884293
  21
-210.16888415775
  31
0.0
   0
LINE
   5
4FA
 100
AcDbEntity
   8
LEVEL001
 100
AcDbLine
   6
DOT
  62
1
  10
 78.822466884293
  20
-210.16888415775
  30
0.0
  11
 75.572466884293
  21
-210.16888415775
  31
0.0
   0
ARC
   5
4FB
 100
AcDbEntity
   8
LEVEL001
   6
DOT
  62
1
 100
AcDbCircle
  10
 78.822466884293
  20
-204.16888415775
  30
0.0
  40
 6.0000000000000
 100
AcDbArc
  50
 270.00000000000
  51
0.0
   0
POINT
   5
4FC
 100
AcDbEntity
   8
LEVEL001
 100
AcDbPoint
  62
1
  10
 84.822466884293
  20
-210.16888415775
  30
0.0
   0
LINE
   5
4FD
 100
AcDbEntity
   8
LEVEL001
 100
AcDbLine
   6
DOT
  62
1
  10
 84.822466884293
  20
-152.41888415775
  30
0.0
  11
 84.822466884293
  21
-204.16888415775
  31
0.0
   0
LINE
   5
4FE
 100
AcDbEntity
   8
LEVEL001
 100
AcDbLine
   6
DOT
  62
1
  10
 65.072466884293
  20
-94.668884157749
  30
0.0
  11
 61.822466884293
  21
-94.668884157749
  31
0.0
   0
ARC
   5
4FF
 100
AcDbEntity
   8
LEVEL001
   6
DOT
  62
1
 100
AcDbCircle
  10
 61.822466884293
  20
-100.66888415775
  30
0.0
  40
 6.0000000000000
 100
AcDbArc
  50
 90.000000000000
  51
 180.00000000000
   0
POINT
   5
500
 100
AcDbEntity
   8
LEVEL001
 100
AcDbPoint
  62
1
  10
 55.822466884293
  20
-94.668884157749
  30
0.0
   0
LINE
   5
501
 100
AcDbEntity
   8
LEVEL001
 100
AcDbLine
   6
DOT
  62
1
  10
 55.822466884293
  20
-152.41888415775
  30
0.0
  11
 55.822466884293
  21
-100.66888415775
  31
0.0
   0
LINE
   5
502
 100
AcDbEntity
   8
LEVEL001
 100
AcDbLine
   6
DOT
  62
1
  10
 78.822466884293
  20
-94.668884157749
  30
0.0
  11
 75.572466884293
  21
-94.668884157749
  31
0.0
   0
ARC
   5
503
 100
AcDbEntity
   8
LEVEL001
   6
DOT
  62
1
 100
AcDbCircle
  10
 78.822466884293
  20
-100.66888415775
  30
0.0
  40
 6.0000000000000
 100
AcDbArc
  50
 0.37997026594551E-11
  51
 90.000000000000
   0
POINT
   5
504
 100
AcDbEntity
   8
LEVEL001
 100
AcDbPoint
  62
1
  10
 84.822466884293
  20
-94.668884157749
  30
0.0
   0
LINE
   5
505
 100
AcDbEntity
   8
LEVEL001
 100
AcDbLine
   6
DOT
  62
1
  10
 84.822466884293
  20
-152.41888415775
  30
0.0
  11
 84.822466884293
  21
-100.66888415775
  31
0.0
   0
TEXT
   5
506
 100
AcDbEntity
   8
LEVEL001
  62
7
 100
AcDbText
  10
 61.403484676771
  20
-256.52695566295
  30
0.0
  40
 4.5000000000000
   1
タップ側
   7
STANDARD
 100
AcDbText
   0
LINE
   5
507
 100
AcDbEntity
   8
LEVEL001
 100
AcDbLine
   6
CONTINUOUS
  62
7
  10
 59.628614742840
  20
-258.24035179784
  30
0.0
  11
 80.648024820288
  21
-258.24035179784
  31
0.0
   0
TEXT
   5
508
 100
AcDbEntity
   8
LEVEL001
  62
7
 100
AcDbText
  10
 211.30018482025
  20
-256.52695566295
  30
0.0
  40
 4.5000000000000
   1
穴側
   7
STANDARD
 100
AcDbText
   0
LINE
   5
509
 100
AcDbEntity
   8
LEVEL001
 100
AcDbLine
   6
CONTINUOUS
  62
7
  10
 209.52531488631
  20
-258.24035179784
  30
0.0
  11
 222.46649135690
  21
-258.24035179784
  31
0.0
   0
ENDSEC
  0
SECTION
  2
OBJECTS
  0
DICTIONARY
  5
C
100
AcDbDictionary
  3
ACAD_GROUP
350
D
  3
ACAD_MLINESTYLE
350
1B
  0
DICTIONARY
  5
D
102
{ACAD_REACTORS
330
C
102
}
100
AcDbDictionary
  0
DICTIONARY
  5
1B
102
{ACAD_REACTORS
330
C
102
}
100
AcDbDictionary
  3
STANDARD
350
1C
  0
MLINESTYLE
  5
1C
102
{ACAD_REACTORS
330
1B
102
}
100
AcDbMlineStyle
  2
STANDARD
 70
     0
  3

 62
   256
 51
90.0
 52
90.0
 71
     2
 49
0.5
 62
   256
  6
BYLAYER
 49
-0.5
 62
   256
  6
BYLAYER
  0
ENDSEC
   0
EOF
