   0
SECTION
   2
HEADER
   9
$ACADVER
   1
AC1015
   9
$LIMMIN
  10
0.0
  20
0.0
   9
$LIMMAX
  10
 420.00000000000
  20
 297.00000000000
   9
$EXTMIN
  10
0.0
  20
0.0
  30
0.0
   9
$EXTMAX
  10
 420.00000000000
  20
 297.00000000000
  30
0.0
   9
$LTSCALE
  40
 8.4000000000000
   9
$HANDSEED
   5
574
   0
ENDSEC
   0
SECTION
   2
TABLES
  0
TABLE
  2
VPORT
  5
8
100
AcDbSymbolTable
 70
     1
  0
VPORT
  5
573
100
AcDbSymbolTableRecord
100
AcDbViewportTableRecord
  2
*ACTIVE
 70
     0
 10
0.0
 20
0.0
 11
1.0
 21
1.0
  12
 210.00000000000
  22
 148.50000000000
 13
0.0
 23
0.0
 14
1.0
 24
1.0
 15
0.0
 25
0.0
 16
0.0
 26
0.0
 36
1.0
 17
0.0
 27
0.0
 37
0.0
  40
 420.00000000000
  41
 1.4787878787879
 42
50.0
 43
0.0
 44
0.0
 50
0.0
 51
0.0
 71
     0
 72
   100
 73
     1
 74
     1
 75
     0
 76
     0
 77
     0
 78
     0
  0
ENDTAB
  0
TABLE
  2
LTYPE
  5
5
100
AcDbSymbolTable
 70
    25
  0
LTYPE
  5
12
100
AcDbSymbolTableRecord
100
AcDbLinetypeTableRecord
  2
BYBLOCK
 70
     0
  3

 72
    65
 73
     0
 40
0.0
  0
LTYPE
  5
13
100
AcDbSymbolTableRecord
100
AcDbLinetypeTableRecord
  2
BYLAYER
 70
     0
  3

 72
    65
 73
     0
 40
0.0
  0
LTYPE
  5
14
100
AcDbSymbolTableRecord
100
AcDbLinetypeTableRecord
  2
CONTINUOUS
 70
     0
  3
Solid line
 72
    65
 73
     0
 40
0.0
  0
LTYPE
  5
20
100
AcDbSymbolTableRecord
100
AcDbLinetypeTableRecord
  2
BORDER
 70
     0
  3
__ __ . __ __ . __ __ . __ __ . __ __ . __ __ .
 72
    65
 73
     6
 40
1.75
 49
0.5
 74
     0
 49
-0.25
 74
     0
 49
0.5
 74
     0
 49
-0.25
 74
     0
 49
0.0
 74
     0
 49
-0.25
 74
     0
  0
LTYPE
  5
21
100
AcDbSymbolTableRecord
100
AcDbLinetypeTableRecord
  2
BORDER2
 70
     0
  3
__.__.__.__.__.__.__.__.__.__.__.__.__.__.__.__
 72
    65
 73
     6
 40
0.875
 49
0.25
 74
     0
 49
-0.125
 74
     0
 49
0.25
 74
     0
 49
-0.125
 74
     0
 49
0.0
 74
     0
 49
-0.125
 74
     0
  0
LTYPE
  5
22
100
AcDbSymbolTableRecord
100
AcDbLinetypeTableRecord
  2
BORDERX2
 70
     0
  3
____  ____  .  ____  ____  .  ____  ____  .  __
 72
    65
 73
     6
 40
3.5
 49
1.0
 74
     0
 49
-0.5
 74
     0
 49
1.0
 74
     0
 49
-0.5
 74
     0
 49
0.0
 74
     0
 49
-0.5
 74
     0
  0
LTYPE
  5
23
100
AcDbSymbolTableRecord
100
AcDbLinetypeTableRecord
  2
CENTER
 70
     0
  3
____ _ ____ _ ____ _ ____ _ ____ _ ____ _ ____ 
 72
    65
 73
     4
 40
2.0
 49
1.25
 74
     0
 49
-0.25
 74
     0
 49
0.25
 74
     0
 49
-0.25
 74
     0
  0
LTYPE
  5
24
100
AcDbSymbolTableRecord
100
AcDbLinetypeTableRecord
  2
CENTER2
 70
     0
  3
___ _ ___ _ ___ _ ___ _ ___ _ ___ _ ___ _ ___ _
 72
    65
 73
     4
 40
1.125
 49
0.75
 74
     0
 49
-0.125
 74
     0
 49
0.125
 74
     0
 49
-0.125
 74
     0
  0
LTYPE
  5
25
100
AcDbSymbolTableRecord
100
AcDbLinetypeTableRecord
  2
CENTERX2
 70
     0
  3
________  __  ________  __  ________  __  _____
 72
    65
 73
     4
 40
4.0
 49
2.5
 74
     0
 49
-0.5
 74
     0
 49
0.5
 74
     0
 49
-0.5
 74
     0
  0
LTYPE
  5
26
100
AcDbSymbolTableRecord
100
AcDbLinetypeTableRecord
  2
DASHDOT
 70
     0
  3
__ . __ . __ . __ . __ . __ . __ . __ . __ . __
 72
    65
 73
     4
 40
1.0
 49
0.5
 74
     0
 49
-0.25
 74
     0
 49
0.0
 74
     0
 49
-0.25
 74
     0
  0
LTYPE
  5
27
100
AcDbSymbolTableRecord
100
AcDbLinetypeTableRecord
  2
DASHDOT2
 70
     0
  3
_._._._._._._._._._._._._._._._._._._._._._._._
 72
    65
 73
     4
 40
0.5
 49
0.25
 74
     0
 49
-0.125
 74
     0
 49
0.0
 74
     0
 49
-0.125
 74
     0
  0
LTYPE
  5
28
100
AcDbSymbolTableRecord
100
AcDbLinetypeTableRecord
  2
DASHDOTX2
 70
     0
  3
____  .  ____  .  ____  .  ____  .  ____  .  __
 72
    65
 73
     4
 40
2.0
 49
1.0
 74
     0
 49
-0.5
 74
     0
 49
0.0
 74
     0
 49
-0.5
 74
     0
  0
LTYPE
  5
29
100
AcDbSymbolTableRecord
100
AcDbLinetypeTableRecord
  2
DASHED
 70
     0
  3
__ __ __ __ __ __ __ __ __ __ __ __ __ __ __ __
 72
    65
 73
     2
 40
0.75
 49
0.5
 74
     0
 49
-0.25
 74
     0
  0
LTYPE
  5
2A
100
AcDbSymbolTableRecord
100
AcDbLinetypeTableRecord
  2
DASHED2
 70
     0
  3
_ _ _ _ _ _ _ _ _ _ _ _ _ _ _ _ _ _ _ _ _ _ _ _
 72
    65
 73
     2
 40
0.375
 49
0.25
 74
     0
 49
-0.125
 74
     0
  0
LTYPE
  5
2B
100
AcDbSymbolTableRecord
100
AcDbLinetypeTableRecord
  2
DASHEDX2
 70
     0
  3
____  ____  ____  ____  ____  ____  ____  ____ 
 72
    65
 73
     2
 40
1.5
 49
1.0
 74
     0
 49
-0.5
 74
     0
  0
LTYPE
  5
2C
100
AcDbSymbolTableRecord
100
AcDbLinetypeTableRecord
  2
DIVIDE
 70
     0
  3
____ . . ____ . . ____ . . ____ . . ____ . . __
 72
    65
 73
     6
 40
1.25
 49
0.5
 74
     0
 49
-0.25
 74
     0
 49
0.0
 74
     0
 49
-0.25
 74
     0
 49
0.0
 74
     0
 49
-0.25
 74
     0
  0
LTYPE
  5
2D
100
AcDbSymbolTableRecord
100
AcDbLinetypeTableRecord
  2
DIVIDE2
 70
     0
  3
__..__..__..__..__..__..__..__..__..__..__..__.
 72
    65
 73
     6
 40
0.625
 49
0.25
 74
     0
 49
-0.125
 74
     0
 49
0.0
 74
     0
 49
-0.125
 74
     0
 49
0.0
 74
     0
 49
-0.125
 74
     0
  0
LTYPE
  5
2E
100
AcDbSymbolTableRecord
100
AcDbLinetypeTableRecord
  2
DIVIDEX2
 70
     0
  3
________  .  .  ________  .  .  ________  .  . 
 72
    65
 73
     6
 40
2.5
 49
1.0
 74
     0
 49
-0.5
 74
     0
 49
0.0
 74
     0
 49
-0.5
 74
     0
 49
0.0
 74
     0
 49
-0.5
 74
     0
  0
LTYPE
  5
2F
100
AcDbSymbolTableRecord
100
AcDbLinetypeTableRecord
  2
DOT
 70
     0
  3
. . . . . . . . . . . . . . . . . . . . . . . .
 72
    65
 73
     2
 40
0.25
 49
0.0
 74
     0
 49
-0.25
 74
     0
  0
LTYPE
  5
30
100
AcDbSymbolTableRecord
100
AcDbLinetypeTableRecord
  2
DOT2
 70
     0
  3
...............................................
 72
    65
 73
     2
 40
0.125
 49
0.0
 74
     0
 49
-0.125
 74
     0
  0
LTYPE
  5
31
100
AcDbSymbolTableRecord
100
AcDbLinetypeTableRecord
  2
DOTX2
 70
     0
  3
.  .  .  .  .  .  .  .  .  .  .  .  .  .  .  . 
 72
    65
 73
     2
 40
0.5
 49
0.0
 74
     0
 49
-0.5
 74
     0
  0
LTYPE
  5
32
100
AcDbSymbolTableRecord
100
AcDbLinetypeTableRecord
  2
HIDDEN
 70
     0
  3
__ __ __ __ __ __ __ __ __ __ __ __ __ __ __ __
 72
    65
 73
     2
 40
0.375
 49
0.25
 74
     0
 49
-0.125
 74
     0
  0
LTYPE
  5
33
100
AcDbSymbolTableRecord
100
AcDbLinetypeTableRecord
  2
HIDDEN2
 70
     0
  3
_ _ _ _ _ _ _ _ _ _ _ _ _ _ _ _ _ _ _ _ _ _ _ _
 72
    65
 73
     2
 40
0.1875
 49
0.125
 74
     0
 49
-0.0625
 74
     0
  0
LTYPE
  5
34
100
AcDbSymbolTableRecord
100
AcDbLinetypeTableRecord
  2
HIDDENX2
 70
     0
  3
____ ____ ____ ____ ____ ____ ____ ____ ____ __
 72
    65
 73
     2
 40
0.75
 49
0.5
 74
     0
 49
-0.25
 74
     0
  0
LTYPE
  5
35
100
AcDbSymbolTableRecord
100
AcDbLinetypeTableRecord
  2
PHANTOM
 70
     0
  3
______  __  __  ______  __  __  ______  __  __ 
 72
    65
 73
     6
 40
2.5
 49
1.25
 74
     0
 49
-0.25
 74
     0
 49
0.25
 74
     0
 49
-0.25
 74
     0
 49
0.25
 74
     0
 49
-0.25
 74
     0
  0
LTYPE
  5
36
100
AcDbSymbolTableRecord
100
AcDbLinetypeTableRecord
  2
PHANTOM2
 70
     0
  3
___ _ _ ___ _ _ ___ _ _ ___ _ _ ___ _ _ ___ _ _
 72
    65
 73
     6
 40
1.25
 49
0.625
 74
     0
 49
-0.125
 74
     0
 49
0.125
 74
     0
 49
-0.125
 74
     0
 49
0.125
 74
     0
 49
-0.125
 74
     0
  0
LTYPE
  5
37
100
AcDbSymbolTableRecord
100
AcDbLinetypeTableRecord
  2
PHANTOMX2
 70
     0
  3
____________    ____    ____    ____________   
 72
    65
 73
     6
 40
5.0
 49
2.5
 74
     0
 49
-0.5
 74
     0
 49
0.5
 74
     0
 49
-0.5
 74
     0
 49
0.5
 74
     0
 49
-0.5
 74
     0
  0
ENDTAB
   0
TABLE
   2
LAYER
   5
2
 100
AcDbSymbolTable
  70
2
   0
LAYER
   5
E
 100
AcDbSymbolTableRecord
 100
AcDbLayerTableRecord
   2
0
  70
0
  62
7
   6
CONTINUOUS
 390
30
   0
LAYER
   5
39
 100
AcDbSymbolTableRecord
 100
AcDbLayerTableRecord
   2
LEVEL001
  70
0
  62
7
   6
CONTINUOUS
 390
30
   0
ENDTAB
  0
TABLE
  2
STYLE
  5
3
100
AcDbSymbolTable
  70
4
  0
STYLE
  5
F
100
AcDbSymbolTableRecord
100
AcDbTextStyleTableRecord
  2
STANDARD
 70
     0
 40
0.0
 41
1.0
 50
0.0
 71
     0
 42
0.2
  3
TXT
  4
BIGFONT
  0
STYLE
  5
38
100
AcDbSymbolTableRecord
100
AcDbTextStyleTableRecord
  2
STANDARD1
 70
     4
 40
0.0
 41
1.0
 50
0.0
 71
     0
 42
0.2
  3
TXT
  4
BIGFONT
   0
STYLE
   5
3A
 100
AcDbSymbolTableRecord
 100
AcDbTextStyleTableRecord
   2
GMM001
  70
0
  40
0.0
  41
 0.75000000000000
  50
0.0
  71
     0
  42
1.0
   3
txt.shx
   4
bigfont.shx
   0
STYLE
   5
3B
 100
AcDbSymbolTableRecord
 100
AcDbTextStyleTableRecord
   2
GMM002
  70
0
  40
0.0
  41
 1.0000000000000
  50
0.0
  71
     0
  42
1.0
   3
txt.shx
   4
bigfont.shx
   0
ENDTAB
  0
TABLE
  2
VIEW
  5
6
100
AcDbSymbolTable
 70
     0
  0
ENDTAB
  0
TABLE
  2
UCS
  5
7
100
AcDbSymbolTable
 70
     0
  0
ENDTAB
  0
TABLE
  2
APPID
  5
9
100
AcDbSymbolTable
 70
     1
  0
APPID
  5
10
100
AcDbSymbolTableRecord
100
AcDbRegAppTableRecord
  2
ACAD
 70
     0
  0
ENDTAB
   0
TABLE
   2
DIMSTYLE
   5
A
 100
AcDbSymbolTable
  70
12
 100
AcDbDimStyleTable
  0
DIMSTYLE
105
1D
100
AcDbSymbolTableRecord
100
AcDbDimStyleTableRecord
  2
STANDARD
 70
     0
  3

  4

  5

  6

  7

 40
1.0
 41
0.18
 42
0.0625
 43
0.38
 44
0.18
 45
0.0
 46
0.0
 47
0.0
 48
0.0
140
0.18
141
0.09
142
0.0
143
25.4
144
1.0
145
0.0
146
1.0
147
0.09
 71
     0
 72
     0
 73
     1
 74
     1
 75
     0
 76
     0
 77
     0
 78
     0
170
     0
171
     2
172
     0
173
     0
174
     0
175
     0
176
     0
177
     0
178
     0
270
     2
271
     4
272
     4
273
     2
274
     2
340
F
275
     0
280
     0
281
     0
282
     0
283
     1
284
     0
285
     0
286
     0
287
     3
288
     0
   0
DIMSTYLE
 105
3C
 100
AcDbSymbolTableRecord
 100
AcDbDimStyleTableRecord
   2
GMM001
  70
0
   3
R<>
   4

   5

   6
_NONE
   7
_OPEN30
  40
 1.0000000000000
  41
 3.0000000000000
  42
 0.50000000000000
  43
 8.0000000000000
  44
 1.0000000000000
  45
0.0
  46
0.0
  47
0.0
  48
0.0
 140
 4.0000000000000
 141
 1.0000000000000
 142
0.0
 143
 0.39400000000000E-1
 144
 1.0000000000000
 145
0.0
 146
 0.62500000000000
 147
 1.7142857142857
  71
0
  72
0
  73
0
  74
0
  75
0
  76
0
  77
3
  78
8
 170
0
 171
2
 172
1
 173
1
 174
0
 175
0
 176
3
 177
3
 178
3
 270
2
 271
6
 272
0
 273
2
 274
2
 340
3A
 275
1
 280
0
 281
0
 282
0
 283
1
 284
0
 285
0
 286
0
 287
3
 288
1
   0
DIMSTYLE
 105
3D
 100
AcDbSymbolTableRecord
 100
AcDbDimStyleTableRecord
   2
GMM002
  70
0
   3

   4

   5

   6
_OPEN30
   7
_OPEN30
  40
 1.0000000000000
  41
 3.0000000000000
  42
 0.50000000000000
  43
 8.0000000000000
  44
 1.0000000000000
  45
0.0
  46
0.0
  47
0.0
  48
0.0
 140
 4.0000000000000
 141
 1.0000000000000
 142
0.0
 143
 0.39400000000000E-1
 144
 1.0000000000000
 145
0.0
 146
 0.62500000000000
 147
 1.7142857142857
  71
0
  72
0
  73
0
  74
0
  75
0
  76
0
  77
3
  78
8
 170
0
 171
2
 172
1
 173
1
 174
0
 175
0
 176
3
 177
3
 178
3
 270
2
 271
6
 272
0
 273
2
 274
2
 340
3A
 275
1
 280
0
 281
0
 282
0
 283
1
 284
0
 285
0
 286
0
 287
3
 288
0
   0
DIMSTYLE
 105
3E
 100
AcDbSymbolTableRecord
 100
AcDbDimStyleTableRecord
   2
GMM003
  70
0
   3

   4

   5

   6
_OPEN30
   7
_OPEN30
  40
 1.0000000000000
  41
 3.0000000000000
  42
 0.50000000000000
  43
 8.0000000000000
  44
 1.0000000000000
  45
0.0
  46
0.0
  47
0.0
  48
0.0
 140
 4.0000000000000
 141
 1.0000000000000
 142
0.0
 143
 0.39400000000000E-1
 144
 1.0000000000000
 145
0.0
 146
 0.62500000000000
 147
 1.7142857142857
  71
0
  72
0
  73
0
  74
0
  75
0
  76
0
  77
3
  78
8
 170
0
 171
2
 172
1
 173
1
 174
0
 175
0
 176
3
 177
3
 178
3
 270
2
 271
6
 272
0
 273
2
 274
2
 340
3A
 275
1
 280
0
 281
0
 282
0
 283
1
 284
0
 285
0
 286
0
 287
3
 288
1
   0
DIMSTYLE
 105
3F
 100
AcDbSymbolTableRecord
 100
AcDbDimStyleTableRecord
   2
GMM004
  70
0
   3

   4

   5

   6
_OPEN30
   7
_OPEN30
  40
 1.0000000000000
  41
 3.0000000000000
  42
 0.50000000000000
  43
 8.0000000000000
  44
 1.0000000000000
  45
0.0
  46
0.0
  47
 0.30000000000000
  48
0.0
 140
 4.0000000000000
 141
 1.0000000000000
 142
0.0
 143
 0.39400000000000E-1
 144
 1.0000000000000
 145
0.0
 146
 0.62500000000000
 147
 1.7142857142857
  71
1
  72
0
  73
0
  74
0
  75
0
  76
0
  77
3
  78
8
 170
0
 171
2
 172
1
 173
1
 174
0
 175
0
 176
3
 177
3
 178
3
 270
2
 271
6
 272
1
 273
2
 274
2
 340
3B
 275
1
 280
0
 281
0
 282
0
 283
1
 284
0
 285
0
 286
0
 287
3
 288
0
   0
DIMSTYLE
 105
40
 100
AcDbSymbolTableRecord
 100
AcDbDimStyleTableRecord
   2
GMM005
  70
0
   3

   4

   5

   6
_OPEN30
   7
_OPEN30
  40
 1.0000000000000
  41
 3.0000000000000
  42
 0.50000000000000
  43
 8.0000000000000
  44
 1.0000000000000
  45
0.0
  46
0.0
  47
0.0
  48
0.0
 140
 4.0000000000000
 141
 1.0000000000000
 142
0.0
 143
 0.39400000000000E-1
 144
 1.0000000000000
 145
0.0
 146
 0.62500000000000
 147
 1.7142857142857
  71
0
  72
0
  73
0
  74
0
  75
0
  76
0
  77
3
  78
8
 170
0
 171
2
 172
1
 173
1
 174
0
 175
0
 176
3
 177
3
 178
3
 270
2
 271
6
 272
0
 273
2
 274
2
 340
3B
 275
1
 280
0
 281
0
 282
0
 283
1
 284
0
 285
0
 286
0
 287
3
 288
0
   0
DIMSTYLE
 105
41
 100
AcDbSymbolTableRecord
 100
AcDbDimStyleTableRecord
   2
GMM006
  70
0
   3
R<>
   4

   5

   6
_NONE
   7
_OPEN30
  40
 1.0000000000000
  41
 3.0000000000000
  42
 0.50000000000000
  43
 8.0000000000000
  44
 1.0000000000000
  45
0.0
  46
0.0
  47
0.0
  48
0.0
 140
 4.0000000000000
 141
 1.0000000000000
 142
0.0
 143
 0.39400000000000E-1
 144
 1.0000000000000
 145
0.0
 146
 0.62500000000000
 147
 1.7142857142857
  71
0
  72
0
  73
0
  74
0
  75
0
  76
0
  77
3
  78
8
 170
0
 171
2
 172
1
 173
1
 174
0
 175
0
 176
3
 177
3
 178
3
 270
2
 271
6
 272
0
 273
2
 274
2
 340
3B
 275
1
 280
0
 281
0
 282
0
 283
1
 284
0
 285
0
 286
0
 287
3
 288
1
   0
DIMSTYLE
 105
42
 100
AcDbSymbolTableRecord
 100
AcDbDimStyleTableRecord
   2
GMM007
  70
0
   3

   4

   5

   6
_OPEN30
   7
_OPEN30
  40
 1.0000000000000
  41
 3.0000000000000
  42
 0.50000000000000
  43
 8.0000000000000
  44
 1.0000000000000
  45
0.0
  46
0.0
  47
0.0
  48
0.0
 140
 4.0000000000000
 141
 1.0000000000000
 142
0.0
 143
 0.39400000000000E-1
 144
 1.0000000000000
 145
0.0
 146
 0.62500000000000
 147
 1.7142857142857
  71
0
  72
0
  73
0
  74
0
  75
0
  76
0
  77
3
  78
8
 170
0
 171
2
 172
1
 173
1
 174
0
 175
0
 176
3
 177
3
 178
3
 270
2
 271
6
 272
0
 273
2
 274
2
 340
3A
 275
1
 280
0
 281
0
 282
0
 283
1
 284
0
 285
0
 286
0
 287
3
 288
0
   0
DIMSTYLE
 105
43
 100
AcDbSymbolTableRecord
 100
AcDbDimStyleTableRecord
   2
GMM008
  70
0
   3
(11.9)<>
   4

   5

   6
_OPEN30
   7
_OPEN30
  40
 1.0000000000000
  41
 3.0000000000000
  42
 0.50000000000000
  43
 8.0000000000000
  44
 1.0000000000000
  45
0.0
  46
0.0
  47
0.0
  48
0.0
 140
 4.0000000000000
 141
 1.0000000000000
 142
0.0
 143
 0.39400000000000E-1
 144
 1.0000000000000
 145
0.0
 146
 0.62500000000000
 147
 1.7142857142857
  71
0
  72
0
  73
0
  74
0
  75
0
  76
0
  77
3
  78
8
 170
0
 171
2
 172
1
 173
1
 174
0
 175
0
 176
3
 177
3
 178
3
 270
2
 271
6
 272
0
 273
2
 274
2
 340
3A
 275
1
 280
0
 281
0
 282
0
 283
1
 284
0
 285
0
 286
0
 287
3
 288
0
   0
DIMSTYLE
 105
44
 100
AcDbSymbolTableRecord
 100
AcDbDimStyleTableRecord
   2
GMM009
  70
0
   3

   4

   5

   6
_OPEN30
   7
_OPEN30
  40
 1.0000000000000
  41
 3.0000000000000
  42
 0.50000000000000
  43
 8.0000000000000
  44
 1.0000000000000
  45
0.0
  46
0.0
  47
 0.30000000000000
  48
0.0
 140
 4.0000000000000
 141
 1.0000000000000
 142
0.0
 143
 0.39400000000000E-1
 144
 1.0000000000000
 145
0.0
 146
 0.62500000000000
 147
 1.7142857142857
  71
1
  72
0
  73
0
  74
0
  75
0
  76
0
  77
3
  78
8
 170
0
 171
2
 172
1
 173
1
 174
0
 175
0
 176
3
 177
3
 178
3
 270
2
 271
6
 272
1
 273
2
 274
2
 340
3B
 275
1
 280
0
 281
0
 282
0
 283
1
 284
0
 285
0
 286
0
 287
3
 288
0
   0
DIMSTYLE
 105
45
 100
AcDbSymbolTableRecord
 100
AcDbDimStyleTableRecord
   2
GMM010
  70
0
   3

   4

   5

   6
_OPEN30
   7
_OPEN30
  40
 1.0000000000000
  41
 3.0000000000000
  42
 0.50000000000000
  43
 8.0000000000000
  44
 1.0000000000000
  45
0.0
  46
0.0
  47
0.0
  48
0.0
 140
 4.0000000000000
 141
 1.0000000000000
 142
0.0
 143
 0.39400000000000E-1
 144
 1.0000000000000
 145
0.0
 146
 0.62500000000000
 147
 1.7142857142857
  71
0
  72
0
  73
0
  74
0
  75
0
  76
0
  77
3
  78
8
 170
0
 171
2
 172
1
 173
1
 174
0
 175
0
 176
3
 177
3
 178
3
 270
2
 271
6
 272
0
 273
2
 274
2
 340
3A
 275
1
 280
0
 281
0
 282
0
 283
1
 284
0
 285
0
 286
0
 287
3
 288
0
   0
ENDTAB
  0
TABLE
  2
BLOCK_RECORD
  5
1
100
AcDbSymbolTable
 70
     0
  0
BLOCK_RECORD
  5
18
100
AcDbSymbolTableRecord
100
AcDbBlockTableRecord
  2
*MODEL_SPACE
  0
BLOCK_RECORD
  5
15
100
AcDbSymbolTableRecord
100
AcDbBlockTableRecord
  2
*PAPER_SPACE
   0
BLOCK_RECORD
   5
46
 100
AcDbSymbolTableRecord
 100
AcDbBlockTableRecord
   2
*D1
   0
BLOCK_RECORD
   5
47
 100
AcDbSymbolTableRecord
 100
AcDbBlockTableRecord
   2
*D2
   0
BLOCK_RECORD
   5
48
 100
AcDbSymbolTableRecord
 100
AcDbBlockTableRecord
   2
BLOCK001
   0
BLOCK_RECORD
   5
49
 100
AcDbSymbolTableRecord
 100
AcDbBlockTableRecord
   2
*D3
   0
BLOCK_RECORD
   5
4A
 100
AcDbSymbolTableRecord
 100
AcDbBlockTableRecord
   2
*D4
   0
BLOCK_RECORD
   5
4B
 100
AcDbSymbolTableRecord
 100
AcDbBlockTableRecord
   2
*D5
   0
BLOCK_RECORD
   5
4C
 100
AcDbSymbolTableRecord
 100
AcDbBlockTableRecord
   2
*D6
   0
BLOCK_RECORD
   5
4D
 100
AcDbSymbolTableRecord
 100
AcDbBlockTableRecord
   2
*D7
   0
BLOCK_RECORD
   5
4E
 100
AcDbSymbolTableRecord
 100
AcDbBlockTableRecord
   2
*D8
   0
BLOCK_RECORD
   5
4F
 100
AcDbSymbolTableRecord
 100
AcDbBlockTableRecord
   2
*D9
   0
BLOCK_RECORD
   5
50
 100
AcDbSymbolTableRecord
 100
AcDbBlockTableRecord
   2
*D10
   0
BLOCK_RECORD
   5
51
 100
AcDbSymbolTableRecord
 100
AcDbBlockTableRecord
   2
*D11
   0
BLOCK_RECORD
   5
52
 100
AcDbSymbolTableRecord
 100
AcDbBlockTableRecord
   2
*D12
   0
BLOCK_RECORD
   5
53
 100
AcDbSymbolTableRecord
 100
AcDbBlockTableRecord
   2
*D13
   0
BLOCK_RECORD
   5
54
 100
AcDbSymbolTableRecord
 100
AcDbBlockTableRecord
   2
*D14
   0
BLOCK_RECORD
   5
55
 100
AcDbSymbolTableRecord
 100
AcDbBlockTableRecord
   2
*D15
   0
BLOCK_RECORD
   5
56
 100
AcDbSymbolTableRecord
 100
AcDbBlockTableRecord
   2
*D16
   0
BLOCK_RECORD
   5
57
 100
AcDbSymbolTableRecord
 100
AcDbBlockTableRecord
   2
*D17
   0
BLOCK_RECORD
   5
58
 100
AcDbSymbolTableRecord
 100
AcDbBlockTableRecord
   2
*D18
   0
BLOCK_RECORD
   5
59
 100
AcDbSymbolTableRecord
 100
AcDbBlockTableRecord
   2
*D19
   0
BLOCK_RECORD
   5
5A
 100
AcDbSymbolTableRecord
 100
AcDbBlockTableRecord
   2
*D20
   0
BLOCK_RECORD
   5
5B
 100
AcDbSymbolTableRecord
 100
AcDbBlockTableRecord
   2
*D21
   0
BLOCK_RECORD
   5
5C
 100
AcDbSymbolTableRecord
 100
AcDbBlockTableRecord
   2
*D22
   0
BLOCK_RECORD
   5
5D
 100
AcDbSymbolTableRecord
 100
AcDbBlockTableRecord
   2
*D23
   0
BLOCK_RECORD
   5
5E
 100
AcDbSymbolTableRecord
 100
AcDbBlockTableRecord
   2
*D24
   0
BLOCK_RECORD
   5
5F
 100
AcDbSymbolTableRecord
 100
AcDbBlockTableRecord
   2
*D25
   0
BLOCK_RECORD
   5
60
 100
AcDbSymbolTableRecord
 100
AcDbBlockTableRecord
   2
*D26
   0
BLOCK_RECORD
   5
61
 100
AcDbSymbolTableRecord
 100
AcDbBlockTableRecord
   2
*D27
   0
BLOCK_RECORD
   5
62
 100
AcDbSymbolTableRecord
 100
AcDbBlockTableRecord
   2
*D28
   0
BLOCK_RECORD
   5
63
 100
AcDbSymbolTableRecord
 100
AcDbBlockTableRecord
   2
*D29
   0
BLOCK_RECORD
   5
64
 100
AcDbSymbolTableRecord
 100
AcDbBlockTableRecord
   2
*D30
   0
BLOCK_RECORD
   5
65
 100
AcDbSymbolTableRecord
 100
AcDbBlockTableRecord
   2
*D31
   0
BLOCK_RECORD
   5
66
 100
AcDbSymbolTableRecord
 100
AcDbBlockTableRecord
   2
_ARCHTICK
   0
BLOCK_RECORD
   5
67
 100
AcDbSymbolTableRecord
 100
AcDbBlockTableRecord
   2
_BOXBLANK
   0
BLOCK_RECORD
   5
68
 100
AcDbSymbolTableRecord
 100
AcDbBlockTableRecord
   2
_BOXFILLED
   0
BLOCK_RECORD
   5
69
 100
AcDbSymbolTableRecord
 100
AcDbBlockTableRecord
   2
_CLOSED
   0
BLOCK_RECORD
   5
6A
 100
AcDbSymbolTableRecord
 100
AcDbBlockTableRecord
   2
_CLOSEDBLANK
   0
BLOCK_RECORD
   5
6B
 100
AcDbSymbolTableRecord
 100
AcDbBlockTableRecord
   2
_DATUMBLANK
   0
BLOCK_RECORD
   5
6C
 100
AcDbSymbolTableRecord
 100
AcDbBlockTableRecord
   2
_DATUMFILLED
   0
BLOCK_RECORD
   5
6D
 100
AcDbSymbolTableRecord
 100
AcDbBlockTableRecord
   2
_DOT
   0
BLOCK_RECORD
   5
6E
 100
AcDbSymbolTableRecord
 100
AcDbBlockTableRecord
   2
_DOTBLANK
   0
BLOCK_RECORD
   5
6F
 100
AcDbSymbolTableRecord
 100
AcDbBlockTableRecord
   2
_DOTSMALL
   0
BLOCK_RECORD
   5
70
 100
AcDbSymbolTableRecord
 100
AcDbBlockTableRecord
   2
_INTEGRAL
   0
BLOCK_RECORD
   5
71
 100
AcDbSymbolTableRecord
 100
AcDbBlockTableRecord
   2
_NONE
   0
BLOCK_RECORD
   5
72
 100
AcDbSymbolTableRecord
 100
AcDbBlockTableRecord
   2
_OBLIQUE
   0
BLOCK_RECORD
   5
73
 100
AcDbSymbolTableRecord
 100
AcDbBlockTableRecord
   2
_OPEN
   0
BLOCK_RECORD
   5
74
 100
AcDbSymbolTableRecord
 100
AcDbBlockTableRecord
   2
_OPEN30
   0
BLOCK_RECORD
   5
75
 100
AcDbSymbolTableRecord
 100
AcDbBlockTableRecord
   2
_OPEN90
   0
BLOCK_RECORD
   5
76
 100
AcDbSymbolTableRecord
 100
AcDbBlockTableRecord
   2
_ORIGIN
   0
ENDTAB
   0
ENDSEC
  0
SECTION
  2
BLOCKS
  0
BLOCK
  5
19
100
AcDbEntity
  8
0
100
AcDbBlockBegin
  2
*MODEL_SPACE
 70
     0
 10
0.0
 20
0.0
 30
0.0
  3
*MODEL_SPACE
  1

  0
ENDBLK
  5
1A
100
AcDbEntity
  8
0
100
AcDbBlockEnd
  0
BLOCK
  5
16
100
AcDbEntity
 67
     1
  8
0
100
AcDbBlockBegin
  2
*PAPER_SPACE
 70
     0
 10
0.0
 20
0.0
 30
0.0
  3
*PAPER_SPACE
  1

  0
ENDBLK
  5
17
100
AcDbEntity
 67
     1
  8
0
100
AcDbBlockEnd
   0
BLOCK
   5
77
 100
AcDbEntity
   8
0
 100
AcDbBlockBegin
   2
_ARCHTICK
  70
0
  10
0.0
  20
0.0
  30
0.0
   3
_ARCHTICK
   0
POLYLINE
   5
78
 100
AcDbEntity
   8
0
   6
BYBLOCK
  62
0
 100
AcDb2dPolyline
  66
1
  10
0.0
  20
0.0
  30
0.0
  70
1
  40
 0.15000000000000
  41
 0.15000000000000
   0
VERTEX
   5
79
 100
AcDbEntity
   8
0
   6
BYBLOCK
  62
0
 100
AcDbVertex
 100
AcDb2dVertex
  10
-0.50000000000000
  20
-0.50000000000000
  30
0.0
  40
 0.15000000000000
  41
 0.15000000000000
   0
VERTEX
   5
7A
 100
AcDbEntity
   8
0
   6
BYBLOCK
  62
0
 100
AcDbVertex
 100
AcDb2dVertex
  10
 0.50000000000000
  20
 0.50000000000000
  30
0.0
  40
 0.15000000000000
  41
 0.15000000000000
   0
SEQEND
   5
7B
 100
AcDbEntity
   8
0
   6
BYBLOCK
  62
0
   0
ENDBLK
   5
7C
 100
AcDbEntity
   8
0
 100
AcDbBlockEnd
   0
BLOCK
   5
7D
 100
AcDbEntity
   8
0
 100
AcDbBlockBegin
   2
_OBLIQUE
  70
0
  10
0.0
  20
0.0
  30
0.0
   3
_OBLIQUE
   0
LINE
   5
7E
 100
AcDbEntity
   8
0
 100
AcDbLine
   6
BYBLOCK
  62
0
  10
-0.50000000000000
  20
-0.50000000000000
  30
0.0
  11
 0.50000000000000
  21
 0.50000000000000
  31
0.0
   0
ENDBLK
   5
7F
 100
AcDbEntity
   8
0
 100
AcDbBlockEnd
   0
BLOCK
   5
80
 100
AcDbEntity
   8
0
 100
AcDbBlockBegin
   2
_BOXBLANK
  70
0
  10
0.0
  20
0.0
  30
0.0
   3
_BOXBLANK
   0
LINE
   5
81
 100
AcDbEntity
   8
0
 100
AcDbLine
   6
BYBLOCK
  62
0
  10
-0.50000000000000
  20
-0.50000000000000
  30
0.0
  11
 0.50000000000000
  21
-0.50000000000000
  31
0.0
   0
LINE
   5
82
 100
AcDbEntity
   8
0
 100
AcDbLine
   6
BYBLOCK
  62
0
  10
 0.50000000000000
  20
-0.50000000000000
  30
0.0
  11
 0.50000000000000
  21
 0.50000000000000
  31
0.0
   0
LINE
   5
83
 100
AcDbEntity
   8
0
 100
AcDbLine
   6
BYBLOCK
  62
0
  10
 0.50000000000000
  20
 0.50000000000000
  30
0.0
  11
-0.50000000000000
  21
 0.50000000000000
  31
0.0
   0
LINE
   5
84
 100
AcDbEntity
   8
0
 100
AcDbLine
   6
BYBLOCK
  62
0
  10
-0.50000000000000
  20
 0.50000000000000
  30
0.0
  11
-0.50000000000000
  21
-0.50000000000000
  31
0.0
   0
LINE
   5
85
 100
AcDbEntity
   8
0
 100
AcDbLine
   6
BYBLOCK
  62
0
  10
-0.50000000000000
  20
0.0
  30
0.0
  11
-1.0000000000000
  21
0.0
  31
0.0
   0
ENDBLK
   5
86
 100
AcDbEntity
   8
0
 100
AcDbBlockEnd
   0
BLOCK
   5
87
 100
AcDbEntity
   8
0
 100
AcDbBlockBegin
   2
_BOXFILLED
  70
0
  10
0.0
  20
0.0
  30
0.0
   3
_BOXFILLED
   0
SOLID
   5
88
 100
AcDbEntity
   8
0
 100
AcDbTrace
   6
BYBLOCK
  62
0
  10
-0.50000000000000
  20
 0.50000000000000
  30
0.0
  11
 0.50000000000000
  21
 0.50000000000000
  31
0.0
  12
-0.50000000000000
  22
-0.50000000000000
  32
0.0
  13
 0.50000000000000
  23
-0.50000000000000
  33
0.0
   0
LINE
   5
89
 100
AcDbEntity
   8
0
 100
AcDbLine
   6
BYBLOCK
  62
0
  10
-0.50000000000000
  20
0.0
  30
0.0
  11
-1.0000000000000
  21
0.0
  31
0.0
   0
ENDBLK
   5
8A
 100
AcDbEntity
   8
0
 100
AcDbBlockEnd
   0
BLOCK
   5
8B
 100
AcDbEntity
   8
0
 100
AcDbBlockBegin
   2
_CLOSED
  70
0
  10
0.0
  20
0.0
  30
0.0
   3
_CLOSED
   0
LINE
   5
8C
 100
AcDbEntity
   8
0
 100
AcDbLine
   6
BYBLOCK
  62
0
  10
-1.0000000000000
  20
 0.16666666666667
  30
0.0
  11
0.0
  21
0.0
  31
0.0
   0
LINE
   5
8D
 100
AcDbEntity
   8
0
 100
AcDbLine
   6
BYBLOCK
  62
0
  10
0.0
  20
0.0
  30
0.0
  11
-1.0000000000000
  21
-0.16666666666667
  31
0.0
   0
LINE
   5
8E
 100
AcDbEntity
   8
0
 100
AcDbLine
   6
BYBLOCK
  62
0
  10
-1.0000000000000
  20
 0.16666666666667
  30
0.0
  11
-1.0000000000000
  21
-0.16666666666667
  31
0.0
   0
LINE
   5
8F
 100
AcDbEntity
   8
0
 100
AcDbLine
   6
BYBLOCK
  62
0
  10
0.0
  20
0.0
  30
0.0
  11
-1.0000000000000
  21
0.0
  31
0.0
   0
ENDBLK
   5
90
 100
AcDbEntity
   8
0
 100
AcDbBlockEnd
   0
BLOCK
   5
91
 100
AcDbEntity
   8
0
 100
AcDbBlockBegin
   2
_OPEN
  70
0
  10
0.0
  20
0.0
  30
0.0
   3
_OPEN
   0
LINE
   5
92
 100
AcDbEntity
   8
0
 100
AcDbLine
   6
BYBLOCK
  62
0
  10
-1.0000000000000
  20
 0.16666666666667
  30
0.0
  11
0.0
  21
0.0
  31
0.0
   0
LINE
   5
93
 100
AcDbEntity
   8
0
 100
AcDbLine
   6
BYBLOCK
  62
0
  10
0.0
  20
0.0
  30
0.0
  11
-1.0000000000000
  21
-0.16666666666667
  31
0.0
   0
LINE
   5
94
 100
AcDbEntity
   8
0
 100
AcDbLine
   6
BYBLOCK
  62
0
  10
0.0
  20
0.0
  30
0.0
  11
-1.0000000000000
  21
0.0
  31
0.0
   0
ENDBLK
   5
95
 100
AcDbEntity
   8
0
 100
AcDbBlockEnd
   0
BLOCK
   5
96
 100
AcDbEntity
   8
0
 100
AcDbBlockBegin
   2
_OPEN30
  70
0
  10
0.0
  20
0.0
  30
0.0
   3
_OPEN30
   0
LINE
   5
97
 100
AcDbEntity
   8
0
 100
AcDbLine
   6
BYBLOCK
  62
0
  10
-1.0000000000000
  20
 0.26794919243110
  30
0.0
  11
0.0
  21
0.0
  31
0.0
   0
LINE
   5
98
 100
AcDbEntity
   8
0
 100
AcDbLine
   6
BYBLOCK
  62
0
  10
0.0
  20
0.0
  30
0.0
  11
-1.0000000000000
  21
-0.26794919243110
  31
0.0
   0
LINE
   5
99
 100
AcDbEntity
   8
0
 100
AcDbLine
   6
BYBLOCK
  62
0
  10
0.0
  20
0.0
  30
0.0
  11
-1.0000000000000
  21
0.0
  31
0.0
   0
ENDBLK
   5
9A
 100
AcDbEntity
   8
0
 100
AcDbBlockEnd
   0
BLOCK
   5
9B
 100
AcDbEntity
   8
0
 100
AcDbBlockBegin
   2
_OPEN90
  70
0
  10
0.0
  20
0.0
  30
0.0
   3
_OPEN90
   0
LINE
   5
9C
 100
AcDbEntity
   8
0
 100
AcDbLine
   6
BYBLOCK
  62
0
  10
-0.50000000000000
  20
 0.50000000000000
  30
0.0
  11
0.0
  21
0.0
  31
0.0
   0
LINE
   5
9D
 100
AcDbEntity
   8
0
 100
AcDbLine
   6
BYBLOCK
  62
0
  10
0.0
  20
0.0
  30
0.0
  11
-0.50000000000000
  21
-0.50000000000000
  31
0.0
   0
LINE
   5
9E
 100
AcDbEntity
   8
0
 100
AcDbLine
   6
BYBLOCK
  62
0
  10
0.0
  20
0.0
  30
0.0
  11
-1.0000000000000
  21
0.0
  31
0.0
   0
ENDBLK
   5
9F
 100
AcDbEntity
   8
0
 100
AcDbBlockEnd
   0
BLOCK
   5
A0
 100
AcDbEntity
   8
0
 100
AcDbBlockBegin
   2
_CLOSEDBLANK
  70
0
  10
0.0
  20
0.0
  30
0.0
   3
_CLOSEDBLANK
   0
LINE
   5
A1
 100
AcDbEntity
   8
0
 100
AcDbLine
   6
BYBLOCK
  62
0
  10
-1.0000000000000
  20
 0.16666666666667
  30
0.0
  11
0.0
  21
0.0
  31
0.0
   0
LINE
   5
A2
 100
AcDbEntity
   8
0
 100
AcDbLine
   6
BYBLOCK
  62
0
  10
0.0
  20
0.0
  30
0.0
  11
-1.0000000000000
  21
-0.16666666666667
  31
0.0
   0
LINE
   5
A3
 100
AcDbEntity
   8
0
 100
AcDbLine
   6
BYBLOCK
  62
0
  10
-1.0000000000000
  20
 0.16666666666667
  30
0.0
  11
-1.0000000000000
  21
-0.16666666666667
  31
0.0
   0
ENDBLK
   5
A4
 100
AcDbEntity
   8
0
 100
AcDbBlockEnd
   0
BLOCK
   5
A5
 100
AcDbEntity
   8
0
 100
AcDbBlockBegin
   2
_DOT
  70
0
  10
0.0
  20
0.0
  30
0.0
   3
_DOT
   0
POLYLINE
   5
A6
 100
AcDbEntity
   8
0
   6
BYBLOCK
  62
0
 100
AcDb2dPolyline
  66
1
  10
0.0
  20
0.0
  30
0.0
  70
1
  40
 0.50000000000000
  41
 0.50000000000000
   0
VERTEX
   5
A7
 100
AcDbEntity
   8
0
   6
BYBLOCK
  62
0
 100
AcDbVertex
 100
AcDb2dVertex
  10
-0.25000000000000
  20
0.0
  30
0.0
  42
 1.0000000000000
  40
 0.50000000000000
  41
 0.50000000000000
   0
VERTEX
   5
A8
 100
AcDbEntity
   8
0
   6
BYBLOCK
  62
0
 100
AcDbVertex
 100
AcDb2dVertex
  10
 0.25000000000000
  20
0.0
  30
0.0
  42
 1.0000000000000
  40
 0.50000000000000
  41
 0.50000000000000
   0
SEQEND
   5
A9
 100
AcDbEntity
   8
0
   6
BYBLOCK
  62
0
   0
LINE
   5
AA
 100
AcDbEntity
   8
0
 100
AcDbLine
   6
BYBLOCK
  62
0
  10
-0.50000000000000
  20
0.0
  30
0.0
  11
-1.0000000000000
  21
0.0
  31
0.0
   0
ENDBLK
   5
AB
 100
AcDbEntity
   8
0
 100
AcDbBlockEnd
   0
BLOCK
   5
AC
 100
AcDbEntity
   8
0
 100
AcDbBlockBegin
   2
_DOTSMALL
  70
0
  10
0.0
  20
0.0
  30
0.0
   3
_DOTSMALL
   0
POLYLINE
   5
AD
 100
AcDbEntity
   8
0
   6
BYBLOCK
  62
0
 100
AcDb2dPolyline
  66
1
  10
0.0
  20
0.0
  30
0.0
  70
1
  40
 0.50000000000000
  41
 0.50000000000000
   0
VERTEX
   5
AE
 100
AcDbEntity
   8
0
   6
BYBLOCK
  62
0
 100
AcDbVertex
 100
AcDb2dVertex
  10
-0.62500000000000E-1
  20
0.0
  30
0.0
  42
 1.0000000000000
  40
 0.50000000000000
  41
 0.50000000000000
   0
VERTEX
   5
AF
 100
AcDbEntity
   8
0
   6
BYBLOCK
  62
0
 100
AcDbVertex
 100
AcDb2dVertex
  10
 0.62500000000000E-1
  20
0.0
  30
0.0
  42
 1.0000000000000
  40
 0.50000000000000
  41
 0.50000000000000
   0
SEQEND
   5
B0
 100
AcDbEntity
   8
0
   6
BYBLOCK
  62
0
   0
ENDBLK
   5
B1
 100
AcDbEntity
   8
0
 100
AcDbBlockEnd
   0
BLOCK
   5
B2
 100
AcDbEntity
   8
0
 100
AcDbBlockBegin
   2
_DATUMBLANK
  70
0
  10
0.0
  20
0.0
  30
0.0
   3
_DATUMBLANK
   0
LINE
   5
B3
 100
AcDbEntity
   8
0
 100
AcDbLine
   6
BYBLOCK
  62
0
  10
0.0
  20
 0.57735027000000
  30
0.0
  11
-1.0000000000000
  21
0.0
  31
0.0
   0
LINE
   5
B4
 100
AcDbEntity
   8
0
 100
AcDbLine
   6
BYBLOCK
  62
0
  10
-1.0000000000000
  20
0.0
  30
0.0
  11
0.0
  21
-0.57735027000000
  31
0.0
   0
LINE
   5
B5
 100
AcDbEntity
   8
0
 100
AcDbLine
   6
BYBLOCK
  62
0
  10
0.0
  20
-0.57735027000000
  30
0.0
  11
0.0
  21
 0.57735027000000
  31
0.0
   0
ENDBLK
   5
B6
 100
AcDbEntity
   8
0
 100
AcDbBlockEnd
   0
BLOCK
   5
B7
 100
AcDbEntity
   8
0
 100
AcDbBlockBegin
   2
_DATUMFILLED
  70
0
  10
0.0
  20
0.0
  30
0.0
   3
_DATUMFILLED
   0
SOLID
   5
B8
 100
AcDbEntity
   8
0
 100
AcDbTrace
   6
BYBLOCK
  62
0
  10
0.0
  20
 0.57735027000000
  30
0.0
  11
-1.0000000000000
  21
0.0
  31
0.0
  12
0.0
  22
-0.57735027000000
  32
0.0
  13
0.0
  23
-0.57735027000000
  33
0.0
   0
ENDBLK
   5
B9
 100
AcDbEntity
   8
0
 100
AcDbBlockEnd
   0
BLOCK
   5
BA
 100
AcDbEntity
   8
0
 100
AcDbBlockBegin
   2
_ORIGIN
  70
0
  10
0.0
  20
0.0
  30
0.0
   3
_ORIGIN
   0
CIRCLE
   5
BB
 100
AcDbEntity
   8
0
 100
AcDbCircle
   6
BYBLOCK
  62
0
  10
0.0
  20
0.0
  30
0.0
  40
 0.50000000000000
   0
LINE
   5
BC
 100
AcDbEntity
   8
0
 100
AcDbLine
   6
BYBLOCK
  62
0
  10
0.0
  20
0.0
  30
0.0
  11
-1.0000000000000
  21
0.0
  31
0.0
   0
ENDBLK
   5
BD
 100
AcDbEntity
   8
0
 100
AcDbBlockEnd
   0
BLOCK
   5
BE
 100
AcDbEntity
   8
0
 100
AcDbBlockBegin
   2
_NONE
  70
0
  10
0.0
  20
0.0
  30
0.0
   3
_NONE
   0
CIRCLE
   5
BF
 100
AcDbEntity
   8
0
 100
AcDbCircle
   6
BYBLOCK
  62
0
  10
0.0
  20
0.0
  30
0.0
  40
 0.25000000000000
   0
ENDBLK
   5
C0
 100
AcDbEntity
   8
0
 100
AcDbBlockEnd
   0
BLOCK
   5
C1
 100
AcDbEntity
   8
0
 100
AcDbBlockBegin
   2
_DOTBLANK
  70
0
  10
0.0
  20
0.0
  30
0.0
   3
_DOTBLANK
   0
CIRCLE
   5
C2
 100
AcDbEntity
   8
0
 100
AcDbCircle
   6
BYBLOCK
  62
0
  10
0.0
  20
0.0
  30
0.0
  40
 0.50000000000000
   0
LINE
   5
C3
 100
AcDbEntity
   8
0
 100
AcDbLine
   6
BYBLOCK
  62
0
  10
-0.50000000000000
  20
0.0
  30
0.0
  11
-1.0000000000000
  21
0.0
  31
0.0
   0
ENDBLK
   5
C4
 100
AcDbEntity
   8
0
 100
AcDbBlockEnd
   0
BLOCK
   5
C5
 100
AcDbEntity
   8
0
 100
AcDbBlockBegin
   2
_INTEGRAL
  70
0
  10
0.0
  20
0.0
  30
0.0
   3
_INTEGRAL
   0
ARC
   5
C6
 100
AcDbEntity
   8
0
   6
BYBLOCK
  62
0
 100
AcDbCircle
  10
 0.44488800000000
  20
-0.91335000000000E-1
  30
0.0
  40
 0.45416700000000
 100
AcDbArc
  50
 102.00000000000
  51
 168.00000000000
   0
ARC
   5
C7
 100
AcDbEntity
   8
0
   6
BYBLOCK
  62
0
 100
AcDbCircle
  10
-0.44488800000000
  20
 0.91335000000000E-1
  30
0.0
  40
 0.45416700000000
 100
AcDbArc
  50
 282.00000000000
  51
 348.00000000000
   0
ENDBLK
   5
C8
 100
AcDbEntity
   8
0
 100
AcDbBlockEnd
   0
BLOCK
   5
C9
 100
AcDbEntity
   8
0
 100
AcDbBlockBegin
   2
*D1
  70
65
  10
0.0
  20
0.0
  30
0.0
   3
*D1
   0
LINE
   5
CA
 100
AcDbEntity
   8
LEVEL001
 100
AcDbLine
   6
CONTINUOUS
  62
3
  10
 59.872925241612
  20
 125.74449012854
  30
0.0
  11
 62.184057908926
  21
 122.47972891307
  31
0.0
   0
LINE
   5
CB
 100
AcDbEntity
   8
LEVEL001
 100
AcDbLine
   6
CONTINUOUS
  62
3
  10
 62.184057908926
  20
 122.47972891307
  30
0.0
  11
 70.116842612333
  21
 111.27368773825
  31
0.0
   0
INSERT
   5
CC
 100
AcDbEntity
   8
LEVEL001
   6
CONTINUOUS
  62
3
 100
AcDbBlockReference
   2
_OPEN30
  10
 64.495190576241
  20
 119.21496769759
  30
0.0
  41
 3.0000000000000
  42
 3.0000000000000
  43
 3.0000000000000
  50
 125.29477298199
   0
MTEXT
   5
CD
 100
AcDbEntity
   8
LEVEL001
  62
3
 100
AcDbMText
  10
 68.049326989423
  20
 117.16131499031
  30
0.0
  40
 4.0000000000000
  41
0.0
  71
7
  72
1
   1
\A1;R8
   7
GMM001
  11
 0.57778316682858
  21
-0.81619030386885
  31
0.0
   0
ENDBLK
   5
CE
 100
AcDbEntity
   8
0
 100
AcDbBlockEnd
   0
BLOCK
   5
CF
 100
AcDbEntity
   8
0
 100
AcDbBlockBegin
   2
*D2
  70
65
  10
0.0
  20
0.0
  30
0.0
   3
*D2
   0
LINE
   5
D0
 100
AcDbEntity
   8
LEVEL001
 100
AcDbLine
   6
CONTINUOUS
  62
3
  10
 68.872925241612
  20
 161.74449012854
  30
0.0
  11
 88.885890079711
  21
 161.74449012854
  31
0.0
   0
LINE
   5
D1
 100
AcDbEntity
   8
LEVEL001
 100
AcDbLine
   6
CONTINUOUS
  62
3
  10
 74.272925241612
  20
 181.74449012854
  30
0.0
  11
 88.885890079711
  21
 181.74449012854
  31
0.0
   0
LINE
   5
D2
 100
AcDbEntity
   8
LEVEL001
 100
AcDbLine
   6
CONTINUOUS
  62
3
  10
 87.885890079711
  20
 161.74449012854
  30
0.0
  11
 87.885890079711
  21
 171.74449012854
  31
0.0
   0
LINE
   5
D3
 100
AcDbEntity
   8
LEVEL001
 100
AcDbLine
   6
CONTINUOUS
  62
3
  10
 87.885890079711
  20
 181.74449012854
  30
0.0
  11
 87.885890079711
  21
 171.74449012854
  31
0.0
   0
INSERT
   5
D4
 100
AcDbEntity
   8
LEVEL001
   6
CONTINUOUS
  62
3
 100
AcDbBlockReference
   2
_OPEN30
  10
 87.885890079711
  20
 161.74449012854
  30
0.0
  41
 3.0000000000000
  42
 3.0000000000000
  43
 3.0000000000000
  50
 270.00000000000
   0
INSERT
   5
D5
 100
AcDbEntity
   8
LEVEL001
   6
CONTINUOUS
  62
3
 100
AcDbBlockReference
   2
_OPEN30
  10
 87.885890079711
  20
 181.74449012854
  30
0.0
  41
 3.0000000000000
  42
 3.0000000000000
  43
 3.0000000000000
  50
 90.000000000000
   0
MTEXT
   5
D6
 100
AcDbEntity
   8
LEVEL001
  62
3
 100
AcDbMText
  10
 86.171604365425
  20
 171.74449012854
  30
0.0
  40
 4.0000000000000
  41
0.0
  71
8
  72
1
   1
\A1;20
   7
GMM001
  11
0.0
  21
 1.0000000000000
  31
0.0
   0
ENDBLK
   5
D7
 100
AcDbEntity
   8
0
 100
AcDbBlockEnd
   0
BLOCK
   5
D8
 100
AcDbEntity
   8
0
 100
AcDbBlockBegin
   2
BLOCK001
  70
64
  10
0.0
  20
0.0
  30
0.0
   3
BLOCK001
   0
POINT
   5
D9
 100
AcDbEntity
   8
LEVEL001
 100
AcDbPoint
  62
7
  10
 47.872925241612
  20
 166.24449012854
  30
0.0
   0
POINT
   5
DA
 100
AcDbEntity
   8
LEVEL001
 100
AcDbPoint
  62
7
  10
 71.872925241612
  20
 166.24449012854
  30
0.0
   0
ARC
   5
DB
 100
AcDbEntity
   8
LEVEL001
   6
DASHDOT
  62
3
 100
AcDbCircle
  10
 51.372925241612
  20
 168.14449012854
  30
0.0
  40
 5.8000000000000
 100
AcDbArc
  50
 227.69501029282
  51
 299.59672637669
   0
ARC
   5
DC
 100
AcDbEntity
   8
LEVEL001
   6
CONTINUOUS
  62
7
 100
AcDbCircle
  10
 49.972925241611
  20
 166.19513125958
  30
0.0
  40
 4.0000000000000
 100
AcDbArc
  50
 180.00000000000
  51
 234.31466528735
   0
ARC
   5
DD
 100
AcDbEntity
   8
LEVEL001
   6
DASHDOT
  62
3
 100
AcDbCircle
  10
 68.372925241612
  20
 168.14449012854
  30
0.0
  40
 5.8000000000000
 100
AcDbArc
  50
 240.40327362331
  51
 312.30498970718
   0
ARC
   5
DE
 100
AcDbEntity
   8
LEVEL001
   6
CONTINUOUS
  62
7
 100
AcDbCircle
  10
 69.772925241612
  20
 166.19513125958
  30
0.0
  40
 4.0000000000000
 100
AcDbArc
  50
 305.68533471265
  51
 0.81422199845465E-12
   0
LINE
   5
DF
 100
AcDbEntity
   8
LEVEL001
 100
AcDbLine
   6
DASHDOT
  62
3
  10
 53.472925241612
  20
 164.52324877514
  30
0.0
  11
 53.472925241612
  21
 160.34540530193
  31
0.0
   0
LINE
   5
E0
 100
AcDbEntity
   8
LEVEL001
 100
AcDbLine
   6
DASHDOT
  62
3
  10
 66.272925241612
  20
 164.52324877514
  30
0.0
  11
 66.272925241612
  21
 160.34540530193
  31
0.0
   0
ARC
   5
E1
 100
AcDbEntity
   8
LEVEL001
   6
CONTINUOUS
  62
7
 100
AcDbCircle
  10
 53.472925241612
  20
 162.73801253218
  30
0.0
  40
 0.60000000000000
 100
AcDbArc
  50
 291.22731276190
  51
 111.22731276190
   0
ARC
   5
E2
 100
AcDbEntity
   8
LEVEL001
   6
CONTINUOUS
  62
7
 100
AcDbCircle
  10
 51.372925241612
  20
 168.14449012854
  30
0.0
  40
 6.4000000000000
 100
AcDbArc
  50
 234.31466528734
  51
 291.22731276190
   0
ARC
   5
E3
 100
AcDbEntity
   8
LEVEL001
   6
CONTINUOUS
  62
7
 100
AcDbCircle
  10
 66.272925241612
  20
 162.73801253218
  30
0.0
  40
 0.60000000000000
 100
AcDbArc
  50
 68.772687238098
  51
 248.77268723810
   0
ARC
   5
E4
 100
AcDbEntity
   8
LEVEL001
   6
CONTINUOUS
  62
7
 100
AcDbCircle
  10
 68.372925241612
  20
 168.14449012854
  30
0.0
  40
 6.4000000000000
 100
AcDbArc
  50
 248.77268723810
  51
 305.68533471265
   0
ARC
   5
E5
 100
AcDbEntity
   8
LEVEL001
   6
CONTINUOUS
  62
7
 100
AcDbCircle
  10
 46.472925241614
  20
 181.24449012854
  30
0.0
  40
 0.50000000000000
 100
AcDbArc
  50
 90.000000000303
  51
 180.00000000000
   0
POINT
   5
E6
 100
AcDbEntity
   8
LEVEL001
 100
AcDbPoint
  62
7
  10
 45.972925241612
  20
 181.74449012854
  30
0.0
   0
ARC
   5
E7
 100
AcDbEntity
   8
LEVEL001
   6
CONTINUOUS
  62
7
 100
AcDbCircle
  10
 73.272925241612
  20
 181.24449012854
  30
0.0
  40
 0.50000000000000
 100
AcDbArc
  50
0.0
  51
 90.000000000000
   0
POINT
   5
E8
 100
AcDbEntity
   8
LEVEL001
 100
AcDbPoint
  62
7
  10
 73.772925241612
  20
 181.74449012854
  30
0.0
   0
LINE
   5
E9
 100
AcDbEntity
   8
LEVEL001
 100
AcDbLine
   6
CONTINUOUS
  62
7
  10
 54.672925241612
  20
 181.24449012854
  30
0.0
  11
 54.672925241612
  21
 181.54449012854
  31
0.0
   0
ARC
   5
EA
 100
AcDbEntity
   8
LEVEL001
   6
CONTINUOUS
  62
7
 100
AcDbCircle
  10
 54.872925241617
  20
 181.54449012854
  30
0.0
  40
 0.20000000000000
 100
AcDbArc
  50
 90.000000001390
  51
 180.00000000000
   0
POINT
   5
EB
 100
AcDbEntity
   8
LEVEL001
 100
AcDbPoint
  62
7
  10
 54.672925241612
  20
 181.74449012854
  30
0.0
   0
LINE
   5
EC
 100
AcDbEntity
   8
LEVEL001
 100
AcDbLine
   6
CONTINUOUS
  62
7
  10
 54.872925241612
  20
 181.74449012854
  30
0.0
  11
 64.872925241612
  21
 181.74449012854
  31
0.0
   0
ARC
   5
ED
 100
AcDbEntity
   8
LEVEL001
   6
CONTINUOUS
  62
7
 100
AcDbCircle
  10
 64.872925241612
  20
 181.54449012855
  30
0.0
  40
 0.20000000000000
 100
AcDbArc
  50
0.0
  51
 90.000000000004
   0
POINT
   5
EE
 100
AcDbEntity
   8
LEVEL001
 100
AcDbPoint
  62
7
  10
 65.072925241612
  20
 181.74449012854
  30
0.0
   0
LINE
   5
EF
 100
AcDbEntity
   8
LEVEL001
 100
AcDbLine
   6
CONTINUOUS
  62
7
  10
 65.072925241612
  20
 181.24449012854
  30
0.0
  11
 65.072925241612
  21
 181.54449012854
  31
0.0
   0
LINE
   5
F0
 100
AcDbEntity
   8
LEVEL001
 100
AcDbLine
   6
CONTINUOUS
  62
7
  10
 45.972925241612
  20
 166.19513125958
  30
0.0
  11
 45.972925241612
  21
 181.24449012854
  31
0.0
   0
LINE
   5
F1
 100
AcDbEntity
   8
LEVEL001
 100
AcDbLine
   6
CONTINUOUS
  62
7
  10
 73.772925241612
  20
 166.19513125958
  30
0.0
  11
 73.772925241612
  21
 181.24449012854
  31
0.0
   0
ARC
   5
F2
 100
AcDbEntity
   8
LEVEL001
   6
CONTINUOUS
  62
7
 100
AcDbCircle
  10
 48.172925241612
  20
 179.04449012854
  30
0.0
  40
 1.0000000000000
 100
AcDbArc
  50
 90.000000000000
  51
 180.00000000005
   0
POINT
   5
F3
 100
AcDbEntity
   8
LEVEL001
 100
AcDbPoint
  62
7
  10
 47.172925241612
  20
 180.04449012854
  30
0.0
   0
ARC
   5
F4
 100
AcDbEntity
   8
LEVEL001
   6
CONTINUOUS
  62
7
 100
AcDbCircle
  10
 71.572925241612
  20
 179.04449012854
  30
0.0
  40
 1.0000000000000
 100
AcDbArc
  50
0.0
  51
 90.000000000000
   0
POINT
   5
F5
 100
AcDbEntity
   8
LEVEL001
 100
AcDbPoint
  62
7
  10
 72.572925241612
  20
 180.04449012854
  30
0.0
   0
LINE
   5
F6
 100
AcDbEntity
   8
LEVEL001
 100
AcDbLine
   6
CONTINUOUS
  62
7
  10
 60.122925241612
  20
 180.54449012854
  30
0.0
  11
 63.872925241612
  21
 180.54449012854
  31
0.0
   0
LINE
   5
F7
 100
AcDbEntity
   8
LEVEL001
 100
AcDbLine
   6
CONTINUOUS
  62
7
  10
 55.872925241612
  20
 180.54449012854
  30
0.0
  11
 59.622925241612
  21
 180.54449012854
  31
0.0
   0
LINE
   5
F8
 100
AcDbEntity
   8
LEVEL001
 100
AcDbLine
   6
CONTINUOUS
  62
7
  10
 59.622925241612
  20
 180.54449012854
  30
0.0
  11
 59.872925241612
  21
 180.79449012854
  31
0.0
   0
LINE
   5
F9
 100
AcDbEntity
   8
LEVEL001
 100
AcDbLine
   6
CONTINUOUS
  62
7
  10
 59.872925241612
  20
 180.79449012854
  30
0.0
  11
 60.122925241612
  21
 180.54449012854
  31
0.0
   0
LINE
   5
FA
 100
AcDbEntity
   8
LEVEL001
 100
AcDbLine
   6
CONTINUOUS
  62
7
  10
 63.872925241612
  20
 180.24449012854
  30
0.0
  11
 63.872925241612
  21
 180.54449012854
  31
0.0
   0
ARC
   5
FB
 100
AcDbEntity
   8
LEVEL001
   6
CONTINUOUS
  62
7
 100
AcDbCircle
  10
 64.072925241616
  20
 180.24449012854
  30
0.0
  40
 0.20000000000000
 100
AcDbArc
  50
 179.99999999999
  51
 269.99999999886
   0
POINT
   5
FC
 100
AcDbEntity
   8
LEVEL001
 100
AcDbPoint
  62
7
  10
 63.872925241612
  20
 180.04449012854
  30
0.0
   0
LINE
   5
FD
 100
AcDbEntity
   8
LEVEL001
 100
AcDbLine
   6
CONTINUOUS
  62
7
  10
 64.072925241612
  20
 180.04449012854
  30
0.0
  11
 71.572925241612
  21
 180.04449012854
  31
0.0
   0
LINE
   5
FE
 100
AcDbEntity
   8
LEVEL001
 100
AcDbLine
   6
CONTINUOUS
  62
7
  10
 48.172925241612
  20
 180.04449012854
  30
0.0
  11
 55.672925241612
  21
 180.04449012854
  31
0.0
   0
ARC
   5
FF
 100
AcDbEntity
   8
LEVEL001
   6
CONTINUOUS
  62
7
 100
AcDbCircle
  10
 55.672925241612
  20
 180.24449012854
  30
0.0
  40
 0.20000000000000
 100
AcDbArc
  50
 270.00000000000
  51
 0.17180084167393E-8
   0
POINT
   5
100
 100
AcDbEntity
   8
LEVEL001
 100
AcDbPoint
  62
7
  10
 55.872925241612
  20
 180.04449012854
  30
0.0
   0
LINE
   5
101
 100
AcDbEntity
   8
LEVEL001
 100
AcDbLine
   6
CONTINUOUS
  62
7
  10
 55.872925241612
  20
 180.24449012854
  30
0.0
  11
 55.872925241612
  21
 180.54449012854
  31
0.0
   0
LINE
   5
102
 100
AcDbEntity
   8
LEVEL001
 100
AcDbLine
   6
CONTINUOUS
  62
7
  10
 47.972925241612
  20
 181.24449012854
  30
0.0
  11
 54.672925241612
  21
 181.24449012854
  31
0.0
   0
LINE
   5
103
 100
AcDbEntity
   8
LEVEL001
 100
AcDbLine
   6
CONTINUOUS
  62
7
  10
 46.472925241612
  20
 181.74449012854
  30
0.0
  11
 47.772925241612
  21
 181.74449012854
  31
0.0
   0
ARC
   5
104
 100
AcDbEntity
   8
LEVEL001
   6
CONTINUOUS
  62
7
 100
AcDbCircle
  10
 47.772925241612
  20
 181.54449012855
  30
0.0
  40
 0.20000000000000
 100
AcDbArc
  50
0.0
  51
 89.999999999996
   0
POINT
   5
105
 100
AcDbEntity
   8
LEVEL001
 100
AcDbPoint
  62
7
  10
 47.972925241612
  20
 181.74449012854
  30
0.0
   0
LINE
   5
106
 100
AcDbEntity
   8
LEVEL001
 100
AcDbLine
   6
CONTINUOUS
  62
7
  10
 47.972925241612
  20
 181.54449012854
  30
0.0
  11
 47.972925241612
  21
 181.24449012854
  31
0.0
   0
LINE
   5
107
 100
AcDbEntity
   8
LEVEL001
 100
AcDbLine
   6
CONTINUOUS
  62
7
  10
 71.772925241612
  20
 181.24449012854
  30
0.0
  11
 65.072925241612
  21
 181.24449012854
  31
0.0
   0
LINE
   5
108
 100
AcDbEntity
   8
LEVEL001
 100
AcDbLine
   6
CONTINUOUS
  62
7
  10
 71.772925241612
  20
 181.54449012854
  30
0.0
  11
 71.772925241612
  21
 181.24449012854
  31
0.0
   0
ARC
   5
109
 100
AcDbEntity
   8
LEVEL001
   6
CONTINUOUS
  62
7
 100
AcDbCircle
  10
 71.972925241617
  20
 181.54449012854
  30
0.0
  40
 0.20000000000000
 100
AcDbArc
  50
 90.000000001421
  51
 180.00000000000
   0
POINT
   5
10A
 100
AcDbEntity
   8
LEVEL001
 100
AcDbPoint
  62
7
  10
 71.772925241612
  20
 181.74449012854
  30
0.0
   0
LINE
   5
10B
 100
AcDbEntity
   8
LEVEL001
 100
AcDbLine
   6
CONTINUOUS
  62
7
  10
 73.272925241612
  20
 181.74449012854
  30
0.0
  11
 71.972925241612
  21
 181.74449012854
  31
0.0
   0
LINE
   5
10C
 100
AcDbEntity
   8
LEVEL001
 100
AcDbLine
   6
CONTINUOUS
  62
7
  10
 47.172925241612
  20
 166.96736578407
  30
0.0
  11
 47.172925241612
  21
 179.04449012854
  31
0.0
   0
ARC
   5
10D
 100
AcDbEntity
   8
LEVEL001
   6
CONTINUOUS
  62
7
 100
AcDbCircle
  10
 48.172925241612
  20
 166.96736578407
  30
0.0
  40
 1.0000000000000
 100
AcDbArc
  50
 180.00000000001
  51
 235.77113367223
   0
ARC
   5
10E
 100
AcDbEntity
   8
LEVEL001
   6
CONTINUOUS
  62
7
 100
AcDbCircle
  10
 47.272925241613
  20
 165.64449012854
  30
0.0
  40
 0.60000000000000
 100
AcDbArc
  50
0.0
  51
 55.771133672214
   0
LINE
   5
10F
 100
AcDbEntity
   8
LEVEL001
 100
AcDbLine
   6
CONTINUOUS
  62
7
  10
 72.572925241612
  20
 166.96736578407
  30
0.0
  11
 72.572925241612
  21
 179.04449012854
  31
0.0
   0
ARC
   5
110
 100
AcDbEntity
   8
LEVEL001
   6
CONTINUOUS
  62
7
 100
AcDbCircle
  10
 71.572925241612
  20
 166.96736578407
  30
0.0
  40
 1.0000000000000
 100
AcDbArc
  50
 304.22886632783
  51
 0.16284439969093E-11
   0
ARC
   5
111
 100
AcDbEntity
   8
LEVEL001
   6
CONTINUOUS
  62
7
 100
AcDbCircle
  10
 72.472925241615
  20
 165.64449012854
  30
0.0
  40
 0.60000000000000
 100
AcDbArc
  50
 124.22886632810
  51
 180.00000000015
   0
LINE
   5
112
 100
AcDbEntity
   8
LEVEL001
 100
AcDbLine
   6
CONTINUOUS
  62
7
  10
 47.872925241612
  20
 165.03161364529
  30
0.0
  11
 47.872925241612
  21
 165.64449012854
  31
0.0
   0
ARC
   5
113
 100
AcDbEntity
   8
LEVEL001
   6
CONTINUOUS
  62
7
 100
AcDbCircle
  10
 49.372925241613
  20
 165.03161364529
  30
0.0
  40
 1.5000000000000
 100
AcDbArc
  50
 179.99999999998
  51
 237.27955663356
   0
ARC
   5
114
 100
AcDbEntity
   8
LEVEL001
   6
CONTINUOUS
  62
7
 100
AcDbCircle
  10
 51.372925241613
  20
 168.14449012854
  30
0.0
  40
 5.2000000000000
 100
AcDbArc
  50
 237.27955663360
  51
 291.22731276189
   0
LINE
   5
115
 100
AcDbEntity
   8
LEVEL001
 100
AcDbLine
   6
CONTINUOUS
  62
7
  10
 71.872925241612
  20
 165.03161364529
  30
0.0
  11
 71.872925241612
  21
 165.64449012854
  31
0.0
   0
ARC
   5
116
 100
AcDbEntity
   8
LEVEL001
   6
CONTINUOUS
  62
7
 100
AcDbCircle
  10
 70.372925241613
  20
 165.03161364529
  30
0.0
  40
 1.5000000000000
 100
AcDbArc
  50
 302.72044336637
  51
0.0
   0
ARC
   5
117
 100
AcDbEntity
   8
LEVEL001
   6
CONTINUOUS
  62
7
 100
AcDbCircle
  10
 68.372925241610
  20
 168.14449012854
  30
0.0
  40
 5.2000000000000
 100
AcDbArc
  50
 248.77268723812
  51
 302.72044336641
   0
ENDBLK
   5
118
 100
AcDbEntity
   8
0
 100
AcDbBlockEnd
   0
BLOCK
   5
119
 100
AcDbEntity
   8
0
 100
AcDbBlockBegin
   2
*D3
  70
65
  10
0.0
  20
0.0
  30
0.0
   3
*D3
   0
LINE
   5
11A
 100
AcDbEntity
   8
LEVEL001
 100
AcDbLine
   6
CONTINUOUS
  62
3
  10
 51.372925241612
  20
 183.92456256298
  30
0.0
  11
 51.372925241612
  21
 192.85704398644
  31
0.0
   0
LINE
   5
11B
 100
AcDbEntity
   8
LEVEL001
 100
AcDbLine
   6
CONTINUOUS
  62
3
  10
 68.372925241612
  20
 184.03708981436
  30
0.0
  11
 68.372925241612
  21
 192.85704398644
  31
0.0
   0
LINE
   5
11C
 100
AcDbEntity
   8
LEVEL001
 100
AcDbLine
   6
CONTINUOUS
  62
3
  10
 51.372925241612
  20
 191.85704398644
  30
0.0
  11
 59.872925241612
  21
 191.85704398644
  31
0.0
   0
LINE
   5
11D
 100
AcDbEntity
   8
LEVEL001
 100
AcDbLine
   6
CONTINUOUS
  62
3
  10
 68.372925241612
  20
 191.85704398644
  30
0.0
  11
 59.872925241612
  21
 191.85704398644
  31
0.0
   0
INSERT
   5
11E
 100
AcDbEntity
   8
LEVEL001
   6
CONTINUOUS
  62
3
 100
AcDbBlockReference
   2
_OPEN30
  10
 51.372925241612
  20
 191.85704398644
  30
0.0
  41
 3.0000000000000
  42
 3.0000000000000
  43
 3.0000000000000
  50
 180.00000000000
   0
INSERT
   5
11F
 100
AcDbEntity
   8
LEVEL001
   6
CONTINUOUS
  62
3
 100
AcDbBlockReference
   2
_OPEN30
  10
 68.372925241612
  20
 191.85704398644
  30
0.0
  41
 3.0000000000000
  42
 3.0000000000000
  43
 3.0000000000000
  50
0.0
   0
MTEXT
   5
120
 100
AcDbEntity
   8
LEVEL001
  62
3
 100
AcDbMText
  10
 59.872925241612
  20
 193.57132970073
  30
0.0
  40
 4.0000000000000
  41
0.0
  71
8
  72
1
   1
\A1;17
   7
GMM001
   0
ENDBLK
   5
121
 100
AcDbEntity
   8
0
 100
AcDbBlockEnd
   0
BLOCK
   5
122
 100
AcDbEntity
   8
0
 100
AcDbBlockBegin
   2
*D4
  70
65
  10
0.0
  20
0.0
  30
0.0
   3
*D4
   0
LINE
   5
123
 100
AcDbEntity
   8
LEVEL001
 100
AcDbLine
   6
CONTINUOUS
  62
3
  10
 45.972925241612
  20
 182.64449012854
  30
0.0
  11
 45.972925241612
  21
 201.06364369950
  31
0.0
   0
LINE
   5
124
 100
AcDbEntity
   8
LEVEL001
 100
AcDbLine
   6
CONTINUOUS
  62
3
  10
 73.772925241612
  20
 182.64449012854
  30
0.0
  11
 73.772925241612
  21
 201.06364369950
  31
0.0
   0
LINE
   5
125
 100
AcDbEntity
   8
LEVEL001
 100
AcDbLine
   6
CONTINUOUS
  62
3
  10
 45.972925241612
  20
 200.06364369950
  30
0.0
  11
 59.872925241612
  21
 200.06364369950
  31
0.0
   0
LINE
   5
126
 100
AcDbEntity
   8
LEVEL001
 100
AcDbLine
   6
CONTINUOUS
  62
3
  10
 73.772925241612
  20
 200.06364369950
  30
0.0
  11
 59.872925241612
  21
 200.06364369950
  31
0.0
   0
INSERT
   5
127
 100
AcDbEntity
   8
LEVEL001
   6
CONTINUOUS
  62
3
 100
AcDbBlockReference
   2
_OPEN30
  10
 45.972925241612
  20
 200.06364369950
  30
0.0
  41
 3.0000000000000
  42
 3.0000000000000
  43
 3.0000000000000
  50
 180.00000000000
   0
INSERT
   5
128
 100
AcDbEntity
   8
LEVEL001
   6
CONTINUOUS
  62
3
 100
AcDbBlockReference
   2
_OPEN30
  10
 73.772925241612
  20
 200.06364369950
  30
0.0
  41
 3.0000000000000
  42
 3.0000000000000
  43
 3.0000000000000
  50
0.0
   0
MTEXT
   5
129
 100
AcDbEntity
   8
LEVEL001
  62
3
 100
AcDbMText
  10
 59.872925241612
  20
 201.77792941378
  30
0.0
  40
 4.0000000000000
  41
0.0
  71
8
  72
1
   1
\A1;27.8
   7
GMM001
   0
ENDBLK
   5
12A
 100
AcDbEntity
   8
0
 100
AcDbBlockEnd
   0
BLOCK
   5
12B
 100
AcDbEntity
   8
0
 100
AcDbBlockBegin
   2
*D5
  70
65
  10
0.0
  20
0.0
  30
0.0
   3
*D5
   0
LINE
   5
12C
 100
AcDbEntity
   8
LEVEL001
 100
AcDbLine
   6
CONTINUOUS
  62
3
  10
 51.872925241612
  20
 125.24449012854
  30
0.0
  11
 51.872925241612
  21
 99.921473457524
  31
0.0
   0
LINE
   5
12D
 100
AcDbEntity
   8
LEVEL001
 100
AcDbLine
   6
CONTINUOUS
  62
3
  10
 67.872925241612
  20
 125.24449012854
  30
0.0
  11
 67.872925241612
  21
 99.921473457524
  31
0.0
   0
LINE
   5
12E
 100
AcDbEntity
   8
LEVEL001
 100
AcDbLine
   6
CONTINUOUS
  62
3
  10
 51.872925241612
  20
 100.92147345752
  30
0.0
  11
 59.872925241612
  21
 100.92147345752
  31
0.0
   0
LINE
   5
12F
 100
AcDbEntity
   8
LEVEL001
 100
AcDbLine
   6
CONTINUOUS
  62
3
  10
 67.872925241612
  20
 100.92147345752
  30
0.0
  11
 59.872925241612
  21
 100.92147345752
  31
0.0
   0
INSERT
   5
130
 100
AcDbEntity
   8
LEVEL001
   6
CONTINUOUS
  62
3
 100
AcDbBlockReference
   2
_OPEN30
  10
 51.872925241612
  20
 100.92147345752
  30
0.0
  41
 3.0000000000000
  42
 3.0000000000000
  43
 3.0000000000000
  50
 180.00000000000
   0
INSERT
   5
131
 100
AcDbEntity
   8
LEVEL001
   6
CONTINUOUS
  62
3
 100
AcDbBlockReference
   2
_OPEN30
  10
 67.872925241612
  20
 100.92147345752
  30
0.0
  41
 3.0000000000000
  42
 3.0000000000000
  43
 3.0000000000000
  50
0.0
   0
MTEXT
   5
132
 100
AcDbEntity
   8
LEVEL001
  62
3
 100
AcDbMText
  10
 59.872925241612
  20
 102.63575917181
  30
0.0
  40
 4.0000000000000
  41
0.0
  71
8
  72
1
   1
\A1;16
   7
GMM001
   0
ENDBLK
   5
133
 100
AcDbEntity
   8
0
 100
AcDbBlockEnd
   0
BLOCK
   5
134
 100
AcDbEntity
   8
0
 100
AcDbBlockBegin
   2
*D6
  70
65
  10
0.0
  20
0.0
  30
0.0
   3
*D6
   0
LINE
   5
135
 100
AcDbEntity
   8
LEVEL001
 100
AcDbLine
   6
CONTINUOUS
  62
3
  10
 68.872925241612
  20
 161.74449012854
  30
0.0
  11
 88.885890079711
  21
 161.74449012854
  31
0.0
   0
LINE
   5
136
 100
AcDbEntity
   8
LEVEL001
 100
AcDbLine
   6
CONTINUOUS
  62
3
  10
 75.372925241612
  20
 156.74449012854
  30
0.0
  11
 88.885890079711
  21
 156.74449012854
  31
0.0
   0
LINE
   5
137
 100
AcDbEntity
   8
LEVEL001
 100
AcDbLine
   6
CONTINUOUS
  62
3
  10
 87.885890079711
  20
 165.49449012854
  30
0.0
  11
 87.885890079711
  21
 159.24449012854
  31
0.0
   0
LINE
   5
138
 100
AcDbEntity
   8
LEVEL001
 100
AcDbLine
   6
CONTINUOUS
  62
3
  10
 87.885890079711
  20
 126.80618309841
  30
0.0
  11
 87.885890079711
  21
 159.24449012854
  31
0.0
   0
INSERT
   5
139
 100
AcDbEntity
   8
LEVEL001
   6
CONTINUOUS
  62
3
 100
AcDbBlockReference
   2
_OPEN30
  10
 87.885890079711
  20
 161.74449012854
  30
0.0
  41
 3.0000000000000
  42
 3.0000000000000
  43
 3.0000000000000
  50
 270.00000000000
   0
INSERT
   5
13A
 100
AcDbEntity
   8
LEVEL001
   6
CONTINUOUS
  62
3
 100
AcDbBlockReference
   2
_OPEN30
  10
 87.885890079711
  20
 156.74449012854
  30
0.0
  41
 3.0000000000000
  42
 3.0000000000000
  43
 3.0000000000000
  50
 90.000000000000
   0
MTEXT
   5
13B
 100
AcDbEntity
   8
LEVEL001
  62
3
 100
AcDbMText
  10
 86.171604365425
  20
 140.30618309841
  30
0.0
  40
 4.0000000000000
  41
0.0
  71
8
  72
1
   1
\A1;5%%p3(上下調整)
   7
GMM001
  11
0.0
  21
 1.0000000000000
  31
0.0
   0
ENDBLK
   5
13C
 100
AcDbEntity
   8
0
 100
AcDbBlockEnd
   0
BLOCK
   5
13D
 100
AcDbEntity
   8
0
 100
AcDbBlockBegin
   2
*D7
  70
65
  10
0.0
  20
0.0
  30
0.0
   3
*D7
   0
LINE
   5
13E
 100
AcDbEntity
   8
LEVEL001
 100
AcDbLine
   6
CONTINUOUS
  62
3
  10
 328.08202039611
  20
 117.74449012854
  30
0.0
  11
 315.55395110231
  21
 117.74449012854
  31
0.0
   0
LINE
   5
13F
 100
AcDbEntity
   8
LEVEL001
 100
AcDbLine
   6
CONTINUOUS
  62
3
  10
 328.08202039611
  20
 156.74449012854
  30
0.0
  11
 315.55395110231
  21
 156.74449012854
  31
0.0
   0
LINE
   5
140
 100
AcDbEntity
   8
LEVEL001
 100
AcDbLine
   6
CONTINUOUS
  62
3
  10
 316.55395110231
  20
 117.74449012854
  30
0.0
  11
 316.55395110231
  21
 137.24449012854
  31
0.0
   0
LINE
   5
141
 100
AcDbEntity
   8
LEVEL001
 100
AcDbLine
   6
CONTINUOUS
  62
3
  10
 316.55395110231
  20
 156.74449012854
  30
0.0
  11
 316.55395110231
  21
 137.24449012854
  31
0.0
   0
INSERT
   5
142
 100
AcDbEntity
   8
LEVEL001
   6
CONTINUOUS
  62
3
 100
AcDbBlockReference
   2
_OPEN30
  10
 316.55395110231
  20
 117.74449012854
  30
0.0
  41
 3.0000000000000
  42
 3.0000000000000
  43
 3.0000000000000
  50
 270.00000000000
   0
INSERT
   5
143
 100
AcDbEntity
   8
LEVEL001
   6
CONTINUOUS
  62
3
 100
AcDbBlockReference
   2
_OPEN30
  10
 316.55395110231
  20
 156.74449012854
  30
0.0
  41
 3.0000000000000
  42
 3.0000000000000
  43
 3.0000000000000
  50
 90.000000000000
   0
MTEXT
   5
144
 100
AcDbEntity
   8
LEVEL001
  62
3
 100
AcDbMText
  10
 314.83966538802
  20
 137.24449012854
  30
0.0
  40
 4.0000000000000
  41
0.0
  71
8
  72
1
   1
\A1;39{\H0.625x;\S+0.3^ -0;}
   7
GMM002
  11
0.0
  21
 1.0000000000000
  31
0.0
   0
ENDBLK
   5
145
 100
AcDbEntity
   8
0
 100
AcDbBlockEnd
   0
BLOCK
   5
146
 100
AcDbEntity
   8
0
 100
AcDbBlockBegin
   2
*D8
  70
65
  10
0.0
  20
0.0
  30
0.0
   3
*D8
   0
LINE
   5
147
 100
AcDbEntity
   8
LEVEL001
 100
AcDbLine
   6
CONTINUOUS
  62
3
  10
 289.89880258770
  20
 156.74449012854
  30
0.0
  11
 304.09756994437
  21
 156.74449012854
  31
0.0
   0
LINE
   5
148
 100
AcDbEntity
   8
LEVEL001
 100
AcDbLine
   6
CONTINUOUS
  62
3
  10
 285.96018002640
  20
 125.74449012854
  30
0.0
  11
 304.09756994437
  21
 125.74449012854
  31
0.0
   0
LINE
   5
149
 100
AcDbEntity
   8
LEVEL001
 100
AcDbLine
   6
CONTINUOUS
  62
3
  10
 303.09756994437
  20
 156.74449012854
  30
0.0
  11
 303.09756994437
  21
 141.24449012854
  31
0.0
   0
LINE
   5
14A
 100
AcDbEntity
   8
LEVEL001
 100
AcDbLine
   6
CONTINUOUS
  62
3
  10
 303.09756994437
  20
 125.74449012854
  30
0.0
  11
 303.09756994437
  21
 141.24449012854
  31
0.0
   0
INSERT
   5
14B
 100
AcDbEntity
   8
LEVEL001
   6
CONTINUOUS
  62
3
 100
AcDbBlockReference
   2
_OPEN30
  10
 303.09756994437
  20
 156.74449012854
  30
0.0
  41
 3.0000000000000
  42
 3.0000000000000
  43
 3.0000000000000
  50
 90.000000000000
   0
INSERT
   5
14C
 100
AcDbEntity
   8
LEVEL001
   6
CONTINUOUS
  62
3
 100
AcDbBlockReference
   2
_OPEN30
  10
 303.09756994437
  20
 125.74449012854
  30
0.0
  41
 3.0000000000000
  42
 3.0000000000000
  43
 3.0000000000000
  50
 270.00000000000
   0
MTEXT
   5
14D
 100
AcDbEntity
   8
LEVEL001
  62
3
 100
AcDbMText
  10
 301.38328423008
  20
 141.24449012854
  30
0.0
  40
 4.0000000000000
  41
0.0
  71
8
  72
1
   1
\A1;31
   7
GMM002
  11
0.0
  21
 1.0000000000000
  31
0.0
   0
ENDBLK
   5
14E
 100
AcDbEntity
   8
0
 100
AcDbBlockEnd
   0
BLOCK
   5
14F
 100
AcDbEntity
   8
0
 100
AcDbBlockBegin
   2
*D9
  70
65
  10
0.0
  20
0.0
  30
0.0
   3
*D9
   0
LINE
   5
150
 100
AcDbEntity
   8
LEVEL001
 100
AcDbLine
   6
CONTINUOUS
  62
3
  10
 274.89880258770
  20
 117.74449012854
  30
0.0
  11
 304.09756994437
  21
 117.74449012854
  31
0.0
   0
LINE
   5
151
 100
AcDbEntity
   8
LEVEL001
 100
AcDbLine
   6
CONTINUOUS
  62
3
  10
 303.09756994437
  20
 125.74449012854
  30
0.0
  11
 303.09756994437
  21
 121.74449012854
  31
0.0
   0
LINE
   5
152
 100
AcDbEntity
   8
LEVEL001
 100
AcDbLine
   6
CONTINUOUS
  62
3
  10
 303.09756994437
  20
 117.74449012854
  30
0.0
  11
 303.09756994437
  21
 121.74449012854
  31
0.0
   0
INSERT
   5
153
 100
AcDbEntity
   8
LEVEL001
   6
CONTINUOUS
  62
3
 100
AcDbBlockReference
   2
_OPEN30
  10
 303.09756994437
  20
 125.74449012854
  30
0.0
  41
 3.0000000000000
  42
 3.0000000000000
  43
 3.0000000000000
  50
 90.000000000000
   0
INSERT
   5
154
 100
AcDbEntity
   8
LEVEL001
   6
CONTINUOUS
  62
3
 100
AcDbBlockReference
   2
_OPEN30
  10
 303.09756994437
  20
 117.74449012854
  30
0.0
  41
 3.0000000000000
  42
 3.0000000000000
  43
 3.0000000000000
  50
 270.00000000000
   0
MTEXT
   5
155
 100
AcDbEntity
   8
LEVEL001
  62
3
 100
AcDbMText
  10
 301.38328423008
  20
 121.74449012854
  30
0.0
  40
 4.0000000000000
  41
0.0
  71
8
  72
1
   1
\A1;8
   7
GMM002
  11
0.0
  21
 1.0000000000000
  31
0.0
   0
ENDBLK
   5
156
 100
AcDbEntity
   8
0
 100
AcDbBlockEnd
   0
BLOCK
   5
157
 100
AcDbEntity
   8
0
 100
AcDbBlockBegin
   2
*D10
  70
65
  10
0.0
  20
0.0
  30
0.0
   3
*D10
   0
LINE
   5
158
 100
AcDbEntity
   8
LEVEL001
 100
AcDbLine
   6
CONTINUOUS
  62
3
  10
 274.39880258770
  20
 125.74449012854
  30
0.0
  11
 272.47198164993
  21
 122.23915689563
  31
0.0
   0
LINE
   5
159
 100
AcDbEntity
   8
LEVEL001
 100
AcDbLine
   6
CONTINUOUS
  62
3
  10
 272.47198164993
  20
 122.23915689563
  30
0.0
  11
 264.92883702288
  21
 108.51643101921
  31
0.0
   0
INSERT
   5
15A
 100
AcDbEntity
   8
LEVEL001
   6
CONTINUOUS
  62
3
 100
AcDbBlockReference
   2
_OPEN30
  10
 270.54516071217
  20
 118.73382366271
  30
0.0
  41
 3.0000000000000
  42
 3.0000000000000
  43
 3.0000000000000
  50
 61.203167094337
   0
MTEXT
   5
15B
 100
AcDbEntity
   8
LEVEL001
  62
3
 100
AcDbMText
  10
 267.28019322716
  20
 116.35287788694
  30
0.0
  40
 4.0000000000000
  41
0.0
  71
9
  72
1
   1
\A1;R8
   7
GMM002
  11
 0.48170523444150
  21
 0.87633330822904
  31
0.0
   0
ENDBLK
   5
15C
 100
AcDbEntity
   8
0
 100
AcDbBlockEnd
   0
BLOCK
   5
15D
 100
AcDbEntity
   8
0
 100
AcDbBlockBegin
   2
*D11
  70
65
  10
0.0
  20
0.0
  30
0.0
   3
*D11
   0
LINE
   5
15E
 100
AcDbEntity
   8
LEVEL001
 100
AcDbLine
   6
CONTINUOUS
  62
3
  10
 266.39880258770
  20
 157.24449012854
  30
0.0
  11
 266.39880258770
  21
 169.86046366856
  31
0.0
   0
LINE
   5
15F
 100
AcDbEntity
   8
LEVEL001
 100
AcDbLine
   6
CONTINUOUS
  62
3
  10
 282.39880258770
  20
 157.24449012854
  30
0.0
  11
 282.39880258770
  21
 169.86046366856
  31
0.0
   0
LINE
   5
160
 100
AcDbEntity
   8
LEVEL001
 100
AcDbLine
   6
CONTINUOUS
  62
3
  10
 266.39880258770
  20
 168.86046366856
  30
0.0
  11
 274.39880258770
  21
 168.86046366856
  31
0.0
   0
LINE
   5
161
 100
AcDbEntity
   8
LEVEL001
 100
AcDbLine
   6
CONTINUOUS
  62
3
  10
 282.39880258770
  20
 168.86046366856
  30
0.0
  11
 274.39880258770
  21
 168.86046366856
  31
0.0
   0
INSERT
   5
162
 100
AcDbEntity
   8
LEVEL001
   6
CONTINUOUS
  62
3
 100
AcDbBlockReference
   2
_OPEN30
  10
 266.39880258770
  20
 168.86046366856
  30
0.0
  41
 3.0000000000000
  42
 3.0000000000000
  43
 3.0000000000000
  50
 180.00000000000
   0
INSERT
   5
163
 100
AcDbEntity
   8
LEVEL001
   6
CONTINUOUS
  62
3
 100
AcDbBlockReference
   2
_OPEN30
  10
 282.39880258770
  20
 168.86046366856
  30
0.0
  41
 3.0000000000000
  42
 3.0000000000000
  43
 3.0000000000000
  50
0.0
   0
MTEXT
   5
164
 100
AcDbEntity
   8
LEVEL001
  62
3
 100
AcDbMText
  10
 274.39880258770
  20
 170.57474938284
  30
0.0
  40
 4.0000000000000
  41
0.0
  71
8
  72
1
   1
\A1;16{\H0.625x;\S+0.3^ -0;}
   7
GMM002
   0
ENDBLK
   5
165
 100
AcDbEntity
   8
0
 100
AcDbBlockEnd
   0
BLOCK
   5
166
 100
AcDbEntity
   8
0
 100
AcDbBlockBegin
   2
*D12
  70
65
  10
0.0
  20
0.0
  30
0.0
   3
*D12
   0
LINE
   5
167
 100
AcDbEntity
   8
LEVEL001
 100
AcDbLine
   6
CONTINUOUS
  62
3
  10
 258.89880258770
  20
 156.74449012854
  30
0.0
  11
 248.51708571316
  21
 156.74449012854
  31
0.0
   0
LINE
   5
168
 100
AcDbEntity
   8
LEVEL001
 100
AcDbLine
   6
CONTINUOUS
  62
3
  10
 268.23098091659
  20
 130.74449012854
  30
0.0
  11
 248.51708571316
  21
 130.74449012854
  31
0.0
   0
LINE
   5
169
 100
AcDbEntity
   8
LEVEL001
 100
AcDbLine
   6
CONTINUOUS
  62
3
  10
 249.51708571316
  20
 156.74449012854
  30
0.0
  11
 249.51708571316
  21
 143.74449012854
  31
0.0
   0
LINE
   5
16A
 100
AcDbEntity
   8
LEVEL001
 100
AcDbLine
   6
CONTINUOUS
  62
3
  10
 249.51708571316
  20
 130.74449012854
  30
0.0
  11
 249.51708571316
  21
 143.74449012854
  31
0.0
   0
INSERT
   5
16B
 100
AcDbEntity
   8
LEVEL001
   6
CONTINUOUS
  62
3
 100
AcDbBlockReference
   2
_OPEN30
  10
 249.51708571316
  20
 156.74449012854
  30
0.0
  41
 3.0000000000000
  42
 3.0000000000000
  43
 3.0000000000000
  50
 90.000000000000
   0
INSERT
   5
16C
 100
AcDbEntity
   8
LEVEL001
   6
CONTINUOUS
  62
3
 100
AcDbBlockReference
   2
_OPEN30
  10
 249.51708571316
  20
 130.74449012854
  30
0.0
  41
 3.0000000000000
  42
 3.0000000000000
  43
 3.0000000000000
  50
 270.00000000000
   0
MTEXT
   5
16D
 100
AcDbEntity
   8
LEVEL001
  62
3
 100
AcDbMText
  10
 247.80279999888
  20
 143.74449012854
  30
0.0
  40
 4.0000000000000
  41
0.0
  71
8
  72
1
   1
\A1;26
   7
GMM001
  11
0.0
  21
 1.0000000000000
  31
0.0
   0
ENDBLK
   5
16E
 100
AcDbEntity
   8
0
 100
AcDbBlockEnd
   0
BLOCK
   5
16F
 100
AcDbEntity
   8
0
 100
AcDbBlockBegin
   2
*D13
  70
65
  10
0.0
  20
0.0
  30
0.0
   3
*D13
   0
POLYLINE
   5
170
 100
AcDbEntity
   8
LEVEL001
   6
CONTINUOUS
  62
3
 100
AcDb2dPolyline
  66
1
  10
0.0
  20
0.0
  30
0.0
  70
0
   0
VERTEX
   5
171
 100
AcDbEntity
   8
LEVEL001
   6
CONTINUOUS
  62
3
 100
AcDbVertex
 100
AcDb2dVertex
  10
 274.39880258770
  20
 130.74449012854
  30
0.0
   0
VERTEX
   5
172
 100
AcDbEntity
   8
LEVEL001
   6
CONTINUOUS
  62
3
 100
AcDbVertex
 100
AcDb2dVertex
  10
 256.56837229386
  20
 111.58790608791
  30
0.0
   0
VERTEX
   5
173
 100
AcDbEntity
   8
LEVEL001
   6
CONTINUOUS
  62
3
 100
AcDbVertex
 100
AcDb2dVertex
  10
 231.06837229386
  20
 111.58790608791
  30
0.0
   0
SEQEND
   5
174
 100
AcDbEntity
   8
LEVEL001
   6
CONTINUOUS
  62
3
   0
INSERT
   5
175
 100
AcDbEntity
   8
LEVEL001
   6
CONTINUOUS
  62
3
 100
AcDbBlockReference
   2
_OPEN30
  10
 274.39880258770
  20
 130.74449012854
  30
0.0
  41
 3.0000000000000
  42
 3.0000000000000
  43
 3.0000000000000
  50
 47.053436297324
   0
MTEXT
   5
176
 100
AcDbEntity
   8
LEVEL001
  62
3
 100
AcDbMText
  10
 231.06837229386
  20
 113.30219180219
  30
0.0
  40
 4.0000000000000
  41
0.0
  71
7
  72
1
   1
\A1;ＴＡ%%c３.５用下穴
   7
GMM001
   0
ENDBLK
   5
177
 100
AcDbEntity
   8
0
 100
AcDbBlockEnd
   0
BLOCK
   5
178
 100
AcDbEntity
   8
0
 100
AcDbBlockBegin
   2
*D14
  70
65
  10
0.0
  20
0.0
  30
0.0
   3
*D14
   0
LINE
   5
179
 100
AcDbEntity
   8
LEVEL001
 100
AcDbLine
   6
CONTINUOUS
  62
3
  10
 217.48442521301
  20
 179.49943640797
  30
0.0
  11
 217.48442521301
  21
 201.06364369950
  31
0.0
   0
LINE
   5
17A
 100
AcDbEntity
   8
LEVEL001
 100
AcDbLine
   6
CONTINUOUS
  62
3
  10
 194.48442521301
  20
 179.49943640797
  30
0.0
  11
 194.48442521301
  21
 201.06364369950
  31
0.0
   0
LINE
   5
17B
 100
AcDbEntity
   8
LEVEL001
 100
AcDbLine
   6
CONTINUOUS
  62
3
  10
 217.48442521301
  20
 200.06364369950
  30
0.0
  11
 205.98442521301
  21
 200.06364369950
  31
0.0
   0
LINE
   5
17C
 100
AcDbEntity
   8
LEVEL001
 100
AcDbLine
   6
CONTINUOUS
  62
3
  10
 194.48442521301
  20
 200.06364369950
  30
0.0
  11
 205.98442521301
  21
 200.06364369950
  31
0.0
   0
INSERT
   5
17D
 100
AcDbEntity
   8
LEVEL001
   6
CONTINUOUS
  62
3
 100
AcDbBlockReference
   2
_OPEN30
  10
 217.48442521301
  20
 200.06364369950
  30
0.0
  41
 3.0000000000000
  42
 3.0000000000000
  43
 3.0000000000000
  50
0.0
   0
INSERT
   5
17E
 100
AcDbEntity
   8
LEVEL001
   6
CONTINUOUS
  62
3
 100
AcDbBlockReference
   2
_OPEN30
  10
 194.48442521301
  20
 200.06364369950
  30
0.0
  41
 3.0000000000000
  42
 3.0000000000000
  43
 3.0000000000000
  50
 180.00000000000
   0
MTEXT
   5
17F
 100
AcDbEntity
   8
LEVEL001
  62
3
 100
AcDbMText
  10
 205.98442521301
  20
 201.77792941378
  30
0.0
  40
 4.0000000000000
  41
0.0
  71
8
  72
1
   1
\A1;23
   7
GMM001
   0
ENDBLK
   5
180
 100
AcDbEntity
   8
0
 100
AcDbBlockEnd
   0
BLOCK
   5
181
 100
AcDbEntity
   8
0
 100
AcDbBlockBegin
   2
*D15
  70
65
  10
0.0
  20
0.0
  30
0.0
   3
*D15
   0
LINE
   5
182
 100
AcDbEntity
   8
LEVEL001
 100
AcDbLine
   6
CONTINUOUS
  62
3
  10
 151.36635449362
  20
 117.24449012854
  30
0.0
  11
 151.36635449362
  21
 91.900674328254
  31
0.0
   0
LINE
   5
183
 100
AcDbEntity
   8
LEVEL001
 100
AcDbLine
   6
CONTINUOUS
  62
3
  10
 143.36635449362
  20
 92.900674328254
  30
0.0
  11
 147.36635449362
  21
 92.900674328254
  31
0.0
   0
LINE
   5
184
 100
AcDbEntity
   8
LEVEL001
 100
AcDbLine
   6
CONTINUOUS
  62
3
  10
 151.36635449362
  20
 92.900674328254
  30
0.0
  11
 147.36635449362
  21
 92.900674328254
  31
0.0
   0
INSERT
   5
185
 100
AcDbEntity
   8
LEVEL001
   6
CONTINUOUS
  62
3
 100
AcDbBlockReference
   2
_OPEN30
  10
 143.36635449362
  20
 92.900674328254
  30
0.0
  41
 3.0000000000000
  42
 3.0000000000000
  43
 3.0000000000000
  50
 180.00000000000
   0
INSERT
   5
186
 100
AcDbEntity
   8
LEVEL001
   6
CONTINUOUS
  62
3
 100
AcDbBlockReference
   2
_OPEN30
  10
 151.36635449362
  20
 92.900674328254
  30
0.0
  41
 3.0000000000000
  42
 3.0000000000000
  43
 3.0000000000000
  50
0.0
   0
MTEXT
   5
187
 100
AcDbEntity
   8
LEVEL001
  62
3
 100
AcDbMText
  10
 147.36635449362
  20
 94.614960042540
  30
0.0
  40
 4.0000000000000
  41
0.0
  71
8
  72
1
   1
\A1;8
   7
GMM001
   0
ENDBLK
   5
188
 100
AcDbEntity
   8
0
 100
AcDbBlockEnd
   0
BLOCK
   5
189
 100
AcDbEntity
   8
0
 100
AcDbBlockBegin
   2
*D16
  70
65
  10
0.0
  20
0.0
  30
0.0
   3
*D16
   0
LINE
   5
18A
 100
AcDbEntity
   8
LEVEL001
 100
AcDbLine
   6
CONTINUOUS
  62
3
  10
 112.36635449362
  20
 117.24449012854
  30
0.0
  11
 112.36635449362
  21
 91.900674328254
  31
0.0
   0
LINE
   5
18B
 100
AcDbEntity
   8
LEVEL001
 100
AcDbLine
   6
CONTINUOUS
  62
3
  10
 128.36635449362
  20
 97.682388554177
  30
0.0
  11
 128.36635449362
  21
 91.900674328254
  31
0.0
   0
LINE
   5
18C
 100
AcDbEntity
   8
LEVEL001
 100
AcDbLine
   6
CONTINUOUS
  62
3
  10
 112.36635449362
  20
 92.900674328254
  30
0.0
  11
 120.36635449362
  21
 92.900674328254
  31
0.0
   0
LINE
   5
18D
 100
AcDbEntity
   8
LEVEL001
 100
AcDbLine
   6
CONTINUOUS
  62
3
  10
 128.36635449362
  20
 92.900674328254
  30
0.0
  11
 120.36635449362
  21
 92.900674328254
  31
0.0
   0
INSERT
   5
18E
 100
AcDbEntity
   8
LEVEL001
   6
CONTINUOUS
  62
3
 100
AcDbBlockReference
   2
_OPEN30
  10
 112.36635449362
  20
 92.900674328254
  30
0.0
  41
 3.0000000000000
  42
 3.0000000000000
  43
 3.0000000000000
  50
 180.00000000000
   0
INSERT
   5
18F
 100
AcDbEntity
   8
LEVEL001
   6
CONTINUOUS
  62
3
 100
AcDbBlockReference
   2
_OPEN30
  10
 128.36635449362
  20
 92.900674328254
  30
0.0
  41
 3.0000000000000
  42
 3.0000000000000
  43
 3.0000000000000
  50
0.0
   0
MTEXT
   5
190
 100
AcDbEntity
   8
LEVEL001
  62
3
 100
AcDbMText
  10
 120.36635449362
  20
 94.614960042540
  30
0.0
  40
 4.0000000000000
  41
0.0
  71
8
  72
1
   1
\A1;16
   7
GMM001
   0
ENDBLK
   5
191
 100
AcDbEntity
   8
0
 100
AcDbBlockEnd
   0
BLOCK
   5
192
 100
AcDbEntity
   8
0
 100
AcDbBlockBegin
   2
*D17
  70
65
  10
0.0
  20
0.0
  30
0.0
   3
*D17
   0
LINE
   5
193
 100
AcDbEntity
   8
LEVEL001
 100
AcDbLine
   6
CONTINUOUS
  62
3
  10
 143.36635449362
  20
 97.682388554177
  30
0.0
  11
 143.36635449362
  21
 91.900674328254
  31
0.0
   0
LINE
   5
194
 100
AcDbEntity
   8
LEVEL001
 100
AcDbLine
   6
CONTINUOUS
  62
3
  10
 128.36635449362
  20
 92.900674328254
  30
0.0
  11
 135.86635449362
  21
 92.900674328254
  31
0.0
   0
LINE
   5
195
 100
AcDbEntity
   8
LEVEL001
 100
AcDbLine
   6
CONTINUOUS
  62
3
  10
 143.36635449362
  20
 92.900674328254
  30
0.0
  11
 135.86635449362
  21
 92.900674328254
  31
0.0
   0
INSERT
   5
196
 100
AcDbEntity
   8
LEVEL001
   6
CONTINUOUS
  62
3
 100
AcDbBlockReference
   2
_OPEN30
  10
 128.36635449362
  20
 92.900674328254
  30
0.0
  41
 3.0000000000000
  42
 3.0000000000000
  43
 3.0000000000000
  50
 180.00000000000
   0
INSERT
   5
197
 100
AcDbEntity
   8
LEVEL001
   6
CONTINUOUS
  62
3
 100
AcDbBlockReference
   2
_OPEN30
  10
 143.36635449362
  20
 92.900674328254
  30
0.0
  41
 3.0000000000000
  42
 3.0000000000000
  43
 3.0000000000000
  50
0.0
   0
MTEXT
   5
198
 100
AcDbEntity
   8
LEVEL001
  62
3
 100
AcDbMText
  10
 135.86635449362
  20
 94.614960042540
  30
0.0
  40
 4.0000000000000
  41
0.0
  71
8
  72
1
   1
\A1;15
   7
GMM001
   0
ENDBLK
   5
199
 100
AcDbEntity
   8
0
 100
AcDbBlockEnd
   0
BLOCK
   5
19A
 100
AcDbEntity
   8
0
 100
AcDbBlockBegin
   2
*D18
  70
65
  10
0.0
  20
0.0
  30
0.0
   3
*D18
   0
LINE
   5
19B
 100
AcDbEntity
   8
LEVEL001
 100
AcDbLine
   6
CONTINUOUS
  62
3
  10
 112.36635449362
  20
 91.400674328254
  30
0.0
  11
 112.36635449362
  21
 82.835583819449
  31
0.0
   0
LINE
   5
19C
 100
AcDbEntity
   8
LEVEL001
 100
AcDbLine
   6
CONTINUOUS
  62
3
  10
 151.36635449362
  20
 91.400674328254
  30
0.0
  11
 151.36635449362
  21
 82.835583819449
  31
0.0
   0
LINE
   5
19D
 100
AcDbEntity
   8
LEVEL001
 100
AcDbLine
   6
CONTINUOUS
  62
3
  10
 112.36635449362
  20
 83.835583819449
  30
0.0
  11
 131.86635449362
  21
 83.835583819449
  31
0.0
   0
LINE
   5
19E
 100
AcDbEntity
   8
LEVEL001
 100
AcDbLine
   6
CONTINUOUS
  62
3
  10
 151.36635449362
  20
 83.835583819449
  30
0.0
  11
 131.86635449362
  21
 83.835583819449
  31
0.0
   0
INSERT
   5
19F
 100
AcDbEntity
   8
LEVEL001
   6
CONTINUOUS
  62
3
 100
AcDbBlockReference
   2
_OPEN30
  10
 112.36635449362
  20
 83.835583819449
  30
0.0
  41
 3.0000000000000
  42
 3.0000000000000
  43
 3.0000000000000
  50
 180.00000000000
   0
INSERT
   5
1A0
 100
AcDbEntity
   8
LEVEL001
   6
CONTINUOUS
  62
3
 100
AcDbBlockReference
   2
_OPEN30
  10
 151.36635449362
  20
 83.835583819449
  30
0.0
  41
 3.0000000000000
  42
 3.0000000000000
  43
 3.0000000000000
  50
0.0
   0
MTEXT
   5
1A1
 100
AcDbEntity
   8
LEVEL001
  62
3
 100
AcDbMText
  10
 131.86635449362
  20
 85.549869533734
  30
0.0
  40
 4.0000000000000
  41
0.0
  71
8
  72
1
   1
\A1;39
   7
GMM001
   0
ENDBLK
   5
1A2
 100
AcDbEntity
   8
0
 100
AcDbBlockEnd
   0
BLOCK
   5
1A3
 100
AcDbEntity
   8
0
 100
AcDbBlockBegin
   2
*D19
  70
65
  10
0.0
  20
0.0
  30
0.0
   3
*D19
   0
LINE
   5
1A4
 100
AcDbEntity
   8
LEVEL001
 100
AcDbLine
   6
CONTINUOUS
  62
3
  10
 124.25087585307
  20
 195.39399072313
  30
0.0
  11
 124.25087585307
  21
 201.06364369950
  31
0.0
   0
LINE
   5
1A5
 100
AcDbEntity
   8
LEVEL001
 100
AcDbLine
   6
CONTINUOUS
  62
3
  10
 112.36635449362
  20
 157.24449012854
  30
0.0
  11
 112.36635449362
  21
 201.06364369950
  31
0.0
   0
LINE
   5
1A6
 100
AcDbEntity
   8
LEVEL001
 100
AcDbLine
   6
CONTINUOUS
  62
3
  10
 124.25087585307
  20
 200.06364369950
  30
0.0
  11
 118.30861517334
  21
 200.06364369950
  31
0.0
   0
LINE
   5
1A7
 100
AcDbEntity
   8
LEVEL001
 100
AcDbLine
   6
CONTINUOUS
  62
3
  10
 112.36635449362
  20
 200.06364369950
  30
0.0
  11
 118.30861517334
  21
 200.06364369950
  31
0.0
   0
INSERT
   5
1A8
 100
AcDbEntity
   8
LEVEL001
   6
CONTINUOUS
  62
3
 100
AcDbBlockReference
   2
_OPEN30
  10
 124.25087585307
  20
 200.06364369950
  30
0.0
  41
 3.0000000000000
  42
 3.0000000000000
  43
 3.0000000000000
  50
0.0
   0
INSERT
   5
1A9
 100
AcDbEntity
   8
LEVEL001
   6
CONTINUOUS
  62
3
 100
AcDbBlockReference
   2
_OPEN30
  10
 112.36635449362
  20
 200.06364369950
  30
0.0
  41
 3.0000000000000
  42
 3.0000000000000
  43
 3.0000000000000
  50
 180.00000000000
   0
MTEXT
   5
1AA
 100
AcDbEntity
   8
LEVEL001
  62
3
 100
AcDbMText
  10
 118.30861517334
  20
 201.77792941378
  30
0.0
  40
 4.0000000000000
  41
0.0
  71
8
  72
1
   1
\A1;(11.9)
   7
GMM001
   0
ENDBLK
   5
1AB
 100
AcDbEntity
   8
0
 100
AcDbBlockEnd
   0
BLOCK
   5
1AC
 100
AcDbEntity
   8
0
 100
AcDbBlockBegin
   2
*D20
  70
65
  10
0.0
  20
0.0
  30
0.0
   3
*D20
   0
LINE
   5
1AD
 100
AcDbEntity
   8
LEVEL001
 100
AcDbLine
   6
CONTINUOUS
  62
3
  10
 171.75087585307
  20
 178.84449012854
  30
0.0
  11
 171.75087585307
  21
 192.85704398644
  31
0.0
   0
LINE
   5
1AE
 100
AcDbEntity
   8
LEVEL001
 100
AcDbLine
   6
CONTINUOUS
  62
3
  10
 153.25087585307
  20
 191.85704398644
  30
0.0
  11
 162.50087585307
  21
 191.85704398644
  31
0.0
   0
LINE
   5
1AF
 100
AcDbEntity
   8
LEVEL001
 100
AcDbLine
   6
CONTINUOUS
  62
3
  10
 171.75087585307
  20
 191.85704398644
  30
0.0
  11
 162.50087585307
  21
 191.85704398644
  31
0.0
   0
INSERT
   5
1B0
 100
AcDbEntity
   8
LEVEL001
   6
CONTINUOUS
  62
3
 100
AcDbBlockReference
   2
_OPEN30
  10
 153.25087585307
  20
 191.85704398644
  30
0.0
  41
 3.0000000000000
  42
 3.0000000000000
  43
 3.0000000000000
  50
 180.00000000000
   0
INSERT
   5
1B1
 100
AcDbEntity
   8
LEVEL001
   6
CONTINUOUS
  62
3
 100
AcDbBlockReference
   2
_OPEN30
  10
 171.75087585307
  20
 191.85704398644
  30
0.0
  41
 3.0000000000000
  42
 3.0000000000000
  43
 3.0000000000000
  50
0.0
   0
MTEXT
   5
1B2
 100
AcDbEntity
   8
LEVEL001
  62
3
 100
AcDbMText
  10
 162.50087585307
  20
 193.57132970073
  30
0.0
  40
 4.0000000000000
  41
0.0
  71
8
  72
1
   1
\A1;18.5
   7
GMM001
   0
ENDBLK
   5
1B3
 100
AcDbEntity
   8
0
 100
AcDbBlockEnd
   0
BLOCK
   5
1B4
 100
AcDbEntity
   8
0
 100
AcDbBlockBegin
   2
*D21
  70
65
  10
0.0
  20
0.0
  30
0.0
   3
*D21
   0
LINE
   5
1B5
 100
AcDbEntity
   8
LEVEL001
 100
AcDbLine
   6
CONTINUOUS
  62
3
  10
 171.75087585307
  20
 193.35704398644
  30
0.0
  11
 171.75087585307
  21
 201.06364369950
  31
0.0
   0
LINE
   5
1B6
 100
AcDbEntity
   8
LEVEL001
 100
AcDbLine
   6
CONTINUOUS
  62
3
  10
 124.25087585307
  20
 193.35704398644
  30
0.0
  11
 124.25087585307
  21
 201.06364369950
  31
0.0
   0
LINE
   5
1B7
 100
AcDbEntity
   8
LEVEL001
 100
AcDbLine
   6
CONTINUOUS
  62
3
  10
 171.75087585307
  20
 200.06364369950
  30
0.0
  11
 148.00087585307
  21
 200.06364369950
  31
0.0
   0
LINE
   5
1B8
 100
AcDbEntity
   8
LEVEL001
 100
AcDbLine
   6
CONTINUOUS
  62
3
  10
 124.25087585307
  20
 200.06364369950
  30
0.0
  11
 148.00087585307
  21
 200.06364369950
  31
0.0
   0
INSERT
   5
1B9
 100
AcDbEntity
   8
LEVEL001
   6
CONTINUOUS
  62
3
 100
AcDbBlockReference
   2
_OPEN30
  10
 171.75087585307
  20
 200.06364369950
  30
0.0
  41
 3.0000000000000
  42
 3.0000000000000
  43
 3.0000000000000
  50
0.0
   0
INSERT
   5
1BA
 100
AcDbEntity
   8
LEVEL001
   6
CONTINUOUS
  62
3
 100
AcDbBlockReference
   2
_OPEN30
  10
 124.25087585307
  20
 200.06364369950
  30
0.0
  41
 3.0000000000000
  42
 3.0000000000000
  43
 3.0000000000000
  50
 180.00000000000
   0
MTEXT
   5
1BB
 100
AcDbEntity
   8
LEVEL001
  62
3
 100
AcDbMText
  10
 148.00087585307
  20
 201.77792941378
  30
0.0
  40
 4.0000000000000
  41
0.0
  71
8
  72
1
   1
\A1;47.5
   7
GMM001
   0
ENDBLK
   5
1BC
 100
AcDbEntity
   8
0
 100
AcDbBlockEnd
   0
BLOCK
   5
1BD
 100
AcDbEntity
   8
0
 100
AcDbBlockBegin
   2
*D22
  70
65
  10
0.0
  20
0.0
  30
0.0
   3
*D22
   0
LINE
   5
1BE
 100
AcDbEntity
   8
LEVEL001
 100
AcDbLine
   6
CONTINUOUS
  62
3
  10
 153.25087585307
  20
 180.68574279895
  30
0.0
  11
 153.25087585307
  21
 192.85704398644
  31
0.0
   0
LINE
   5
1BF
 100
AcDbEntity
   8
LEVEL001
 100
AcDbLine
   6
CONTINUOUS
  62
3
  10
 133.25087585307
  20
 191.85704398644
  30
0.0
  11
 143.25087585307
  21
 191.85704398644
  31
0.0
   0
LINE
   5
1C0
 100
AcDbEntity
   8
LEVEL001
 100
AcDbLine
   6
CONTINUOUS
  62
3
  10
 153.25087585307
  20
 191.85704398644
  30
0.0
  11
 143.25087585307
  21
 191.85704398644
  31
0.0
   0
INSERT
   5
1C1
 100
AcDbEntity
   8
LEVEL001
   6
CONTINUOUS
  62
3
 100
AcDbBlockReference
   2
_OPEN30
  10
 133.25087585307
  20
 191.85704398644
  30
0.0
  41
 3.0000000000000
  42
 3.0000000000000
  43
 3.0000000000000
  50
 180.00000000000
   0
INSERT
   5
1C2
 100
AcDbEntity
   8
LEVEL001
   6
CONTINUOUS
  62
3
 100
AcDbBlockReference
   2
_OPEN30
  10
 153.25087585307
  20
 191.85704398644
  30
0.0
  41
 3.0000000000000
  42
 3.0000000000000
  43
 3.0000000000000
  50
0.0
   0
MTEXT
   5
1C3
 100
AcDbEntity
   8
LEVEL001
  62
3
 100
AcDbMText
  10
 143.25087585307
  20
 193.57132970073
  30
0.0
  40
 4.0000000000000
  41
0.0
  71
8
  72
1
   1
\A1;20
   7
GMM001
   0
ENDBLK
   5
1C4
 100
AcDbEntity
   8
0
 100
AcDbBlockEnd
   0
BLOCK
   5
1C5
 100
AcDbEntity
   8
0
 100
AcDbBlockBegin
   2
*D23
  70
65
  10
0.0
  20
0.0
  30
0.0
   3
*D23
   0
LINE
   5
1C6
 100
AcDbEntity
   8
LEVEL001
 100
AcDbLine
   6
CONTINUOUS
  62
3
  10
 124.25087585307
  20
 176.84449012854
  30
0.0
  11
 124.25087585307
  21
 192.85704398644
  31
0.0
   0
LINE
   5
1C7
 100
AcDbEntity
   8
LEVEL001
 100
AcDbLine
   6
CONTINUOUS
  62
3
  10
 133.25087585307
  20
 180.88937892115
  30
0.0
  11
 133.25087585307
  21
 192.85704398644
  31
0.0
   0
LINE
   5
1C8
 100
AcDbEntity
   8
LEVEL001
 100
AcDbLine
   6
CONTINUOUS
  62
3
  10
 124.25087585307
  20
 191.85704398644
  30
0.0
  11
 128.75087585307
  21
 191.85704398644
  31
0.0
   0
LINE
   5
1C9
 100
AcDbEntity
   8
LEVEL001
 100
AcDbLine
   6
CONTINUOUS
  62
3
  10
 133.25087585307
  20
 191.85704398644
  30
0.0
  11
 128.75087585307
  21
 191.85704398644
  31
0.0
   0
INSERT
   5
1CA
 100
AcDbEntity
   8
LEVEL001
   6
CONTINUOUS
  62
3
 100
AcDbBlockReference
   2
_OPEN30
  10
 124.25087585307
  20
 191.85704398644
  30
0.0
  41
 3.0000000000000
  42
 3.0000000000000
  43
 3.0000000000000
  50
 180.00000000000
   0
INSERT
   5
1CB
 100
AcDbEntity
   8
LEVEL001
   6
CONTINUOUS
  62
3
 100
AcDbBlockReference
   2
_OPEN30
  10
 133.25087585307
  20
 191.85704398644
  30
0.0
  41
 3.0000000000000
  42
 3.0000000000000
  43
 3.0000000000000
  50
0.0
   0
MTEXT
   5
1CC
 100
AcDbEntity
   8
LEVEL001
  62
3
 100
AcDbMText
  10
 128.75087585307
  20
 193.57132970073
  30
0.0
  40
 4.0000000000000
  41
0.0
  71
8
  72
1
   1
\A1;9
   7
GMM001
   0
ENDBLK
   5
1CD
 100
AcDbEntity
   8
0
 100
AcDbBlockEnd
   0
BLOCK
   5
1CE
 100
AcDbEntity
   8
0
 100
AcDbBlockBegin
   2
*D24
  70
65
  10
0.0
  20
0.0
  30
0.0
   3
*D24
   0
LINE
   5
1CF
 100
AcDbEntity
   8
LEVEL001
 100
AcDbLine
   6
CONTINUOUS
  62
3
  10
 151.86635449362
  20
 117.74449012854
  30
0.0
  11
 181.69423123589
  21
 117.74449012854
  31
0.0
   0
LINE
   5
1D0
 100
AcDbEntity
   8
LEVEL001
 100
AcDbLine
   6
CONTINUOUS
  62
3
  10
 173.82055966954
  20
 130.74449012854
  30
0.0
  11
 181.69423123589
  21
 130.74449012854
  31
0.0
   0
LINE
   5
1D1
 100
AcDbEntity
   8
LEVEL001
 100
AcDbLine
   6
CONTINUOUS
  62
3
  10
 180.69423123589
  20
 117.74449012854
  30
0.0
  11
 180.69423123589
  21
 124.24449012854
  31
0.0
   0
LINE
   5
1D2
 100
AcDbEntity
   8
LEVEL001
 100
AcDbLine
   6
CONTINUOUS
  62
3
  10
 180.69423123589
  20
 130.74449012854
  30
0.0
  11
 180.69423123589
  21
 124.24449012854
  31
0.0
   0
INSERT
   5
1D3
 100
AcDbEntity
   8
LEVEL001
   6
CONTINUOUS
  62
3
 100
AcDbBlockReference
   2
_OPEN30
  10
 180.69423123589
  20
 117.74449012854
  30
0.0
  41
 3.0000000000000
  42
 3.0000000000000
  43
 3.0000000000000
  50
 270.00000000000
   0
INSERT
   5
1D4
 100
AcDbEntity
   8
LEVEL001
   6
CONTINUOUS
  62
3
 100
AcDbBlockReference
   2
_OPEN30
  10
 180.69423123589
  20
 130.74449012854
  30
0.0
  41
 3.0000000000000
  42
 3.0000000000000
  43
 3.0000000000000
  50
 90.000000000000
   0
MTEXT
   5
1D5
 100
AcDbEntity
   8
LEVEL001
  62
3
 100
AcDbMText
  10
 178.97994552160
  20
 124.24449012854
  30
0.0
  40
 4.0000000000000
  41
0.0
  71
8
  72
1
   1
\A1;13
   7
GMM001
  11
0.0
  21
 1.0000000000000
  31
0.0
   0
ENDBLK
   5
1D6
 100
AcDbEntity
   8
0
 100
AcDbBlockEnd
   0
BLOCK
   5
1D7
 100
AcDbEntity
   8
0
 100
AcDbBlockBegin
   2
*D25
  70
65
  10
0.0
  20
0.0
  30
0.0
   3
*D25
   0
LINE
   5
1D8
 100
AcDbEntity
   8
LEVEL001
 100
AcDbLine
   6
CONTINUOUS
  62
3
  10
 151.86635449362
  20
 156.74449012854
  30
0.0
  11
 181.69423123589
  21
 156.74449012854
  31
0.0
   0
LINE
   5
1D9
 100
AcDbEntity
   8
LEVEL001
 100
AcDbLine
   6
CONTINUOUS
  62
3
  10
 180.69423123589
  20
 130.74449012854
  30
0.0
  11
 180.69423123589
  21
 143.74449012854
  31
0.0
   0
LINE
   5
1DA
 100
AcDbEntity
   8
LEVEL001
 100
AcDbLine
   6
CONTINUOUS
  62
3
  10
 180.69423123589
  20
 156.74449012854
  30
0.0
  11
 180.69423123589
  21
 143.74449012854
  31
0.0
   0
INSERT
   5
1DB
 100
AcDbEntity
   8
LEVEL001
   6
CONTINUOUS
  62
3
 100
AcDbBlockReference
   2
_OPEN30
  10
 180.69423123589
  20
 130.74449012854
  30
0.0
  41
 3.0000000000000
  42
 3.0000000000000
  43
 3.0000000000000
  50
 270.00000000000
   0
INSERT
   5
1DC
 100
AcDbEntity
   8
LEVEL001
   6
CONTINUOUS
  62
3
 100
AcDbBlockReference
   2
_OPEN30
  10
 180.69423123589
  20
 156.74449012854
  30
0.0
  41
 3.0000000000000
  42
 3.0000000000000
  43
 3.0000000000000
  50
 90.000000000000
   0
MTEXT
   5
1DD
 100
AcDbEntity
   8
LEVEL001
  62
3
 100
AcDbMText
  10
 178.97994552160
  20
 143.74449012854
  30
0.0
  40
 4.0000000000000
  41
0.0
  71
8
  72
1
   1
\A1;26
   7
GMM001
  11
0.0
  21
 1.0000000000000
  31
0.0
   0
ENDBLK
   5
1DE
 100
AcDbEntity
   8
0
 100
AcDbBlockEnd
   0
BLOCK
   5
1DF
 100
AcDbEntity
   8
0
 100
AcDbBlockBegin
   2
*D26
  70
65
  10
0.0
  20
0.0
  30
0.0
   3
*D26
   0
LINE
   5
1E0
 100
AcDbEntity
   8
LEVEL001
 100
AcDbLine
   6
CONTINUOUS
  62
3
  10
 111.86635449362
  20
 156.74449012854
  30
0.0
  11
 98.467739243456
  21
 156.74449012854
  31
0.0
   0
LINE
   5
1E1
 100
AcDbEntity
   8
LEVEL001
 100
AcDbLine
   6
CONTINUOUS
  62
3
  10
 111.86635449362
  20
 117.74449012854
  30
0.0
  11
 98.467739243456
  21
 117.74449012854
  31
0.0
   0
LINE
   5
1E2
 100
AcDbEntity
   8
LEVEL001
 100
AcDbLine
   6
CONTINUOUS
  62
3
  10
 99.467739243456
  20
 156.74449012854
  30
0.0
  11
 99.467739243456
  21
 137.24449012854
  31
0.0
   0
LINE
   5
1E3
 100
AcDbEntity
   8
LEVEL001
 100
AcDbLine
   6
CONTINUOUS
  62
3
  10
 99.467739243456
  20
 117.74449012854
  30
0.0
  11
 99.467739243456
  21
 137.24449012854
  31
0.0
   0
INSERT
   5
1E4
 100
AcDbEntity
   8
LEVEL001
   6
CONTINUOUS
  62
3
 100
AcDbBlockReference
   2
_OPEN30
  10
 99.467739243456
  20
 156.74449012854
  30
0.0
  41
 3.0000000000000
  42
 3.0000000000000
  43
 3.0000000000000
  50
 90.000000000000
   0
INSERT
   5
1E5
 100
AcDbEntity
   8
LEVEL001
   6
CONTINUOUS
  62
3
 100
AcDbBlockReference
   2
_OPEN30
  10
 99.467739243456
  20
 117.74449012854
  30
0.0
  41
 3.0000000000000
  42
 3.0000000000000
  43
 3.0000000000000
  50
 270.00000000000
   0
MTEXT
   5
1E6
 100
AcDbEntity
   8
LEVEL001
  62
3
 100
AcDbMText
  10
 97.753453529170
  20
 137.24449012854
  30
0.0
  40
 4.0000000000000
  41
0.0
  71
8
  72
1
   1
\A1;39
   7
GMM001
  11
0.0
  21
 1.0000000000000
  31
0.0
   0
ENDBLK
   5
1E7
 100
AcDbEntity
   8
0
 100
AcDbBlockEnd
   0
BLOCK
   5
1E8
 100
AcDbEntity
   8
0
 100
AcDbBlockBegin
   2
*D27
  70
65
  10
0.0
  20
0.0
  30
0.0
   3
*D27
   0
LINE
   5
1E9
 100
AcDbEntity
   8
LEVEL001
 100
AcDbLine
   6
CONTINUOUS
  62
3
  10
 367.58202039611
  20
 157.24449012854
  30
0.0
  11
 367.58202039611
  21
 169.86046366856
  31
0.0
   0
LINE
   5
1EA
 100
AcDbEntity
   8
LEVEL001
 100
AcDbLine
   6
CONTINUOUS
  62
3
  10
 328.58202039611
  20
 157.24449012854
  30
0.0
  11
 328.58202039611
  21
 169.86046366856
  31
0.0
   0
LINE
   5
1EB
 100
AcDbEntity
   8
LEVEL001
 100
AcDbLine
   6
CONTINUOUS
  62
3
  10
 367.58202039611
  20
 168.86046366856
  30
0.0
  11
 348.08202039611
  21
 168.86046366856
  31
0.0
   0
LINE
   5
1EC
 100
AcDbEntity
   8
LEVEL001
 100
AcDbLine
   6
CONTINUOUS
  62
3
  10
 328.58202039611
  20
 168.86046366856
  30
0.0
  11
 348.08202039611
  21
 168.86046366856
  31
0.0
   0
INSERT
   5
1ED
 100
AcDbEntity
   8
LEVEL001
   6
CONTINUOUS
  62
3
 100
AcDbBlockReference
   2
_OPEN30
  10
 367.58202039611
  20
 168.86046366856
  30
0.0
  41
 3.0000000000000
  42
 3.0000000000000
  43
 3.0000000000000
  50
0.0
   0
INSERT
   5
1EE
 100
AcDbEntity
   8
LEVEL001
   6
CONTINUOUS
  62
3
 100
AcDbBlockReference
   2
_OPEN30
  10
 328.58202039611
  20
 168.86046366856
  30
0.0
  41
 3.0000000000000
  42
 3.0000000000000
  43
 3.0000000000000
  50
 180.00000000000
   0
MTEXT
   5
1EF
 100
AcDbEntity
   8
LEVEL001
  62
3
 100
AcDbMText
  10
 348.08202039611
  20
 170.57474938284
  30
0.0
  40
 4.0000000000000
  41
0.0
  71
8
  72
1
   1
\A1;39{\H0.625x;\S+0.3^ -0;}
   7
GMM002
   0
ENDBLK
   5
1F0
 100
AcDbEntity
   8
0
 100
AcDbBlockEnd
   0
BLOCK
   5
1F1
 100
AcDbEntity
   8
0
 100
AcDbBlockBegin
   2
*D28
  70
65
  10
0.0
  20
0.0
  30
0.0
   3
*D28
   0
LINE
   5
1F2
 100
AcDbEntity
   8
LEVEL001
 100
AcDbLine
   6
CONTINUOUS
  62
3
  10
 328.58202039611
  20
 194.66585536786
  30
0.0
  11
 328.58202039611
  21
 180.90837106834
  31
0.0
   0
LINE
   5
1F3
 100
AcDbEntity
   8
LEVEL001
 100
AcDbLine
   6
CONTINUOUS
  62
3
  10
 344.58202039611
  20
 206.54202115895
  30
0.0
  11
 344.58202039611
  21
 180.90837106834
  31
0.0
   0
LINE
   5
1F4
 100
AcDbEntity
   8
LEVEL001
 100
AcDbLine
   6
CONTINUOUS
  62
3
  10
 328.58202039611
  20
 181.90837106834
  30
0.0
  11
 336.58202039611
  21
 181.90837106834
  31
0.0
   0
LINE
   5
1F5
 100
AcDbEntity
   8
LEVEL001
 100
AcDbLine
   6
CONTINUOUS
  62
3
  10
 344.58202039611
  20
 181.90837106834
  30
0.0
  11
 336.58202039611
  21
 181.90837106834
  31
0.0
   0
INSERT
   5
1F6
 100
AcDbEntity
   8
LEVEL001
   6
CONTINUOUS
  62
3
 100
AcDbBlockReference
   2
_OPEN30
  10
 328.58202039611
  20
 181.90837106834
  30
0.0
  41
 3.0000000000000
  42
 3.0000000000000
  43
 3.0000000000000
  50
 180.00000000000
   0
INSERT
   5
1F7
 100
AcDbEntity
   8
LEVEL001
   6
CONTINUOUS
  62
3
 100
AcDbBlockReference
   2
_OPEN30
  10
 344.58202039611
  20
 181.90837106834
  30
0.0
  41
 3.0000000000000
  42
 3.0000000000000
  43
 3.0000000000000
  50
0.0
   0
MTEXT
   5
1F8
 100
AcDbEntity
   8
LEVEL001
  62
3
 100
AcDbMText
  10
 336.58202039611
  20
 183.62265678263
  30
0.0
  40
 4.0000000000000
  41
0.0
  71
8
  72
1
   1
\A1;16
   7
GMM001
   0
ENDBLK
   5
1F9
 100
AcDbEntity
   8
0
 100
AcDbBlockEnd
   0
BLOCK
   5
1FA
 100
AcDbEntity
   8
0
 100
AcDbBlockBegin
   2
*D29
  70
65
  10
0.0
  20
0.0
  30
0.0
   3
*D29
   0
LINE
   5
1FB
 100
AcDbEntity
   8
LEVEL001
 100
AcDbLine
   6
CONTINUOUS
  62
3
  10
 359.58202039611
  20
 206.59655846058
  30
0.0
  11
 359.58202039611
  21
 180.90837106834
  31
0.0
   0
LINE
   5
1FC
 100
AcDbEntity
   8
LEVEL001
 100
AcDbLine
   6
CONTINUOUS
  62
3
  10
 344.58202039611
  20
 181.90837106834
  30
0.0
  11
 352.08202039611
  21
 181.90837106834
  31
0.0
   0
LINE
   5
1FD
 100
AcDbEntity
   8
LEVEL001
 100
AcDbLine
   6
CONTINUOUS
  62
3
  10
 359.58202039611
  20
 181.90837106834
  30
0.0
  11
 352.08202039611
  21
 181.90837106834
  31
0.0
   0
INSERT
   5
1FE
 100
AcDbEntity
   8
LEVEL001
   6
CONTINUOUS
  62
3
 100
AcDbBlockReference
   2
_OPEN30
  10
 344.58202039611
  20
 181.90837106834
  30
0.0
  41
 3.0000000000000
  42
 3.0000000000000
  43
 3.0000000000000
  50
 180.00000000000
   0
INSERT
   5
1FF
 100
AcDbEntity
   8
LEVEL001
   6
CONTINUOUS
  62
3
 100
AcDbBlockReference
   2
_OPEN30
  10
 359.58202039611
  20
 181.90837106834
  30
0.0
  41
 3.0000000000000
  42
 3.0000000000000
  43
 3.0000000000000
  50
0.0
   0
MTEXT
   5
200
 100
AcDbEntity
   8
LEVEL001
  62
3
 100
AcDbMText
  10
 352.08202039611
  20
 183.62265678263
  30
0.0
  40
 4.0000000000000
  41
0.0
  71
8
  72
1
   1
\A1;15
   7
GMM001
   0
ENDBLK
   5
201
 100
AcDbEntity
   8
0
 100
AcDbBlockEnd
   0
BLOCK
   5
202
 100
AcDbEntity
   8
0
 100
AcDbBlockBegin
   2
*D30
  70
65
  10
0.0
  20
0.0
  30
0.0
   3
*D30
   0
LINE
   5
203
 100
AcDbEntity
   8
LEVEL001
 100
AcDbLine
   6
CONTINUOUS
  62
3
  10
 367.58202039611
  20
 201.66585536786
  30
0.0
  11
 367.58202039611
  21
 180.90837106834
  31
0.0
   0
LINE
   5
204
 100
AcDbEntity
   8
LEVEL001
 100
AcDbLine
   6
CONTINUOUS
  62
3
  10
 367.58202039611
  20
 181.90837106834
  30
0.0
  11
 363.58202039611
  21
 181.90837106834
  31
0.0
   0
LINE
   5
205
 100
AcDbEntity
   8
LEVEL001
 100
AcDbLine
   6
CONTINUOUS
  62
3
  10
 359.58202039611
  20
 181.90837106834
  30
0.0
  11
 363.58202039611
  21
 181.90837106834
  31
0.0
   0
INSERT
   5
206
 100
AcDbEntity
   8
LEVEL001
   6
CONTINUOUS
  62
3
 100
AcDbBlockReference
   2
_OPEN30
  10
 367.58202039611
  20
 181.90837106834
  30
0.0
  41
 3.0000000000000
  42
 3.0000000000000
  43
 3.0000000000000
  50
0.0
   0
INSERT
   5
207
 100
AcDbEntity
   8
LEVEL001
   6
CONTINUOUS
  62
3
 100
AcDbBlockReference
   2
_OPEN30
  10
 359.58202039611
  20
 181.90837106834
  30
0.0
  41
 3.0000000000000
  42
 3.0000000000000
  43
 3.0000000000000
  50
 180.00000000000
   0
MTEXT
   5
208
 100
AcDbEntity
   8
LEVEL001
  62
3
 100
AcDbMText
  10
 363.58202039611
  20
 183.62265678263
  30
0.0
  40
 4.0000000000000
  41
0.0
  71
8
  72
1
   1
\A1;8
   7
GMM001
   0
ENDBLK
   5
209
 100
AcDbEntity
   8
0
 100
AcDbBlockEnd
   0
BLOCK
   5
20A
 100
AcDbEntity
   8
0
 100
AcDbBlockBegin
   2
*D31
  70
65
  10
0.0
  20
0.0
  30
0.0
   3
*D31
   0
POLYLINE
   5
20B
 100
AcDbEntity
   8
LEVEL001
   6
CONTINUOUS
  62
3
 100
AcDb2dPolyline
  66
1
  10
0.0
  20
0.0
  30
0.0
  70
0
   0
VERTEX
   5
20C
 100
AcDbEntity
   8
LEVEL001
   6
CONTINUOUS
  62
3
 100
AcDbVertex
 100
AcDb2dVertex
  10
 344.58202039611
  20
 210.16585536786
  30
0.0
   0
VERTEX
   5
20D
 100
AcDbEntity
   8
LEVEL001
   6
CONTINUOUS
  62
3
 100
AcDbVertex
 100
AcDb2dVertex
  10
 350.18153787452
  20
 231.29675893000
  30
0.0
   0
VERTEX
   5
20E
 100
AcDbEntity
   8
LEVEL001
   6
CONTINUOUS
  62
3
 100
AcDbVertex
 100
AcDb2dVertex
  10
 381.68153787452
  20
 231.29675893000
  30
0.0
   0
SEQEND
   5
20F
 100
AcDbEntity
   8
LEVEL001
   6
CONTINUOUS
  62
3
   0
INSERT
   5
210
 100
AcDbEntity
   8
LEVEL001
   6
CONTINUOUS
  62
3
 100
AcDbBlockReference
   2
_OPEN30
  10
 344.58202039611
  20
 210.16585536786
  30
0.0
  41
 3.0000000000000
  42
 3.0000000000000
  43
 3.0000000000000
  50
 255.15820862631
   0
MTEXT
   5
211
 100
AcDbEntity
   8
LEVEL001
  62
3
 100
AcDbMText
  10
 350.18153787452
  20
 233.01104464429
  30
0.0
  40
 4.0000000000000
  41
0.0
  71
7
  72
1
   1
\A1;２－ＴＡ%%c３.５用下穴
   7
GMM001
   0
ENDBLK
   5
212
 100
AcDbEntity
   8
0
 100
AcDbBlockEnd
   0
ENDSEC
   0
SECTION
   2
ENTITIES
   0
LINE
   5
213
 100
AcDbEntity
   8
LEVEL001
 100
AcDbLine
   6
CONTINUOUS
  62
7
  10
 197.98442521301
  20
 156.74449012854
  30
0.0
  11
 213.98442521301
  21
 156.74449012854
  31
0.0
   0
ARC
   5
214
 100
AcDbEntity
   8
LEVEL001
   6
CONTINUOUS
  62
7
 100
AcDbCircle
  10
 198.48442521301
  20
 137.24449012854
  30
0.0
  40
 0.50000000000000
 100
AcDbArc
  50
 180.00000000027
  51
 270.00000000000
   0
LINE
   5
215
 100
AcDbEntity
   8
LEVEL001
 100
AcDbLine
   6
CONTINUOUS
  62
7
  10
 198.48442521301
  20
 136.74449012854
  30
0.0
  11
 213.48442521301
  21
 136.74449012854
  31
0.0
   0
ARC
   5
216
 100
AcDbEntity
   8
LEVEL001
   6
CONTINUOUS
  62
7
 100
AcDbCircle
  10
 205.98442521301
  20
 125.74449012854
  30
0.0
  40
 8.0000000000000
 100
AcDbArc
  50
 180.00000000000
  51
0.0
   0
LINE
   5
217
 100
AcDbEntity
   8
LEVEL001
 100
AcDbLine
   6
DASHDOT
  62
3
  10
 211.65224688412
  20
 130.74449012854
  30
0.0
  11
 200.33393916839
  21
 130.74449012854
  31
0.0
   0
LINE
   5
218
 100
AcDbEntity
   8
LEVEL001
 100
AcDbLine
   6
CONTINUOUS
  62
7
  10
 198.98442521301
  20
 136.54449012854
  30
0.0
  11
 212.98442521301
  21
 136.54449012854
  31
0.0
   0
ARC
   5
219
 100
AcDbEntity
   8
LEVEL001
   6
CONTINUOUS
  62
7
 100
AcDbCircle
  10
 198.98442521301
  20
 135.54449012854
  30
0.0
  40
 1.0000000000000
 100
AcDbArc
  50
 90.000000000000
  51
 179.99999999992
   0
CIRCLE
   5
21A
 100
AcDbEntity
   8
LEVEL001
 100
AcDbCircle
   6
CONTINUOUS
  62
7
  10
 205.98442521301
  20
 130.74449012854
  30
0.0
  40
 2.1000000000000
   0
LINE
   5
21B
 100
AcDbEntity
   8
LEVEL001
 100
AcDbLine
   6
DASHDOT
  62
3
  10
 216.73053476874
  20
 125.74449012854
  30
0.0
  11
 195.58712254624
  21
 125.74449012854
  31
0.0
   0
POINT
   5
21C
 100
AcDbEntity
   8
LEVEL001
 100
AcDbPoint
  62
7
  10
 197.98442521301
  20
 136.54449012854
  30
0.0
   0
LINE
   5
21D
 100
AcDbEntity
   8
LEVEL001
 100
AcDbLine
   6
CONTINUOUS
  62
7
  10
 197.98442521301
  20
 156.74449012854
  30
0.0
  11
 197.98442521301
  21
 137.24449012854
  31
0.0
   0
LINE
   5
21E
 100
AcDbEntity
   8
LEVEL001
 100
AcDbLine
   6
CONTINUOUS
  62
15
  10
 197.98442521301
  20
 137.24449012854
  30
0.0
  11
 197.98442521301
  21
 135.54449012854
  31
0.0
   0
LINE
   5
21F
 100
AcDbEntity
   8
LEVEL001
 100
AcDbLine
   6
CONTINUOUS
  62
7
  10
 197.98442521301
  20
 135.54449012854
  30
0.0
  11
 197.98442521301
  21
 125.74449012854
  31
0.0
   0
ARC
   5
220
 100
AcDbEntity
   8
LEVEL001
   6
CONTINUOUS
  62
7
 100
AcDbCircle
  10
 213.48442521301
  20
 137.24449012854
  30
0.0
  40
 0.50000000000000
 100
AcDbArc
  50
 270.00000000000
  51
 0.26706481549313E-9
   0
ARC
   5
221
 100
AcDbEntity
   8
LEVEL001
   6
CONTINUOUS
  62
7
 100
AcDbCircle
  10
 212.98442521301
  20
 135.54449012854
  30
0.0
  40
 1.0000000000000
 100
AcDbArc
  50
 0.26055103950549E-10
  51
 90.000000000000
   0
POINT
   5
222
 100
AcDbEntity
   8
LEVEL001
 100
AcDbPoint
  62
7
  10
 213.98442521301
  20
 136.54449012854
  30
0.0
   0
LINE
   5
223
 100
AcDbEntity
   8
LEVEL001
 100
AcDbLine
   6
CONTINUOUS
  62
7
  10
 213.98442521301
  20
 156.74449012854
  30
0.0
  11
 213.98442521301
  21
 137.24449012854
  31
0.0
   0
LINE
   5
224
 100
AcDbEntity
   8
LEVEL001
 100
AcDbLine
   6
CONTINUOUS
  62
15
  10
 213.98442521301
  20
 137.24449012854
  30
0.0
  11
 213.98442521301
  21
 135.54449012854
  31
0.0
   0
LINE
   5
225
 100
AcDbEntity
   8
LEVEL001
 100
AcDbLine
   6
CONTINUOUS
  62
7
  10
 213.98442521301
  20
 135.54449012854
  30
0.0
  11
 213.98442521301
  21
 125.74449012854
  31
0.0
   0
ARC
   5
226
 100
AcDbEntity
   8
LEVEL001
   6
CONTINUOUS
  62
7
 100
AcDbCircle
  10
 196.58442521301
  20
 177.84449012854
  30
0.0
  40
 0.50000000000000
 100
AcDbArc
  50
 90.000000000000
  51
 179.99999999984
   0
POINT
   5
227
 100
AcDbEntity
   8
LEVEL001
 100
AcDbPoint
  62
7
  10
 196.08442521301
  20
 178.34449012854
  30
0.0
   0
ARC
   5
228
 100
AcDbEntity
   8
LEVEL001
   6
CONTINUOUS
  62
7
 100
AcDbCircle
  10
 215.38442521301
  20
 177.84449012854
  30
0.0
  40
 0.50000000000000
 100
AcDbArc
  50
0.0
  51
 89.999999999622
   0
POINT
   5
229
 100
AcDbEntity
   8
LEVEL001
 100
AcDbPoint
  62
7
  10
 215.88442521301
  20
 178.34449012854
  30
0.0
   0
LINE
   5
22A
 100
AcDbEntity
   8
LEVEL001
 100
AcDbLine
   6
CONTINUOUS
  62
7
  10
 215.88442521301
  20
 177.84449012854
  30
0.0
  11
 215.88442521301
  21
 166.34449012854
  31
0.0
   0
LINE
   5
22B
 100
AcDbEntity
   8
LEVEL001
 100
AcDbLine
   6
CONTINUOUS
  62
7
  10
 196.08442521301
  20
 177.84449012854
  30
0.0
  11
 196.08442521301
  21
 166.34449012854
  31
0.0
   0
ARC
   5
22C
 100
AcDbEntity
   8
LEVEL001
   6
CONTINUOUS
  62
7
 100
AcDbCircle
  10
 215.38442521301
  20
 166.34449012854
  30
0.0
  40
 0.50000000000000
 100
AcDbArc
  50
 270.00000000000
  51
 0.24100971154258E-9
   0
POINT
   5
22D
 100
AcDbEntity
   8
LEVEL001
 100
AcDbPoint
  62
7
  10
 215.88442521301
  20
 165.84449012854
  30
0.0
   0
ARC
   5
22E
 100
AcDbEntity
   8
LEVEL001
   6
CONTINUOUS
  62
7
 100
AcDbCircle
  10
 196.58442521301
  20
 166.34449012854
  30
0.0
  40
 0.50000000000000
 100
AcDbArc
  50
 180.00000000029
  51
 270.00000000000
   0
POINT
   5
22F
 100
AcDbEntity
   8
LEVEL001
 100
AcDbPoint
  62
7
  10
 196.08442521301
  20
 165.84449012854
  30
0.0
   0
ARC
   5
230
 100
AcDbEntity
   8
LEVEL001
   6
CONTINUOUS
  62
15
 100
AcDbCircle
  10
 215.88442521301
  20
 165.84449012854
  30
0.0
  40
 0.50000000000000
 100
AcDbArc
  50
 270.00000000000
  51
0.0
   0
POINT
   5
231
 100
AcDbEntity
   8
LEVEL001
 100
AcDbPoint
  62
15
  10
 216.38442521301
  20
 165.34449012854
  30
0.0
   0
ARC
   5
232
 100
AcDbEntity
   8
LEVEL001
   6
CONTINUOUS
  62
15
 100
AcDbCircle
  10
 196.08442521301
  20
 165.84449012854
  30
0.0
  40
 0.50000000000000
 100
AcDbArc
  50
 179.99999999988
  51
 270.00000000000
   0
POINT
   5
233
 100
AcDbEntity
   8
LEVEL001
 100
AcDbPoint
  62
15
  10
 195.58442521301
  20
 165.34449012854
  30
0.0
   0
LINE
   5
234
 100
AcDbEntity
   8
LEVEL001
 100
AcDbLine
   6
CONTINUOUS
  62
15
  10
 215.88442521301
  20
 165.34449012854
  30
0.0
  11
 207.64894076966
  21
 165.34449012854
  31
0.0
   0
LINE
   5
235
 100
AcDbEntity
   8
LEVEL001
 100
AcDbLine
   6
CONTINUOUS
  62
7
  10
 207.48442521301
  20
 165.34449012854
  30
0.0
  11
 204.48442521301
  21
 165.34449012854
  31
0.0
   0
LINE
   5
236
 100
AcDbEntity
   8
LEVEL001
 100
AcDbLine
   6
CONTINUOUS
  62
7
  10
 207.48442521301
  20
 165.34449012854
  30
0.0
  11
 207.48442521301
  21
 165.84449012854
  31
0.0
   0
LINE
   5
237
 100
AcDbEntity
   8
LEVEL001
 100
AcDbLine
   6
CONTINUOUS
  62
7
  10
 204.48442521301
  20
 165.34449012854
  30
0.0
  11
 204.48442521301
  21
 165.84449012854
  31
0.0
   0
LINE
   5
238
 100
AcDbEntity
   8
LEVEL001
 100
AcDbLine
   6
CONTINUOUS
  62
7
  10
 215.38442521301
  20
 165.84449012854
  30
0.0
  11
 207.48442521301
  21
 165.84449012854
  31
0.0
   0
LINE
   5
239
 100
AcDbEntity
   8
LEVEL001
 100
AcDbLine
   6
CONTINUOUS
  62
7
  10
 204.48442521301
  20
 165.84449012854
  30
0.0
  11
 196.58442521301
  21
 165.84449012854
  31
0.0
   0
LINE
   5
23A
 100
AcDbEntity
   8
LEVEL001
 100
AcDbLine
   6
CONTINUOUS
  62
15
  10
 204.33935828325
  20
 165.34449012854
  30
0.0
  11
 196.08442521301
  21
 165.34449012854
  31
0.0
   0
LINE
   5
23B
 100
AcDbEntity
   8
LEVEL001
 100
AcDbLine
   6
CONTINUOUS
  62
15
  10
 207.48442521301
  20
 165.84449012854
  30
0.0
  11
 204.48442521301
  21
 165.84449012854
  31
0.0
   0
ARC
   5
23C
 100
AcDbEntity
   8
LEVEL001
   6
CONTINUOUS
  62
7
 100
AcDbCircle
  10
 213.48442521301
  20
 177.84449012855
  30
0.0
  40
 0.50000000000000
 100
AcDbArc
  50
 90.000000000000
  51
 180.00000000085
   0
POINT
   5
23D
 100
AcDbEntity
   8
LEVEL001
 100
AcDbPoint
  62
7
  10
 212.98442521301
  20
 178.34449012854
  30
0.0
   0
LINE
   5
23E
 100
AcDbEntity
   8
LEVEL001
 100
AcDbLine
   6
CONTINUOUS
  62
7
  10
 215.38442521301
  20
 178.34449012854
  30
0.0
  11
 213.48442521301
  21
 178.34449012854
  31
0.0
   0
ARC
   5
23F
 100
AcDbEntity
   8
LEVEL001
   6
CONTINUOUS
  62
7
 100
AcDbCircle
  10
 198.48442521300
  20
 177.84449012854
  30
0.0
  40
 0.50000000000000
 100
AcDbArc
  50
0.0
  51
 89.999999999453
   0
POINT
   5
240
 100
AcDbEntity
   8
LEVEL001
 100
AcDbPoint
  62
7
  10
 198.98442521301
  20
 178.34449012854
  30
0.0
   0
LINE
   5
241
 100
AcDbEntity
   8
LEVEL001
 100
AcDbLine
   6
CONTINUOUS
  62
7
  10
 198.48442521301
  20
 178.34449012854
  30
0.0
  11
 196.58442521301
  21
 178.34449012854
  31
0.0
   0
LINE
   5
242
 100
AcDbEntity
   8
LEVEL001
 100
AcDbLine
   6
CONTINUOUS
  62
7
  10
 212.98442521301
  20
 177.84449012854
  30
0.0
  11
 212.98442521301
  21
 172.84449012854
  31
0.0
   0
ARC
   5
243
 100
AcDbEntity
   8
LEVEL001
   6
CONTINUOUS
  62
7
 100
AcDbCircle
  10
 212.48442521301
  20
 172.84449012854
  30
0.0
  40
 0.50000000000000
 100
AcDbArc
  50
 270.00000000000
  51
0.0
   0
POINT
   5
244
 100
AcDbEntity
   8
LEVEL001
 100
AcDbPoint
  62
7
  10
 212.98442521301
  20
 172.34449012854
  30
0.0
   0
ARC
   5
245
 100
AcDbEntity
   8
LEVEL001
   6
CONTINUOUS
  62
7
 100
AcDbCircle
  10
 199.48442521301
  20
 172.84449012854
  30
0.0
  40
 0.50000000000000
 100
AcDbArc
  50
 179.99999999971
  51
 270.00000000000
   0
POINT
   5
246
 100
AcDbEntity
   8
LEVEL001
 100
AcDbPoint
  62
7
  10
 198.98442521301
  20
 172.34449012854
  30
0.0
   0
LINE
   5
247
 100
AcDbEntity
   8
LEVEL001
 100
AcDbLine
   6
CONTINUOUS
  62
7
  10
 198.98442521301
  20
 177.84449012854
  30
0.0
  11
 198.98442521301
  21
 172.84449012854
  31
0.0
   0
LINE
   5
248
 100
AcDbEntity
   8
LEVEL001
 100
AcDbLine
   6
CONTINUOUS
  62
7
  10
 212.48442521301
  20
 172.34449012854
  30
0.0
  11
 199.48442521301
  21
 172.34449012854
  31
0.0
   0
LINE
   5
249
 100
AcDbEntity
   8
LEVEL001
 100
AcDbLine
   6
DOT
  62
1
  10
 210.68442521301
  20
 170.04449012854
  30
0.0
  11
 211.98442521301
  21
 171.34449012854
  31
0.0
   0
LINE
   5
24A
 100
AcDbEntity
   8
LEVEL001
 100
AcDbLine
   6
DOT
  62
1
  10
 213.28442521301
  20
 170.04449012854
  30
0.0
  11
 211.98442521301
  21
 171.34449012854
  31
0.0
   0
LINE
   5
24B
 100
AcDbEntity
   8
LEVEL001
 100
AcDbLine
   6
DOT
  62
1
  10
 201.28442521301
  20
 170.04449012854
  30
0.0
  11
 199.98442521301
  21
 171.34449012854
  31
0.0
   0
LINE
   5
24C
 100
AcDbEntity
   8
LEVEL001
 100
AcDbLine
   6
DOT
  62
1
  10
 198.68442521301
  20
 170.04449012854
  30
0.0
  11
 199.98442521301
  21
 171.34449012854
  31
0.0
   0
ARC
   5
24D
 100
AcDbEntity
   8
LEVEL001
   6
CONTINUOUS
  62
15
 100
AcDbCircle
  10
 208.48442521300
  20
 174.84449012854
  30
0.0
  40
 0.50000000000000
 100
AcDbArc
  50
 270.00000000042
  51
0.0
   0
POINT
   5
24E
 100
AcDbEntity
   8
LEVEL001
 100
AcDbPoint
  62
15
  10
 208.98442521301
  20
 174.34449012854
  30
0.0
   0
ARC
   5
24F
 100
AcDbEntity
   8
LEVEL001
   6
CONTINUOUS
  62
15
 100
AcDbCircle
  10
 209.98442521301
  20
 175.84449012854
  30
0.0
  40
 0.50000000000000
 100
AcDbArc
  50
0.0
  51
 90.000000000710
   0
POINT
   5
250
 100
AcDbEntity
   8
LEVEL001
 100
AcDbPoint
  62
15
  10
 210.48442521301
  20
 176.34449012854
  30
0.0
   0
LINE
   5
251
 100
AcDbEntity
   8
LEVEL001
 100
AcDbLine
   6
CONTINUOUS
  62
15
  10
 209.98442521301
  20
 176.34449012854
  30
0.0
  11
 208.98442521301
  21
 176.34449012854
  31
0.0
   0
LINE
   5
252
 100
AcDbEntity
   8
LEVEL001
 100
AcDbLine
   6
CONTINUOUS
  62
15
  10
 208.98442521301
  20
 176.34449012854
  30
0.0
  11
 208.98442521301
  21
 174.84449012854
  31
0.0
   0
ARC
   5
253
 100
AcDbEntity
   8
LEVEL001
   6
CONTINUOUS
  62
15
 100
AcDbCircle
  10
 203.48442521301
  20
 174.84449012854
  30
0.0
  40
 0.50000000000000
 100
AcDbArc
  50
 180.00000000012
  51
 270.00000000000
   0
POINT
   5
254
 100
AcDbEntity
   8
LEVEL001
 100
AcDbPoint
  62
15
  10
 202.98442521301
  20
 174.34449012854
  30
0.0
   0
LINE
   5
255
 100
AcDbEntity
   8
LEVEL001
 100
AcDbLine
   6
CONTINUOUS
  62
15
  10
 203.48442521301
  20
 174.34449012854
  30
0.0
  11
 208.48442521301
  21
 174.34449012854
  31
0.0
   0
ARC
   5
256
 100
AcDbEntity
   8
LEVEL001
   6
CONTINUOUS
  62
15
 100
AcDbCircle
  10
 201.98442521301
  20
 175.84449012854
  30
0.0
  40
 0.50000000000000
 100
AcDbArc
  50
 90.000000000000
  51
 179.99999999958
   0
POINT
   5
257
 100
AcDbEntity
   8
LEVEL001
 100
AcDbPoint
  62
15
  10
 201.48442521301
  20
 176.34449012854
  30
0.0
   0
LINE
   5
258
 100
AcDbEntity
   8
LEVEL001
 100
AcDbLine
   6
CONTINUOUS
  62
15
  10
 202.98442521301
  20
 176.34449012854
  30
0.0
  11
 201.98442521301
  21
 176.34449012854
  31
0.0
   0
LINE
   5
259
 100
AcDbEntity
   8
LEVEL001
 100
AcDbLine
   6
CONTINUOUS
  62
15
  10
 202.98442521301
  20
 176.34449012854
  30
0.0
  11
 202.98442521301
  21
 174.84449012854
  31
0.0
   0
ARC
   5
25A
 100
AcDbEntity
   8
LEVEL001
   6
CONTINUOUS
  62
15
 100
AcDbCircle
  10
 201.78442521301
  20
 162.84449012854
  30
0.0
  40
 0.30000000000000
 100
AcDbArc
  50
 180.00000000004
  51
 269.99999999999
   0
POINT
   5
25B
 100
AcDbEntity
   8
LEVEL001
 100
AcDbPoint
  62
15
  10
 201.48442521301
  20
 162.54449012854
  30
0.0
   0
ARC
   5
25C
 100
AcDbEntity
   8
LEVEL001
   6
CONTINUOUS
  62
15
 100
AcDbCircle
  10
 210.18442521301
  20
 162.84449012854
  30
0.0
  40
 0.30000000000000
 100
AcDbArc
  50
 270.00000000043
  51
0.0
   0
POINT
   5
25D
 100
AcDbEntity
   8
LEVEL001
 100
AcDbPoint
  62
15
  10
 210.48442521301
  20
 162.54449012854
  30
0.0
   0
LINE
   5
25E
 100
AcDbEntity
   8
LEVEL001
 100
AcDbLine
   6
CONTINUOUS
  62
15
  10
 210.18442521300
  20
 162.54449012854
  30
0.0
  11
 201.78442521301
  21
 162.54449012854
  31
0.0
   0
LINE
   5
25F
 100
AcDbEntity
   8
LEVEL001
 100
AcDbLine
   6
CONTINUOUS
  62
15
  10
 210.48442521301
  20
 173.15716332218
  30
0.0
  11
 210.48442521301
  21
 175.84449012854
  31
0.0
   0
LINE
   5
260
 100
AcDbEntity
   8
LEVEL001
 100
AcDbLine
   6
CONTINUOUS
  62
15
  10
 201.48442521301
  20
 173.15716332218
  30
0.0
  11
 201.48442521301
  21
 175.84449012854
  31
0.0
   0
LINE
   5
261
 100
AcDbEntity
   8
LEVEL001
 100
AcDbLine
   6
DOT
  62
1
  10
 209.18442521301
  20
 165.84449012854
  30
0.0
  11
 209.18442521301
  21
 170.34449012854
  31
0.0
   0
LINE
   5
262
 100
AcDbEntity
   8
LEVEL001
 100
AcDbLine
   6
DOT
  62
1
  10
 202.78442521301
  20
 165.84449012854
  30
0.0
  11
 202.78442521301
  21
 170.34449012854
  31
0.0
   0
LINE
   5
263
 100
AcDbEntity
   8
LEVEL001
 100
AcDbLine
   6
DOT
  62
1
  10
 209.84698373657
  20
 170.34449012854
  30
0.0
  11
 202.04139332983
  21
 170.34449012854
  31
0.0
   0
LINE
   5
264
 100
AcDbEntity
   8
LEVEL001
 100
AcDbLine
   6
DASHDOT
  62
3
  10
 197.48442521301
  20
 183.42456256298
  30
0.0
  11
 197.48442521301
  21
 159.56878526967
  31
0.0
   0
LINE
   5
265
 100
AcDbEntity
   8
LEVEL001
 100
AcDbLine
   6
DASHDOT
  62
3
  10
 214.48442521301
  20
 183.53708981436
  30
0.0
  11
 214.48442521301
  21
 159.62504889536
  31
0.0
   0
LINE
   5
266
 100
AcDbEntity
   8
LEVEL001
 100
AcDbLine
   6
DASHDOT
  62
3
  10
 199.98442521301
  20
 171.93257023672
  30
0.0
  11
 199.98442521301
  21
 164.63219139175
  31
0.0
   0
LINE
   5
267
 100
AcDbEntity
   8
LEVEL001
 100
AcDbLine
   6
DASHDOT
  62
3
  10
 211.98442521301
  20
 171.93257023672
  30
0.0
  11
 211.98442521301
  21
 164.22868113046
  31
0.0
   0
LINE
   5
268
 100
AcDbEntity
   8
LEVEL001
 100
AcDbLine
   6
DASHDOT
  62
3
  10
 192.08867120773
  20
 171.14449012854
  30
0.0
  11
 219.11557208054
  21
 171.14449012854
  31
0.0
   0
ARC
   5
269
 100
AcDbEntity
   8
LEVEL001
   6
CONTINUOUS
  62
15
 100
AcDbCircle
  10
 210.48442521301
  20
 175.84449012854
  30
0.0
  40
 0.50000000000000
 100
AcDbArc
  50
0.0
  51
 89.999999999876
   0
POINT
   5
26A
 100
AcDbEntity
   8
LEVEL001
 100
AcDbPoint
  62
15
  10
 210.98442521301
  20
 176.34449012854
  30
0.0
   0
LINE
   5
26B
 100
AcDbEntity
   8
LEVEL001
 100
AcDbLine
   6
CONTINUOUS
  62
15
  10
 210.26355307463
  20
 176.34449012854
  30
0.0
  11
 210.48442521301
  21
 176.34449012854
  31
0.0
   0
ARC
   5
26C
 100
AcDbEntity
   8
LEVEL001
   6
CONTINUOUS
  62
15
 100
AcDbCircle
  10
 201.48442521300
  20
 175.84449012854
  30
0.0
  40
 0.50000000000000
 100
AcDbArc
  50
 89.999999999583
  51
 180.00000000000
   0
POINT
   5
26D
 100
AcDbEntity
   8
LEVEL001
 100
AcDbPoint
  62
15
  10
 200.98442521301
  20
 176.34449012854
  30
0.0
   0
LINE
   5
26E
 100
AcDbEntity
   8
LEVEL001
 100
AcDbLine
   6
CONTINUOUS
  62
15
  10
 201.70529735139
  20
 176.34449012854
  30
0.0
  11
 201.48442521301
  21
 176.34449012854
  31
0.0
   0
LINE
   5
26F
 100
AcDbEntity
   8
LEVEL001
 100
AcDbLine
   6
CONTINUOUS
  62
15
  10
 195.58442521301
  20
 172.34449012854
  30
0.0
  11
 195.58442521301
  21
 165.84449012854
  31
0.0
   0
LINE
   5
270
 100
AcDbEntity
   8
LEVEL001
 100
AcDbLine
   6
CONTINUOUS
  62
15
  10
 216.38442521301
  20
 172.34449012854
  30
0.0
  11
 216.38442521301
  21
 165.84449012854
  31
0.0
   0
ARC
   5
271
 100
AcDbEntity
   8
LEVEL001
   6
CONTINUOUS
  62
15
 100
AcDbCircle
  10
 195.48442521301
  20
 177.84449012854
  30
0.0
  40
 0.50000000000000
 100
AcDbArc
  50
 90.000000000007
  51
 180.00000000000
   0
POINT
   5
272
 100
AcDbEntity
   8
LEVEL001
 100
AcDbPoint
  62
15
  10
 194.98442521301
  20
 178.34449012854
  30
0.0
   0
LINE
   5
273
 100
AcDbEntity
   8
LEVEL001
 100
AcDbLine
   6
CONTINUOUS
  62
15
  10
 196.08442521301
  20
 178.34449012854
  30
0.0
  11
 195.48442521301
  21
 178.34449012854
  31
0.0
   0
LINE
   5
274
 100
AcDbEntity
   8
LEVEL001
 100
AcDbLine
   6
CONTINUOUS
  62
15
  10
 215.88442521301
  20
 178.34449012854
  30
0.0
  11
 216.48442521301
  21
 178.34449012854
  31
0.0
   0
ARC
   5
275
 100
AcDbEntity
   8
LEVEL001
   6
CONTINUOUS
  62
15
 100
AcDbCircle
  10
 216.48442521301
  20
 177.84449012855
  30
0.0
  40
 0.50000000000000
 100
AcDbArc
  50
0.0
  51
 90.000000000000
   0
POINT
   5
276
 100
AcDbEntity
   8
LEVEL001
 100
AcDbPoint
  62
15
  10
 216.98442521301
  20
 178.34449012854
  30
0.0
   0
LINE
   5
277
 100
AcDbEntity
   8
LEVEL001
 100
AcDbLine
   6
CONTINUOUS
  62
15
  10
 194.98442521301
  20
 172.64449012854
  30
0.0
  11
 194.98442521301
  21
 177.84449012854
  31
0.0
   0
ARC
   5
278
 100
AcDbEntity
   8
LEVEL001
   6
CONTINUOUS
  62
15
 100
AcDbCircle
  10
 195.28442521300
  20
 172.64449012854
  30
0.0
  40
 0.30000000000000
 100
AcDbArc
  50
 180.00000000000
  51
 270.00000000107
   0
POINT
   5
279
 100
AcDbEntity
   8
LEVEL001
 100
AcDbPoint
  62
15
  10
 194.98442521301
  20
 172.34449012854
  30
0.0
   0
LINE
   5
27A
 100
AcDbEntity
   8
LEVEL001
 100
AcDbLine
   6
CONTINUOUS
  62
15
  10
 195.58442521301
  20
 172.34449012854
  30
0.0
  11
 195.28442521301
  21
 172.34449012854
  31
0.0
   0
LINE
   5
27B
 100
AcDbEntity
   8
LEVEL001
 100
AcDbLine
   6
CONTINUOUS
  62
15
  10
 216.68442521301
  20
 172.34449012854
  30
0.0
  11
 216.38442521301
  21
 172.34449012854
  31
0.0
   0
ARC
   5
27C
 100
AcDbEntity
   8
LEVEL001
   6
CONTINUOUS
  62
15
 100
AcDbCircle
  10
 216.68442521301
  20
 172.64449012855
  30
0.0
  40
 0.30000000000000
 100
AcDbArc
  50
 269.99999999999
  51
0.0
   0
POINT
   5
27D
 100
AcDbEntity
   8
LEVEL001
 100
AcDbPoint
  62
15
  10
 216.98442521301
  20
 172.34449012854
  30
0.0
   0
LINE
   5
27E
 100
AcDbEntity
   8
LEVEL001
 100
AcDbLine
   6
CONTINUOUS
  62
15
  10
 216.98442521301
  20
 177.84449012854
  30
0.0
  11
 216.98442521301
  21
 172.64449012854
  31
0.0
   0
ARC
   5
27F
 100
AcDbEntity
   8
LEVEL001
   6
CONTINUOUS
  62
15
 100
AcDbCircle
  10
 197.48442521301
  20
 174.34449012854
  30
0.0
  40
 5.0000000000000
 100
AcDbArc
  50
 53.130102354157
  51
 126.86989764585
   0
ARC
   5
280
 100
AcDbEntity
   8
LEVEL001
   6
CONTINUOUS
  62
15
 100
AcDbCircle
  10
 214.48442521301
  20
 174.34449012854
  30
0.0
  40
 5.0000000000000
 100
AcDbArc
  50
 53.130102354157
  51
 126.86989764584
   0
ARC
   5
281
 100
AcDbEntity
   8
LEVEL001
   6
CONTINUOUS
  62
15
 100
AcDbCircle
  10
 197.48442521301
  20
 167.94449012854
  30
0.0
  40
 5.0000000000000
 100
AcDbArc
  50
 233.13010235416
  51
 306.86989764587
   0
LINE
   5
282
 100
AcDbEntity
   8
LEVEL001
 100
AcDbLine
   6
CONTINUOUS
  62
15
  10
 200.48442521301
  20
 164.46406211621
  30
0.0
  11
 200.48442521301
  21
 163.94449012854
  31
0.0
   0
LINE
   5
283
 100
AcDbEntity
   8
LEVEL001
 100
AcDbLine
   6
CONTINUOUS
  62
15
  10
 211.48442521301
  20
 164.63219139175
  30
0.0
  11
 211.48442521301
  21
 163.94449012854
  31
0.0
   0
ARC
   5
284
 100
AcDbEntity
   8
LEVEL001
   6
CONTINUOUS
  62
15
 100
AcDbCircle
  10
 214.48442521301
  20
 167.94449012854
  30
0.0
  40
 5.0000000000000
 100
AcDbArc
  50
 233.13010235413
  51
 306.86989764584
   0
LINE
   5
285
 100
AcDbEntity
   8
LEVEL001
 100
AcDbLine
   6
CONTINUOUS
  62
15
  10
 194.48442521301
  20
 178.34449012854
  30
0.0
  11
 194.48442521301
  21
 163.94449012854
  31
0.0
   0
LINE
   5
286
 100
AcDbEntity
   8
LEVEL001
 100
AcDbLine
   6
CONTINUOUS
  62
15
  10
 217.48442521301
  20
 178.34449012854
  30
0.0
  11
 217.48442521301
  21
 163.94449012854
  31
0.0
   0
LINE
   5
287
 100
AcDbEntity
   8
LEVEL001
 100
AcDbLine
   6
CONTINUOUS
  62
15
  10
 212.18442521301
  20
 174.44449012854
  30
0.0
  11
 212.48442521301
  21
 174.14449012854
  31
0.0
   0
LINE
   5
288
 100
AcDbEntity
   8
LEVEL001
 100
AcDbLine
   6
CONTINUOUS
  62
15
  10
 199.78442521301
  20
 174.44449012854
  30
0.0
  11
 199.48442521301
  21
 174.14449012854
  31
0.0
   0
LINE
   5
289
 100
AcDbEntity
   8
LEVEL001
 100
AcDbLine
   6
CONTINUOUS
  62
15
  10
 212.48442521301
  20
 174.14449012854
  30
0.0
  11
 212.48442521301
  21
 173.15716332218
  31
0.0
   0
LINE
   5
28A
 100
AcDbEntity
   8
LEVEL001
 100
AcDbLine
   6
CONTINUOUS
  62
15
  10
 212.18442521301
  20
 174.44449012854
  30
0.0
  11
 212.18442521301
  21
 173.15716332218
  31
0.0
   0
LINE
   5
28B
 100
AcDbEntity
   8
LEVEL001
 100
AcDbLine
   6
CONTINUOUS
  62
15
  10
 199.78442521301
  20
 174.44449012854
  30
0.0
  11
 199.78442521301
  21
 173.15716332218
  31
0.0
   0
LINE
   5
28C
 100
AcDbEntity
   8
LEVEL001
 100
AcDbLine
   6
CONTINUOUS
  62
15
  10
 199.48442521301
  20
 174.14449012854
  30
0.0
  11
 199.48442521301
  21
 173.15716332218
  31
0.0
   0
LINE
   5
28D
 100
AcDbEntity
   8
LEVEL001
 100
AcDbLine
   6
CONTINUOUS
  62
15
  10
 210.98442521301
  20
 174.44449012854
  30
0.0
  11
 212.18442521301
  21
 174.44449012854
  31
0.0
   0
LINE
   5
28E
 100
AcDbEntity
   8
LEVEL001
 100
AcDbLine
   6
CONTINUOUS
  62
15
  10
 200.98442521301
  20
 174.44449012854
  30
0.0
  11
 199.78442521301
  21
 174.44449012854
  31
0.0
   0
LINE
   5
28F
 100
AcDbEntity
   8
LEVEL001
 100
AcDbLine
   6
CONTINUOUS
  62
15
  10
 200.48442521301
  20
 178.34449012854
  30
0.0
  11
 200.48442521301
  21
 174.96769947448
  31
0.0
   0
LINE
   5
290
 100
AcDbEntity
   8
LEVEL001
 100
AcDbLine
   6
CONTINUOUS
  62
15
  10
 211.48442521301
  20
 178.34449012854
  30
0.0
  11
 211.48442521301
  21
 174.93259099540
  31
0.0
   0
LINE
   5
291
 100
AcDbEntity
   8
LEVEL001
 100
AcDbLine
   6
CONTINUOUS
  62
15
  10
 210.98442521301
  20
 173.22114609427
  30
0.0
  11
 210.98442521301
  21
 175.84449012854
  31
0.0
   0
LINE
   5
292
 100
AcDbEntity
   8
LEVEL001
 100
AcDbLine
   6
CONTINUOUS
  62
15
  10
 210.98442521301
  20
 173.22114609427
  30
0.0
  11
 210.48442521301
  21
 173.22114609427
  31
0.0
   0
LINE
   5
293
 100
AcDbEntity
   8
LEVEL001
 100
AcDbLine
   6
CONTINUOUS
  62
15
  10
 200.98442521301
  20
 173.22114609427
  30
0.0
  11
 201.48442521301
  21
 173.22114609427
  31
0.0
   0
LINE
   5
294
 100
AcDbEntity
   8
LEVEL001
 100
AcDbLine
   6
CONTINUOUS
  62
15
  10
 200.98442521301
  20
 173.22114609427
  30
0.0
  11
 200.98442521301
  21
 175.84449012854
  31
0.0
   0
LINE
   5
295
 100
AcDbEntity
   8
LEVEL001
 100
AcDbLine
   6
CONTINUOUS
  62
7
  10
 202.48442521301
  20
 161.14449012854
  30
0.0
  11
 209.48442521301
  21
 161.14449012854
  31
0.0
   0
LINE
   5
296
 100
AcDbEntity
   8
LEVEL001
 100
AcDbLine
   6
CONTINUOUS
  62
7
  10
 202.98442521301
  20
 161.34449012854
  30
0.0
  11
 202.98442521301
  21
 161.14449012854
  31
0.0
   0
LINE
   5
297
 100
AcDbEntity
   8
LEVEL001
 100
AcDbLine
   6
CONTINUOUS
  62
7
  10
 208.98442521301
  20
 161.34449012854
  30
0.0
  11
 208.98442521301
  21
 161.14449012854
  31
0.0
   0
LINE
   5
298
 100
AcDbEntity
   8
LEVEL001
 100
AcDbLine
   6
CONTINUOUS
  62
7
  10
 202.48442521301
  20
 161.14449012854
  30
0.0
  11
 202.48442521301
  21
 157.14910804654
  31
0.0
   0
LINE
   5
299
 100
AcDbEntity
   8
LEVEL001
 100
AcDbLine
   6
CONTINUOUS
  62
7
  10
 209.48442521301
  20
 161.14449012854
  30
0.0
  11
 209.48442521301
  21
 157.14910804654
  31
0.0
   0
LINE
   5
29A
 100
AcDbEntity
   8
LEVEL001
 100
AcDbLine
   6
CONTINUOUS
  62
15
  10
 210.48442521301
  20
 161.34449012854
  30
0.0
  11
 201.48442521301
  21
 161.34449012854
  31
0.0
   0
LINE
   5
29B
 100
AcDbEntity
   8
LEVEL001
 100
AcDbLine
   6
CONTINUOUS
  62
15
  10
 210.48442521301
  20
 164.34449012854
  30
0.0
  11
 210.48442521301
  21
 161.34449012854
  31
0.0
   0
LINE
   5
29C
 100
AcDbEntity
   8
LEVEL001
 100
AcDbLine
   6
CONTINUOUS
  62
15
  10
 201.48442521301
  20
 164.34449012854
  30
0.0
  11
 201.48442521301
  21
 161.34449012854
  31
0.0
   0
LINE
   5
29D
 100
AcDbEntity
   8
LEVEL001
 100
AcDbLine
   6
DOT
  62
1
  10
 201.98442521301
  20
 165.84449012854
  30
0.0
  11
 201.28442521301
  21
 166.54449012854
  31
0.0
   0
LINE
   5
29E
 100
AcDbEntity
   8
LEVEL001
 100
AcDbLine
   6
DOT
  62
1
  10
 201.28442521301
  20
 170.04449012854
  30
0.0
  11
 201.28442521301
  21
 166.54449012854
  31
0.0
   0
LINE
   5
29F
 100
AcDbEntity
   8
LEVEL001
 100
AcDbLine
   6
DOT
  62
1
  10
 197.98442521301
  20
 165.84449012854
  30
0.0
  11
 198.68442521301
  21
 166.54449012854
  31
0.0
   0
LINE
   5
2A0
 100
AcDbEntity
   8
LEVEL001
 100
AcDbLine
   6
DOT
  62
1
  10
 198.68442521301
  20
 166.54449012854
  30
0.0
  11
 201.28442521301
  21
 166.54449012854
  31
0.0
   0
LINE
   5
2A1
 100
AcDbEntity
   8
LEVEL001
 100
AcDbLine
   6
DOT
  62
1
  10
 198.68442521301
  20
 170.04449012854
  30
0.0
  11
 198.68442521301
  21
 166.54449012854
  31
0.0
   0
LINE
   5
2A2
 100
AcDbEntity
   8
LEVEL001
 100
AcDbLine
   6
DOT
  62
1
  10
 209.98442521301
  20
 165.84449012854
  30
0.0
  11
 210.68442521301
  21
 166.54449012854
  31
0.0
   0
LINE
   5
2A3
 100
AcDbEntity
   8
LEVEL001
 100
AcDbLine
   6
DOT
  62
1
  10
 213.98442521301
  20
 165.84449012854
  30
0.0
  11
 213.28442521301
  21
 166.54449012854
  31
0.0
   0
LINE
   5
2A4
 100
AcDbEntity
   8
LEVEL001
 100
AcDbLine
   6
DOT
  62
1
  10
 210.68442521301
  20
 166.54449012854
  30
0.0
  11
 213.28442521301
  21
 166.54449012854
  31
0.0
   0
LINE
   5
2A5
 100
AcDbEntity
   8
LEVEL001
 100
AcDbLine
   6
DOT
  62
1
  10
 210.68442521301
  20
 170.04449012854
  30
0.0
  11
 210.68442521301
  21
 166.54449012854
  31
0.0
   0
LINE
   5
2A6
 100
AcDbEntity
   8
LEVEL001
 100
AcDbLine
   6
DOT
  62
1
  10
 213.28442521301
  20
 170.04449012854
  30
0.0
  11
 213.28442521301
  21
 166.54449012854
  31
0.0
   0
LINE
   5
2A7
 100
AcDbEntity
   8
LEVEL001
 100
AcDbLine
   6
DASHDOT
  62
3
  10
 205.98442521301
  20
 111.54144662284
  30
0.0
  11
 205.98442521301
  21
 185.85064497894
  31
0.0
   0
LINE
   5
2A8
 100
AcDbEntity
   8
LEVEL001
 100
AcDbLine
   6
CONTINUOUS
  62
7
  10
 64.872925241612
  20
 156.74449012854
  30
0.0
  11
 67.872925241612
  21
 156.74449012854
  31
0.0
   0
LINE
   5
2A9
 100
AcDbEntity
   8
LEVEL001
 100
AcDbLine
   6
CONTINUOUS
  62
7
  10
 51.872925241612
  20
 156.74449012854
  30
0.0
  11
 51.872925241612
  21
 125.74449012854
  31
0.0
   0
LINE
   5
2AA
 100
AcDbEntity
   8
LEVEL001
 100
AcDbLine
   6
CONTINUOUS
  62
7
  10
 67.872925241612
  20
 156.74449012854
  30
0.0
  11
 67.872925241612
  21
 125.74449012854
  31
0.0
   0
LINE
   5
2AB
 100
AcDbEntity
   8
LEVEL001
 100
AcDbLine
   6
DASHDOT
  62
3
  10
 50.247921721970
  20
 125.74449012854
  30
0.0
  11
 69.997816259573
  21
 125.74449012854
  31
0.0
   0
TEXT
   5
2AC
 100
AcDbEntity
   8
LEVEL001
  62
2
 100
AcDbText
  10
 54.335169259367
  20
 151.05317905592
  30
0.0
  40
 3.0000000000000
   1
押し回し
   7
STANDARD
 100
AcDbText
   0
LINE
   5
2AD
 100
AcDbEntity
   8
LEVEL001
 100
AcDbLine
   6
CONTINUOUS
  62
15
  10
 60.172925241612
  20
 141.10152214762
  30
0.0
  11
 59.572925241612
  21
 141.10152214762
  31
0.0
   0
LINE
   5
2AE
 100
AcDbEntity
   8
LEVEL001
 100
AcDbLine
   6
CONTINUOUS
  62
15
  10
 59.572925241612
  20
 142.53069040523
  30
0.0
  11
 60.172925241612
  21
 142.53069040523
  31
0.0
   0
LINE
   5
2AF
 100
AcDbEntity
   8
LEVEL001
 100
AcDbLine
   6
CONTINUOUS
  62
15
  10
 60.172925241612
  20
 142.53069040523
  30
0.0
  11
 60.172925241612
  21
 141.10152214762
  31
0.0
   0
LINE
   5
2B0
 100
AcDbEntity
   8
LEVEL001
 100
AcDbLine
   6
CONTINUOUS
  62
15
  10
 59.572925241612
  20
 142.53069040523
  30
0.0
  11
 59.572925241612
  21
 141.10152214762
  31
0.0
   0
LINE
   5
2B1
 100
AcDbEntity
   8
LEVEL001
 100
AcDbLine
   6
CONTINUOUS
  62
15
  10
 64.358080913774
  20
 143.08359852509
  30
0.0
  11
 63.933816845062
  21
 142.65933445638
  31
0.0
   0
LINE
   5
2B2
 100
AcDbEntity
   8
LEVEL001
 100
AcDbLine
   6
CONTINUOUS
  62
15
  10
 62.923242278646
  20
 143.66990902280
  30
0.0
  11
 63.347506347358
  21
 144.09417309151
  31
0.0
   0
LINE
   5
2B3
 100
AcDbEntity
   8
LEVEL001
 100
AcDbLine
   6
CONTINUOUS
  62
15
  10
 63.347506347358
  20
 144.09417309151
  30
0.0
  11
 64.358080913774
  21
 143.08359852509
  31
0.0
   0
LINE
   5
2B4
 100
AcDbEntity
   8
LEVEL001
 100
AcDbLine
   6
CONTINUOUS
  62
15
  10
 62.923242278646
  20
 143.66990902280
  30
0.0
  11
 63.933816845062
  21
 142.65933445638
  31
0.0
   0
LINE
   5
2B5
 100
AcDbEntity
   8
LEVEL001
 100
AcDbLine
   6
CONTINUOUS
  62
15
  10
 65.915893222537
  20
 147.44449012854
  30
0.0
  11
 65.915893222537
  21
 146.84449012854
  31
0.0
   0
LINE
   5
2B6
 100
AcDbEntity
   8
LEVEL001
 100
AcDbLine
   6
CONTINUOUS
  62
15
  10
 64.486724964924
  20
 146.84449012854
  30
0.0
  11
 64.486724964924
  21
 147.44449012854
  31
0.0
   0
LINE
   5
2B7
 100
AcDbEntity
   8
LEVEL001
 100
AcDbLine
   6
CONTINUOUS
  62
15
  10
 64.486724964924
  20
 147.44449012854
  30
0.0
  11
 65.915893222537
  21
 147.44449012854
  31
0.0
   0
LINE
   5
2B8
 100
AcDbEntity
   8
LEVEL001
 100
AcDbLine
   6
CONTINUOUS
  62
15
  10
 64.486724964924
  20
 146.84449012854
  30
0.0
  11
 65.915893222537
  21
 146.84449012854
  31
0.0
   0
LINE
   5
2B9
 100
AcDbEntity
   8
LEVEL001
 100
AcDbLine
   6
CONTINUOUS
  62
15
  10
 53.829957260686
  20
 146.84449012854
  30
0.0
  11
 53.829957260686
  21
 147.44449012854
  31
0.0
   0
LINE
   5
2BA
 100
AcDbEntity
   8
LEVEL001
 100
AcDbLine
   6
CONTINUOUS
  62
15
  10
 55.259125518300
  20
 147.44449012854
  30
0.0
  11
 55.259125518300
  21
 146.84449012854
  31
0.0
   0
LINE
   5
2BB
 100
AcDbEntity
   8
LEVEL001
 100
AcDbLine
   6
CONTINUOUS
  62
15
  10
 55.259125518300
  20
 146.84449012854
  30
0.0
  11
 53.829957260686
  21
 146.84449012854
  31
0.0
   0
LINE
   5
2BC
 100
AcDbEntity
   8
LEVEL001
 100
AcDbLine
   6
CONTINUOUS
  62
15
  10
 55.259125518300
  20
 147.44449012854
  30
0.0
  11
 53.829957260686
  21
 147.44449012854
  31
0.0
   0
LINE
   5
2BD
 100
AcDbEntity
   8
LEVEL001
 100
AcDbLine
   6
CONTINUOUS
  62
15
  10
 55.812033638162
  20
 142.65933445638
  30
0.0
  11
 55.387769569450
  21
 143.08359852509
  31
0.0
   0
LINE
   5
2BE
 100
AcDbEntity
   8
LEVEL001
 100
AcDbLine
   6
CONTINUOUS
  62
15
  10
 56.398344135865
  20
 144.09417309151
  30
0.0
  11
 56.822608204577
  21
 143.66990902279
  31
0.0
   0
LINE
   5
2BF
 100
AcDbEntity
   8
LEVEL001
 100
AcDbLine
   6
CONTINUOUS
  62
15
  10
 56.822608204577
  20
 143.66990902279
  30
0.0
  11
 55.812033638162
  21
 142.65933445638
  31
0.0
   0
LINE
   5
2C0
 100
AcDbEntity
   8
LEVEL001
 100
AcDbLine
   6
CONTINUOUS
  62
15
  10
 56.398344135865
  20
 144.09417309151
  30
0.0
  11
 55.387769569450
  21
 143.08359852509
  31
0.0
   0
CIRCLE
   5
2C1
 100
AcDbEntity
   8
LEVEL001
 100
AcDbCircle
   6
CONTINUOUS
  62
7
  10
 59.872925241612
  20
 147.14449012854
  30
0.0
  40
 4.1000000000000
   0
TEXT
   5
2C2
 100
AcDbEntity
   8
LEVEL001
  62
2
 100
AcDbText
  10
 52.427429837718
  20
 140.32543073953
  30
0.0
  40
 3.0000000000000
   1
右
   7
STANDARD
 100
AcDbText
   0
TEXT
   5
2C3
 100
AcDbEntity
   8
LEVEL001
  62
2
 100
AcDbText
  10
 64.338506714869
  20
 140.42603170107
  30
0.0
  40
 3.0000000000000
   1
左
   7
STANDARD
 100
AcDbText
   0
ARC
   5
2C4
 100
AcDbEntity
   8
LEVEL001
   6
CONTINUOUS
  62
2
 100
AcDbCircle
  10
 59.872925241611
  20
 146.46124865893
  30
0.0
  40
 6.5740728495842
 100
AcDbArc
  50
 270.00000000000
  51
 310.89818504441
   0
POLYLINE
   5
2C5
 100
AcDbEntity
   8
LEVEL001
   6
CONTINUOUS
  62
2
 100
AcDb2dPolyline
  66
1
  10
0.0
  20
0.0
  30
0.0
  70
0
   0
VERTEX
   5
2C6
 100
AcDbEntity
   8
LEVEL001
   6
CONTINUOUS
  62
2
 100
AcDbVertex
 100
AcDb2dVertex
  10
 63.548900438290
  20
 140.51005224570
  30
0.0
   0
VERTEX
   5
2C7
 100
AcDbEntity
   8
LEVEL001
   6
CONTINUOUS
  62
2
 100
AcDbVertex
 100
AcDb2dVertex
  10
 64.177081642524
  20
 141.49207654396
  30
0.0
   0
VERTEX
   5
2C8
 100
AcDbEntity
   8
LEVEL001
   6
CONTINUOUS
  62
2
 100
AcDbVertex
 100
AcDb2dVertex
  10
 63.147900020473
  20
 141.31205308133
  30
0.0
   0
SEQEND
   5
2C9
 100
AcDbEntity
   8
LEVEL001
   6
CONTINUOUS
  62
2
   0
ARC
   5
2CA
 100
AcDbEntity
   8
LEVEL001
   6
CONTINUOUS
  62
2
 100
AcDbCircle
  10
 59.872925241612
  20
 146.46124865893
  30
0.0
  40
 6.5740728495842
 100
AcDbArc
  50
 229.10181495560
  51
 270.00000000000
   0
POLYLINE
   5
2CB
 100
AcDbEntity
   8
LEVEL001
   6
CONTINUOUS
  62
2
 100
AcDb2dPolyline
  66
1
  10
0.0
  20
0.0
  30
0.0
  70
0
   0
VERTEX
   5
2CC
 100
AcDbEntity
   8
LEVEL001
   6
CONTINUOUS
  62
2
 100
AcDbVertex
 100
AcDb2dVertex
  10
 56.196950044934
  20
 140.51005224570
  30
0.0
   0
VERTEX
   5
2CD
 100
AcDbEntity
   8
LEVEL001
   6
CONTINUOUS
  62
2
 100
AcDbVertex
 100
AcDb2dVertex
  10
 55.568768840700
  20
 141.49207654396
  30
0.0
   0
VERTEX
   5
2CE
 100
AcDbEntity
   8
LEVEL001
   6
CONTINUOUS
  62
2
 100
AcDbVertex
 100
AcDb2dVertex
  10
 56.597950462751
  20
 141.31205308133
  30
0.0
   0
SEQEND
   5
2CF
 100
AcDbEntity
   8
LEVEL001
   6
CONTINUOUS
  62
2
   0
TEXT
   5
2D0
 100
AcDbEntity
   8
LEVEL001
  62
2
 100
AcDbText
  10
 52.472431720825
  20
 132.81733730569
  30
0.0
  40
 3.0000000000000
   1
下
   7
STANDARD
 100
AcDbText
   0
CIRCLE
   5
2D1
 100
AcDbEntity
   8
LEVEL001
 100
AcDbCircle
   6
CONTINUOUS
  62
7
  10
 59.872925241612
  20
 133.14449012854
  30
0.0
  40
 3.6500000000000
   0
ARC
   5
2D2
 100
AcDbEntity
   8
LEVEL001
   6
CONTINUOUS
  62
2
 100
AcDbCircle
  10
 59.872925241612
  20
 132.94491413015
  30
0.0
  40
 5.7943252189832
 100
AcDbArc
  50
 44.776184597772
  51
 135.22381540223
   0
POLYLINE
   5
2D3
 100
AcDbEntity
   8
LEVEL001
   6
CONTINUOUS
  62
2
 100
AcDb2dPolyline
  66
1
  10
0.0
  20
0.0
  30
0.0
  70
0
   0
VERTEX
   5
2D4
 100
AcDbEntity
   8
LEVEL001
   6
CONTINUOUS
  62
2
 100
AcDbVertex
 100
AcDb2dVertex
  10
 56.293398014376
  20
 138.06251967806
  30
0.0
   0
VERTEX
   5
2D5
 100
AcDbEntity
   8
LEVEL001
   6
CONTINUOUS
  62
2
 100
AcDbVertex
 100
AcDb2dVertex
  10
 55.759744905168
  20
 137.02608458276
  30
0.0
   0
VERTEX
   5
2D6
 100
AcDbEntity
   8
LEVEL001
   6
CONTINUOUS
  62
2
 100
AcDbVertex
 100
AcDb2dVertex
  10
 56.767597220870
  20
 137.30150601983
  30
0.0
   0
SEQEND
   5
2D7
 100
AcDbEntity
   8
LEVEL001
   6
CONTINUOUS
  62
2
   0
TEXT
   5
2D8
 100
AcDbEntity
   8
LEVEL001
  62
2
 100
AcDbText
  10
 64.382692108268
  20
 133.06402556062
  30
0.0
  40
 3.0000000000000
   1
上
   7
STANDARD
 100
AcDbText
   0
POLYLINE
   5
2D9
 100
AcDbEntity
   8
LEVEL001
   6
CONTINUOUS
  62
2
 100
AcDb2dPolyline
  66
1
  10
0.0
  20
0.0
  30
0.0
  70
0
   0
VERTEX
   5
2DA
 100
AcDbEntity
   8
LEVEL001
   6
CONTINUOUS
  62
2
 100
AcDbVertex
 100
AcDb2dVertex
  10
 63.452452468847
  20
 138.06251967806
  30
0.0
   0
VERTEX
   5
2DB
 100
AcDbEntity
   8
LEVEL001
   6
CONTINUOUS
  62
2
 100
AcDbVertex
 100
AcDb2dVertex
  10
 63.986105578056
  20
 137.02608458276
  30
0.0
   0
VERTEX
   5
2DC
 100
AcDbEntity
   8
LEVEL001
   6
CONTINUOUS
  62
2
 100
AcDbVertex
 100
AcDb2dVertex
  10
 62.978253262354
  20
 137.30150601983
  30
0.0
   0
SEQEND
   5
2DD
 100
AcDbEntity
   8
LEVEL001
   6
CONTINUOUS
  62
2
   0
LINE
   5
2DE
 100
AcDbEntity
   8
LEVEL001
 100
AcDbLine
   6
CONTINUOUS
  62
7
  10
 54.872925241612
  20
 154.24449012854
  30
0.0
  11
 54.872925241612
  21
 156.74449012854
  31
0.0
   0
LINE
   5
2DF
 100
AcDbEntity
   8
LEVEL001
 100
AcDbLine
   6
CONTINUOUS
  62
7
  10
 64.872925241612
  20
 154.24449012854
  30
0.0
  11
 64.872925241612
  21
 156.74449012854
  31
0.0
   0
LINE
   5
2E0
 100
AcDbEntity
   8
LEVEL001
 100
AcDbLine
   6
CONTINUOUS
  62
7
  10
 64.872925241612
  20
 154.24449012854
  30
0.0
  11
 54.872925241612
  21
 154.24449012854
  31
0.0
   0
CIRCLE
   5
2E1
 100
AcDbEntity
   8
LEVEL001
 100
AcDbCircle
   6
CONTINUOUS
  62
15
  10
 59.872925241612
  20
 144.84449012854
  30
0.0
  40
 0.50000000000000
   0
ARC
   5
2E2
 100
AcDbEntity
   8
LEVEL001
   6
CONTINUOUS
  62
15
 100
AcDbCircle
  10
 58.458711679238
  20
 145.30601249746
  30
0.0
  40
 0.20000000000000
 100
AcDbArc
  50
 225.00000000001
  51
 315.00000000045
   0
POINT
   5
2E3
 100
AcDbEntity
   8
LEVEL001
 100
AcDbPoint
  62
15
  10
 58.458711679239
  20
 145.02316978498
  30
0.0
   0
ARC
   5
2E4
 100
AcDbEntity
   8
LEVEL001
   6
CONTINUOUS
  62
15
 100
AcDbCircle
  10
 58.458711679242
  20
 148.98296775963
  30
0.0
  40
 0.20000000000000
 100
AcDbArc
  50
 44.999999999961
  51
 135.00000000130
   0
POINT
   5
2E5
 100
AcDbEntity
   8
LEVEL001
 100
AcDbPoint
  62
15
  10
 58.458711679239
  20
 149.26581047210
  30
0.0
   0
ARC
   5
2E6
 100
AcDbEntity
   8
LEVEL001
   6
CONTINUOUS
  62
15
 100
AcDbCircle
  10
 58.175868966764
  20
 147.14449012854
  30
0.0
  40
 0.70000000000000
 100
AcDbArc
  50
 315.00000000006
  51
 45.000000000005
   0
POINT
   5
2E7
 100
AcDbEntity
   8
LEVEL001
 100
AcDbPoint
  62
15
  10
 59.165818460425
  20
 147.14449012854
  30
0.0
   0
LINE
   5
2E8
 100
AcDbEntity
   8
LEVEL001
 100
AcDbLine
   6
CONTINUOUS
  62
15
  10
 59.377950494781
  20
 145.94240860052
  30
0.0
  11
 58.600133035476
  21
 145.16459114122
  31
0.0
   0
ARC
   5
2E9
 100
AcDbEntity
   8
LEVEL001
   6
CONTINUOUS
  62
15
 100
AcDbCircle
  10
 59.872925241611
  20
 145.44743385369
  30
0.0
  40
 0.70000000000000
 100
AcDbArc
  50
 44.999999999915
  51
 135.00000000000
   0
ARC
   5
2EA
 100
AcDbEntity
   8
LEVEL001
   6
CONTINUOUS
  62
15
 100
AcDbCircle
  10
 59.872925241612
  20
 148.84154640339
  30
0.0
  40
 0.70000000000000
 100
AcDbArc
  50
 225.00000000004
  51
 315.00000000000
   0
LINE
   5
2EB
 100
AcDbEntity
   8
LEVEL001
 100
AcDbLine
   6
CONTINUOUS
  62
15
  10
 58.600133035476
  20
 149.12438911586
  30
0.0
  11
 59.377950494781
  21
 148.34657165656
  31
0.0
   0
LINE
   5
2EC
 100
AcDbEntity
   8
LEVEL001
 100
AcDbLine
   6
CONTINUOUS
  62
15
  10
 57.893026254290
  20
 148.70012504715
  30
0.0
  11
 58.317290323001
  21
 149.12438911586
  31
0.0
   0
LINE
   5
2ED
 100
AcDbEntity
   8
LEVEL001
 100
AcDbLine
   6
CONTINUOUS
  62
15
  10
 58.670843713595
  20
 147.63946487537
  30
0.0
  11
 57.893026254290
  21
 148.41728233468
  31
0.0
   0
LINE
   5
2EE
 100
AcDbEntity
   8
LEVEL001
 100
AcDbLine
   6
CONTINUOUS
  62
15
  10
 58.317290323002
  20
 145.16459114122
  30
0.0
  11
 57.893026254290
  21
 145.58885520993
  31
0.0
   0
LINE
   5
2EF
 100
AcDbEntity
   8
LEVEL001
 100
AcDbLine
   6
CONTINUOUS
  62
15
  10
 57.893026254290
  20
 145.87169792241
  30
0.0
  11
 58.670843713595
  21
 146.64951538171
  31
0.0
   0
ARC
   5
2F0
 100
AcDbEntity
   8
LEVEL001
   6
CONTINUOUS
  62
15
 100
AcDbCircle
  10
 61.287138803983
  20
 145.30601249745
  30
0.0
  40
 0.20000000000000
 100
AcDbArc
  50
 224.99999999999
  51
 315.00000000088
   0
POINT
   5
2F1
 100
AcDbEntity
   8
LEVEL001
 100
AcDbPoint
  62
15
  10
 61.287138803985
  20
 145.02316978498
  30
0.0
   0
ARC
   5
2F2
 100
AcDbEntity
   8
LEVEL001
   6
CONTINUOUS
  62
15
 100
AcDbCircle
  10
 61.711402872695
  20
 145.73027656617
  30
0.0
  40
 0.20000000000000
 100
AcDbArc
  50
 315.00000000087
  51
 44.999999999991
   0
POINT
   5
2F3
 100
AcDbEntity
   8
LEVEL001
 100
AcDbPoint
  62
15
  10
 61.994245585171
  20
 145.73027656617
  30
0.0
   0
LINE
   5
2F4
 100
AcDbEntity
   8
LEVEL001
 100
AcDbLine
   6
CONTINUOUS
  62
15
  10
 61.852824228934
  20
 145.58885520993
  30
0.0
  11
 61.428560160222
  21
 145.16459114122
  31
0.0
   0
ARC
   5
2F5
 100
AcDbEntity
   8
LEVEL001
   6
CONTINUOUS
  62
15
 100
AcDbCircle
  10
 61.711402872697
  20
 148.55870369091
  30
0.0
  40
 0.20000000000000
 100
AcDbArc
  50
 314.99999999999
  51
 44.999999999865
   0
POINT
   5
2F6
 100
AcDbEntity
   8
LEVEL001
 100
AcDbPoint
  62
15
  10
 61.994245585171
  20
 148.55870369091
  30
0.0
   0
LINE
   5
2F7
 100
AcDbEntity
   8
LEVEL001
 100
AcDbLine
   6
CONTINUOUS
  62
15
  10
 61.428560160222
  20
 149.12438911586
  30
0.0
  11
 61.852824228934
  21
 148.70012504715
  31
0.0
   0
ARC
   5
2F8
 100
AcDbEntity
   8
LEVEL001
   6
CONTINUOUS
  62
15
 100
AcDbCircle
  10
 61.287138803983
  20
 148.98296775962
  30
0.0
  40
 0.20000000000000
 100
AcDbArc
  50
 44.999999999986
  51
 134.99999999915
   0
POINT
   5
2F9
 100
AcDbEntity
   8
LEVEL001
 100
AcDbPoint
  62
15
  10
 61.287138803985
  20
 149.26581047210
  30
0.0
   0
POINT
   5
2FA
 100
AcDbEntity
   8
LEVEL001
 100
AcDbPoint
  62
15
  10
 59.872925241612
  20
 146.43738334735
  30
0.0
   0
LINE
   5
2FB
 100
AcDbEntity
   8
LEVEL001
 100
AcDbLine
   6
CONTINUOUS
  62
15
  10
 61.145717447748
  20
 145.16459114122
  30
0.0
  11
 60.367899988442
  21
 145.94240860052
  31
0.0
   0
LINE
   5
2FC
 100
AcDbEntity
   8
LEVEL001
 100
AcDbLine
   6
CONTINUOUS
  62
15
  10
 61.075006769629
  20
 146.64951538171
  30
0.0
  11
 61.852824228934
  21
 145.87169792241
  31
0.0
   0
ARC
   5
2FD
 100
AcDbEntity
   8
LEVEL001
   6
CONTINUOUS
  62
15
 100
AcDbCircle
  10
 61.569981516459
  20
 147.14449012854
  30
0.0
  40
 0.70000000000000
 100
AcDbArc
  50
 134.99999999997
  51
 225.00000000000
   0
POINT
   5
2FE
 100
AcDbEntity
   8
LEVEL001
 100
AcDbPoint
  62
15
  10
 60.580032022798
  20
 147.14449012854
  30
0.0
   0
LINE
   5
2FF
 100
AcDbEntity
   8
LEVEL001
 100
AcDbLine
   6
CONTINUOUS
  62
15
  10
 61.852824228934
  20
 148.41728233468
  30
0.0
  11
 61.075006769629
  21
 147.63946487537
  31
0.0
   0
LINE
   5
300
 100
AcDbEntity
   8
LEVEL001
 100
AcDbLine
   6
CONTINUOUS
  62
15
  10
 60.367899988443
  20
 148.34657165656
  30
0.0
  11
 61.145717447748
  21
 149.12438911586
  31
0.0
   0
POINT
   5
301
 100
AcDbEntity
   8
LEVEL001
 100
AcDbPoint
  62
15
  10
 59.872925241612
  20
 147.85159690973
  30
0.0
   0
POINT
   5
302
 100
AcDbEntity
   8
LEVEL001
 100
AcDbPoint
  62
15
  10
 57.751604898052
  20
 148.55870369091
  30
0.0
   0
ARC
   5
303
 100
AcDbEntity
   8
LEVEL001
   6
CONTINUOUS
  62
15
 100
AcDbCircle
  10
 58.034447610525
  20
 148.55870369092
  30
0.0
  40
 0.20000000000000
 100
AcDbArc
  50
 135.00000000001
  51
 225.00000000085
   0
POINT
   5
304
 100
AcDbEntity
   8
LEVEL001
 100
AcDbPoint
  62
15
  10
 57.751604898052
  20
 145.73027656617
  30
0.0
   0
ARC
   5
305
 100
AcDbEntity
   8
LEVEL001
   6
CONTINUOUS
  62
15
 100
AcDbCircle
  10
 58.034447610529
  20
 145.73027656617
  30
0.0
  40
 0.20000000000000
 100
AcDbArc
  50
 135.00000000001
  51
 224.99999999913
   0
LINE
   5
306
 100
AcDbEntity
   8
LEVEL001
 100
AcDbLine
   6
DASHDOT
  62
3
  10
 55.065433202374
  20
 133.14449012854
  30
0.0
  11
 64.470433696777
  21
 133.14449012854
  31
0.0
   0
LINE
   5
307
 100
AcDbEntity
   8
LEVEL001
 100
AcDbLine
   6
DASHDOT
  62
3
  10
 53.075163388206
  20
 147.14449012854
  30
0.0
  11
 66.421678612629
  21
 147.14449012854
  31
0.0
   0
ARC
   5
308
 100
AcDbEntity
   8
LEVEL001
   6
CONTINUOUS
  62
15
 100
AcDbCircle
  10
 60.172925241606
  20
 135.44449012854
  30
0.0
  40
 0.20000000000000
 100
AcDbArc
  50
0.0
  51
 89.999999998323
   0
POINT
   5
309
 100
AcDbEntity
   8
LEVEL001
 100
AcDbPoint
  62
15
  10
 60.372925241612
  20
 135.64449012854
  30
0.0
   0
LINE
   5
30A
 100
AcDbEntity
   8
LEVEL001
 100
AcDbLine
   6
CONTINUOUS
  62
15
  10
 59.572925241612
  20
 135.64449012854
  30
0.0
  11
 60.172925241612
  21
 135.64449012854
  31
0.0
   0
LINE
   5
30B
 100
AcDbEntity
   8
LEVEL001
 100
AcDbLine
   6
CONTINUOUS
  62
15
  10
 59.372925241612
  20
 134.34449012854
  30
0.0
  11
 59.372925241612
  21
 135.44449012854
  31
0.0
   0
LINE
   5
30C
 100
AcDbEntity
   8
LEVEL001
 100
AcDbLine
   6
CONTINUOUS
  62
15
  10
 60.372925241612
  20
 135.44449012854
  30
0.0
  11
 60.372925241612
  21
 134.34449012854
  31
0.0
   0
ARC
   5
30D
 100
AcDbEntity
   8
LEVEL001
   6
CONTINUOUS
  62
15
 100
AcDbCircle
  10
 59.572925241610
  20
 130.84449012854
  30
0.0
  40
 0.20000000000000
 100
AcDbArc
  50
 179.99999999999
  51
 270.00000000049
   0
POINT
   5
30E
 100
AcDbEntity
   8
LEVEL001
 100
AcDbPoint
  62
15
  10
 59.372925241612
  20
 130.64449012854
  30
0.0
   0
ARC
   5
30F
 100
AcDbEntity
   8
LEVEL001
   6
CONTINUOUS
  62
15
 100
AcDbCircle
  10
 60.172925241611
  20
 130.84449012854
  30
0.0
  40
 0.20000000000000
 100
AcDbArc
  50
 270.00000000024
  51
0.0
   0
POINT
   5
310
 100
AcDbEntity
   8
LEVEL001
 100
AcDbPoint
  62
15
  10
 60.372925241612
  20
 130.64449012854
  30
0.0
   0
LINE
   5
311
 100
AcDbEntity
   8
LEVEL001
 100
AcDbLine
   6
CONTINUOUS
  62
15
  10
 60.172925241612
  20
 130.64449012854
  30
0.0
  11
 59.572925241612
  21
 130.64449012854
  31
0.0
   0
LINE
   5
312
 100
AcDbEntity
   8
LEVEL001
 100
AcDbLine
   6
CONTINUOUS
  62
15
  10
 59.372925241612
  20
 130.84449012854
  30
0.0
  11
 59.372925241612
  21
 131.94449012854
  31
0.0
   0
LINE
   5
313
 100
AcDbEntity
   8
LEVEL001
 100
AcDbLine
   6
CONTINUOUS
  62
15
  10
 60.372925241612
  20
 131.94449012854
  30
0.0
  11
 60.372925241612
  21
 130.84449012854
  31
0.0
   0
LINE
   5
314
 100
AcDbEntity
   8
LEVEL001
 100
AcDbLine
   6
CONTINUOUS
  62
15
  10
 62.172925241612
  20
 132.64449012854
  30
0.0
  11
 61.072925241612
  21
 132.64449012854
  31
0.0
   0
LINE
   5
315
 100
AcDbEntity
   8
LEVEL001
 100
AcDbLine
   6
CONTINUOUS
  62
15
  10
 61.072925241612
  20
 133.64449012854
  30
0.0
  11
 62.172925241612
  21
 133.64449012854
  31
0.0
   0
LINE
   5
316
 100
AcDbEntity
   8
LEVEL001
 100
AcDbLine
   6
CONTINUOUS
  62
15
  10
 57.572925241612
  20
 133.64449012854
  30
0.0
  11
 58.672925241612
  21
 133.64449012854
  31
0.0
   0
LINE
   5
317
 100
AcDbEntity
   8
LEVEL001
 100
AcDbLine
   6
CONTINUOUS
  62
15
  10
 58.672925241612
  20
 132.64449012854
  30
0.0
  11
 57.572925241612
  21
 132.64449012854
  31
0.0
   0
ARC
   5
318
 100
AcDbEntity
   8
LEVEL001
   6
CONTINUOUS
  62
15
 100
AcDbCircle
  10
 58.672925241613
  20
 134.34449012854
  30
0.0
  40
 0.70000000000000
 100
AcDbArc
  50
 269.99999999994
  51
0.0
   0
ARC
   5
319
 100
AcDbEntity
   8
LEVEL001
   6
CONTINUOUS
  62
15
 100
AcDbCircle
  10
 61.072925241612
  20
 134.34449012854
  30
0.0
  40
 0.70000000000000
 100
AcDbArc
  50
 180.00000000006
  51
 270.00000000000
   0
ARC
   5
31A
 100
AcDbEntity
   8
LEVEL001
   6
CONTINUOUS
  62
15
 100
AcDbCircle
  10
 58.672925241612
  20
 131.94449012854
  30
0.0
  40
 0.70000000000000
 100
AcDbArc
  50
 0.67464108443386E-10
  51
 89.999999999994
   0
ARC
   5
31B
 100
AcDbEntity
   8
LEVEL001
   6
CONTINUOUS
  62
15
 100
AcDbCircle
  10
 61.072925241610
  20
 131.94449012854
  30
0.0
  40
 0.70000000000000
 100
AcDbArc
  50
 89.999999999859
  51
 180.00000000001
   0
POINT
   5
31C
 100
AcDbEntity
   8
LEVEL001
 100
AcDbPoint
  62
15
  10
 59.372925241612
  20
 135.64449012854
  30
0.0
   0
ARC
   5
31D
 100
AcDbEntity
   8
LEVEL001
   6
CONTINUOUS
  62
15
 100
AcDbCircle
  10
 59.572925241612
  20
 135.44449012854
  30
0.0
  40
 0.20000000000000
 100
AcDbArc
  50
 90.000000000020
  51
 179.99999999872
   0
ARC
   5
31E
 100
AcDbEntity
   8
LEVEL001
   6
CONTINUOUS
  62
15
 100
AcDbCircle
  10
 62.172925241612
  20
 132.84449012854
  30
0.0
  40
 0.20000000000000
 100
AcDbArc
  50
 269.99999999999
  51
 0.11236263578674E-8
   0
LINE
   5
31F
 100
AcDbEntity
   8
LEVEL001
 100
AcDbLine
   6
CONTINUOUS
  62
15
  10
 62.372925241612
  20
 133.44449012854
  30
0.0
  11
 62.372925241612
  21
 132.84449012854
  31
0.0
   0
ARC
   5
320
 100
AcDbEntity
   8
LEVEL001
   6
CONTINUOUS
  62
15
 100
AcDbCircle
  10
 62.172925241610
  20
 133.44449012854
  30
0.0
  40
 0.20000000000000
 100
AcDbArc
  50
0.0
  51
 89.999999999436
   0
POINT
   5
321
 100
AcDbEntity
   8
LEVEL001
 100
AcDbPoint
  62
15
  10
 62.372925241612
  20
 133.64449012854
  30
0.0
   0
LINE
   5
322
 100
AcDbEntity
   8
LEVEL001
 100
AcDbLine
   6
CONTINUOUS
  62
15
  10
 57.372925241612
  20
 132.84449012854
  30
0.0
  11
 57.372925241612
  21
 133.44449012854
  31
0.0
   0
ARC
   5
323
 100
AcDbEntity
   8
LEVEL001
   6
CONTINUOUS
  62
15
 100
AcDbCircle
  10
 57.572925241610
  20
 132.84449012854
  30
0.0
  40
 0.20000000000000
 100
AcDbArc
  50
 180.00000000001
  51
 270.00000000051
   0
POINT
   5
324
 100
AcDbEntity
   8
LEVEL001
 100
AcDbPoint
  62
15
  10
 57.372925241612
  20
 132.64449012854
  30
0.0
   0
POINT
   5
325
 100
AcDbEntity
   8
LEVEL001
 100
AcDbPoint
  62
15
  10
 57.372925241612
  20
 133.64449012854
  30
0.0
   0
ARC
   5
326
 100
AcDbEntity
   8
LEVEL001
   6
CONTINUOUS
  62
15
 100
AcDbCircle
  10
 57.572925241612
  20
 133.44449012855
  30
0.0
  40
 0.20000000000000
 100
AcDbArc
  50
 89.999999999988
  51
 180.00000000300
   0
LINE
   5
327
 100
AcDbEntity
   8
LEVEL001
 100
AcDbLine
   6
CONTINUOUS
  62
15
  10
 56.872925241612
  20
 156.74449012854
  30
0.0
  11
 62.872925241612
  21
 156.74449012854
  31
0.0
   0
LINE
   5
328
 100
AcDbEntity
   8
LEVEL001
 100
AcDbLine
   6
CONTINUOUS
  62
15
  10
 56.872925241612
  20
 156.74449012854
  30
0.0
  11
 56.872925241612
  21
 154.24449012854
  31
0.0
   0
LINE
   5
329
 100
AcDbEntity
   8
LEVEL001
 100
AcDbLine
   6
CONTINUOUS
  62
15
  10
 62.872925241612
  20
 156.74449012854
  30
0.0
  11
 62.872925241612
  21
 154.24449012854
  31
0.0
   0
LINE
   5
32A
 100
AcDbEntity
   8
LEVEL001
 100
AcDbLine
   6
CONTINUOUS
  62
15
  10
 56.872925241612
  20
 155.24449012854
  30
0.0
  11
 54.872925241612
  21
 155.24449012854
  31
0.0
   0
LINE
   5
32B
 100
AcDbEntity
   8
LEVEL001
 100
AcDbLine
   6
CONTINUOUS
  62
15
  10
 64.872925241612
  20
 155.24449012854
  30
0.0
  11
 62.872925241612
  21
 155.24449012854
  31
0.0
   0
LINE
   5
32C
 100
AcDbEntity
   8
LEVEL001
 100
AcDbLine
   6
CONTINUOUS
  62
7
  10
 51.872925241612
  20
 156.74449012854
  30
0.0
  11
 54.872925241612
  21
 156.74449012854
  31
0.0
   0
DIMENSION
   5
32D
 100
AcDbEntity
   8
LEVEL001
   6
CONTINUOUS
  62
3
 100
AcDbDimension
   2
*D1
  10
 59.872925241612
  20
 125.74449012854
  30
0.0
  11
 66.650143611362
  21
 116.17082956146
  31
0.0
  70
132
   3
GMM001
 100
AcDbRadialDimension
  15
 64.495190576241
  25
 119.21496769759
  35
0.0
  40
 4.1047990310907
   0
LINE
   5
32E
 100
AcDbEntity
   8
LEVEL001
 100
AcDbLine
   6
DIVIDE
  62
3
  10
 51.872925241612
  20
 156.74449012854
  30
0.0
  11
 44.872925241612
  21
 156.74449012854
  31
0.0
   0
LINE
   5
32F
 100
AcDbEntity
   8
LEVEL001
 100
AcDbLine
   6
DIVIDE
  62
3
  10
 67.872925241612
  20
 156.74449012854
  30
0.0
  11
 74.872925241612
  21
 156.74449012854
  31
0.0
   0
LINE
   5
330
 100
AcDbEntity
   8
LEVEL001
 100
AcDbLine
   6
CONTINUOUS
  62
7
  10
 56.372925241612
  20
 119.24449012825
  30
0.0
  11
 56.372925241612
  21
 121.24449012825
  31
0.0
   0
LINE
   5
331
 100
AcDbEntity
   8
LEVEL001
 100
AcDbLine
   6
CONTINUOUS
  62
7
  10
 63.372925241612
  20
 119.24449012825
  30
0.0
  11
 63.372925241612
  21
 121.24449012825
  31
0.0
   0
LINE
   5
332
 100
AcDbEntity
   8
LEVEL001
 100
AcDbLine
   6
CONTINUOUS
  62
7
  10
 63.372925241612
  20
 119.24449012825
  30
0.0
  11
 56.372925241612
  21
 119.24449012825
  31
0.0
   0
LINE
   5
333
 100
AcDbEntity
   8
LEVEL001
 100
AcDbLine
   6
CONTINUOUS
  62
7
  10
 66.487303519073
  20
 121.24449012825
  30
0.0
  11
 53.258546964152
  21
 121.24449012825
  31
0.0
   0
ARC
   5
334
 100
AcDbEntity
   8
LEVEL001
   6
CONTINUOUS
  62
7
 100
AcDbCircle
  10
 59.872925241612
  20
 125.74449012854
  30
0.0
  40
 8.0000000000000
 100
AcDbArc
  50
 214.22886633037
  51
 325.77113366963
   0
LINE
   5
335
 100
AcDbEntity
   8
LEVEL001
 100
AcDbLine
   6
CONTINUOUS
  62
15
  10
 56.372925241612
  20
 121.44449012854
  30
0.0
  11
 63.372925241612
  21
 121.44449012854
  31
0.0
   0
LINE
   5
336
 100
AcDbEntity
   8
LEVEL001
 100
AcDbLine
   6
CONTINUOUS
  62
7
  10
 63.372925241612
  20
 124.14449012854
  30
0.0
  11
 56.372925241612
  21
 124.14449012854
  31
0.0
   0
LINE
   5
337
 100
AcDbEntity
   8
LEVEL001
 100
AcDbLine
   6
CONTINUOUS
  62
7
  10
 56.372925241612
  20
 121.44449012854
  30
0.0
  11
 56.372925241612
  21
 124.14449012854
  31
0.0
   0
LINE
   5
338
 100
AcDbEntity
   8
LEVEL001
 100
AcDbLine
   6
CONTINUOUS
  62
15
  10
 63.372925241612
  20
 122.84449012825
  30
0.0
  11
 56.372925241612
  21
 122.84449012825
  31
0.0
   0
LINE
   5
339
 100
AcDbEntity
   8
LEVEL001
 100
AcDbLine
   6
CONTINUOUS
  62
15
  10
 63.372925241612
  20
 122.04449012868
  30
0.0
  11
 56.372925241612
  21
 122.04449012868
  31
0.0
   0
LINE
   5
33A
 100
AcDbEntity
   8
LEVEL001
 100
AcDbLine
   6
CONTINUOUS
  62
7
  10
 63.372925241612
  20
 121.44449012854
  30
0.0
  11
 63.372925241612
  21
 124.14449012854
  31
0.0
   0
LINE
   5
33B
 100
AcDbEntity
   8
LEVEL001
 100
AcDbLine
   6
CONTINUOUS
  62
7
  10
 66.619035231821
  20
 121.44449012854
  30
0.0
  11
 63.372925241612
  21
 121.44449012854
  31
0.0
   0
ARC
   5
33C
 100
AcDbEntity
   8
LEVEL001
   6
CONTINUOUS
  62
7
 100
AcDbCircle
  10
 59.872925241612
  20
 125.74449012854
  30
0.0
  40
 8.0000000000000
 100
AcDbArc
  50
 327.48638536678
  51
 0.25444437451708E-11
   0
LINE
   5
33D
 100
AcDbEntity
   8
LEVEL001
 100
AcDbLine
   6
CONTINUOUS
  62
7
  10
 56.372925241612
  20
 121.44449012854
  30
0.0
  11
 53.126815251403
  21
 121.44449012854
  31
0.0
   0
ARC
   5
33E
 100
AcDbEntity
   8
LEVEL001
   6
CONTINUOUS
  62
7
 100
AcDbCircle
  10
 59.872925241612
  20
 125.74449012854
  30
0.0
  40
 8.0000000000000
 100
AcDbArc
  50
 180.00000000000
  51
 212.51361463322
   0
LINE
   5
33F
 100
AcDbEntity
   8
LEVEL001
 100
AcDbLine
   6
DASHDOT
  62
3
  10
 51.372925241612
  20
 183.42456256298
  30
0.0
  11
 51.372925241612
  21
 159.56878526967
  31
0.0
   0
LINE
   5
340
 100
AcDbEntity
   8
LEVEL001
 100
AcDbLine
   6
DASHDOT
  62
3
  10
 68.372925241612
  20
 183.53708981436
  30
0.0
  11
 68.372925241612
  21
 159.62504889536
  31
0.0
   0
ARC
   5
341
 100
AcDbEntity
   8
LEVEL001
   6
CONTINUOUS
  62
7
 100
AcDbCircle
  10
 62.372925241611
  20
 174.84449012854
  30
0.0
  40
 0.50000000000000
 100
AcDbArc
  50
 270.00000000009
  51
0.0
   0
POINT
   5
342
 100
AcDbEntity
   8
LEVEL001
 100
AcDbPoint
  62
7
  10
 62.872925241612
  20
 174.34449012854
  30
0.0
   0
ARC
   5
343
 100
AcDbEntity
   8
LEVEL001
   6
CONTINUOUS
  62
7
 100
AcDbCircle
  10
 57.372925241612
  20
 174.84449012854
  30
0.0
  40
 0.50000000000000
 100
AcDbArc
  50
 179.99999999980
  51
 270.00000000000
   0
POINT
   5
344
 100
AcDbEntity
   8
LEVEL001
 100
AcDbPoint
  62
7
  10
 56.872925241612
  20
 174.34449012854
  30
0.0
   0
LINE
   5
345
 100
AcDbEntity
   8
LEVEL001
 100
AcDbLine
   6
CONTINUOUS
  62
7
  10
 57.372925241612
  20
 174.34449012854
  30
0.0
  11
 62.372925241612
  21
 174.34449012854
  31
0.0
   0
ARC
   5
346
 100
AcDbEntity
   8
LEVEL001
   6
CONTINUOUS
  62
7
 100
AcDbCircle
  10
 63.872925241614
  20
 175.84449012854
  30
0.0
  40
 0.50000000000000
 100
AcDbArc
  50
0.0
  51
 90.000000000199
   0
POINT
   5
347
 100
AcDbEntity
   8
LEVEL001
 100
AcDbPoint
  62
7
  10
 64.372925241612
  20
 176.34449012854
  30
0.0
   0
ARC
   5
348
 100
AcDbEntity
   8
LEVEL001
   6
CONTINUOUS
  62
7
 100
AcDbCircle
  10
 55.872925241612
  20
 175.84449012854
  30
0.0
  40
 0.50000000000000
 100
AcDbArc
  50
 90.000000000000
  51
 179.99999999992
   0
LINE
   5
349
 100
AcDbEntity
   8
LEVEL001
 100
AcDbLine
   6
CONTINUOUS
  62
7
  10
 63.872925241612
  20
 176.34449012854
  30
0.0
  11
 62.872925241612
  21
 176.34449012854
  31
0.0
   0
LINE
   5
34A
 100
AcDbEntity
   8
LEVEL001
 100
AcDbLine
   6
CONTINUOUS
  62
7
  10
 56.872925241612
  20
 176.34449012854
  30
0.0
  11
 55.872925241612
  21
 176.34449012854
  31
0.0
   0
LINE
   5
34B
 100
AcDbEntity
   8
LEVEL001
 100
AcDbLine
   6
CONTINUOUS
  62
7
  10
 62.872925241612
  20
 176.34449012854
  30
0.0
  11
 62.872925241612
  21
 174.84449012854
  31
0.0
   0
LINE
   5
34C
 100
AcDbEntity
   8
LEVEL001
 100
AcDbLine
   6
CONTINUOUS
  62
7
  10
 56.872925241612
  20
 176.34449012854
  30
0.0
  11
 56.872925241612
  21
 174.84449012854
  31
0.0
   0
LINE
   5
34D
 100
AcDbEntity
   8
LEVEL001
 100
AcDbLine
   6
CONTINUOUS
  62
7
  10
 64.372925241612
  20
 164.64449012854
  30
0.0
  11
 64.372925241612
  21
 175.84449012854
  31
0.0
   0
ARC
   5
34E
 100
AcDbEntity
   8
LEVEL001
   6
CONTINUOUS
  62
7
 100
AcDbCircle
  10
 64.072925241612
  20
 164.64449012854
  30
0.0
  40
 0.30000000000000
 100
AcDbArc
  50
 269.99999999995
  51
0.0
   0
POINT
   5
34F
 100
AcDbEntity
   8
LEVEL001
 100
AcDbPoint
  62
7
  10
 64.372925241612
  20
 164.34449012854
  30
0.0
   0
LINE
   5
350
 100
AcDbEntity
   8
LEVEL001
 100
AcDbLine
   6
CONTINUOUS
  62
7
  10
 64.072925241612
  20
 164.34449012854
  30
0.0
  11
 55.672925241612
  21
 164.34449012854
  31
0.0
   0
ARC
   5
351
 100
AcDbEntity
   8
LEVEL001
   6
CONTINUOUS
  62
7
 100
AcDbCircle
  10
 55.672925241612
  20
 164.64449012854
  30
0.0
  40
 0.30000000000000
 100
AcDbArc
  50
 179.99999999934
  51
 270.00000000000
   0
ARC
   5
352
 100
AcDbEntity
   8
LEVEL001
   6
CONTINUOUS
  62
15
 100
AcDbCircle
  10
 55.672925241612
  20
 162.84449012854
  30
0.0
  40
 0.30000000000000
 100
AcDbArc
  50
 179.99999999996
  51
 270.00000000000
   0
ARC
   5
353
 100
AcDbEntity
   8
LEVEL001
   6
CONTINUOUS
  62
15
 100
AcDbCircle
  10
 64.072925241615
  20
 162.84449012854
  30
0.0
  40
 0.30000000000000
 100
AcDbArc
  50
 269.99999999934
  51
 0.54281466564272E-11
   0
POINT
   5
354
 100
AcDbEntity
   8
LEVEL001
 100
AcDbPoint
  62
15
  10
 64.372925241612
  20
 162.54449012854
  30
0.0
   0
LINE
   5
355
 100
AcDbEntity
   8
LEVEL001
 100
AcDbLine
   6
CONTINUOUS
  62
15
  10
 64.372925241612
  20
 164.34449012854
  30
0.0
  11
 65.372925241612
  21
 164.34449012854
  31
0.0
   0
LINE
   5
356
 100
AcDbEntity
   8
LEVEL001
 100
AcDbLine
   6
CONTINUOUS
  62
15
  10
 64.072925241607
  20
 162.54449012854
  30
0.0
  11
 55.672925241612
  21
 162.54449012854
  31
0.0
   0
POINT
   5
357
 100
AcDbEntity
   8
LEVEL001
 100
AcDbPoint
  62
7
  10
 55.372925241612
  20
 176.34449012854
  30
0.0
   0
POINT
   5
358
 100
AcDbEntity
   8
LEVEL001
 100
AcDbPoint
  62
7
  10
 55.372925241612
  20
 164.34449012854
  30
0.0
   0
LINE
   5
359
 100
AcDbEntity
   8
LEVEL001
 100
AcDbLine
   6
CONTINUOUS
  62
7
  10
 55.372925241612
  20
 164.64449012854
  30
0.0
  11
 55.372925241612
  21
 175.84449012854
  31
0.0
   0
POINT
   5
35A
 100
AcDbEntity
   8
LEVEL001
 100
AcDbPoint
  62
15
  10
 55.372925241612
  20
 162.54449012854
  30
0.0
   0
LINE
   5
35B
 100
AcDbEntity
   8
LEVEL001
 100
AcDbLine
   6
CONTINUOUS
  62
15
  10
 55.372925241612
  20
 164.34449012854
  30
0.0
  11
 54.372925241612
  21
 164.34449012854
  31
0.0
   0
LINE
   5
35C
 100
AcDbEntity
   8
LEVEL001
 100
AcDbLine
   6
DASHDOT
  62
3
  10
 59.872925241612
  20
 186.02216095768
  30
0.0
  11
 59.872925241612
  21
 109.40352737381
  31
0.0
   0
LINE
   5
35D
 100
AcDbEntity
   8
LEVEL001
 100
AcDbLine
   6
DASHDOT
  62
3
  10
 43.728613971385
  20
 171.14449012854
  30
0.0
  11
 75.775030669613
  21
 171.14449012854
  31
0.0
   0
LINE
   5
35E
 100
AcDbEntity
   8
LEVEL001
 100
AcDbLine
   6
CONTINUOUS
  62
15
  10
 55.593797379989
  20
 176.34449012854
  30
0.0
  11
 55.372925241612
  21
 176.34449012854
  31
0.0
   0
ARC
   5
35F
 100
AcDbEntity
   8
LEVEL001
   6
CONTINUOUS
  62
15
 100
AcDbCircle
  10
 55.372925241611
  20
 175.84449012854
  30
0.0
  40
 0.50000000000000
 100
AcDbArc
  50
 89.999999999912
  51
 180.00000000000
   0
POINT
   5
360
 100
AcDbEntity
   8
LEVEL001
 100
AcDbPoint
  62
15
  10
 54.872925241612
  20
 176.34449012854
  30
0.0
   0
ARC
   5
361
 100
AcDbEntity
   8
LEVEL001
   6
CONTINUOUS
  62
15
 100
AcDbCircle
  10
 64.372925241614
  20
 175.84449012854
  30
0.0
  40
 0.50000000000000
 100
AcDbArc
  50
0.0
  51
 90.000000000199
   0
POINT
   5
362
 100
AcDbEntity
   8
LEVEL001
 100
AcDbPoint
  62
15
  10
 64.872925241612
  20
 176.34449012854
  30
0.0
   0
LINE
   5
363
 100
AcDbEntity
   8
LEVEL001
 100
AcDbLine
   6
CONTINUOUS
  62
15
  10
 64.152053103235
  20
 176.34449012854
  30
0.0
  11
 64.372925241612
  21
 176.34449012854
  31
0.0
   0
ARC
   5
364
 100
AcDbEntity
   8
LEVEL001
   6
CONTINUOUS
  62
7
 100
AcDbCircle
  10
 51.372925241612
  20
 174.34449012854
  30
0.0
  40
 5.0000000000000
 100
AcDbArc
  50
 53.130102354156
  51
 126.86989764584
   0
ARC
   5
365
 100
AcDbEntity
   8
LEVEL001
   6
CONTINUOUS
  62
7
 100
AcDbCircle
  10
 68.372925241612
  20
 174.34449012854
  30
0.0
  40
 5.0000000000000
 100
AcDbArc
  50
 53.130102354154
  51
 126.86989764584
   0
ARC
   5
366
 100
AcDbEntity
   8
LEVEL001
   6
CONTINUOUS
  62
7
 100
AcDbCircle
  10
 68.372925241613
  20
 167.94449012854
  30
0.0
  40
 5.0000000000000
 100
AcDbArc
  50
 233.13010235414
  51
 306.86989764584
   0
ARC
   5
367
 100
AcDbEntity
   8
LEVEL001
   6
CONTINUOUS
  62
7
 100
AcDbCircle
  10
 51.372925241610
  20
 167.94449012854
  30
0.0
  40
 5.0000000000000
 100
AcDbArc
  50
 233.13010235416
  51
 306.86989764586
   0
LINE
   5
368
 100
AcDbEntity
   8
LEVEL001
 100
AcDbLine
   6
CONTINUOUS
  62
7
  10
 48.372925241612
  20
 178.34449012854
  30
0.0
  11
 48.372925241612
  21
 163.94449012854
  31
0.0
   0
LINE
   5
369
 100
AcDbEntity
   8
LEVEL001
 100
AcDbLine
   6
CONTINUOUS
  62
7
  10
 71.372925241612
  20
 178.34449012854
  30
0.0
  11
 71.372925241612
  21
 163.94449012854
  31
0.0
   0
LINE
   5
36A
 100
AcDbEntity
   8
LEVEL001
 100
AcDbLine
   6
CONTINUOUS
  62
7
  10
 65.372925241612
  20
 178.34449012854
  30
0.0
  11
 65.372925241612
  21
 163.94449012854
  31
0.0
   0
LINE
   5
36B
 100
AcDbEntity
   8
LEVEL001
 100
AcDbLine
   6
CONTINUOUS
  62
7
  10
 54.372925241612
  20
 178.34449012854
  30
0.0
  11
 54.372925241612
  21
 163.94449012854
  31
0.0
   0
LINE
   5
36C
 100
AcDbEntity
   8
LEVEL001
 100
AcDbLine
   6
CONTINUOUS
  62
15
  10
 54.872925241612
  20
 173.22114609427
  30
0.0
  11
 54.872925241612
  21
 175.84449012854
  31
0.0
   0
LINE
   5
36D
 100
AcDbEntity
   8
LEVEL001
 100
AcDbLine
   6
CONTINUOUS
  62
15
  10
 64.872925241612
  20
 173.22114609427
  30
0.0
  11
 64.872925241612
  21
 175.84449012854
  31
0.0
   0
LINE
   5
36E
 100
AcDbEntity
   8
LEVEL001
 100
AcDbLine
   6
CONTINUOUS
  62
15
  10
 54.872925241612
  20
 173.22114609427
  30
0.0
  11
 55.372925241612
  21
 173.22114609427
  31
0.0
   0
LINE
   5
36F
 100
AcDbEntity
   8
LEVEL001
 100
AcDbLine
   6
CONTINUOUS
  62
15
  10
 64.872925241612
  20
 173.22114609427
  30
0.0
  11
 64.372925241612
  21
 173.22114609427
  31
0.0
   0
LINE
   5
370
 100
AcDbEntity
   8
LEVEL001
 100
AcDbLine
   6
CONTINUOUS
  62
15
  10
 54.372925241612
  20
 167.84449012854
  30
0.0
  11
 55.372925241612
  21
 167.84449012854
  31
0.0
   0
LINE
   5
371
 100
AcDbEntity
   8
LEVEL001
 100
AcDbLine
   6
CONTINUOUS
  62
15
  10
 64.372925241612
  20
 167.84449012854
  30
0.0
  11
 65.372925241612
  21
 167.84449012854
  31
0.0
   0
LINE
   5
372
 100
AcDbEntity
   8
LEVEL001
 100
AcDbLine
   6
CONTINUOUS
  62
15
  10
 54.872925241612
  20
 174.44449012854
  30
0.0
  11
 54.372925241612
  21
 174.44449012854
  31
0.0
   0
LINE
   5
373
 100
AcDbEntity
   8
LEVEL001
 100
AcDbLine
   6
CONTINUOUS
  62
15
  10
 64.872925241612
  20
 174.44449012854
  30
0.0
  11
 65.372925241612
  21
 174.44449012854
  31
0.0
   0
DIMENSION
   5
374
 100
AcDbEntity
   8
LEVEL001
   6
CONTINUOUS
  62
3
 100
AcDbDimension
   2
*D2
  10
 87.885890079711
  20
 181.74449012854
  30
0.0
  11
 87.885890079711
  21
 171.74449012854
  31
0.0
  70
0
   3
GMM002
 100
AcDbAlignedDimension
  13
 68.372925241612
  23
 161.74449012854
  33
0.0
  14
 73.772925241612
  24
 181.74449012854
  34
0.0
  50
 90.000000000000
 100
AcDbRotatedDimension
   0
LINE
   5
375
 100
AcDbEntity
   8
LEVEL001
 100
AcDbLine
   6
CONTINUOUS
  62
7
  10
 56.372925241612
  20
 161.14449012854
  30
0.0
  11
 56.372925241612
  21
 155.74846988181
  31
0.0
   0
LINE
   5
376
 100
AcDbEntity
   8
LEVEL001
 100
AcDbLine
   6
CONTINUOUS
  62
7
  10
 63.372925241612
  20
 161.14449012854
  30
0.0
  11
 63.372925241612
  21
 155.74846988181
  31
0.0
   0
LINE
   5
377
 100
AcDbEntity
   8
LEVEL001
 100
AcDbLine
   6
CONTINUOUS
  62
7
  10
 56.372925241612
  20
 161.14449012854
  30
0.0
  11
 63.372925241612
  21
 161.14449012854
  31
0.0
   0
LINE
   5
378
 100
AcDbEntity
   8
LEVEL001
 100
AcDbLine
   6
CONTINUOUS
  62
7
  10
 56.872925241612
  20
 161.34449012854
  30
0.0
  11
 56.872925241612
  21
 161.14449012854
  31
0.0
   0
LINE
   5
379
 100
AcDbEntity
   8
LEVEL001
 100
AcDbLine
   6
CONTINUOUS
  62
7
  10
 62.872925241612
  20
 161.34449012854
  30
0.0
  11
 62.872925241612
  21
 161.14449012854
  31
0.0
   0
LINE
   5
37A
 100
AcDbEntity
   8
LEVEL001
 100
AcDbLine
   6
CONTINUOUS
  62
15
  10
 64.372925241612
  20
 164.34449012854
  30
0.0
  11
 64.372925241612
  21
 161.34449012854
  31
0.0
   0
LINE
   5
37B
 100
AcDbEntity
   8
LEVEL001
 100
AcDbLine
   6
CONTINUOUS
  62
15
  10
 55.372925241612
  20
 164.34449012854
  30
0.0
  11
 55.372925241612
  21
 161.34449012854
  31
0.0
   0
LINE
   5
37C
 100
AcDbEntity
   8
LEVEL001
 100
AcDbLine
   6
CONTINUOUS
  62
15
  10
 64.372925241612
  20
 161.34449012854
  30
0.0
  11
 55.372925241612
  21
 161.34449012854
  31
0.0
   0
INSERT
   5
37D
 100
AcDbEntity
   8
0
 100
AcDbBlockReference
   2
BLOCK001
  10
0.0
  20
0.0
  30
0.0
   0
LINE
   5
37E
 100
AcDbEntity
   8
LEVEL001
 100
AcDbLine
   6
CONTINUOUS
  62
2
  10
 57.872925241612
  20
 125.74449012854
  30
0.0
  11
 59.872925241612
  21
 127.24449012854
  31
0.0
   0
LINE
   5
37F
 100
AcDbEntity
   8
LEVEL001
 100
AcDbLine
   6
CONTINUOUS
  62
2
  10
 61.872925241612
  20
 125.74449012854
  30
0.0
  11
 59.872925241612
  21
 127.24449012854
  31
0.0
   0
TEXT
   5
380
 100
AcDbEntity
   8
LEVEL001
  62
2
 100
AcDbText
  10
 55.450171132027
  20
 126.19436940972
  30
0.0
  40
 3.0000000000000
   1
外　す
   7
STANDARD
 100
AcDbText
   0
LINE
   5
381
 100
AcDbEntity
   8
LEVEL001
 100
AcDbLine
   6
CONTINUOUS
  62
2
  10
 58.851712873354
  20
 125.74449012854
  30
0.0
  11
 58.851712873354
  21
 124.73170564812
  31
0.0
   0
LINE
   5
382
 100
AcDbEntity
   8
LEVEL001
 100
AcDbLine
   6
CONTINUOUS
  62
2
  10
 58.851712873354
  20
 124.73170564812
  30
0.0
  11
 60.894137609870
  21
 124.73170564812
  31
0.0
   0
LINE
   5
383
 100
AcDbEntity
   8
LEVEL001
 100
AcDbLine
   6
CONTINUOUS
  62
2
  10
 60.894137609870
  20
 125.74449012854
  30
0.0
  11
 60.894137609870
  21
 124.73170564812
  31
0.0
   0
LINE
   5
384
 100
AcDbEntity
   8
LEVEL001
 100
AcDbLine
   6
CONTINUOUS
  62
2
  10
 57.872925241612
  20
 125.74449012854
  30
0.0
  11
 58.851712873354
  21
 125.74449012854
  31
0.0
   0
LINE
   5
385
 100
AcDbEntity
   8
LEVEL001
 100
AcDbLine
   6
CONTINUOUS
  62
2
  10
 60.894137609870
  20
 125.74449012854
  30
0.0
  11
 61.872925241612
  21
 125.74449012854
  31
0.0
   0
DIMENSION
   5
386
 100
AcDbEntity
   8
LEVEL001
   6
CONTINUOUS
  62
3
 100
AcDbDimension
   2
*D3
  10
 68.372925241612
  20
 191.85704398644
  30
0.0
  11
 59.872925241612
  21
 191.85704398644
  31
0.0
  70
0
   3
GMM002
 100
AcDbAlignedDimension
  13
 51.372925241612
  23
 183.42456256298
  33
0.0
  14
 68.372925241612
  24
 183.53708981436
  34
0.0
 100
AcDbRotatedDimension
   0
DIMENSION
   5
387
 100
AcDbEntity
   8
LEVEL001
   6
CONTINUOUS
  62
3
 100
AcDbDimension
   2
*D4
  10
 73.772925241612
  20
 200.06364369950
  30
0.0
  11
 59.872925241612
  21
 200.06364369950
  31
0.0
  70
0
   3
GMM002
 100
AcDbAlignedDimension
  13
 45.972925241612
  23
 182.14449012854
  33
0.0
  14
 73.772925241612
  24
 182.14449012854
  34
0.0
 100
AcDbRotatedDimension
   0
DIMENSION
   5
388
 100
AcDbEntity
   8
LEVEL001
   6
CONTINUOUS
  62
3
 100
AcDbDimension
   2
*D5
  10
 67.872925241612
  20
 100.92147345752
  30
0.0
  11
 59.872925241612
  21
 100.92147345752
  31
0.0
  70
0
   3
GMM002
 100
AcDbAlignedDimension
  13
 51.872925241612
  23
 125.74449012854
  33
0.0
  14
 67.872925241612
  24
 125.74449012854
  34
0.0
 100
AcDbRotatedDimension
   0
DIMENSION
   5
389
 100
AcDbEntity
   8
LEVEL001
   6
CONTINUOUS
  62
3
 100
AcDbDimension
   2
*D6
  10
 87.885890079711
  20
 156.74449012854
  30
0.0
  11
 87.885890079711
  21
 140.30618309841
  31
0.0
  70
128
   1
\A1;5%%p3(上下調整)
   3
GMM003
 100
AcDbAlignedDimension
  13
 68.372925241612
  23
 161.74449012854
  33
0.0
  14
 74.872925241612
  24
 156.74449012854
  34
0.0
  50
 270.00000000000
 100
AcDbRotatedDimension
   0
LINE
   5
38A
 100
AcDbEntity
   8
LEVEL001
 100
AcDbLine
   6
DIVIDE
  62
3
  10
 44.872925241612
  20
 156.74449012854
  30
0.0
  11
 44.872925241612
  21
 84.060963161215
  31
0.0
   0
LINE
   5
38B
 100
AcDbEntity
   8
LEVEL001
 100
AcDbLine
   6
DIVIDE
  62
3
  10
 74.872925241612
  20
 156.74449012854
  30
0.0
  11
 74.872925241612
  21
 82.716705303207
  31
0.0
   0
LINE
   5
38C
 100
AcDbEntity
   8
LEVEL001
 100
AcDbLine
   6
CONTINUOUS
  62
3
  10
 50.707316696538
  20
 93.568141542517
  30
0.0
  11
 68.629984010694
  21
 93.568141542517
  31
0.0
   0
POLYLINE
   5
38D
 100
AcDbEntity
   8
LEVEL001
   6
CONTINUOUS
  62
3
 100
AcDb2dPolyline
  66
1
  10
0.0
  20
0.0
  30
0.0
  70
0
   0
VERTEX
   5
38E
 100
AcDbEntity
   8
LEVEL001
   6
CONTINUOUS
  62
3
 100
AcDbVertex
 100
AcDb2dVertex
  10
 66.065516271261
  20
 92.764293965223
  30
0.0
   0
VERTEX
   5
38F
 100
AcDbEntity
   8
LEVEL001
   6
CONTINUOUS
  62
3
 100
AcDbVertex
 100
AcDb2dVertex
  10
 69.065516271261
  20
 93.568141542517
  30
0.0
   0
VERTEX
   5
390
 100
AcDbEntity
   8
LEVEL001
   6
CONTINUOUS
  62
3
 100
AcDbVertex
 100
AcDb2dVertex
  10
 66.065516271261
  20
 94.371989119810
  30
0.0
   0
SEQEND
   5
391
 100
AcDbEntity
   8
LEVEL001
   6
CONTINUOUS
  62
3
   0
POLYLINE
   5
392
 100
AcDbEntity
   8
LEVEL001
   6
CONTINUOUS
  62
3
 100
AcDb2dPolyline
  66
1
  10
0.0
  20
0.0
  30
0.0
  70
0
   0
VERTEX
   5
393
 100
AcDbEntity
   8
LEVEL001
   6
CONTINUOUS
  62
3
 100
AcDbVertex
 100
AcDb2dVertex
  10
 53.707316696538
  20
 92.764293965223
  30
0.0
   0
VERTEX
   5
394
 100
AcDbEntity
   8
LEVEL001
   6
CONTINUOUS
  62
3
 100
AcDbVertex
 100
AcDb2dVertex
  10
 50.707316696538
  20
 93.568141542517
  30
0.0
   0
VERTEX
   5
395
 100
AcDbEntity
   8
LEVEL001
   6
CONTINUOUS
  62
3
 100
AcDbVertex
 100
AcDb2dVertex
  10
 53.707316696538
  20
 94.371989119810
  30
0.0
   0
SEQEND
   5
396
 100
AcDbEntity
   8
LEVEL001
   6
CONTINUOUS
  62
3
   0
TEXT
   5
397
 100
AcDbEntity
   8
LEVEL001
  62
3
 100
AcDbText
  10
 48.453299700508
  20
 85.751833358916
  30
0.0
  40
 4.0000000000000
   1
%%p２（左右調整）
  41
 0.75000000000000
   7
STANDARD
 100
AcDbText
   0
LINE
   5
398
 100
AcDbEntity
   8
LEVEL001
 100
AcDbLine
   6
DASHDOT
  62
3
  10
 59.872925241612
  20
 99.277430898929
  30
0.0
  11
 59.872925241612
  21
 90.428623693425
  31
0.0
   0
CIRCLE
   5
399
 100
AcDbEntity
   8
LEVEL001
 100
AcDbCircle
   6
CONTINUOUS
  62
3
  10
 59.872925241612
  20
 93.568141542517
  30
0.0
  40
 0.52059537404746
   0
LINE
   5
39A
 100
AcDbEntity
   8
LEVEL001
 100
AcDbLine
   6
CONTINUOUS
  62
7
  10
 367.58202039611
  20
 117.74449012854
  30
0.0
  11
 367.58202039611
  21
 156.74449012854
  31
0.0
   0
LINE
   5
39B
 100
AcDbEntity
   8
LEVEL001
 100
AcDbLine
   6
CONTINUOUS
  62
7
  10
 328.58202039611
  20
 117.74449012854
  30
0.0
  11
 367.58202039611
  21
 117.74449012854
  31
0.0
   0
LINE
   5
39C
 100
AcDbEntity
   8
LEVEL001
 100
AcDbLine
   6
CONTINUOUS
  62
7
  10
 328.58202039611
  20
 117.74449012854
  30
0.0
  11
 328.58202039611
  21
 156.74449012854
  31
0.0
   0
LINE
   5
39D
 100
AcDbEntity
   8
LEVEL001
 100
AcDbLine
   6
CONTINUOUS
  62
7
  10
 367.58202039611
  20
 156.74449012854
  30
0.0
  11
 328.58202039611
  21
 156.74449012854
  31
0.0
   0
LINE
   5
39E
 100
AcDbEntity
   8
LEVEL001
 100
AcDbLine
   6
DASHDOT
  62
3
  10
 344.58202039611
  20
 120.54715919877
  30
0.0
  11
 344.58202039611
  21
 114.11175760714
  31
0.0
   0
LINE
   5
39F
 100
AcDbEntity
   8
LEVEL001
 100
AcDbLine
   6
DASHDOT
  62
3
  10
 359.58202039611
  20
 120.49262189715
  30
0.0
  11
 359.58202039611
  21
 114.16629490877
  31
0.0
   0
LINE
   5
3A0
 100
AcDbEntity
   8
LEVEL001
 100
AcDbLine
   6
DASHDOT
  62
3
  10
 363.36558960971
  20
 130.74449012854
  30
0.0
  11
 371.73696491308
  21
 130.74449012854
  31
0.0
   0
DIMENSION
   5
3A1
 100
AcDbEntity
   8
LEVEL001
   6
CONTINUOUS
  62
3
 100
AcDbDimension
   2
*D7
  10
 316.55395110231
  20
 156.74449012854
  30
0.0
  11
 316.55395110231
  21
 137.24449012854
  31
0.0
  70
0
   3
GMM004
 100
AcDbAlignedDimension
  13
 328.58202039611
  23
 117.74449012854
  33
0.0
  14
 328.58202039611
  24
 156.74449012854
  34
0.0
  50
 90.000000000000
 100
AcDbRotatedDimension
   0
LINE
   5
3A2
 100
AcDbEntity
   8
LEVEL001
 100
AcDbLine
   6
DIVIDE
  62
3
  10
 283.19486100809
  20
 156.74449012854
  30
0.0
  11
 289.39880258770
  21
 156.74449012854
  31
0.0
   0
LINE
   5
3A3
 100
AcDbEntity
   8
LEVEL001
 100
AcDbLine
   6
DIVIDE
  62
3
  10
 259.39880258770
  20
 156.74449012854
  30
0.0
  11
 265.77081723253
  21
 156.74449012854
  31
0.0
   0
LINE
   5
3A4
 100
AcDbEntity
   8
LEVEL001
 100
AcDbLine
   6
CONTINUOUS
  62
7
  10
 266.39880258770
  20
 156.74449012854
  30
0.0
  11
 282.39880258770
  21
 156.74449012854
  31
0.0
   0
LINE
   5
3A5
 100
AcDbEntity
   8
LEVEL001
 100
AcDbLine
   6
CONTINUOUS
  62
7
  10
 266.39880258770
  20
 156.74449012854
  30
0.0
  11
 266.39880258770
  21
 125.74449012854
  31
0.0
   0
ARC
   5
3A6
 100
AcDbEntity
   8
LEVEL001
   6
CONTINUOUS
  62
7
 100
AcDbCircle
  10
 274.39880258770
  20
 125.74449012854
  30
0.0
  40
 8.0000000000000
 100
AcDbArc
  50
 180.00000000000
  51
0.0
   0
LINE
   5
3A7
 100
AcDbEntity
   8
LEVEL001
 100
AcDbLine
   6
CONTINUOUS
  62
7
  10
 282.39880258770
  20
 156.74449012854
  30
0.0
  11
 282.39880258770
  21
 125.74449012854
  31
0.0
   0
LINE
   5
3A8
 100
AcDbEntity
   8
LEVEL001
 100
AcDbLine
   6
DASHDOT
  62
3
  10
 263.97948617434
  20
 125.74449012854
  30
0.0
  11
 285.46018002640
  21
 125.74449012854
  31
0.0
   0
LINE
   5
3A9
 100
AcDbEntity
   8
LEVEL001
 100
AcDbLine
   6
DASHDOT
  62
3
  10
 268.73098091659
  20
 130.74449012854
  30
0.0
  11
 280.04928863232
  21
 130.74449012854
  31
0.0
   0
DIMENSION
   5
3AA
 100
AcDbEntity
   8
LEVEL001
   6
CONTINUOUS
  62
3
 100
AcDbDimension
   2
*D8
  10
 303.09756994437
  20
 125.74449012854
  30
0.0
  11
 303.09756994437
  21
 141.24449012854
  31
0.0
  70
0
   3
GMM005
 100
AcDbAlignedDimension
  13
 289.39880258770
  23
 156.74449012854
  33
0.0
  14
 285.46018002640
  24
 125.74449012854
  34
0.0
  50
 270.00000000000
 100
AcDbRotatedDimension
   0
DIMENSION
   5
3AB
 100
AcDbEntity
   8
LEVEL001
   6
CONTINUOUS
  62
3
 100
AcDbDimension
   2
*D9
  10
 303.09756994437
  20
 117.74449012854
  30
0.0
  11
 303.09756994437
  21
 121.74449012854
  31
0.0
  70
0
   3
GMM005
 100
AcDbAlignedDimension
  13
 303.09756994437
  23
 125.74449012854
  33
0.0
  14
 274.39880258770
  24
 117.74449012854
  34
0.0
  50
 270.00000000000
 100
AcDbRotatedDimension
   0
DIMENSION
   5
3AC
 100
AcDbEntity
   8
LEVEL001
   6
CONTINUOUS
  62
3
 100
AcDbDimension
   2
*D10
  10
 274.39880258770
  20
 125.74449012854
  30
0.0
  11
 268.78247889841
  21
 115.52709748504
  31
0.0
  70
132
   3
GMM006
 100
AcDbRadialDimension
  15
 270.54516071217
  25
 118.73382366271
  35
0.0
  40
 4.0409052779436
   0
DIMENSION
   5
3AD
 100
AcDbEntity
   8
LEVEL001
   6
CONTINUOUS
  62
3
 100
AcDbDimension
   2
*D11
  10
 282.39880258770
  20
 168.86046366856
  30
0.0
  11
 274.39880258770
  21
 168.86046366856
  31
0.0
  70
0
   3
GMM004
 100
AcDbAlignedDimension
  13
 266.39880258770
  23
 156.74449012854
  33
0.0
  14
 282.39880258770
  24
 156.74449012854
  34
0.0
 100
AcDbRotatedDimension
   0
DIMENSION
   5
3AE
 100
AcDbEntity
   8
LEVEL001
   6
CONTINUOUS
  62
3
 100
AcDbDimension
   2
*D12
  10
 249.51708571316
  20
 130.74449012854
  30
0.0
  11
 249.51708571316
  21
 143.74449012854
  31
0.0
  70
0
   3
GMM007
 100
AcDbAlignedDimension
  13
 259.39880258770
  23
 156.74449012854
  33
0.0
  14
 268.73098091659
  24
 130.74449012854
  34
0.0
  50
 270.00000000000
 100
AcDbRotatedDimension
   0
INSERT
   5
3AF
 100
AcDbEntity
   8
LEVEL001
 100
AcDbBlockReference
   2
*D13
  10
0.0
  20
0.0
  30
0.0
   0
CIRCLE
   5
3B0
 100
AcDbEntity
   8
LEVEL001
 100
AcDbCircle
   6
CONTINUOUS
  62
7
  10
 274.39880258770
  20
 130.74449012854
  30
0.0
  40
 2.1000000000000
   0
LINE
   5
3B1
 100
AcDbEntity
   8
LEVEL001
 100
AcDbLine
   6
DIVIDE
  62
3
  10
 328.58202039611
  20
 117.74449012854
  30
0.0
  11
 328.58202039611
  21
 103.67625151772
  31
0.0
   0
LINE
   5
3B2
 100
AcDbEntity
   8
LEVEL001
 100
AcDbLine
   6
DIVIDE
  62
3
  10
 259.39880258770
  20
 156.74449012854
  30
0.0
  11
 259.39880258770
  21
 103.09648639026
  31
0.0
   0
LINE
   5
3B3
 100
AcDbEntity
   8
LEVEL001
 100
AcDbLine
   6
DIVIDE
  62
3
  10
 289.39880258770
  20
 156.74449012854
  30
0.0
  11
 289.39880258770
  21
 103.09648639026
  31
0.0
   0
LINE
   5
3B4
 100
AcDbEntity
   8
LEVEL001
 100
AcDbLine
   6
DASHDOT
  62
3
  10
 274.39880258770
  20
 164.58006402124
  30
0.0
  11
 274.39880258770
  21
 97.065528798600
  31
0.0
   0
DIMENSION
   5
3B5
 100
AcDbEntity
   8
LEVEL001
   6
CONTINUOUS
  62
3
 100
AcDbDimension
   2
*D14
  10
 194.48442521301
  20
 200.06364369950
  30
0.0
  11
 205.98442521301
  21
 200.06364369950
  31
0.0
  70
0
   3
GMM002
 100
AcDbAlignedDimension
  13
 217.48442521301
  23
 178.99943640797
  33
0.0
  14
 194.48442521301
  24
 178.99943640797
  34
0.0
  50
 180.00000000000
 100
AcDbRotatedDimension
   0
LINE
   5
3B6
 100
AcDbEntity
   8
LEVEL001
 100
AcDbLine
   6
CONTINUOUS
  62
7
  10
 112.36635449362
  20
 231.29545873277
  30
0.0
  11
 114.96635449362
  21
 231.29545873277
  31
0.0
   0
LINE
   5
3B7
 100
AcDbEntity
   8
LEVEL001
 100
AcDbLine
   6
CONTINUOUS
  62
7
  10
 112.36635449362
  20
 221.29545873277
  30
0.0
  11
 114.96635449362
  21
 221.29545873277
  31
0.0
   0
LINE
   5
3B8
 100
AcDbEntity
   8
LEVEL001
 100
AcDbLine
   6
DOT
  62
1
  10
 112.36635449362
  20
 230.39545873277
  30
0.0
  11
 114.96635449362
  21
 230.39545873277
  31
0.0
   0
LINE
   5
3B9
 100
AcDbEntity
   8
LEVEL001
 100
AcDbLine
   6
DOT
  62
1
  10
 112.36635449362
  20
 222.19545873277
  30
0.0
  11
 114.96635449362
  21
 222.19545873277
  31
0.0
   0
LINE
   5
3BA
 100
AcDbEntity
   8
LEVEL001
 100
AcDbLine
   6
CONTINUOUS
  62
15
  10
 112.36635449362
  20
 221.29545873277
  30
0.0
  11
 112.36635449362
  21
 231.29545873277
  31
0.0
   0
LINE
   5
3BB
 100
AcDbEntity
   8
LEVEL001
 100
AcDbLine
   6
CONTINUOUS
  62
7
  10
 112.36635449362
  20
 231.29545873277
  30
0.0
  11
 112.36635449362
  21
 234.29545873277
  31
0.0
   0
LINE
   5
3BC
 100
AcDbEntity
   8
LEVEL001
 100
AcDbLine
   6
CONTINUOUS
  62
7
  10
 112.36635449362
  20
 218.29545873277
  30
0.0
  11
 112.36635449362
  21
 221.29545873277
  31
0.0
   0
LINE
   5
3BD
 100
AcDbEntity
   8
LEVEL001
 100
AcDbLine
   6
CONTINUOUS
  62
15
  10
 131.86635449362
  20
 231.16859940384
  30
0.0
  11
 141.66635449362
  21
 231.16859940384
  31
0.0
   0
LINE
   5
3BE
 100
AcDbEntity
   8
LEVEL001
 100
AcDbLine
   6
CONTINUOUS
  62
15
  10
 131.86635449362
  20
 221.42231806170
  30
0.0
  11
 141.66635449362
  21
 221.42231806170
  31
0.0
   0
LINE
   5
3BF
 100
AcDbEntity
   8
LEVEL001
 100
AcDbLine
   6
CONTINUOUS
  62
15
  10
 112.56635449362
  20
 223.29545873277
  30
0.0
  11
 112.56635449362
  21
 229.29545873277
  31
0.0
   0
LINE
   5
3C0
 100
AcDbEntity
   8
LEVEL001
 100
AcDbLine
   6
CONTINUOUS
  62
15
  10
 113.66635449362
  20
 229.58429111981
  30
0.0
  11
 113.66635449362
  21
 231.29545873277
  31
0.0
   0
LINE
   5
3C1
 100
AcDbEntity
   8
LEVEL001
 100
AcDbLine
   6
CONTINUOUS
  62
15
  10
 114.96635449362
  20
 229.58429111981
  30
0.0
  11
 114.96635449362
  21
 231.29545873277
  31
0.0
   0
LINE
   5
3C2
 100
AcDbEntity
   8
LEVEL001
 100
AcDbLine
   6
CONTINUOUS
  62
15
  10
 113.66635449362
  20
 221.29545873277
  30
0.0
  11
 113.66635449362
  21
 222.90167818506
  31
0.0
   0
LINE
   5
3C3
 100
AcDbEntity
   8
LEVEL001
 100
AcDbLine
   6
CONTINUOUS
  62
15
  10
 114.96635449362
  20
 221.29545873277
  30
0.0
  11
 114.96635449362
  21
 222.90167818506
  31
0.0
   0
LINE
   5
3C4
 100
AcDbEntity
   8
LEVEL001
 100
AcDbLine
   6
CONTINUOUS
  62
7
  10
 126.86635449362
  20
 230.54545873277
  30
0.0
  11
 126.86635449362
  21
 229.34545873277
  31
0.0
   0
LINE
   5
3C5
 100
AcDbEntity
   8
LEVEL001
 100
AcDbLine
   6
DOT
  62
1
  10
 128.81635449362
  20
 230.54545873277
  30
0.0
  11
 128.81635449362
  21
 229.34545873277
  31
0.0
   0
LINE
   5
3C6
 100
AcDbEntity
   8
LEVEL001
 100
AcDbLine
   6
DOT
  62
1
  10
 133.91635449362
  20
 230.54545873277
  30
0.0
  11
 133.91635449362
  21
 229.34545873277
  31
0.0
   0
LINE
   5
3C7
 100
AcDbEntity
   8
LEVEL001
 100
AcDbLine
   6
CONTINUOUS
  62
7
  10
 147.86635449362
  20
 230.54545873277
  30
0.0
  11
 147.86635449362
  21
 229.34545873277
  31
0.0
   0
LINE
   5
3C8
 100
AcDbEntity
   8
LEVEL001
 100
AcDbLine
   6
CONTINUOUS
  62
7
  10
 126.86635449362
  20
 230.54545873277
  30
0.0
  11
 147.86635449362
  21
 230.54545873277
  31
0.0
   0
LINE
   5
3C9
 100
AcDbEntity
   8
LEVEL001
 100
AcDbLine
   6
CONTINUOUS
  62
7
  10
 126.86635449362
  20
 223.24545873277
  30
0.0
  11
 126.86635449362
  21
 222.04545873277
  31
0.0
   0
LINE
   5
3CA
 100
AcDbEntity
   8
LEVEL001
 100
AcDbLine
   6
DOT
  62
1
  10
 128.81635449362
  20
 223.24545873277
  30
0.0
  11
 128.81635449362
  21
 222.04545873277
  31
0.0
   0
LINE
   5
3CB
 100
AcDbEntity
   8
LEVEL001
 100
AcDbLine
   6
DOT
  62
1
  10
 133.91635449362
  20
 223.24545873277
  30
0.0
  11
 133.91635449362
  21
 222.04545873277
  31
0.0
   0
LINE
   5
3CC
 100
AcDbEntity
   8
LEVEL001
 100
AcDbLine
   6
CONTINUOUS
  62
7
  10
 147.86635449362
  20
 223.24545873277
  30
0.0
  11
 147.86635449362
  21
 222.04545873277
  31
0.0
   0
LINE
   5
3CD
 100
AcDbEntity
   8
LEVEL001
 100
AcDbLine
   6
CONTINUOUS
  62
7
  10
 126.86635449362
  20
 222.04545873277
  30
0.0
  11
 147.86635449362
  21
 222.04545873277
  31
0.0
   0
LINE
   5
3CE
 100
AcDbEntity
   8
LEVEL001
 100
AcDbLine
   6
CONTINUOUS
  62
15
  10
 131.86635449362
  20
 230.78461408617
  30
0.0
  11
 131.86635449362
  21
 231.16859940384
  31
0.0
   0
LINE
   5
3CF
 100
AcDbEntity
   8
LEVEL001
 100
AcDbLine
   6
CONTINUOUS
  62
15
  10
 131.86635449362
  20
 221.42231806170
  30
0.0
  11
 131.86635449362
  21
 221.81180854039
  31
0.0
   0
LINE
   5
3D0
 100
AcDbEntity
   8
LEVEL001
 100
AcDbLine
   6
CONTINUOUS
  62
15
  10
 141.66635449362
  20
 230.77962087218
  30
0.0
  11
 141.66635449362
  21
 231.16859940384
  31
0.0
   0
LINE
   5
3D1
 100
AcDbEntity
   8
LEVEL001
 100
AcDbLine
   6
CONTINUOUS
  62
15
  10
 141.66635449362
  20
 221.42231806170
  30
0.0
  11
 141.66635449362
  21
 221.85175425233
  31
0.0
   0
LINE
   5
3D2
 100
AcDbEntity
   8
LEVEL001
 100
AcDbLine
   6
CONTINUOUS
  62
7
  10
 145.25573539202
  20
 223.24545873277
  30
0.0
  11
 147.86635449362
  21
 223.24545873277
  31
0.0
   0
LINE
   5
3D3
 100
AcDbEntity
   8
LEVEL001
 100
AcDbLine
   6
CONTINUOUS
  62
7
  10
 145.22521212980
  20
 229.34545873277
  30
0.0
  11
 147.86635449362
  21
 229.34545873277
  31
0.0
   0
LINE
   5
3D4
 100
AcDbEntity
   8
LEVEL001
 100
AcDbLine
   6
DASHDOT
  62
3
  10
 131.36635449362
  20
 216.84999187792
  30
0.0
  11
 131.36635449362
  21
 236.13784313423
  31
0.0
   0
LINE
   5
3D5
 100
AcDbEntity
   8
LEVEL001
 100
AcDbLine
   6
CONTINUOUS
  62
15
  10
 143.66635449362
  20
 220.04545873277
  30
0.0
  11
 143.66635449362
  21
 221.76686961445
  31
0.0
   0
LINE
   5
3D6
 100
AcDbEntity
   8
LEVEL001
 100
AcDbLine
   6
CONTINUOUS
  62
15
  10
 145.66635449362
  20
 220.04545873277
  30
0.0
  11
 145.66635449362
  21
 221.76686961445
  31
0.0
   0
LINE
   5
3D7
 100
AcDbEntity
   8
LEVEL001
 100
AcDbLine
   6
CONTINUOUS
  62
15
  10
 122.96635449362
  20
 220.04545873277
  30
0.0
  11
 122.96635449362
  21
 221.33968199734
  31
0.0
   0
LINE
   5
3D8
 100
AcDbEntity
   8
LEVEL001
 100
AcDbLine
   6
CONTINUOUS
  62
15
  10
 122.96635449362
  20
 230.96425821300
  30
0.0
  11
 122.96635449362
  21
 232.54545873277
  31
0.0
   0
LINE
   5
3D9
 100
AcDbEntity
   8
LEVEL001
 100
AcDbLine
   6
CONTINUOUS
  62
15
  10
 143.66635449362
  20
 230.74518729250
  30
0.0
  11
 143.66635449362
  21
 232.54545873277
  31
0.0
   0
LINE
   5
3DA
 100
AcDbEntity
   8
LEVEL001
 100
AcDbLine
   6
CONTINUOUS
  62
15
  10
 145.66635449362
  20
 230.74518729250
  30
0.0
  11
 145.66635449362
  21
 232.54545873277
  31
0.0
   0
LINE
   5
3DB
 100
AcDbEntity
   8
LEVEL001
 100
AcDbLine
   6
CONTINUOUS
  62
7
  10
 149.36635449362
  20
 220.04545873277
  30
0.0
  11
 149.36635449362
  21
 232.54545873277
  31
0.0
   0
LINE
   5
3DC
 100
AcDbEntity
   8
LEVEL001
 100
AcDbLine
   6
DOT
  62
1
  10
 128.76635449362
  20
 219.04545873277
  30
0.0
  11
 128.76635449362
  21
 220.04545873277
  31
0.0
   0
LINE
   5
3DD
 100
AcDbEntity
   8
LEVEL001
 100
AcDbLine
   6
DOT
  62
1
  10
 133.96635449362
  20
 219.04545873277
  30
0.0
  11
 133.96635449362
  21
 220.04545873277
  31
0.0
   0
LINE
   5
3DE
 100
AcDbEntity
   8
LEVEL001
 100
AcDbLine
   6
DOT
  62
1
  10
 129.26635449362
  20
 233.54545873277
  30
0.0
  11
 133.46635449362
  21
 233.54545873277
  31
0.0
   0
LINE
   5
3DF
 100
AcDbEntity
   8
LEVEL001
 100
AcDbLine
   6
DOT
  62
1
  10
 129.26635449362
  20
 232.54545873277
  30
0.0
  11
 129.26635449362
  21
 233.54545873277
  31
0.0
   0
LINE
   5
3E0
 100
AcDbEntity
   8
LEVEL001
 100
AcDbLine
   6
DOT
  62
1
  10
 133.46635449362
  20
 232.54545873277
  30
0.0
  11
 133.46635449362
  21
 233.54545873277
  31
0.0
   0
LINE
   5
3E1
 100
AcDbEntity
   8
LEVEL001
 100
AcDbLine
   6
DOT
  62
1
  10
 129.26635449362
  20
 233.54545873277
  30
0.0
  11
 128.51635449362
  21
 234.29545873277
  31
0.0
   0
LINE
   5
3E2
 100
AcDbEntity
   8
LEVEL001
 100
AcDbLine
   6
DOT
  62
1
  10
 133.46635449362
  20
 233.54545873277
  30
0.0
  11
 134.21635449362
  21
 234.29545873277
  31
0.0
   0
CIRCLE
   5
3E3
 100
AcDbEntity
   8
LEVEL001
 100
AcDbCircle
   6
CONTINUOUS
  62
7
  10
 143.25087585307
  20
 226.29545873277
  30
0.0
  40
 1.2500000000000
   0
CIRCLE
   5
3E4
 100
AcDbEntity
   8
LEVEL001
 100
AcDbCircle
   6
CONTINUOUS
  62
7
  10
 143.25087585307
  20
 226.29545873277
  30
0.0
  40
 3.0000000000000
   0
CIRCLE
   5
3E5
 100
AcDbEntity
   8
LEVEL001
 100
AcDbCircle
   6
CONTINUOUS
  62
7
  10
 143.25087585307
  20
 226.29545873277
  30
0.0
  40
 2.5000000000000
   0
ARC
   5
3E6
 100
AcDbEntity
   8
LEVEL001
   6
CONTINUOUS
  62
15
 100
AcDbCircle
  10
 142.15087585307
  20
 226.29545873277
  30
0.0
  40
 3.5000000000000
 100
AcDbArc
  50
 122.55693183745
  51
 237.44306816255
   0
ARC
   5
3E7
 100
AcDbEntity
   8
LEVEL001
   6
CONTINUOUS
  62
15
 100
AcDbCircle
  10
 144.35087585307
  20
 226.29545873277
  30
0.0
  40
 3.5000000000000
 100
AcDbArc
  50
 302.55693183746
  51
 57.443068162543
   0
CIRCLE
   5
3E8
 100
AcDbEntity
   8
LEVEL001
 100
AcDbCircle
   6
CONTINUOUS
  62
15
  10
 143.25087585307
  20
 226.29545873277
  30
0.0
  40
 4.0000000000000
   0
LINE
   5
3E9
 100
AcDbEntity
   8
LEVEL001
 100
AcDbLine
   6
DOT
  62
1
  10
 140.25087585307
  20
 230.54545873277
  30
0.0
  11
 141.20087585307
  21
 229.59545873277
  31
0.0
   0
LINE
   5
3EA
 100
AcDbEntity
   8
LEVEL001
 100
AcDbLine
   6
DOT
  62
1
  10
 141.20087585307
  20
 229.34545873277
  30
0.0
  11
 141.20087585307
  21
 229.59545873277
  31
0.0
   0
LINE
   5
3EB
 100
AcDbEntity
   8
LEVEL001
 100
AcDbLine
   6
DOT
  62
1
  10
 145.30087585307
  20
 229.34545873277
  30
0.0
  11
 145.30087585307
  21
 229.59545873277
  31
0.0
   0
LINE
   5
3EC
 100
AcDbEntity
   8
LEVEL001
 100
AcDbLine
   6
DOT
  62
1
  10
 146.25087585307
  20
 230.54545873277
  30
0.0
  11
 145.30087585307
  21
 229.59545873277
  31
0.0
   0
LINE
   5
3ED
 100
AcDbEntity
   8
LEVEL001
 100
AcDbLine
   6
DOT
  62
1
  10
 141.20087585307
  20
 229.59545873277
  30
0.0
  11
 145.30087585307
  21
 229.59545873277
  31
0.0
   0
LINE
   5
3EE
 100
AcDbEntity
   8
LEVEL001
 100
AcDbLine
   6
DOT
  62
1
  10
 140.75087585307
  20
 222.04545873277
  30
0.0
  11
 141.65087585307
  21
 222.94545873277
  31
0.0
   0
LINE
   5
3EF
 100
AcDbEntity
   8
LEVEL001
 100
AcDbLine
   6
DOT
  62
1
  10
 141.65087585307
  20
 222.94545873277
  30
0.0
  11
 141.65087585307
  21
 223.24545873277
  31
0.0
   0
LINE
   5
3F0
 100
AcDbEntity
   8
LEVEL001
 100
AcDbLine
   6
DOT
  62
1
  10
 144.85087585307
  20
 222.94545873277
  30
0.0
  11
 144.85087585307
  21
 223.24545873277
  31
0.0
   0
LINE
   5
3F1
 100
AcDbEntity
   8
LEVEL001
 100
AcDbLine
   6
DOT
  62
1
  10
 145.75087585307
  20
 222.04545873277
  30
0.0
  11
 144.85087585307
  21
 222.94545873277
  31
0.0
   0
LINE
   5
3F2
 100
AcDbEntity
   8
LEVEL001
 100
AcDbLine
   6
DOT
  62
1
  10
 141.65087585307
  20
 222.94545873277
  30
0.0
  11
 144.85087585307
  21
 222.94545873277
  31
0.0
   0
LINE
   5
3F3
 100
AcDbEntity
   8
LEVEL001
 100
AcDbLine
   6
DOT
  62
1
  10
 127.76635449362
  20
 218.29545873277
  30
0.0
  11
 127.76635449362
  21
 219.04545873277
  31
0.0
   0
LINE
   5
3F4
 100
AcDbEntity
   8
LEVEL001
 100
AcDbLine
   6
DOT
  62
1
  10
 134.96635449362
  20
 218.29545873277
  30
0.0
  11
 134.96635449362
  21
 219.04545873277
  31
0.0
   0
LINE
   5
3F5
 100
AcDbEntity
   8
LEVEL001
 100
AcDbLine
   6
DOT
  62
1
  10
 127.76635449362
  20
 219.04545873277
  30
0.0
  11
 134.96635449362
  21
 219.04545873277
  31
0.0
   0
ARC
   5
3F6
 100
AcDbEntity
   8
LEVEL001
   6
DIVIDE
  62
3
 100
AcDbCircle
  10
 143.25087585307
  20
 226.29545873277
  30
0.0
  40
 5.5000000000000
 100
AcDbArc
  50
 54.903198772417
  51
 125.09680122759
   0
ARC
   5
3F7
 100
AcDbEntity
   8
LEVEL001
   6
DIVIDE
  62
3
 100
AcDbCircle
  10
 143.25087585307
  20
 226.29545873277
  30
0.0
  40
 5.5000000000000
 100
AcDbArc
  50
 234.90319877241
  51
 305.09680122758
   0
LINE
   5
3F8
 100
AcDbEntity
   8
LEVEL001
 100
AcDbLine
   6
CONTINUOUS
  62
7
  10
 114.96635449362
  20
 232.09545873277
  30
0.0
  11
 115.96635449362
  21
 232.09545873277
  31
0.0
   0
LINE
   5
3F9
 100
AcDbEntity
   8
LEVEL001
 100
AcDbLine
   6
CONTINUOUS
  62
15
  10
 115.96635449362
  20
 229.58429111981
  30
0.0
  11
 115.96635449362
  21
 232.09545873277
  31
0.0
   0
LINE
   5
3FA
 100
AcDbEntity
   8
LEVEL001
 100
AcDbLine
   6
CONTINUOUS
  62
15
  10
 115.96635449362
  20
 220.49545873277
  30
0.0
  11
 115.96635449362
  21
 222.90167818506
  31
0.0
   0
LINE
   5
3FB
 100
AcDbEntity
   8
LEVEL001
 100
AcDbLine
   6
CONTINUOUS
  62
7
  10
 114.96635449362
  20
 220.49545873277
  30
0.0
  11
 115.96635449362
  21
 220.49545873277
  31
0.0
   0
LINE
   5
3FC
 100
AcDbEntity
   8
LEVEL001
 100
AcDbLine
   6
CONTINUOUS
  62
7
  10
 114.96635449362
  20
 231.29545873277
  30
0.0
  11
 114.96635449362
  21
 232.09545873277
  31
0.0
   0
LINE
   5
3FD
 100
AcDbEntity
   8
LEVEL001
 100
AcDbLine
   6
CONTINUOUS
  62
7
  10
 114.96635449362
  20
 220.49545873277
  30
0.0
  11
 114.96635449362
  21
 221.29545873277
  31
0.0
   0
LINE
   5
3FE
 100
AcDbEntity
   8
LEVEL001
 100
AcDbLine
   6
CONTINUOUS
  62
7
  10
 115.96635449362
  20
 232.09545873277
  30
0.0
  11
 115.96635449362
  21
 232.99545873277
  31
0.0
   0
LINE
   5
3FF
 100
AcDbEntity
   8
LEVEL001
 100
AcDbLine
   6
CONTINUOUS
  62
7
  10
 115.96635449362
  20
 220.49545873277
  30
0.0
  11
 115.96635449362
  21
 219.59545873277
  31
0.0
   0
LINE
   5
400
 100
AcDbEntity
   8
LEVEL001
 100
AcDbLine
   6
CONTINUOUS
  62
7
  10
 112.36635449362
  20
 234.29545873277
  30
0.0
  11
 150.86635449362
  21
 234.29545873277
  31
0.0
   0
ARC
   5
401
 100
AcDbEntity
   8
LEVEL001
   6
CONTINUOUS
  62
7
 100
AcDbCircle
  10
 150.86635449362
  20
 233.79545873277
  30
0.0
  40
 0.50000000000000
 100
AcDbArc
  50
0.0
  51
 90.000000000000
   0
POINT
   5
402
 100
AcDbEntity
   8
LEVEL001
 100
AcDbPoint
  62
7
  10
 151.36635449362
  20
 234.29545873277
  30
0.0
   0
LINE
   5
403
 100
AcDbEntity
   8
LEVEL001
 100
AcDbLine
   6
CONTINUOUS
  62
7
  10
 151.36635449362
  20
 218.79545873277
  30
0.0
  11
 151.36635449362
  21
 233.79545873277
  31
0.0
   0
ARC
   5
404
 100
AcDbEntity
   8
LEVEL001
   6
CONTINUOUS
  62
7
 100
AcDbCircle
  10
 150.86635449361
  20
 218.79545873277
  30
0.0
  40
 0.50000000000000
 100
AcDbArc
  50
 270.00000000033
  51
0.0
   0
POINT
   5
405
 100
AcDbEntity
   8
LEVEL001
 100
AcDbPoint
  62
7
  10
 151.36635449362
  20
 218.29545873277
  30
0.0
   0
LINE
   5
406
 100
AcDbEntity
   8
LEVEL001
 100
AcDbLine
   6
CONTINUOUS
  62
7
  10
 112.36635449362
  20
 218.29545873277
  30
0.0
  11
 150.86635449362
  21
 218.29545873277
  31
0.0
   0
LINE
   5
407
 100
AcDbEntity
   8
LEVEL001
 100
AcDbLine
   6
CONTINUOUS
  62
15
  10
 119.46635449362
  20
 222.04545873277
  30
0.0
  11
 126.46635449362
  21
 222.04545873277
  31
0.0
   0
LINE
   5
408
 100
AcDbEntity
   8
LEVEL001
 100
AcDbLine
   6
CONTINUOUS
  62
15
  10
 119.46635449362
  20
 222.04545873277
  30
0.0
  11
 119.46635449362
  21
 223.29545873277
  31
0.0
   0
LINE
   5
409
 100
AcDbEntity
   8
LEVEL001
 100
AcDbLine
   6
CONTINUOUS
  62
15
  10
 126.46635449362
  20
 222.04545873277
  30
0.0
  11
 126.46635449362
  21
 223.29545873277
  31
0.0
   0
LINE
   5
40A
 100
AcDbEntity
   8
LEVEL001
 100
AcDbLine
   6
CONTINUOUS
  62
15
  10
 119.46635449362
  20
 230.54545873277
  30
0.0
  11
 126.46635449362
  21
 230.54545873277
  31
0.0
   0
LINE
   5
40B
 100
AcDbEntity
   8
LEVEL001
 100
AcDbLine
   6
CONTINUOUS
  62
15
  10
 126.46635449362
  20
 229.29545873277
  30
0.0
  11
 126.46635449362
  21
 230.54545873277
  31
0.0
   0
LINE
   5
40C
 100
AcDbEntity
   8
LEVEL001
 100
AcDbLine
   6
CONTINUOUS
  62
15
  10
 119.46635449362
  20
 229.29545873277
  30
0.0
  11
 119.46635449362
  21
 230.54545873277
  31
0.0
   0
LINE
   5
40D
 100
AcDbEntity
   8
LEVEL001
 100
AcDbLine
   6
DASHDOT
  62
3
  10
 133.25087585307
  20
 240.60446074076
  30
0.0
  11
 133.25087585307
  21
 234.61961389666
  31
0.0
   0
LINE
   5
40E
 100
AcDbEntity
   8
LEVEL001
 100
AcDbLine
   6
DIVIDE
  62
3
  10
 140.45087585307
  20
 237.79545873277
  30
0.0
  11
 126.05087585307
  21
 237.79545873277
  31
0.0
   0
ARC
   5
40F
 100
AcDbEntity
   8
LEVEL001
   6
DIVIDE
  62
3
 100
AcDbCircle
  10
 136.45087585307
  20
 234.79545873277
  30
0.0
  40
 5.0000000000000
 100
AcDbArc
  50
 2.5048865592567
  51
 36.869897645854
   0
ARC
   5
410
 100
AcDbEntity
   8
LEVEL001
   6
DIVIDE
  62
3
 100
AcDbCircle
  10
 130.05087585307
  20
 234.79545873277
  30
0.0
  40
 5.0000000000000
 100
AcDbArc
  50
 143.13010235417
  51
 176.15020202203
   0
LINE
   5
411
 100
AcDbEntity
   8
LEVEL001
 100
AcDbLine
   6
DASHDOT
  62
3
  10
 133.25087585307
  20
 218.82980520160
  30
0.0
  11
 133.25087585307
  21
 212.52661544027
  31
0.0
   0
ARC
   5
412
 100
AcDbEntity
   8
LEVEL001
   6
DIVIDE
  62
3
 100
AcDbCircle
  10
 137.25087585307
  20
 217.79545873277
  30
0.0
  40
 5.0000000000000
 100
AcDbArc
  50
 323.13010235415
  51
 357.45164424254
   0
LINE
   5
413
 100
AcDbEntity
   8
LEVEL001
 100
AcDbLine
   6
DIVIDE
  62
3
  10
 141.25087585307
  20
 214.79545873277
  30
0.0
  11
 126.05087585307
  21
 214.79545873277
  31
0.0
   0
ARC
   5
414
 100
AcDbEntity
   8
LEVEL001
   6
DIVIDE
  62
3
 100
AcDbCircle
  10
 130.05087585307
  20
 217.79545873277
  30
0.0
  40
 5.0000000000000
 100
AcDbArc
  50
 182.71998575922
  51
 216.86989764582
   0
LINE
   5
415
 100
AcDbEntity
   8
LEVEL001
 100
AcDbLine
   6
DIVIDE
  62
3
  10
 129.95087585307
  20
 232.49545873277
  30
0.0
  11
 130.25087585307
  21
 232.79545873277
  31
0.0
   0
LINE
   5
416
 100
AcDbEntity
   8
LEVEL001
 100
AcDbLine
   6
DIVIDE
  62
3
  10
 136.25087585307
  20
 232.79545873277
  30
0.0
  11
 130.25087585307
  21
 232.79545873277
  31
0.0
   0
LINE
   5
417
 100
AcDbEntity
   8
LEVEL001
 100
AcDbLine
   6
DIVIDE
  62
3
  10
 129.95087585307
  20
 230.79545873277
  30
0.0
  11
 129.95087585307
  21
 232.49545873277
  31
0.0
   0
LINE
   5
418
 100
AcDbEntity
   8
LEVEL001
 100
AcDbLine
   6
DIVIDE
  62
3
  10
 136.55087585307
  20
 232.49545873277
  30
0.0
  11
 136.25087585307
  21
 232.79545873277
  31
0.0
   0
LINE
   5
419
 100
AcDbEntity
   8
LEVEL001
 100
AcDbLine
   6
DIVIDE
  62
3
  10
 136.55087585307
  20
 220.09545873277
  30
0.0
  11
 136.25087585307
  21
 219.79545873277
  31
0.0
   0
LINE
   5
41A
 100
AcDbEntity
   8
LEVEL001
 100
AcDbLine
   6
DIVIDE
  62
3
  10
 136.25087585307
  20
 219.79545873277
  30
0.0
  11
 130.25087585307
  21
 219.79545873277
  31
0.0
   0
LINE
   5
41B
 100
AcDbEntity
   8
LEVEL001
 100
AcDbLine
   6
DIVIDE
  62
3
  10
 129.95087585307
  20
 220.09545873277
  30
0.0
  11
 130.25087585307
  21
 219.79545873277
  31
0.0
   0
LINE
   5
41C
 100
AcDbEntity
   8
LEVEL001
 100
AcDbLine
   6
DIVIDE
  62
3
  10
 136.55087585307
  20
 230.79545873277
  30
0.0
  11
 136.55087585307
  21
 232.49545873277
  31
0.0
   0
LINE
   5
41D
 100
AcDbEntity
   8
LEVEL001
 100
AcDbLine
   6
DIVIDE
  62
3
  10
 136.55087585307
  20
 221.79545873277
  30
0.0
  11
 136.55087585307
  21
 220.09545873277
  31
0.0
   0
LINE
   5
41E
 100
AcDbEntity
   8
LEVEL001
 100
AcDbLine
   6
DIVIDE
  62
3
  10
 129.95087585307
  20
 221.79545873277
  30
0.0
  11
 129.95087585307
  21
 220.09545873277
  31
0.0
   0
LINE
   5
41F
 100
AcDbEntity
   8
LEVEL001
 100
AcDbLine
   6
DIVIDE
  62
3
  10
 136.55087585307
  20
 230.79545873277
  30
0.0
  11
 140.08859819290
  21
 230.79545873277
  31
0.0
   0
LINE
   5
420
 100
AcDbEntity
   8
LEVEL001
 100
AcDbLine
   6
DIVIDE
  62
3
  10
 136.55087585307
  20
 221.79545873277
  30
0.0
  11
 140.08859819290
  21
 221.79545873277
  31
0.0
   0
LINE
   5
421
 100
AcDbEntity
   8
LEVEL001
 100
AcDbLine
   6
DIVIDE
  62
3
  10
 124.25087585307
  20
 230.79545873277
  30
0.0
  11
 124.25087585307
  21
 221.79545873277
  31
0.0
   0
LINE
   5
422
 100
AcDbEntity
   8
LEVEL001
 100
AcDbLine
   6
DIVIDE
  62
3
  10
 124.25087585307
  20
 230.79545873277
  30
0.0
  11
 129.95087585307
  21
 230.79545873277
  31
0.0
   0
LINE
   5
423
 100
AcDbEntity
   8
LEVEL001
 100
AcDbLine
   6
DIVIDE
  62
3
  10
 124.25087585307
  20
 221.79545873277
  30
0.0
  11
 129.95087585307
  21
 221.79545873277
  31
0.0
   0
LINE
   5
424
 100
AcDbEntity
   8
LEVEL001
 100
AcDbLine
   6
DASHDOT
  62
3
  10
 153.25087585307
  20
 241.36848374213
  30
0.0
  11
 153.25087585307
  21
 234.23760239597
  31
0.0
   0
ARC
   5
425
 100
AcDbEntity
   8
LEVEL001
   6
DIVIDE
  62
3
 100
AcDbCircle
  10
 150.05087585307
  20
 234.79545873277
  30
0.0
  40
 5.0000000000000
 100
AcDbArc
  50
 143.13010235419
  51
 177.38326396982
   0
ARC
   5
426
 100
AcDbEntity
   8
LEVEL001
   6
DIVIDE
  62
3
 100
AcDbCircle
  10
 156.45087585307
  20
 234.79545873277
  30
0.0
  40
 5.0000000000000
 100
AcDbArc
  50
 323.13010235417
  51
 36.869897645849
   0
LINE
   5
427
 100
AcDbEntity
   8
LEVEL001
 100
AcDbLine
   6
DIVIDE
  62
3
  10
 160.45087585307
  20
 237.79545873277
  30
0.0
  11
 146.05087585307
  21
 237.79545873277
  31
0.0
   0
LINE
   5
428
 100
AcDbEntity
   8
LEVEL001
 100
AcDbLine
   6
DIVIDE
  62
3
  10
 160.45087585307
  20
 231.79545873277
  30
0.0
  11
 159.04684690036
  21
 231.79545873277
  31
0.0
   0
ARC
   5
429
 100
AcDbEntity
   8
LEVEL001
   6
DIVIDE
  62
3
 100
AcDbCircle
  10
 156.45087585307
  20
 217.79545873277
  30
0.0
  40
 5.0000000000000
 100
AcDbArc
  50
 323.13010235415
  51
 36.869897645822
   0
LINE
   5
42A
 100
AcDbEntity
   8
LEVEL001
 100
AcDbLine
   6
DIVIDE
  62
3
  10
 160.45087585307
  20
 220.79545873277
  30
0.0
  11
 159.18453331067
  21
 220.79545873277
  31
0.0
   0
LINE
   5
42B
 100
AcDbEntity
   8
LEVEL001
 100
AcDbLine
   6
DIVIDE
  62
3
  10
 160.45087585307
  20
 214.79545873277
  30
0.0
  11
 146.05087585307
  21
 214.79545873277
  31
0.0
   0
LINE
   5
42C
 100
AcDbEntity
   8
LEVEL001
 100
AcDbLine
   6
DASHDOT
  62
3
  10
 153.25087585307
  20
 218.70246803471
  30
0.0
  11
 153.25087585307
  21
 212.08093535613
  31
0.0
   0
ARC
   5
42D
 100
AcDbEntity
   8
LEVEL001
   6
DIVIDE
  62
3
 100
AcDbCircle
  10
 150.05087585307
  20
 217.79545873277
  30
0.0
  40
 5.0000000000000
 100
AcDbArc
  50
 185.38263815662
  51
 216.86989764581
   0
LINE
   5
42E
 100
AcDbEntity
   8
LEVEL001
 100
AcDbLine
   6
DIVIDE
  62
3
  10
 149.95087585307
  20
 232.49545873277
  30
0.0
  11
 150.25087585307
  21
 232.79545873277
  31
0.0
   0
LINE
   5
42F
 100
AcDbEntity
   8
LEVEL001
 100
AcDbLine
   6
DIVIDE
  62
3
  10
 149.95087585307
  20
 230.79545873277
  30
0.0
  11
 149.95087585307
  21
 232.49545873277
  31
0.0
   0
LINE
   5
430
 100
AcDbEntity
   8
LEVEL001
 100
AcDbLine
   6
CONTINUOUS
  62
7
  10
 155.75087585307
  20
 231.29545873277
  30
0.0
  11
 155.75087585307
  21
 230.79545873277
  31
0.0
   0
LINE
   5
431
 100
AcDbEntity
   8
LEVEL001
 100
AcDbLine
   6
CONTINUOUS
  62
7
  10
 156.55087585307
  20
 232.49545873277
  30
0.0
  11
 156.25087585307
  21
 232.79545873277
  31
0.0
   0
LINE
   5
432
 100
AcDbEntity
   8
LEVEL001
 100
AcDbLine
   6
CONTINUOUS
  62
7
  10
 156.55087585307
  20
 230.79545873277
  30
0.0
  11
 156.55087585307
  21
 232.49545873277
  31
0.0
   0
LINE
   5
433
 100
AcDbEntity
   8
LEVEL001
 100
AcDbLine
   6
CONTINUOUS
  62
7
  10
 155.75087585307
  20
 221.29545873277
  30
0.0
  11
 155.75087585307
  21
 221.79545873277
  31
0.0
   0
LINE
   5
434
 100
AcDbEntity
   8
LEVEL001
 100
AcDbLine
   6
CONTINUOUS
  62
7
  10
 156.55087585307
  20
 221.79545873277
  30
0.0
  11
 156.55087585307
  21
 220.09545873277
  31
0.0
   0
LINE
   5
435
 100
AcDbEntity
   8
LEVEL001
 100
AcDbLine
   6
CONTINUOUS
  62
7
  10
 156.55087585307
  20
 220.09545873277
  30
0.0
  11
 156.25087585307
  21
 219.79545873277
  31
0.0
   0
LINE
   5
436
 100
AcDbEntity
   8
LEVEL001
 100
AcDbLine
   6
DIVIDE
  62
3
  10
 149.95087585307
  20
 220.09545873277
  30
0.0
  11
 150.25087585307
  21
 219.79545873277
  31
0.0
   0
LINE
   5
437
 100
AcDbEntity
   8
LEVEL001
 100
AcDbLine
   6
DIVIDE
  62
3
  10
 149.95087585307
  20
 221.79545873277
  30
0.0
  11
 149.95087585307
  21
 220.09545873277
  31
0.0
   0
LINE
   5
438
 100
AcDbEntity
   8
LEVEL001
 100
AcDbLine
   6
DIVIDE
  62
3
  10
 146.41315351324
  20
 230.79545873277
  30
0.0
  11
 149.95087585307
  21
 230.79545873277
  31
0.0
   0
LINE
   5
439
 100
AcDbEntity
   8
LEVEL001
 100
AcDbLine
   6
DIVIDE
  62
3
  10
 146.41315351324
  20
 221.79545873277
  30
0.0
  11
 149.95087585307
  21
 221.79545873277
  31
0.0
   0
LINE
   5
43A
 100
AcDbEntity
   8
LEVEL001
 100
AcDbLine
   6
DIVIDE
  62
3
  10
 151.97248908893
  20
 232.79545873277
  30
0.0
  11
 150.25087585307
  21
 232.79545873277
  31
0.0
   0
LINE
   5
43B
 100
AcDbEntity
   8
LEVEL001
 100
AcDbLine
   6
CONTINUOUS
  62
7
  10
 155.75087585307
  20
 231.29545873277
  30
0.0
  11
 152.33189990403
  21
 231.29545873277
  31
0.0
   0
LINE
   5
43C
 100
AcDbEntity
   8
LEVEL001
 100
AcDbLine
   6
CONTINUOUS
  62
7
  10
 156.25087585307
  20
 232.79545873277
  30
0.0
  11
 152.33189990403
  21
 232.79545873277
  31
0.0
   0
LINE
   5
43D
 100
AcDbEntity
   8
LEVEL001
 100
AcDbLine
   6
CONTINUOUS
  62
7
  10
 155.75087585307
  20
 221.29545873277
  30
0.0
  11
 152.33189990403
  21
 221.29545873277
  31
0.0
   0
LINE
   5
43E
 100
AcDbEntity
   8
LEVEL001
 100
AcDbLine
   6
CONTINUOUS
  62
7
  10
 156.25087585307
  20
 219.79545873277
  30
0.0
  11
 152.33189990403
  21
 219.79545873277
  31
0.0
   0
LINE
   5
43F
 100
AcDbEntity
   8
LEVEL001
 100
AcDbLine
   6
DIVIDE
  62
3
  10
 151.97248908893
  20
 219.79545873277
  30
0.0
  11
 150.25087585307
  21
 219.79545873277
  31
0.0
   0
LINE
   5
440
 100
AcDbEntity
   8
LEVEL001
 100
AcDbLine
   6
DASHDOT
  62
3
  10
 108.06907813585
  20
 226.29545873277
  30
0.0
  11
 178.21410154086
  21
 226.29545873277
  31
0.0
   0
LINE
   5
441
 100
AcDbEntity
   8
LEVEL001
 100
AcDbLine
   6
CONTINUOUS
  62
7
  10
 155.75087585307
  20
 230.79545873277
  30
0.0
  11
 162.75087585307
  21
 230.79545873277
  31
0.0
   0
POINT
   5
442
 100
AcDbEntity
   8
LEVEL001
 100
AcDbPoint
  62
15
  10
 162.75087585307
  20
 230.79545873277
  30
0.0
   0
LINE
   5
443
 100
AcDbEntity
   8
LEVEL001
 100
AcDbLine
   6
CONTINUOUS
  62
15
  10
 171.75087585307
  20
 233.29545873277
  30
0.0
  11
 171.75087585307
  21
 219.29545873277
  31
0.0
   0
LINE
   5
444
 100
AcDbEntity
   8
LEVEL001
 100
AcDbLine
   6
CONTINUOUS
  62
7
  10
 162.75087585307
  20
 230.79545873277
  30
0.0
  11
 162.75087585307
  21
 221.79545873277
  31
0.0
   0
LINE
   5
445
 100
AcDbEntity
   8
LEVEL001
 100
AcDbLine
   6
CONTINUOUS
  62
7
  10
 162.75087585307
  20
 233.29545873277
  30
0.0
  11
 171.75087585307
  21
 233.29545873277
  31
0.0
   0
LINE
   5
446
 100
AcDbEntity
   8
LEVEL001
 100
AcDbLine
   6
CONTINUOUS
  62
15
  10
 162.75087585307
  20
 233.29545873277
  30
0.0
  11
 162.75087585307
  21
 231.79545873277
  31
0.0
   0
LINE
   5
447
 100
AcDbEntity
   8
LEVEL001
 100
AcDbLine
   6
CONTINUOUS
  62
7
  10
 163.75087585307
  20
 237.29545873277
  30
0.0
  11
 163.75087585307
  21
 236.19545873277
  31
0.0
   0
LINE
   5
448
 100
AcDbEntity
   8
LEVEL001
 100
AcDbLine
   6
CONTINUOUS
  62
7
  10
 162.75087585307
  20
 237.29545873277
  30
0.0
  11
 163.75087585307
  21
 237.29545873277
  31
0.0
   0
LINE
   5
449
 100
AcDbEntity
   8
LEVEL001
 100
AcDbLine
   6
CONTINUOUS
  62
7
  10
 162.75087585307
  20
 233.29545873277
  30
0.0
  11
 162.75087585307
  21
 237.29545873277
  31
0.0
   0
POINT
   5
44A
 100
AcDbEntity
   8
LEVEL001
 100
AcDbPoint
  62
15
  10
 162.75087585307
  20
 221.79545873277
  30
0.0
   0
LINE
   5
44B
 100
AcDbEntity
   8
LEVEL001
 100
AcDbLine
   6
CONTINUOUS
  62
7
  10
 162.75087585307
  20
 219.29545873277
  30
0.0
  11
 171.75087585307
  21
 219.29545873277
  31
0.0
   0
LINE
   5
44C
 100
AcDbEntity
   8
LEVEL001
 100
AcDbLine
   6
CONTINUOUS
  62
15
  10
 162.75087585307
  20
 219.29545873277
  30
0.0
  11
 162.75087585307
  21
 220.79545873277
  31
0.0
   0
LINE
   5
44D
 100
AcDbEntity
   8
LEVEL001
 100
AcDbLine
   6
CONTINUOUS
  62
7
  10
 162.75087585307
  20
 215.29545873277
  30
0.0
  11
 163.75087585307
  21
 215.29545873277
  31
0.0
   0
LINE
   5
44E
 100
AcDbEntity
   8
LEVEL001
 100
AcDbLine
   6
CONTINUOUS
  62
7
  10
 163.75087585307
  20
 215.29545873277
  30
0.0
  11
 163.75087585307
  21
 216.39545873277
  31
0.0
   0
LINE
   5
44F
 100
AcDbEntity
   8
LEVEL001
 100
AcDbLine
   6
CONTINUOUS
  62
7
  10
 162.75087585307
  20
 215.29545873277
  30
0.0
  11
 162.75087585307
  21
 219.29545873277
  31
0.0
   0
LINE
   5
450
 100
AcDbEntity
   8
LEVEL001
 100
AcDbLine
   6
CONTINUOUS
  62
7
  10
 155.75087585307
  20
 221.79545873277
  30
0.0
  11
 162.75087585307
  21
 221.79545873277
  31
0.0
   0
LINE
   5
451
 100
AcDbEntity
   8
LEVEL001
 100
AcDbLine
   6
CONTINUOUS
  62
7
  10
 152.30419852868
  20
 229.29545873277
  30
0.0
  11
 162.75087585307
  21
 229.29545873277
  31
0.0
   0
LINE
   5
452
 100
AcDbEntity
   8
LEVEL001
 100
AcDbLine
   6
CONTINUOUS
  62
7
  10
 152.33189990403
  20
 223.29545873277
  30
0.0
  11
 162.75087585307
  21
 223.29545873277
  31
0.0
   0
ARC
   5
453
 100
AcDbEntity
   8
LEVEL001
   6
CONTINUOUS
  62
15
 100
AcDbCircle
  10
 161.75087585307
  20
 231.79545873277
  30
0.0
  40
 1.0000000000000
 100
AcDbArc
  50
 270.00000000008
  51
0.0
   0
ARC
   5
454
 100
AcDbEntity
   8
LEVEL001
   6
CONTINUOUS
  62
15
 100
AcDbCircle
  10
 161.75087585307
  20
 220.79545873277
  30
0.0
  40
 1.0000000000000
 100
AcDbArc
  50
0.0
  51
 89.999999999980
   0
LINE
   5
455
 100
AcDbEntity
   8
LEVEL001
 100
AcDbLine
   6
CONTINUOUS
  62
7
  10
 170.75087585307
  20
 236.19545873277
  30
0.0
  11
 163.75087585307
  21
 236.19545873277
  31
0.0
   0
ARC
   5
456
 100
AcDbEntity
   8
LEVEL001
   6
CONTINUOUS
  62
7
 100
AcDbCircle
  10
 170.75087585307
  20
 235.19545873276
  30
0.0
  40
 1.0000000000000
 100
AcDbArc
  50
 0.31591813540041E-9
  51
 90.000000000000
   0
POINT
   5
457
 100
AcDbEntity
   8
LEVEL001
 100
AcDbPoint
  62
7
  10
 171.75087585307
  20
 236.19545873277
  30
0.0
   0
LINE
   5
458
 100
AcDbEntity
   8
LEVEL001
 100
AcDbLine
   6
CONTINUOUS
  62
7
  10
 171.75087585307
  20
 235.19545873277
  30
0.0
  11
 171.75087585307
  21
 233.29545873277
  31
0.0
   0
LINE
   5
459
 100
AcDbEntity
   8
LEVEL001
 100
AcDbLine
   6
CONTINUOUS
  62
7
  10
 171.75087585307
  20
 219.29545873277
  30
0.0
  11
 171.75087585307
  21
 217.39545873277
  31
0.0
   0
ARC
   5
45A
 100
AcDbEntity
   8
LEVEL001
   6
CONTINUOUS
  62
7
 100
AcDbCircle
  10
 170.75087585307
  20
 217.39545873277
  30
0.0
  40
 1.0000000000000
 100
AcDbArc
  50
 269.99999999996
  51
0.0
   0
POINT
   5
45B
 100
AcDbEntity
   8
LEVEL001
 100
AcDbPoint
  62
7
  10
 171.75087585307
  20
 216.39545873277
  30
0.0
   0
LINE
   5
45C
 100
AcDbEntity
   8
LEVEL001
 100
AcDbLine
   6
CONTINUOUS
  62
7
  10
 170.75087585307
  20
 216.39545873277
  30
0.0
  11
 163.75087585307
  21
 216.39545873277
  31
0.0
   0
LINE
   5
45D
 100
AcDbEntity
   8
LEVEL001
 100
AcDbLine
   6
CONTINUOUS
  62
7
  10
 149.36635449362
  20
 220.04545873277
  30
0.0
  11
 124.96635449362
  21
 220.04545873277
  31
0.0
   0
LINE
   5
45E
 100
AcDbEntity
   8
LEVEL001
 100
AcDbLine
   6
CONTINUOUS
  62
7
  10
 149.36635449362
  20
 232.54545873277
  30
0.0
  11
 124.96635449362
  21
 232.54545873277
  31
0.0
   0
LINE
   5
45F
 100
AcDbEntity
   8
LEVEL001
 100
AcDbLine
   6
CONTINUOUS
  62
7
  10
 124.96635449362
  20
 232.54545873277
  30
0.0
  11
 124.96635449362
  21
 232.99545873277
  31
0.0
   0
LINE
   5
460
 100
AcDbEntity
   8
LEVEL001
 100
AcDbLine
   6
CONTINUOUS
  62
7
  10
 124.96635449362
  20
 232.99545873277
  30
0.0
  11
 115.96635449362
  21
 232.99545873277
  31
0.0
   0
LINE
   5
461
 100
AcDbEntity
   8
LEVEL001
 100
AcDbLine
   6
CONTINUOUS
  62
7
  10
 124.96635449362
  20
 220.04545873277
  30
0.0
  11
 124.96635449362
  21
 219.59545873277
  31
0.0
   0
LINE
   5
462
 100
AcDbEntity
   8
LEVEL001
 100
AcDbLine
   6
CONTINUOUS
  62
7
  10
 124.96635449362
  20
 219.59545873277
  30
0.0
  11
 115.96635449362
  21
 219.59545873277
  31
0.0
   0
LINE
   5
463
 100
AcDbEntity
   8
LEVEL001
 100
AcDbLine
   6
CONTINUOUS
  62
15
  10
 124.96635449362
  20
 232.54545873277
  30
0.0
  11
 122.96635449362
  21
 232.54545873277
  31
0.0
   0
LINE
   5
464
 100
AcDbEntity
   8
LEVEL001
 100
AcDbLine
   6
CONTINUOUS
  62
15
  10
 124.96635449362
  20
 220.04545873277
  30
0.0
  11
 122.96635449362
  21
 220.04545873277
  31
0.0
   0
LINE
   5
465
 100
AcDbEntity
   8
LEVEL001
 100
AcDbLine
   6
CONTINUOUS
  62
15
  10
 112.56635449362
  20
 229.29545873277
  30
0.0
  11
 138.06635449362
  21
 229.29545873277
  31
0.0
   0
LINE
   5
466
 100
AcDbEntity
   8
LEVEL001
 100
AcDbLine
   6
CONTINUOUS
  62
15
  10
 112.56635449362
  20
 223.29545873277
  30
0.0
  11
 138.06635449362
  21
 223.29545873277
  31
0.0
   0
LINE
   5
467
 100
AcDbEntity
   8
LEVEL001
 100
AcDbLine
   6
CONTINUOUS
  62
15
  10
 138.06635449362
  20
 223.29545873277
  30
0.0
  11
 138.06635449362
  21
 229.29545873277
  31
0.0
   0
LINE
   5
468
 100
AcDbEntity
   8
LEVEL001
 100
AcDbLine
   6
CONTINUOUS
  62
7
  10
 138.42328922563
  20
 229.34545873277
  30
0.0
  11
 141.48611250698
  21
 229.34545873277
  31
0.0
   0
LINE
   5
469
 100
AcDbEntity
   8
LEVEL001
 100
AcDbLine
   6
CONTINUOUS
  62
7
  10
 138.36337065771
  20
 223.24545873277
  30
0.0
  11
 141.48611250698
  21
 223.24545873277
  31
0.0
   0
LINE
   5
46A
 100
AcDbEntity
   8
LEVEL001
 100
AcDbLine
   6
CONTINUOUS
  62
7
  10
 147.86635449362
  20
 229.07750174064
  30
0.0
  11
 147.86635449362
  21
 223.47552993907
  31
0.0
   0
LINE
   5
46B
 100
AcDbEntity
   8
LEVEL001
 100
AcDbLine
   6
CONTINUOUS
  62
7
  10
 148.02015274093
  20
 230.29545873277
  30
0.0
  11
 149.36635449362
  21
 230.29545873277
  31
0.0
   0
LINE
   5
46C
 100
AcDbEntity
   8
LEVEL001
 100
AcDbLine
   6
CONTINUOUS
  62
7
  10
 148.02015274093
  20
 222.29545873277
  30
0.0
  11
 149.36635449362
  21
 222.29545873277
  31
0.0
   0
LINE
   5
46D
 100
AcDbEntity
   8
LEVEL001
 100
AcDbLine
   6
DASHDOT
  62
3
  10
 143.25087585307
  20
 231.37929488741
  30
0.0
  11
 143.25087585307
  21
 221.01788751547
  31
0.0
   0
LINE
   5
46E
 100
AcDbEntity
   8
LEVEL001
 100
AcDbLine
   6
CONTINUOUS
  62
15
  10
 145.11635449362
  20
 104.31602313876
  30
0.0
  11
 143.36635449362
  21
 101.28493422551
  31
0.0
   0
LINE
   5
46F
 100
AcDbEntity
   8
LEVEL001
 100
AcDbLine
   6
CONTINUOUS
  62
15
  10
 141.61635449362
  20
 104.31602313876
  30
0.0
  11
 143.36635449362
  21
 101.28493422551
  31
0.0
   0
LINE
   5
470
 100
AcDbEntity
   8
LEVEL001
 100
AcDbLine
   6
CONTINUOUS
  62
15
  10
 126.61635449362
  20
 104.31602313876
  30
0.0
  11
 128.36635449362
  21
 101.28493422551
  31
0.0
   0
LINE
   5
471
 100
AcDbEntity
   8
LEVEL001
 100
AcDbLine
   6
CONTINUOUS
  62
15
  10
 130.11635449362
  20
 104.31602313876
  30
0.0
  11
 128.36635449362
  21
 101.28493422551
  31
0.0
   0
LINE
   5
472
 100
AcDbEntity
   8
LEVEL001
 100
AcDbLine
   6
CONTINUOUS
  62
15
  10
 126.61635449362
  20
 104.31602313876
  30
0.0
  11
 126.61635449362
  21
 116.87022473531
  31
0.0
   0
LINE
   5
473
 100
AcDbEntity
   8
LEVEL001
 100
AcDbLine
   6
CONTINUOUS
  62
15
  10
 127.31635449362
  20
 116.87022473531
  30
0.0
  11
 127.31635449362
  21
 103.10358757346
  31
0.0
   0
LINE
   5
474
 100
AcDbEntity
   8
LEVEL001
 100
AcDbLine
   6
CONTINUOUS
  62
15
  10
 129.41635449362
  20
 116.87022473531
  30
0.0
  11
 129.41635449362
  21
 103.10358757346
  31
0.0
   0
LINE
   5
475
 100
AcDbEntity
   8
LEVEL001
 100
AcDbLine
   6
CONTINUOUS
  62
15
  10
 130.11635449362
  20
 104.31602313876
  30
0.0
  11
 130.11635449362
  21
 116.87022473531
  31
0.0
   0
LINE
   5
476
 100
AcDbEntity
   8
LEVEL001
 100
AcDbLine
   6
CONTINUOUS
  62
15
  10
 142.31635449362
  20
 116.87022473531
  30
0.0
  11
 142.31635449362
  21
 103.10358757346
  31
0.0
   0
LINE
   5
477
 100
AcDbEntity
   8
LEVEL001
 100
AcDbLine
   6
CONTINUOUS
  62
15
  10
 141.61635449362
  20
 104.31602313876
  30
0.0
  11
 141.61635449362
  21
 116.87022473531
  31
0.0
   0
LINE
   5
478
 100
AcDbEntity
   8
LEVEL001
 100
AcDbLine
   6
CONTINUOUS
  62
15
  10
 144.41635449362
  20
 116.87022473531
  30
0.0
  11
 144.41635449362
  21
 103.10358757346
  31
0.0
   0
LINE
   5
479
 100
AcDbEntity
   8
LEVEL001
 100
AcDbLine
   6
CONTINUOUS
  62
15
  10
 145.11635449362
  20
 104.31602313876
  30
0.0
  11
 145.11635449362
  21
 116.87022473531
  31
0.0
   0
LINE
   5
47A
 100
AcDbEntity
   8
LEVEL001
 100
AcDbLine
   6
DASHDOT
  62
3
  10
 131.36635449362
  20
 143.15604256759
  30
0.0
  11
 131.36635449362
  21
 153.83277969405
  31
0.0
   0
LINE
   5
47B
 100
AcDbEntity
   8
LEVEL001
 100
AcDbLine
   6
DASHDOT
  62
3
  10
 125.77765287393
  20
 148.74449012854
  30
0.0
  11
 136.95481645496
  21
 148.74449012854
  31
0.0
   0
LINE
   5
47C
 100
AcDbEntity
   8
LEVEL001
 100
AcDbLine
   6
CONTINUOUS
  62
7
  10
 112.36635449362
  20
 156.74449012854
  30
0.0
  11
 151.36635449362
  21
 156.74449012854
  31
0.0
   0
LINE
   5
47D
 100
AcDbEntity
   8
LEVEL001
 100
AcDbLine
   6
DASHDOT
  62
3
  10
 136.51506501520
  20
 148.74449012854
  30
0.0
  11
 136.97460295233
  21
 148.74449012854
  31
0.0
   0
LINE
   5
47E
 100
AcDbEntity
   8
LEVEL001
 100
AcDbLine
   6
CONTINUOUS
  62
7
  10
 124.96635449362
  20
 127.24449012854
  30
0.0
  11
 146.16635449362
  21
 127.24449012854
  31
0.0
   0
ARC
   5
47F
 100
AcDbEntity
   8
LEVEL001
   6
CONTINUOUS
  62
7
 100
AcDbCircle
  10
 150.86635449362
  20
 137.24449012854
  30
0.0
  40
 0.50000000000000
 100
AcDbArc
  50
 270.00000000000
  51
 0.24752348753022E-9
   0
POINT
   5
480
 100
AcDbEntity
   8
LEVEL001
 100
AcDbPoint
  62
7
  10
 151.36635449362
  20
 136.74449012854
  30
0.0
   0
LINE
   5
481
 100
AcDbEntity
   8
LEVEL001
 100
AcDbLine
   6
CONTINUOUS
  62
7
  10
 151.36635449362
  20
 156.74449012854
  30
0.0
  11
 151.36635449362
  21
 137.24449012854
  31
0.0
   0
POLYLINE
   5
482
 100
AcDbEntity
   8
LEVEL001
   6
CONTINUOUS
  62
7
 100
AcDb2dPolyline
  66
1
  10
0.0
  20
0.0
  30
0.0
  70
0
   0
VERTEX
   5
483
 100
AcDbEntity
   8
LEVEL001
   6
CONTINUOUS
  62
7
 100
AcDbVertex
 100
AcDb2dVertex
  10
 146.16635449362
  20
 127.24449012854
  30
0.0
   0
VERTEX
   5
484
 100
AcDbEntity
   8
LEVEL001
   6
CONTINUOUS
  62
7
 100
AcDbVertex
 100
AcDb2dVertex
  10
 146.16635449362
  20
 136.74449012854
  30
0.0
   0
VERTEX
   5
485
 100
AcDbEntity
   8
LEVEL001
   6
CONTINUOUS
  62
7
 100
AcDbVertex
 100
AcDb2dVertex
  10
 150.86635449362
  20
 136.74449012854
  30
0.0
   0
SEQEND
   5
486
 100
AcDbEntity
   8
LEVEL001
   6
CONTINUOUS
  62
7
   0
LINE
   5
487
 100
AcDbEntity
   8
LEVEL001
 100
AcDbLine
   6
CONTINUOUS
  62
7
  10
 116.91635449362
  20
 129.14449012825
  30
0.0
  11
 120.41635449362
  21
 129.14449012825
  31
0.0
   0
CIRCLE
   5
488
 100
AcDbEntity
   8
LEVEL001
 100
AcDbCircle
   6
CONTINUOUS
  62
7
  10
 131.36635449362
  20
 148.74449012854
  30
0.0
  40
 3.6000000000000
   0
LINE
   5
489
 100
AcDbEntity
   8
LEVEL001
 100
AcDbLine
   6
CONTINUOUS
  62
7
  10
 112.36635449362
  20
 156.74449012854
  30
0.0
  11
 112.36635449362
  21
 121.44449012854
  31
0.0
   0
LINE
   5
48A
 100
AcDbEntity
   8
LEVEL001
 100
AcDbLine
   6
CONTINUOUS
  62
7
  10
 112.36635449362
  20
 121.44449012854
  30
0.0
  11
 124.96635449362
  21
 121.44449012854
  31
0.0
   0
LINE
   5
48B
 100
AcDbEntity
   8
LEVEL001
 100
AcDbLine
   6
CONTINUOUS
  62
7
  10
 118.76635449409
  20
 121.44449012825
  30
0.0
  11
 122.36635449362
  21
 121.44449012825
  31
0.0
   0
LINE
   5
48C
 100
AcDbEntity
   8
LEVEL001
 100
AcDbLine
   6
CONTINUOUS
  62
7
  10
 116.91635449362
  20
 124.14449012854
  30
0.0
  11
 116.91635449362
  21
 129.14449012825
  31
0.0
   0
LINE
   5
48D
 100
AcDbEntity
   8
LEVEL001
 100
AcDbLine
   6
CONTINUOUS
  62
7
  10
 120.41635449362
  20
 124.14449012854
  30
0.0
  11
 120.41635449362
  21
 129.14449012825
  31
0.0
   0
LINE
   5
48E
 100
AcDbEntity
   8
LEVEL001
 100
AcDbLine
   6
CONTINUOUS
  62
15
  10
 146.16635449362
  20
 127.24449012854
  30
0.0
  11
 147.86635449362
  21
 127.24449012854
  31
0.0
   0
POINT
   5
48F
 100
AcDbEntity
   8
LEVEL001
 100
AcDbPoint
  62
15
  10
 148.16635449362
  20
 127.24449012854
  30
0.0
   0
LINE
   5
490
 100
AcDbEntity
   8
LEVEL001
 100
AcDbLine
   6
CONTINUOUS
  62
7
  10
 151.36635449362
  20
 136.04449012854
  30
0.0
  11
 151.36635449362
  21
 118.24449012854
  31
0.0
   0
LINE
   5
491
 100
AcDbEntity
   8
LEVEL001
 100
AcDbLine
   6
CONTINUOUS
  62
7
  10
 148.36635449362
  20
 136.54449012854
  30
0.0
  11
 150.86635449362
  21
 136.54449012854
  31
0.0
   0
ARC
   5
492
 100
AcDbEntity
   8
LEVEL001
   6
CONTINUOUS
  62
7
 100
AcDbCircle
  10
 150.86635449362
  20
 136.04449012855
  30
0.0
  40
 0.50000000000000
 100
AcDbArc
  50
0.0
  51
 90.000000000000
   0
POINT
   5
493
 100
AcDbEntity
   8
LEVEL001
 100
AcDbPoint
  62
7
  10
 151.36635449362
  20
 136.54449012854
  30
0.0
   0
LINE
   5
494
 100
AcDbEntity
   8
LEVEL001
 100
AcDbLine
   6
CONTINUOUS
  62
7
  10
 148.36635449362
  20
 127.04449012854
  30
0.0
  11
 148.36635449362
  21
 136.54449012854
  31
0.0
   0
LINE
   5
495
 100
AcDbEntity
   8
LEVEL001
 100
AcDbLine
   6
CONTINUOUS
  62
7
  10
 125.46635449362
  20
 127.04449012854
  30
0.0
  11
 148.36635449362
  21
 127.04449012854
  31
0.0
   0
ARC
   5
496
 100
AcDbEntity
   8
LEVEL001
   6
CONTINUOUS
  62
7
 100
AcDbCircle
  10
 125.46635449362
  20
 126.54449012854
  30
0.0
  40
 0.50000000000000
 100
AcDbArc
  50
 89.999999999977
  51
 180.00000000000
   0
POINT
   5
497
 100
AcDbEntity
   8
LEVEL001
 100
AcDbPoint
  62
7
  10
 124.96635449362
  20
 127.04449012854
  30
0.0
   0
LINE
   5
498
 100
AcDbEntity
   8
LEVEL001
 100
AcDbLine
   6
CONTINUOUS
  62
7
  10
 112.36635449362
  20
 121.24449012854
  30
0.0
  11
 124.96635449362
  21
 121.24449012854
  31
0.0
   0
LINE
   5
499
 100
AcDbEntity
   8
LEVEL001
 100
AcDbLine
   6
CONTINUOUS
  62
7
  10
 112.36635449362
  20
 121.24449012854
  30
0.0
  11
 112.36635449362
  21
 117.74449012854
  31
0.0
   0
LINE
   5
49A
 100
AcDbEntity
   8
LEVEL001
 100
AcDbLine
   6
CONTINUOUS
  62
7
  10
 112.36635449362
  20
 117.74449012854
  30
0.0
  11
 150.86635449362
  21
 117.74449012854
  31
0.0
   0
ARC
   5
49B
 100
AcDbEntity
   8
LEVEL001
   6
CONTINUOUS
  62
7
 100
AcDbCircle
  10
 150.86635449362
  20
 118.24449012854
  30
0.0
  40
 0.50000000000000
 100
AcDbArc
  50
 270.00000000000
  51
 0.25729415151167E-9
   0
POINT
   5
49C
 100
AcDbEntity
   8
LEVEL001
 100
AcDbPoint
  62
7
  10
 151.36635449362
  20
 117.74449012854
  30
0.0
   0
LINE
   5
49D
 100
AcDbEntity
   8
LEVEL001
 100
AcDbLine
   6
CONTINUOUS
  62
7
  10
 124.96635449362
  20
 121.24449012854
  30
0.0
  11
 124.96635449362
  21
 127.24449012854
  31
0.0
   0
ARC
   5
49E
 100
AcDbEntity
   8
LEVEL001
   6
CONTINUOUS
  62
15
 100
AcDbCircle
  10
 147.86635449362
  20
 126.94449012854
  30
0.0
  40
 0.30000000000000
 100
AcDbArc
  50
 19.471220634339
  51
 89.999999999984
   0
LINE
   5
49F
 100
AcDbEntity
   8
LEVEL001
 100
AcDbLine
   6
CONTINUOUS
  62
7
  10
 117.16635449362
  20
 126.14449012854
  30
0.0
  11
 117.16635449362
  21
 124.14449012854
  31
0.0
   0
LINE
   5
4A0
 100
AcDbEntity
   8
LEVEL001
 100
AcDbLine
   6
CONTINUOUS
  62
7
  10
 120.16635449362
  20
 124.14449012854
  30
0.0
  11
 120.16635449362
  21
 126.14449012854
  31
0.0
   0
LINE
   5
4A1
 100
AcDbEntity
   8
LEVEL001
 100
AcDbLine
   6
CONTINUOUS
  62
7
  10
 117.16635449362
  20
 124.64449012854
  30
0.0
  11
 120.16635449362
  21
 124.64449012854
  31
0.0
   0
LINE
   5
4A2
 100
AcDbEntity
   8
LEVEL001
 100
AcDbLine
   6
CONTINUOUS
  62
7
  10
 116.96635449362
  20
 121.44449012854
  30
0.0
  11
 116.96635449362
  21
 121.24449012854
  31
0.0
   0
LINE
   5
4A3
 100
AcDbEntity
   8
LEVEL001
 100
AcDbLine
   6
CONTINUOUS
  62
7
  10
 120.66635449362
  20
 121.24449012854
  30
0.0
  11
 120.66635449362
  21
 121.44449012854
  31
0.0
   0
LINE
   5
4A4
 100
AcDbEntity
   8
LEVEL001
 100
AcDbLine
   6
CONTINUOUS
  62
7
  10
 120.41635449362
  20
 126.14449012854
  30
0.0
  11
 116.91635449362
  21
 126.14449012854
  31
0.0
   0
LINE
   5
4A5
 100
AcDbEntity
   8
LEVEL001
 100
AcDbLine
   6
CONTINUOUS
  62
7
  10
 116.91635449362
  20
 124.14449012854
  30
0.0
  11
 120.41635449362
  21
 124.14449012854
  31
0.0
   0
LINE
   5
4A6
 100
AcDbEntity
   8
LEVEL001
 100
AcDbLine
   6
CONTINUOUS
  62
15
  10
 119.60301828817
  20
 129.14449012825
  30
0.0
  11
 119.60301828817
  21
 128.64449012825
  31
0.0
   0
LINE
   5
4A7
 100
AcDbEntity
   8
LEVEL001
 100
AcDbLine
   6
CONTINUOUS
  62
15
  10
 120.36635449362
  20
 128.64449012825
  30
0.0
  11
 119.60301828817
  21
 128.64449012825
  31
0.0
   0
ARC
   5
4A8
 100
AcDbEntity
   8
LEVEL001
   6
CONTINUOUS
  62
15
 100
AcDbCircle
  10
 120.36635449361
  20
 128.89449012825
  30
0.0
  40
 0.25000000000000
 100
AcDbArc
  50
 270.00000000069
  51
 281.53695903353
   0
LINE
   5
4A9
 100
AcDbEntity
   8
LEVEL001
 100
AcDbLine
   6
CONTINUOUS
  62
15
  10
 117.03032763369
  20
 126.50499435307
  30
0.0
  11
 118.66635449362
  21
 126.17552505330
  31
0.0
   0
LINE
   5
4AA
 100
AcDbEntity
   8
LEVEL001
 100
AcDbLine
   6
CONTINUOUS
  62
15
  10
 117.41635449409
  20
 129.14449012825
  30
0.0
  11
 117.41635449409
  21
 129.03398285452
  31
0.0
   0
LINE
   5
4AB
 100
AcDbEntity
   8
LEVEL001
 100
AcDbLine
   6
CONTINUOUS
  62
15
  10
 117.41635449409
  20
 128.51676210761
  30
0.0
  11
 117.41635449409
  21
 128.14449012825
  31
0.0
   0
LINE
   5
4AC
 100
AcDbEntity
   8
LEVEL001
 100
AcDbLine
   6
CONTINUOUS
  62
15
  10
 119.91635449362
  20
 128.37221814876
  30
0.0
  11
 119.91635449362
  21
 128.64449012825
  31
0.0
   0
LINE
   5
4AD
 100
AcDbEntity
   8
LEVEL001
 100
AcDbLine
   6
CONTINUOUS
  62
15
  10
 117.41635449409
  20
 128.14449012825
  30
0.0
  11
 118.82271530500
  21
 128.14449012825
  31
0.0
   0
LINE
   5
4AE
 100
AcDbEntity
   8
LEVEL001
 100
AcDbLine
   6
CONTINUOUS
  62
15
  10
 120.30238135353
  20
 127.75281382128
  30
0.0
  11
 116.91635449362
  21
 128.64911504891
  31
0.0
   0
ARC
   5
4AF
 100
AcDbEntity
   8
LEVEL001
   6
CONTINUOUS
  62
15
 100
AcDbCircle
  10
 116.96635449362
  20
 127.52508031396
  30
0.0
  40
 0.25000000000000
 100
AcDbArc
  50
 75.096943661654
  51
 101.53695903400
   0
LINE
   5
4B0
 100
AcDbEntity
   8
LEVEL001
 100
AcDbLine
   6
CONTINUOUS
  62
15
  10
 120.30205840802
  20
 126.59392055559
  30
0.0
  11
 116.91635449362
  21
 127.28059027065
  31
0.0
   0
ARC
   5
4B1
 100
AcDbEntity
   8
LEVEL001
   6
CONTINUOUS
  62
15
 100
AcDbCircle
  10
 116.96635449359
  20
 126.26331804611
  30
0.0
  40
 0.25000000000000
 100
AcDbArc
  50
 75.173520024662
  51
 101.53695902776
   0
LINE
   5
4B2
 100
AcDbEntity
   8
LEVEL001
 100
AcDbLine
   6
CONTINUOUS
  62
15
  10
 116.96440139101
  20
 126.51331041678
  30
0.0
  11
 119.21749201993
  21
 126.81388630319
  31
0.0
   0
LINE
   5
4B3
 100
AcDbEntity
   8
LEVEL001
 100
AcDbLine
   6
CONTINUOUS
  62
15
  10
 119.38938197166
  20
 127.99449012825
  30
0.0
  11
 116.98537138641
  21
 127.77435598022
  31
0.0
   0
ARC
   5
4B4
 100
AcDbEntity
   8
LEVEL001
   6
CONTINUOUS
  62
15
 100
AcDbCircle
  10
 120.36635449359
  20
 127.99449012825
  30
0.0
  40
 0.25000000000000
 100
AcDbArc
  50
 255.09694366486
  51
 265.65687836330
   0
LINE
   5
4B5
 100
AcDbEntity
   8
LEVEL001
 100
AcDbLine
   6
CONTINUOUS
  62
15
  10
 120.41635449362
  20
 127.75153191645
  30
0.0
  11
 118.13654089974
  21
 127.54238035491
  31
0.0
   0
LINE
   5
4B6
 100
AcDbEntity
   8
LEVEL001
 100
AcDbLine
   6
CONTINUOUS
  62
15
  10
 120.41635449362
  20
 128.23986520758
  30
0.0
  11
 117.03032763369
  21
 129.13616643521
  31
0.0
   0
LINE
   5
4B7
 100
AcDbEntity
   8
LEVEL001
 100
AcDbLine
   6
CONTINUOUS
  62
15
  10
 117.03065057921
  20
 127.76667090438
  30
0.0
  11
 120.41635449362
  21
 127.08000118932
  31
0.0
   0
ARC
   5
4B8
 100
AcDbEntity
   8
LEVEL001
   6
CONTINUOUS
  62
15
 100
AcDbCircle
  10
 120.36635449360
  20
 126.83551114601
  30
0.0
  40
 0.25000000000000
 100
AcDbArc
  50
 255.09694366171
  51
 270.43306371822
   0
LINE
   5
4B9
 100
AcDbEntity
   8
LEVEL001
 100
AcDbLine
   6
CONTINUOUS
  62
15
  10
 120.41635449362
  20
 126.59193028646
  30
0.0
  11
 118.11902084033
  21
 126.28574918220
  31
0.0
   0
LINE
   5
4BA
 100
AcDbEntity
   8
LEVEL001
 100
AcDbLine
   6
CONTINUOUS
  62
7
  10
 140.25087585307
  20
 161.34449012854
  30
0.0
  11
 140.25087585307
  21
 161.14449012854
  31
0.0
   0
LINE
   5
4BB
 100
AcDbEntity
   8
LEVEL001
 100
AcDbLine
   6
CONTINUOUS
  62
7
  10
 146.25087585307
  20
 161.34449012854
  30
0.0
  11
 146.25087585307
  21
 161.14449012854
  31
0.0
   0
LINE
   5
4BC
 100
AcDbEntity
   8
LEVEL001
 100
AcDbLine
   6
CONTINUOUS
  62
7
  10
 139.75087585307
  20
 161.14449012854
  30
0.0
  11
 146.75087585307
  21
 161.14449012854
  31
0.0
   0
LINE
   5
4BD
 100
AcDbEntity
   8
LEVEL001
 100
AcDbLine
   6
CONTINUOUS
  62
7
  10
 139.75087585307
  20
 161.14449012854
  30
0.0
  11
 139.75087585307
  21
 156.74449012854
  31
0.0
   0
LINE
   5
4BE
 100
AcDbEntity
   8
LEVEL001
 100
AcDbLine
   6
CONTINUOUS
  62
7
  10
 146.75087585307
  20
 161.14449012854
  30
0.0
  11
 146.75087585307
  21
 156.74449012854
  31
0.0
   0
LINE
   5
4BF
 100
AcDbEntity
   8
LEVEL001
 100
AcDbLine
   6
CONTINUOUS
  62
7
  10
 145.43032532484
  20
 164.34449012854
  30
0.0
  11
 141.07142638130
  21
 164.34449012854
  31
0.0
   0
LINE
   5
4C0
 100
AcDbEntity
   8
LEVEL001
 100
AcDbLine
   6
CONTINUOUS
  62
7
  10
 140.08859819290
  20
 162.54449012854
  30
0.0
  11
 133.25087585307
  21
 162.54449012854
  31
0.0
   0
LINE
   5
4C1
 100
AcDbEntity
   8
LEVEL001
 100
AcDbLine
   6
CONTINUOUS
  62
7
  10
 153.25087585307
  20
 162.54449012854
  30
0.0
  11
 146.41315351324
  21
 162.54449012854
  31
0.0
   0
POINT
   5
4C2
 100
AcDbEntity
   8
LEVEL001
 100
AcDbPoint
  62
7
  10
 124.25087585307
  20
 164.34449012854
  30
0.0
   0
ARC
   5
4C3
 100
AcDbEntity
   8
LEVEL001
   6
CONTINUOUS
  62
7
 100
AcDbCircle
  10
 126.25087585307
  20
 166.34449012854
  30
0.0
  40
 2.0000000000000
 100
AcDbArc
  50
 180.00000000001
  51
 270.00000000000
   0
LINE
   5
4C4
 100
AcDbEntity
   8
LEVEL001
 100
AcDbLine
   6
CONTINUOUS
  62
7
  10
 124.25087585307
  20
 176.34449012854
  30
0.0
  11
 124.25087585307
  21
 166.34449012854
  31
0.0
   0
LINE
   5
4C5
 100
AcDbEntity
   8
LEVEL001
 100
AcDbLine
   6
CONTINUOUS
  62
7
  10
 171.75087585307
  20
 165.84449012854
  30
0.0
  11
 163.75087585307
  21
 165.84449012854
  31
0.0
   0
LINE
   5
4C6
 100
AcDbEntity
   8
LEVEL001
 100
AcDbLine
   6
CONTINUOUS
  62
15
  10
 171.75087585307
  20
 165.84449012854
  30
0.0
  11
 170.75087585307
  21
 165.34449012854
  31
0.0
   0
LINE
   5
4C7
 100
AcDbEntity
   8
LEVEL001
 100
AcDbLine
   6
CONTINUOUS
  62
15
  10
 170.75087585307
  20
 165.34449012854
  30
0.0
  11
 169.95087585307
  21
 165.34449012854
  31
0.0
   0
LINE
   5
4C8
 100
AcDbEntity
   8
LEVEL001
 100
AcDbLine
   6
CONTINUOUS
  62
15
  10
 169.95087585307
  20
 165.34449012854
  30
0.0
  11
 169.95087585307
  21
 165.84449012854
  31
0.0
   0
LINE
   5
4C9
 100
AcDbEntity
   8
LEVEL001
 100
AcDbLine
   6
DASHDOT
  62
3
  10
 167.75087585307
  20
 172.76181587830
  30
0.0
  11
 167.75087585307
  21
 162.90316626807
  31
0.0
   0
LINE
   5
4CA
 100
AcDbEntity
   8
LEVEL001
 100
AcDbLine
   6
CONTINUOUS
  62
7
  10
 162.75087585307
  20
 172.34449012854
  30
0.0
  11
 162.75087585307
  21
 165.34449012854
  31
0.0
   0
ARC
   5
4CB
 100
AcDbEntity
   8
LEVEL001
   6
CONTINUOUS
  62
7
 100
AcDbCircle
  10
 161.75087585307
  20
 165.34449012854
  30
0.0
  40
 1.0000000000000
 100
AcDbArc
  50
 269.99999999992
  51
0.0
   0
POINT
   5
4CC
 100
AcDbEntity
   8
LEVEL001
 100
AcDbPoint
  62
7
  10
 162.75087585307
  20
 164.34449012854
  30
0.0
   0
LINE
   5
4CD
 100
AcDbEntity
   8
LEVEL001
 100
AcDbLine
   6
CONTINUOUS
  62
7
  10
 163.75087585307
  20
 165.34449012854
  30
0.0
  11
 162.75087585307
  21
 165.34449012854
  31
0.0
   0
LINE
   5
4CE
 100
AcDbEntity
   8
LEVEL001
 100
AcDbLine
   6
CONTINUOUS
  62
7
  10
 162.75087585307
  20
 172.34449012854
  30
0.0
  11
 163.75087585307
  21
 172.34449012854
  31
0.0
   0
LINE
   5
4CF
 100
AcDbEntity
   8
LEVEL001
 100
AcDbLine
   6
CONTINUOUS
  62
7
  10
 163.75087585307
  20
 165.34449012854
  30
0.0
  11
 163.75087585307
  21
 178.34449012854
  31
0.0
   0
LINE
   5
4D0
 100
AcDbEntity
   8
LEVEL001
 100
AcDbLine
   6
CONTINUOUS
  62
7
  10
 171.75087585307
  20
 178.34449012854
  30
0.0
  11
 171.75087585307
  21
 165.84449012854
  31
0.0
   0
LINE
   5
4D1
 100
AcDbEntity
   8
LEVEL001
 100
AcDbLine
   6
CONTINUOUS
  62
7
  10
 162.75087585307
  20
 178.34449012854
  30
0.0
  11
 171.75087585307
  21
 178.34449012854
  31
0.0
   0
LINE
   5
4D2
 100
AcDbEntity
   8
LEVEL001
 100
AcDbLine
   6
CONTINUOUS
  62
7
  10
 162.75087585307
  20
 178.34449012854
  30
0.0
  11
 162.75087585307
  21
 172.34449012854
  31
0.0
   0
LINE
   5
4D3
 100
AcDbEntity
   8
LEVEL001
 100
AcDbLine
   6
CONTINUOUS
  62
7
  10
 138.25087585307
  20
 162.54449012854
  30
0.0
  11
 138.25087585307
  21
 161.34449012854
  31
0.0
   0
LINE
   5
4D4
 100
AcDbEntity
   8
LEVEL001
 100
AcDbLine
   6
CONTINUOUS
  62
7
  10
 148.25087585307
  20
 161.34449012854
  30
0.0
  11
 138.25087585307
  21
 161.34449012854
  31
0.0
   0
LINE
   5
4D5
 100
AcDbEntity
   8
LEVEL001
 100
AcDbLine
   6
CONTINUOUS
  62
15
  10
 140.08859819290
  20
 162.54449012854
  30
0.0
  11
 140.08859819290
  21
 161.34449012854
  31
0.0
   0
LINE
   5
4D6
 100
AcDbEntity
   8
LEVEL001
 100
AcDbLine
   6
CONTINUOUS
  62
15
  10
 146.41315351324
  20
 162.54449012854
  30
0.0
  11
 146.41315351324
  21
 161.34449012854
  31
0.0
   0
LINE
   5
4D7
 100
AcDbEntity
   8
LEVEL001
 100
AcDbLine
   6
CONTINUOUS
  62
7
  10
 148.25087585307
  20
 162.54449012854
  30
0.0
  11
 148.25087585307
  21
 161.34449012854
  31
0.0
   0
CIRCLE
   5
4D8
 100
AcDbEntity
   8
LEVEL001
 100
AcDbCircle
   6
CONTINUOUS
  62
7
  10
 133.25087585307
  20
 171.14449012854
  30
0.0
  40
 8.2000000000000
   0
CIRCLE
   5
4D9
 100
AcDbEntity
   8
LEVEL001
 100
AcDbCircle
   6
CONTINUOUS
  62
7
  10
 153.25087585307
  20
 171.14449012854
  30
0.0
  40
 8.2000000000000
   0
LINE
   5
4DA
 100
AcDbEntity
   8
LEVEL001
 100
AcDbLine
   6
CONTINUOUS
  62
7
  10
 124.25087585307
  20
 176.34449012854
  30
0.0
  11
 126.91052885941
  21
 176.34449012854
  31
0.0
   0
LINE
   5
4DB
 100
AcDbEntity
   8
LEVEL001
 100
AcDbLine
   6
CONTINUOUS
  62
7
  10
 139.59122284673
  20
 176.34449012854
  30
0.0
  11
 139.75087585307
  21
 176.34449012854
  31
0.0
   0
LINE
   5
4DC
 100
AcDbEntity
   8
LEVEL001
 100
AcDbLine
   6
CONTINUOUS
  62
7
  10
 139.75087585307
  20
 176.34449012854
  30
0.0
  11
 139.75087585307
  21
 176.14349002852
  31
0.0
   0
LINE
   5
4DD
 100
AcDbEntity
   8
LEVEL001
 100
AcDbLine
   6
CONTINUOUS
  62
7
  10
 146.75087585307
  20
 176.34449012854
  30
0.0
  11
 146.75087585307
  21
 176.14349002852
  31
0.0
   0
LINE
   5
4DE
 100
AcDbEntity
   8
LEVEL001
 100
AcDbLine
   6
CONTINUOUS
  62
7
  10
 146.75087585307
  20
 176.34449012854
  30
0.0
  11
 146.91052885941
  21
 176.34449012854
  31
0.0
   0
LINE
   5
4DF
 100
AcDbEntity
   8
LEVEL001
 100
AcDbLine
   6
CONTINUOUS
  62
7
  10
 159.59122284673
  20
 176.34449012854
  30
0.0
  11
 162.75087585307
  21
 176.34449012854
  31
0.0
   0
LINE
   5
4E0
 100
AcDbEntity
   8
LEVEL001
 100
AcDbLine
   6
DOT
  62
1
  10
 160.80071028834
  20
 174.34449012854
  30
0.0
  11
 162.75087585307
  21
 174.34449012854
  31
0.0
   0
LINE
   5
4E1
 100
AcDbEntity
   8
LEVEL001
 100
AcDbLine
   6
CONTINUOUS
  62
7
  10
 141.07142638130
  20
 168.67892945490
  30
0.0
  11
 141.07142638130
  21
 164.34449012854
  31
0.0
   0
LINE
   5
4E2
 100
AcDbEntity
   8
LEVEL001
 100
AcDbLine
   6
CONTINUOUS
  62
7
  10
 128.66830015811
  20
 164.34449012854
  30
0.0
  11
 126.25087585307
  21
 164.34449012854
  31
0.0
   0
LINE
   5
4E3
 100
AcDbEntity
   8
LEVEL001
 100
AcDbLine
   6
CONTINUOUS
  62
7
  10
 133.25087585307
  20
 162.54449012854
  30
0.0
  11
 133.25087585307
  21
 162.94449012854
  31
0.0
   0
CIRCLE
   5
4E4
 100
AcDbEntity
   8
LEVEL001
 100
AcDbCircle
   6
CONTINUOUS
  62
7
  10
 133.25087585307
  20
 171.14449012854
  30
0.0
  40
 3.7500000000000
   0
CIRCLE
   5
4E5
 100
AcDbEntity
   8
LEVEL001
 100
AcDbCircle
   6
CONTINUOUS
  62
7
  10
 133.25087585307
  20
 171.14449012854
  30
0.0
  40
 2.7500000000000
   0
ARC
   5
4E6
 100
AcDbEntity
   8
LEVEL001
   6
CONTINUOUS
  62
15
 100
AcDbCircle
  10
 126.55087585307
  20
 166.64449012854
  30
0.0
  40
 0.30000000000000
 100
AcDbArc
  50
 179.99999999999
  51
 270.00000000018
   0
POINT
   5
4E7
 100
AcDbEntity
   8
LEVEL001
 100
AcDbPoint
  62
15
  10
 126.25087585307
  20
 166.34449012854
  30
0.0
   0
LINE
   5
4E8
 100
AcDbEntity
   8
LEVEL001
 100
AcDbLine
   6
CONTINUOUS
  62
15
  10
 126.25087585307
  20
 166.64449012854
  30
0.0
  11
 126.25087585307
  21
 166.87365882773
  31
0.0
   0
LINE
   5
4E9
 100
AcDbEntity
   8
LEVEL001
 100
AcDbLine
   6
CONTINUOUS
  62
15
  10
 126.60256779763
  20
 166.34449012854
  30
0.0
  11
 126.55087585307
  21
 166.34449012854
  31
0.0
   0
ARC
   5
4EA
 100
AcDbEntity
   8
LEVEL001
   6
CONTINUOUS
  62
15
 100
AcDbCircle
  10
 138.45087585307
  20
 164.84449012854
  30
0.0
  40
 0.30000000000000
 100
AcDbArc
  50
 270.00000000009
  51
0.0
   0
POINT
   5
4EB
 100
AcDbEntity
   8
LEVEL001
 100
AcDbPoint
  62
15
  10
 138.75087585307
  20
 164.54449012854
  30
0.0
   0
LINE
   5
4EC
 100
AcDbEntity
   8
LEVEL001
 100
AcDbLine
   6
CONTINUOUS
  62
15
  10
 138.11708587731
  20
 164.54449012854
  30
0.0
  11
 138.45087585307
  21
 164.54449012854
  31
0.0
   0
LINE
   5
4ED
 100
AcDbEntity
   8
LEVEL001
 100
AcDbLine
   6
CONTINUOUS
  62
15
  10
 138.75087585307
  20
 164.84449012854
  30
0.0
  11
 138.75087585307
  21
 165.06254964873
  31
0.0
   0
LINE
   5
4EE
 100
AcDbEntity
   8
LEVEL001
 100
AcDbLine
   6
CONTINUOUS
  62
7
  10
 153.25087585307
  20
 162.54449012854
  30
0.0
  11
 153.25087585307
  21
 162.94449012854
  31
0.0
   0
LINE
   5
4EF
 100
AcDbEntity
   8
LEVEL001
 100
AcDbLine
   6
CONTINUOUS
  62
7
  10
 161.75087585307
  20
 164.34449012854
  30
0.0
  11
 157.83345154803
  21
 164.34449012854
  31
0.0
   0
LINE
   5
4F0
 100
AcDbEntity
   8
LEVEL001
 100
AcDbLine
   6
CONTINUOUS
  62
7
  10
 145.43032532484
  20
 168.67892945490
  30
0.0
  11
 145.43032532484
  21
 164.34449012854
  31
0.0
   0
LINE
   5
4F1
 100
AcDbEntity
   8
LEVEL001
 100
AcDbLine
   6
CONTINUOUS
  62
7
  10
 145.13915593680
  20
 172.34449012854
  30
0.0
  11
 141.36259576934
  21
 172.34449012854
  31
0.0
   0
LINE
   5
4F2
 100
AcDbEntity
   8
LEVEL001
 100
AcDbLine
   6
CONTINUOUS
  62
15
  10
 141.15024291632
  20
 173.34449012854
  30
0.0
  11
 145.35150878982
  21
 173.34449012854
  31
0.0
   0
LINE
   5
4F3
 100
AcDbEntity
   8
LEVEL001
 100
AcDbLine
   6
CONTINUOUS
  62
15
  10
 145.58510367559
  20
 174.05583636747
  30
0.0
  11
 140.91664803055
  21
 174.05583636747
  31
0.0
   0
ARC
   5
4F4
 100
AcDbEntity
   8
LEVEL001
   6
CONTINUOUS
  62
15
 100
AcDbCircle
  10
 148.05087585307
  20
 164.84449012854
  30
0.0
  40
 0.30000000000000
 100
AcDbArc
  50
 180.00000000001
  51
 270.00000000031
   0
POINT
   5
4F5
 100
AcDbEntity
   8
LEVEL001
 100
AcDbPoint
  62
15
  10
 147.75087585307
  20
 164.54449012854
  30
0.0
   0
LINE
   5
4F6
 100
AcDbEntity
   8
LEVEL001
 100
AcDbLine
   6
CONTINUOUS
  62
15
  10
 147.75087585307
  20
 164.84449012854
  30
0.0
  11
 147.75087585307
  21
 165.06254964873
  31
0.0
   0
LINE
   5
4F7
 100
AcDbEntity
   8
LEVEL001
 100
AcDbLine
   6
CONTINUOUS
  62
15
  10
 148.38466582883
  20
 164.54449012854
  30
0.0
  11
 148.05087585307
  21
 164.54449012854
  31
0.0
   0
ARC
   5
4F8
 100
AcDbEntity
   8
LEVEL001
   6
CONTINUOUS
  62
15
 100
AcDbCircle
  10
 159.95087585307
  20
 166.64449012854
  30
0.0
  40
 0.30000000000000
 100
AcDbArc
  50
 270.00000000003
  51
 0.10856293312724E-10
   0
POINT
   5
4F9
 100
AcDbEntity
   8
LEVEL001
 100
AcDbPoint
  62
15
  10
 160.25087585307
  20
 166.34449012854
  30
0.0
   0
LINE
   5
4FA
 100
AcDbEntity
   8
LEVEL001
 100
AcDbLine
   6
CONTINUOUS
  62
15
  10
 159.89918390851
  20
 166.34449012854
  30
0.0
  11
 159.95087585307
  21
 166.34449012854
  31
0.0
   0
LINE
   5
4FB
 100
AcDbEntity
   8
LEVEL001
 100
AcDbLine
   6
CONTINUOUS
  62
15
  10
 160.25087585307
  20
 166.64449012854
  30
0.0
  11
 160.25087585307
  21
 166.87365882773
  31
0.0
   0
CIRCLE
   5
4FC
 100
AcDbEntity
   8
LEVEL001
 100
AcDbCircle
   6
CONTINUOUS
  62
7
  10
 153.25087585307
  20
 171.14449012854
  30
0.0
  40
 3.7500000000000
   0
CIRCLE
   5
4FD
 100
AcDbEntity
   8
LEVEL001
 100
AcDbCircle
   6
CONTINUOUS
  62
7
  10
 153.25087585307
  20
 171.14449012854
  30
0.0
  40
 2.7500000000000
   0
LINE
   5
4FE
 100
AcDbEntity
   8
LEVEL001
 100
AcDbLine
   6
CONTINUOUS
  62
15
  10
 165.93368262501
  20
 132.49449012854
  30
0.0
  11
 168.96477153825
  21
 130.74449012854
  31
0.0
   0
LINE
   5
4FF
 100
AcDbEntity
   8
LEVEL001
 100
AcDbLine
   6
CONTINUOUS
  62
15
  10
 165.93368262501
  20
 128.99449012854
  30
0.0
  11
 168.96477153825
  21
 130.74449012854
  31
0.0
   0
LINE
   5
500
 100
AcDbEntity
   8
LEVEL001
 100
AcDbLine
   6
CONTINUOUS
  62
15
  10
 165.93368262501
  20
 128.99449012854
  30
0.0
  11
 152.09490898797
  21
 128.99449012854
  31
0.0
   0
LINE
   5
501
 100
AcDbEntity
   8
LEVEL001
 100
AcDbLine
   6
CONTINUOUS
  62
15
  10
 152.09490898797
  20
 129.69449012854
  30
0.0
  11
 167.14611819030
  21
 129.69449012854
  31
0.0
   0
LINE
   5
502
 100
AcDbEntity
   8
LEVEL001
 100
AcDbLine
   6
CONTINUOUS
  62
15
  10
 152.09490898797
  20
 131.79449012854
  30
0.0
  11
 167.14611819030
  21
 131.79449012854
  31
0.0
   0
LINE
   5
503
 100
AcDbEntity
   8
LEVEL001
 100
AcDbLine
   6
CONTINUOUS
  62
15
  10
 165.93368262501
  20
 132.49449012854
  30
0.0
  11
 152.09490898797
  21
 132.49449012854
  31
0.0
   0
LINE
   5
504
 100
AcDbEntity
   8
LEVEL001
 100
AcDbLine
   6
CONTINUOUS
  62
15
  10
 137.88276678547
  20
 133.45171497871
  30
0.0
  11
 136.45092292286
  21
 131.74530991140
  31
0.0
   0
LINE
   5
505
 100
AcDbEntity
   8
LEVEL001
 100
AcDbLine
   6
CONTINUOUS
  62
15
  10
 134.52890092745
  20
 133.45171497871
  30
0.0
  11
 135.66563417354
  21
 133.45171497871
  31
0.0
   0
LINE
   5
506
 100
AcDbEntity
   8
LEVEL001
 100
AcDbLine
   6
CONTINUOUS
  62
15
  10
 134.60777076182
  20
 129.50371497871
  30
0.0
  11
 133.47103751573
  21
 129.50371497871
  31
0.0
   0
LINE
   5
507
 100
AcDbEntity
   8
LEVEL001
 100
AcDbLine
   6
CONTINUOUS
  62
15
  10
 145.01690092745
  20
 130.63771497871
  30
0.0
  11
 145.01690092745
  21
 130.74571497871
  31
0.0
   0
LINE
   5
508
 100
AcDbEntity
   8
LEVEL001
 100
AcDbLine
   6
CONTINUOUS
  62
15
  10
 135.19136410294
  20
 131.68171497872
  30
0.0
  11
 136.67657045012
  21
 133.45171497871
  31
0.0
   0
LINE
   5
509
 100
AcDbEntity
   8
LEVEL001
 100
AcDbLine
   6
CONTINUOUS
  62
15
  10
 136.67657045012
  20
 133.45171497871
  30
0.0
  11
 137.88276678547
  21
 133.45171497871
  31
0.0
   0
LINE
   5
50A
 100
AcDbEntity
   8
LEVEL001
 100
AcDbLine
   6
CONTINUOUS
  62
15
  10
 135.53632541397
  20
 129.50371497871
  30
0.0
  11
 136.80595668170
  21
 129.50371497871
  31
0.0
   0
LINE
   5
50B
 100
AcDbEntity
   8
LEVEL001
 100
AcDbLine
   6
CONTINUOUS
  62
15
  10
 135.66563417354
  20
 133.45171497871
  30
0.0
  11
 134.94056365882
  21
 130.74571497871
  31
0.0
   0
LINE
   5
50C
 100
AcDbEntity
   8
LEVEL001
 100
AcDbLine
   6
CONTINUOUS
  62
15
  10
 134.91162514604
  20
 130.63771497871
  30
0.0
  11
 134.60777076182
  21
 129.50371497871
  31
0.0
   0
LINE
   5
50D
 100
AcDbEntity
   8
LEVEL001
 100
AcDbLine
   6
CONTINUOUS
  62
15
  10
 135.19136410294
  20
 131.68171497872
  30
0.0
  11
 135.33961193908
  21
 130.74571497871
  31
0.0
   0
LINE
   5
50E
 100
AcDbEntity
   8
LEVEL001
 100
AcDbLine
   6
CONTINUOUS
  62
15
  10
 135.35671745864
  20
 130.63771497871
  30
0.0
  11
 135.53632541397
  21
 129.50371497871
  31
0.0
   0
LINE
   5
50F
 100
AcDbEntity
   8
LEVEL001
 100
AcDbLine
   6
CONTINUOUS
  62
15
  10
 136.62634872638
  20
 130.63771497871
  30
0.0
  11
 145.01690092745
  21
 130.63771497871
  31
0.0
   0
LINE
   5
510
 100
AcDbEntity
   8
LEVEL001
 100
AcDbLine
   6
CONTINUOUS
  62
15
  10
 136.80595668170
  20
 129.50371497871
  30
0.0
  11
 136.62634872638
  21
 130.63771497871
  31
0.0
   0
LINE
   5
511
 100
AcDbEntity
   8
LEVEL001
 100
AcDbLine
   6
CONTINUOUS
  62
15
  10
 136.60924320682
  20
 130.74571497871
  30
0.0
  11
 136.45092292286
  21
 131.74530991140
  31
0.0
   0
LINE
   5
512
 100
AcDbEntity
   8
LEVEL001
 100
AcDbLine
   6
CONTINUOUS
  62
15
  10
 135.33961193908
  20
 130.74571497871
  30
0.0
  11
 134.94056365882
  21
 130.74571497871
  31
0.0
   0
LINE
   5
513
 100
AcDbEntity
   8
LEVEL001
 100
AcDbLine
   6
CONTINUOUS
  62
15
  10
 134.91162514604
  20
 130.63771497871
  30
0.0
  11
 135.35671745864
  21
 130.63771497871
  31
0.0
   0
LINE
   5
514
 100
AcDbEntity
   8
LEVEL001
 100
AcDbLine
   6
CONTINUOUS
  62
15
  10
 133.80383041273
  20
 130.74571497871
  30
0.0
  11
 134.52890092745
  21
 133.45171497871
  31
0.0
   0
LINE
   5
515
 100
AcDbEntity
   8
LEVEL001
 100
AcDbLine
   6
CONTINUOUS
  62
15
  10
 138.90827229253
  20
 130.74571497871
  30
0.0
  11
 139.48543485303
  21
 132.89971497871
  31
0.0
   0
LINE
   5
516
 100
AcDbEntity
   8
LEVEL001
 100
AcDbLine
   6
CONTINUOUS
  62
15
  10
 140.74692278894
  20
 130.74571497871
  30
0.0
  11
 141.32408534944
  21
 132.89971497871
  31
0.0
   0
LINE
   5
517
 100
AcDbEntity
   8
LEVEL001
 100
AcDbLine
   6
CONTINUOUS
  62
15
  10
 141.36808849718
  20
 130.74571497871
  30
0.0
  11
 141.94525105768
  21
 132.89971497871
  31
0.0
   0
LINE
   5
518
 100
AcDbEntity
   8
LEVEL001
 100
AcDbLine
   6
CONTINUOUS
  62
15
  10
 141.66003638006
  20
 130.74571497871
  30
0.0
  11
 142.23719894055
  21
 132.89971497871
  31
0.0
   0
LINE
   5
519
 100
AcDbEntity
   8
LEVEL001
 100
AcDbLine
   6
CONTINUOUS
  62
15
  10
 142.28120208830
  20
 130.74571497871
  30
0.0
  11
 142.85836464880
  21
 132.89971497871
  31
0.0
   0
LINE
   5
51A
 100
AcDbEntity
   8
LEVEL001
 100
AcDbLine
   6
CONTINUOUS
  62
15
  10
 143.56080344729
  20
 130.74571497871
  30
0.0
  11
 144.13796600778
  21
 132.89971497871
  31
0.0
   0
LINE
   5
51B
 100
AcDbEntity
   8
LEVEL001
 100
AcDbLine
   6
CONTINUOUS
  62
15
  10
 144.18196915553
  20
 130.74571497871
  30
0.0
  11
 144.75913171603
  21
 132.89971497871
  31
0.0
   0
LINE
   5
51C
 100
AcDbEntity
   8
LEVEL001
 100
AcDbLine
   6
CONTINUOUS
  62
15
  10
 144.13796600778
  20
 132.89971497871
  30
0.0
  11
 144.75913171603
  21
 132.89971497871
  31
0.0
   0
LINE
   5
51D
 100
AcDbEntity
   8
LEVEL001
 100
AcDbLine
   6
CONTINUOUS
  62
15
  10
 139.48543485303
  20
 132.89971497871
  30
0.0
  11
 140.10660056127
  21
 132.89971497871
  31
0.0
   0
LINE
   5
51E
 100
AcDbEntity
   8
LEVEL001
 100
AcDbLine
   6
CONTINUOUS
  62
15
  10
 141.32408534944
  20
 132.89971497871
  30
0.0
  11
 141.94525105768
  21
 132.89971497871
  31
0.0
   0
LINE
   5
51F
 100
AcDbEntity
   8
LEVEL001
 100
AcDbLine
   6
CONTINUOUS
  62
15
  10
 137.70890092745
  20
 132.89971497871
  30
0.0
  11
 138.33006663569
  21
 132.89971497871
  31
0.0
   0
LINE
   5
520
 100
AcDbEntity
   8
LEVEL001
 100
AcDbLine
   6
CONTINUOUS
  62
15
  10
 138.58474457608
  20
 132.89971497871
  30
0.0
  11
 139.20591028432
  21
 132.89971497871
  31
0.0
   0
LINE
   5
521
 100
AcDbEntity
   8
LEVEL001
 100
AcDbLine
   6
CONTINUOUS
  62
15
  10
 142.60113342407
  20
 131.93971497871
  30
0.0
  11
 142.79024444581
  21
 130.74571497871
  31
0.0
   0
LINE
   5
522
 100
AcDbEntity
   8
LEVEL001
 100
AcDbLine
   6
CONTINUOUS
  62
15
  10
 142.60113342407
  20
 131.93971497871
  30
0.0
  11
 143.40666906999
  21
 132.89971497871
  31
0.0
   0
LINE
   5
523
 100
AcDbEntity
   8
LEVEL001
 100
AcDbLine
   6
CONTINUOUS
  62
15
  10
 143.48277059185
  20
 130.74571497871
  30
0.0
  11
 143.28816550765
  21
 131.97440312381
  31
0.0
   0
LINE
   5
524
 100
AcDbEntity
   8
LEVEL001
 100
AcDbLine
   6
CONTINUOUS
  62
15
  10
 144.06459434382
  20
 132.89971497871
  30
0.0
  11
 143.28816550765
  21
 131.97440312381
  31
0.0
   0
LINE
   5
525
 100
AcDbEntity
   8
LEVEL001
 100
AcDbLine
   6
CONTINUOUS
  62
15
  10
 142.23719894055
  20
 132.89971497871
  30
0.0
  11
 142.85836464880
  21
 132.89971497871
  31
0.0
   0
LINE
   5
526
 100
AcDbEntity
   8
LEVEL001
 100
AcDbLine
   6
CONTINUOUS
  62
15
  10
 143.40666906999
  20
 132.89971497871
  30
0.0
  11
 144.06459434382
  21
 132.89971497871
  31
0.0
   0
LINE
   5
527
 100
AcDbEntity
   8
LEVEL001
 100
AcDbLine
   6
CONTINUOUS
  62
15
  10
 139.82744561990
  20
 131.39425015770
  30
0.0
  11
 139.93016350125
  21
 130.74571497871
  31
0.0
   0
LINE
   5
528
 100
AcDbEntity
   8
LEVEL001
 100
AcDbLine
   6
CONTINUOUS
  62
15
  10
 139.52943800078
  20
 130.74571497871
  30
0.0
  11
 139.94583104581
  21
 132.29971497871
  31
0.0
   0
LINE
   5
529
 100
AcDbEntity
   8
LEVEL001
 100
AcDbLine
   6
CONTINUOUS
  62
15
  10
 140.10660056127
  20
 132.89971497871
  30
0.0
  11
 140.30062670053
  21
 132.89971497871
  31
0.0
   0
LINE
   5
52A
 100
AcDbEntity
   8
LEVEL001
 100
AcDbLine
   6
CONTINUOUS
  62
15
  10
 140.62268964729
  20
 130.74571497871
  30
0.0
  11
 140.49564428679
  21
 131.54784781602
  31
0.0
   0
ARC
   5
52B
 100
AcDbEntity
   8
LEVEL001
   6
CONTINUOUS
  62
15
 100
AcDbCircle
  10
 140.30062670053
  20
 132.20971497871
  30
0.0
  40
 0.69000000000000
 100
AcDbArc
  50
 286.41748408357
  51
 90.000000000368
   0
LINE
   5
52C
 100
AcDbEntity
   8
LEVEL001
 100
AcDbLine
   6
CONTINUOUS
  62
15
  10
 137.33192297543
  20
 131.49281410844
  30
0.0
  11
 137.70890092745
  21
 132.89971497871
  31
0.0
   0
ARC
   5
52D
 100
AcDbEntity
   8
LEVEL001
   6
CONTINUOUS
  62
15
 100
AcDbCircle
  10
 137.91361176339
  20
 131.34571497871
  30
0.0
  40
 0.60000000000000
 100
AcDbArc
  50
 165.80840229947
  51
 269.99999999960
   0
LINE
   5
52E
 100
AcDbEntity
   8
LEVEL001
 100
AcDbLine
   6
CONTINUOUS
  62
15
  10
 138.78365481770
  20
 131.32383612353
  30
0.0
  11
 139.20591028432
  21
 132.89971497871
  31
0.0
   0
ARC
   5
52F
 100
AcDbEntity
   8
LEVEL001
   6
CONTINUOUS
  62
15
 100
AcDbCircle
  10
 138.03023267320
  20
 131.52571497871
  30
0.0
  40
 0.78000000000000
 100
AcDbArc
  50
 268.34236379724
  51
 345.00000000012
   0
ARC
   5
530
 100
AcDbEntity
   8
LEVEL001
   6
CONTINUOUS
  62
15
 100
AcDbCircle
  10
 137.99107899508
  20
 131.40511497871
  30
0.0
  40
 0.60000000000000E-1
 100
AcDbArc
  50
 173.14994158685
  51
 269.99999999463
   0
ARC
   5
531
 100
AcDbEntity
   8
LEVEL001
   6
CONTINUOUS
  62
15
 100
AcDbCircle
  10
 138.10896042217
  20
 131.42311497872
  30
0.0
  40
 0.78000000000000E-1
 100
AcDbArc
  50
 268.34236379206
  51
 337.88876972337
   0
LINE
   5
532
 100
AcDbEntity
   8
LEVEL001
 100
AcDbLine
   6
CONTINUOUS
  62
15
  10
 137.99107899508
  20
 131.34511497871
  30
0.0
  11
 138.10670410262
  21
 131.34511497871
  31
0.0
   0
LINE
   5
533
 100
AcDbEntity
   8
LEVEL001
 100
AcDbLine
   6
CONTINUOUS
  62
15
  10
 138.00758201558
  20
 130.74571497871
  30
0.0
  11
 138.00766947769
  21
 130.74604139174
  31
0.0
   0
LINE
   5
534
 100
AcDbEntity
   8
LEVEL001
 100
AcDbLine
   6
CONTINUOUS
  62
15
  10
 138.18122390212
  20
 131.39375532161
  30
0.0
  11
 138.58474457608
  21
 132.89971497871
  31
0.0
   0
LINE
   5
535
 100
AcDbEntity
   8
LEVEL001
 100
AcDbLine
   6
CONTINUOUS
  62
15
  10
 137.93135823736
  20
 131.41171497871
  30
0.0
  11
 138.33006663569
  21
 132.89971497871
  31
0.0
   0
LINE
   5
536
 100
AcDbEntity
   8
LEVEL001
 100
AcDbLine
   6
CONTINUOUS
  62
15
  10
 139.94583104581
  20
 132.29971497871
  30
0.0
  11
 140.12062670053
  21
 132.29971497871
  31
0.0
   0
LINE
   5
537
 100
AcDbEntity
   8
LEVEL001
 100
AcDbLine
   6
CONTINUOUS
  62
15
  10
 139.82744561990
  20
 131.39425015770
  30
0.0
  11
 139.97360247819
  21
 131.93971497871
  31
0.0
   0
LINE
   5
538
 100
AcDbEntity
   8
LEVEL001
 100
AcDbLine
   6
CONTINUOUS
  62
15
  10
 139.97360247819
  20
 131.93971497871
  30
0.0
  11
 140.12062670053
  21
 131.93971497871
  31
0.0
   0
ARC
   5
539
 100
AcDbEntity
   8
LEVEL001
   6
CONTINUOUS
  62
15
 100
AcDbCircle
  10
 140.12062670053
  20
 132.11971497871
  30
0.0
  40
 0.18000000000000
 100
AcDbArc
  50
 270.00000000000
  51
 90.000000000000
   0
LINE
   5
53A
 100
AcDbEntity
   8
LEVEL001
 100
AcDbLine
   6
CONTINUOUS
  62
15
  10
 133.80383041273
  20
 130.74571497871
  30
0.0
  11
 133.21490092745
  21
 130.74571497871
  31
0.0
   0
LINE
   5
53B
 100
AcDbEntity
   8
LEVEL001
 100
AcDbLine
   6
CONTINUOUS
  62
15
  10
 133.21490092745
  20
 130.63771497871
  30
0.0
  11
 133.77489189995
  21
 130.63771497871
  31
0.0
   0
LINE
   5
53C
 100
AcDbEntity
   8
LEVEL001
 100
AcDbLine
   6
CONTINUOUS
  62
15
  10
 133.47103751573
  20
 129.50371497871
  30
0.0
  11
 133.77489189995
  21
 130.63771497871
  31
0.0
   0
LINE
   5
53D
 100
AcDbEntity
   8
LEVEL001
 100
AcDbLine
   6
CONTINUOUS
  62
15
  10
 133.21490092745
  20
 130.63771497871
  30
0.0
  11
 133.21490092745
  21
 130.74571497871
  31
0.0
   0
LINE
   5
53E
 100
AcDbEntity
   8
LEVEL001
 100
AcDbLine
   6
CONTINUOUS
  62
15
  10
 139.93016350125
  20
 130.74571497871
  30
0.0
  11
 139.52943800078
  21
 130.74571497871
  31
0.0
   0
LINE
   5
53F
 100
AcDbEntity
   8
LEVEL001
 100
AcDbLine
   6
CONTINUOUS
  62
15
  10
 140.74692278894
  20
 130.74571497871
  30
0.0
  11
 140.62268964729
  21
 130.74571497871
  31
0.0
   0
LINE
   5
540
 100
AcDbEntity
   8
LEVEL001
 100
AcDbLine
   6
CONTINUOUS
  62
15
  10
 141.66003638006
  20
 130.74571497871
  30
0.0
  11
 141.36808849718
  21
 130.74571497871
  31
0.0
   0
LINE
   5
541
 100
AcDbEntity
   8
LEVEL001
 100
AcDbLine
   6
CONTINUOUS
  62
15
  10
 142.79024444581
  20
 130.74571497871
  30
0.0
  11
 142.28120208830
  21
 130.74571497871
  31
0.0
   0
LINE
   5
542
 100
AcDbEntity
   8
LEVEL001
 100
AcDbLine
   6
CONTINUOUS
  62
15
  10
 145.01690092745
  20
 130.74571497871
  30
0.0
  11
 144.18196915553
  21
 130.74571497871
  31
0.0
   0
LINE
   5
543
 100
AcDbEntity
   8
LEVEL001
 100
AcDbLine
   6
CONTINUOUS
  62
15
  10
 143.56080344729
  20
 130.74571497871
  30
0.0
  11
 143.48277059185
  21
 130.74571497871
  31
0.0
   0
LINE
   5
544
 100
AcDbEntity
   8
LEVEL001
 100
AcDbLine
   6
CONTINUOUS
  62
15
  10
 138.90827229253
  20
 130.74571497871
  30
0.0
  11
 138.00758201558
  21
 130.74571497871
  31
0.0
   0
LINE
   5
545
 100
AcDbEntity
   8
LEVEL001
 100
AcDbLine
   6
CONTINUOUS
  62
15
  10
 137.91361176338
  20
 130.74571497871
  30
0.0
  11
 136.60924320682
  21
 130.74571497871
  31
0.0
   0
LINE
   5
546
 100
AcDbEntity
   8
LEVEL001
 100
AcDbLine
   6
DASHDOT
  62
3
  10
 150.08956971258
  20
 130.74449012854
  30
0.0
  11
 173.32055966954
  21
 130.74449012854
  31
0.0
   0
DIMENSION
   5
547
 100
AcDbEntity
   8
LEVEL001
   6
CONTINUOUS
  62
3
 100
AcDbDimension
   2
*D15
  10
 151.36635449362
  20
 92.900674328254
  30
0.0
  11
 147.36635449362
  21
 92.900674328254
  31
0.0
  70
0
   3
GMM002
 100
AcDbAlignedDimension
  13
 143.36635449362
  23
 92.900674328254
  33
0.0
  14
 151.36635449362
  24
 117.74449012854
  34
0.0
 100
AcDbRotatedDimension
   0
DIMENSION
   5
548
 100
AcDbEntity
   8
LEVEL001
   6
CONTINUOUS
  62
3
 100
AcDbDimension
   2
*D16
  10
 128.36635449362
  20
 92.900674328254
  30
0.0
  11
 120.36635449362
  21
 92.900674328254
  31
0.0
  70
0
   3
GMM002
 100
AcDbAlignedDimension
  13
 112.36635449362
  23
 117.74449012854
  33
0.0
  14
 128.36635449362
  24
 98.182388554177
  34
0.0
 100
AcDbRotatedDimension
   0
DIMENSION
   5
549
 100
AcDbEntity
   8
LEVEL001
   6
CONTINUOUS
  62
3
 100
AcDbDimension
   2
*D17
  10
 143.36635449362
  20
 92.900674328254
  30
0.0
  11
 135.86635449362
  21
 92.900674328254
  31
0.0
  70
0
   3
GMM002
 100
AcDbAlignedDimension
  13
 128.36635449362
  23
 92.900674328254
  33
0.0
  14
 143.36635449362
  24
 98.182388554177
  34
0.0
 100
AcDbRotatedDimension
   0
DIMENSION
   5
54A
 100
AcDbEntity
   8
LEVEL001
   6
CONTINUOUS
  62
3
 100
AcDbDimension
   2
*D18
  10
 151.36635449362
  20
 83.835583819449
  30
0.0
  11
 131.86635449362
  21
 83.835583819449
  31
0.0
  70
0
   3
GMM002
 100
AcDbAlignedDimension
  13
 112.36635449362
  23
 91.900674328254
  33
0.0
  14
 151.36635449362
  24
 91.900674328254
  34
0.0
 100
AcDbRotatedDimension
   0
LINE
   5
54B
 100
AcDbEntity
   8
LEVEL001
 100
AcDbLine
   6
DASHDOT
  62
3
  10
 128.36635449362
  20
 118.91045568354
  30
0.0
  11
 128.36635449362
  21
 98.485140842157
  31
0.0
   0
LINE
   5
54C
 100
AcDbEntity
   8
LEVEL001
 100
AcDbLine
   6
DASHDOT
  62
3
  10
 143.36635449362
  20
 118.91045568354
  30
0.0
  11
 143.36635449362
  21
 98.485140842157
  31
0.0
   0
DIMENSION
   5
54D
 100
AcDbEntity
   8
LEVEL001
   6
CONTINUOUS
  62
3
 100
AcDbDimension
   2
*D19
  10
 112.36635449362
  20
 200.06364369950
  30
0.0
  11
 118.30861517334
  21
 200.06364369950
  31
0.0
  70
0
   1
\A1;(11.9)
   3
GMM008
 100
AcDbAlignedDimension
  13
 124.25087585307
  23
 194.89399072313
  33
0.0
  14
 112.36635449362
  24
 156.74449012854
  34
0.0
  50
 180.00000000000
 100
AcDbRotatedDimension
   0
DIMENSION
   5
54E
 100
AcDbEntity
   8
LEVEL001
   6
CONTINUOUS
  62
3
 100
AcDbDimension
   2
*D20
  10
 171.75087585307
  20
 191.85704398644
  30
0.0
  11
 162.50087585307
  21
 191.85704398644
  31
0.0
  70
0
   3
GMM002
 100
AcDbAlignedDimension
  13
 153.25087585307
  23
 191.85704398644
  33
0.0
  14
 171.75087585307
  24
 178.34449012854
  34
0.0
 100
AcDbRotatedDimension
   0
DIMENSION
   5
54F
 100
AcDbEntity
   8
LEVEL001
   6
CONTINUOUS
  62
3
 100
AcDbDimension
   2
*D21
  10
 124.25087585307
  20
 200.06364369950
  30
0.0
  11
 148.00087585307
  21
 200.06364369950
  31
0.0
  70
0
   3
GMM002
 100
AcDbAlignedDimension
  13
 171.75087585307
  23
 192.85704398644
  33
0.0
  14
 124.25087585307
  24
 192.85704398644
  34
0.0
  50
 180.00000000000
 100
AcDbRotatedDimension
   0
LINE
   5
550
 100
AcDbEntity
   8
LEVEL001
 100
AcDbLine
   6
DIVIDE
  62
3
  10
 117.23121638592
  20
 181.74449012854
  30
0.0
  11
 177.02305703867
  21
 181.74449012854
  31
0.0
   0
LINE
   5
551
 100
AcDbEntity
   8
LEVEL001
 100
AcDbLine
   6
DIVIDE
  62
3
  10
 117.23121638592
  20
 180.04449012854
  30
0.0
  11
 177.02305703867
  21
 180.04449012854
  31
0.0
   0
LINE
   5
552
 100
AcDbEntity
   8
LEVEL001
 100
AcDbLine
   6
DIVIDE
  62
3
  10
 117.23121638592
  20
 181.24449012854
  30
0.0
  11
 177.02305703867
  21
 181.24449012854
  31
0.0
   0
LINE
   5
553
 100
AcDbEntity
   8
LEVEL001
 100
AcDbLine
   6
DIVIDE
  62
3
  10
 117.23121638592
  20
 162.94449012854
  30
0.0
  11
 177.02305703867
  21
 162.94449012854
  31
0.0
   0
LINE
   5
554
 100
AcDbEntity
   8
LEVEL001
 100
AcDbLine
   6
DIVIDE
  62
3
  10
 117.23121638592
  20
 161.74449012854
  30
0.0
  11
 177.02305703867
  21
 161.74449012854
  31
0.0
   0
LINE
   5
555
 100
AcDbEntity
   8
LEVEL001
 100
AcDbLine
   6
DASHDOT
  62
3
  10
 122.79718138778
  20
 171.14449012854
  30
0.0
  11
 164.21914854863
  21
 171.14449012854
  31
0.0
   0
DIMENSION
   5
556
 100
AcDbEntity
   8
LEVEL001
   6
CONTINUOUS
  62
3
 100
AcDbDimension
   2
*D22
  10
 153.25087585307
  20
 191.85704398644
  30
0.0
  11
 143.25087585307
  21
 191.85704398644
  31
0.0
  70
0
   3
GMM002
 100
AcDbAlignedDimension
  13
 133.25087585307
  23
 191.85704398644
  33
0.0
  14
 153.25087585307
  24
 180.18574279895
  34
0.0
 100
AcDbRotatedDimension
   0
DIMENSION
   5
557
 100
AcDbEntity
   8
LEVEL001
   6
CONTINUOUS
  62
3
 100
AcDbDimension
   2
*D23
  10
 133.25087585307
  20
 191.85704398644
  30
0.0
  11
 128.75087585307
  21
 191.85704398644
  31
0.0
  70
0
   3
GMM002
 100
AcDbAlignedDimension
  13
 124.25087585307
  23
 176.34449012854
  33
0.0
  14
 133.25087585307
  24
 180.38937892115
  34
0.0
 100
AcDbRotatedDimension
   0
LINE
   5
558
 100
AcDbEntity
   8
LEVEL001
 100
AcDbLine
   6
DASHDOT
  62
3
  10
 153.25087585307
  20
 180.38937892115
  30
0.0
  11
 153.25087585307
  21
 161.08932762593
  31
0.0
   0
LINE
   5
559
 100
AcDbEntity
   8
LEVEL001
 100
AcDbLine
   6
DASHDOT
  62
3
  10
 133.25087585307
  20
 180.38937892115
  30
0.0
  11
 133.25087585307
  21
 161.08932762593
  31
0.0
   0
LINE
   5
55A
 100
AcDbEntity
   8
LEVEL001
 100
AcDbLine
   6
DASHDOT
  62
3
  10
 143.25087585307
  20
 183.94282674916
  30
0.0
  11
 143.25087585307
  21
 151.73109028648
  31
0.0
   0
DIMENSION
   5
55B
 100
AcDbEntity
   8
LEVEL001
   6
CONTINUOUS
  62
3
 100
AcDbDimension
   2
*D24
  10
 180.69423123589
  20
 130.74449012854
  30
0.0
  11
 180.69423123589
  21
 124.24449012854
  31
0.0
  70
0
   3
GMM002
 100
AcDbAlignedDimension
  13
 151.36635449362
  23
 117.74449012854
  33
0.0
  14
 173.32055966954
  24
 130.74449012854
  34
0.0
  50
 90.000000000000
 100
AcDbRotatedDimension
   0
DIMENSION
   5
55C
 100
AcDbEntity
   8
LEVEL001
   6
CONTINUOUS
  62
3
 100
AcDbDimension
   2
*D25
  10
 180.69423123589
  20
 156.74449012854
  30
0.0
  11
 180.69423123589
  21
 143.74449012854
  31
0.0
  70
0
   3
GMM002
 100
AcDbAlignedDimension
  13
 180.69423123589
  23
 130.74449012854
  33
0.0
  14
 151.36635449362
  24
 156.74449012854
  34
0.0
  50
 90.000000000000
 100
AcDbRotatedDimension
   0
DIMENSION
   5
55D
 100
AcDbEntity
   8
LEVEL001
   6
CONTINUOUS
  62
3
 100
AcDbDimension
   2
*D26
  10
 99.467739243456
  20
 117.74449012854
  30
0.0
  11
 99.467739243456
  21
 137.24449012854
  31
0.0
  70
0
   3
GMM002
 100
AcDbAlignedDimension
  13
 112.36635449362
  23
 156.74449012854
  33
0.0
  14
 112.36635449362
  24
 117.74449012854
  34
0.0
  50
 270.00000000000
 100
AcDbRotatedDimension
   0
DIMENSION
   5
55E
 100
AcDbEntity
   8
LEVEL001
   6
CONTINUOUS
  62
3
 100
AcDbDimension
   2
*D27
  10
 328.58202039611
  20
 168.86046366856
  30
0.0
  11
 348.08202039611
  21
 168.86046366856
  31
0.0
  70
0
   3
GMM009
 100
AcDbAlignedDimension
  13
 367.58202039611
  23
 156.74449012854
  33
0.0
  14
 328.58202039611
  24
 156.74449012854
  34
0.0
  50
 180.00000000000
 100
AcDbRotatedDimension
   0
LINE
   5
55F
 100
AcDbEntity
   8
LEVEL001
 100
AcDbLine
   6
DIVIDE
  62
3
  10
 328.58202039611
  20
 218.16585536786
  30
0.0
  11
 328.58202039611
  21
 225.16585536786
  31
0.0
   0
LINE
   5
560
 100
AcDbEntity
   8
LEVEL001
 100
AcDbLine
   6
DIVIDE
  62
3
  10
 328.58202039611
  20
 202.16585536786
  30
0.0
  11
 328.58202039611
  21
 195.16585536786
  31
0.0
   0
LINE
   5
561
 100
AcDbEntity
   8
LEVEL001
 100
AcDbLine
   6
CONTINUOUS
  62
7
  10
 367.58202039611
  20
 202.16585536786
  30
0.0
  11
 367.58202039611
  21
 218.16585536786
  31
0.0
   0
LINE
   5
562
 100
AcDbEntity
   8
LEVEL001
 100
AcDbLine
   6
CONTINUOUS
  62
7
  10
 328.58202039611
  20
 218.16585536786
  30
0.0
  11
 367.58202039611
  21
 218.16585536786
  31
0.0
   0
LINE
   5
563
 100
AcDbEntity
   8
LEVEL001
 100
AcDbLine
   6
CONTINUOUS
  62
7
  10
 328.58202039611
  20
 202.16585536786
  30
0.0
  11
 367.58202039611
  21
 202.16585536786
  31
0.0
   0
LINE
   5
564
 100
AcDbEntity
   8
LEVEL001
 100
AcDbLine
   6
CONTINUOUS
  62
7
  10
 328.58202039611
  20
 218.16585536786
  30
0.0
  11
 328.58202039611
  21
 202.16585536786
  31
0.0
   0
LINE
   5
565
 100
AcDbEntity
   8
LEVEL001
 100
AcDbLine
   6
DASHDOT
  62
3
  10
 344.58202039611
  20
 213.47742275058
  30
0.0
  11
 344.58202039611
  21
 207.04202115895
  31
0.0
   0
LINE
   5
566
 100
AcDbEntity
   8
LEVEL001
 100
AcDbLine
   6
DASHDOT
  62
3
  10
 359.58202039611
  20
 213.42288544896
  30
0.0
  11
 359.58202039611
  21
 207.09655846058
  31
0.0
   0
CIRCLE
   5
567
 100
AcDbEntity
   8
LEVEL001
 100
AcDbCircle
   6
CONTINUOUS
  62
7
  10
 344.58202039611
  20
 210.16585536786
  30
0.0
  40
 1.9000000000000
   0
CIRCLE
   5
568
 100
AcDbEntity
   8
LEVEL001
 100
AcDbCircle
   6
CONTINUOUS
  62
7
  10
 359.58202039611
  20
 210.16585536786
  30
0.0
  40
 1.9000000000000
   0
DIMENSION
   5
569
 100
AcDbEntity
   8
LEVEL001
   6
CONTINUOUS
  62
3
 100
AcDbDimension
   2
*D28
  10
 344.58202039611
  20
 181.90837106834
  30
0.0
  11
 336.58202039611
  21
 181.90837106834
  31
0.0
  70
0
   3
GMM010
 100
AcDbAlignedDimension
  13
 328.58202039611
  23
 195.16585536786
  33
0.0
  14
 344.58202039611
  24
 207.04202115895
  34
0.0
 100
AcDbRotatedDimension
   0
DIMENSION
   5
56A
 100
AcDbEntity
   8
LEVEL001
   6
CONTINUOUS
  62
3
 100
AcDbDimension
   2
*D29
  10
 359.58202039611
  20
 181.90837106834
  30
0.0
  11
 352.08202039611
  21
 181.90837106834
  31
0.0
  70
0
   3
GMM002
 100
AcDbAlignedDimension
  13
 344.58202039611
  23
 181.90837106834
  33
0.0
  14
 359.58202039611
  24
 207.09655846058
  34
0.0
 100
AcDbRotatedDimension
   0
DIMENSION
   5
56B
 100
AcDbEntity
   8
LEVEL001
   6
CONTINUOUS
  62
3
 100
AcDbDimension
   2
*D30
  10
 359.58202039611
  20
 181.90837106834
  30
0.0
  11
 363.58202039611
  21
 181.90837106834
  31
0.0
  70
0
   3
GMM002
 100
AcDbAlignedDimension
  13
 367.58202039611
  23
 202.16585536786
  33
0.0
  14
 359.58202039611
  24
 181.90837106834
  34
0.0
  50
 180.00000000000
 100
AcDbRotatedDimension
   0
LINE
   5
56C
 100
AcDbEntity
   8
LEVEL001
 100
AcDbLine
   6
DIVIDE
  62
3
  10
 367.58202039611
  20
 156.74449012854
  30
0.0
  11
 379.86087977606
  21
 156.74449012854
  31
0.0
   0
LINE
   5
56D
 100
AcDbEntity
   8
LEVEL001
 100
AcDbLine
   6
DIVIDE
  62
3
  10
 328.58202039611
  20
 225.16585536786
  30
0.0
  11
 379.86087977606
  21
 225.16585536786
  31
0.0
   0
LINE
   5
56E
 100
AcDbEntity
   8
LEVEL001
 100
AcDbLine
   6
DIVIDE
  62
3
  10
 328.58202039611
  20
 195.16585536786
  30
0.0
  11
 379.86087977606
  21
 195.16585536786
  31
0.0
   0
LINE
   5
56F
 100
AcDbEntity
   8
LEVEL001
 100
AcDbLine
   6
DASHDOT
  62
3
  10
 321.83562647615
  20
 210.16585536786
  30
0.0
  11
 384.65662250805
  21
 210.16585536786
  31
0.0
   0
INSERT
   5
570
 100
AcDbEntity
   8
LEVEL001
 100
AcDbBlockReference
   2
*D31
  10
0.0
  20
0.0
  30
0.0
   0
TEXT
   5
571
 100
AcDbEntity
   8
LEVEL001
  62
7
 100
AcDbText
  10
 299.45212890479
  20
 90.476152623212
  30
0.0
  40
 4.0000000000000
   1
参考掘込図
   7
STANDARD
 100
AcDbText
   0
LINE
   5
572
 100
AcDbEntity
   8
LEVEL001
 100
AcDbLine
   6
CONTINUOUS
  62
7
  10
 298.76547901321
  20
 89.474802862539
  30
0.0
  11
 320.01882670543
  21
 89.474802862539
  31
0.0
   0
ENDSEC
  0
SECTION
  2
OBJECTS
  0
DICTIONARY
  5
C
100
AcDbDictionary
  3
ACAD_GROUP
350
D
  3
ACAD_MLINESTYLE
350
1B
  0
DICTIONARY
  5
D
102
{ACAD_REACTORS
330
C
102
}
100
AcDbDictionary
  0
DICTIONARY
  5
1B
102
{ACAD_REACTORS
330
C
102
}
100
AcDbDictionary
  3
STANDARD
350
1C
  0
MLINESTYLE
  5
1C
102
{ACAD_REACTORS
330
1B
102
}
100
AcDbMlineStyle
  2
STANDARD
 70
     0
  3

 62
   256
 51
90.0
 52
90.0
 71
     2
 49
0.5
 62
   256
  6
BYLAYER
 49
-0.5
 62
   256
  6
BYLAYER
  0
ENDSEC
   0
EOF
