   0
SECTION
   2
HEADER
   9
$ACADVER
   1
AC1015
   9
$LIMMIN
  10
0.0
  20
0.0
   9
$LIMMAX
  10
 420.00000000000
  20
 297.00000000000
   9
$EXTMIN
  10
0.0
  20
0.0
  30
0.0
   9
$EXTMAX
  10
 420.00000000000
  20
 297.00000000000
  30
0.0
   9
$LTSCALE
  40
 8.4000000000000
   9
$HANDSEED
   5
393
   0
ENDSEC
   0
SECTION
   2
TABLES
  0
TABLE
  2
VPORT
  5
8
100
AcDbSymbolTable
 70
     1
  0
VPORT
  5
392
100
AcDbSymbolTableRecord
100
AcDbViewportTableRecord
  2
*ACTIVE
 70
     0
 10
0.0
 20
0.0
 11
1.0
 21
1.0
  12
 210.00000000000
  22
 148.50000000000
 13
0.0
 23
0.0
 14
1.0
 24
1.0
 15
0.0
 25
0.0
 16
0.0
 26
0.0
 36
1.0
 17
0.0
 27
0.0
 37
0.0
  40
 420.00000000000
  41
 1.4787878787879
 42
50.0
 43
0.0
 44
0.0
 50
0.0
 51
0.0
 71
     0
 72
   100
 73
     1
 74
     1
 75
     0
 76
     0
 77
     0
 78
     0
  0
ENDTAB
  0
TABLE
  2
LTYPE
  5
5
100
AcDbSymbolTable
 70
    25
  0
LTYPE
  5
12
100
AcDbSymbolTableRecord
100
AcDbLinetypeTableRecord
  2
BYBLOCK
 70
     0
  3

 72
    65
 73
     0
 40
0.0
  0
LTYPE
  5
13
100
AcDbSymbolTableRecord
100
AcDbLinetypeTableRecord
  2
BYLAYER
 70
     0
  3

 72
    65
 73
     0
 40
0.0
  0
LTYPE
  5
14
100
AcDbSymbolTableRecord
100
AcDbLinetypeTableRecord
  2
CONTINUOUS
 70
     0
  3
Solid line
 72
    65
 73
     0
 40
0.0
  0
LTYPE
  5
20
100
AcDbSymbolTableRecord
100
AcDbLinetypeTableRecord
  2
BORDER
 70
     0
  3
__ __ . __ __ . __ __ . __ __ . __ __ . __ __ .
 72
    65
 73
     6
 40
1.75
 49
0.5
 74
     0
 49
-0.25
 74
     0
 49
0.5
 74
     0
 49
-0.25
 74
     0
 49
0.0
 74
     0
 49
-0.25
 74
     0
  0
LTYPE
  5
21
100
AcDbSymbolTableRecord
100
AcDbLinetypeTableRecord
  2
BORDER2
 70
     0
  3
__.__.__.__.__.__.__.__.__.__.__.__.__.__.__.__
 72
    65
 73
     6
 40
0.875
 49
0.25
 74
     0
 49
-0.125
 74
     0
 49
0.25
 74
     0
 49
-0.125
 74
     0
 49
0.0
 74
     0
 49
-0.125
 74
     0
  0
LTYPE
  5
22
100
AcDbSymbolTableRecord
100
AcDbLinetypeTableRecord
  2
BORDERX2
 70
     0
  3
____  ____  .  ____  ____  .  ____  ____  .  __
 72
    65
 73
     6
 40
3.5
 49
1.0
 74
     0
 49
-0.5
 74
     0
 49
1.0
 74
     0
 49
-0.5
 74
     0
 49
0.0
 74
     0
 49
-0.5
 74
     0
  0
LTYPE
  5
23
100
AcDbSymbolTableRecord
100
AcDbLinetypeTableRecord
  2
CENTER
 70
     0
  3
____ _ ____ _ ____ _ ____ _ ____ _ ____ _ ____ 
 72
    65
 73
     4
 40
2.0
 49
1.25
 74
     0
 49
-0.25
 74
     0
 49
0.25
 74
     0
 49
-0.25
 74
     0
  0
LTYPE
  5
24
100
AcDbSymbolTableRecord
100
AcDbLinetypeTableRecord
  2
CENTER2
 70
     0
  3
___ _ ___ _ ___ _ ___ _ ___ _ ___ _ ___ _ ___ _
 72
    65
 73
     4
 40
1.125
 49
0.75
 74
     0
 49
-0.125
 74
     0
 49
0.125
 74
     0
 49
-0.125
 74
     0
  0
LTYPE
  5
25
100
AcDbSymbolTableRecord
100
AcDbLinetypeTableRecord
  2
CENTERX2
 70
     0
  3
________  __  ________  __  ________  __  _____
 72
    65
 73
     4
 40
4.0
 49
2.5
 74
     0
 49
-0.5
 74
     0
 49
0.5
 74
     0
 49
-0.5
 74
     0
  0
LTYPE
  5
26
100
AcDbSymbolTableRecord
100
AcDbLinetypeTableRecord
  2
DASHDOT
 70
     0
  3
__ . __ . __ . __ . __ . __ . __ . __ . __ . __
 72
    65
 73
     4
 40
1.0
 49
0.5
 74
     0
 49
-0.25
 74
     0
 49
0.0
 74
     0
 49
-0.25
 74
     0
  0
LTYPE
  5
27
100
AcDbSymbolTableRecord
100
AcDbLinetypeTableRecord
  2
DASHDOT2
 70
     0
  3
_._._._._._._._._._._._._._._._._._._._._._._._
 72
    65
 73
     4
 40
0.5
 49
0.25
 74
     0
 49
-0.125
 74
     0
 49
0.0
 74
     0
 49
-0.125
 74
     0
  0
LTYPE
  5
28
100
AcDbSymbolTableRecord
100
AcDbLinetypeTableRecord
  2
DASHDOTX2
 70
     0
  3
____  .  ____  .  ____  .  ____  .  ____  .  __
 72
    65
 73
     4
 40
2.0
 49
1.0
 74
     0
 49
-0.5
 74
     0
 49
0.0
 74
     0
 49
-0.5
 74
     0
  0
LTYPE
  5
29
100
AcDbSymbolTableRecord
100
AcDbLinetypeTableRecord
  2
DASHED
 70
     0
  3
__ __ __ __ __ __ __ __ __ __ __ __ __ __ __ __
 72
    65
 73
     2
 40
0.75
 49
0.5
 74
     0
 49
-0.25
 74
     0
  0
LTYPE
  5
2A
100
AcDbSymbolTableRecord
100
AcDbLinetypeTableRecord
  2
DASHED2
 70
     0
  3
_ _ _ _ _ _ _ _ _ _ _ _ _ _ _ _ _ _ _ _ _ _ _ _
 72
    65
 73
     2
 40
0.375
 49
0.25
 74
     0
 49
-0.125
 74
     0
  0
LTYPE
  5
2B
100
AcDbSymbolTableRecord
100
AcDbLinetypeTableRecord
  2
DASHEDX2
 70
     0
  3
____  ____  ____  ____  ____  ____  ____  ____ 
 72
    65
 73
     2
 40
1.5
 49
1.0
 74
     0
 49
-0.5
 74
     0
  0
LTYPE
  5
2C
100
AcDbSymbolTableRecord
100
AcDbLinetypeTableRecord
  2
DIVIDE
 70
     0
  3
____ . . ____ . . ____ . . ____ . . ____ . . __
 72
    65
 73
     6
 40
1.25
 49
0.5
 74
     0
 49
-0.25
 74
     0
 49
0.0
 74
     0
 49
-0.25
 74
     0
 49
0.0
 74
     0
 49
-0.25
 74
     0
  0
LTYPE
  5
2D
100
AcDbSymbolTableRecord
100
AcDbLinetypeTableRecord
  2
DIVIDE2
 70
     0
  3
__..__..__..__..__..__..__..__..__..__..__..__.
 72
    65
 73
     6
 40
0.625
 49
0.25
 74
     0
 49
-0.125
 74
     0
 49
0.0
 74
     0
 49
-0.125
 74
     0
 49
0.0
 74
     0
 49
-0.125
 74
     0
  0
LTYPE
  5
2E
100
AcDbSymbolTableRecord
100
AcDbLinetypeTableRecord
  2
DIVIDEX2
 70
     0
  3
________  .  .  ________  .  .  ________  .  . 
 72
    65
 73
     6
 40
2.5
 49
1.0
 74
     0
 49
-0.5
 74
     0
 49
0.0
 74
     0
 49
-0.5
 74
     0
 49
0.0
 74
     0
 49
-0.5
 74
     0
  0
LTYPE
  5
2F
100
AcDbSymbolTableRecord
100
AcDbLinetypeTableRecord
  2
DOT
 70
     0
  3
. . . . . . . . . . . . . . . . . . . . . . . .
 72
    65
 73
     2
 40
0.25
 49
0.0
 74
     0
 49
-0.25
 74
     0
  0
LTYPE
  5
30
100
AcDbSymbolTableRecord
100
AcDbLinetypeTableRecord
  2
DOT2
 70
     0
  3
...............................................
 72
    65
 73
     2
 40
0.125
 49
0.0
 74
     0
 49
-0.125
 74
     0
  0
LTYPE
  5
31
100
AcDbSymbolTableRecord
100
AcDbLinetypeTableRecord
  2
DOTX2
 70
     0
  3
.  .  .  .  .  .  .  .  .  .  .  .  .  .  .  . 
 72
    65
 73
     2
 40
0.5
 49
0.0
 74
     0
 49
-0.5
 74
     0
  0
LTYPE
  5
32
100
AcDbSymbolTableRecord
100
AcDbLinetypeTableRecord
  2
HIDDEN
 70
     0
  3
__ __ __ __ __ __ __ __ __ __ __ __ __ __ __ __
 72
    65
 73
     2
 40
0.375
 49
0.25
 74
     0
 49
-0.125
 74
     0
  0
LTYPE
  5
33
100
AcDbSymbolTableRecord
100
AcDbLinetypeTableRecord
  2
HIDDEN2
 70
     0
  3
_ _ _ _ _ _ _ _ _ _ _ _ _ _ _ _ _ _ _ _ _ _ _ _
 72
    65
 73
     2
 40
0.1875
 49
0.125
 74
     0
 49
-0.0625
 74
     0
  0
LTYPE
  5
34
100
AcDbSymbolTableRecord
100
AcDbLinetypeTableRecord
  2
HIDDENX2
 70
     0
  3
____ ____ ____ ____ ____ ____ ____ ____ ____ __
 72
    65
 73
     2
 40
0.75
 49
0.5
 74
     0
 49
-0.25
 74
     0
  0
LTYPE
  5
35
100
AcDbSymbolTableRecord
100
AcDbLinetypeTableRecord
  2
PHANTOM
 70
     0
  3
______  __  __  ______  __  __  ______  __  __ 
 72
    65
 73
     6
 40
2.5
 49
1.25
 74
     0
 49
-0.25
 74
     0
 49
0.25
 74
     0
 49
-0.25
 74
     0
 49
0.25
 74
     0
 49
-0.25
 74
     0
  0
LTYPE
  5
36
100
AcDbSymbolTableRecord
100
AcDbLinetypeTableRecord
  2
PHANTOM2
 70
     0
  3
___ _ _ ___ _ _ ___ _ _ ___ _ _ ___ _ _ ___ _ _
 72
    65
 73
     6
 40
1.25
 49
0.625
 74
     0
 49
-0.125
 74
     0
 49
0.125
 74
     0
 49
-0.125
 74
     0
 49
0.125
 74
     0
 49
-0.125
 74
     0
  0
LTYPE
  5
37
100
AcDbSymbolTableRecord
100
AcDbLinetypeTableRecord
  2
PHANTOMX2
 70
     0
  3
____________    ____    ____    ____________   
 72
    65
 73
     6
 40
5.0
 49
2.5
 74
     0
 49
-0.5
 74
     0
 49
0.5
 74
     0
 49
-0.5
 74
     0
 49
0.5
 74
     0
 49
-0.5
 74
     0
  0
ENDTAB
   0
TABLE
   2
LAYER
   5
2
 100
AcDbSymbolTable
  70
2
   0
LAYER
   5
E
 100
AcDbSymbolTableRecord
 100
AcDbLayerTableRecord
   2
0
  70
0
  62
7
   6
CONTINUOUS
 390
30
   0
LAYER
   5
39
 100
AcDbSymbolTableRecord
 100
AcDbLayerTableRecord
   2
LEVEL001
  70
0
  62
7
   6
CONTINUOUS
 390
30
   0
ENDTAB
  0
TABLE
  2
STYLE
  5
3
100
AcDbSymbolTable
  70
3
  0
STYLE
  5
F
100
AcDbSymbolTableRecord
100
AcDbTextStyleTableRecord
  2
STANDARD
 70
     0
 40
0.0
 41
1.0
 50
0.0
 71
     0
 42
0.2
  3
TXT
  4
BIGFONT
  0
STYLE
  5
38
100
AcDbSymbolTableRecord
100
AcDbTextStyleTableRecord
  2
STANDARD1
 70
     4
 40
0.0
 41
1.0
 50
0.0
 71
     0
 42
0.2
  3
TXT
  4
BIGFONT
   0
STYLE
   5
3A
 100
AcDbSymbolTableRecord
 100
AcDbTextStyleTableRecord
   2
GMM001
  70
0
  40
0.0
  41
 1.0000000000000
  50
0.0
  71
     0
  42
1.0
   3
txt.shx
   4
bigfont.shx
   0
ENDTAB
  0
TABLE
  2
VIEW
  5
6
100
AcDbSymbolTable
 70
     0
  0
ENDTAB
  0
TABLE
  2
UCS
  5
7
100
AcDbSymbolTable
 70
     0
  0
ENDTAB
  0
TABLE
  2
APPID
  5
9
100
AcDbSymbolTable
 70
     1
  0
APPID
  5
10
100
AcDbSymbolTableRecord
100
AcDbRegAppTableRecord
  2
ACAD
 70
     0
  0
ENDTAB
   0
TABLE
   2
DIMSTYLE
   5
A
 100
AcDbSymbolTable
  70
6
 100
AcDbDimStyleTable
  0
DIMSTYLE
105
1D
100
AcDbSymbolTableRecord
100
AcDbDimStyleTableRecord
  2
STANDARD
 70
     0
  3

  4

  5

  6

  7

 40
1.0
 41
0.18
 42
0.0625
 43
0.38
 44
0.18
 45
0.0
 46
0.0
 47
0.0
 48
0.0
140
0.18
141
0.09
142
0.0
143
25.4
144
1.0
145
0.0
146
1.0
147
0.09
 71
     0
 72
     0
 73
     1
 74
     1
 75
     0
 76
     0
 77
     0
 78
     0
170
     0
171
     2
172
     0
173
     0
174
     0
175
     0
176
     0
177
     0
178
     0
270
     2
271
     4
272
     4
273
     2
274
     2
340
F
275
     0
280
     0
281
     0
282
     0
283
     1
284
     0
285
     0
286
     0
287
     3
288
     0
   0
DIMSTYLE
 105
3B
 100
AcDbSymbolTableRecord
 100
AcDbDimStyleTableRecord
   2
GMM001
  70
0
   3

   4

   5

   6
_OPEN30
   7
_OPEN30
  40
 1.0000000000000
  41
 3.0000000000000
  42
 1.5000000000000
  43
 8.0000000000000
  44
 2.0000000000000
  45
0.0
  46
0.0
  47
0.0
  48
0.0
 140
 4.0000000000000
 141
 1.0000000000000
 142
0.0
 143
 0.39400000000000E-1
 144
 1.0000000000000
 145
0.0
 146
 0.62500000000000
 147
 1.7142857142857
  71
0
  72
0
  73
0
  74
0
  75
0
  76
0
  77
3
  78
8
 170
0
 171
2
 172
1
 173
1
 174
0
 175
0
 176
2
 177
2
 178
2
 270
2
 271
6
 272
0
 273
2
 274
2
 340
3A
 275
1
 280
0
 281
0
 282
0
 283
1
 284
0
 285
0
 286
0
 287
3
 288
0
   0
DIMSTYLE
 105
3C
 100
AcDbSymbolTableRecord
 100
AcDbDimStyleTableRecord
   2
GMM002
  70
0
   3

   4

   5

   6
_OPEN30
   7
_OPEN30
  40
 1.0000000000000
  41
 3.0000000000000
  42
 1.5000000000000
  43
 8.0000000000000
  44
 2.0000000000000
  45
0.0
  46
0.0
  47
0.0
  48
0.0
 140
 4.0000000000000
 141
 1.0000000000000
 142
0.0
 143
 0.39400000000000E-1
 144
 1.0000000000000
 145
0.0
 146
 0.62500000000000
 147
 1.7142857142857
  71
0
  72
0
  73
0
  74
0
  75
0
  76
0
  77
3
  78
8
 170
0
 171
2
 172
1
 173
1
 174
0
 175
0
 176
2
 177
2
 178
2
 270
2
 271
6
 272
0
 273
2
 274
2
 340
3A
 275
1
 280
0
 281
0
 282
0
 283
1
 284
0
 285
0
 286
0
 287
3
 288
1
   0
DIMSTYLE
 105
3D
 100
AcDbSymbolTableRecord
 100
AcDbDimStyleTableRecord
   2
GMM003
  70
0
   3
%%c<>
   4

   5

   6
_NONE
   7
_OPEN30
  40
 1.0000000000000
  41
 3.0000000000000
  42
 2.0000000000000
  43
 8.0000000000000
  44
 2.0000000000000
  45
0.0
  46
0.0
  47
0.0
  48
0.0
 140
 4.0000000000000
 141
 1.0000000000000
 142
0.0
 143
 0.39400000000000E-1
 144
 1.0000000000000
 145
0.0
 146
 0.62500000000000
 147
 1.7142857142857
  71
0
  72
0
  73
1
  74
1
  75
1
  76
1
  77
1
  78
8
 170
0
 171
2
 172
0
 173
1
 174
0
 175
0
 176
2
 177
2
 178
2
 270
2
 271
6
 272
0
 273
2
 274
2
 340
3A
 275
1
 280
0
 281
0
 282
0
 283
1
 284
0
 285
0
 286
0
 287
3
 288
1
   0
DIMSTYLE
 105
3E
 100
AcDbSymbolTableRecord
 100
AcDbDimStyleTableRecord
   2
GMM004
  70
0
   3
%%c<>
   4

   5

   6
_OPEN30
   7
_OPEN30
  40
 1.0000000000000
  41
 3.0000000000000
  42
 1.5000000000000
  43
 8.0000000000000
  44
 2.0000000000000
  45
0.0
  46
0.0
  47
0.0
  48
0.0
 140
 4.0000000000000
 141
 1.0000000000000
 142
0.0
 143
 0.39400000000000E-1
 144
 1.0000000000000
 145
0.0
 146
 0.62500000000000
 147
 1.7142857142857
  71
0
  72
0
  73
0
  74
0
  75
0
  76
0
  77
3
  78
8
 170
0
 171
2
 172
1
 173
1
 174
0
 175
0
 176
2
 177
2
 178
2
 270
2
 271
6
 272
0
 273
2
 274
2
 340
3A
 275
1
 280
0
 281
0
 282
0
 283
1
 284
0
 285
0
 286
0
 287
3
 288
0
   0
ENDTAB
  0
TABLE
  2
BLOCK_RECORD
  5
1
100
AcDbSymbolTable
 70
     0
  0
BLOCK_RECORD
  5
18
100
AcDbSymbolTableRecord
100
AcDbBlockTableRecord
  2
*MODEL_SPACE
  0
BLOCK_RECORD
  5
15
100
AcDbSymbolTableRecord
100
AcDbBlockTableRecord
  2
*PAPER_SPACE
   0
BLOCK_RECORD
   5
3F
 100
AcDbSymbolTableRecord
 100
AcDbBlockTableRecord
   2
*D1
   0
BLOCK_RECORD
   5
40
 100
AcDbSymbolTableRecord
 100
AcDbBlockTableRecord
   2
*D2
   0
BLOCK_RECORD
   5
41
 100
AcDbSymbolTableRecord
 100
AcDbBlockTableRecord
   2
*D3
   0
BLOCK_RECORD
   5
42
 100
AcDbSymbolTableRecord
 100
AcDbBlockTableRecord
   2
*D4
   0
BLOCK_RECORD
   5
43
 100
AcDbSymbolTableRecord
 100
AcDbBlockTableRecord
   2
*D5
   0
BLOCK_RECORD
   5
44
 100
AcDbSymbolTableRecord
 100
AcDbBlockTableRecord
   2
*D6
   0
BLOCK_RECORD
   5
45
 100
AcDbSymbolTableRecord
 100
AcDbBlockTableRecord
   2
*D7
   0
BLOCK_RECORD
   5
46
 100
AcDbSymbolTableRecord
 100
AcDbBlockTableRecord
   2
*D8
   0
BLOCK_RECORD
   5
47
 100
AcDbSymbolTableRecord
 100
AcDbBlockTableRecord
   2
*D9
   0
BLOCK_RECORD
   5
48
 100
AcDbSymbolTableRecord
 100
AcDbBlockTableRecord
   2
*D10
   0
BLOCK_RECORD
   5
49
 100
AcDbSymbolTableRecord
 100
AcDbBlockTableRecord
   2
*D11
   0
BLOCK_RECORD
   5
4A
 100
AcDbSymbolTableRecord
 100
AcDbBlockTableRecord
   2
*D12
   0
BLOCK_RECORD
   5
4B
 100
AcDbSymbolTableRecord
 100
AcDbBlockTableRecord
   2
*D13
   0
BLOCK_RECORD
   5
4C
 100
AcDbSymbolTableRecord
 100
AcDbBlockTableRecord
   2
*D14
   0
BLOCK_RECORD
   5
4D
 100
AcDbSymbolTableRecord
 100
AcDbBlockTableRecord
   2
*D15
   0
BLOCK_RECORD
   5
4E
 100
AcDbSymbolTableRecord
 100
AcDbBlockTableRecord
   2
*D16
   0
BLOCK_RECORD
   5
4F
 100
AcDbSymbolTableRecord
 100
AcDbBlockTableRecord
   2
*D17
   0
BLOCK_RECORD
   5
50
 100
AcDbSymbolTableRecord
 100
AcDbBlockTableRecord
   2
*D18
   0
BLOCK_RECORD
   5
51
 100
AcDbSymbolTableRecord
 100
AcDbBlockTableRecord
   2
*D19
   0
BLOCK_RECORD
   5
52
 100
AcDbSymbolTableRecord
 100
AcDbBlockTableRecord
   2
*D20
   0
BLOCK_RECORD
   5
53
 100
AcDbSymbolTableRecord
 100
AcDbBlockTableRecord
   2
*D21
   0
BLOCK_RECORD
   5
54
 100
AcDbSymbolTableRecord
 100
AcDbBlockTableRecord
   2
*D22
   0
BLOCK_RECORD
   5
55
 100
AcDbSymbolTableRecord
 100
AcDbBlockTableRecord
   2
*D23
   0
BLOCK_RECORD
   5
56
 100
AcDbSymbolTableRecord
 100
AcDbBlockTableRecord
   2
*D24
   0
BLOCK_RECORD
   5
57
 100
AcDbSymbolTableRecord
 100
AcDbBlockTableRecord
   2
*D25
   0
BLOCK_RECORD
   5
58
 100
AcDbSymbolTableRecord
 100
AcDbBlockTableRecord
   2
*D26
   0
BLOCK_RECORD
   5
59
 100
AcDbSymbolTableRecord
 100
AcDbBlockTableRecord
   2
*D27
   0
BLOCK_RECORD
   5
5A
 100
AcDbSymbolTableRecord
 100
AcDbBlockTableRecord
   2
_ARCHTICK
   0
BLOCK_RECORD
   5
5B
 100
AcDbSymbolTableRecord
 100
AcDbBlockTableRecord
   2
_BOXBLANK
   0
BLOCK_RECORD
   5
5C
 100
AcDbSymbolTableRecord
 100
AcDbBlockTableRecord
   2
_BOXFILLED
   0
BLOCK_RECORD
   5
5D
 100
AcDbSymbolTableRecord
 100
AcDbBlockTableRecord
   2
_CLOSED
   0
BLOCK_RECORD
   5
5E
 100
AcDbSymbolTableRecord
 100
AcDbBlockTableRecord
   2
_CLOSEDBLANK
   0
BLOCK_RECORD
   5
5F
 100
AcDbSymbolTableRecord
 100
AcDbBlockTableRecord
   2
_DATUMBLANK
   0
BLOCK_RECORD
   5
60
 100
AcDbSymbolTableRecord
 100
AcDbBlockTableRecord
   2
_DATUMFILLED
   0
BLOCK_RECORD
   5
61
 100
AcDbSymbolTableRecord
 100
AcDbBlockTableRecord
   2
_DOT
   0
BLOCK_RECORD
   5
62
 100
AcDbSymbolTableRecord
 100
AcDbBlockTableRecord
   2
_DOTBLANK
   0
BLOCK_RECORD
   5
63
 100
AcDbSymbolTableRecord
 100
AcDbBlockTableRecord
   2
_DOTSMALL
   0
BLOCK_RECORD
   5
64
 100
AcDbSymbolTableRecord
 100
AcDbBlockTableRecord
   2
_INTEGRAL
   0
BLOCK_RECORD
   5
65
 100
AcDbSymbolTableRecord
 100
AcDbBlockTableRecord
   2
_NONE
   0
BLOCK_RECORD
   5
66
 100
AcDbSymbolTableRecord
 100
AcDbBlockTableRecord
   2
_OBLIQUE
   0
BLOCK_RECORD
   5
67
 100
AcDbSymbolTableRecord
 100
AcDbBlockTableRecord
   2
_OPEN
   0
BLOCK_RECORD
   5
68
 100
AcDbSymbolTableRecord
 100
AcDbBlockTableRecord
   2
_OPEN30
   0
BLOCK_RECORD
   5
69
 100
AcDbSymbolTableRecord
 100
AcDbBlockTableRecord
   2
_OPEN90
   0
BLOCK_RECORD
   5
6A
 100
AcDbSymbolTableRecord
 100
AcDbBlockTableRecord
   2
_ORIGIN
   0
ENDTAB
   0
ENDSEC
  0
SECTION
  2
BLOCKS
  0
BLOCK
  5
19
100
AcDbEntity
  8
0
100
AcDbBlockBegin
  2
*MODEL_SPACE
 70
     0
 10
0.0
 20
0.0
 30
0.0
  3
*MODEL_SPACE
  1

  0
ENDBLK
  5
1A
100
AcDbEntity
  8
0
100
AcDbBlockEnd
  0
BLOCK
  5
16
100
AcDbEntity
 67
     1
  8
0
100
AcDbBlockBegin
  2
*PAPER_SPACE
 70
     0
 10
0.0
 20
0.0
 30
0.0
  3
*PAPER_SPACE
  1

  0
ENDBLK
  5
17
100
AcDbEntity
 67
     1
  8
0
100
AcDbBlockEnd
   0
BLOCK
   5
6B
 100
AcDbEntity
   8
0
 100
AcDbBlockBegin
   2
_ARCHTICK
  70
0
  10
0.0
  20
0.0
  30
0.0
   3
_ARCHTICK
   0
POLYLINE
   5
6C
 100
AcDbEntity
   8
0
   6
BYBLOCK
  62
0
 100
AcDb2dPolyline
  66
1
  10
0.0
  20
0.0
  30
0.0
  70
1
  40
 0.15000000000000
  41
 0.15000000000000
   0
VERTEX
   5
6D
 100
AcDbEntity
   8
0
   6
BYBLOCK
  62
0
 100
AcDbVertex
 100
AcDb2dVertex
  10
-0.50000000000000
  20
-0.50000000000000
  30
0.0
  40
 0.15000000000000
  41
 0.15000000000000
   0
VERTEX
   5
6E
 100
AcDbEntity
   8
0
   6
BYBLOCK
  62
0
 100
AcDbVertex
 100
AcDb2dVertex
  10
 0.50000000000000
  20
 0.50000000000000
  30
0.0
  40
 0.15000000000000
  41
 0.15000000000000
   0
SEQEND
   5
6F
 100
AcDbEntity
   8
0
   6
BYBLOCK
  62
0
   0
ENDBLK
   5
70
 100
AcDbEntity
   8
0
 100
AcDbBlockEnd
   0
BLOCK
   5
71
 100
AcDbEntity
   8
0
 100
AcDbBlockBegin
   2
_OBLIQUE
  70
0
  10
0.0
  20
0.0
  30
0.0
   3
_OBLIQUE
   0
LINE
   5
72
 100
AcDbEntity
   8
0
 100
AcDbLine
   6
BYBLOCK
  62
0
  10
-0.50000000000000
  20
-0.50000000000000
  30
0.0
  11
 0.50000000000000
  21
 0.50000000000000
  31
0.0
   0
ENDBLK
   5
73
 100
AcDbEntity
   8
0
 100
AcDbBlockEnd
   0
BLOCK
   5
74
 100
AcDbEntity
   8
0
 100
AcDbBlockBegin
   2
_BOXBLANK
  70
0
  10
0.0
  20
0.0
  30
0.0
   3
_BOXBLANK
   0
LINE
   5
75
 100
AcDbEntity
   8
0
 100
AcDbLine
   6
BYBLOCK
  62
0
  10
-0.50000000000000
  20
-0.50000000000000
  30
0.0
  11
 0.50000000000000
  21
-0.50000000000000
  31
0.0
   0
LINE
   5
76
 100
AcDbEntity
   8
0
 100
AcDbLine
   6
BYBLOCK
  62
0
  10
 0.50000000000000
  20
-0.50000000000000
  30
0.0
  11
 0.50000000000000
  21
 0.50000000000000
  31
0.0
   0
LINE
   5
77
 100
AcDbEntity
   8
0
 100
AcDbLine
   6
BYBLOCK
  62
0
  10
 0.50000000000000
  20
 0.50000000000000
  30
0.0
  11
-0.50000000000000
  21
 0.50000000000000
  31
0.0
   0
LINE
   5
78
 100
AcDbEntity
   8
0
 100
AcDbLine
   6
BYBLOCK
  62
0
  10
-0.50000000000000
  20
 0.50000000000000
  30
0.0
  11
-0.50000000000000
  21
-0.50000000000000
  31
0.0
   0
LINE
   5
79
 100
AcDbEntity
   8
0
 100
AcDbLine
   6
BYBLOCK
  62
0
  10
-0.50000000000000
  20
0.0
  30
0.0
  11
-1.0000000000000
  21
0.0
  31
0.0
   0
ENDBLK
   5
7A
 100
AcDbEntity
   8
0
 100
AcDbBlockEnd
   0
BLOCK
   5
7B
 100
AcDbEntity
   8
0
 100
AcDbBlockBegin
   2
_BOXFILLED
  70
0
  10
0.0
  20
0.0
  30
0.0
   3
_BOXFILLED
   0
SOLID
   5
7C
 100
AcDbEntity
   8
0
 100
AcDbTrace
   6
BYBLOCK
  62
0
  10
-0.50000000000000
  20
 0.50000000000000
  30
0.0
  11
 0.50000000000000
  21
 0.50000000000000
  31
0.0
  12
-0.50000000000000
  22
-0.50000000000000
  32
0.0
  13
 0.50000000000000
  23
-0.50000000000000
  33
0.0
   0
LINE
   5
7D
 100
AcDbEntity
   8
0
 100
AcDbLine
   6
BYBLOCK
  62
0
  10
-0.50000000000000
  20
0.0
  30
0.0
  11
-1.0000000000000
  21
0.0
  31
0.0
   0
ENDBLK
   5
7E
 100
AcDbEntity
   8
0
 100
AcDbBlockEnd
   0
BLOCK
   5
7F
 100
AcDbEntity
   8
0
 100
AcDbBlockBegin
   2
_CLOSED
  70
0
  10
0.0
  20
0.0
  30
0.0
   3
_CLOSED
   0
LINE
   5
80
 100
AcDbEntity
   8
0
 100
AcDbLine
   6
BYBLOCK
  62
0
  10
-1.0000000000000
  20
 0.16666666666667
  30
0.0
  11
0.0
  21
0.0
  31
0.0
   0
LINE
   5
81
 100
AcDbEntity
   8
0
 100
AcDbLine
   6
BYBLOCK
  62
0
  10
0.0
  20
0.0
  30
0.0
  11
-1.0000000000000
  21
-0.16666666666667
  31
0.0
   0
LINE
   5
82
 100
AcDbEntity
   8
0
 100
AcDbLine
   6
BYBLOCK
  62
0
  10
-1.0000000000000
  20
 0.16666666666667
  30
0.0
  11
-1.0000000000000
  21
-0.16666666666667
  31
0.0
   0
LINE
   5
83
 100
AcDbEntity
   8
0
 100
AcDbLine
   6
BYBLOCK
  62
0
  10
0.0
  20
0.0
  30
0.0
  11
-1.0000000000000
  21
0.0
  31
0.0
   0
ENDBLK
   5
84
 100
AcDbEntity
   8
0
 100
AcDbBlockEnd
   0
BLOCK
   5
85
 100
AcDbEntity
   8
0
 100
AcDbBlockBegin
   2
_OPEN
  70
0
  10
0.0
  20
0.0
  30
0.0
   3
_OPEN
   0
LINE
   5
86
 100
AcDbEntity
   8
0
 100
AcDbLine
   6
BYBLOCK
  62
0
  10
-1.0000000000000
  20
 0.16666666666667
  30
0.0
  11
0.0
  21
0.0
  31
0.0
   0
LINE
   5
87
 100
AcDbEntity
   8
0
 100
AcDbLine
   6
BYBLOCK
  62
0
  10
0.0
  20
0.0
  30
0.0
  11
-1.0000000000000
  21
-0.16666666666667
  31
0.0
   0
LINE
   5
88
 100
AcDbEntity
   8
0
 100
AcDbLine
   6
BYBLOCK
  62
0
  10
0.0
  20
0.0
  30
0.0
  11
-1.0000000000000
  21
0.0
  31
0.0
   0
ENDBLK
   5
89
 100
AcDbEntity
   8
0
 100
AcDbBlockEnd
   0
BLOCK
   5
8A
 100
AcDbEntity
   8
0
 100
AcDbBlockBegin
   2
_OPEN30
  70
0
  10
0.0
  20
0.0
  30
0.0
   3
_OPEN30
   0
LINE
   5
8B
 100
AcDbEntity
   8
0
 100
AcDbLine
   6
BYBLOCK
  62
0
  10
-1.0000000000000
  20
 0.26794919243110
  30
0.0
  11
0.0
  21
0.0
  31
0.0
   0
LINE
   5
8C
 100
AcDbEntity
   8
0
 100
AcDbLine
   6
BYBLOCK
  62
0
  10
0.0
  20
0.0
  30
0.0
  11
-1.0000000000000
  21
-0.26794919243110
  31
0.0
   0
LINE
   5
8D
 100
AcDbEntity
   8
0
 100
AcDbLine
   6
BYBLOCK
  62
0
  10
0.0
  20
0.0
  30
0.0
  11
-1.0000000000000
  21
0.0
  31
0.0
   0
ENDBLK
   5
8E
 100
AcDbEntity
   8
0
 100
AcDbBlockEnd
   0
BLOCK
   5
8F
 100
AcDbEntity
   8
0
 100
AcDbBlockBegin
   2
_OPEN90
  70
0
  10
0.0
  20
0.0
  30
0.0
   3
_OPEN90
   0
LINE
   5
90
 100
AcDbEntity
   8
0
 100
AcDbLine
   6
BYBLOCK
  62
0
  10
-0.50000000000000
  20
 0.50000000000000
  30
0.0
  11
0.0
  21
0.0
  31
0.0
   0
LINE
   5
91
 100
AcDbEntity
   8
0
 100
AcDbLine
   6
BYBLOCK
  62
0
  10
0.0
  20
0.0
  30
0.0
  11
-0.50000000000000
  21
-0.50000000000000
  31
0.0
   0
LINE
   5
92
 100
AcDbEntity
   8
0
 100
AcDbLine
   6
BYBLOCK
  62
0
  10
0.0
  20
0.0
  30
0.0
  11
-1.0000000000000
  21
0.0
  31
0.0
   0
ENDBLK
   5
93
 100
AcDbEntity
   8
0
 100
AcDbBlockEnd
   0
BLOCK
   5
94
 100
AcDbEntity
   8
0
 100
AcDbBlockBegin
   2
_CLOSEDBLANK
  70
0
  10
0.0
  20
0.0
  30
0.0
   3
_CLOSEDBLANK
   0
LINE
   5
95
 100
AcDbEntity
   8
0
 100
AcDbLine
   6
BYBLOCK
  62
0
  10
-1.0000000000000
  20
 0.16666666666667
  30
0.0
  11
0.0
  21
0.0
  31
0.0
   0
LINE
   5
96
 100
AcDbEntity
   8
0
 100
AcDbLine
   6
BYBLOCK
  62
0
  10
0.0
  20
0.0
  30
0.0
  11
-1.0000000000000
  21
-0.16666666666667
  31
0.0
   0
LINE
   5
97
 100
AcDbEntity
   8
0
 100
AcDbLine
   6
BYBLOCK
  62
0
  10
-1.0000000000000
  20
 0.16666666666667
  30
0.0
  11
-1.0000000000000
  21
-0.16666666666667
  31
0.0
   0
ENDBLK
   5
98
 100
AcDbEntity
   8
0
 100
AcDbBlockEnd
   0
BLOCK
   5
99
 100
AcDbEntity
   8
0
 100
AcDbBlockBegin
   2
_DOT
  70
0
  10
0.0
  20
0.0
  30
0.0
   3
_DOT
   0
POLYLINE
   5
9A
 100
AcDbEntity
   8
0
   6
BYBLOCK
  62
0
 100
AcDb2dPolyline
  66
1
  10
0.0
  20
0.0
  30
0.0
  70
1
  40
 0.50000000000000
  41
 0.50000000000000
   0
VERTEX
   5
9B
 100
AcDbEntity
   8
0
   6
BYBLOCK
  62
0
 100
AcDbVertex
 100
AcDb2dVertex
  10
-0.25000000000000
  20
0.0
  30
0.0
  42
 1.0000000000000
  40
 0.50000000000000
  41
 0.50000000000000
   0
VERTEX
   5
9C
 100
AcDbEntity
   8
0
   6
BYBLOCK
  62
0
 100
AcDbVertex
 100
AcDb2dVertex
  10
 0.25000000000000
  20
0.0
  30
0.0
  42
 1.0000000000000
  40
 0.50000000000000
  41
 0.50000000000000
   0
SEQEND
   5
9D
 100
AcDbEntity
   8
0
   6
BYBLOCK
  62
0
   0
LINE
   5
9E
 100
AcDbEntity
   8
0
 100
AcDbLine
   6
BYBLOCK
  62
0
  10
-0.50000000000000
  20
0.0
  30
0.0
  11
-1.0000000000000
  21
0.0
  31
0.0
   0
ENDBLK
   5
9F
 100
AcDbEntity
   8
0
 100
AcDbBlockEnd
   0
BLOCK
   5
A0
 100
AcDbEntity
   8
0
 100
AcDbBlockBegin
   2
_DOTSMALL
  70
0
  10
0.0
  20
0.0
  30
0.0
   3
_DOTSMALL
   0
POLYLINE
   5
A1
 100
AcDbEntity
   8
0
   6
BYBLOCK
  62
0
 100
AcDb2dPolyline
  66
1
  10
0.0
  20
0.0
  30
0.0
  70
1
  40
 0.50000000000000
  41
 0.50000000000000
   0
VERTEX
   5
A2
 100
AcDbEntity
   8
0
   6
BYBLOCK
  62
0
 100
AcDbVertex
 100
AcDb2dVertex
  10
-0.62500000000000E-1
  20
0.0
  30
0.0
  42
 1.0000000000000
  40
 0.50000000000000
  41
 0.50000000000000
   0
VERTEX
   5
A3
 100
AcDbEntity
   8
0
   6
BYBLOCK
  62
0
 100
AcDbVertex
 100
AcDb2dVertex
  10
 0.62500000000000E-1
  20
0.0
  30
0.0
  42
 1.0000000000000
  40
 0.50000000000000
  41
 0.50000000000000
   0
SEQEND
   5
A4
 100
AcDbEntity
   8
0
   6
BYBLOCK
  62
0
   0
ENDBLK
   5
A5
 100
AcDbEntity
   8
0
 100
AcDbBlockEnd
   0
BLOCK
   5
A6
 100
AcDbEntity
   8
0
 100
AcDbBlockBegin
   2
_DATUMBLANK
  70
0
  10
0.0
  20
0.0
  30
0.0
   3
_DATUMBLANK
   0
LINE
   5
A7
 100
AcDbEntity
   8
0
 100
AcDbLine
   6
BYBLOCK
  62
0
  10
0.0
  20
 0.57735027000000
  30
0.0
  11
-1.0000000000000
  21
0.0
  31
0.0
   0
LINE
   5
A8
 100
AcDbEntity
   8
0
 100
AcDbLine
   6
BYBLOCK
  62
0
  10
-1.0000000000000
  20
0.0
  30
0.0
  11
0.0
  21
-0.57735027000000
  31
0.0
   0
LINE
   5
A9
 100
AcDbEntity
   8
0
 100
AcDbLine
   6
BYBLOCK
  62
0
  10
0.0
  20
-0.57735027000000
  30
0.0
  11
0.0
  21
 0.57735027000000
  31
0.0
   0
ENDBLK
   5
AA
 100
AcDbEntity
   8
0
 100
AcDbBlockEnd
   0
BLOCK
   5
AB
 100
AcDbEntity
   8
0
 100
AcDbBlockBegin
   2
_DATUMFILLED
  70
0
  10
0.0
  20
0.0
  30
0.0
   3
_DATUMFILLED
   0
SOLID
   5
AC
 100
AcDbEntity
   8
0
 100
AcDbTrace
   6
BYBLOCK
  62
0
  10
0.0
  20
 0.57735027000000
  30
0.0
  11
-1.0000000000000
  21
0.0
  31
0.0
  12
0.0
  22
-0.57735027000000
  32
0.0
  13
0.0
  23
-0.57735027000000
  33
0.0
   0
ENDBLK
   5
AD
 100
AcDbEntity
   8
0
 100
AcDbBlockEnd
   0
BLOCK
   5
AE
 100
AcDbEntity
   8
0
 100
AcDbBlockBegin
   2
_ORIGIN
  70
0
  10
0.0
  20
0.0
  30
0.0
   3
_ORIGIN
   0
CIRCLE
   5
AF
 100
AcDbEntity
   8
0
 100
AcDbCircle
   6
BYBLOCK
  62
0
  10
0.0
  20
0.0
  30
0.0
  40
 0.50000000000000
   0
LINE
   5
B0
 100
AcDbEntity
   8
0
 100
AcDbLine
   6
BYBLOCK
  62
0
  10
0.0
  20
0.0
  30
0.0
  11
-1.0000000000000
  21
0.0
  31
0.0
   0
ENDBLK
   5
B1
 100
AcDbEntity
   8
0
 100
AcDbBlockEnd
   0
BLOCK
   5
B2
 100
AcDbEntity
   8
0
 100
AcDbBlockBegin
   2
_NONE
  70
0
  10
0.0
  20
0.0
  30
0.0
   3
_NONE
   0
CIRCLE
   5
B3
 100
AcDbEntity
   8
0
 100
AcDbCircle
   6
BYBLOCK
  62
0
  10
0.0
  20
0.0
  30
0.0
  40
 0.25000000000000
   0
ENDBLK
   5
B4
 100
AcDbEntity
   8
0
 100
AcDbBlockEnd
   0
BLOCK
   5
B5
 100
AcDbEntity
   8
0
 100
AcDbBlockBegin
   2
_DOTBLANK
  70
0
  10
0.0
  20
0.0
  30
0.0
   3
_DOTBLANK
   0
CIRCLE
   5
B6
 100
AcDbEntity
   8
0
 100
AcDbCircle
   6
BYBLOCK
  62
0
  10
0.0
  20
0.0
  30
0.0
  40
 0.50000000000000
   0
LINE
   5
B7
 100
AcDbEntity
   8
0
 100
AcDbLine
   6
BYBLOCK
  62
0
  10
-0.50000000000000
  20
0.0
  30
0.0
  11
-1.0000000000000
  21
0.0
  31
0.0
   0
ENDBLK
   5
B8
 100
AcDbEntity
   8
0
 100
AcDbBlockEnd
   0
BLOCK
   5
B9
 100
AcDbEntity
   8
0
 100
AcDbBlockBegin
   2
_INTEGRAL
  70
0
  10
0.0
  20
0.0
  30
0.0
   3
_INTEGRAL
   0
ARC
   5
BA
 100
AcDbEntity
   8
0
   6
BYBLOCK
  62
0
 100
AcDbCircle
  10
 0.44488800000000
  20
-0.91335000000000E-1
  30
0.0
  40
 0.45416700000000
 100
AcDbArc
  50
 102.00000000000
  51
 168.00000000000
   0
ARC
   5
BB
 100
AcDbEntity
   8
0
   6
BYBLOCK
  62
0
 100
AcDbCircle
  10
-0.44488800000000
  20
 0.91335000000000E-1
  30
0.0
  40
 0.45416700000000
 100
AcDbArc
  50
 282.00000000000
  51
 348.00000000000
   0
ENDBLK
   5
BC
 100
AcDbEntity
   8
0
 100
AcDbBlockEnd
   0
BLOCK
   5
BD
 100
AcDbEntity
   8
0
 100
AcDbBlockBegin
   2
*D1
  70
65
  10
0.0
  20
0.0
  30
0.0
   3
*D1
   0
LINE
   5
BE
 100
AcDbEntity
   8
LEVEL001
 100
AcDbLine
   6
CONTINUOUS
  62
2
  10
 173.61949575226
  20
 167.61886259536
  30
0.0
  11
 173.61949575226
  21
 180.46844643231
  31
0.0
   0
LINE
   5
BF
 100
AcDbEntity
   8
LEVEL001
 100
AcDbLine
   6
CONTINUOUS
  62
2
  10
 181.36949575226
  20
 178.46844643231
  30
0.0
  11
 175.61949575226
  21
 178.46844643231
  31
0.0
   0
LINE
   5
C0
 100
AcDbEntity
   8
LEVEL001
 100
AcDbLine
   6
CONTINUOUS
  62
2
  10
 169.86949575226
  20
 178.46844643231
  30
0.0
  11
 175.61949575226
  21
 178.46844643231
  31
0.0
   0
INSERT
   5
C1
 100
AcDbEntity
   8
LEVEL001
   6
CONTINUOUS
  62
2
 100
AcDbBlockReference
   2
_OPEN30
  10
 177.61949575226
  20
 178.46844643231
  30
0.0
  41
 3.0000000000000
  42
 3.0000000000000
  43
 3.0000000000000
  50
 180.00000000000
   0
INSERT
   5
C2
 100
AcDbEntity
   8
LEVEL001
   6
CONTINUOUS
  62
2
 100
AcDbBlockReference
   2
_OPEN30
  10
 173.61949575226
  20
 178.46844643231
  30
0.0
  41
 3.0000000000000
  42
 3.0000000000000
  43
 3.0000000000000
  50
0.0
   0
MTEXT
   5
C3
 100
AcDbEntity
   8
LEVEL001
  62
2
 100
AcDbMText
  10
 175.61949575226
  20
 180.18273214660
  30
0.0
  40
 4.0000000000000
  41
0.0
  71
8
  72
1
   1
\A1;4
   7
GMM001
   0
ENDBLK
   5
C4
 100
AcDbEntity
   8
0
 100
AcDbBlockEnd
   0
BLOCK
   5
C5
 100
AcDbEntity
   8
0
 100
AcDbBlockBegin
   2
*D2
  70
65
  10
0.0
  20
0.0
  30
0.0
   3
*D2
   0
LINE
   5
C6
 100
AcDbEntity
   8
LEVEL001
 100
AcDbLine
   6
CONTINUOUS
  62
2
  10
 207.61949575226
  20
 181.96844643231
  30
0.0
  11
 207.61949575226
  21
 190.05420830712
  31
0.0
   0
LINE
   5
C7
 100
AcDbEntity
   8
LEVEL001
 100
AcDbLine
   6
CONTINUOUS
  62
2
  10
 173.61949575226
  20
 181.96844643231
  30
0.0
  11
 173.61949575226
  21
 190.05420830712
  31
0.0
   0
LINE
   5
C8
 100
AcDbEntity
   8
LEVEL001
 100
AcDbLine
   6
CONTINUOUS
  62
2
  10
 207.61949575226
  20
 188.05420830712
  30
0.0
  11
 190.61949575226
  21
 188.05420830712
  31
0.0
   0
LINE
   5
C9
 100
AcDbEntity
   8
LEVEL001
 100
AcDbLine
   6
CONTINUOUS
  62
2
  10
 173.61949575226
  20
 188.05420830712
  30
0.0
  11
 190.61949575226
  21
 188.05420830712
  31
0.0
   0
INSERT
   5
CA
 100
AcDbEntity
   8
LEVEL001
   6
CONTINUOUS
  62
2
 100
AcDbBlockReference
   2
_OPEN30
  10
 207.61949575226
  20
 188.05420830712
  30
0.0
  41
 3.0000000000000
  42
 3.0000000000000
  43
 3.0000000000000
  50
0.0
   0
INSERT
   5
CB
 100
AcDbEntity
   8
LEVEL001
   6
CONTINUOUS
  62
2
 100
AcDbBlockReference
   2
_OPEN30
  10
 173.61949575226
  20
 188.05420830712
  30
0.0
  41
 3.0000000000000
  42
 3.0000000000000
  43
 3.0000000000000
  50
 180.00000000000
   0
MTEXT
   5
CC
 100
AcDbEntity
   8
LEVEL001
  62
2
 100
AcDbMText
  10
 190.61949575226
  20
 189.76849402141
  30
0.0
  40
 4.0000000000000
  41
0.0
  71
8
  72
1
   1
\A1;34
   7
GMM001
   0
ENDBLK
   5
CD
 100
AcDbEntity
   8
0
 100
AcDbBlockEnd
   0
BLOCK
   5
CE
 100
AcDbEntity
   8
0
 100
AcDbBlockBegin
   2
*D3
  70
65
  10
0.0
  20
0.0
  30
0.0
   3
*D3
   0
LINE
   5
CF
 100
AcDbEntity
   8
LEVEL001
 100
AcDbLine
   6
CONTINUOUS
  62
2
  10
 207.61949575226
  20
 167.61886259536
  30
0.0
  11
 207.61949575226
  21
 180.46844643231
  31
0.0
   0
LINE
   5
D0
 100
AcDbEntity
   8
LEVEL001
 100
AcDbLine
   6
CONTINUOUS
  62
2
  10
 198.36949575226
  20
 178.46844643231
  30
0.0
  11
 204.86949575226
  21
 178.46844643231
  31
0.0
   0
LINE
   5
D1
 100
AcDbEntity
   8
LEVEL001
 100
AcDbLine
   6
CONTINUOUS
  62
2
  10
 219.01599662903
  20
 178.46844643231
  30
0.0
  11
 204.86949575226
  21
 178.46844643231
  31
0.0
   0
INSERT
   5
D2
 100
AcDbEntity
   8
LEVEL001
   6
CONTINUOUS
  62
2
 100
AcDbBlockReference
   2
_OPEN30
  10
 202.11949575226
  20
 178.46844643231
  30
0.0
  41
 3.0000000000000
  42
 3.0000000000000
  43
 3.0000000000000
  50
0.0
   0
INSERT
   5
D3
 100
AcDbEntity
   8
LEVEL001
   6
CONTINUOUS
  62
2
 100
AcDbBlockReference
   2
_OPEN30
  10
 207.61949575226
  20
 178.46844643231
  30
0.0
  41
 3.0000000000000
  42
 3.0000000000000
  43
 3.0000000000000
  50
 180.00000000000
   0
MTEXT
   5
D4
 100
AcDbEntity
   8
LEVEL001
  62
2
 100
AcDbMText
  10
 214.01599662903
  20
 180.18273214660
  30
0.0
  40
 4.0000000000000
  41
0.0
  71
8
  72
1
   1
\A1;5.5
   7
GMM001
   0
ENDBLK
   5
D5
 100
AcDbEntity
   8
0
 100
AcDbBlockEnd
   0
BLOCK
   5
D6
 100
AcDbEntity
   8
0
 100
AcDbBlockBegin
   2
*D4
  70
65
  10
0.0
  20
0.0
  30
0.0
   3
*D4
   0
LINE
   5
D7
 100
AcDbEntity
   8
LEVEL001
 100
AcDbLine
   6
CONTINUOUS
  62
2
  10
 177.61949575226
  20
 154.80154064561
  30
0.0
  11
 177.61949575226
  21
 180.46844643231
  31
0.0
   0
LINE
   5
D8
 100
AcDbEntity
   8
LEVEL001
 100
AcDbLine
   6
CONTINUOUS
  62
2
  10
 202.11949575226
  20
 154.80154064561
  30
0.0
  11
 202.11949575226
  21
 180.46844643231
  31
0.0
   0
LINE
   5
D9
 100
AcDbEntity
   8
LEVEL001
 100
AcDbLine
   6
CONTINUOUS
  62
2
  10
 177.61949575226
  20
 178.46844643231
  30
0.0
  11
 189.86949575226
  21
 178.46844643231
  31
0.0
   0
LINE
   5
DA
 100
AcDbEntity
   8
LEVEL001
 100
AcDbLine
   6
CONTINUOUS
  62
2
  10
 202.11949575226
  20
 178.46844643231
  30
0.0
  11
 189.86949575226
  21
 178.46844643231
  31
0.0
   0
INSERT
   5
DB
 100
AcDbEntity
   8
LEVEL001
   6
CONTINUOUS
  62
2
 100
AcDbBlockReference
   2
_OPEN30
  10
 177.61949575226
  20
 178.46844643231
  30
0.0
  41
 3.0000000000000
  42
 3.0000000000000
  43
 3.0000000000000
  50
 180.00000000000
   0
INSERT
   5
DC
 100
AcDbEntity
   8
LEVEL001
   6
CONTINUOUS
  62
2
 100
AcDbBlockReference
   2
_OPEN30
  10
 202.11949575226
  20
 178.46844643231
  30
0.0
  41
 3.0000000000000
  42
 3.0000000000000
  43
 3.0000000000000
  50
0.0
   0
MTEXT
   5
DD
 100
AcDbEntity
   8
LEVEL001
  62
2
 100
AcDbMText
  10
 189.86949575226
  20
 180.18273214660
  30
0.0
  40
 4.0000000000000
  41
0.0
  71
8
  72
1
   1
\A1;24.5
   7
GMM001
   0
ENDBLK
   5
DE
 100
AcDbEntity
   8
0
 100
AcDbBlockEnd
   0
BLOCK
   5
DF
 100
AcDbEntity
   8
0
 100
AcDbBlockBegin
   2
*D5
  70
65
  10
0.0
  20
0.0
  30
0.0
   3
*D5
   0
LINE
   5
E0
 100
AcDbEntity
   8
LEVEL001
 100
AcDbLine
   6
CONTINUOUS
  62
2
  10
 157.61949575226
  20
 127.61886259536
  30
0.0
  11
 157.61949575226
  21
 111.55272128652
  31
0.0
   0
LINE
   5
E1
 100
AcDbEntity
   8
LEVEL001
 100
AcDbLine
   6
CONTINUOUS
  62
2
  10
 207.61949575226
  20
 127.61886259536
  30
0.0
  11
 207.61949575226
  21
 111.55272128652
  31
0.0
   0
LINE
   5
E2
 100
AcDbEntity
   8
LEVEL001
 100
AcDbLine
   6
CONTINUOUS
  62
2
  10
 157.61949575226
  20
 113.55272128652
  30
0.0
  11
 182.61949575226
  21
 113.55272128652
  31
0.0
   0
LINE
   5
E3
 100
AcDbEntity
   8
LEVEL001
 100
AcDbLine
   6
CONTINUOUS
  62
2
  10
 207.61949575226
  20
 113.55272128652
  30
0.0
  11
 182.61949575226
  21
 113.55272128652
  31
0.0
   0
INSERT
   5
E4
 100
AcDbEntity
   8
LEVEL001
   6
CONTINUOUS
  62
2
 100
AcDbBlockReference
   2
_OPEN30
  10
 157.61949575226
  20
 113.55272128652
  30
0.0
  41
 3.0000000000000
  42
 3.0000000000000
  43
 3.0000000000000
  50
 180.00000000000
   0
INSERT
   5
E5
 100
AcDbEntity
   8
LEVEL001
   6
CONTINUOUS
  62
2
 100
AcDbBlockReference
   2
_OPEN30
  10
 207.61949575226
  20
 113.55272128652
  30
0.0
  41
 3.0000000000000
  42
 3.0000000000000
  43
 3.0000000000000
  50
0.0
   0
MTEXT
   5
E6
 100
AcDbEntity
   8
LEVEL001
  62
2
 100
AcDbMText
  10
 182.61949575226
  20
 115.26700700081
  30
0.0
  40
 4.0000000000000
  41
0.0
  71
8
  72
1
   1
\A1;50
   7
GMM001
   0
ENDBLK
   5
E7
 100
AcDbEntity
   8
0
 100
AcDbBlockEnd
   0
BLOCK
   5
E8
 100
AcDbEntity
   8
0
 100
AcDbBlockBegin
   2
*D6
  70
65
  10
0.0
  20
0.0
  30
0.0
   3
*D6
   0
LINE
   5
E9
 100
AcDbEntity
   8
LEVEL001
 100
AcDbLine
   6
CONTINUOUS
  62
2
  10
 131.91963585438
  20
 213.67299779456
  30
0.0
  11
 122.13241597337
  21
 213.67299779456
  31
0.0
   0
LINE
   5
EA
 100
AcDbEntity
   8
LEVEL001
 100
AcDbLine
   6
CONTINUOUS
  62
2
  10
 131.91963585438
  20
 206.27299779456
  30
0.0
  11
 122.13241597337
  21
 206.27299779456
  31
0.0
   0
LINE
   5
EB
 100
AcDbEntity
   8
LEVEL001
 100
AcDbLine
   6
CONTINUOUS
  62
2
  10
 124.13241597337
  20
 213.67299779456
  30
0.0
  11
 124.13241597337
  21
 209.97299779456
  31
0.0
   0
LINE
   5
EC
 100
AcDbEntity
   8
LEVEL001
 100
AcDbLine
   6
CONTINUOUS
  62
2
  10
 124.13241597337
  20
 206.27299779456
  30
0.0
  11
 124.13241597337
  21
 209.97299779456
  31
0.0
   0
INSERT
   5
ED
 100
AcDbEntity
   8
LEVEL001
   6
CONTINUOUS
  62
2
 100
AcDbBlockReference
   2
_OPEN30
  10
 124.13241597337
  20
 213.67299779456
  30
0.0
  41
 3.0000000000000
  42
 3.0000000000000
  43
 3.0000000000000
  50
 90.000000000000
   0
INSERT
   5
EE
 100
AcDbEntity
   8
LEVEL001
   6
CONTINUOUS
  62
2
 100
AcDbBlockReference
   2
_OPEN30
  10
 124.13241597337
  20
 206.27299779456
  30
0.0
  41
 3.0000000000000
  42
 3.0000000000000
  43
 3.0000000000000
  50
 270.00000000000
   0
MTEXT
   5
EF
 100
AcDbEntity
   8
LEVEL001
  62
2
 100
AcDbMText
  10
 122.41813025909
  20
 209.97299779456
  30
0.0
  40
 4.0000000000000
  41
0.0
  71
8
  72
1
   1
\A1;7.4
   7
GMM001
  11
0.0
  21
 1.0000000000000
  31
0.0
   0
ENDBLK
   5
F0
 100
AcDbEntity
   8
0
 100
AcDbBlockEnd
   0
BLOCK
   5
F1
 100
AcDbEntity
   8
0
 100
AcDbBlockBegin
   2
*D7
  70
65
  10
0.0
  20
0.0
  30
0.0
   3
*D7
   0
LINE
   5
F2
 100
AcDbEntity
   8
LEVEL001
 100
AcDbLine
   6
CONTINUOUS
  62
2
  10
 136.12219001257
  20
 214.97299779456
  30
0.0
  11
 112.51830257734
  21
 214.97299779456
  31
0.0
   0
LINE
   5
F3
 100
AcDbEntity
   8
LEVEL001
 100
AcDbLine
   6
CONTINUOUS
  62
2
  10
 136.12219001257
  20
 204.97299779456
  30
0.0
  11
 112.51830257734
  21
 204.97299779456
  31
0.0
   0
LINE
   5
F4
 100
AcDbEntity
   8
LEVEL001
 100
AcDbLine
   6
CONTINUOUS
  62
2
  10
 114.51830257734
  20
 214.97299779456
  30
0.0
  11
 114.51830257734
  21
 209.97299779456
  31
0.0
   0
LINE
   5
F5
 100
AcDbEntity
   8
LEVEL001
 100
AcDbLine
   6
CONTINUOUS
  62
2
  10
 114.51830257734
  20
 204.97299779456
  30
0.0
  11
 114.51830257734
  21
 209.97299779456
  31
0.0
   0
INSERT
   5
F6
 100
AcDbEntity
   8
LEVEL001
   6
CONTINUOUS
  62
2
 100
AcDbBlockReference
   2
_OPEN30
  10
 114.51830257734
  20
 214.97299779456
  30
0.0
  41
 3.0000000000000
  42
 3.0000000000000
  43
 3.0000000000000
  50
 90.000000000000
   0
INSERT
   5
F7
 100
AcDbEntity
   8
LEVEL001
   6
CONTINUOUS
  62
2
 100
AcDbBlockReference
   2
_OPEN30
  10
 114.51830257734
  20
 204.97299779456
  30
0.0
  41
 3.0000000000000
  42
 3.0000000000000
  43
 3.0000000000000
  50
 270.00000000000
   0
MTEXT
   5
F8
 100
AcDbEntity
   8
LEVEL001
  62
2
 100
AcDbMText
  10
 112.80401686305
  20
 209.97299779456
  30
0.0
  40
 4.0000000000000
  41
0.0
  71
8
  72
1
   1
\A1;10
   7
GMM001
  11
0.0
  21
 1.0000000000000
  31
0.0
   0
ENDBLK
   5
F9
 100
AcDbEntity
   8
0
 100
AcDbBlockEnd
   0
BLOCK
   5
FA
 100
AcDbEntity
   8
0
 100
AcDbBlockBegin
   2
*D8
  70
65
  10
0.0
  20
0.0
  30
0.0
   3
*D8
   0
LINE
   5
FB
 100
AcDbEntity
   8
LEVEL001
 100
AcDbLine
   6
CONTINUOUS
  62
2
  10
 129.78514457620
  20
 150.27370325110
  30
0.0
  11
 122.66351804708
  21
 152.53967532855
  31
0.0
   0
LINE
   5
FC
 100
AcDbEntity
   8
LEVEL001
 100
AcDbLine
   6
CONTINUOUS
  62
2
  10
 138.12562940945
  20
 137.65061574817
  30
0.0
  11
 119.78308330295
  21
 143.48688041842
  31
0.0
   0
LINE
   5
FD
 100
AcDbEntity
   8
LEVEL001
 100
AcDbLine
   6
CONTINUOUS
  62
2
  10
 124.56936960711
  20
 151.93326801399
  30
0.0
  11
 123.12915223504
  21
 147.40687055893
  31
0.0
   0
LINE
   5
FE
 100
AcDbEntity
   8
LEVEL001
 100
AcDbLine
   6
CONTINUOUS
  62
2
  10
 121.68893486297
  20
 142.88047310387
  30
0.0
  11
 123.12915223504
  21
 147.40687055893
  31
0.0
   0
INSERT
   5
FF
 100
AcDbEntity
   8
LEVEL001
   6
CONTINUOUS
  62
2
 100
AcDbBlockReference
   2
_OPEN30
  10
 124.56936960711
  20
 151.93326801399
  30
0.0
  41
 3.0000000000000
  42
 3.0000000000000
  43
 3.0000000000000
  50
 72.349875780070
   0
INSERT
   5
100
 100
AcDbEntity
   8
LEVEL001
   6
CONTINUOUS
  62
2
 100
AcDbBlockReference
   2
_OPEN30
  10
 121.68893486297
  20
 142.88047310387
  30
0.0
  41
 3.0000000000000
  42
 3.0000000000000
  43
 3.0000000000000
  50
 252.34987578007
   0
MTEXT
   5
101
 100
AcDbEntity
   8
LEVEL001
  62
2
 100
AcDbMText
  10
 121.49556518359
  20
 147.92664825712
  30
0.0
  40
 4.0000000000000
  41
0.0
  71
8
  72
1
   1
\A1;9.5
   7
GMM001
  11
 0.30320365727695
  21
 0.95292578001326
  31
0.0
   0
ENDBLK
   5
102
 100
AcDbEntity
   8
0
 100
AcDbBlockEnd
   0
BLOCK
   5
103
 100
AcDbEntity
   8
0
 100
AcDbBlockBegin
   2
*D9
  70
65
  10
0.0
  20
0.0
  30
0.0
   3
*D9
   0
POLYLINE
   5
104
 100
AcDbEntity
   8
LEVEL001
   6
CONTINUOUS
  62
2
 100
AcDb2dPolyline
  66
1
  10
0.0
  20
0.0
  30
0.0
  70
0
   0
VERTEX
   5
105
 100
AcDbEntity
   8
LEVEL001
   6
CONTINUOUS
  62
2
 100
AcDbVertex
 100
AcDb2dVertex
  10
 135.92380721603
  20
 153.66741612150
  30
0.0
   0
VERTEX
   5
106
 100
AcDbEntity
   8
LEVEL001
   6
CONTINUOUS
  62
2
 100
AcDbVertex
 100
AcDb2dVertex
  10
 127.03607016153
  20
 160.27776738254
  30
0.0
   0
VERTEX
   5
107
 100
AcDbEntity
   8
LEVEL001
   6
CONTINUOUS
  62
2
 100
AcDbVertex
 100
AcDb2dVertex
  10
 115.03607016153
  20
 160.27776738254
  30
0.0
   0
SEQEND
   5
108
 100
AcDbEntity
   8
LEVEL001
   6
CONTINUOUS
  62
2
   0
INSERT
   5
109
 100
AcDbEntity
   8
LEVEL001
   6
CONTINUOUS
  62
2
 100
AcDbBlockReference
   2
_OPEN30
  10
 135.92380721603
  20
 153.66741612150
  30
0.0
  41
 3.0000000000000
  42
 3.0000000000000
  43
 3.0000000000000
  50
 323.35957196704
   0
MTEXT
   5
10A
 100
AcDbEntity
   8
LEVEL001
  62
2
 100
AcDbMText
  10
 115.03607016153
  20
 161.99205309683
  30
0.0
  40
 4.0000000000000
  41
0.0
  71
7
  72
1
   1
\A1;%%c21
   7
GMM001
   0
ENDBLK
   5
10B
 100
AcDbEntity
   8
0
 100
AcDbBlockEnd
   0
BLOCK
   5
10C
 100
AcDbEntity
   8
0
 100
AcDbBlockBegin
   2
*D10
  70
65
  10
0.0
  20
0.0
  30
0.0
   3
*D10
   0
POLYLINE
   5
10D
 100
AcDbEntity
   8
LEVEL001
   6
CONTINUOUS
  62
2
 100
AcDb2dPolyline
  66
1
  10
0.0
  20
0.0
  30
0.0
  70
0
   0
VERTEX
   5
10E
 100
AcDbEntity
   8
LEVEL001
   6
CONTINUOUS
  62
2
 100
AcDbVertex
 100
AcDb2dVertex
  10
 195.80771769691
  20
 141.80682684040
  30
0.0
   0
VERTEX
   5
10F
 100
AcDbEntity
   8
LEVEL001
   6
CONTINUOUS
  62
2
 100
AcDbVertex
 100
AcDb2dVertex
  10
 212.39671930244
  20
 109.02200061694
  30
0.0
   0
VERTEX
   5
110
 100
AcDbEntity
   8
LEVEL001
   6
CONTINUOUS
  62
2
 100
AcDbVertex
 100
AcDb2dVertex
  10
 236.39671930244
  20
 109.02200061694
  30
0.0
   0
SEQEND
   5
111
 100
AcDbEntity
   8
LEVEL001
   6
CONTINUOUS
  62
2
   0
INSERT
   5
112
 100
AcDbEntity
   8
LEVEL001
   6
CONTINUOUS
  62
2
 100
AcDbBlockReference
   2
_OPEN30
  10
 195.80771769691
  20
 141.80682684040
  30
0.0
  41
 3.0000000000000
  42
 3.0000000000000
  43
 3.0000000000000
  50
 116.83924274315
   0
MTEXT
   5
113
 100
AcDbEntity
   8
LEVEL001
  62
2
 100
AcDbMText
  10
 212.39671930244
  20
 110.73628633123
  30
0.0
  40
 4.0000000000000
  41
0.0
  71
7
  72
1
   1
\A1;肉抜き深さ９
   7
GMM001
   0
ENDBLK
   5
114
 100
AcDbEntity
   8
0
 100
AcDbBlockEnd
   0
BLOCK
   5
115
 100
AcDbEntity
   8
0
 100
AcDbBlockBegin
   2
*D11
  70
65
  10
0.0
  20
0.0
  30
0.0
   3
*D11
   0
POLYLINE
   5
116
 100
AcDbEntity
   8
LEVEL001
   6
CONTINUOUS
  62
2
 100
AcDb2dPolyline
  66
1
  10
0.0
  20
0.0
  30
0.0
  70
0
   0
VERTEX
   5
117
 100
AcDbEntity
   8
LEVEL001
   6
CONTINUOUS
  62
2
 100
AcDbVertex
 100
AcDb2dVertex
  10
 180.19393080622
  20
 160.23953955789
  30
0.0
   0
VERTEX
   5
118
 100
AcDbEntity
   8
LEVEL001
   6
CONTINUOUS
  62
2
 100
AcDbVertex
 100
AcDb2dVertex
  10
 165.21162568905
  20
 180.44040039003
  30
0.0
   0
VERTEX
   5
119
 100
AcDbEntity
   8
LEVEL001
   6
CONTINUOUS
  62
2
 100
AcDbVertex
 100
AcDb2dVertex
  10
 135.21162568905
  20
 180.44040039003
  30
0.0
   0
SEQEND
   5
11A
 100
AcDbEntity
   8
LEVEL001
   6
CONTINUOUS
  62
2
   0
INSERT
   5
11B
 100
AcDbEntity
   8
LEVEL001
   6
CONTINUOUS
  62
2
 100
AcDbBlockReference
   2
_OPEN30
  10
 180.19393080622
  20
 160.23953955789
  30
0.0
  41
 3.0000000000000
  42
 3.0000000000000
  43
 3.0000000000000
  50
 306.56309586859
   0
MTEXT
   5
11C
 100
AcDbEntity
   8
LEVEL001
  62
2
 100
AcDbMText
  10
 135.21162568905
  20
 182.15468610431
  30
0.0
  40
 4.0000000000000
  41
0.0
  71
7
  72
1
   1
\A1;肉抜き深さ３.８
   7
GMM001
   0
ENDBLK
   5
11D
 100
AcDbEntity
   8
0
 100
AcDbBlockEnd
   0
BLOCK
   5
11E
 100
AcDbEntity
   8
0
 100
AcDbBlockBegin
   2
*D12
  70
65
  10
0.0
  20
0.0
  30
0.0
   3
*D12
   0
LINE
   5
11F
 100
AcDbEntity
   8
LEVEL001
 100
AcDbLine
   6
CONTINUOUS
  62
2
  10
 209.11949575226
  20
 129.11886259536
  30
0.0
  11
 226.55215775967
  21
 129.11886259536
  31
0.0
   0
LINE
   5
120
 100
AcDbEntity
   8
LEVEL001
 100
AcDbLine
   6
CONTINUOUS
  62
2
  10
 224.55215775967
  20
 147.86886259536
  30
0.0
  11
 224.55215775967
  21
 138.49386259536
  31
0.0
   0
LINE
   5
121
 100
AcDbEntity
   8
LEVEL001
 100
AcDbLine
   6
CONTINUOUS
  62
2
  10
 224.55215775967
  20
 129.11886259536
  30
0.0
  11
 224.55215775967
  21
 138.49386259536
  31
0.0
   0
INSERT
   5
122
 100
AcDbEntity
   8
LEVEL001
   6
CONTINUOUS
  62
2
 100
AcDbBlockReference
   2
_OPEN30
  10
 224.55215775967
  20
 147.86886259536
  30
0.0
  41
 3.0000000000000
  42
 3.0000000000000
  43
 3.0000000000000
  50
 90.000000000000
   0
INSERT
   5
123
 100
AcDbEntity
   8
LEVEL001
   6
CONTINUOUS
  62
2
 100
AcDbBlockReference
   2
_OPEN30
  10
 224.55215775967
  20
 129.11886259536
  30
0.0
  41
 3.0000000000000
  42
 3.0000000000000
  43
 3.0000000000000
  50
 270.00000000000
   0
MTEXT
   5
124
 100
AcDbEntity
   8
LEVEL001
  62
2
 100
AcDbMText
  10
 222.83787204539
  20
 138.49386259536
  30
0.0
  40
 4.0000000000000
  41
0.0
  71
8
  72
1
   1
\A1;18.75
   7
GMM001
  11
0.0
  21
 1.0000000000000
  31
0.0
   0
ENDBLK
   5
125
 100
AcDbEntity
   8
0
 100
AcDbBlockEnd
   0
BLOCK
   5
126
 100
AcDbEntity
   8
0
 100
AcDbBlockBegin
   2
*D13
  70
65
  10
0.0
  20
0.0
  30
0.0
   3
*D13
   0
LINE
   5
127
 100
AcDbEntity
   8
LEVEL001
 100
AcDbLine
   6
CONTINUOUS
  62
2
  10
 209.11949575226
  20
 166.11886259536
  30
0.0
  11
 226.55215775967
  21
 166.11886259536
  31
0.0
   0
LINE
   5
128
 100
AcDbEntity
   8
LEVEL001
 100
AcDbLine
   6
CONTINUOUS
  62
2
  10
 210.73071315851
  20
 147.86886259536
  30
0.0
  11
 226.55215775967
  21
 147.86886259536
  31
0.0
   0
LINE
   5
129
 100
AcDbEntity
   8
LEVEL001
 100
AcDbLine
   6
CONTINUOUS
  62
2
  10
 224.55215775967
  20
 166.11886259536
  30
0.0
  11
 224.55215775967
  21
 156.99386259536
  31
0.0
   0
LINE
   5
12A
 100
AcDbEntity
   8
LEVEL001
 100
AcDbLine
   6
CONTINUOUS
  62
2
  10
 224.55215775967
  20
 147.86886259536
  30
0.0
  11
 224.55215775967
  21
 156.99386259536
  31
0.0
   0
INSERT
   5
12B
 100
AcDbEntity
   8
LEVEL001
   6
CONTINUOUS
  62
2
 100
AcDbBlockReference
   2
_OPEN30
  10
 224.55215775967
  20
 166.11886259536
  30
0.0
  41
 3.0000000000000
  42
 3.0000000000000
  43
 3.0000000000000
  50
 90.000000000000
   0
INSERT
   5
12C
 100
AcDbEntity
   8
LEVEL001
   6
CONTINUOUS
  62
2
 100
AcDbBlockReference
   2
_OPEN30
  10
 224.55215775967
  20
 147.86886259536
  30
0.0
  41
 3.0000000000000
  42
 3.0000000000000
  43
 3.0000000000000
  50
 270.00000000000
   0
MTEXT
   5
12D
 100
AcDbEntity
   8
LEVEL001
  62
2
 100
AcDbMText
  10
 222.83787204539
  20
 156.99386259536
  30
0.0
  40
 4.0000000000000
  41
0.0
  71
8
  72
1
   1
\A1;18.25
   7
GMM001
  11
0.0
  21
 1.0000000000000
  31
0.0
   0
ENDBLK
   5
12E
 100
AcDbEntity
   8
0
 100
AcDbBlockEnd
   0
BLOCK
   5
12F
 100
AcDbEntity
   8
0
 100
AcDbBlockBegin
   2
*D14
  70
65
  10
0.0
  20
0.0
  30
0.0
   3
*D14
   0
LINE
   5
130
 100
AcDbEntity
   8
LEVEL001
 100
AcDbLine
   6
CONTINUOUS
  62
2
  10
 228.05215775967
  20
 129.11886259536
  30
0.0
  11
 235.60137186893
  21
 129.11886259536
  31
0.0
   0
LINE
   5
131
 100
AcDbEntity
   8
LEVEL001
 100
AcDbLine
   6
CONTINUOUS
  62
2
  10
 228.05215775967
  20
 166.11886259536
  30
0.0
  11
 235.60137186893
  21
 166.11886259536
  31
0.0
   0
LINE
   5
132
 100
AcDbEntity
   8
LEVEL001
 100
AcDbLine
   6
CONTINUOUS
  62
2
  10
 233.60137186893
  20
 129.11886259536
  30
0.0
  11
 233.60137186893
  21
 147.61886259536
  31
0.0
   0
LINE
   5
133
 100
AcDbEntity
   8
LEVEL001
 100
AcDbLine
   6
CONTINUOUS
  62
2
  10
 233.60137186893
  20
 166.11886259536
  30
0.0
  11
 233.60137186893
  21
 147.61886259536
  31
0.0
   0
INSERT
   5
134
 100
AcDbEntity
   8
LEVEL001
   6
CONTINUOUS
  62
2
 100
AcDbBlockReference
   2
_OPEN30
  10
 233.60137186893
  20
 129.11886259536
  30
0.0
  41
 3.0000000000000
  42
 3.0000000000000
  43
 3.0000000000000
  50
 270.00000000000
   0
INSERT
   5
135
 100
AcDbEntity
   8
LEVEL001
   6
CONTINUOUS
  62
2
 100
AcDbBlockReference
   2
_OPEN30
  10
 233.60137186893
  20
 166.11886259536
  30
0.0
  41
 3.0000000000000
  42
 3.0000000000000
  43
 3.0000000000000
  50
 90.000000000000
   0
MTEXT
   5
136
 100
AcDbEntity
   8
LEVEL001
  62
2
 100
AcDbMText
  10
 231.88708615465
  20
 147.61886259536
  30
0.0
  40
 4.0000000000000
  41
0.0
  71
8
  72
1
   1
\A1;37
   7
GMM001
  11
0.0
  21
 1.0000000000000
  31
0.0
   0
ENDBLK
   5
137
 100
AcDbEntity
   8
0
 100
AcDbBlockEnd
   0
BLOCK
   5
138
 100
AcDbEntity
   8
0
 100
AcDbBlockBegin
   2
*D15
  70
65
  10
0.0
  20
0.0
  30
0.0
   3
*D15
   0
LINE
   5
139
 100
AcDbEntity
   8
LEVEL001
 100
AcDbLine
   6
CONTINUOUS
  62
2
  10
 182.61949575226
  20
 214.67299779456
  30
0.0
  11
 182.61949575226
  21
 227.90356950934
  31
0.0
   0
LINE
   5
13A
 100
AcDbEntity
   8
LEVEL001
 100
AcDbLine
   6
CONTINUOUS
  62
2
  10
 199.61949575226
  20
 214.67299779456
  30
0.0
  11
 199.61949575226
  21
 227.90356950934
  31
0.0
   0
LINE
   5
13B
 100
AcDbEntity
   8
LEVEL001
 100
AcDbLine
   6
CONTINUOUS
  62
2
  10
 182.61949575226
  20
 225.90356950934
  30
0.0
  11
 191.11949575226
  21
 225.90356950934
  31
0.0
   0
LINE
   5
13C
 100
AcDbEntity
   8
LEVEL001
 100
AcDbLine
   6
CONTINUOUS
  62
2
  10
 199.61949575226
  20
 225.90356950934
  30
0.0
  11
 191.11949575226
  21
 225.90356950934
  31
0.0
   0
INSERT
   5
13D
 100
AcDbEntity
   8
LEVEL001
   6
CONTINUOUS
  62
2
 100
AcDbBlockReference
   2
_OPEN30
  10
 182.61949575226
  20
 225.90356950934
  30
0.0
  41
 3.0000000000000
  42
 3.0000000000000
  43
 3.0000000000000
  50
 180.00000000000
   0
INSERT
   5
13E
 100
AcDbEntity
   8
LEVEL001
   6
CONTINUOUS
  62
2
 100
AcDbBlockReference
   2
_OPEN30
  10
 199.61949575226
  20
 225.90356950934
  30
0.0
  41
 3.0000000000000
  42
 3.0000000000000
  43
 3.0000000000000
  50
0.0
   0
MTEXT
   5
13F
 100
AcDbEntity
   8
LEVEL001
  62
2
 100
AcDbMText
  10
 191.11949575226
  20
 227.61785522363
  30
0.0
  40
 4.0000000000000
  41
0.0
  71
8
  72
1
   1
\A1;17
   7
GMM001
   0
ENDBLK
   5
140
 100
AcDbEntity
   8
0
 100
AcDbBlockEnd
   0
BLOCK
   5
141
 100
AcDbEntity
   8
0
 100
AcDbBlockBegin
   2
*D16
  70
65
  10
0.0
  20
0.0
  30
0.0
   3
*D16
   0
LINE
   5
142
 100
AcDbEntity
   8
LEVEL001
 100
AcDbLine
   6
CONTINUOUS
  62
2
  10
 207.61949575226
  20
 217.47299779456
  30
0.0
  11
 207.61949575226
  21
 227.90356950934
  31
0.0
   0
LINE
   5
143
 100
AcDbEntity
   8
LEVEL001
 100
AcDbLine
   6
CONTINUOUS
  62
2
  10
 199.61949575226
  20
 225.90356950934
  30
0.0
  11
 203.61949575226
  21
 225.90356950934
  31
0.0
   0
LINE
   5
144
 100
AcDbEntity
   8
LEVEL001
 100
AcDbLine
   6
CONTINUOUS
  62
2
  10
 207.61949575226
  20
 225.90356950934
  30
0.0
  11
 203.61949575226
  21
 225.90356950934
  31
0.0
   0
INSERT
   5
145
 100
AcDbEntity
   8
LEVEL001
   6
CONTINUOUS
  62
2
 100
AcDbBlockReference
   2
_OPEN30
  10
 199.61949575226
  20
 225.90356950934
  30
0.0
  41
 3.0000000000000
  42
 3.0000000000000
  43
 3.0000000000000
  50
 180.00000000000
   0
INSERT
   5
146
 100
AcDbEntity
   8
LEVEL001
   6
CONTINUOUS
  62
2
 100
AcDbBlockReference
   2
_OPEN30
  10
 207.61949575226
  20
 225.90356950934
  30
0.0
  41
 3.0000000000000
  42
 3.0000000000000
  43
 3.0000000000000
  50
0.0
   0
MTEXT
   5
147
 100
AcDbEntity
   8
LEVEL001
  62
2
 100
AcDbMText
  10
 203.61949575226
  20
 227.61785522363
  30
0.0
  40
 4.0000000000000
  41
0.0
  71
8
  72
1
   1
\A1;8
   7
GMM001
   0
ENDBLK
   5
148
 100
AcDbEntity
   8
0
 100
AcDbBlockEnd
   0
BLOCK
   5
149
 100
AcDbEntity
   8
0
 100
AcDbBlockBegin
   2
*D17
  70
65
  10
0.0
  20
0.0
  30
0.0
   3
*D17
   0
LINE
   5
14A
 100
AcDbEntity
   8
LEVEL001
 100
AcDbLine
   6
CONTINUOUS
  62
2
  10
 174.61949575226
  20
 217.47299779456
  30
0.0
  11
 174.61949575226
  21
 227.90356950934
  31
0.0
   0
LINE
   5
14B
 100
AcDbEntity
   8
LEVEL001
 100
AcDbLine
   6
CONTINUOUS
  62
2
  10
 182.61949575226
  20
 225.90356950934
  30
0.0
  11
 178.61949575226
  21
 225.90356950934
  31
0.0
   0
LINE
   5
14C
 100
AcDbEntity
   8
LEVEL001
 100
AcDbLine
   6
CONTINUOUS
  62
2
  10
 174.61949575226
  20
 225.90356950934
  30
0.0
  11
 178.61949575226
  21
 225.90356950934
  31
0.0
   0
INSERT
   5
14D
 100
AcDbEntity
   8
LEVEL001
   6
CONTINUOUS
  62
2
 100
AcDbBlockReference
   2
_OPEN30
  10
 182.61949575226
  20
 225.90356950934
  30
0.0
  41
 3.0000000000000
  42
 3.0000000000000
  43
 3.0000000000000
  50
0.0
   0
INSERT
   5
14E
 100
AcDbEntity
   8
LEVEL001
   6
CONTINUOUS
  62
2
 100
AcDbBlockReference
   2
_OPEN30
  10
 174.61949575226
  20
 225.90356950934
  30
0.0
  41
 3.0000000000000
  42
 3.0000000000000
  43
 3.0000000000000
  50
 180.00000000000
   0
MTEXT
   5
14F
 100
AcDbEntity
   8
LEVEL001
  62
2
 100
AcDbMText
  10
 178.61949575226
  20
 227.61785522363
  30
0.0
  40
 4.0000000000000
  41
0.0
  71
8
  72
1
   1
\A1;8
   7
GMM001
   0
ENDBLK
   5
150
 100
AcDbEntity
   8
0
 100
AcDbBlockEnd
   0
BLOCK
   5
151
 100
AcDbEntity
   8
0
 100
AcDbBlockBegin
   2
*D18
  70
65
  10
0.0
  20
0.0
  30
0.0
   3
*D18
   0
LINE
   5
152
 100
AcDbEntity
   8
LEVEL001
 100
AcDbLine
   6
CONTINUOUS
  62
2
  10
 209.11949575226
  20
 213.67299779456
  30
0.0
  11
 226.55215775967
  21
 213.67299779456
  31
0.0
   0
LINE
   5
153
 100
AcDbEntity
   8
LEVEL001
 100
AcDbLine
   6
CONTINUOUS
  62
2
  10
 209.11949575226
  20
 210.27299779456
  30
0.0
  11
 226.55215775967
  21
 210.27299779456
  31
0.0
   0
LINE
   5
154
 100
AcDbEntity
   8
LEVEL001
 100
AcDbLine
   6
CONTINUOUS
  62
2
  10
 224.55215775967
  20
 225.72670415516
  30
0.0
  11
 224.55215775967
  21
 211.97299779456
  31
0.0
   0
LINE
   5
155
 100
AcDbEntity
   8
LEVEL001
 100
AcDbLine
   6
CONTINUOUS
  62
2
  10
 224.55215775967
  20
 206.52299779456
  30
0.0
  11
 224.55215775967
  21
 211.97299779456
  31
0.0
   0
INSERT
   5
156
 100
AcDbEntity
   8
LEVEL001
   6
CONTINUOUS
  62
2
 100
AcDbBlockReference
   2
_OPEN30
  10
 224.55215775967
  20
 213.67299779456
  30
0.0
  41
 3.0000000000000
  42
 3.0000000000000
  43
 3.0000000000000
  50
 270.00000000000
   0
INSERT
   5
157
 100
AcDbEntity
   8
LEVEL001
   6
CONTINUOUS
  62
2
 100
AcDbBlockReference
   2
_OPEN30
  10
 224.55215775967
  20
 210.27299779456
  30
0.0
  41
 3.0000000000000
  42
 3.0000000000000
  43
 3.0000000000000
  50
 90.000000000000
   0
MTEXT
   5
158
 100
AcDbEntity
   8
LEVEL001
  62
2
 100
AcDbMText
  10
 222.83787204539
  20
 220.72670415516
  30
0.0
  40
 4.0000000000000
  41
0.0
  71
8
  72
1
   1
\A1;3.4
   7
GMM001
  11
0.0
  21
 1.0000000000000
  31
0.0
   0
ENDBLK
   5
159
 100
AcDbEntity
   8
0
 100
AcDbBlockEnd
   0
BLOCK
   5
15A
 100
AcDbEntity
   8
0
 100
AcDbBlockBegin
   2
*D19
  70
65
  10
0.0
  20
0.0
  30
0.0
   3
*D19
   0
POLYLINE
   5
15B
 100
AcDbEntity
   8
LEVEL001
   6
CONTINUOUS
  62
2
 100
AcDb2dPolyline
  66
1
  10
0.0
  20
0.0
  30
0.0
  70
0
   0
VERTEX
   5
15C
 100
AcDbEntity
   8
LEVEL001
   6
CONTINUOUS
  62
2
 100
AcDbVertex
 100
AcDb2dVertex
  10
 206.57476345865
  20
 131.33286086264
  30
0.0
   0
VERTEX
   5
15D
 100
AcDbEntity
   8
LEVEL001
   6
CONTINUOUS
  62
2
 100
AcDbVertex
 100
AcDb2dVertex
  10
 214.37219725862
  20
 117.83913436914
  30
0.0
   0
VERTEX
   5
15E
 100
AcDbEntity
   8
LEVEL001
   6
CONTINUOUS
  62
2
 100
AcDbVertex
 100
AcDb2dVertex
  10
 234.37219725862
  20
 117.83913436914
  30
0.0
   0
SEQEND
   5
15F
 100
AcDbEntity
   8
LEVEL001
   6
CONTINUOUS
  62
2
   0
INSERT
   5
160
 100
AcDbEntity
   8
LEVEL001
   6
CONTINUOUS
  62
2
 100
AcDbBlockReference
   2
_OPEN30
  10
 206.57476345865
  20
 131.33286086264
  30
0.0
  41
 3.0000000000000
  42
 3.0000000000000
  43
 3.0000000000000
  50
 120.02173691820
   0
MTEXT
   5
161
 100
AcDbEntity
   8
LEVEL001
  62
2
 100
AcDbMText
  10
 214.37219725862
  20
 119.55342008343
  30
0.0
  40
 4.0000000000000
  41
0.0
  71
7
  72
1
   1
\A1;調整ボルト
   7
GMM001
   0
ENDBLK
   5
162
 100
AcDbEntity
   8
0
 100
AcDbBlockEnd
   0
BLOCK
   5
163
 100
AcDbEntity
   8
0
 100
AcDbBlockBegin
   2
*D20
  70
65
  10
0.0
  20
0.0
  30
0.0
   3
*D20
   0
LINE
   5
164
 100
AcDbEntity
   8
LEVEL001
 100
AcDbLine
   6
CONTINUOUS
  62
2
  10
 254.47767520674
  20
 127.61886259536
  30
0.0
  11
 254.47767520674
  21
 111.55272128652
  31
0.0
   0
LINE
   5
165
 100
AcDbEntity
   8
LEVEL001
 100
AcDbLine
   6
CONTINUOUS
  62
2
  10
 266.47767520674
  20
 127.61886259536
  30
0.0
  11
 266.47767520674
  21
 111.55272128652
  31
0.0
   0
LINE
   5
166
 100
AcDbEntity
   8
LEVEL001
 100
AcDbLine
   6
CONTINUOUS
  62
2
  10
 254.47767520674
  20
 113.55272128652
  30
0.0
  11
 260.47767520674
  21
 113.55272128652
  31
0.0
   0
LINE
   5
167
 100
AcDbEntity
   8
LEVEL001
 100
AcDbLine
   6
CONTINUOUS
  62
2
  10
 266.47767520674
  20
 113.55272128652
  30
0.0
  11
 260.47767520674
  21
 113.55272128652
  31
0.0
   0
INSERT
   5
168
 100
AcDbEntity
   8
LEVEL001
   6
CONTINUOUS
  62
2
 100
AcDbBlockReference
   2
_OPEN30
  10
 254.47767520674
  20
 113.55272128652
  30
0.0
  41
 3.0000000000000
  42
 3.0000000000000
  43
 3.0000000000000
  50
 180.00000000000
   0
INSERT
   5
169
 100
AcDbEntity
   8
LEVEL001
   6
CONTINUOUS
  62
2
 100
AcDbBlockReference
   2
_OPEN30
  10
 266.47767520674
  20
 113.55272128652
  30
0.0
  41
 3.0000000000000
  42
 3.0000000000000
  43
 3.0000000000000
  50
0.0
   0
MTEXT
   5
16A
 100
AcDbEntity
   8
LEVEL001
  62
2
 100
AcDbMText
  10
 260.47767520674
  20
 115.26700700081
  30
0.0
  40
 4.0000000000000
  41
0.0
  71
8
  72
1
   1
\A1;12
   7
GMM001
   0
ENDBLK
   5
16B
 100
AcDbEntity
   8
0
 100
AcDbBlockEnd
   0
BLOCK
   5
16C
 100
AcDbEntity
   8
0
 100
AcDbBlockBegin
   2
*D21
  70
65
  10
0.0
  20
0.0
  30
0.0
   3
*D21
   0
LINE
   5
16D
 100
AcDbEntity
   8
LEVEL001
 100
AcDbLine
   6
CONTINUOUS
  62
2
  10
 254.47767520674
  20
 166.11886259536
  30
0.0
  11
 254.47767520674
  21
 190.05420830712
  31
0.0
   0
LINE
   5
16E
 100
AcDbEntity
   8
LEVEL001
 100
AcDbLine
   6
CONTINUOUS
  62
2
  10
 262.47767520674
  20
 168.71753001147
  30
0.0
  11
 262.47767520674
  21
 190.05420830712
  31
0.0
   0
LINE
   5
16F
 100
AcDbEntity
   8
LEVEL001
 100
AcDbLine
   6
CONTINUOUS
  62
2
  10
 254.47767520674
  20
 188.05420830712
  30
0.0
  11
 258.47767520674
  21
 188.05420830712
  31
0.0
   0
LINE
   5
170
 100
AcDbEntity
   8
LEVEL001
 100
AcDbLine
   6
CONTINUOUS
  62
2
  10
 262.47767520674
  20
 188.05420830712
  30
0.0
  11
 258.47767520674
  21
 188.05420830712
  31
0.0
   0
INSERT
   5
171
 100
AcDbEntity
   8
LEVEL001
   6
CONTINUOUS
  62
2
 100
AcDbBlockReference
   2
_OPEN30
  10
 254.47767520674
  20
 188.05420830712
  30
0.0
  41
 3.0000000000000
  42
 3.0000000000000
  43
 3.0000000000000
  50
 180.00000000000
   0
INSERT
   5
172
 100
AcDbEntity
   8
LEVEL001
   6
CONTINUOUS
  62
2
 100
AcDbBlockReference
   2
_OPEN30
  10
 262.47767520674
  20
 188.05420830712
  30
0.0
  41
 3.0000000000000
  42
 3.0000000000000
  43
 3.0000000000000
  50
0.0
   0
MTEXT
   5
173
 100
AcDbEntity
   8
LEVEL001
  62
2
 100
AcDbMText
  10
 258.47767520674
  20
 189.76849402141
  30
0.0
  40
 4.0000000000000
  41
0.0
  71
8
  72
1
   1
\A1;8
   7
GMM001
   0
ENDBLK
   5
174
 100
AcDbEntity
   8
0
 100
AcDbBlockEnd
   0
BLOCK
   5
175
 100
AcDbEntity
   8
0
 100
AcDbBlockBegin
   2
*D22
  70
65
  10
0.0
  20
0.0
  30
0.0
   3
*D22
   0
LINE
   5
176
 100
AcDbEntity
   8
LEVEL001
 100
AcDbLine
   6
CONTINUOUS
  62
2
  10
 266.47767520674
  20
 167.61886259536
  30
0.0
  11
 266.47767520674
  21
 190.05420830712
  31
0.0
   0
LINE
   5
177
 100
AcDbEntity
   8
LEVEL001
 100
AcDbLine
   6
CONTINUOUS
  62
2
  10
 258.72767520674
  20
 188.05420830712
  30
0.0
  11
 264.47767520674
  21
 188.05420830712
  31
0.0
   0
LINE
   5
178
 100
AcDbEntity
   8
LEVEL001
 100
AcDbLine
   6
CONTINUOUS
  62
2
  10
 270.22767520674
  20
 188.05420830712
  30
0.0
  11
 264.47767520674
  21
 188.05420830712
  31
0.0
   0
INSERT
   5
179
 100
AcDbEntity
   8
LEVEL001
   6
CONTINUOUS
  62
2
 100
AcDbBlockReference
   2
_OPEN30
  10
 262.47767520674
  20
 188.05420830712
  30
0.0
  41
 3.0000000000000
  42
 3.0000000000000
  43
 3.0000000000000
  50
0.0
   0
INSERT
   5
17A
 100
AcDbEntity
   8
LEVEL001
   6
CONTINUOUS
  62
2
 100
AcDbBlockReference
   2
_OPEN30
  10
 266.47767520674
  20
 188.05420830712
  30
0.0
  41
 3.0000000000000
  42
 3.0000000000000
  43
 3.0000000000000
  50
 180.00000000000
   0
MTEXT
   5
17B
 100
AcDbEntity
   8
LEVEL001
  62
2
 100
AcDbMText
  10
 264.47767520674
  20
 189.76849402141
  30
0.0
  40
 4.0000000000000
  41
0.0
  71
8
  72
1
   1
\A1;4
   7
GMM001
   0
ENDBLK
   5
17C
 100
AcDbEntity
   8
0
 100
AcDbBlockEnd
   0
BLOCK
   5
17D
 100
AcDbEntity
   8
0
 100
AcDbBlockBegin
   2
*D23
  70
65
  10
0.0
  20
0.0
  30
0.0
   3
*D23
   0
LINE
   5
17E
 100
AcDbEntity
   8
LEVEL001
 100
AcDbLine
   6
CONTINUOUS
  62
2
  10
 261.27767520674
  20
 166.61886259536
  30
0.0
  11
 261.27767520674
  21
 180.46844643231
  31
0.0
   0
LINE
   5
17F
 100
AcDbEntity
   8
LEVEL001
 100
AcDbLine
   6
CONTINUOUS
  62
2
  10
 263.67767520674
  20
 166.61886259536
  30
0.0
  11
 263.67767520674
  21
 180.46844643231
  31
0.0
   0
LINE
   5
180
 100
AcDbEntity
   8
LEVEL001
 100
AcDbLine
   6
CONTINUOUS
  62
2
  10
 257.52767520674
  20
 178.46844643231
  30
0.0
  11
 262.47767520674
  21
 178.46844643231
  31
0.0
   0
LINE
   5
181
 100
AcDbEntity
   8
LEVEL001
 100
AcDbLine
   6
CONTINUOUS
  62
2
  10
 278.36369465517
  20
 178.46844643231
  30
0.0
  11
 262.47767520674
  21
 178.46844643231
  31
0.0
   0
INSERT
   5
182
 100
AcDbEntity
   8
LEVEL001
   6
CONTINUOUS
  62
2
 100
AcDbBlockReference
   2
_OPEN30
  10
 261.27767520674
  20
 178.46844643231
  30
0.0
  41
 3.0000000000000
  42
 3.0000000000000
  43
 3.0000000000000
  50
0.0
   0
INSERT
   5
183
 100
AcDbEntity
   8
LEVEL001
   6
CONTINUOUS
  62
2
 100
AcDbBlockReference
   2
_OPEN30
  10
 263.67767520674
  20
 178.46844643231
  30
0.0
  41
 3.0000000000000
  42
 3.0000000000000
  43
 3.0000000000000
  50
 180.00000000000
   0
MTEXT
   5
184
 100
AcDbEntity
   8
LEVEL001
  62
2
 100
AcDbMText
  10
 273.36369465517
  20
 180.18273214660
  30
0.0
  40
 4.0000000000000
  41
0.0
  71
8
  72
1
   1
\A1;2.4
   7
GMM001
   0
ENDBLK
   5
185
 100
AcDbEntity
   8
0
 100
AcDbBlockEnd
   0
BLOCK
   5
186
 100
AcDbEntity
   8
0
 100
AcDbBlockBegin
   2
*D24
  70
65
  10
0.0
  20
0.0
  30
0.0
   3
*D24
   0
LINE
   5
187
 100
AcDbEntity
   8
LEVEL001
 100
AcDbLine
   6
CONTINUOUS
  62
2
  10
 252.97767520674
  20
 151.86886259536
  30
0.0
  11
 243.91916863149
  21
 151.86886259536
  31
0.0
   0
LINE
   5
188
 100
AcDbEntity
   8
LEVEL001
 100
AcDbLine
   6
CONTINUOUS
  62
2
  10
 252.97767520674
  20
 143.86886259536
  30
0.0
  11
 243.91916863149
  21
 143.86886259536
  31
0.0
   0
LINE
   5
189
 100
AcDbEntity
   8
LEVEL001
 100
AcDbLine
   6
CONTINUOUS
  62
2
  10
 245.91916863149
  20
 151.86886259536
  30
0.0
  11
 245.91916863149
  21
 147.86886259536
  31
0.0
   0
LINE
   5
18A
 100
AcDbEntity
   8
LEVEL001
 100
AcDbLine
   6
CONTINUOUS
  62
2
  10
 245.91916863149
  20
 143.86886259536
  30
0.0
  11
 245.91916863149
  21
 147.86886259536
  31
0.0
   0
INSERT
   5
18B
 100
AcDbEntity
   8
LEVEL001
   6
CONTINUOUS
  62
2
 100
AcDbBlockReference
   2
_OPEN30
  10
 245.91916863149
  20
 151.86886259536
  30
0.0
  41
 3.0000000000000
  42
 3.0000000000000
  43
 3.0000000000000
  50
 90.000000000000
   0
INSERT
   5
18C
 100
AcDbEntity
   8
LEVEL001
   6
CONTINUOUS
  62
2
 100
AcDbBlockReference
   2
_OPEN30
  10
 245.91916863149
  20
 143.86886259536
  30
0.0
  41
 3.0000000000000
  42
 3.0000000000000
  43
 3.0000000000000
  50
 270.00000000000
   0
MTEXT
   5
18D
 100
AcDbEntity
   8
LEVEL001
  62
2
 100
AcDbMText
  10
 244.20488291720
  20
 147.86886259536
  30
0.0
  40
 4.0000000000000
  41
0.0
  71
8
  72
1
   1
\A1;%%c8
   7
GMM001
  11
0.0
  21
 1.0000000000000
  31
0.0
   0
ENDBLK
   5
18E
 100
AcDbEntity
   8
0
 100
AcDbBlockEnd
   0
BLOCK
   5
18F
 100
AcDbEntity
   8
0
 100
AcDbBlockBegin
   2
*D25
  70
65
  10
0.0
  20
0.0
  30
0.0
   3
*D25
   0
LINE
   5
190
 100
AcDbEntity
   8
LEVEL001
 100
AcDbLine
   6
CONTINUOUS
  62
2
  10
 269.75250071282
  20
 134.21886259536
  30
0.0
  11
 292.68026714540
  21
 134.21886259536
  31
0.0
   0
LINE
   5
191
 100
AcDbEntity
   8
LEVEL001
 100
AcDbLine
   6
CONTINUOUS
  62
2
  10
 290.68026714540
  20
 134.21886259536
  30
0.0
  11
 290.68026714540
  21
 145.16886259536
  31
0.0
   0
LINE
   5
192
 100
AcDbEntity
   8
LEVEL001
 100
AcDbLine
   6
CONTINUOUS
  62
2
  10
 290.68026714540
  20
 156.11886259536
  30
0.0
  11
 290.68026714540
  21
 145.16886259536
  31
0.0
   0
INSERT
   5
193
 100
AcDbEntity
   8
LEVEL001
   6
CONTINUOUS
  62
2
 100
AcDbBlockReference
   2
_OPEN30
  10
 290.68026714540
  20
 134.21886259536
  30
0.0
  41
 3.0000000000000
  42
 3.0000000000000
  43
 3.0000000000000
  50
 270.00000000000
   0
INSERT
   5
194
 100
AcDbEntity
   8
LEVEL001
   6
CONTINUOUS
  62
2
 100
AcDbBlockReference
   2
_OPEN30
  10
 290.68026714540
  20
 156.11886259536
  30
0.0
  41
 3.0000000000000
  42
 3.0000000000000
  43
 3.0000000000000
  50
 90.000000000000
   0
MTEXT
   5
195
 100
AcDbEntity
   8
LEVEL001
  62
2
 100
AcDbMText
  10
 288.96598143111
  20
 145.16886259536
  30
0.0
  40
 4.0000000000000
  41
0.0
  71
8
  72
1
   1
\A1;21.9
   7
GMM001
  11
0.0
  21
 1.0000000000000
  31
0.0
   0
ENDBLK
   5
196
 100
AcDbEntity
   8
0
 100
AcDbBlockEnd
   0
BLOCK
   5
197
 100
AcDbEntity
   8
0
 100
AcDbBlockBegin
   2
*D26
  70
65
  10
0.0
  20
0.0
  30
0.0
   3
*D26
   0
LINE
   5
198
 100
AcDbEntity
   8
LEVEL001
 100
AcDbLine
   6
CONTINUOUS
  62
2
  10
 267.97767520674
  20
 129.11886259536
  30
0.0
  11
 292.68026714540
  21
 129.11886259536
  31
0.0
   0
LINE
   5
199
 100
AcDbEntity
   8
LEVEL001
 100
AcDbLine
   6
CONTINUOUS
  62
2
  10
 290.68026714540
  20
 116.56843217929
  30
0.0
  11
 290.68026714540
  21
 131.66886259536
  31
0.0
   0
LINE
   5
19A
 100
AcDbEntity
   8
LEVEL001
 100
AcDbLine
   6
CONTINUOUS
  62
2
  10
 290.68026714540
  20
 137.96886259536
  30
0.0
  11
 290.68026714540
  21
 131.66886259536
  31
0.0
   0
INSERT
   5
19B
 100
AcDbEntity
   8
LEVEL001
   6
CONTINUOUS
  62
2
 100
AcDbBlockReference
   2
_OPEN30
  10
 290.68026714540
  20
 129.11886259536
  30
0.0
  41
 3.0000000000000
  42
 3.0000000000000
  43
 3.0000000000000
  50
 90.000000000000
   0
INSERT
   5
19C
 100
AcDbEntity
   8
LEVEL001
   6
CONTINUOUS
  62
2
 100
AcDbBlockReference
   2
_OPEN30
  10
 290.68026714540
  20
 134.21886259536
  30
0.0
  41
 3.0000000000000
  42
 3.0000000000000
  43
 3.0000000000000
  50
 270.00000000000
   0
MTEXT
   5
19D
 100
AcDbEntity
   8
LEVEL001
  62
2
 100
AcDbMText
  10
 288.96598143111
  20
 121.56843217929
  30
0.0
  40
 4.0000000000000
  41
0.0
  71
8
  72
1
   1
\A1;5.1
   7
GMM001
  11
0.0
  21
 1.0000000000000
  31
0.0
   0
ENDBLK
   5
19E
 100
AcDbEntity
   8
0
 100
AcDbBlockEnd
   0
BLOCK
   5
19F
 100
AcDbEntity
   8
0
 100
AcDbBlockBegin
   2
*D27
  70
65
  10
0.0
  20
0.0
  30
0.0
   3
*D27
   0
LINE
   5
1A0
 100
AcDbEntity
   8
LEVEL001
 100
AcDbLine
   6
CONTINUOUS
  62
2
  10
 264.47767520674
  20
 156.11886259536
  30
0.0
  11
 292.68026714540
  21
 156.11886259536
  31
0.0
   0
LINE
   5
1A1
 100
AcDbEntity
   8
LEVEL001
 100
AcDbLine
   6
CONTINUOUS
  62
2
  10
 267.97767520674
  20
 166.11886259536
  30
0.0
  11
 292.68026714540
  21
 166.11886259536
  31
0.0
   0
LINE
   5
1A2
 100
AcDbEntity
   8
LEVEL001
 100
AcDbLine
   6
CONTINUOUS
  62
2
  10
 290.68026714540
  20
 156.11886259536
  30
0.0
  11
 290.68026714540
  21
 161.11886259536
  31
0.0
   0
LINE
   5
1A3
 100
AcDbEntity
   8
LEVEL001
 100
AcDbLine
   6
CONTINUOUS
  62
2
  10
 290.68026714540
  20
 166.11886259536
  30
0.0
  11
 290.68026714540
  21
 161.11886259536
  31
0.0
   0
INSERT
   5
1A4
 100
AcDbEntity
   8
LEVEL001
   6
CONTINUOUS
  62
2
 100
AcDbBlockReference
   2
_OPEN30
  10
 290.68026714540
  20
 156.11886259536
  30
0.0
  41
 3.0000000000000
  42
 3.0000000000000
  43
 3.0000000000000
  50
 270.00000000000
   0
INSERT
   5
1A5
 100
AcDbEntity
   8
LEVEL001
   6
CONTINUOUS
  62
2
 100
AcDbBlockReference
   2
_OPEN30
  10
 290.68026714540
  20
 166.11886259536
  30
0.0
  41
 3.0000000000000
  42
 3.0000000000000
  43
 3.0000000000000
  50
 90.000000000000
   0
MTEXT
   5
1A6
 100
AcDbEntity
   8
LEVEL001
  62
2
 100
AcDbMText
  10
 288.96598143111
  20
 161.11886259536
  30
0.0
  40
 4.0000000000000
  41
0.0
  71
8
  72
1
   1
\A1;10
   7
GMM001
  11
0.0
  21
 1.0000000000000
  31
0.0
   0
ENDBLK
   5
1A7
 100
AcDbEntity
   8
0
 100
AcDbBlockEnd
   0
ENDSEC
   0
SECTION
   2
ENTITIES
   0
CIRCLE
   5
1A8
 100
AcDbEntity
   8
LEVEL001
 100
AcDbCircle
   6
CONTINUOUS
  62
7
  10
 202.11949575226
  20
 147.86886259536
  30
0.0
  40
 2.2500000000000
   0
CIRCLE
   5
1A9
 100
AcDbEntity
   8
LEVEL001
 100
AcDbCircle
   6
CONTINUOUS
  62
7
  10
 177.61949575226
  20
 147.86886259536
  30
0.0
  40
 2.2500000000000
   0
CIRCLE
   5
1AA
 100
AcDbEntity
   8
LEVEL001
 100
AcDbCircle
   6
CONTINUOUS
  62
7
  10
 189.86949575226
  20
 147.86886259536
  30
0.0
  40
 2.2500000000000
   0
LINE
   5
1AB
 100
AcDbEntity
   8
LEVEL001
 100
AcDbLine
   6
DOT
  62
3
  10
 171.11949575226
  20
 149.78873557644
  30
0.0
  11
 171.11949575226
  21
 129.11886259536
  31
0.0
   0
LINE
   5
1AC
 100
AcDbEntity
   8
LEVEL001
 100
AcDbLine
   6
DOT
  62
3
  10
 163.11949575226
  20
 131.61886259536
  30
0.0
  11
 157.61949575226
  21
 131.61886259536
  31
0.0
   0
LINE
   5
1AD
 100
AcDbEntity
   8
LEVEL001
 100
AcDbLine
   6
DASHDOT
  62
2
  10
 205.93962453232
  20
 134.21886259536
  30
0.0
  11
 161.58226041036
  21
 134.21886259536
  31
0.0
   0
LINE
   5
1AE
 100
AcDbEntity
   8
LEVEL001
 100
AcDbLine
   6
DOT
  62
6
  10
 201.61949575226
  20
 132.06886259536
  30
0.0
  11
 204.61949575226
  21
 132.06886259536
  31
0.0
   0
LINE
   5
1AF
 100
AcDbEntity
   8
LEVEL001
 100
AcDbLine
   6
DOT
  62
6
  10
 201.61949575226
  20
 136.36886259536
  30
0.0
  11
 204.61949575226
  21
 136.36886259536
  31
0.0
   0
LINE
   5
1B0
 100
AcDbEntity
   8
LEVEL001
 100
AcDbLine
   6
DOT
  62
6
  10
 201.61949575226
  20
 136.71886259536
  30
0.0
  11
 204.61949575226
  21
 136.71886259536
  31
0.0
   0
LINE
   5
1B1
 100
AcDbEntity
   8
LEVEL001
 100
AcDbLine
   6
DOT
  62
3
  10
 201.61949575226
  20
 136.76886259536
  30
0.0
  11
 204.61949575226
  21
 136.76886259536
  31
0.0
   0
LINE
   5
1B2
 100
AcDbEntity
   8
LEVEL001
 100
AcDbLine
   6
DOT
  62
3
  10
 204.61949575226
  20
 138.71886259536
  30
0.0
  11
 207.61949575226
  21
 138.71886259536
  31
0.0
   0
LINE
   5
1B3
 100
AcDbEntity
   8
LEVEL001
 100
AcDbLine
   6
DOT
  62
6
  10
 201.61949575226
  20
 131.71886259536
  30
0.0
  11
 204.61949575226
  21
 131.71886259536
  31
0.0
   0
LINE
   5
1B4
 100
AcDbEntity
   8
LEVEL001
 100
AcDbLine
   6
DOT
  62
3
  10
 201.61949575226
  20
 131.66886259536
  30
0.0
  11
 204.61949575226
  21
 131.66886259536
  31
0.0
   0
LINE
   5
1B5
 100
AcDbEntity
   8
LEVEL001
 100
AcDbLine
   6
DOT
  62
6
  10
 199.61949575226
  20
 132.06886259536
  30
0.0
  11
 200.61949575226
  21
 132.06886259536
  31
0.0
   0
LINE
   5
1B6
 100
AcDbEntity
   8
LEVEL001
 100
AcDbLine
   6
DOT
  62
6
  10
 199.61949575226
  20
 136.36886259536
  30
0.0
  11
 200.61949575226
  21
 136.36886259536
  31
0.0
   0
LINE
   5
1B7
 100
AcDbEntity
   8
LEVEL001
 100
AcDbLine
   6
DOT
  62
6
  10
 199.61949575226
  20
 136.71886259536
  30
0.0
  11
 200.61949575226
  21
 136.71886259536
  31
0.0
   0
LINE
   5
1B8
 100
AcDbEntity
   8
LEVEL001
 100
AcDbLine
   6
DOT
  62
3
  10
 199.61949575226
  20
 136.76886259536
  30
0.0
  11
 200.51949575226
  21
 136.76886259536
  31
0.0
   0
LINE
   5
1B9
 100
AcDbEntity
   8
LEVEL001
 100
AcDbLine
   6
DOT
  62
6
  10
 199.61949575226
  20
 131.71886259536
  30
0.0
  11
 200.61949575226
  21
 131.71886259536
  31
0.0
   0
LINE
   5
1BA
 100
AcDbEntity
   8
LEVEL001
 100
AcDbLine
   6
DOT
  62
3
  10
 199.61949575226
  20
 131.66886259536
  30
0.0
  11
 200.51949575226
  21
 131.66886259536
  31
0.0
   0
LINE
   5
1BB
 100
AcDbEntity
   8
LEVEL001
 100
AcDbLine
   6
DOT
  62
3
  10
 189.11949575226
  20
 141.71886259536
  30
0.0
  11
 180.11949575226
  21
 141.71886259536
  31
0.0
   0
LINE
   5
1BC
 100
AcDbEntity
   8
LEVEL001
 100
AcDbLine
   6
DOT
  62
3
  10
 180.11949575226
  20
 141.71886259536
  30
0.0
  11
 180.11949575226
  21
 138.71886259536
  31
0.0
   0
LINE
   5
1BD
 100
AcDbEntity
   8
LEVEL001
 100
AcDbLine
   6
DOT
  62
3
  10
 180.11949575226
  20
 138.71886259536
  30
0.0
  11
 171.11949575226
  21
 138.71886259536
  31
0.0
   0
LINE
   5
1BE
 100
AcDbEntity
   8
LEVEL001
 100
AcDbLine
   6
DOT
  62
6
  10
 179.76949575229
  20
 136.36886259536
  30
0.0
  11
 180.11949575226
  21
 136.71886259533
  31
0.0
   0
LINE
   5
1BF
 100
AcDbEntity
   8
LEVEL001
 100
AcDbLine
   6
DOT
  62
6
  10
 179.61949575229
  20
 136.21886259536
  30
0.0
  11
 179.76949575229
  21
 136.36886259536
  31
0.0
   0
LINE
   5
1C0
 100
AcDbEntity
   8
LEVEL001
 100
AcDbLine
   6
DOT
  62
6
  10
 179.61949575226
  20
 136.21886259533
  30
0.0
  11
 179.61949575226
  21
 134.21886259536
  31
0.0
   0
LINE
   5
1C1
 100
AcDbEntity
   8
LEVEL001
 100
AcDbLine
   6
DOT
  62
6
  10
 179.61949575226
  20
 134.21886259536
  30
0.0
  11
 179.61949575226
  21
 132.21886259538
  31
0.0
   0
LINE
   5
1C2
 100
AcDbEntity
   8
LEVEL001
 100
AcDbLine
   6
DOT
  62
6
  10
 179.76949575229
  20
 132.06886259536
  30
0.0
  11
 180.11949575226
  21
 131.71886259538
  31
0.0
   0
LINE
   5
1C3
 100
AcDbEntity
   8
LEVEL001
 100
AcDbLine
   6
DOT
  62
6
  10
 179.61949575229
  20
 132.21886259536
  30
0.0
  11
 179.76949575229
  21
 132.06886259536
  31
0.0
   0
LINE
   5
1C4
 100
AcDbEntity
   8
LEVEL001
 100
AcDbLine
   6
DOT
  62
3
  10
 201.61949575226
  20
 139.21886259536
  30
0.0
  11
 200.61949575226
  21
 139.21886259536
  31
0.0
   0
LINE
   5
1C5
 100
AcDbEntity
   8
LEVEL001
 100
AcDbLine
   6
DOT
  62
7
  10
 201.41949575226
  20
 138.79886259536
  30
0.0
  11
 201.41949575226
  21
 129.71886259536
  31
0.0
   0
LINE
   5
1C6
 100
AcDbEntity
   8
LEVEL001
 100
AcDbLine
   6
DOT
  62
7
  10
 201.41949575226
  20
 138.79886259536
  30
0.0
  11
 200.81949575226
  21
 138.79886259536
  31
0.0
   0
LINE
   5
1C7
 100
AcDbEntity
   8
LEVEL001
 100
AcDbLine
   6
DOT
  62
7
  10
 200.81949575226
  20
 138.79886259536
  30
0.0
  11
 200.81949575226
  21
 129.71886259536
  31
0.0
   0
LINE
   5
1C8
 100
AcDbEntity
   8
LEVEL001
 100
AcDbLine
   6
DOT
  62
6
  10
 200.61949575226
  20
 136.21886259536
  30
0.0
  11
 201.61949575226
  21
 136.21886259536
  31
0.0
   0
LINE
   5
1C9
 100
AcDbEntity
   8
LEVEL001
 100
AcDbLine
   6
DOT
  62
6
  10
 200.61949575226
  20
 132.21886259536
  30
0.0
  11
 201.61949575226
  21
 132.21886259536
  31
0.0
   0
LINE
   5
1CA
 100
AcDbEntity
   8
LEVEL001
 100
AcDbLine
   6
DOT
  62
3
  10
 201.61949575226
  20
 139.21886259536
  30
0.0
  11
 201.61949575226
  21
 129.11886259536
  31
0.0
   0
LINE
   5
1CB
 100
AcDbEntity
   8
LEVEL001
 100
AcDbLine
   6
DOT
  62
3
  10
 200.61949575226
  20
 139.21886259536
  30
0.0
  11
 200.61949575226
  21
 129.11886259536
  31
0.0
   0
LINE
   5
1CC
 100
AcDbEntity
   8
LEVEL001
 100
AcDbLine
   6
DOT
  62
3
  10
 204.61949575226
  20
 130.21886259536
  30
0.0
  11
 204.61949575226
  21
 129.71886259536
  31
0.0
   0
LINE
   5
1CD
 100
AcDbEntity
   8
LEVEL001
 100
AcDbLine
   6
DOT
  62
3
  10
 163.11949575226
  20
 131.61886259536
  30
0.0
  11
 163.11949575226
  21
 129.11886259536
  31
0.0
   0
LINE
   5
1CE
 100
AcDbEntity
   8
LEVEL001
 100
AcDbLine
   6
DOT
  62
7
  10
 201.41949575226
  20
 129.71886259536
  30
0.0
  11
 200.81949575226
  21
 129.71886259536
  31
0.0
   0
LINE
   5
1CF
 100
AcDbEntity
   8
LEVEL001
 100
AcDbLine
   6
DOT
  62
3
  10
 204.61949575226
  20
 129.71886259536
  30
0.0
  11
 207.53601089125
  21
 129.71886259536
  31
0.0
   0
LINE
   5
1D0
 100
AcDbEntity
   8
LEVEL001
 100
AcDbLine
   6
DOT
  62
3
  10
 173.61949575226
  20
 156.11886259536
  30
0.0
  11
 207.61949575226
  21
 156.11886259536
  31
0.0
   0
LINE
   5
1D1
 100
AcDbEntity
   8
LEVEL001
 100
AcDbLine
   6
DASHDOT
  62
2
  10
 171.98537599926
  20
 147.86886259536
  30
0.0
  11
 191.43430031913
  21
 147.86886259536
  31
0.0
   0
LINE
   5
1D2
 100
AcDbEntity
   8
LEVEL001
 100
AcDbLine
   6
DASHDOT
  62
2
  10
 209.23071315851
  20
 147.86886259536
  30
0.0
  11
 185.12447399430
  21
 147.86886259536
  31
0.0
   0
LINE
   5
1D3
 100
AcDbEntity
   8
LEVEL001
 100
AcDbLine
   6
DASHDOT
  62
2
  10
 177.61949575226
  20
 153.30154064561
  30
0.0
  11
 177.61949575226
  21
 143.15099920646
  31
0.0
   0
LINE
   5
1D4
 100
AcDbEntity
   8
LEVEL001
 100
AcDbLine
   6
DASHDOT
  62
2
  10
 202.11949575226
  20
 143.15099920646
  30
0.0
  11
 202.11949575226
  21
 153.30154064561
  31
0.0
   0
LINE
   5
1D5
 100
AcDbEntity
   8
LEVEL001
 100
AcDbLine
   6
DASHDOT
  62
2
  10
 189.86949575226
  20
 171.73482615493
  30
0.0
  11
 189.86949575226
  21
 143.15099920646
  31
0.0
   0
DIMENSION
   5
1D6
 100
AcDbEntity
   8
LEVEL001
   6
CONTINUOUS
  62
2
 100
AcDbDimension
   2
*D1
  10
 173.61949575226
  20
 178.46844643231
  30
0.0
  11
 175.61949575226
  21
 178.46844643231
  31
0.0
  70
0
   3
GMM001
 100
AcDbAlignedDimension
  13
 177.61949575226
  23
 178.46844643231
  33
0.0
  14
 173.61949575226
  24
 166.11886259536
  34
0.0
  50
 180.00000000000
 100
AcDbRotatedDimension
   0
DIMENSION
   5
1D7
 100
AcDbEntity
   8
LEVEL001
   6
CONTINUOUS
  62
2
 100
AcDbDimension
   2
*D2
  10
 173.61949575226
  20
 188.05420830712
  30
0.0
  11
 190.61949575226
  21
 188.05420830712
  31
0.0
  70
0
   3
GMM001
 100
AcDbAlignedDimension
  13
 207.61949575226
  23
 180.46844643231
  33
0.0
  14
 173.61949575226
  24
 180.46844643231
  34
0.0
  50
 180.00000000000
 100
AcDbRotatedDimension
   0
DIMENSION
   5
1D8
 100
AcDbEntity
   8
LEVEL001
   6
CONTINUOUS
  62
2
 100
AcDbDimension
   2
*D3
  10
 207.61949575226
  20
 178.46844643231
  30
0.0
  11
 214.01599662903
  21
 178.46844643231
  31
0.0
  70
128
   3
GMM002
 100
AcDbAlignedDimension
  13
 202.11949575226
  23
 178.46844643231
  33
0.0
  14
 207.61949575226
  24
 166.11886259536
  34
0.0
 100
AcDbRotatedDimension
   0
DIMENSION
   5
1D9
 100
AcDbEntity
   8
LEVEL001
   6
CONTINUOUS
  62
2
 100
AcDbDimension
   2
*D4
  10
 202.11949575226
  20
 178.46844643231
  30
0.0
  11
 189.86949575226
  21
 178.46844643231
  31
0.0
  70
0
   3
GMM001
 100
AcDbAlignedDimension
  13
 177.61949575226
  23
 153.30154064561
  33
0.0
  14
 202.11949575226
  24
 153.30154064561
  34
0.0
 100
AcDbRotatedDimension
   0
DIMENSION
   5
1DA
 100
AcDbEntity
   8
LEVEL001
   6
CONTINUOUS
  62
2
 100
AcDbDimension
   2
*D5
  10
 207.61949575226
  20
 113.55272128652
  30
0.0
  11
 182.61949575226
  21
 113.55272128652
  31
0.0
  70
0
   3
GMM001
 100
AcDbAlignedDimension
  13
 157.61949575226
  23
 129.11886259536
  33
0.0
  14
 207.61949575226
  24
 129.11886259536
  34
0.0
 100
AcDbRotatedDimension
   0
LINE
   5
1DB
 100
AcDbEntity
   8
LEVEL001
 100
AcDbLine
   6
DASHDOT
  62
2
  10
 171.48955217589
  20
 144.11886259536
  30
0.0
  11
 159.74943932863
  21
 144.11886259536
  31
0.0
   0
LINE
   5
1DC
 100
AcDbEntity
   8
LEVEL001
 100
AcDbLine
   6
DASHDOT
  62
2
  10
 165.61949575226
  20
 149.53567547642
  30
0.0
  11
 165.61949575226
  21
 138.70204971429
  31
0.0
   0
CIRCLE
   5
1DD
 100
AcDbEntity
   8
LEVEL001
 100
AcDbCircle
   6
CONTINUOUS
  62
7
  10
 177.61949575226
  20
 147.86886259536
  30
0.0
  40
 3.6000000000000
   0
CIRCLE
   5
1DE
 100
AcDbEntity
   8
LEVEL001
 100
AcDbCircle
   6
CONTINUOUS
  62
7
  10
 189.86949575226
  20
 147.86886259536
  30
0.0
  40
 3.6000000000000
   0
CIRCLE
   5
1DF
 100
AcDbEntity
   8
LEVEL001
 100
AcDbCircle
   6
CONTINUOUS
  62
7
  10
 202.11949575226
  20
 147.86886259536
  30
0.0
  40
 3.6000000000000
   0
LINE
   5
1E0
 100
AcDbEntity
   8
LEVEL001
 100
AcDbLine
   6
DASHDOT
  62
2
  10
 205.44865254319
  20
 134.21886259536
  30
0.0
  11
 210.41080038372
  21
 134.21886259536
  31
0.0
   0
ARC
   5
1E1
 100
AcDbEntity
   8
LEVEL001
   6
CONTINUOUS
  62
7
 100
AcDbCircle
  10
 207.31949575226
  20
 213.95483316096
  30
0.0
  40
 0.30000000000000
 100
AcDbArc
  50
 273.57633437511
  51
 0.19487046496347E-8
   0
ARC
   5
1E2
 100
AcDbEntity
   8
LEVEL001
   6
CONTINUOUS
  62
7
 100
AcDbCircle
  10
 207.31949575226
  20
 209.99116242816
  30
0.0
  40
 0.30000000000000
 100
AcDbArc
  50
0.0
  51
 86.423665624984
   0
LINE
   5
1E3
 100
AcDbEntity
   8
LEVEL001
 100
AcDbLine
   6
DOT
  62
3
  10
 199.86949575226
  20
 208.22299779445
  30
0.0
  11
 202.11949575226
  21
 208.22299779445
  31
0.0
   0
LINE
   5
1E4
 100
AcDbEntity
   8
LEVEL001
 100
AcDbLine
   6
DOT
  62
3
  10
 198.11949575237
  20
 206.47299779456
  30
0.0
  11
 199.86949575226
  21
 208.22299779445
  31
0.0
   0
LINE
   5
1E5
 100
AcDbEntity
   8
LEVEL001
 100
AcDbLine
   6
DOT
  62
3
  10
 198.11949575237
  20
 206.47299779456
  30
0.0
  11
 199.86949575226
  21
 206.47299779456
  31
0.0
   0
LINE
   5
1E6
 100
AcDbEntity
   8
LEVEL001
 100
AcDbLine
   6
DOT
  62
3
  10
 199.86949575226
  20
 206.47299779456
  30
0.0
  11
 202.11949575226
  21
 206.47299779456
  31
0.0
   0
LINE
   5
1E7
 100
AcDbEntity
   8
LEVEL001
 100
AcDbLine
   6
DOT
  62
3
  10
 204.36949575226
  20
 208.22299779445
  30
0.0
  11
 202.11949575226
  21
 208.22299779445
  31
0.0
   0
LINE
   5
1E8
 100
AcDbEntity
   8
LEVEL001
 100
AcDbLine
   6
DOT
  62
3
  10
 206.11949575215
  20
 206.47299779456
  30
0.0
  11
 204.36949575226
  21
 208.22299779445
  31
0.0
   0
LINE
   5
1E9
 100
AcDbEntity
   8
LEVEL001
 100
AcDbLine
   6
DOT
  62
3
  10
 206.11949575215
  20
 206.47299779456
  30
0.0
  11
 204.36949575226
  21
 206.47299779456
  31
0.0
   0
LINE
   5
1EA
 100
AcDbEntity
   8
LEVEL001
 100
AcDbLine
   6
DOT
  62
3
  10
 204.36949575226
  20
 206.47299779456
  30
0.0
  11
 202.11949575226
  21
 206.47299779456
  31
0.0
   0
LINE
   5
1EB
 100
AcDbEntity
   8
LEVEL001
 100
AcDbLine
   6
DOT
  62
3
  10
 204.36949575226
  20
 208.22299779445
  30
0.0
  11
 204.36949575226
  21
 215.97299779456
  31
0.0
   0
LINE
   5
1EC
 100
AcDbEntity
   8
LEVEL001
 100
AcDbLine
   6
DOT
  62
3
  10
 199.86949575226
  20
 208.22299779445
  30
0.0
  11
 199.86949575226
  21
 215.97299779456
  31
0.0
   0
LINE
   5
1ED
 100
AcDbEntity
   8
LEVEL001
 100
AcDbLine
   6
DOT
  62
3
  10
 198.11949575226
  20
 203.97299779456
  30
0.0
  11
 198.11949575226
  21
 206.47299779445
  31
0.0
   0
LINE
   5
1EE
 100
AcDbEntity
   8
LEVEL001
 100
AcDbLine
   6
DOT
  62
3
  10
 206.11949575226
  20
 203.97299779456
  30
0.0
  11
 206.11949575226
  21
 206.47299779445
  31
0.0
   0
LINE
   5
1EF
 100
AcDbEntity
   8
LEVEL001
 100
AcDbLine
   6
DOT
  62
3
  10
 175.36949575226
  20
 208.22299779445
  30
0.0
  11
 177.61949575226
  21
 208.22299779445
  31
0.0
   0
LINE
   5
1F0
 100
AcDbEntity
   8
LEVEL001
 100
AcDbLine
   6
DOT
  62
3
  10
 173.61949575237
  20
 206.47299779456
  30
0.0
  11
 175.36949575226
  21
 208.22299779445
  31
0.0
   0
LINE
   5
1F1
 100
AcDbEntity
   8
LEVEL001
 100
AcDbLine
   6
DOT
  62
3
  10
 173.61949575237
  20
 206.47299779456
  30
0.0
  11
 175.36949575226
  21
 206.47299779456
  31
0.0
   0
LINE
   5
1F2
 100
AcDbEntity
   8
LEVEL001
 100
AcDbLine
   6
DOT
  62
3
  10
 175.36949575226
  20
 206.47299779456
  30
0.0
  11
 177.61949575226
  21
 206.47299779456
  31
0.0
   0
LINE
   5
1F3
 100
AcDbEntity
   8
LEVEL001
 100
AcDbLine
   6
DOT
  62
3
  10
 179.86949575226
  20
 208.22299779445
  30
0.0
  11
 177.61949575226
  21
 208.22299779445
  31
0.0
   0
LINE
   5
1F4
 100
AcDbEntity
   8
LEVEL001
 100
AcDbLine
   6
DOT
  62
3
  10
 181.61949575215
  20
 206.47299779456
  30
0.0
  11
 179.86949575226
  21
 208.22299779445
  31
0.0
   0
LINE
   5
1F5
 100
AcDbEntity
   8
LEVEL001
 100
AcDbLine
   6
DOT
  62
3
  10
 181.61949575215
  20
 206.47299779456
  30
0.0
  11
 179.86949575226
  21
 206.47299779456
  31
0.0
   0
LINE
   5
1F6
 100
AcDbEntity
   8
LEVEL001
 100
AcDbLine
   6
DOT
  62
3
  10
 179.86949575226
  20
 206.47299779456
  30
0.0
  11
 177.61949575226
  21
 206.47299779456
  31
0.0
   0
LINE
   5
1F7
 100
AcDbEntity
   8
LEVEL001
 100
AcDbLine
   6
DOT
  62
3
  10
 179.86949575226
  20
 208.22299779445
  30
0.0
  11
 179.86949575226
  21
 215.97299779456
  31
0.0
   0
LINE
   5
1F8
 100
AcDbEntity
   8
LEVEL001
 100
AcDbLine
   6
DOT
  62
3
  10
 175.36949575226
  20
 208.22299779445
  30
0.0
  11
 175.36949575226
  21
 215.97299779456
  31
0.0
   0
LINE
   5
1F9
 100
AcDbEntity
   8
LEVEL001
 100
AcDbLine
   6
DOT
  62
3
  10
 181.61949575226
  20
 203.97299779456
  30
0.0
  11
 181.61949575226
  21
 206.47299779445
  31
0.0
   0
LINE
   5
1FA
 100
AcDbEntity
   8
LEVEL001
 100
AcDbLine
   6
DOT
  62
3
  10
 192.11949575226
  20
 208.22299779445
  30
0.0
  11
 189.86949575226
  21
 208.22299779445
  31
0.0
   0
LINE
   5
1FB
 100
AcDbEntity
   8
LEVEL001
 100
AcDbLine
   6
DOT
  62
3
  10
 193.86949575215
  20
 206.47299779456
  30
0.0
  11
 192.11949575226
  21
 208.22299779445
  31
0.0
   0
LINE
   5
1FC
 100
AcDbEntity
   8
LEVEL001
 100
AcDbLine
   6
DOT
  62
3
  10
 193.86949575215
  20
 206.47299779456
  30
0.0
  11
 192.11949575226
  21
 206.47299779456
  31
0.0
   0
LINE
   5
1FD
 100
AcDbEntity
   8
LEVEL001
 100
AcDbLine
   6
DOT
  62
3
  10
 192.11949575226
  20
 206.47299779456
  30
0.0
  11
 189.86949575226
  21
 206.47299779456
  31
0.0
   0
LINE
   5
1FE
 100
AcDbEntity
   8
LEVEL001
 100
AcDbLine
   6
DOT
  62
3
  10
 192.11949575226
  20
 208.22299779445
  30
0.0
  11
 192.11949575226
  21
 215.97299779456
  31
0.0
   0
LINE
   5
1FF
 100
AcDbEntity
   8
LEVEL001
 100
AcDbLine
   6
DOT
  62
3
  10
 193.86949575226
  20
 203.97299779456
  30
0.0
  11
 193.86949575226
  21
 206.47299779445
  31
0.0
   0
LINE
   5
200
 100
AcDbEntity
   8
LEVEL001
 100
AcDbLine
   6
DOT
  62
3
  10
 187.61949575226
  20
 208.22299779445
  30
0.0
  11
 189.86949575226
  21
 208.22299779445
  31
0.0
   0
LINE
   5
201
 100
AcDbEntity
   8
LEVEL001
 100
AcDbLine
   6
DOT
  62
3
  10
 185.86949575237
  20
 206.47299779456
  30
0.0
  11
 187.61949575226
  21
 208.22299779445
  31
0.0
   0
LINE
   5
202
 100
AcDbEntity
   8
LEVEL001
 100
AcDbLine
   6
DOT
  62
3
  10
 185.86949575237
  20
 206.47299779456
  30
0.0
  11
 187.61949575226
  21
 206.47299779456
  31
0.0
   0
LINE
   5
203
 100
AcDbEntity
   8
LEVEL001
 100
AcDbLine
   6
DOT
  62
3
  10
 187.61949575226
  20
 206.47299779456
  30
0.0
  11
 189.86949575226
  21
 206.47299779456
  31
0.0
   0
LINE
   5
204
 100
AcDbEntity
   8
LEVEL001
 100
AcDbLine
   6
DOT
  62
3
  10
 187.61949575226
  20
 208.22299779445
  30
0.0
  11
 187.61949575226
  21
 215.97299779456
  31
0.0
   0
LINE
   5
205
 100
AcDbEntity
   8
LEVEL001
 100
AcDbLine
   6
DOT
  62
3
  10
 185.86949575226
  20
 203.97299779456
  30
0.0
  11
 185.86949575226
  21
 206.47299779445
  31
0.0
   0
LINE
   5
206
 100
AcDbEntity
   8
LEVEL001
 100
AcDbLine
   6
DASHDOT
  62
2
  10
 184.69513201387
  20
 207.47299779456
  30
0.0
  11
 155.56586137291
  21
 207.47299779456
  31
0.0
   0
ARC
   5
207
 100
AcDbEntity
   8
LEVEL001
   6
CONTINUOUS
  62
7
 100
AcDbCircle
  10
 174.91949575226
  20
 213.95483316098
  30
0.0
  40
 0.30000000000000
 100
AcDbArc
  50
 180.00000000080
  51
 266.42366562505
   0
LINE
   5
208
 100
AcDbEntity
   8
LEVEL001
 100
AcDbLine
   6
CONTINUOUS
  62
7
  10
 182.61949575226
  20
 213.17299779456
  30
0.0
  11
 174.90078226641
  21
 213.65541738743
  31
0.0
   0
ARC
   5
209
 100
AcDbEntity
   8
LEVEL001
   6
CONTINUOUS
  62
7
 100
AcDbCircle
  10
 174.91949575226
  20
 209.99116242814
  30
0.0
  40
 0.30000000000000
 100
AcDbArc
  50
 93.576334374867
  51
 179.99999999776
   0
LINE
   5
20A
 100
AcDbEntity
   8
LEVEL001
 100
AcDbLine
   6
CONTINUOUS
  62
7
  10
 182.61949575226
  20
 210.77299779456
  30
0.0
  11
 174.90078226641
  21
 210.29057820170
  31
0.0
   0
LINE
   5
20B
 100
AcDbEntity
   8
LEVEL001
 100
AcDbLine
   6
DOT
  62
3
  10
 173.61949575226
  20
 203.97299779456
  30
0.0
  11
 173.61949575226
  21
 206.47299779445
  31
0.0
   0
LINE
   5
20C
 100
AcDbEntity
   8
LEVEL001
 100
AcDbLine
   6
CONTINUOUS
  62
7
  10
 163.11949575226
  20
 207.47299779456
  30
0.0
  11
 163.11949575226
  21
 209.97299779456
  31
0.0
   0
LINE
   5
20D
 100
AcDbEntity
   8
LEVEL001
 100
AcDbLine
   6
CONTINUOUS
  62
7
  10
 157.61949575226
  20
 213.97299779456
  30
0.0
  11
 163.11949575226
  21
 213.97299779456
  31
0.0
   0
LINE
   5
20E
 100
AcDbEntity
   8
LEVEL001
 100
AcDbLine
   6
CONTINUOUS
  62
7
  10
 157.61949575226
  20
 205.97299779456
  30
0.0
  11
 163.11949575226
  21
 205.97299779456
  31
0.0
   0
LINE
   5
20F
 100
AcDbEntity
   8
LEVEL001
 100
AcDbLine
   6
CONTINUOUS
  62
7
  10
 163.11949575226
  20
 205.97299779456
  30
0.0
  11
 170.61949575226
  21
 205.97299779456
  31
0.0
   0
ARC
   5
210
 100
AcDbEntity
   8
LEVEL001
   6
CONTINUOUS
  62
7
 100
AcDbCircle
  10
 170.61949575226
  20
 206.47299779456
  30
0.0
  40
 0.50000000000000
 100
AcDbArc
  50
 270.00000000000
  51
 0.26706481549313E-9
   0
LINE
   5
211
 100
AcDbEntity
   8
LEVEL001
 100
AcDbLine
   6
CONTINUOUS
  62
7
  10
 171.11949575226
  20
 206.47299779456
  30
0.0
  11
 171.11949575226
  21
 209.97299779456
  31
0.0
   0
LINE
   5
212
 100
AcDbEntity
   8
LEVEL001
 100
AcDbLine
   6
CONTINUOUS
  62
7
  10
 171.11949575226
  20
 209.97299779456
  30
0.0
  11
 171.11949575226
  21
 213.47299779456
  31
0.0
   0
ARC
   5
213
 100
AcDbEntity
   8
LEVEL001
   6
CONTINUOUS
  62
7
 100
AcDbCircle
  10
 170.61949575226
  20
 213.47299779456
  30
0.0
  40
 0.50000000000000
 100
AcDbArc
  50
0.0
  51
 90.000000000274
   0
LINE
   5
214
 100
AcDbEntity
   8
LEVEL001
 100
AcDbLine
   6
CONTINUOUS
  62
7
  10
 163.11949575226
  20
 213.97299779456
  30
0.0
  11
 170.61949575226
  21
 213.97299779456
  31
0.0
   0
LINE
   5
215
 100
AcDbEntity
   8
LEVEL001
 100
AcDbLine
   6
CONTINUOUS
  62
7
  10
 207.61949575226
  20
 208.67299779456
  30
0.0
  11
 174.61949575226
  21
 208.67299779456
  31
0.0
   0
LINE
   5
216
 100
AcDbEntity
   8
LEVEL001
 100
AcDbLine
   6
CONTINUOUS
  62
7
  10
 171.11949575226
  20
 206.47299779456
  30
0.0
  11
 171.11949575226
  21
 207.47299779456
  31
0.0
   0
LINE
   5
217
 100
AcDbEntity
   8
LEVEL001
 100
AcDbLine
   6
DASHDOT
  62
2
  10
 165.61949575226
  20
 200.88991232963
  30
0.0
  11
 165.61949575226
  21
 218.38770610844
  31
0.0
   0
LINE
   5
218
 100
AcDbEntity
   8
LEVEL001
 100
AcDbLine
   6
CONTINUOUS
  62
7
  10
 182.61949575226
  20
 213.17299779456
  30
0.0
  11
 199.61949575226
  21
 213.17299779456
  31
0.0
   0
LINE
   5
219
 100
AcDbEntity
   8
LEVEL001
 100
AcDbLine
   6
CONTINUOUS
  62
7
  10
 182.61949575226
  20
 210.77299779456
  30
0.0
  11
 199.61949575226
  21
 210.77299779456
  31
0.0
   0
LINE
   5
21A
 100
AcDbEntity
   8
LEVEL001
 100
AcDbLine
   6
DASHDOT
  62
2
  10
 202.11949575226
  20
 217.66521852093
  30
0.0
  11
 202.11949575226
  21
 202.32212412171
  31
0.0
   0
LINE
   5
21B
 100
AcDbEntity
   8
LEVEL001
 100
AcDbLine
   6
DASHDOT
  62
2
  10
 189.86949575226
  20
 217.66521852093
  30
0.0
  11
 189.86949575226
  21
 202.32212412171
  31
0.0
   0
LINE
   5
21C
 100
AcDbEntity
   8
LEVEL001
 100
AcDbLine
   6
DASHDOT
  62
2
  10
 177.61949575226
  20
 202.32212412171
  30
0.0
  11
 177.61949575226
  21
 217.66521852093
  31
0.0
   0
LINE
   5
21D
 100
AcDbEntity
   8
LEVEL001
 100
AcDbLine
   6
DOT
  62
7
  10
 156.81392600972
  20
 212.57299779456
  30
0.0
  11
 154.42611104033
  21
 212.57299779456
  31
0.0
   0
LINE
   5
21E
 100
AcDbEntity
   8
LEVEL001
 100
AcDbLine
   6
CONTINUOUS
  62
7
  10
 154.61845088023
  20
 214.97299779456
  30
0.0
  11
 137.62219001257
  21
 214.97299779456
  31
0.0
   0
ARC
   5
21F
 100
AcDbEntity
   8
LEVEL001
   6
CONTINUOUS
  62
7
 100
AcDbCircle
  10
 155.61856204982
  20
 213.77299779456
  30
0.0
  40
 1.2000000000000
 100
AcDbArc
  50
 0.13570366640910E-11
  51
 89.999999999993
   0
LINE
   5
220
 100
AcDbEntity
   8
LEVEL001
 100
AcDbLine
   6
CONTINUOUS
  62
7
  10
 154.61845088023
  20
 214.97299779456
  30
0.0
  11
 155.61856204982
  21
 214.97299779456
  31
0.0
   0
LINE
   5
221
 100
AcDbEntity
   8
LEVEL001
 100
AcDbLine
   6
CONTINUOUS
  62
7
  10
 155.61392600972
  20
 214.97299779456
  30
0.0
  11
 155.61856204982
  21
 214.97299779456
  31
0.0
   0
ARC
   5
222
 100
AcDbEntity
   8
LEVEL001
   6
CONTINUOUS
  62
7
 100
AcDbCircle
  10
 156.81392600973
  20
 213.77299779456
  30
0.0
  40
 1.2000000000000
 100
AcDbArc
  50
 180.00000000000
  51
 269.99999999992
   0
LINE
   5
223
 100
AcDbEntity
   8
LEVEL001
 100
AcDbLine
   6
CONTINUOUS
  62
7
  10
 155.61392600972
  20
 213.77299779456
  30
0.0
  11
 137.62219001257
  21
 213.77299779456
  31
0.0
   0
LINE
   5
224
 100
AcDbEntity
   8
LEVEL001
 100
AcDbLine
   6
CONTINUOUS
  62
7
  10
 154.61845088023
  20
 204.97299779456
  30
0.0
  11
 137.62219001257
  21
 204.97299779456
  31
0.0
   0
ARC
   5
225
 100
AcDbEntity
   8
LEVEL001
   6
CONTINUOUS
  62
7
 100
AcDbCircle
  10
 155.61856204982
  20
 206.17299779456
  30
0.0
  40
 1.2000000000000
 100
AcDbArc
  50
 269.99999999996
  51
0.0
   0
LINE
   5
226
 100
AcDbEntity
   8
LEVEL001
 100
AcDbLine
   6
CONTINUOUS
  62
7
  10
 154.61845088023
  20
 204.97299779456
  30
0.0
  11
 155.61856204982
  21
 204.97299779456
  31
0.0
   0
LINE
   5
227
 100
AcDbEntity
   8
LEVEL001
 100
AcDbLine
   6
CONTINUOUS
  62
7
  10
 155.61392600972
  20
 204.97299779456
  30
0.0
  11
 155.61856204982
  21
 204.97299779456
  31
0.0
   0
ARC
   5
228
 100
AcDbEntity
   8
LEVEL001
   6
CONTINUOUS
  62
7
 100
AcDbCircle
  10
 156.81392600972
  20
 206.17299779457
  30
0.0
  40
 1.2000000000000
 100
AcDbArc
  50
 90.000000000000
  51
 180.00000000013
   0
LINE
   5
229
 100
AcDbEntity
   8
LEVEL001
 100
AcDbLine
   6
CONTINUOUS
  62
7
  10
 155.61392600972
  20
 206.17299779456
  30
0.0
  11
 137.62219001257
  21
 206.17299779456
  31
0.0
   0
LINE
   5
22A
 100
AcDbEntity
   8
LEVEL001
 100
AcDbLine
   6
CONTINUOUS
  62
7
  10
 137.62219001257
  20
 214.97299779456
  30
0.0
  11
 137.62219001257
  21
 213.77299779456
  31
0.0
   0
LINE
   5
22B
 100
AcDbEntity
   8
LEVEL001
 100
AcDbLine
   6
CONTINUOUS
  62
7
  10
 137.91949575227
  20
 213.67299779456
  30
0.0
  11
 141.61949575226
  21
 213.67299779456
  31
0.0
   0
LINE
   5
22C
 100
AcDbEntity
   8
LEVEL001
 100
AcDbLine
   6
CONTINUOUS
  62
7
  10
 137.62219001257
  20
 206.17299779456
  30
0.0
  11
 137.62219001257
  21
 204.97299779456
  31
0.0
   0
LINE
   5
22D
 100
AcDbEntity
   8
LEVEL001
 100
AcDbLine
   6
CONTINUOUS
  62
7
  10
 145.61949575226
  20
 213.67299779456
  30
0.0
  11
 146.61949575226
  21
 213.67299779456
  31
0.0
   0
LINE
   5
22E
 100
AcDbEntity
   8
LEVEL001
 100
AcDbLine
   6
CONTINUOUS
  62
7
  10
 143.61949575226
  20
 213.67299779456
  30
0.0
  11
 145.31949575227
  21
 213.67299779456
  31
0.0
   0
LINE
   5
22F
 100
AcDbEntity
   8
LEVEL001
 100
AcDbLine
   6
CONTINUOUS
  62
7
  10
 141.61949575226
  20
 213.67299779456
  30
0.0
  11
 143.61949575226
  21
 213.67299779456
  31
0.0
   0
LINE
   5
230
 100
AcDbEntity
   8
LEVEL001
 100
AcDbLine
   6
CONTINUOUS
  62
7
  10
 145.31949575227
  20
 213.67299779456
  30
0.0
  11
 145.61949575226
  21
 213.67299779456
  31
0.0
   0
LINE
   5
231
 100
AcDbEntity
   8
LEVEL001
 100
AcDbLine
   6
CONTINUOUS
  62
7
  10
 155.69902650884
  20
 212.57299779456
  30
0.0
  11
 155.69902650884
  21
 207.37299779456
  31
0.0
   0
LINE
   5
232
 100
AcDbEntity
   8
LEVEL001
 100
AcDbLine
   6
CONTINUOUS
  62
7
  10
 156.81392600972
  20
 207.37299779456
  30
0.0
  11
 154.42611104033
  21
 207.37299779456
  31
0.0
   0
ARC
   5
233
 100
AcDbEntity
   8
LEVEL001
   6
CONTINUOUS
  62
7
 100
AcDbCircle
  10
 133.41963585438
  20
 213.37299779456
  30
0.0
  40
 0.30000000000000
 100
AcDbArc
  50
 90.000000000000
  51
 179.99999999987
   0
ARC
   5
234
 100
AcDbEntity
   8
LEVEL001
   6
CONTINUOUS
  62
7
 100
AcDbCircle
  10
 133.41963585439
  20
 206.57299779456
  30
0.0
  40
 0.30000000000000
 100
AcDbArc
  50
 180.00000000000
  51
 269.99999999942
   0
LINE
   5
235
 100
AcDbEntity
   8
LEVEL001
 100
AcDbLine
   6
CONTINUOUS
  62
7
  10
 133.41963585438
  20
 213.67299779456
  30
0.0
  11
 137.91949575227
  21
 213.67299779456
  31
0.0
   0
LINE
   5
236
 100
AcDbEntity
   8
LEVEL001
 100
AcDbLine
   6
DASHDOT
  62
2
  10
 143.61949575226
  20
 218.56162728703
  30
0.0
  11
 143.61949575226
  21
 202.27468324112
  31
0.0
   0
DIMENSION
   5
237
 100
AcDbEntity
   8
LEVEL001
   6
CONTINUOUS
  62
2
 100
AcDbDimension
   2
*D6
  10
 124.13241597337
  20
 206.27299779456
  30
0.0
  11
 124.13241597337
  21
 209.97299779456
  31
0.0
  70
0
   3
GMM001
 100
AcDbAlignedDimension
  13
 133.41963585438
  23
 213.67299779456
  33
0.0
  14
 133.41963585438
  24
 206.27299779456
  34
0.0
  50
 270.00000000000
 100
AcDbRotatedDimension
   0
DIMENSION
   5
238
 100
AcDbEntity
   8
LEVEL001
   6
CONTINUOUS
  62
2
 100
AcDbDimension
   2
*D7
  10
 114.51830257734
  20
 204.97299779456
  30
0.0
  11
 114.51830257734
  21
 209.97299779456
  31
0.0
  70
0
   3
GMM001
 100
AcDbAlignedDimension
  13
 137.62219001257
  23
 214.97299779456
  33
0.0
  14
 137.62219001257
  24
 204.97299779456
  34
0.0
  50
 270.00000000000
 100
AcDbRotatedDimension
   0
LINE
   5
239
 100
AcDbEntity
   8
LEVEL001
 100
AcDbLine
   6
DASHDOT
  62
2
  10
 173.03182923957
  20
 209.97299779456
  30
0.0
  11
 130.66883657533
  21
 209.97299779456
  31
0.0
   0
LINE
   5
23A
 100
AcDbEntity
   8
LEVEL001
 100
AcDbLine
   6
CONTINUOUS
  62
7
  10
 170.11949575226
  20
 213.77299779456
  30
0.0
  11
 170.11949575226
  21
 212.57299779456
  31
0.0
   0
LINE
   5
23B
 100
AcDbEntity
   8
LEVEL001
 100
AcDbLine
   6
CONTINUOUS
  62
7
  10
 170.11949575226
  20
 207.37299779456
  30
0.0
  11
 170.11949575226
  21
 206.17299779456
  31
0.0
   0
LINE
   5
23C
 100
AcDbEntity
   8
LEVEL001
 100
AcDbLine
   6
CONTINUOUS
  62
7
  10
 156.81856204982
  20
 213.77299779456
  30
0.0
  11
 170.11949575226
  21
 213.77299779456
  31
0.0
   0
LINE
   5
23D
 100
AcDbEntity
   8
LEVEL001
 100
AcDbLine
   6
CONTINUOUS
  62
7
  10
 170.11949575226
  20
 212.57299779456
  30
0.0
  11
 154.42611104033
  21
 212.57299779456
  31
0.0
   0
LINE
   5
23E
 100
AcDbEntity
   8
LEVEL001
 100
AcDbLine
   6
CONTINUOUS
  62
7
  10
 156.81392600972
  20
 207.37299779456
  30
0.0
  11
 170.11949575226
  21
 207.37299779456
  31
0.0
   0
LINE
   5
23F
 100
AcDbEntity
   8
LEVEL001
 100
AcDbLine
   6
CONTINUOUS
  62
7
  10
 156.81856204982
  20
 206.17299779456
  30
0.0
  11
 170.11949575226
  21
 206.17299779456
  31
0.0
   0
LINE
   5
240
 100
AcDbEntity
   8
LEVEL001
 100
AcDbLine
   6
CONTINUOUS
  62
7
  10
 157.61949575226
  20
 213.77299779456
  30
0.0
  11
 157.61949575226
  21
 214.10568543878
  31
0.0
   0
LINE
   5
241
 100
AcDbEntity
   8
LEVEL001
 100
AcDbLine
   6
CONTINUOUS
  62
7
  10
 157.61949575226
  20
 207.37299779456
  30
0.0
  11
 157.61949575226
  21
 212.57299779456
  31
0.0
   0
LINE
   5
242
 100
AcDbEntity
   8
LEVEL001
 100
AcDbLine
   6
CONTINUOUS
  62
7
  10
 163.11949575226
  20
 209.97299779456
  30
0.0
  11
 163.11949575226
  21
 212.57299779456
  31
0.0
   0
LINE
   5
243
 100
AcDbEntity
   8
LEVEL001
 100
AcDbLine
   6
CONTINUOUS
  62
7
  10
 163.11949575226
  20
 213.77299779456
  30
0.0
  11
 163.11949575226
  21
 213.97299779456
  31
0.0
   0
LINE
   5
244
 100
AcDbEntity
   8
LEVEL001
 100
AcDbLine
   6
CONTINUOUS
  62
7
  10
 168.11949575226
  20
 213.77299779456
  30
0.0
  11
 168.11949575226
  21
 213.97299779456
  31
0.0
   0
LINE
   5
245
 100
AcDbEntity
   8
LEVEL001
 100
AcDbLine
   6
CONTINUOUS
  62
7
  10
 168.11949575226
  20
 205.97299779456
  30
0.0
  11
 168.11949575226
  21
 206.17299779456
  31
0.0
   0
LINE
   5
246
 100
AcDbEntity
   8
LEVEL001
 100
AcDbLine
   6
CONTINUOUS
  62
7
  10
 168.11949575226
  20
 207.37299779456
  30
0.0
  11
 168.11949575226
  21
 212.57299779456
  31
0.0
   0
LINE
   5
247
 100
AcDbEntity
   8
LEVEL001
 100
AcDbLine
   6
CONTINUOUS
  62
7
  10
 163.11949575226
  20
 205.97299779456
  30
0.0
  11
 163.11949575226
  21
 206.17299779456
  31
0.0
   0
LINE
   5
248
 100
AcDbEntity
   8
LEVEL001
 100
AcDbLine
   6
CONTINUOUS
  62
7
  10
 163.11949575226
  20
 207.37299779456
  30
0.0
  11
 163.11949575226
  21
 207.47299779456
  31
0.0
   0
ARC
   5
249
 100
AcDbEntity
   8
LEVEL001
   6
CONTINUOUS
  62
7
 100
AcDbCircle
  10
 143.13911030558
  20
 146.02471415538
  30
0.0
  40
 10.500000000000
 100
AcDbArc
  50
 26.191848138725
  51
 38.792566018153
   0
ARC
   5
24A
 100
AcDbEntity
   8
LEVEL001
   6
CONTINUOUS
  62
7
 100
AcDbCircle
  10
 143.13911030558
  20
 146.02471415538
  30
0.0
  40
 10.500000000000
 100
AcDbArc
  50
 38.792566018151
  51
 72.349875780070
   0
ARC
   5
24B
 100
AcDbEntity
   8
LEVEL001
   6
CONTINUOUS
  62
7
 100
AcDbCircle
  10
 143.13911030558
  20
 146.02471415538
  30
0.0
  40
 10.500000000000
 100
AcDbArc
  50
 72.349875780069
  51
 175.15414184536
   0
ARC
   5
24C
 100
AcDbEntity
   8
LEVEL001
   6
CONTINUOUS
  62
7
 100
AcDbCircle
  10
 143.13911030558
  20
 146.02471415538
  30
0.0
  40
 6.0000000000000
 100
AcDbArc
  50
 81.341943559676
  51
 138.79341147097
   0
ARC
   5
24D
 100
AcDbEntity
   8
LEVEL001
   6
CONTINUOUS
  62
7
 100
AcDbCircle
  10
 143.13911030558
  20
 146.02471415538
  30
0.0
  40
 6.0000000000000
 100
AcDbArc
  50
 138.79341147097
  51
 178.17590411904
   0
LINE
   5
24E
 100
AcDbEntity
   8
LEVEL001
 100
AcDbLine
   6
CONTINUOUS
  62
7
  10
 137.11033738682
  20
 145.21676500879
  30
0.0
  11
 137.14215073295
  21
 146.21570076276
  31
0.0
   0
ARC
   5
24F
 100
AcDbEntity
   8
LEVEL001
   6
CONTINUOUS
  62
7
 100
AcDbCircle
  10
 143.13911030558
  20
 146.02471415538
  30
0.0
  40
 13.200000000000
 100
AcDbArc
  50
 312.62981435350
  51
 355.15414184536
   0
ARC
   5
250
 100
AcDbEntity
   8
LEVEL001
   6
CONTINUOUS
  62
7
 100
AcDbCircle
  10
 143.13911030558
  20
 146.02471415538
  30
0.0
  40
 13.200000000000
 100
AcDbArc
  50
 299.04997000093
  51
 312.62981435350
   0
ARC
   5
251
 100
AcDbEntity
   8
LEVEL001
   6
CONTINUOUS
  62
7
 100
AcDbCircle
  10
 143.13911030558
  20
 146.02471415538
  30
0.0
  40
 13.200000000000
 100
AcDbArc
  50
 355.15414184536
  51
 4.6084970539032
   0
ARC
   5
252
 100
AcDbEntity
   8
LEVEL001
   6
CONTINUOUS
  62
7
 100
AcDbCircle
  10
 143.13911030558
  20
 146.02471415538
  30
0.0
  40
 13.200000000000
 100
AcDbArc
  50
 4.6084970539061
  51
 18.377635349091
   0
LINE
   5
253
 100
AcDbEntity
   8
LEVEL001
 100
AcDbLine
   6
CONTINUOUS
  62
7
  10
 137.11033738682
  20
 145.21676500879
  30
0.0
  11
 136.78213044314
  21
 141.34541492312
  31
0.0
   0
ARC
   5
254
 100
AcDbEntity
   8
LEVEL001
   6
CONTINUOUS
  62
7
 100
AcDbCircle
  10
 140.76783270857
  20
 141.00751338231
  30
0.0
  40
 4.0000000000000
 100
AcDbArc
  50
 175.15414184536
  51
 252.34987578007
   0
ARC
   5
255
 100
AcDbEntity
   8
LEVEL001
   6
CONTINUOUS
  62
7
 100
AcDbCircle
  10
 143.13911030558
  20
 146.02471415538
  30
0.0
  40
 10.500000000000
 100
AcDbArc
  50
 175.15414184536
  51
 227.14111048331
   0
LINE
   5
256
 100
AcDbEntity
   8
LEVEL001
 100
AcDbLine
   6
CONTINUOUS
  62
7
  10
 144.52028920470
  20
 135.61595126786
  30
0.0
  11
 147.24499293143
  21
 134.74900008209
  31
0.0
   0
LINE
   5
257
 100
AcDbEntity
   8
LEVEL001
 100
AcDbLine
   6
CONTINUOUS
  62
7
  10
 147.24499293143
  20
 134.74900008209
  30
0.0
  11
 148.70043156567
  21
 134.28590597119
  31
0.0
   0
LINE
   5
258
 100
AcDbEntity
   8
LEVEL001
 100
AcDbLine
   6
CONTINUOUS
  62
7
  10
 139.55501807947
  20
 137.19581026225
  30
0.0
  11
 144.52028920470
  21
 135.61595126786
  31
0.0
   0
ARC
   5
259
 100
AcDbEntity
   8
LEVEL001
   6
CONTINUOUS
  62
7
 100
AcDbCircle
  10
 143.13911030558
  20
 146.02471415538
  30
0.0
  40
 10.500000000000
 100
AcDbArc
  50
 227.14111048331
  51
 277.55864107683
   0
LINE
   5
25A
 100
AcDbEntity
   8
LEVEL001
 100
AcDbLine
   6
DASHDOT
  62
2
  10
 147.28089982915
  20
 159.04176694374
  30
0.0
  11
 139.39499466543
  21
 134.25749357203
  31
0.0
   0
LINE
   5
25B
 100
AcDbEntity
   8
LEVEL001
 100
AcDbLine
   6
DASHDOT
  62
2
  10
 153.98827369189
  20
 142.57270762338
  30
0.0
  11
 131.21453324622
  21
 149.81889776518
  31
0.0
   0
DIMENSION
   5
25C
 100
AcDbEntity
   8
LEVEL001
   6
CONTINUOUS
  62
2
 100
AcDbDimension
   2
*D8
  10
 121.68893486297
  20
 142.88047310387
  30
0.0
  11
 123.12915223504
  21
 147.40687055893
  31
0.0
  70
0
   3
GMM001
 100
AcDbAlignedDimension
  13
 131.21453324622
  23
 149.81889776518
  33
0.0
  14
 139.55501807947
  24
 137.19581026225
  34
0.0
  50
 252.34987578007
 100
AcDbRotatedDimension
   0
LINE
   5
25D
 100
AcDbEntity
   8
LEVEL001
 100
AcDbLine
   6
DIVIDE
  62
2
  10
 186.81949575226
  20
 138.21886259536
  30
0.0
  11
 164.67609843534
  21
 138.21886259536
  31
0.0
   0
LINE
   5
25E
 100
AcDbEntity
   8
LEVEL001
 100
AcDbLine
   6
DIVIDE
  62
2
  10
 186.81949575226
  20
 137.21886259536
  30
0.0
  11
 164.67609843534
  21
 137.21886259536
  31
0.0
   0
LINE
   5
25F
 100
AcDbEntity
   8
LEVEL001
 100
AcDbLine
   6
DIVIDE
  62
2
  10
 186.81949575226
  20
 131.21886259536
  30
0.0
  11
 164.67609843534
  21
 131.21886259536
  31
0.0
   0
LINE
   5
260
 100
AcDbEntity
   8
LEVEL001
 100
AcDbLine
   6
DIVIDE
  62
2
  10
 186.81949575226
  20
 130.21886259536
  30
0.0
  11
 164.67609843534
  21
 130.21886259536
  31
0.0
   0
LINE
   5
261
 100
AcDbEntity
   8
LEVEL001
 100
AcDbLine
   6
DIVIDE
  62
2
  10
 164.67609843534
  20
 138.21886259536
  30
0.0
  11
 164.67609843534
  21
 130.21886259536
  31
0.0
   0
DIMENSION
   5
262
 100
AcDbEntity
   8
LEVEL001
   6
CONTINUOUS
  62
2
 100
AcDbDimension
   2
*D9
  10
 152.77413534859
  20
 141.13480099834
  30
0.0
  11
 115.03607016153
  21
 160.27776738254
  31
0.0
  70
131
   3
GMM003
 100
AcDbDiametricDimension
  15
 135.92380721603
  25
 153.66741612150
  35
0.0
  40
 11.076489233704
   0
LINE
   5
263
 100
AcDbEntity
   8
LEVEL001
 100
AcDbLine
   6
CONTINUOUS
  62
7
  10
 148.70043156567
  20
 134.28590597119
  30
0.0
  11
 157.61949575226
  21
 136.38271822002
  31
0.0
   0
LINE
   5
264
 100
AcDbEntity
   8
LEVEL001
 100
AcDbLine
   6
CONTINUOUS
  62
7
  10
 162.62078881887
  20
 149.12735439480
  30
0.0
  11
 144.04233320350
  21
 151.95634027279
  31
0.0
   0
LINE
   5
265
 100
AcDbEntity
   8
LEVEL001
 100
AcDbLine
   6
DASHDOT
  62
2
  10
 171.02570014674
  20
 143.66053312839
  30
0.0
  11
 129.97671980486
  21
 147.14060082597
  31
0.0
   0
LINE
   5
266
 100
AcDbEntity
   8
LEVEL001
 100
AcDbLine
   6
DOT
  62
3
  10
 189.11949575226
  20
 129.71886259536
  30
0.0
  11
 189.11949575226
  21
 129.11886259536
  31
0.0
   0
LINE
   5
267
 100
AcDbEntity
   8
LEVEL001
 100
AcDbLine
   6
DOT
  62
3
  10
 189.11949575226
  20
 141.71886259536
  30
0.0
  11
 189.11949575226
  21
 141.21886259536
  31
0.0
   0
LINE
   5
268
 100
AcDbEntity
   8
LEVEL001
 100
AcDbLine
   6
DOT
  62
3
  10
 194.11949575226
  20
 131.66886259536
  30
0.0
  11
 199.61949575226
  21
 131.66886259536
  31
0.0
   0
LINE
   5
269
 100
AcDbEntity
   8
LEVEL001
 100
AcDbLine
   6
DOT
  62
3
  10
 194.11949575226
  20
 136.76886259536
  30
0.0
  11
 199.61949575226
  21
 136.76886259536
  31
0.0
   0
LINE
   5
26A
 100
AcDbEntity
   8
LEVEL001
 100
AcDbLine
   6
CONTINUOUS
  62
7
  10
 189.11949575226
  20
 136.76886259536
  30
0.0
  11
 194.11949575226
  21
 136.76886259536
  31
0.0
   0
LINE
   5
26B
 100
AcDbEntity
   8
LEVEL001
 100
AcDbLine
   6
CONTINUOUS
  62
7
  10
 194.11949575226
  20
 136.76886259536
  30
0.0
  11
 194.11949575226
  21
 131.65627159690
  31
0.0
   0
LINE
   5
26C
 100
AcDbEntity
   8
LEVEL001
 100
AcDbLine
   6
CONTINUOUS
  62
7
  10
 189.11949575226
  20
 131.65627159690
  30
0.0
  11
 194.11949575226
  21
 131.65627159690
  31
0.0
   0
LINE
   5
26D
 100
AcDbEntity
   8
LEVEL001
 100
AcDbLine
   6
DOT
  62
6
  10
 179.76949575229
  20
 132.06886259536
  30
0.0
  11
 189.11949575226
  21
 132.06886259536
  31
0.0
   0
LINE
   5
26E
 100
AcDbEntity
   8
LEVEL001
 100
AcDbLine
   6
DOT
  62
6
  10
 180.11949575229
  20
 131.71886259536
  30
0.0
  11
 189.11949575226
  21
 131.71886259536
  31
0.0
   0
LINE
   5
26F
 100
AcDbEntity
   8
LEVEL001
 100
AcDbLine
   6
DOT
  62
6
  10
 194.11949575226
  20
 132.06886259536
  30
0.0
  11
 199.61949575226
  21
 132.06886259536
  31
0.0
   0
LINE
   5
270
 100
AcDbEntity
   8
LEVEL001
 100
AcDbLine
   6
DOT
  62
6
  10
 194.11949575226
  20
 131.71886259536
  30
0.0
  11
 199.61949575226
  21
 131.71886259536
  31
0.0
   0
LINE
   5
271
 100
AcDbEntity
   8
LEVEL001
 100
AcDbLine
   6
DOT
  62
6
  10
 194.11949575226
  20
 136.36886259536
  30
0.0
  11
 199.61949575226
  21
 136.36886259536
  31
0.0
   0
LINE
   5
272
 100
AcDbEntity
   8
LEVEL001
 100
AcDbLine
   6
DOT
  62
6
  10
 179.76949575229
  20
 136.36886259536
  30
0.0
  11
 189.11949575226
  21
 136.36886259536
  31
0.0
   0
LINE
   5
273
 100
AcDbEntity
   8
LEVEL001
 100
AcDbLine
   6
DOT
  62
6
  10
 194.11949575226
  20
 136.71886259536
  30
0.0
  11
 199.61949575226
  21
 136.71886259536
  31
0.0
   0
LINE
   5
274
 100
AcDbEntity
   8
LEVEL001
 100
AcDbLine
   6
DOT
  62
6
  10
 180.11949575229
  20
 136.71886259536
  30
0.0
  11
 189.11949575226
  21
 136.71886259536
  31
0.0
   0
LINE
   5
275
 100
AcDbEntity
   8
LEVEL001
 100
AcDbLine
   6
CONTINUOUS
  62
15
  10
 189.11949575226
  20
 136.71886259536
  30
0.0
  11
 194.11949575226
  21
 136.71886259536
  31
0.0
   0
LINE
   5
276
 100
AcDbEntity
   8
LEVEL001
 100
AcDbLine
   6
CONTINUOUS
  62
15
  10
 194.11949575226
  20
 136.36886259536
  30
0.0
  11
 189.11949575226
  21
 136.36886259536
  31
0.0
   0
LINE
   5
277
 100
AcDbEntity
   8
LEVEL001
 100
AcDbLine
   6
CONTINUOUS
  62
15
  10
 189.11949575226
  20
 132.06886259536
  30
0.0
  11
 194.11949575226
  21
 132.06886259536
  31
0.0
   0
LINE
   5
278
 100
AcDbEntity
   8
LEVEL001
 100
AcDbLine
   6
CONTINUOUS
  62
15
  10
 194.11949575226
  20
 131.71886259536
  30
0.0
  11
 189.11949575226
  21
 131.71886259536
  31
0.0
   0
LINE
   5
279
 100
AcDbEntity
   8
LEVEL001
 100
AcDbLine
   6
CONTINUOUS
  62
3
  10
 177.11949575226
  20
 162.61886259536
  30
0.0
  11
 184.61949575226
  21
 162.61886259536
  31
0.0
   0
LINE
   5
27A
 100
AcDbEntity
   8
LEVEL001
 100
AcDbLine
   6
CONTINUOUS
  62
3
  10
 184.61949575226
  20
 162.61886259536
  30
0.0
  11
 184.61949575226
  21
 156.61886259536
  31
0.0
   0
LINE
   5
27B
 100
AcDbEntity
   8
LEVEL001
 100
AcDbLine
   6
CONTINUOUS
  62
3
  10
 177.11949575226
  20
 162.61886259536
  30
0.0
  11
 177.11949575226
  21
 156.61886259536
  31
0.0
   0
LINE
   5
27C
 100
AcDbEntity
   8
LEVEL001
 100
AcDbLine
   6
CONTINUOUS
  62
3
  10
 177.11949575226
  20
 156.61886259536
  30
0.0
  11
 184.61949575226
  21
 156.61886259536
  31
0.0
   0
LINE
   5
27D
 100
AcDbEntity
   8
LEVEL001
 100
AcDbLine
   6
CONTINUOUS
  62
3
  10
 187.11949575226
  20
 162.61886259536
  30
0.0
  11
 195.11949575226
  21
 162.61886259536
  31
0.0
   0
LINE
   5
27E
 100
AcDbEntity
   8
LEVEL001
 100
AcDbLine
   6
CONTINUOUS
  62
3
  10
 187.11949575226
  20
 162.61886259536
  30
0.0
  11
 187.11949575226
  21
 156.61886259536
  31
0.0
   0
LINE
   5
27F
 100
AcDbEntity
   8
LEVEL001
 100
AcDbLine
   6
CONTINUOUS
  62
3
  10
 187.11949575226
  20
 156.61886259536
  30
0.0
  11
 195.11949575226
  21
 156.61886259536
  31
0.0
   0
LINE
   5
280
 100
AcDbEntity
   8
LEVEL001
 100
AcDbLine
   6
CONTINUOUS
  62
3
  10
 195.11949575226
  20
 162.61886259536
  30
0.0
  11
 195.11949575226
  21
 156.61886259536
  31
0.0
   0
LINE
   5
281
 100
AcDbEntity
   8
LEVEL001
 100
AcDbLine
   6
CONTINUOUS
  62
3
  10
 197.61949575226
  20
 162.61886259536
  30
0.0
  11
 197.61949575226
  21
 156.61886259536
  31
0.0
   0
LINE
   5
282
 100
AcDbEntity
   8
LEVEL001
 100
AcDbLine
   6
CONTINUOUS
  62
3
  10
 197.61949575226
  20
 156.61886259536
  30
0.0
  11
 205.11949575226
  21
 156.61886259536
  31
0.0
   0
LINE
   5
283
 100
AcDbEntity
   8
LEVEL001
 100
AcDbLine
   6
CONTINUOUS
  62
3
  10
 197.61949575226
  20
 162.61886259536
  30
0.0
  11
 205.11949575226
  21
 162.61886259536
  31
0.0
   0
LINE
   5
284
 100
AcDbEntity
   8
LEVEL001
 100
AcDbLine
   6
CONTINUOUS
  62
3
  10
 205.11949575226
  20
 162.61886259536
  30
0.0
  11
 205.11949575226
  21
 156.61886259536
  31
0.0
   0
LINE
   5
285
 100
AcDbEntity
   8
LEVEL001
 100
AcDbLine
   6
CONTINUOUS
  62
3
  10
 191.36949575226
  20
 154.11886259536
  30
0.0
  11
 200.61949575226
  21
 154.11886259536
  31
0.0
   0
LINE
   5
286
 100
AcDbEntity
   8
LEVEL001
 100
AcDbLine
   6
CONTINUOUS
  62
3
  10
 200.61949575226
  20
 154.11886259536
  30
0.0
  11
 200.61949575226
  21
 153.16036521749
  31
0.0
   0
ARC
   5
287
 100
AcDbEntity
   8
LEVEL001
   6
CONTINUOUS
  62
3
 100
AcDbCircle
  10
 202.11949575226
  20
 147.86886259536
  30
0.0
  40
 5.5000000000000
 100
AcDbArc
  50
 105.82662013187
  51
 164.17337986812
   0
ARC
   5
288
 100
AcDbEntity
   8
LEVEL001
   6
CONTINUOUS
  62
3
 100
AcDbCircle
  10
 189.86949575226
  20
 147.86886259536
  30
0.0
  40
 5.5000000000000
 100
AcDbArc
  50
 15.826620131872
  51
 74.173379868128
   0
LINE
   5
289
 100
AcDbEntity
   8
LEVEL001
 100
AcDbLine
   6
CONTINUOUS
  62
3
  10
 195.16099837439
  20
 149.36886259536
  30
0.0
  11
 196.82799313013
  21
 149.36886259536
  31
0.0
   0
ARC
   5
28A
 100
AcDbEntity
   8
LEVEL001
   6
CONTINUOUS
  62
3
 100
AcDbCircle
  10
 202.11949575226
  20
 147.86886259536
  30
0.0
  40
 5.5000000000000
 100
AcDbArc
  50
 195.82662013188
  51
 228.98566842988
   0
ARC
   5
28B
 100
AcDbEntity
   8
LEVEL001
   6
CONTINUOUS
  62
3
 100
AcDbCircle
  10
 189.86949575226
  20
 147.86886259536
  30
0.0
  40
 5.5000000000000
 100
AcDbArc
  50
 311.01433157012
  51
 344.17337986813
   0
LINE
   5
28C
 100
AcDbEntity
   8
LEVEL001
 100
AcDbLine
   6
CONTINUOUS
  62
3
  10
 195.16099837439
  20
 146.36886259536
  30
0.0
  11
 196.82799313013
  21
 146.36886259536
  31
0.0
   0
ARC
   5
28D
 100
AcDbEntity
   8
LEVEL001
   6
CONTINUOUS
  62
3
 100
AcDbCircle
  10
 202.11949575226
  20
 147.86886259536
  30
0.0
  40
 5.5000000000000
 100
AcDbArc
  50
 228.98566842988
  51
 254.17337986813
   0
LINE
   5
28E
 100
AcDbEntity
   8
LEVEL001
 100
AcDbLine
   6
CONTINUOUS
  62
3
  10
 200.61949575226
  20
 142.57735997323
  30
0.0
  11
 200.61949575226
  21
 140.76886259536
  31
0.0
   0
LINE
   5
28F
 100
AcDbEntity
   8
LEVEL001
 100
AcDbLine
   6
CONTINUOUS
  62
3
  10
 191.36949575226
  20
 140.76886259536
  30
0.0
  11
 200.61949575226
  21
 140.76886259536
  31
0.0
   0
LINE
   5
290
 100
AcDbEntity
   8
LEVEL001
 100
AcDbLine
   6
CONTINUOUS
  62
3
  10
 191.36949575226
  20
 142.57735997323
  30
0.0
  11
 191.36949575226
  21
 140.76886259536
  31
0.0
   0
ARC
   5
291
 100
AcDbEntity
   8
LEVEL001
   6
CONTINUOUS
  62
3
 100
AcDbCircle
  10
 189.86949575226
  20
 147.86886259536
  30
0.0
  40
 5.5000000000000
 100
AcDbArc
  50
 285.82662013187
  51
 311.01433157012
   0
LINE
   5
292
 100
AcDbEntity
   8
LEVEL001
 100
AcDbLine
   6
CONTINUOUS
  62
3
  10
 191.36949575226
  20
 154.11886259536
  30
0.0
  11
 191.36949575226
  21
 153.16036521749
  31
0.0
   0
LINE
   5
293
 100
AcDbEntity
   8
LEVEL001
 100
AcDbLine
   6
CONTINUOUS
  62
3
  10
 179.11949575226
  20
 154.11886259536
  30
0.0
  11
 188.36949575226
  21
 154.11886259536
  31
0.0
   0
ARC
   5
294
 100
AcDbEntity
   8
LEVEL001
   6
CONTINUOUS
  62
3
 100
AcDbCircle
  10
 189.86949575226
  20
 147.86886259536
  30
0.0
  40
 5.5000000000000
 100
AcDbArc
  50
 105.82662013187
  51
 164.17337986813
   0
LINE
   5
295
 100
AcDbEntity
   8
LEVEL001
 100
AcDbLine
   6
CONTINUOUS
  62
3
  10
 188.36949575226
  20
 154.11886259536
  30
0.0
  11
 188.36949575226
  21
 153.16036521749
  31
0.0
   0
ARC
   5
296
 100
AcDbEntity
   8
LEVEL001
   6
CONTINUOUS
  62
3
 100
AcDbCircle
  10
 177.61949575226
  20
 147.86886259536
  30
0.0
  40
 5.5000000000000
 100
AcDbArc
  50
 15.826620131872
  51
 74.173379868127
   0
LINE
   5
297
 100
AcDbEntity
   8
LEVEL001
 100
AcDbLine
   6
CONTINUOUS
  62
3
  10
 179.11949575226
  20
 154.11886259536
  30
0.0
  11
 179.11949575226
  21
 153.16036521749
  31
0.0
   0
LINE
   5
298
 100
AcDbEntity
   8
LEVEL001
 100
AcDbLine
   6
CONTINUOUS
  62
3
  10
 182.91099837439
  20
 149.36886259536
  30
0.0
  11
 184.57799313013
  21
 149.36886259536
  31
0.0
   0
ARC
   5
299
 100
AcDbEntity
   8
LEVEL001
   6
CONTINUOUS
  62
3
 100
AcDbCircle
  10
 189.86949575226
  20
 147.86886259536
  30
0.0
  40
 5.5000000000000
 100
AcDbArc
  50
 195.82662013188
  51
 228.98566842988
   0
LINE
   5
29A
 100
AcDbEntity
   8
LEVEL001
 100
AcDbLine
   6
CONTINUOUS
  62
3
  10
 182.91099837439
  20
 146.36886259536
  30
0.0
  11
 184.57799313013
  21
 146.36886259536
  31
0.0
   0
ARC
   5
29B
 100
AcDbEntity
   8
LEVEL001
   6
CONTINUOUS
  62
3
 100
AcDbCircle
  10
 177.61949575226
  20
 147.86886259536
  30
0.0
  40
 5.5000000000000
 100
AcDbArc
  50
 311.01433157013
  51
 344.17337986813
   0
LINE
   5
29C
 100
AcDbEntity
   8
LEVEL001
 100
AcDbLine
   6
CONTINUOUS
  62
3
  10
 181.22885857692
  20
 143.71886259536
  30
0.0
  11
 186.26013292761
  21
 143.71886259536
  31
0.0
   0
ARC
   5
29D
 100
AcDbEntity
   8
LEVEL001
   6
CONTINUOUS
  62
3
 100
AcDbCircle
  10
 177.61949575226
  20
 147.86886259536
  30
0.0
  40
 5.5000000000000
 100
AcDbArc
  50
 254.17337986813
  51
 275.21590857046
   0
LINE
   5
29E
 100
AcDbEntity
   8
LEVEL001
 100
AcDbLine
   6
CONTINUOUS
  62
3
  10
 178.11949575226
  20
 142.39163702031
  30
0.0
  11
 178.11949575226
  21
 140.76886259536
  31
0.0
   0
LINE
   5
29F
 100
AcDbEntity
   8
LEVEL001
 100
AcDbLine
   6
CONTINUOUS
  62
3
  10
 176.11949575226
  20
 140.76886259536
  30
0.0
  11
 178.11949575226
  21
 140.76886259536
  31
0.0
   0
LINE
   5
2A0
 100
AcDbEntity
   8
LEVEL001
 100
AcDbLine
   6
CONTINUOUS
  62
3
  10
 173.11949575226
  20
 143.71886259536
  30
0.0
  11
 173.11949575226
  21
 140.76886259536
  31
0.0
   0
LINE
   5
2A1
 100
AcDbEntity
   8
LEVEL001
 100
AcDbLine
   6
CONTINUOUS
  62
3
  10
 173.11949575226
  20
 143.71886259536
  30
0.0
  11
 174.01013292761
  21
 143.71886259536
  31
0.0
   0
ARC
   5
2A2
 100
AcDbEntity
   8
LEVEL001
   6
CONTINUOUS
  62
3
 100
AcDbCircle
  10
 177.61949575226
  20
 147.86886259536
  30
0.0
  40
 5.5000000000000
 100
AcDbArc
  50
 228.98566842988
  51
 254.17337986813
   0
LINE
   5
2A3
 100
AcDbEntity
   8
LEVEL001
 100
AcDbLine
   6
CONTINUOUS
  62
3
  10
 173.11949575226
  20
 140.76886259536
  30
0.0
  11
 176.11949575226
  21
 140.76886259536
  31
0.0
   0
ARC
   5
2A4
 100
AcDbEntity
   8
LEVEL001
   6
CONTINUOUS
  62
7
 100
AcDbCircle
  10
 158.61949575226
  20
 130.11886259536
  30
0.0
  40
 1.0000000000000
 100
AcDbArc
  50
 180.00000000000
  51
 269.99999999996
   0
POINT
   5
2A5
 100
AcDbEntity
   8
LEVEL001
 100
AcDbPoint
  62
7
  10
 157.61949575226
  20
 129.11886259536
  30
0.0
   0
ARC
   5
2A6
 100
AcDbEntity
   8
LEVEL001
   6
CONTINUOUS
  62
7
 100
AcDbCircle
  10
 162.61949575226
  20
 144.11886259536
  30
0.0
  40
 5.0000000000000
 100
AcDbArc
  50
 90.000000000000
  51
 180.00000000000
   0
ARC
   5
2A7
 100
AcDbEntity
   8
LEVEL001
   6
CONTINUOUS
  62
7
 100
AcDbCircle
  10
 168.61949575226
  20
 154.11886259536
  30
0.0
  40
 5.0000000000000
 100
AcDbArc
  50
 270.00000000000
  51
0.0
   0
LINE
   5
2A8
 100
AcDbEntity
   8
LEVEL001
 100
AcDbLine
   6
CONTINUOUS
  62
7
  10
 168.61949575226
  20
 149.11886259536
  30
0.0
  11
 162.61949575226
  21
 149.11886259536
  31
0.0
   0
LINE
   5
2A9
 100
AcDbEntity
   8
LEVEL001
 100
AcDbLine
   6
CONTINUOUS
  62
7
  10
 173.61949575226
  20
 165.11886259536
  30
0.0
  11
 173.61949575226
  21
 154.11886259536
  31
0.0
   0
ARC
   5
2AA
 100
AcDbEntity
   8
LEVEL001
   6
CONTINUOUS
  62
7
 100
AcDbCircle
  10
 174.61949575226
  20
 165.11886259536
  30
0.0
  40
 1.0000000000000
 100
AcDbArc
  50
 90.000000000046
  51
 180.00000000000
   0
POINT
   5
2AB
 100
AcDbEntity
   8
LEVEL001
 100
AcDbPoint
  62
7
  10
 173.61949575226
  20
 166.11886259536
  30
0.0
   0
LINE
   5
2AC
 100
AcDbEntity
   8
LEVEL001
 100
AcDbLine
   6
CONTINUOUS
  62
7
  10
 174.61949575226
  20
 166.11886259536
  30
0.0
  11
 206.61949575226
  21
 166.11886259536
  31
0.0
   0
ARC
   5
2AD
 100
AcDbEntity
   8
LEVEL001
   6
CONTINUOUS
  62
7
 100
AcDbCircle
  10
 206.61949575226
  20
 165.11886259536
  30
0.0
  40
 1.0000000000000
 100
AcDbArc
  50
0.0
  51
 90.000000000000
   0
POINT
   5
2AE
 100
AcDbEntity
   8
LEVEL001
 100
AcDbPoint
  62
7
  10
 207.61949575226
  20
 166.11886259536
  30
0.0
   0
LINE
   5
2AF
 100
AcDbEntity
   8
LEVEL001
 100
AcDbLine
   6
CONTINUOUS
  62
7
  10
 207.61949575226
  20
 156.11886259536
  30
0.0
  11
 207.61949575226
  21
 165.11886259536
  31
0.0
   0
ARC
   5
2B0
 100
AcDbEntity
   8
LEVEL001
   6
CONTINUOUS
  62
7
 100
AcDbCircle
  10
 206.61949575226
  20
 130.11886259536
  30
0.0
  40
 1.0000000000000
 100
AcDbArc
  50
 270.00000000000
  51
0.0
   0
POINT
   5
2B1
 100
AcDbEntity
   8
LEVEL001
 100
AcDbPoint
  62
7
  10
 207.61949575226
  20
 129.11886259536
  30
0.0
   0
ARC
   5
2B2
 100
AcDbEntity
   8
LEVEL001
   6
DOT
  62
6
 100
AcDbCircle
  10
 205.11949575226
  20
 136.21886259536
  30
0.0
  40
 2.0000000000000
 100
AcDbArc
  50
0.0
  51
 90.000000000007
   0
LINE
   5
2B3
 100
AcDbEntity
   8
LEVEL001
 100
AcDbLine
   6
DOT
  62
6
  10
 207.11949575226
  20
 136.21886259536
  30
0.0
  11
 207.11949575226
  21
 134.21886259536
  31
0.0
   0
LINE
   5
2B4
 100
AcDbEntity
   8
LEVEL001
 100
AcDbLine
   6
DOT
  62
6
  10
 207.11949575226
  20
 134.21886259536
  30
0.0
  11
 207.11949575226
  21
 132.21886259536
  31
0.0
   0
ARC
   5
2B5
 100
AcDbEntity
   8
LEVEL001
   6
DOT
  62
6
 100
AcDbCircle
  10
 205.11949575226
  20
 132.21886259536
  30
0.0
  40
 2.0000000000000
 100
AcDbArc
  50
 270.00000000001
  51
0.0
   0
LINE
   5
2B6
 100
AcDbEntity
   8
LEVEL001
 100
AcDbLine
   6
DOT
  62
6
  10
 204.61949575226
  20
 130.21886259536
  30
0.0
  11
 205.11949575226
  21
 130.21886259536
  31
0.0
   0
LINE
   5
2B7
 100
AcDbEntity
   8
LEVEL001
 100
AcDbLine
   6
DOT
  62
6
  10
 204.61949575226
  20
 138.21886259536
  30
0.0
  11
 205.11949575226
  21
 138.21886259536
  31
0.0
   0
LINE
   5
2B8
 100
AcDbEntity
   8
LEVEL001
 100
AcDbLine
   6
DOT
  62
3
  10
 204.61949575226
  20
 138.71886259536
  30
0.0
  11
 204.61949575226
  21
 138.21886259536
  31
0.0
   0
LINE
   5
2B9
 100
AcDbEntity
   8
LEVEL001
 100
AcDbLine
   6
DOT
  62
6
  10
 204.61949575226
  20
 138.21886259536
  30
0.0
  11
 204.61949575226
  21
 130.21886259536
  31
0.0
   0
LINE
   5
2BA
 100
AcDbEntity
   8
LEVEL001
 100
AcDbLine
   6
CONTINUOUS
  62
7
  10
 207.61949575226
  20
 130.11886259536
  30
0.0
  11
 207.61949575226
  21
 156.11886259536
  31
0.0
   0
LINE
   5
2BB
 100
AcDbEntity
   8
LEVEL001
 100
AcDbLine
   6
CONTINUOUS
  62
7
  10
 158.61949575226
  20
 129.11886259536
  30
0.0
  11
 206.61949575226
  21
 129.11886259536
  31
0.0
   0
LINE
   5
2BC
 100
AcDbEntity
   8
LEVEL001
 100
AcDbLine
   6
DOT
  62
15
  10
 186.81949575226
  20
 141.21886259536
  30
0.0
  11
 186.81949575226
  21
 129.71886259536
  31
0.0
   0
LINE
   5
2BD
 100
AcDbEntity
   8
LEVEL001
 100
AcDbLine
   6
DOT
  62
15
  10
 189.11949575226
  20
 141.21886259536
  30
0.0
  11
 186.81949575226
  21
 141.21886259536
  31
0.0
   0
LINE
   5
2BE
 100
AcDbEntity
   8
LEVEL001
 100
AcDbLine
   6
DOT
  62
15
  10
 186.81949575226
  20
 129.71886259536
  30
0.0
  11
 189.11949575226
  21
 129.71886259536
  31
0.0
   0
LINE
   5
2BF
 100
AcDbEntity
   8
LEVEL001
 100
AcDbLine
   6
DOT
  62
15
  10
 189.11949575226
  20
 141.21886259536
  30
0.0
  11
 189.11949575226
  21
 136.76886259536
  31
0.0
   0
LINE
   5
2C0
 100
AcDbEntity
   8
LEVEL001
 100
AcDbLine
   6
DOT
  62
15
  10
 189.11949575226
  20
 131.65627159690
  30
0.0
  11
 189.11949575226
  21
 129.71886259536
  31
0.0
   0
LINE
   5
2C1
 100
AcDbEntity
   8
LEVEL001
 100
AcDbLine
   6
CONTINUOUS
  62
7
  10
 189.11949575226
  20
 131.65627159690
  30
0.0
  11
 189.11949575226
  21
 136.76886259536
  31
0.0
   0
LINE
   5
2C2
 100
AcDbEntity
   8
LEVEL001
 100
AcDbLine
   6
CONTINUOUS
  62
7
  10
 157.61949575226
  20
 144.11886259536
  30
0.0
  11
 157.61949575226
  21
 130.11886259536
  31
0.0
   0
LINE
   5
2C3
 100
AcDbEntity
   8
LEVEL001
 100
AcDbLine
   6
DOT
  62
1
  10
 163.66346976638
  20
 139.03633138722
  30
0.0
  11
 152.07892795058
  21
 136.31288320160
  31
0.0
   0
LINE
   5
2C4
 100
AcDbEntity
   8
LEVEL001
 100
AcDbLine
   6
DOT
  62
1
  10
 152.07892795058
  20
 136.31288320163
  30
0.0
  11
 152.35355286850
  21
 135.14473032024
  31
0.0
   0
LINE
   5
2C5
 100
AcDbEntity
   8
LEVEL001
 100
AcDbLine
   6
DOT
  62
1
  10
 164.82028459788
  20
 138.07557544548
  30
0.0
  11
 163.66346976638
  21
 139.03633138722
  31
0.0
   0
ARC
   5
2C6
 100
AcDbEntity
   8
LEVEL001
   6
DOT
  62
1
 100
AcDbCircle
  10
 165.61949575226
  20
 144.11886259536
  30
0.0
  40
 4.5000000000000
 100
AcDbArc
  50
 283.22961711643
  51
 81.341943559673
   0
LINE
   5
2C7
 100
AcDbEntity
   8
LEVEL001
 100
AcDbLine
   6
DOT
  62
1
  10
 162.62078881887
  20
 149.12735439480
  30
0.0
  11
 166.29691292570
  21
 148.56758218341
  31
0.0
   0
ARC
   5
2C8
 100
AcDbEntity
   8
LEVEL001
   6
DOT
  62
1
 100
AcDbCircle
  10
 165.61949575226
  20
 144.11886259536
  30
0.0
  40
 15.000000000000
 100
AcDbArc
  50
 260.76957719309
  51
 265.36730013505
   0
LINE
   5
2C9
 100
AcDbEntity
   8
LEVEL001
 100
AcDbLine
   6
DOT
  62
1
  10
 157.61949575226
  20
 136.38271822000
  30
0.0
  11
 166.92396411246
  21
 138.57013640854
  31
0.0
   0
LINE
   5
2CA
 100
AcDbEntity
   8
LEVEL001
 100
AcDbLine
   6
DOT
  62
1
  10
 163.60578408895
  20
 137.79005451076
  30
0.0
  11
 163.21341605853
  21
 129.31309410779
  31
0.0
   0
LINE
   5
2CB
 100
AcDbEntity
   8
LEVEL001
 100
AcDbLine
   6
DOT
  62
1
  10
 164.82028459788
  20
 138.07557544548
  30
0.0
  11
 164.40797885448
  21
 129.16786842084
  31
0.0
   0
LINE
   5
2CC
 100
AcDbEntity
   8
LEVEL001
 100
AcDbLine
   6
DOT
  62
1
  10
 166.64933919454
  20
 139.73828928991
  30
0.0
  11
 166.92396411246
  21
 138.57013640854
  31
0.0
   0
ARC
   5
2CD
 100
AcDbEntity
   8
LEVEL001
   6
DOT
  62
1
 100
AcDbCircle
  10
 143.13911030558
  20
 146.02471415538
  30
0.0
  40
 10.500000000000
 100
AcDbArc
  50
 277.55864107683
  51
 26.191848138723
   0
ARC
   5
2CE
 100
AcDbEntity
   8
LEVEL001
   6
DOT
  62
1
 100
AcDbCircle
  10
 143.13911030558
  20
 146.02471415538
  30
0.0
  40
 12.000000000000
 100
AcDbArc
  50
 290.00833778628
  51
 21.341943559677
   0
INSERT
   5
2CF
 100
AcDbEntity
   8
LEVEL001
 100
AcDbBlockReference
   2
*D10
  10
0.0
  20
0.0
  30
0.0
   0
INSERT
   5
2D0
 100
AcDbEntity
   8
LEVEL001
 100
AcDbBlockReference
   2
*D11
  10
0.0
  20
0.0
  30
0.0
   0
DIMENSION
   5
2D1
 100
AcDbEntity
   8
LEVEL001
   6
CONTINUOUS
  62
2
 100
AcDbDimension
   2
*D12
  10
 224.55215775967
  20
 129.11886259536
  30
0.0
  11
 224.55215775967
  21
 138.49386259536
  31
0.0
  70
0
   3
GMM001
 100
AcDbAlignedDimension
  13
 224.55215775967
  23
 147.86886259536
  33
0.0
  14
 207.61949575226
  24
 129.11886259536
  34
0.0
  50
 270.00000000000
 100
AcDbRotatedDimension
   0
DIMENSION
   5
2D2
 100
AcDbEntity
   8
LEVEL001
   6
CONTINUOUS
  62
2
 100
AcDbDimension
   2
*D13
  10
 224.55215775967
  20
 147.86886259536
  30
0.0
  11
 224.55215775967
  21
 156.99386259536
  31
0.0
  70
0
   3
GMM001
 100
AcDbAlignedDimension
  13
 207.61949575226
  23
 166.11886259536
  33
0.0
  14
 209.23071315851
  24
 147.86886259536
  34
0.0
  50
 270.00000000000
 100
AcDbRotatedDimension
   0
DIMENSION
   5
2D3
 100
AcDbEntity
   8
LEVEL001
   6
CONTINUOUS
  62
2
 100
AcDbDimension
   2
*D14
  10
 233.60137186893
  20
 166.11886259536
  30
0.0
  11
 233.60137186893
  21
 147.61886259536
  31
0.0
  70
0
   3
GMM001
 100
AcDbAlignedDimension
  13
 226.55215775967
  23
 129.11886259536
  33
0.0
  14
 226.55215775967
  24
 166.11886259536
  34
0.0
  50
 90.000000000000
 100
AcDbRotatedDimension
   0
DIMENSION
   5
2D4
 100
AcDbEntity
   8
LEVEL001
   6
CONTINUOUS
  62
2
 100
AcDbDimension
   2
*D15
  10
 199.61949575226
  20
 225.90356950934
  30
0.0
  11
 191.11949575226
  21
 225.90356950934
  31
0.0
  70
0
   3
GMM001
 100
AcDbAlignedDimension
  13
 182.61949575226
  23
 213.17299779456
  33
0.0
  14
 199.61949575226
  24
 213.17299779456
  34
0.0
 100
AcDbRotatedDimension
   0
ARC
   5
2D5
 100
AcDbEntity
   8
LEVEL001
   6
CONTINUOUS
  62
7
 100
AcDbCircle
  10
 206.61949575226
  20
 214.97299779456
  30
0.0
  40
 1.0000000000000
 100
AcDbArc
  50
0.0
  51
 90.000000000000
   0
POINT
   5
2D6
 100
AcDbEntity
   8
LEVEL001
 100
AcDbPoint
  62
7
  10
 207.61949575226
  20
 215.97299779456
  30
0.0
   0
LINE
   5
2D7
 100
AcDbEntity
   8
LEVEL001
 100
AcDbLine
   6
CONTINUOUS
  62
7
  10
 207.61949575226
  20
 213.67299779456
  30
0.0
  11
 207.61949575226
  21
 214.97299779456
  31
0.0
   0
LINE
   5
2D8
 100
AcDbEntity
   8
LEVEL001
 100
AcDbLine
   6
CONTINUOUS
  62
7
  10
 207.61949575226
  20
 204.97299779456
  30
0.0
  11
 207.61949575226
  21
 213.67299779456
  31
0.0
   0
ARC
   5
2D9
 100
AcDbEntity
   8
LEVEL001
   6
CONTINUOUS
  62
7
 100
AcDbCircle
  10
 206.61949575226
  20
 204.97299779456
  30
0.0
  40
 1.0000000000000
 100
AcDbArc
  50
 270.00000000014
  51
0.0
   0
POINT
   5
2DA
 100
AcDbEntity
   8
LEVEL001
 100
AcDbPoint
  62
7
  10
 207.61949575226
  20
 203.97299779456
  30
0.0
   0
ARC
   5
2DB
 100
AcDbEntity
   8
LEVEL001
   6
CONTINUOUS
  62
7
 100
AcDbCircle
  10
 175.61949575226
  20
 204.97299779456
  30
0.0
  40
 1.0000000000000
 100
AcDbArc
  50
 180.00000000000
  51
 269.99999999984
   0
POINT
   5
2DC
 100
AcDbEntity
   8
LEVEL001
 100
AcDbPoint
  62
7
  10
 174.61949575226
  20
 203.97299779456
  30
0.0
   0
LINE
   5
2DD
 100
AcDbEntity
   8
LEVEL001
 100
AcDbLine
   6
CONTINUOUS
  62
7
  10
 157.61949575226
  20
 204.97299779456
  30
0.0
  11
 157.61949575226
  21
 206.17299779456
  31
0.0
   0
ARC
   5
2DE
 100
AcDbEntity
   8
LEVEL001
   6
CONTINUOUS
  62
7
 100
AcDbCircle
  10
 158.61949575226
  20
 204.97299779456
  30
0.0
  40
 1.0000000000000
 100
AcDbArc
  50
 180.00000000000
  51
 269.99999999986
   0
POINT
   5
2DF
 100
AcDbEntity
   8
LEVEL001
 100
AcDbPoint
  62
7
  10
 157.61949575226
  20
 203.97299779456
  30
0.0
   0
LINE
   5
2E0
 100
AcDbEntity
   8
LEVEL001
 100
AcDbLine
   6
CONTINUOUS
  62
7
  10
 158.61949575226
  20
 203.97299779456
  30
0.0
  11
 206.61949575226
  21
 203.97299779456
  31
0.0
   0
LINE
   5
2E1
 100
AcDbEntity
   8
LEVEL001
 100
AcDbLine
   6
CONTINUOUS
  62
7
  10
 174.61949575226
  20
 214.97299779456
  30
0.0
  11
 174.61949575226
  21
 204.97299779456
  31
0.0
   0
ARC
   5
2E2
 100
AcDbEntity
   8
LEVEL001
   6
CONTINUOUS
  62
7
 100
AcDbCircle
  10
 175.61949575226
  20
 214.97299779456
  30
0.0
  40
 1.0000000000000
 100
AcDbArc
  50
 90.000000000098
  51
 180.00000000000
   0
POINT
   5
2E3
 100
AcDbEntity
   8
LEVEL001
 100
AcDbPoint
  62
7
  10
 174.61949575226
  20
 215.97299779456
  30
0.0
   0
ARC
   5
2E4
 100
AcDbEntity
   8
LEVEL001
   6
CONTINUOUS
  62
7
 100
AcDbCircle
  10
 158.61949575226
  20
 214.97299779456
  30
0.0
  40
 1.0000000000000
 100
AcDbArc
  50
 90.000000000072
  51
 180.00000000000
   0
POINT
   5
2E5
 100
AcDbEntity
   8
LEVEL001
 100
AcDbPoint
  62
7
  10
 157.61949575226
  20
 215.97299779456
  30
0.0
   0
LINE
   5
2E6
 100
AcDbEntity
   8
LEVEL001
 100
AcDbLine
   6
CONTINUOUS
  62
7
  10
 158.61949575226
  20
 215.97299779456
  30
0.0
  11
 206.61949575226
  21
 215.97299779456
  31
0.0
   0
DIMENSION
   5
2E7
 100
AcDbEntity
   8
LEVEL001
   6
CONTINUOUS
  62
2
 100
AcDbDimension
   2
*D16
  10
 207.61949575226
  20
 225.90356950934
  30
0.0
  11
 203.61949575226
  21
 225.90356950934
  31
0.0
  70
0
   3
GMM001
 100
AcDbAlignedDimension
  13
 199.61949575226
  23
 225.90356950934
  33
0.0
  14
 207.61949575226
  24
 215.97299779456
  34
0.0
 100
AcDbRotatedDimension
   0
DIMENSION
   5
2E8
 100
AcDbEntity
   8
LEVEL001
   6
CONTINUOUS
  62
2
 100
AcDbDimension
   2
*D17
  10
 174.61949575226
  20
 225.90356950934
  30
0.0
  11
 178.61949575226
  21
 225.90356950934
  31
0.0
  70
0
   3
GMM001
 100
AcDbAlignedDimension
  13
 182.61949575226
  23
 225.90356950934
  33
0.0
  14
 174.61949575226
  24
 215.97299779456
  34
0.0
  50
 180.00000000000
 100
AcDbRotatedDimension
   0
LINE
   5
2E9
 100
AcDbEntity
   8
LEVEL001
 100
AcDbLine
   6
DASHDOT
  62
3
  10
 172.91244100077
  20
 211.97299779456
  30
0.0
  11
 210.45237404717
  21
 211.97299779456
  31
0.0
   0
DIMENSION
   5
2EA
 100
AcDbEntity
   8
LEVEL001
   6
CONTINUOUS
  62
2
 100
AcDbDimension
   2
*D18
  10
 224.55215775967
  20
 210.27299779456
  30
0.0
  11
 224.55215775967
  21
 220.72670415516
  31
0.0
  70
128
   3
GMM002
 100
AcDbAlignedDimension
  13
 207.61949575226
  23
 213.67299779456
  33
0.0
  14
 207.61949575226
  24
 210.27299779456
  34
0.0
  50
 270.00000000000
 100
AcDbRotatedDimension
   0
LINE
   5
2EB
 100
AcDbEntity
   8
LEVEL001
 100
AcDbLine
   6
CONTINUOUS
  62
7
  10
 207.33820923811
  20
 210.29057820170
  30
0.0
  11
 199.61949575226
  21
 210.77299779456
  31
0.0
   0
LINE
   5
2EC
 100
AcDbEntity
   8
LEVEL001
 100
AcDbLine
   6
CONTINUOUS
  62
7
  10
 199.61949575226
  20
 213.17299779456
  30
0.0
  11
 207.33820923811
  21
 213.65541738743
  31
0.0
   0
LINE
   5
2ED
 100
AcDbEntity
   8
LEVEL001
 100
AcDbLine
   6
CONTINUOUS
  62
7
  10
 173.61949575226
  20
 164.61886259536
  30
0.0
  11
 207.61949575226
  21
 164.61886259536
  31
0.0
   0
INSERT
   5
2EE
 100
AcDbEntity
   8
LEVEL001
 100
AcDbBlockReference
   2
*D19
  10
0.0
  20
0.0
  30
0.0
   0
LINE
   5
2EF
 100
AcDbEntity
   8
LEVEL001
 100
AcDbLine
   6
DOT
  62
3
  10
 260.77767520674
  20
 164.86886259534
  30
0.0
  11
 260.77767520674
  21
 162.11886259536
  31
0.0
   0
LINE
   5
2F0
 100
AcDbEntity
   8
LEVEL001
 100
AcDbLine
   6
DOT
  62
3
  10
 260.77767520674
  20
 159.36886259538
  30
0.0
  11
 260.77767520674
  21
 162.11886259536
  31
0.0
   0
LINE
   5
2F1
 100
AcDbEntity
   8
LEVEL001
 100
AcDbLine
   6
DOT
  62
3
  10
 258.72767520663
  20
 145.61886259536
  30
0.0
  11
 258.72767520663
  21
 147.86886259536
  31
0.0
   0
LINE
   5
2F2
 100
AcDbEntity
   8
LEVEL001
 100
AcDbLine
   6
DOT
  62
3
  10
 256.97767520674
  20
 143.86886259547
  30
0.0
  11
 258.72767520663
  21
 145.61886259536
  31
0.0
   0
LINE
   5
2F3
 100
AcDbEntity
   8
LEVEL001
 100
AcDbLine
   6
DOT
  62
3
  10
 256.97767520674
  20
 143.86886259547
  30
0.0
  11
 256.97767520674
  21
 145.61886259536
  31
0.0
   0
LINE
   5
2F4
 100
AcDbEntity
   8
LEVEL001
 100
AcDbLine
   6
DOT
  62
3
  10
 256.97767520674
  20
 145.61886259536
  30
0.0
  11
 256.97767520674
  21
 147.86886259536
  31
0.0
   0
LINE
   5
2F5
 100
AcDbEntity
   8
LEVEL001
 100
AcDbLine
   6
DOT
  62
3
  10
 258.72767520663
  20
 145.61886259536
  30
0.0
  11
 266.47767520674
  21
 145.61886259536
  31
0.0
   0
LINE
   5
2F6
 100
AcDbEntity
   8
LEVEL001
 100
AcDbLine
   6
DOT
  62
3
  10
 254.47767520674
  20
 143.86886259536
  30
0.0
  11
 256.97767520663
  21
 143.86886259536
  31
0.0
   0
LINE
   5
2F7
 100
AcDbEntity
   8
LEVEL001
 100
AcDbLine
   6
DOT
  62
3
  10
 258.72767520663
  20
 150.11886259536
  30
0.0
  11
 258.72767520663
  21
 147.86886259536
  31
0.0
   0
LINE
   5
2F8
 100
AcDbEntity
   8
LEVEL001
 100
AcDbLine
   6
DOT
  62
3
  10
 256.97767520674
  20
 151.86886259525
  30
0.0
  11
 258.72767520663
  21
 150.11886259536
  31
0.0
   0
LINE
   5
2F9
 100
AcDbEntity
   8
LEVEL001
 100
AcDbLine
   6
DOT
  62
3
  10
 256.97767520674
  20
 151.86886259525
  30
0.0
  11
 256.97767520674
  21
 150.11886259536
  31
0.0
   0
LINE
   5
2FA
 100
AcDbEntity
   8
LEVEL001
 100
AcDbLine
   6
DOT
  62
3
  10
 256.97767520674
  20
 150.11886259536
  30
0.0
  11
 256.97767520674
  21
 147.86886259536
  31
0.0
   0
LINE
   5
2FB
 100
AcDbEntity
   8
LEVEL001
 100
AcDbLine
   6
DOT
  62
3
  10
 258.72767520663
  20
 150.11886259536
  30
0.0
  11
 266.47767520674
  21
 150.11886259536
  31
0.0
   0
LINE
   5
2FC
 100
AcDbEntity
   8
LEVEL001
 100
AcDbLine
   6
DOT
  62
3
  10
 254.47767520674
  20
 151.86886259536
  30
0.0
  11
 256.97767520663
  21
 151.86886259536
  31
0.0
   0
LINE
   5
2FD
 100
AcDbEntity
   8
LEVEL001
 100
AcDbLine
   6
DOT
  62
3
  10
 263.07767520674
  20
 147.86886259536
  30
0.0
  11
 264.27767520674
  21
 147.86886259536
  31
0.0
   0
LINE
   5
2FE
 100
AcDbEntity
   8
LEVEL001
 100
AcDbLine
   6
DASHDOT
  62
3
  10
 253.25206272065
  20
 147.86886259536
  30
0.0
  11
 267.92069828310
  21
 147.86886259536
  31
0.0
   0
LINE
   5
2FF
 100
AcDbEntity
   8
LEVEL001
 100
AcDbLine
   6
DASHDOT
  62
3
  10
 262.47767520674
  20
 157.31886259536
  30
0.0
  11
 259.70995259091
  21
 157.31886259536
  31
0.0
   0
LINE
   5
300
 100
AcDbEntity
   8
LEVEL001
 100
AcDbLine
   6
DASHDOT
  62
3
  10
 262.47767520674
  20
 157.31886259536
  30
0.0
  11
 265.49898958175
  21
 157.31886259536
  31
0.0
   0
LINE
   5
301
 100
AcDbEntity
   8
LEVEL001
 100
AcDbLine
   6
DASHDOT
  62
3
  10
 262.47767520674
  20
 167.21753001147
  30
0.0
  11
 262.47767520674
  21
 154.34787805574
  31
0.0
   0
LINE
   5
302
 100
AcDbEntity
   8
LEVEL001
 100
AcDbLine
   6
CONTINUOUS
  62
7
  10
 263.67767520674
  20
 157.31886259536
  30
0.0
  11
 263.67767520674
  21
 165.11886259536
  31
0.0
   0
ARC
   5
303
 100
AcDbEntity
   8
LEVEL001
   6
CONTINUOUS
  62
7
 100
AcDbCircle
  10
 264.67767520674
  20
 165.11886259536
  30
0.0
  40
 1.0000000000000
 100
AcDbArc
  50
 89.999999999941
  51
 180.00000000000
   0
LINE
   5
304
 100
AcDbEntity
   8
LEVEL001
 100
AcDbLine
   6
CONTINUOUS
  62
7
  10
 264.67767520674
  20
 166.11886259536
  30
0.0
  11
 265.29067358773
  21
 166.11886259536
  31
0.0
   0
ARC
   5
305
 100
AcDbEntity
   8
LEVEL001
   6
CONTINUOUS
  62
7
 100
AcDbCircle
  10
 260.27767520674
  20
 165.11886259536
  30
0.0
  40
 1.0000000000000
 100
AcDbArc
  50
0.0
  51
 90.000000000000
   0
LINE
   5
306
 100
AcDbEntity
   8
LEVEL001
 100
AcDbLine
   6
CONTINUOUS
  62
7
  10
 261.27767520674
  20
 157.31886259536
  30
0.0
  11
 261.27767520674
  21
 165.11886259536
  31
0.0
   0
LINE
   5
307
 100
AcDbEntity
   8
LEVEL001
 100
AcDbLine
   6
CONTINUOUS
  62
7
  10
 264.17767520674
  20
 157.31886259536
  30
0.0
  11
 264.17767520674
  21
 165.11886259536
  31
0.0
   0
ARC
   5
308
 100
AcDbEntity
   8
LEVEL001
   6
CONTINUOUS
  62
7
 100
AcDbCircle
  10
 265.17767520674
  20
 165.11886259536
  30
0.0
  40
 1.0000000000000
 100
AcDbArc
  50
 89.999999999941
  51
 180.00000000000
   0
LINE
   5
309
 100
AcDbEntity
   8
LEVEL001
 100
AcDbLine
   6
CONTINUOUS
  62
7
  10
 260.77767520674
  20
 157.31886259536
  30
0.0
  11
 260.77767520674
  21
 165.11886259536
  31
0.0
   0
ARC
   5
30A
 100
AcDbEntity
   8
LEVEL001
   6
CONTINUOUS
  62
7
 100
AcDbCircle
  10
 259.77767520674
  20
 165.11886259535
  30
0.0
  40
 1.0000000000000
 100
AcDbArc
  50
 0.34848701533859E-9
  51
 90.000000000000
   0
ARC
   5
30B
 100
AcDbEntity
   8
LEVEL001
   6
CONTINUOUS
  62
7
 100
AcDbCircle
  10
 262.47767520674
  20
 157.31886259536
  30
0.0
  40
 1.2000000000000
 100
AcDbArc
  50
 180.00000000000
  51
0.0
   0
LINE
   5
30C
 100
AcDbEntity
   8
LEVEL001
 100
AcDbLine
   6
CONTINUOUS
  62
7
  10
 261.97767520674
  20
 156.11886259536
  30
0.0
  11
 262.97767520674
  21
 156.11886259536
  31
0.0
   0
ARC
   5
30D
 100
AcDbEntity
   8
LEVEL001
   6
CONTINUOUS
  62
7
 100
AcDbCircle
  10
 261.97767520673
  20
 157.31886259536
  30
0.0
  40
 1.2000000000000
 100
AcDbArc
  50
 180.00000000000
  51
 270.00000000017
   0
ARC
   5
30E
 100
AcDbEntity
   8
LEVEL001
   6
CONTINUOUS
  62
7
 100
AcDbCircle
  10
 262.97767520674
  20
 157.31886259536
  30
0.0
  40
 1.2000000000000
 100
AcDbArc
  50
 270.00000000000
  51
 0.94992566486378E-11
   0
LINE
   5
30F
 100
AcDbEntity
   8
LEVEL001
 100
AcDbLine
   6
CONTINUOUS
  62
7
  10
 266.47767520674
  20
 146.11886259536
  30
0.0
  11
 266.47767520674
  21
 148.11886259536
  31
0.0
   0
LINE
   5
310
 100
AcDbEntity
   8
LEVEL001
 100
AcDbLine
   6
CONTINUOUS
  62
7
  10
 259.17767520674
  20
 166.11886259536
  30
0.0
  11
 259.17767520674
  21
 165.11886259536
  31
0.0
   0
LINE
   5
311
 100
AcDbEntity
   8
LEVEL001
 100
AcDbLine
   6
CONTINUOUS
  62
7
  10
 259.54370061052
  20
 166.11886259536
  30
0.0
  11
 260.27767520674
  21
 166.11886259536
  31
0.0
   0
ARC
   5
312
 100
AcDbEntity
   8
LEVEL001
   6
CONTINUOUS
  62
7
 100
AcDbCircle
  10
 259.54370061052
  20
 165.61886259536
  30
0.0
  40
 0.50000000000000
 100
AcDbArc
  50
 89.999999999694
  51
 210.00000000061
   0
ARC
   5
313
 100
AcDbEntity
   8
LEVEL001
   6
CONTINUOUS
  62
7
 100
AcDbCircle
  10
 258.67767520673
  20
 165.11886259536
  30
0.0
  40
 0.50000000000000
 100
AcDbArc
  50
 270.00000000082
  51
 29.999999999590
   0
LINE
   5
314
 100
AcDbEntity
   8
LEVEL001
 100
AcDbLine
   6
DASHDOT
  62
2
  10
 268.25250071282
  20
 134.21886259536
  30
0.0
  11
 252.93351458179
  21
 134.21886259536
  31
0.0
   0
CIRCLE
   5
315
 100
AcDbEntity
   8
LEVEL001
 100
AcDbCircle
   6
CONTINUOUS
  62
7
  10
 260.47767520674
  20
 134.21886259536
  30
0.0
  40
 4.5000000000000
   0
CIRCLE
   5
316
 100
AcDbEntity
   8
LEVEL001
 100
AcDbCircle
   6
CONTINUOUS
  62
15
  10
 260.47767520674
  20
 134.21886259536
  30
0.0
  40
 4.0215599614087
   0
ARC
   5
317
 100
AcDbEntity
   8
LEVEL001
   6
CONTINUOUS
  62
15
 100
AcDbCircle
  10
 260.47767520674
  20
 134.21886259536
  30
0.0
  40
 2.9945956834247
 100
AcDbArc
  50
 75.495788153871
  51
 104.50421184604
   0
ARC
   5
318
 100
AcDbEntity
   8
LEVEL001
   6
CONTINUOUS
  62
15
 100
AcDbCircle
  10
 260.47767520674
  20
 134.21886259536
  30
0.0
  40
 2.9945956834247
 100
AcDbArc
  50
 345.49578815389
  51
 14.504211846072
   0
ARC
   5
319
 100
AcDbEntity
   8
LEVEL001
   6
CONTINUOUS
  62
15
 100
AcDbCircle
  10
 260.47767520674
  20
 134.21886259536
  30
0.0
  40
 2.9945956834247
 100
AcDbArc
  50
 165.49578815393
  51
 194.50421184611
   0
ARC
   5
31A
 100
AcDbEntity
   8
LEVEL001
   6
CONTINUOUS
  62
15
 100
AcDbCircle
  10
 260.47767520674
  20
 134.21886259536
  30
0.0
  40
 2.9945956834247
 100
AcDbArc
  50
 255.49578815395
  51
 284.50421184613
   0
LINE
   5
31B
 100
AcDbEntity
   8
LEVEL001
 100
AcDbLine
   6
CONTINUOUS
  62
15
  10
 257.57851958705
  20
 134.96886259536
  30
0.0
  11
 259.22767520674
  21
 134.96886259536
  31
0.0
   0
ARC
   5
31C
 100
AcDbEntity
   8
LEVEL001
   6
CONTINUOUS
  62
15
 100
AcDbCircle
  10
 259.22767520674
  20
 135.46886259536
  30
0.0
  40
 0.50000000000000
 100
AcDbArc
  50
 270.00000000000
  51
0.0
   0
POINT
   5
31D
 100
AcDbEntity
   8
LEVEL001
 100
AcDbPoint
  62
15
  10
 259.72767520674
  20
 134.96886259536
  30
0.0
   0
LINE
   5
31E
 100
AcDbEntity
   8
LEVEL001
 100
AcDbLine
   6
CONTINUOUS
  62
15
  10
 259.72767520674
  20
 137.11801821505
  30
0.0
  11
 259.72767520674
  21
 135.46886259536
  31
0.0
   0
LINE
   5
31F
 100
AcDbEntity
   8
LEVEL001
 100
AcDbLine
   6
CONTINUOUS
  62
15
  10
 257.57851958705
  20
 133.46886259536
  30
0.0
  11
 259.22767520674
  21
 133.46886259536
  31
0.0
   0
ARC
   5
320
 100
AcDbEntity
   8
LEVEL001
   6
CONTINUOUS
  62
15
 100
AcDbCircle
  10
 259.22767520674
  20
 132.96886259535
  30
0.0
  40
 0.50000000000000
 100
AcDbArc
  50
 0.32568879938186E-9
  51
 90.000000000000
   0
POINT
   5
321
 100
AcDbEntity
   8
LEVEL001
 100
AcDbPoint
  62
15
  10
 259.72767520674
  20
 133.46886259536
  30
0.0
   0
LINE
   5
322
 100
AcDbEntity
   8
LEVEL001
 100
AcDbLine
   6
CONTINUOUS
  62
15
  10
 259.72767520674
  20
 132.96886259536
  30
0.0
  11
 259.72767520674
  21
 131.31970697567
  31
0.0
   0
LINE
   5
323
 100
AcDbEntity
   8
LEVEL001
 100
AcDbLine
   6
CONTINUOUS
  62
15
  10
 261.22767520674
  20
 131.31970697567
  30
0.0
  11
 261.22767520674
  21
 132.96886259536
  31
0.0
   0
ARC
   5
324
 100
AcDbEntity
   8
LEVEL001
   6
CONTINUOUS
  62
15
 100
AcDbCircle
  10
 261.72767520674
  20
 132.96886259536
  30
0.0
  40
 0.50000000000000
 100
AcDbArc
  50
 90.000000000261
  51
 180.00000000000
   0
POINT
   5
325
 100
AcDbEntity
   8
LEVEL001
 100
AcDbPoint
  62
15
  10
 261.22767520674
  20
 133.46886259536
  30
0.0
   0
LINE
   5
326
 100
AcDbEntity
   8
LEVEL001
 100
AcDbLine
   6
CONTINUOUS
  62
15
  10
 261.72767520674
  20
 133.46886259536
  30
0.0
  11
 263.37683082643
  21
 133.46886259536
  31
0.0
   0
LINE
   5
327
 100
AcDbEntity
   8
LEVEL001
 100
AcDbLine
   6
CONTINUOUS
  62
15
  10
 261.72767520674
  20
 134.96886259536
  30
0.0
  11
 263.37683082643
  21
 134.96886259536
  31
0.0
   0
ARC
   5
328
 100
AcDbEntity
   8
LEVEL001
   6
CONTINUOUS
  62
15
 100
AcDbCircle
  10
 261.72767520674
  20
 135.46886259535
  30
0.0
  40
 0.50000000000000
 100
AcDbArc
  50
 179.99999999967
  51
 270.00000000000
   0
POINT
   5
329
 100
AcDbEntity
   8
LEVEL001
 100
AcDbPoint
  62
15
  10
 261.22767520674
  20
 134.96886259536
  30
0.0
   0
LINE
   5
32A
 100
AcDbEntity
   8
LEVEL001
 100
AcDbLine
   6
CONTINUOUS
  62
15
  10
 261.22767520674
  20
 135.46886259536
  30
0.0
  11
 261.22767520674
  21
 137.11801821505
  31
0.0
   0
LINE
   5
32B
 100
AcDbEntity
   8
LEVEL001
 100
AcDbLine
   6
DASHDOT
  62
2
  10
 260.47767520674
  20
 141.11321788082
  30
0.0
  11
 260.47767520674
  21
 125.19430592839
  31
0.0
   0
ARC
   5
32C
 100
AcDbEntity
   8
LEVEL001
   6
CONTINUOUS
  62
7
 100
AcDbCircle
  10
 256.47767520674
  20
 131.11886259536
  30
0.0
  40
 2.0000000000000
 100
AcDbArc
  50
 180.00000000000
  51
 270.00000000004
   0
POINT
   5
32D
 100
AcDbEntity
   8
LEVEL001
 100
AcDbPoint
  62
7
  10
 254.47767520674
  20
 129.11886259536
  30
0.0
   0
LINE
   5
32E
 100
AcDbEntity
   8
LEVEL001
 100
AcDbLine
   6
CONTINUOUS
  62
7
  10
 256.47767520674
  20
 129.11886259536
  30
0.0
  11
 260.47767520674
  21
 129.11886259536
  31
0.0
   0
LINE
   5
32F
 100
AcDbEntity
   8
LEVEL001
 100
AcDbLine
   6
CONTINUOUS
  62
7
  10
 260.47767520674
  20
 129.11886259536
  30
0.0
  11
 265.97767520674
  21
 129.11886259536
  31
0.0
   0
ARC
   5
330
 100
AcDbEntity
   8
LEVEL001
   6
CONTINUOUS
  62
7
 100
AcDbCircle
  10
 265.97767520674
  20
 129.61886259536
  30
0.0
  40
 0.50000000000000
 100
AcDbArc
  50
 270.00000000000
  51
0.0
   0
POINT
   5
331
 100
AcDbEntity
   8
LEVEL001
 100
AcDbPoint
  62
7
  10
 266.47767520674
  20
 129.11886259536
  30
0.0
   0
LINE
   5
332
 100
AcDbEntity
   8
LEVEL001
 100
AcDbLine
   6
CONTINUOUS
  62
7
  10
 266.47767520674
  20
 146.11886259536
  30
0.0
  11
 266.47767520674
  21
 129.61886259536
  31
0.0
   0
DIMENSION
   5
333
 100
AcDbEntity
   8
LEVEL001
   6
CONTINUOUS
  62
2
 100
AcDbDimension
   2
*D20
  10
 266.47767520674
  20
 113.55272128652
  30
0.0
  11
 260.47767520674
  21
 113.55272128652
  31
0.0
  70
0
   3
GMM001
 100
AcDbAlignedDimension
  13
 254.47767520674
  23
 129.11886259536
  33
0.0
  14
 266.47767520674
  24
 129.11886259536
  34
0.0
 100
AcDbRotatedDimension
   0
LINE
   5
334
 100
AcDbEntity
   8
LEVEL001
 100
AcDbLine
   6
CONTINUOUS
  62
7
  10
 254.47767520674
  20
 131.11886259536
  30
0.0
  11
 254.47767520674
  21
 164.11886259536
  31
0.0
   0
ARC
   5
335
 100
AcDbEntity
   8
LEVEL001
   6
CONTINUOUS
  62
7
 100
AcDbCircle
  10
 254.97767520674
  20
 164.11886259536
  30
0.0
  40
 0.50000000000000
 100
AcDbArc
  50
 90.000000000007
  51
 180.00000000000
   0
POINT
   5
336
 100
AcDbEntity
   8
LEVEL001
 100
AcDbPoint
  62
7
  10
 254.47767520674
  20
 164.61886259536
  30
0.0
   0
LINE
   5
337
 100
AcDbEntity
   8
LEVEL001
 100
AcDbLine
   6
CONTINUOUS
  62
7
  10
 254.97767520674
  20
 164.61886259536
  30
0.0
  11
 258.67767520674
  21
 164.61886259536
  31
0.0
   0
LINE
   5
338
 100
AcDbEntity
   8
LEVEL001
 100
AcDbLine
   6
CONTINUOUS
  62
7
  10
 264.53855374576
  20
 166.11886259536
  30
0.0
  11
 265.97767520674
  21
 166.11886259536
  31
0.0
   0
ARC
   5
339
 100
AcDbEntity
   8
LEVEL001
   6
CONTINUOUS
  62
7
 100
AcDbCircle
  10
 265.97767520674
  20
 165.61886259535
  30
0.0
  40
 0.50000000000000
 100
AcDbArc
  50
 0.57972606289972E-9
  51
 90.000000000000
   0
POINT
   5
33A
 100
AcDbEntity
   8
LEVEL001
 100
AcDbPoint
  62
7
  10
 266.47767520674
  20
 166.11886259536
  30
0.0
   0
LINE
   5
33B
 100
AcDbEntity
   8
LEVEL001
 100
AcDbLine
   6
CONTINUOUS
  62
7
  10
 266.47767520674
  20
 146.61886259536
  30
0.0
  11
 266.47767520674
  21
 165.61886259536
  31
0.0
   0
DIMENSION
   5
33C
 100
AcDbEntity
   8
LEVEL001
   6
CONTINUOUS
  62
2
 100
AcDbDimension
   2
*D21
  10
 262.47767520674
  20
 188.05420830712
  30
0.0
  11
 258.47767520674
  21
 188.05420830712
  31
0.0
  70
0
   3
GMM001
 100
AcDbAlignedDimension
  13
 254.47767520674
  23
 164.61886259536
  33
0.0
  14
 262.47767520674
  24
 167.21753001147
  34
0.0
 100
AcDbRotatedDimension
   0
DIMENSION
   5
33D
 100
AcDbEntity
   8
LEVEL001
   6
CONTINUOUS
  62
2
 100
AcDbDimension
   2
*D22
  10
 266.47767520674
  20
 188.05420830712
  30
0.0
  11
 264.47767520674
  21
 188.05420830712
  31
0.0
  70
0
   3
GMM001
 100
AcDbAlignedDimension
  13
 262.47767520674
  23
 188.05420830712
  33
0.0
  14
 266.47767520674
  24
 166.11886259536
  34
0.0
 100
AcDbRotatedDimension
   0
DIMENSION
   5
33E
 100
AcDbEntity
   8
LEVEL001
   6
CONTINUOUS
  62
2
 100
AcDbDimension
   2
*D23
  10
 263.67767520674
  20
 178.46844643231
  30
0.0
  11
 273.36369465517
  21
 178.46844643231
  31
0.0
  70
128
   3
GMM002
 100
AcDbAlignedDimension
  13
 261.27767520674
  23
 165.11886259536
  33
0.0
  14
 263.67767520674
  24
 165.11886259536
  34
0.0
 100
AcDbRotatedDimension
   0
DIMENSION
   5
33F
 100
AcDbEntity
   8
LEVEL001
   6
CONTINUOUS
  62
2
 100
AcDbDimension
   2
*D24
  10
 245.91916863149
  20
 143.86886259536
  30
0.0
  11
 245.91916863149
  21
 147.86886259536
  31
0.0
  70
0
   3
GMM004
 100
AcDbAlignedDimension
  13
 254.47767520674
  23
 151.86886259536
  33
0.0
  14
 254.47767520674
  24
 143.86886259536
  34
0.0
  50
 270.00000000000
 100
AcDbRotatedDimension
   0
DIMENSION
   5
340
 100
AcDbEntity
   8
LEVEL001
   6
CONTINUOUS
  62
2
 100
AcDbDimension
   2
*D25
  10
 290.68026714540
  20
 156.11886259536
  30
0.0
  11
 290.68026714540
  21
 145.16886259536
  31
0.0
  70
0
   3
GMM001
 100
AcDbAlignedDimension
  13
 268.25250071282
  23
 134.21886259536
  33
0.0
  14
 290.68026714540
  24
 156.11886259536
  34
0.0
  50
 90.000000000000
 100
AcDbRotatedDimension
   0
DIMENSION
   5
341
 100
AcDbEntity
   8
LEVEL001
   6
CONTINUOUS
  62
2
 100
AcDbDimension
   2
*D26
  10
 290.68026714540
  20
 134.21886259536
  30
0.0
  11
 290.68026714540
  21
 121.56843217929
  31
0.0
  70
128
   3
GMM002
 100
AcDbAlignedDimension
  13
 266.47767520674
  23
 129.11886259536
  33
0.0
  14
 290.68026714540
  24
 134.21886259536
  34
0.0
  50
 90.000000000000
 100
AcDbRotatedDimension
   0
DIMENSION
   5
342
 100
AcDbEntity
   8
LEVEL001
   6
CONTINUOUS
  62
2
 100
AcDbDimension
   2
*D27
  10
 290.68026714540
  20
 166.11886259536
  30
0.0
  11
 290.68026714540
  21
 161.11886259536
  31
0.0
  70
0
   3
GMM001
 100
AcDbAlignedDimension
  13
 262.97767520674
  23
 156.11886259536
  33
0.0
  14
 266.47767520674
  24
 166.11886259536
  34
0.0
  50
 90.000000000000
 100
AcDbRotatedDimension
   0
LINE
   5
343
 100
AcDbEntity
   8
LEVEL001
 100
AcDbLine
   6
CONTINUOUS
  62
2
  10
 279.50309976493
  20
 154.86886259536
  30
0.0
  11
 279.50309976493
  21
 140.86886259536
  31
0.0
   0
POLYLINE
   5
344
 100
AcDbEntity
   8
LEVEL001
   6
CONTINUOUS
  62
2
 100
AcDb2dPolyline
  66
1
  10
0.0
  20
0.0
  30
0.0
  70
0
   0
VERTEX
   5
345
 100
AcDbEntity
   8
LEVEL001
   6
CONTINUOUS
  62
2
 100
AcDbVertex
 100
AcDb2dVertex
  10
 280.30694734222
  20
 153.11886259536
  30
0.0
   0
VERTEX
   5
346
 100
AcDbEntity
   8
LEVEL001
   6
CONTINUOUS
  62
2
 100
AcDbVertex
 100
AcDb2dVertex
  10
 279.50309976493
  20
 150.11886259536
  30
0.0
   0
VERTEX
   5
347
 100
AcDbEntity
   8
LEVEL001
   6
CONTINUOUS
  62
2
 100
AcDbVertex
 100
AcDb2dVertex
  10
 278.69925218763
  20
 153.11886259536
  30
0.0
   0
SEQEND
   5
348
 100
AcDbEntity
   8
LEVEL001
   6
CONTINUOUS
  62
2
   0
POLYLINE
   5
349
 100
AcDbEntity
   8
LEVEL001
   6
CONTINUOUS
  62
2
 100
AcDb2dPolyline
  66
1
  10
0.0
  20
0.0
  30
0.0
  70
0
   0
VERTEX
   5
34A
 100
AcDbEntity
   8
LEVEL001
   6
CONTINUOUS
  62
2
 100
AcDbVertex
 100
AcDb2dVertex
  10
 278.69925218763
  20
 142.61886259536
  30
0.0
   0
VERTEX
   5
34B
 100
AcDbEntity
   8
LEVEL001
   6
CONTINUOUS
  62
2
 100
AcDbVertex
 100
AcDb2dVertex
  10
 279.50309976493
  20
 145.61886259536
  30
0.0
   0
VERTEX
   5
34C
 100
AcDbEntity
   8
LEVEL001
   6
CONTINUOUS
  62
2
 100
AcDbVertex
 100
AcDb2dVertex
  10
 280.30694734222
  20
 142.61886259536
  30
0.0
   0
SEQEND
   5
34D
 100
AcDbEntity
   8
LEVEL001
   6
CONTINUOUS
  62
2
   0
TEXT
   5
34E
 100
AcDbEntity
   8
LEVEL001
  62
2
 100
AcDbText
  10
 276.83488451134
  20
 140.86886259536
  30
0.0
  40
 4.0000000000000
   1
%%c４.５
  50
 90.000000000000
   7
STANDARD
 100
AcDbText
   0
LINE
   5
34F
 100
AcDbEntity
   8
LEVEL001
 100
AcDbLine
   6
CONTINUOUS
  62
2
  10
 267.97767520674
  20
 150.11886259536
  30
0.0
  11
 272.80291324353
  21
 150.11886259536
  31
0.0
   0
LINE
   5
350
 100
AcDbEntity
   8
LEVEL001
 100
AcDbLine
   6
CONTINUOUS
  62
2
  10
 267.97767520674
  20
 145.61886259536
  30
0.0
  11
 272.80291324353
  21
 145.61886259536
  31
0.0
   0
LINE
   5
351
 100
AcDbEntity
   8
LEVEL001
 100
AcDbLine
   6
CONTINUOUS
  62
2
  10
 277.66608344386
  20
 150.11886259536
  30
0.0
  11
 281.50309976493
  21
 150.11886259536
  31
0.0
   0
LINE
   5
352
 100
AcDbEntity
   8
LEVEL001
 100
AcDbLine
   6
CONTINUOUS
  62
2
  10
 277.66608344386
  20
 145.61886259536
  30
0.0
  11
 281.50309976493
  21
 145.61886259536
  31
0.0
   0
CIRCLE
   5
353
 100
AcDbEntity
   8
LEVEL001
 100
AcDbCircle
   6
DOT
  62
1
  10
 143.13911030558
  20
 146.02471415538
  30
0.0
  40
 10.000000000000
   0
CIRCLE
   5
354
 100
AcDbEntity
   8
LEVEL001
 100
AcDbCircle
   6
DOT
  62
1
  10
 143.13911030558
  20
 146.02471415538
  30
0.0
  40
 2.0000000000000
   0
LINE
   5
355
 100
AcDbEntity
   8
LEVEL001
 100
AcDbLine
   6
DOT
  62
1
  10
 172.91244100077
  20
 211.97299779456
  30
0.0
  11
 131.21832259372
  21
 211.97299779456
  31
0.0
   0
ARC
   5
356
 100
AcDbEntity
   8
LEVEL001
   6
CONTINUOUS
  62
7
 100
AcDbCircle
  10
 153.81845088023
  20
 206.57299779455
  30
0.0
  40
 0.30000000000000
 100
AcDbArc
  50
 270.00000000000
  51
 0.21821149558584E-8
   0
POINT
   5
357
 100
AcDbEntity
   8
LEVEL001
 100
AcDbPoint
  62
7
  10
 154.11845088023
  20
 206.27299779456
  30
0.0
   0
ARC
   5
358
 100
AcDbEntity
   8
LEVEL001
   6
CONTINUOUS
  62
7
 100
AcDbCircle
  10
 153.81845088023
  20
 213.37299779456
  30
0.0
  40
 0.30000000000000
 100
AcDbArc
  50
 0.84679087839281E-9
  51
 90.000000000000
   0
POINT
   5
359
 100
AcDbEntity
   8
LEVEL001
 100
AcDbPoint
  62
7
  10
 154.11845088023
  20
 213.67299779456
  30
0.0
   0
LINE
   5
35A
 100
AcDbEntity
   8
LEVEL001
 100
AcDbLine
   6
CONTINUOUS
  62
7
  10
 154.11845088023
  20
 213.37299779456
  30
0.0
  11
 154.11845088023
  21
 213.06835993897
  31
0.0
   0
ARC
   5
35B
 100
AcDbEntity
   8
LEVEL001
   6
CONTINUOUS
  62
7
 100
AcDbCircle
  10
 154.01845088019
  20
 213.06835993897
  30
0.0
  40
 0.10000000000000
 100
AcDbArc
  50
 275.26323315458
  51
 0.22798215946967E-8
   0
LINE
   5
35C
 100
AcDbEntity
   8
LEVEL001
 100
AcDbLine
   6
CONTINUOUS
  62
7
  10
 154.11845088023
  20
 210.87763565015
  30
0.0
  11
 154.11845088023
  21
 206.57299779456
  31
0.0
   0
ARC
   5
35D
 100
AcDbEntity
   8
LEVEL001
   6
CONTINUOUS
  62
7
 100
AcDbCircle
  10
 154.01845088027
  20
 210.87763565015
  30
0.0
  40
 0.10000000000000
 100
AcDbArc
  50
 0.20355549969213E-8
  51
 84.736766892240
   0
LINE
   5
35E
 100
AcDbEntity
   8
LEVEL001
 100
AcDbLine
   6
CONTINUOUS
  62
7
  10
 133.11963585438
  20
 213.37299779456
  30
0.0
  11
 133.11963585438
  21
 213.06844290957
  31
0.0
   0
ARC
   5
35F
 100
AcDbEntity
   8
LEVEL001
   6
CONTINUOUS
  62
7
 100
AcDbCircle
  10
 133.21963585444
  20
 213.06844290957
  30
0.0
  40
 0.10000000000000
 100
AcDbArc
  50
 179.99999999695
  51
 264.78409139613
   0
LINE
   5
360
 100
AcDbEntity
   8
LEVEL001
 100
AcDbLine
   6
CONTINUOUS
  62
7
  10
 133.11963585438
  20
 210.87755267955
  30
0.0
  11
 133.11963585438
  21
 206.57299779456
  31
0.0
   0
ARC
   5
361
 100
AcDbEntity
   8
LEVEL001
   6
CONTINUOUS
  62
7
 100
AcDbCircle
  10
 133.21963585439
  20
 210.87755267955
  30
0.0
  40
 0.10000000000000
 100
AcDbArc
  50
 95.215908574831
  51
 180.00000000039
   0
ARC
   5
362
 100
AcDbEntity
   8
LEVEL001
   6
CONTINUOUS
  62
7
 100
AcDbCircle
  10
 133.11963585437
  20
 211.97299779456
  30
0.0
  40
 1.0000000000000
 100
AcDbArc
  50
 275.21590857132
  51
 84.784091428666
   0
LINE
   5
363
 100
AcDbEntity
   8
LEVEL001
 100
AcDbLine
   6
CONTINUOUS
  62
7
  10
 133.46506423366
  20
 212.97299779456
  30
0.0
  11
 153.79398158169
  21
 212.97299779456
  31
0.0
   0
LINE
   5
364
 100
AcDbEntity
   8
LEVEL001
 100
AcDbLine
   6
CONTINUOUS
  62
7
  10
 133.47984309847
  20
 210.97299779456
  30
0.0
  11
 153.72008725766
  21
 210.97299779456
  31
0.0
   0
ARC
   5
365
 100
AcDbEntity
   8
LEVEL001
   6
CONTINUOUS
  62
7
 100
AcDbCircle
  10
 154.42611104033
  20
 213.77299779457
  30
0.0
  40
 1.2000000000000
 100
AcDbArc
  50
 180.00000000027
  51
 184.78019184748
   0
ARC
   5
366
 100
AcDbEntity
   8
LEVEL001
   6
DOT
  62
1
 100
AcDbCircle
  10
 154.42611104033
  20
 213.77299779456
  30
0.0
  40
 1.2000000000000
 100
AcDbArc
  50
 184.78019184718
  51
 229.78213505417
   0
LINE
   5
367
 100
AcDbEntity
   8
LEVEL001
 100
AcDbLine
   6
CONTINUOUS
  62
7
  10
 146.61949575226
  20
 213.67299779456
  30
0.0
  11
 153.81845088023
  21
 213.67299779456
  31
0.0
   0
ARC
   5
368
 100
AcDbEntity
   8
LEVEL001
   6
CONTINUOUS
  62
7
 100
AcDbCircle
  10
 154.11935565015
  20
 211.97299779456
  30
0.0
  40
 1.0000000000000
 100
AcDbArc
  50
 95.263233130530
  51
 264.73676686948
   0
ARC
   5
369
 100
AcDbEntity
   8
LEVEL001
   6
CONTINUOUS
  62
7
 100
AcDbCircle
  10
 154.42611104033
  20
 213.77299779456
  30
0.0
  40
 1.2000000000000
 100
AcDbArc
  50
 229.78213505420
  51
 269.99999999988
   0
ARC
   5
36A
 100
AcDbEntity
   8
LEVEL001
   6
CONTINUOUS
  62
7
 100
AcDbCircle
  10
 154.42611104033
  20
 206.17299779455
  30
0.0
  40
 1.2000000000000
 100
AcDbArc
  50
 175.21980815211
  51
 179.99999999932
   0
LINE
   5
36B
 100
AcDbEntity
   8
LEVEL001
 100
AcDbLine
   6
DOT
  62
1
  10
 146.61949575226
  20
 214.97299779456
  30
0.0
  11
 145.61949575226
  21
 213.97299779456
  31
0.0
   0
LINE
   5
36C
 100
AcDbEntity
   8
LEVEL001
 100
AcDbLine
   6
DOT
  62
1
  10
 145.61949575226
  20
 213.97299779456
  30
0.0
  11
 143.61949575226
  21
 213.97299779456
  31
0.0
   0
LINE
   5
36D
 100
AcDbEntity
   8
LEVEL001
 100
AcDbLine
   6
DOT
  62
1
  10
 140.61949575226
  20
 214.97299779456
  30
0.0
  11
 141.61949575226
  21
 213.97299779456
  31
0.0
   0
LINE
   5
36E
 100
AcDbEntity
   8
LEVEL001
 100
AcDbLine
   6
DOT
  62
1
  10
 141.61949575226
  20
 213.97299779456
  30
0.0
  11
 143.61949575226
  21
 213.97299779456
  31
0.0
   0
LINE
   5
36F
 100
AcDbEntity
   8
LEVEL001
 100
AcDbLine
   6
DOT
  62
1
  10
 141.61949575226
  20
 205.97299779457
  30
0.0
  11
 140.61949575226
  21
 204.97299779457
  31
0.0
   0
LINE
   5
370
 100
AcDbEntity
   8
LEVEL001
 100
AcDbLine
   6
DOT
  62
1
  10
 141.61949575226
  20
 205.97299779457
  30
0.0
  11
 143.61949575226
  21
 205.97299779457
  31
0.0
   0
LINE
   5
371
 100
AcDbEntity
   8
LEVEL001
 100
AcDbLine
   6
DOT
  62
1
  10
 145.61949575226
  20
 205.97299779457
  30
0.0
  11
 146.61949575226
  21
 204.97299779457
  31
0.0
   0
LINE
   5
372
 100
AcDbEntity
   8
LEVEL001
 100
AcDbLine
   6
DOT
  62
1
  10
 145.61949575226
  20
 205.97299779457
  30
0.0
  11
 143.61949575226
  21
 205.97299779457
  31
0.0
   0
LINE
   5
373
 100
AcDbEntity
   8
LEVEL001
 100
AcDbLine
   6
CONTINUOUS
  62
7
  10
 133.41963585438
  20
 206.27299779456
  30
0.0
  11
 153.81845088023
  21
 206.27299779456
  31
0.0
   0
ARC
   5
374
 100
AcDbEntity
   8
LEVEL001
   6
CONTINUOUS
  62
7
 100
AcDbCircle
  10
 154.42611104033
  20
 206.17299779456
  30
0.0
  40
 1.2000000000000
 100
AcDbArc
  50
 90.000000000058
  51
 104.85557752572
   0
ARC
   5
375
 100
AcDbEntity
   8
LEVEL001
   6
DOT
  62
1
 100
AcDbCircle
  10
 154.42611104033
  20
 206.17299779456
  30
0.0
  40
 1.2000000000000
 100
AcDbArc
  50
 105.45252401676
  51
 175.21980815279
   0
LINE
   5
376
 100
AcDbEntity
   8
LEVEL001
 100
AcDbLine
   6
DOT
  62
1
  10
 141.61949575226
  20
 213.97299779456
  30
0.0
  11
 141.61949575226
  21
 213.77299779456
  31
0.0
   0
LINE
   5
377
 100
AcDbEntity
   8
LEVEL001
 100
AcDbLine
   6
DOT
  62
1
  10
 145.61949575226
  20
 213.97299779456
  30
0.0
  11
 145.61949575226
  21
 213.77299779456
  31
0.0
   0
LINE
   5
378
 100
AcDbEntity
   8
LEVEL001
 100
AcDbLine
   6
CONTINUOUS
  62
7
  10
 141.61949575226
  20
 213.77299779456
  30
0.0
  11
 141.61949575226
  21
 213.67299779456
  31
0.0
   0
LINE
   5
379
 100
AcDbEntity
   8
LEVEL001
 100
AcDbLine
   6
CONTINUOUS
  62
7
  10
 145.61949575226
  20
 213.77299779456
  30
0.0
  11
 145.61949575226
  21
 213.67299779456
  31
0.0
   0
LINE
   5
37A
 100
AcDbEntity
   8
LEVEL001
 100
AcDbLine
   6
DOT
  62
1
  10
 141.61949575226
  20
 213.67299779456
  30
0.0
  11
 141.61949575226
  21
 206.27299779456
  31
0.0
   0
LINE
   5
37B
 100
AcDbEntity
   8
LEVEL001
 100
AcDbLine
   6
DOT
  62
1
  10
 141.61949575226
  20
 206.17299779456
  30
0.0
  11
 141.61949575226
  21
 205.97299779457
  31
0.0
   0
LINE
   5
37C
 100
AcDbEntity
   8
LEVEL001
 100
AcDbLine
   6
DOT
  62
1
  10
 145.61949575226
  20
 213.67299779456
  30
0.0
  11
 145.61949575226
  21
 206.27299779456
  31
0.0
   0
LINE
   5
37D
 100
AcDbEntity
   8
LEVEL001
 100
AcDbLine
   6
DOT
  62
1
  10
 145.61949575226
  20
 206.17299779456
  30
0.0
  11
 145.61949575226
  21
 205.97299779457
  31
0.0
   0
LINE
   5
37E
 100
AcDbEntity
   8
LEVEL001
 100
AcDbLine
   6
CONTINUOUS
  62
7
  10
 141.61949575226
  20
 206.27299779456
  30
0.0
  11
 141.61949575226
  21
 206.17299779456
  31
0.0
   0
LINE
   5
37F
 100
AcDbEntity
   8
LEVEL001
 100
AcDbLine
   6
CONTINUOUS
  62
7
  10
 145.61949575226
  20
 206.27299779456
  30
0.0
  11
 145.61949575226
  21
 206.17299779456
  31
0.0
   0
LINE
   5
380
 100
AcDbEntity
   8
LEVEL001
 100
AcDbLine
   6
CONTINUOUS
  62
7
  10
 157.61949575226
  20
 213.77299779456
  30
0.0
  11
 157.61949575226
  21
 214.97299779456
  31
0.0
   0
CIRCLE
   5
381
 100
AcDbEntity
   8
LEVEL001
 100
AcDbCircle
   6
CONTINUOUS
  62
7
  10
 143.13911030558
  20
 146.02471415538
  30
0.0
  40
 3.0000000000000
   0
LINE
   5
382
 100
AcDbEntity
   8
LEVEL001
 100
AcDbLine
   6
DOT
  62
3
  10
 163.11949575226
  20
 204.72299779429
  30
0.0
  11
 165.61949575226
  21
 204.72299779429
  31
0.0
   0
LINE
   5
383
 100
AcDbEntity
   8
LEVEL001
 100
AcDbLine
   6
DOT
  62
3
  10
 163.11949575226
  20
 204.72299779429
  30
0.0
  11
 162.36949575254
  21
 203.97299779456
  31
0.0
   0
LINE
   5
384
 100
AcDbEntity
   8
LEVEL001
 100
AcDbLine
   6
DOT
  62
3
  10
 163.11949575226
  20
 205.97299779456
  30
0.0
  11
 163.11949575226
  21
 204.72299779429
  31
0.0
   0
LINE
   5
385
 100
AcDbEntity
   8
LEVEL001
 100
AcDbLine
   6
DOT
  62
3
  10
 168.11949575226
  20
 204.72299779429
  30
0.0
  11
 165.61949575226
  21
 204.72299779429
  31
0.0
   0
LINE
   5
386
 100
AcDbEntity
   8
LEVEL001
 100
AcDbLine
   6
DOT
  62
3
  10
 168.11949575226
  20
 204.72299779429
  30
0.0
  11
 168.86949575198
  21
 203.97299779456
  31
0.0
   0
LINE
   5
387
 100
AcDbEntity
   8
LEVEL001
 100
AcDbLine
   6
DOT
  62
3
  10
 168.11949575226
  20
 205.97299779456
  30
0.0
  11
 168.11949575226
  21
 204.72299779429
  31
0.0
   0
LINE
   5
388
 100
AcDbEntity
   8
LEVEL001
 100
AcDbLine
   6
DOT
  62
3
  10
 167.61949575226
  20
 215.22299779468
  30
0.0
  11
 165.61949575226
  21
 215.22299779468
  31
0.0
   0
LINE
   5
389
 100
AcDbEntity
   8
LEVEL001
 100
AcDbLine
   6
DOT
  62
3
  10
 168.36949575215
  20
 215.97299779456
  30
0.0
  11
 167.61949575226
  21
 215.22299779468
  31
0.0
   0
LINE
   5
38A
 100
AcDbEntity
   8
LEVEL001
 100
AcDbLine
   6
DOT
  62
3
  10
 167.61949575226
  20
 215.22299779468
  30
0.0
  11
 167.61949575226
  21
 213.97299779456
  31
0.0
   0
LINE
   5
38B
 100
AcDbEntity
   8
LEVEL001
 100
AcDbLine
   6
DOT
  62
3
  10
 163.61949575226
  20
 215.22299779468
  30
0.0
  11
 165.61949575226
  21
 215.22299779468
  31
0.0
   0
LINE
   5
38C
 100
AcDbEntity
   8
LEVEL001
 100
AcDbLine
   6
DOT
  62
3
  10
 162.86949575238
  20
 215.97299779456
  30
0.0
  11
 163.61949575226
  21
 215.22299779468
  31
0.0
   0
LINE
   5
38D
 100
AcDbEntity
   8
LEVEL001
 100
AcDbLine
   6
DOT
  62
3
  10
 163.61949575226
  20
 215.22299779468
  30
0.0
  11
 163.61949575226
  21
 213.97299779456
  31
0.0
   0
CIRCLE
   5
38E
 100
AcDbEntity
   8
LEVEL001
 100
AcDbCircle
   6
CONTINUOUS
  62
7
  10
 165.61949575226
  20
 144.11886259536
  30
0.0
  40
 3.2500000000000
   0
CIRCLE
   5
38F
 100
AcDbEntity
   8
LEVEL001
 100
AcDbCircle
   6
DOT
  62
1
  10
 165.61949575226
  20
 144.11886259536
  30
0.0
  40
 2.5000000000000
   0
TEXT
   5
390
 100
AcDbEntity
   8
LEVEL001
  62
7
 100
AcDbText
  10
 375.33065343638
  20
 57.251038146605
  30
0.0
  40
 5.0000000000000
   1
Ｒ,Ｌ有り　
  41
 0.80000000000000
  51
 15.000000000000
   7
STANDARD
 100
AcDbText
   0
TEXT
   5
391
 100
AcDbEntity
   8
LEVEL001
  62
7
 100
AcDbText
  10
 375.33065343638
  20
 50.584371479939
  30
0.0
  40
 5.0000000000000
   1
本図はRを示す
  41
 0.80000000000000
  51
 15.000000000000
   7
STANDARD
 100
AcDbText
   0
ENDSEC
  0
SECTION
  2
OBJECTS
  0
DICTIONARY
  5
C
100
AcDbDictionary
  3
ACAD_GROUP
350
D
  3
ACAD_MLINESTYLE
350
1B
  0
DICTIONARY
  5
D
102
{ACAD_REACTORS
330
C
102
}
100
AcDbDictionary
  0
DICTIONARY
  5
1B
102
{ACAD_REACTORS
330
C
102
}
100
AcDbDictionary
  3
STANDARD
350
1C
  0
MLINESTYLE
  5
1C
102
{ACAD_REACTORS
330
1B
102
}
100
AcDbMlineStyle
  2
STANDARD
 70
     0
  3

 62
   256
 51
90.0
 52
90.0
 71
     2
 49
0.5
 62
   256
  6
BYLAYER
 49
-0.5
 62
   256
  6
BYLAYER
  0
ENDSEC
   0
EOF
