   0
SECTION
   2
HEADER
   9
$ACADVER
   1
AC1015
   9
$LIMMIN
  10
0.0
  20
0.0
   9
$LIMMAX
  10
 420.00000000000
  20
 297.00000000000
   9
$EXTMIN
  10
0.0
  20
0.0
  30
0.0
   9
$EXTMAX
  10
 420.00000000000
  20
 297.00000000000
  30
0.0
   9
$LTSCALE
  40
 8.4000000000000
   9
$HANDSEED
   5
3AF
   0
ENDSEC
   0
SECTION
   2
TABLES
  0
TABLE
  2
VPORT
  5
8
100
AcDbSymbolTable
 70
     1
  0
VPORT
  5
3AE
100
AcDbSymbolTableRecord
100
AcDbViewportTableRecord
  2
*ACTIVE
 70
     0
 10
0.0
 20
0.0
 11
1.0
 21
1.0
  12
 210.00000000000
  22
 148.50000000000
 13
0.0
 23
0.0
 14
1.0
 24
1.0
 15
0.0
 25
0.0
 16
0.0
 26
0.0
 36
1.0
 17
0.0
 27
0.0
 37
0.0
  40
 420.00000000000
  41
 1.4787878787879
 42
50.0
 43
0.0
 44
0.0
 50
0.0
 51
0.0
 71
     0
 72
   100
 73
     1
 74
     1
 75
     0
 76
     0
 77
     0
 78
     0
  0
ENDTAB
  0
TABLE
  2
LTYPE
  5
5
100
AcDbSymbolTable
 70
    25
  0
LTYPE
  5
12
100
AcDbSymbolTableRecord
100
AcDbLinetypeTableRecord
  2
BYBLOCK
 70
     0
  3

 72
    65
 73
     0
 40
0.0
  0
LTYPE
  5
13
100
AcDbSymbolTableRecord
100
AcDbLinetypeTableRecord
  2
BYLAYER
 70
     0
  3

 72
    65
 73
     0
 40
0.0
  0
LTYPE
  5
14
100
AcDbSymbolTableRecord
100
AcDbLinetypeTableRecord
  2
CONTINUOUS
 70
     0
  3
Solid line
 72
    65
 73
     0
 40
0.0
  0
LTYPE
  5
20
100
AcDbSymbolTableRecord
100
AcDbLinetypeTableRecord
  2
BORDER
 70
     0
  3
__ __ . __ __ . __ __ . __ __ . __ __ . __ __ .
 72
    65
 73
     6
 40
1.75
 49
0.5
 74
     0
 49
-0.25
 74
     0
 49
0.5
 74
     0
 49
-0.25
 74
     0
 49
0.0
 74
     0
 49
-0.25
 74
     0
  0
LTYPE
  5
21
100
AcDbSymbolTableRecord
100
AcDbLinetypeTableRecord
  2
BORDER2
 70
     0
  3
__.__.__.__.__.__.__.__.__.__.__.__.__.__.__.__
 72
    65
 73
     6
 40
0.875
 49
0.25
 74
     0
 49
-0.125
 74
     0
 49
0.25
 74
     0
 49
-0.125
 74
     0
 49
0.0
 74
     0
 49
-0.125
 74
     0
  0
LTYPE
  5
22
100
AcDbSymbolTableRecord
100
AcDbLinetypeTableRecord
  2
BORDERX2
 70
     0
  3
____  ____  .  ____  ____  .  ____  ____  .  __
 72
    65
 73
     6
 40
3.5
 49
1.0
 74
     0
 49
-0.5
 74
     0
 49
1.0
 74
     0
 49
-0.5
 74
     0
 49
0.0
 74
     0
 49
-0.5
 74
     0
  0
LTYPE
  5
23
100
AcDbSymbolTableRecord
100
AcDbLinetypeTableRecord
  2
CENTER
 70
     0
  3
____ _ ____ _ ____ _ ____ _ ____ _ ____ _ ____ 
 72
    65
 73
     4
 40
2.0
 49
1.25
 74
     0
 49
-0.25
 74
     0
 49
0.25
 74
     0
 49
-0.25
 74
     0
  0
LTYPE
  5
24
100
AcDbSymbolTableRecord
100
AcDbLinetypeTableRecord
  2
CENTER2
 70
     0
  3
___ _ ___ _ ___ _ ___ _ ___ _ ___ _ ___ _ ___ _
 72
    65
 73
     4
 40
1.125
 49
0.75
 74
     0
 49
-0.125
 74
     0
 49
0.125
 74
     0
 49
-0.125
 74
     0
  0
LTYPE
  5
25
100
AcDbSymbolTableRecord
100
AcDbLinetypeTableRecord
  2
CENTERX2
 70
     0
  3
________  __  ________  __  ________  __  _____
 72
    65
 73
     4
 40
4.0
 49
2.5
 74
     0
 49
-0.5
 74
     0
 49
0.5
 74
     0
 49
-0.5
 74
     0
  0
LTYPE
  5
26
100
AcDbSymbolTableRecord
100
AcDbLinetypeTableRecord
  2
DASHDOT
 70
     0
  3
__ . __ . __ . __ . __ . __ . __ . __ . __ . __
 72
    65
 73
     4
 40
1.0
 49
0.5
 74
     0
 49
-0.25
 74
     0
 49
0.0
 74
     0
 49
-0.25
 74
     0
  0
LTYPE
  5
27
100
AcDbSymbolTableRecord
100
AcDbLinetypeTableRecord
  2
DASHDOT2
 70
     0
  3
_._._._._._._._._._._._._._._._._._._._._._._._
 72
    65
 73
     4
 40
0.5
 49
0.25
 74
     0
 49
-0.125
 74
     0
 49
0.0
 74
     0
 49
-0.125
 74
     0
  0
LTYPE
  5
28
100
AcDbSymbolTableRecord
100
AcDbLinetypeTableRecord
  2
DASHDOTX2
 70
     0
  3
____  .  ____  .  ____  .  ____  .  ____  .  __
 72
    65
 73
     4
 40
2.0
 49
1.0
 74
     0
 49
-0.5
 74
     0
 49
0.0
 74
     0
 49
-0.5
 74
     0
  0
LTYPE
  5
29
100
AcDbSymbolTableRecord
100
AcDbLinetypeTableRecord
  2
DASHED
 70
     0
  3
__ __ __ __ __ __ __ __ __ __ __ __ __ __ __ __
 72
    65
 73
     2
 40
0.75
 49
0.5
 74
     0
 49
-0.25
 74
     0
  0
LTYPE
  5
2A
100
AcDbSymbolTableRecord
100
AcDbLinetypeTableRecord
  2
DASHED2
 70
     0
  3
_ _ _ _ _ _ _ _ _ _ _ _ _ _ _ _ _ _ _ _ _ _ _ _
 72
    65
 73
     2
 40
0.375
 49
0.25
 74
     0
 49
-0.125
 74
     0
  0
LTYPE
  5
2B
100
AcDbSymbolTableRecord
100
AcDbLinetypeTableRecord
  2
DASHEDX2
 70
     0
  3
____  ____  ____  ____  ____  ____  ____  ____ 
 72
    65
 73
     2
 40
1.5
 49
1.0
 74
     0
 49
-0.5
 74
     0
  0
LTYPE
  5
2C
100
AcDbSymbolTableRecord
100
AcDbLinetypeTableRecord
  2
DIVIDE
 70
     0
  3
____ . . ____ . . ____ . . ____ . . ____ . . __
 72
    65
 73
     6
 40
1.25
 49
0.5
 74
     0
 49
-0.25
 74
     0
 49
0.0
 74
     0
 49
-0.25
 74
     0
 49
0.0
 74
     0
 49
-0.25
 74
     0
  0
LTYPE
  5
2D
100
AcDbSymbolTableRecord
100
AcDbLinetypeTableRecord
  2
DIVIDE2
 70
     0
  3
__..__..__..__..__..__..__..__..__..__..__..__.
 72
    65
 73
     6
 40
0.625
 49
0.25
 74
     0
 49
-0.125
 74
     0
 49
0.0
 74
     0
 49
-0.125
 74
     0
 49
0.0
 74
     0
 49
-0.125
 74
     0
  0
LTYPE
  5
2E
100
AcDbSymbolTableRecord
100
AcDbLinetypeTableRecord
  2
DIVIDEX2
 70
     0
  3
________  .  .  ________  .  .  ________  .  . 
 72
    65
 73
     6
 40
2.5
 49
1.0
 74
     0
 49
-0.5
 74
     0
 49
0.0
 74
     0
 49
-0.5
 74
     0
 49
0.0
 74
     0
 49
-0.5
 74
     0
  0
LTYPE
  5
2F
100
AcDbSymbolTableRecord
100
AcDbLinetypeTableRecord
  2
DOT
 70
     0
  3
. . . . . . . . . . . . . . . . . . . . . . . .
 72
    65
 73
     2
 40
0.25
 49
0.0
 74
     0
 49
-0.25
 74
     0
  0
LTYPE
  5
30
100
AcDbSymbolTableRecord
100
AcDbLinetypeTableRecord
  2
DOT2
 70
     0
  3
...............................................
 72
    65
 73
     2
 40
0.125
 49
0.0
 74
     0
 49
-0.125
 74
     0
  0
LTYPE
  5
31
100
AcDbSymbolTableRecord
100
AcDbLinetypeTableRecord
  2
DOTX2
 70
     0
  3
.  .  .  .  .  .  .  .  .  .  .  .  .  .  .  . 
 72
    65
 73
     2
 40
0.5
 49
0.0
 74
     0
 49
-0.5
 74
     0
  0
LTYPE
  5
32
100
AcDbSymbolTableRecord
100
AcDbLinetypeTableRecord
  2
HIDDEN
 70
     0
  3
__ __ __ __ __ __ __ __ __ __ __ __ __ __ __ __
 72
    65
 73
     2
 40
0.375
 49
0.25
 74
     0
 49
-0.125
 74
     0
  0
LTYPE
  5
33
100
AcDbSymbolTableRecord
100
AcDbLinetypeTableRecord
  2
HIDDEN2
 70
     0
  3
_ _ _ _ _ _ _ _ _ _ _ _ _ _ _ _ _ _ _ _ _ _ _ _
 72
    65
 73
     2
 40
0.1875
 49
0.125
 74
     0
 49
-0.0625
 74
     0
  0
LTYPE
  5
34
100
AcDbSymbolTableRecord
100
AcDbLinetypeTableRecord
  2
HIDDENX2
 70
     0
  3
____ ____ ____ ____ ____ ____ ____ ____ ____ __
 72
    65
 73
     2
 40
0.75
 49
0.5
 74
     0
 49
-0.25
 74
     0
  0
LTYPE
  5
35
100
AcDbSymbolTableRecord
100
AcDbLinetypeTableRecord
  2
PHANTOM
 70
     0
  3
______  __  __  ______  __  __  ______  __  __ 
 72
    65
 73
     6
 40
2.5
 49
1.25
 74
     0
 49
-0.25
 74
     0
 49
0.25
 74
     0
 49
-0.25
 74
     0
 49
0.25
 74
     0
 49
-0.25
 74
     0
  0
LTYPE
  5
36
100
AcDbSymbolTableRecord
100
AcDbLinetypeTableRecord
  2
PHANTOM2
 70
     0
  3
___ _ _ ___ _ _ ___ _ _ ___ _ _ ___ _ _ ___ _ _
 72
    65
 73
     6
 40
1.25
 49
0.625
 74
     0
 49
-0.125
 74
     0
 49
0.125
 74
     0
 49
-0.125
 74
     0
 49
0.125
 74
     0
 49
-0.125
 74
     0
  0
LTYPE
  5
37
100
AcDbSymbolTableRecord
100
AcDbLinetypeTableRecord
  2
PHANTOMX2
 70
     0
  3
____________    ____    ____    ____________   
 72
    65
 73
     6
 40
5.0
 49
2.5
 74
     0
 49
-0.5
 74
     0
 49
0.5
 74
     0
 49
-0.5
 74
     0
 49
0.5
 74
     0
 49
-0.5
 74
     0
  0
ENDTAB
   0
TABLE
   2
LAYER
   5
2
 100
AcDbSymbolTable
  70
2
   0
LAYER
   5
E
 100
AcDbSymbolTableRecord
 100
AcDbLayerTableRecord
   2
0
  70
0
  62
7
   6
CONTINUOUS
 390
30
   0
LAYER
   5
39
 100
AcDbSymbolTableRecord
 100
AcDbLayerTableRecord
   2
LEVEL001
  70
0
  62
7
   6
CONTINUOUS
 390
30
   0
ENDTAB
  0
TABLE
  2
STYLE
  5
3
100
AcDbSymbolTable
  70
3
  0
STYLE
  5
F
100
AcDbSymbolTableRecord
100
AcDbTextStyleTableRecord
  2
STANDARD
 70
     0
 40
0.0
 41
1.0
 50
0.0
 71
     0
 42
0.2
  3
TXT
  4
BIGFONT
  0
STYLE
  5
38
100
AcDbSymbolTableRecord
100
AcDbTextStyleTableRecord
  2
STANDARD1
 70
     4
 40
0.0
 41
1.0
 50
0.0
 71
     0
 42
0.2
  3
TXT
  4
BIGFONT
   0
STYLE
   5
3A
 100
AcDbSymbolTableRecord
 100
AcDbTextStyleTableRecord
   2
GMM001
  70
0
  40
0.0
  41
 0.88888888888889
  50
0.0
  71
     0
  42
1.0
   3
txt.shx
   4
bigfont.shx
   0
ENDTAB
  0
TABLE
  2
VIEW
  5
6
100
AcDbSymbolTable
 70
     0
  0
ENDTAB
  0
TABLE
  2
UCS
  5
7
100
AcDbSymbolTable
 70
     0
  0
ENDTAB
  0
TABLE
  2
APPID
  5
9
100
AcDbSymbolTable
 70
     1
  0
APPID
  5
10
100
AcDbSymbolTableRecord
100
AcDbRegAppTableRecord
  2
ACAD
 70
     0
  0
ENDTAB
   0
TABLE
   2
DIMSTYLE
   5
A
 100
AcDbSymbolTable
  70
7
 100
AcDbDimStyleTable
  0
DIMSTYLE
105
1D
100
AcDbSymbolTableRecord
100
AcDbDimStyleTableRecord
  2
STANDARD
 70
     0
  3

  4

  5

  6

  7

 40
1.0
 41
0.18
 42
0.0625
 43
0.38
 44
0.18
 45
0.0
 46
0.0
 47
0.0
 48
0.0
140
0.18
141
0.09
142
0.0
143
25.4
144
1.0
145
0.0
146
1.0
147
0.09
 71
     0
 72
     0
 73
     1
 74
     1
 75
     0
 76
     0
 77
     0
 78
     0
170
     0
171
     2
172
     0
173
     0
174
     0
175
     0
176
     0
177
     0
178
     0
270
     2
271
     4
272
     4
273
     2
274
     2
340
F
275
     0
280
     0
281
     0
282
     0
283
     1
284
     0
285
     0
286
     0
287
     3
288
     0
   0
DIMSTYLE
 105
3B
 100
AcDbSymbolTableRecord
 100
AcDbDimStyleTableRecord
   2
GMM001
  70
0
   3

   4

   5

   6
_OPEN30
   7
_OPEN30
  40
 1.0000000000000
  41
 3.0000000000000
  42
 0.50000000000000
  43
 8.0000000000000
  44
 1.0000000000000
  45
0.0
  46
0.0
  47
0.0
  48
0.0
 140
 4.5000000000000
 141
 1.0000000000000
 142
0.0
 143
 0.39400000000000E-1
 144
 1.0000000000000
 145
0.0
 146
 0.55555555555556
 147
 1.9285714285714
  71
0
  72
0
  73
0
  74
0
  75
0
  76
0
  77
3
  78
8
 170
0
 171
2
 172
1
 173
1
 174
0
 175
0
 176
3
 177
3
 178
3
 270
2
 271
6
 272
0
 273
2
 274
2
 340
3A
 275
0
 280
0
 281
0
 282
0
 283
1
 284
0
 285
0
 286
0
 287
3
 288
0
   0
DIMSTYLE
 105
3C
 100
AcDbSymbolTableRecord
 100
AcDbDimStyleTableRecord
   2
GMM002
  70
0
   3
R<>
   4

   5

   6
_NONE
   7
_OPEN30
  40
 1.0000000000000
  41
 3.0000000000000
  42
 0.50000000000000
  43
 8.0000000000000
  44
 1.0000000000000
  45
0.0
  46
0.0
  47
0.0
  48
0.0
 140
 4.5000000000000
 141
 1.0000000000000
 142
0.0
 143
 0.39400000000000E-1
 144
 1.0000000000000
 145
0.0
 146
 0.55555555555556
 147
 1.9285714285714
  71
0
  72
0
  73
0
  74
0
  75
0
  76
0
  77
3
  78
8
 170
0
 171
2
 172
1
 173
1
 174
0
 175
0
 176
3
 177
3
 178
3
 270
2
 271
6
 272
0
 273
2
 274
2
 340
3A
 275
0
 280
0
 281
0
 282
0
 283
1
 284
0
 285
0
 286
0
 287
3
 288
1
   0
DIMSTYLE
 105
3D
 100
AcDbSymbolTableRecord
 100
AcDbDimStyleTableRecord
   2
GMM003
  70
0
   3

   4

   5

   6
_OPEN30
   7
_OPEN30
  40
 1.0000000000000
  41
 3.0000000000000
  42
 0.50000000000000
  43
 8.0000000000000
  44
 1.0000000000000
  45
0.0
  46
0.0
  47
0.0
  48
0.0
 140
 4.5000000000000
 141
 1.0000000000000
 142
0.0
 143
 0.39400000000000E-1
 144
 1.0000000000000
 145
0.0
 146
 0.55555555555556
 147
 1.9285714285714
  71
0
  72
0
  73
0
  74
0
  75
0
  76
0
  77
3
  78
8
 170
0
 171
2
 172
1
 173
1
 174
0
 175
0
 176
3
 177
3
 178
3
 270
2
 271
6
 272
0
 273
2
 274
2
 340
3A
 275
0
 280
0
 281
0
 282
0
 283
1
 284
0
 285
0
 286
0
 287
3
 288
1
   0
DIMSTYLE
 105
3E
 100
AcDbSymbolTableRecord
 100
AcDbDimStyleTableRecord
   2
GMM004
  70
0
   3

   4

   5

   6
_OPEN30
   7
_OPEN30
  40
 1.0000000000000
  41
 3.0000000000000
  42
 0.50000000000000
  43
 8.0000000000000
  44
 1.0000000000000
  45
0.0
  46
0.0
  47
0.0
  48
0.0
 140
 4.5000000000000
 141
 1.0000000000000
 142
0.0
 143
 0.39400000000000E-1
 144
 1.0000000000000
 145
0.0
 146
 0.55555555555556
 147
 2.1630517123888
  71
0
  72
0
  73
0
  74
0
  75
0
  76
0
  77
3
  78
8
 170
0
 171
2
 172
1
 173
1
 174
0
 175
0
 176
3
 177
3
 178
3
 270
2
 271
6
 272
0
 273
2
 274
2
 340
3A
 275
0
 280
0
 281
0
 282
0
 283
1
 284
0
 285
0
 286
0
 287
3
 288
1
   0
DIMSTYLE
 105
3F
 100
AcDbSymbolTableRecord
 100
AcDbDimStyleTableRecord
   2
GMM005
  70
0
   3

   4

   5

   6
_OPEN30
   7
_OPEN30
  40
 1.0000000000000
  41
 3.0000000000000
  42
 0.50000000000000
  43
 8.0000000000000
  44
 1.0000000000000
  45
0.0
  46
0.0
  47
0.0
  48
0.0
 140
 4.5000000000000
 141
 1.0000000000000
 142
0.0
 143
 0.39400000000000E-1
 144
 1.0000000000000
 145
0.0
 146
 0.55555555555556
 147
 1.8083353946436
  71
0
  72
0
  73
0
  74
0
  75
0
  76
0
  77
3
  78
8
 170
0
 171
2
 172
1
 173
1
 174
0
 175
0
 176
3
 177
3
 178
3
 270
2
 271
6
 272
0
 273
2
 274
2
 340
3A
 275
0
 280
0
 281
0
 282
0
 283
1
 284
0
 285
0
 286
0
 287
3
 288
1
   0
ENDTAB
  0
TABLE
  2
BLOCK_RECORD
  5
1
100
AcDbSymbolTable
 70
     0
  0
BLOCK_RECORD
  5
18
100
AcDbSymbolTableRecord
100
AcDbBlockTableRecord
  2
*MODEL_SPACE
  0
BLOCK_RECORD
  5
15
100
AcDbSymbolTableRecord
100
AcDbBlockTableRecord
  2
*PAPER_SPACE
   0
BLOCK_RECORD
   5
40
 100
AcDbSymbolTableRecord
 100
AcDbBlockTableRecord
   2
*D1
   0
BLOCK_RECORD
   5
41
 100
AcDbSymbolTableRecord
 100
AcDbBlockTableRecord
   2
*D2
   0
BLOCK_RECORD
   5
42
 100
AcDbSymbolTableRecord
 100
AcDbBlockTableRecord
   2
*D3
   0
BLOCK_RECORD
   5
43
 100
AcDbSymbolTableRecord
 100
AcDbBlockTableRecord
   2
*D4
   0
BLOCK_RECORD
   5
44
 100
AcDbSymbolTableRecord
 100
AcDbBlockTableRecord
   2
*D5
   0
BLOCK_RECORD
   5
45
 100
AcDbSymbolTableRecord
 100
AcDbBlockTableRecord
   2
*D6
   0
BLOCK_RECORD
   5
46
 100
AcDbSymbolTableRecord
 100
AcDbBlockTableRecord
   2
*D7
   0
BLOCK_RECORD
   5
47
 100
AcDbSymbolTableRecord
 100
AcDbBlockTableRecord
   2
*D8
   0
BLOCK_RECORD
   5
48
 100
AcDbSymbolTableRecord
 100
AcDbBlockTableRecord
   2
*D9
   0
BLOCK_RECORD
   5
49
 100
AcDbSymbolTableRecord
 100
AcDbBlockTableRecord
   2
*D10
   0
BLOCK_RECORD
   5
4A
 100
AcDbSymbolTableRecord
 100
AcDbBlockTableRecord
   2
*D11
   0
BLOCK_RECORD
   5
4B
 100
AcDbSymbolTableRecord
 100
AcDbBlockTableRecord
   2
*D12
   0
BLOCK_RECORD
   5
4C
 100
AcDbSymbolTableRecord
 100
AcDbBlockTableRecord
   2
*D13
   0
BLOCK_RECORD
   5
4D
 100
AcDbSymbolTableRecord
 100
AcDbBlockTableRecord
   2
*D14
   0
BLOCK_RECORD
   5
4E
 100
AcDbSymbolTableRecord
 100
AcDbBlockTableRecord
   2
*D15
   0
BLOCK_RECORD
   5
4F
 100
AcDbSymbolTableRecord
 100
AcDbBlockTableRecord
   2
*D16
   0
BLOCK_RECORD
   5
50
 100
AcDbSymbolTableRecord
 100
AcDbBlockTableRecord
   2
*D17
   0
BLOCK_RECORD
   5
51
 100
AcDbSymbolTableRecord
 100
AcDbBlockTableRecord
   2
*D18
   0
BLOCK_RECORD
   5
52
 100
AcDbSymbolTableRecord
 100
AcDbBlockTableRecord
   2
*D19
   0
BLOCK_RECORD
   5
53
 100
AcDbSymbolTableRecord
 100
AcDbBlockTableRecord
   2
*D20
   0
BLOCK_RECORD
   5
54
 100
AcDbSymbolTableRecord
 100
AcDbBlockTableRecord
   2
*D21
   0
BLOCK_RECORD
   5
55
 100
AcDbSymbolTableRecord
 100
AcDbBlockTableRecord
   2
*D22
   0
BLOCK_RECORD
   5
56
 100
AcDbSymbolTableRecord
 100
AcDbBlockTableRecord
   2
*D23
   0
BLOCK_RECORD
   5
57
 100
AcDbSymbolTableRecord
 100
AcDbBlockTableRecord
   2
*D24
   0
BLOCK_RECORD
   5
58
 100
AcDbSymbolTableRecord
 100
AcDbBlockTableRecord
   2
*D25
   0
BLOCK_RECORD
   5
59
 100
AcDbSymbolTableRecord
 100
AcDbBlockTableRecord
   2
*D26
   0
BLOCK_RECORD
   5
5A
 100
AcDbSymbolTableRecord
 100
AcDbBlockTableRecord
   2
_ARCHTICK
   0
BLOCK_RECORD
   5
5B
 100
AcDbSymbolTableRecord
 100
AcDbBlockTableRecord
   2
_BOXBLANK
   0
BLOCK_RECORD
   5
5C
 100
AcDbSymbolTableRecord
 100
AcDbBlockTableRecord
   2
_BOXFILLED
   0
BLOCK_RECORD
   5
5D
 100
AcDbSymbolTableRecord
 100
AcDbBlockTableRecord
   2
_CLOSED
   0
BLOCK_RECORD
   5
5E
 100
AcDbSymbolTableRecord
 100
AcDbBlockTableRecord
   2
_CLOSEDBLANK
   0
BLOCK_RECORD
   5
5F
 100
AcDbSymbolTableRecord
 100
AcDbBlockTableRecord
   2
_DATUMBLANK
   0
BLOCK_RECORD
   5
60
 100
AcDbSymbolTableRecord
 100
AcDbBlockTableRecord
   2
_DATUMFILLED
   0
BLOCK_RECORD
   5
61
 100
AcDbSymbolTableRecord
 100
AcDbBlockTableRecord
   2
_DOT
   0
BLOCK_RECORD
   5
62
 100
AcDbSymbolTableRecord
 100
AcDbBlockTableRecord
   2
_DOTBLANK
   0
BLOCK_RECORD
   5
63
 100
AcDbSymbolTableRecord
 100
AcDbBlockTableRecord
   2
_DOTSMALL
   0
BLOCK_RECORD
   5
64
 100
AcDbSymbolTableRecord
 100
AcDbBlockTableRecord
   2
_INTEGRAL
   0
BLOCK_RECORD
   5
65
 100
AcDbSymbolTableRecord
 100
AcDbBlockTableRecord
   2
_NONE
   0
BLOCK_RECORD
   5
66
 100
AcDbSymbolTableRecord
 100
AcDbBlockTableRecord
   2
_OBLIQUE
   0
BLOCK_RECORD
   5
67
 100
AcDbSymbolTableRecord
 100
AcDbBlockTableRecord
   2
_OPEN
   0
BLOCK_RECORD
   5
68
 100
AcDbSymbolTableRecord
 100
AcDbBlockTableRecord
   2
_OPEN30
   0
BLOCK_RECORD
   5
69
 100
AcDbSymbolTableRecord
 100
AcDbBlockTableRecord
   2
_OPEN90
   0
BLOCK_RECORD
   5
6A
 100
AcDbSymbolTableRecord
 100
AcDbBlockTableRecord
   2
_ORIGIN
   0
ENDTAB
   0
ENDSEC
  0
SECTION
  2
BLOCKS
  0
BLOCK
  5
19
100
AcDbEntity
  8
0
100
AcDbBlockBegin
  2
*MODEL_SPACE
 70
     0
 10
0.0
 20
0.0
 30
0.0
  3
*MODEL_SPACE
  1

  0
ENDBLK
  5
1A
100
AcDbEntity
  8
0
100
AcDbBlockEnd
  0
BLOCK
  5
16
100
AcDbEntity
 67
     1
  8
0
100
AcDbBlockBegin
  2
*PAPER_SPACE
 70
     0
 10
0.0
 20
0.0
 30
0.0
  3
*PAPER_SPACE
  1

  0
ENDBLK
  5
17
100
AcDbEntity
 67
     1
  8
0
100
AcDbBlockEnd
   0
BLOCK
   5
6B
 100
AcDbEntity
   8
0
 100
AcDbBlockBegin
   2
_ARCHTICK
  70
0
  10
0.0
  20
0.0
  30
0.0
   3
_ARCHTICK
   0
POLYLINE
   5
6C
 100
AcDbEntity
   8
0
   6
BYBLOCK
  62
0
 100
AcDb2dPolyline
  66
1
  10
0.0
  20
0.0
  30
0.0
  70
1
  40
 0.15000000000000
  41
 0.15000000000000
   0
VERTEX
   5
6D
 100
AcDbEntity
   8
0
   6
BYBLOCK
  62
0
 100
AcDbVertex
 100
AcDb2dVertex
  10
-0.50000000000000
  20
-0.50000000000000
  30
0.0
  40
 0.15000000000000
  41
 0.15000000000000
   0
VERTEX
   5
6E
 100
AcDbEntity
   8
0
   6
BYBLOCK
  62
0
 100
AcDbVertex
 100
AcDb2dVertex
  10
 0.50000000000000
  20
 0.50000000000000
  30
0.0
  40
 0.15000000000000
  41
 0.15000000000000
   0
SEQEND
   5
6F
 100
AcDbEntity
   8
0
   6
BYBLOCK
  62
0
   0
ENDBLK
   5
70
 100
AcDbEntity
   8
0
 100
AcDbBlockEnd
   0
BLOCK
   5
71
 100
AcDbEntity
   8
0
 100
AcDbBlockBegin
   2
_OBLIQUE
  70
0
  10
0.0
  20
0.0
  30
0.0
   3
_OBLIQUE
   0
LINE
   5
72
 100
AcDbEntity
   8
0
 100
AcDbLine
   6
BYBLOCK
  62
0
  10
-0.50000000000000
  20
-0.50000000000000
  30
0.0
  11
 0.50000000000000
  21
 0.50000000000000
  31
0.0
   0
ENDBLK
   5
73
 100
AcDbEntity
   8
0
 100
AcDbBlockEnd
   0
BLOCK
   5
74
 100
AcDbEntity
   8
0
 100
AcDbBlockBegin
   2
_BOXBLANK
  70
0
  10
0.0
  20
0.0
  30
0.0
   3
_BOXBLANK
   0
LINE
   5
75
 100
AcDbEntity
   8
0
 100
AcDbLine
   6
BYBLOCK
  62
0
  10
-0.50000000000000
  20
-0.50000000000000
  30
0.0
  11
 0.50000000000000
  21
-0.50000000000000
  31
0.0
   0
LINE
   5
76
 100
AcDbEntity
   8
0
 100
AcDbLine
   6
BYBLOCK
  62
0
  10
 0.50000000000000
  20
-0.50000000000000
  30
0.0
  11
 0.50000000000000
  21
 0.50000000000000
  31
0.0
   0
LINE
   5
77
 100
AcDbEntity
   8
0
 100
AcDbLine
   6
BYBLOCK
  62
0
  10
 0.50000000000000
  20
 0.50000000000000
  30
0.0
  11
-0.50000000000000
  21
 0.50000000000000
  31
0.0
   0
LINE
   5
78
 100
AcDbEntity
   8
0
 100
AcDbLine
   6
BYBLOCK
  62
0
  10
-0.50000000000000
  20
 0.50000000000000
  30
0.0
  11
-0.50000000000000
  21
-0.50000000000000
  31
0.0
   0
LINE
   5
79
 100
AcDbEntity
   8
0
 100
AcDbLine
   6
BYBLOCK
  62
0
  10
-0.50000000000000
  20
0.0
  30
0.0
  11
-1.0000000000000
  21
0.0
  31
0.0
   0
ENDBLK
   5
7A
 100
AcDbEntity
   8
0
 100
AcDbBlockEnd
   0
BLOCK
   5
7B
 100
AcDbEntity
   8
0
 100
AcDbBlockBegin
   2
_BOXFILLED
  70
0
  10
0.0
  20
0.0
  30
0.0
   3
_BOXFILLED
   0
SOLID
   5
7C
 100
AcDbEntity
   8
0
 100
AcDbTrace
   6
BYBLOCK
  62
0
  10
-0.50000000000000
  20
 0.50000000000000
  30
0.0
  11
 0.50000000000000
  21
 0.50000000000000
  31
0.0
  12
-0.50000000000000
  22
-0.50000000000000
  32
0.0
  13
 0.50000000000000
  23
-0.50000000000000
  33
0.0
   0
LINE
   5
7D
 100
AcDbEntity
   8
0
 100
AcDbLine
   6
BYBLOCK
  62
0
  10
-0.50000000000000
  20
0.0
  30
0.0
  11
-1.0000000000000
  21
0.0
  31
0.0
   0
ENDBLK
   5
7E
 100
AcDbEntity
   8
0
 100
AcDbBlockEnd
   0
BLOCK
   5
7F
 100
AcDbEntity
   8
0
 100
AcDbBlockBegin
   2
_CLOSED
  70
0
  10
0.0
  20
0.0
  30
0.0
   3
_CLOSED
   0
LINE
   5
80
 100
AcDbEntity
   8
0
 100
AcDbLine
   6
BYBLOCK
  62
0
  10
-1.0000000000000
  20
 0.16666666666667
  30
0.0
  11
0.0
  21
0.0
  31
0.0
   0
LINE
   5
81
 100
AcDbEntity
   8
0
 100
AcDbLine
   6
BYBLOCK
  62
0
  10
0.0
  20
0.0
  30
0.0
  11
-1.0000000000000
  21
-0.16666666666667
  31
0.0
   0
LINE
   5
82
 100
AcDbEntity
   8
0
 100
AcDbLine
   6
BYBLOCK
  62
0
  10
-1.0000000000000
  20
 0.16666666666667
  30
0.0
  11
-1.0000000000000
  21
-0.16666666666667
  31
0.0
   0
LINE
   5
83
 100
AcDbEntity
   8
0
 100
AcDbLine
   6
BYBLOCK
  62
0
  10
0.0
  20
0.0
  30
0.0
  11
-1.0000000000000
  21
0.0
  31
0.0
   0
ENDBLK
   5
84
 100
AcDbEntity
   8
0
 100
AcDbBlockEnd
   0
BLOCK
   5
85
 100
AcDbEntity
   8
0
 100
AcDbBlockBegin
   2
_OPEN
  70
0
  10
0.0
  20
0.0
  30
0.0
   3
_OPEN
   0
LINE
   5
86
 100
AcDbEntity
   8
0
 100
AcDbLine
   6
BYBLOCK
  62
0
  10
-1.0000000000000
  20
 0.16666666666667
  30
0.0
  11
0.0
  21
0.0
  31
0.0
   0
LINE
   5
87
 100
AcDbEntity
   8
0
 100
AcDbLine
   6
BYBLOCK
  62
0
  10
0.0
  20
0.0
  30
0.0
  11
-1.0000000000000
  21
-0.16666666666667
  31
0.0
   0
LINE
   5
88
 100
AcDbEntity
   8
0
 100
AcDbLine
   6
BYBLOCK
  62
0
  10
0.0
  20
0.0
  30
0.0
  11
-1.0000000000000
  21
0.0
  31
0.0
   0
ENDBLK
   5
89
 100
AcDbEntity
   8
0
 100
AcDbBlockEnd
   0
BLOCK
   5
8A
 100
AcDbEntity
   8
0
 100
AcDbBlockBegin
   2
_OPEN30
  70
0
  10
0.0
  20
0.0
  30
0.0
   3
_OPEN30
   0
LINE
   5
8B
 100
AcDbEntity
   8
0
 100
AcDbLine
   6
BYBLOCK
  62
0
  10
-1.0000000000000
  20
 0.26794919243110
  30
0.0
  11
0.0
  21
0.0
  31
0.0
   0
LINE
   5
8C
 100
AcDbEntity
   8
0
 100
AcDbLine
   6
BYBLOCK
  62
0
  10
0.0
  20
0.0
  30
0.0
  11
-1.0000000000000
  21
-0.26794919243110
  31
0.0
   0
LINE
   5
8D
 100
AcDbEntity
   8
0
 100
AcDbLine
   6
BYBLOCK
  62
0
  10
0.0
  20
0.0
  30
0.0
  11
-1.0000000000000
  21
0.0
  31
0.0
   0
ENDBLK
   5
8E
 100
AcDbEntity
   8
0
 100
AcDbBlockEnd
   0
BLOCK
   5
8F
 100
AcDbEntity
   8
0
 100
AcDbBlockBegin
   2
_OPEN90
  70
0
  10
0.0
  20
0.0
  30
0.0
   3
_OPEN90
   0
LINE
   5
90
 100
AcDbEntity
   8
0
 100
AcDbLine
   6
BYBLOCK
  62
0
  10
-0.50000000000000
  20
 0.50000000000000
  30
0.0
  11
0.0
  21
0.0
  31
0.0
   0
LINE
   5
91
 100
AcDbEntity
   8
0
 100
AcDbLine
   6
BYBLOCK
  62
0
  10
0.0
  20
0.0
  30
0.0
  11
-0.50000000000000
  21
-0.50000000000000
  31
0.0
   0
LINE
   5
92
 100
AcDbEntity
   8
0
 100
AcDbLine
   6
BYBLOCK
  62
0
  10
0.0
  20
0.0
  30
0.0
  11
-1.0000000000000
  21
0.0
  31
0.0
   0
ENDBLK
   5
93
 100
AcDbEntity
   8
0
 100
AcDbBlockEnd
   0
BLOCK
   5
94
 100
AcDbEntity
   8
0
 100
AcDbBlockBegin
   2
_CLOSEDBLANK
  70
0
  10
0.0
  20
0.0
  30
0.0
   3
_CLOSEDBLANK
   0
LINE
   5
95
 100
AcDbEntity
   8
0
 100
AcDbLine
   6
BYBLOCK
  62
0
  10
-1.0000000000000
  20
 0.16666666666667
  30
0.0
  11
0.0
  21
0.0
  31
0.0
   0
LINE
   5
96
 100
AcDbEntity
   8
0
 100
AcDbLine
   6
BYBLOCK
  62
0
  10
0.0
  20
0.0
  30
0.0
  11
-1.0000000000000
  21
-0.16666666666667
  31
0.0
   0
LINE
   5
97
 100
AcDbEntity
   8
0
 100
AcDbLine
   6
BYBLOCK
  62
0
  10
-1.0000000000000
  20
 0.16666666666667
  30
0.0
  11
-1.0000000000000
  21
-0.16666666666667
  31
0.0
   0
ENDBLK
   5
98
 100
AcDbEntity
   8
0
 100
AcDbBlockEnd
   0
BLOCK
   5
99
 100
AcDbEntity
   8
0
 100
AcDbBlockBegin
   2
_DOT
  70
0
  10
0.0
  20
0.0
  30
0.0
   3
_DOT
   0
POLYLINE
   5
9A
 100
AcDbEntity
   8
0
   6
BYBLOCK
  62
0
 100
AcDb2dPolyline
  66
1
  10
0.0
  20
0.0
  30
0.0
  70
1
  40
 0.50000000000000
  41
 0.50000000000000
   0
VERTEX
   5
9B
 100
AcDbEntity
   8
0
   6
BYBLOCK
  62
0
 100
AcDbVertex
 100
AcDb2dVertex
  10
-0.25000000000000
  20
0.0
  30
0.0
  42
 1.0000000000000
  40
 0.50000000000000
  41
 0.50000000000000
   0
VERTEX
   5
9C
 100
AcDbEntity
   8
0
   6
BYBLOCK
  62
0
 100
AcDbVertex
 100
AcDb2dVertex
  10
 0.25000000000000
  20
0.0
  30
0.0
  42
 1.0000000000000
  40
 0.50000000000000
  41
 0.50000000000000
   0
SEQEND
   5
9D
 100
AcDbEntity
   8
0
   6
BYBLOCK
  62
0
   0
LINE
   5
9E
 100
AcDbEntity
   8
0
 100
AcDbLine
   6
BYBLOCK
  62
0
  10
-0.50000000000000
  20
0.0
  30
0.0
  11
-1.0000000000000
  21
0.0
  31
0.0
   0
ENDBLK
   5
9F
 100
AcDbEntity
   8
0
 100
AcDbBlockEnd
   0
BLOCK
   5
A0
 100
AcDbEntity
   8
0
 100
AcDbBlockBegin
   2
_DOTSMALL
  70
0
  10
0.0
  20
0.0
  30
0.0
   3
_DOTSMALL
   0
POLYLINE
   5
A1
 100
AcDbEntity
   8
0
   6
BYBLOCK
  62
0
 100
AcDb2dPolyline
  66
1
  10
0.0
  20
0.0
  30
0.0
  70
1
  40
 0.50000000000000
  41
 0.50000000000000
   0
VERTEX
   5
A2
 100
AcDbEntity
   8
0
   6
BYBLOCK
  62
0
 100
AcDbVertex
 100
AcDb2dVertex
  10
-0.62500000000000E-1
  20
0.0
  30
0.0
  42
 1.0000000000000
  40
 0.50000000000000
  41
 0.50000000000000
   0
VERTEX
   5
A3
 100
AcDbEntity
   8
0
   6
BYBLOCK
  62
0
 100
AcDbVertex
 100
AcDb2dVertex
  10
 0.62500000000000E-1
  20
0.0
  30
0.0
  42
 1.0000000000000
  40
 0.50000000000000
  41
 0.50000000000000
   0
SEQEND
   5
A4
 100
AcDbEntity
   8
0
   6
BYBLOCK
  62
0
   0
ENDBLK
   5
A5
 100
AcDbEntity
   8
0
 100
AcDbBlockEnd
   0
BLOCK
   5
A6
 100
AcDbEntity
   8
0
 100
AcDbBlockBegin
   2
_DATUMBLANK
  70
0
  10
0.0
  20
0.0
  30
0.0
   3
_DATUMBLANK
   0
LINE
   5
A7
 100
AcDbEntity
   8
0
 100
AcDbLine
   6
BYBLOCK
  62
0
  10
0.0
  20
 0.57735027000000
  30
0.0
  11
-1.0000000000000
  21
0.0
  31
0.0
   0
LINE
   5
A8
 100
AcDbEntity
   8
0
 100
AcDbLine
   6
BYBLOCK
  62
0
  10
-1.0000000000000
  20
0.0
  30
0.0
  11
0.0
  21
-0.57735027000000
  31
0.0
   0
LINE
   5
A9
 100
AcDbEntity
   8
0
 100
AcDbLine
   6
BYBLOCK
  62
0
  10
0.0
  20
-0.57735027000000
  30
0.0
  11
0.0
  21
 0.57735027000000
  31
0.0
   0
ENDBLK
   5
AA
 100
AcDbEntity
   8
0
 100
AcDbBlockEnd
   0
BLOCK
   5
AB
 100
AcDbEntity
   8
0
 100
AcDbBlockBegin
   2
_DATUMFILLED
  70
0
  10
0.0
  20
0.0
  30
0.0
   3
_DATUMFILLED
   0
SOLID
   5
AC
 100
AcDbEntity
   8
0
 100
AcDbTrace
   6
BYBLOCK
  62
0
  10
0.0
  20
 0.57735027000000
  30
0.0
  11
-1.0000000000000
  21
0.0
  31
0.0
  12
0.0
  22
-0.57735027000000
  32
0.0
  13
0.0
  23
-0.57735027000000
  33
0.0
   0
ENDBLK
   5
AD
 100
AcDbEntity
   8
0
 100
AcDbBlockEnd
   0
BLOCK
   5
AE
 100
AcDbEntity
   8
0
 100
AcDbBlockBegin
   2
_ORIGIN
  70
0
  10
0.0
  20
0.0
  30
0.0
   3
_ORIGIN
   0
CIRCLE
   5
AF
 100
AcDbEntity
   8
0
 100
AcDbCircle
   6
BYBLOCK
  62
0
  10
0.0
  20
0.0
  30
0.0
  40
 0.50000000000000
   0
LINE
   5
B0
 100
AcDbEntity
   8
0
 100
AcDbLine
   6
BYBLOCK
  62
0
  10
0.0
  20
0.0
  30
0.0
  11
-1.0000000000000
  21
0.0
  31
0.0
   0
ENDBLK
   5
B1
 100
AcDbEntity
   8
0
 100
AcDbBlockEnd
   0
BLOCK
   5
B2
 100
AcDbEntity
   8
0
 100
AcDbBlockBegin
   2
_NONE
  70
0
  10
0.0
  20
0.0
  30
0.0
   3
_NONE
   0
CIRCLE
   5
B3
 100
AcDbEntity
   8
0
 100
AcDbCircle
   6
BYBLOCK
  62
0
  10
0.0
  20
0.0
  30
0.0
  40
 0.25000000000000
   0
ENDBLK
   5
B4
 100
AcDbEntity
   8
0
 100
AcDbBlockEnd
   0
BLOCK
   5
B5
 100
AcDbEntity
   8
0
 100
AcDbBlockBegin
   2
_DOTBLANK
  70
0
  10
0.0
  20
0.0
  30
0.0
   3
_DOTBLANK
   0
CIRCLE
   5
B6
 100
AcDbEntity
   8
0
 100
AcDbCircle
   6
BYBLOCK
  62
0
  10
0.0
  20
0.0
  30
0.0
  40
 0.50000000000000
   0
LINE
   5
B7
 100
AcDbEntity
   8
0
 100
AcDbLine
   6
BYBLOCK
  62
0
  10
-0.50000000000000
  20
0.0
  30
0.0
  11
-1.0000000000000
  21
0.0
  31
0.0
   0
ENDBLK
   5
B8
 100
AcDbEntity
   8
0
 100
AcDbBlockEnd
   0
BLOCK
   5
B9
 100
AcDbEntity
   8
0
 100
AcDbBlockBegin
   2
_INTEGRAL
  70
0
  10
0.0
  20
0.0
  30
0.0
   3
_INTEGRAL
   0
ARC
   5
BA
 100
AcDbEntity
   8
0
   6
BYBLOCK
  62
0
 100
AcDbCircle
  10
 0.44488800000000
  20
-0.91335000000000E-1
  30
0.0
  40
 0.45416700000000
 100
AcDbArc
  50
 102.00000000000
  51
 168.00000000000
   0
ARC
   5
BB
 100
AcDbEntity
   8
0
   6
BYBLOCK
  62
0
 100
AcDbCircle
  10
-0.44488800000000
  20
 0.91335000000000E-1
  30
0.0
  40
 0.45416700000000
 100
AcDbArc
  50
 282.00000000000
  51
 348.00000000000
   0
ENDBLK
   5
BC
 100
AcDbEntity
   8
0
 100
AcDbBlockEnd
   0
BLOCK
   5
BD
 100
AcDbEntity
   8
0
 100
AcDbBlockBegin
   2
*D1
  70
65
  10
0.0
  20
0.0
  30
0.0
   3
*D1
   0
LINE
   5
BE
 100
AcDbEntity
   8
LEVEL001
 100
AcDbLine
   6
CONTINUOUS
  62
3
  10
 154.68890872135
  20
 203.09908642010
  30
0.0
  11
 187.54282815745
  21
 203.09908642010
  31
0.0
   0
LINE
   5
BF
 100
AcDbEntity
   8
LEVEL001
 100
AcDbLine
   6
CONTINUOUS
  62
3
  10
 186.54282815745
  20
 194.09908642010
  30
0.0
  11
 186.54282815745
  21
 198.59908642010
  31
0.0
   0
LINE
   5
C0
 100
AcDbEntity
   8
LEVEL001
 100
AcDbLine
   6
CONTINUOUS
  62
3
  10
 186.54282815745
  20
 203.09908642010
  30
0.0
  11
 186.54282815745
  21
 198.59908642010
  31
0.0
   0
INSERT
   5
C1
 100
AcDbEntity
   8
LEVEL001
   6
CONTINUOUS
  62
3
 100
AcDbBlockReference
   2
_OPEN30
  10
 186.54282815745
  20
 194.09908642010
  30
0.0
  41
 3.0000000000000
  42
 3.0000000000000
  43
 3.0000000000000
  50
 270.00000000000
   0
INSERT
   5
C2
 100
AcDbEntity
   8
LEVEL001
   6
CONTINUOUS
  62
3
 100
AcDbBlockReference
   2
_OPEN30
  10
 186.54282815745
  20
 203.09908642010
  30
0.0
  41
 3.0000000000000
  42
 3.0000000000000
  43
 3.0000000000000
  50
 90.000000000000
   0
MTEXT
   5
C3
 100
AcDbEntity
   8
LEVEL001
  62
3
 100
AcDbMText
  10
 184.61425672888
  20
 198.59908642010
  30
0.0
  40
 4.5000000000000
  41
0.0
  71
8
  72
1
   1
\A1;9
   7
GMM001
  11
0.0
  21
 1.0000000000000
  31
0.0
   0
ENDBLK
   5
C4
 100
AcDbEntity
   8
0
 100
AcDbBlockEnd
   0
BLOCK
   5
C5
 100
AcDbEntity
   8
0
 100
AcDbBlockBegin
   2
*D2
  70
65
  10
0.0
  20
0.0
  30
0.0
   3
*D2
   0
LINE
   5
C6
 100
AcDbEntity
   8
LEVEL001
 100
AcDbLine
   6
CONTINUOUS
  62
3
  10
 154.68890872135
  20
 208.09908642010
  30
0.0
  11
 187.54282815745
  21
 208.09908642010
  31
0.0
   0
LINE
   5
C7
 100
AcDbEntity
   8
LEVEL001
 100
AcDbLine
   6
CONTINUOUS
  62
3
  10
 186.54282815745
  20
 199.34908642010
  30
0.0
  11
 186.54282815745
  21
 205.59908642010
  31
0.0
   0
LINE
   5
C8
 100
AcDbEntity
   8
LEVEL001
 100
AcDbLine
   6
CONTINUOUS
  62
3
  10
 186.54282815745
  20
 211.84908642010
  30
0.0
  11
 186.54282815745
  21
 205.59908642010
  31
0.0
   0
INSERT
   5
C9
 100
AcDbEntity
   8
LEVEL001
   6
CONTINUOUS
  62
3
 100
AcDbBlockReference
   2
_OPEN30
  10
 186.54282815745
  20
 203.09908642010
  30
0.0
  41
 3.0000000000000
  42
 3.0000000000000
  43
 3.0000000000000
  50
 90.000000000000
   0
INSERT
   5
CA
 100
AcDbEntity
   8
LEVEL001
   6
CONTINUOUS
  62
3
 100
AcDbBlockReference
   2
_OPEN30
  10
 186.54282815745
  20
 208.09908642010
  30
0.0
  41
 3.0000000000000
  42
 3.0000000000000
  43
 3.0000000000000
  50
 270.00000000000
   0
MTEXT
   5
CB
 100
AcDbEntity
   8
LEVEL001
  62
3
 100
AcDbMText
  10
 184.61425672888
  20
 205.59908642010
  30
0.0
  40
 4.5000000000000
  41
0.0
  71
8
  72
1
   1
\A1;5
   7
GMM001
  11
0.0
  21
 1.0000000000000
  31
0.0
   0
ENDBLK
   5
CC
 100
AcDbEntity
   8
0
 100
AcDbBlockEnd
   0
BLOCK
   5
CD
 100
AcDbEntity
   8
0
 100
AcDbBlockBegin
   2
*D3
  70
65
  10
0.0
  20
0.0
  30
0.0
   3
*D3
   0
LINE
   5
CE
 100
AcDbEntity
   8
LEVEL001
 100
AcDbLine
   6
CONTINUOUS
  62
3
  10
 173.83875816606
  20
 213.09908642010
  30
0.0
  11
 187.54282815745
  21
 213.09908642010
  31
0.0
   0
LINE
   5
CF
 100
AcDbEntity
   8
LEVEL001
 100
AcDbLine
   6
CONTINUOUS
  62
3
  10
 186.54282815745
  20
 204.34908642010
  30
0.0
  11
 186.54282815745
  21
 210.59908642010
  31
0.0
   0
LINE
   5
D0
 100
AcDbEntity
   8
LEVEL001
 100
AcDbLine
   6
CONTINUOUS
  62
3
  10
 186.54282815745
  20
 216.84908642010
  30
0.0
  11
 186.54282815745
  21
 210.59908642010
  31
0.0
   0
INSERT
   5
D1
 100
AcDbEntity
   8
LEVEL001
   6
CONTINUOUS
  62
3
 100
AcDbBlockReference
   2
_OPEN30
  10
 186.54282815745
  20
 208.09908642010
  30
0.0
  41
 3.0000000000000
  42
 3.0000000000000
  43
 3.0000000000000
  50
 90.000000000000
   0
INSERT
   5
D2
 100
AcDbEntity
   8
LEVEL001
   6
CONTINUOUS
  62
3
 100
AcDbBlockReference
   2
_OPEN30
  10
 186.54282815745
  20
 213.09908642010
  30
0.0
  41
 3.0000000000000
  42
 3.0000000000000
  43
 3.0000000000000
  50
 270.00000000000
   0
MTEXT
   5
D3
 100
AcDbEntity
   8
LEVEL001
  62
3
 100
AcDbMText
  10
 184.61425672888
  20
 210.59908642010
  30
0.0
  40
 4.5000000000000
  41
0.0
  71
8
  72
1
   1
\A1;5
   7
GMM001
  11
0.0
  21
 1.0000000000000
  31
0.0
   0
ENDBLK
   5
D4
 100
AcDbEntity
   8
0
 100
AcDbBlockEnd
   0
BLOCK
   5
D5
 100
AcDbEntity
   8
0
 100
AcDbBlockBegin
   2
*D4
  70
65
  10
0.0
  20
0.0
  30
0.0
   3
*D4
   0
LINE
   5
D6
 100
AcDbEntity
   8
LEVEL001
 100
AcDbLine
   6
CONTINUOUS
  62
3
  10
 173.83875816606
  20
 183.09908642010
  30
0.0
  11
 187.54282815745
  21
 183.09908642010
  31
0.0
   0
LINE
   5
D7
 100
AcDbEntity
   8
LEVEL001
 100
AcDbLine
   6
CONTINUOUS
  62
3
  10
 162.97345285240
  20
 194.09908642010
  30
0.0
  11
 187.54282815745
  21
 194.09908642010
  31
0.0
   0
LINE
   5
D8
 100
AcDbEntity
   8
LEVEL001
 100
AcDbLine
   6
CONTINUOUS
  62
3
  10
 186.54282815745
  20
 183.09908642010
  30
0.0
  11
 186.54282815745
  21
 188.59908642010
  31
0.0
   0
LINE
   5
D9
 100
AcDbEntity
   8
LEVEL001
 100
AcDbLine
   6
CONTINUOUS
  62
3
  10
 186.54282815745
  20
 194.09908642010
  30
0.0
  11
 186.54282815745
  21
 188.59908642010
  31
0.0
   0
INSERT
   5
DA
 100
AcDbEntity
   8
LEVEL001
   6
CONTINUOUS
  62
3
 100
AcDbBlockReference
   2
_OPEN30
  10
 186.54282815745
  20
 183.09908642010
  30
0.0
  41
 3.0000000000000
  42
 3.0000000000000
  43
 3.0000000000000
  50
 270.00000000000
   0
INSERT
   5
DB
 100
AcDbEntity
   8
LEVEL001
   6
CONTINUOUS
  62
3
 100
AcDbBlockReference
   2
_OPEN30
  10
 186.54282815745
  20
 194.09908642010
  30
0.0
  41
 3.0000000000000
  42
 3.0000000000000
  43
 3.0000000000000
  50
 90.000000000000
   0
MTEXT
   5
DC
 100
AcDbEntity
   8
LEVEL001
  62
3
 100
AcDbMText
  10
 184.61425672888
  20
 188.59908642010
  30
0.0
  40
 4.5000000000000
  41
0.0
  71
8
  72
1
   1
\A1;11
   7
GMM001
  11
0.0
  21
 1.0000000000000
  31
0.0
   0
ENDBLK
   5
DD
 100
AcDbEntity
   8
0
 100
AcDbBlockEnd
   0
BLOCK
   5
DE
 100
AcDbEntity
   8
0
 100
AcDbBlockBegin
   2
*D5
  70
65
  10
0.0
  20
0.0
  30
0.0
   3
*D5
   0
LINE
   5
DF
 100
AcDbEntity
   8
LEVEL001
 100
AcDbLine
   6
CONTINUOUS
  62
3
  10
 129.33875816606
  20
 189.09908642010
  30
0.0
  11
 127.28205097303
  21
 186.91506363585
  31
0.0
   0
LINE
   5
E0
 100
AcDbEntity
   8
LEVEL001
 100
AcDbLine
   6
CONTINUOUS
  62
3
  10
 127.28205097303
  20
 186.91506363585
  30
0.0
  11
 117.99915044367
  21
 177.05752711891
  31
0.0
   0
INSERT
   5
E1
 100
AcDbEntity
   8
LEVEL001
   6
CONTINUOUS
  62
3
 100
AcDbBlockReference
   2
_OPEN30
  10
 125.22534377999
  20
 184.73104085160
  30
0.0
  41
 3.0000000000000
  42
 3.0000000000000
  43
 3.0000000000000
  50
 46.719622717754
   0
MTEXT
   5
E2
 100
AcDbEntity
   8
LEVEL001
  62
3
 100
AcDbMText
  10
 122.07968831142
  20
 184.20375678671
  30
0.0
  40
 4.5000000000000
  41
0.0
  71
9
  72
1
   1
\A1;R6
   7
GMM001
  11
 0.68556906434549
  21
 0.72800759474916
  31
0.0
   0
ENDBLK
   5
E3
 100
AcDbEntity
   8
0
 100
AcDbBlockEnd
   0
BLOCK
   5
E4
 100
AcDbEntity
   8
0
 100
AcDbBlockBegin
   2
*D6
  70
65
  10
0.0
  20
0.0
  30
0.0
   3
*D6
   0
LINE
   5
E5
 100
AcDbEntity
   8
LEVEL001
 100
AcDbLine
   6
CONTINUOUS
  62
3
  10
 135.33875816606
  20
 185.09908642010
  30
0.0
  11
 134.67973603981
  21
 184.34696286834
  31
0.0
   0
LINE
   5
E6
 100
AcDbEntity
   8
LEVEL001
 100
AcDbLine
   6
CONTINUOUS
  62
3
  10
 134.67973603981
  20
 184.34696286834
  30
0.0
  11
 124.61159544832
  21
 172.85647512957
  31
0.0
   0
INSERT
   5
E7
 100
AcDbEntity
   8
LEVEL001
   6
CONTINUOUS
  62
3
 100
AcDbBlockReference
   2
_OPEN30
  10
 134.02071391356
  20
 183.59483931658
  30
0.0
  41
 3.0000000000000
  42
 3.0000000000000
  43
 3.0000000000000
  50
 48.774662840969
   0
MTEXT
   5
E8
 100
AcDbEntity
   8
LEVEL001
  62
3
 100
AcDbMText
  10
 128.43324846566
  20
 180.14443478712
  30
0.0
  40
 4.5000000000000
  41
0.0
  71
9
  72
1
   1
\A1;R2
   7
GMM001
  11
 0.65902212625213
  21
 0.75212355175870
  31
0.0
   0
ENDBLK
   5
E9
 100
AcDbEntity
   8
0
 100
AcDbBlockEnd
   0
BLOCK
   5
EA
 100
AcDbEntity
   8
0
 100
AcDbBlockBegin
   2
*D7
  70
65
  10
0.0
  20
0.0
  30
0.0
   3
*D7
   0
POLYLINE
   5
EB
 100
AcDbEntity
   8
LEVEL001
   6
CONTINUOUS
  62
3
 100
AcDb2dPolyline
  66
1
  10
0.0
  20
0.0
  30
0.0
  70
0
   0
VERTEX
   5
EC
 100
AcDbEntity
   8
LEVEL001
   6
CONTINUOUS
  62
3
 100
AcDbVertex
 100
AcDb2dVertex
  10
 156.33875816606
  20
 194.09908642010
  30
0.0
   0
VERTEX
   5
ED
 100
AcDbEntity
   8
LEVEL001
   6
CONTINUOUS
  62
3
 100
AcDbVertex
 100
AcDb2dVertex
  10
 170.65789807920
  20
 219.61185526640
  30
0.0
   0
VERTEX
   5
EE
 100
AcDbEntity
   8
LEVEL001
   6
CONTINUOUS
  62
3
 100
AcDbVertex
 100
AcDb2dVertex
  10
 216.65789807920
  20
 219.61185526640
  30
0.0
   0
SEQEND
   5
EF
 100
AcDbEntity
   8
LEVEL001
   6
CONTINUOUS
  62
3
   0
INSERT
   5
F0
 100
AcDbEntity
   8
LEVEL001
   6
CONTINUOUS
  62
3
 100
AcDbBlockReference
   2
_OPEN30
  10
 156.33875816606
  20
 194.09908642010
  30
0.0
  41
 3.0000000000000
  42
 3.0000000000000
  43
 3.0000000000000
  50
 240.69651295888
   0
MTEXT
   5
F1
 100
AcDbEntity
   8
LEVEL001
  62
3
 100
AcDbMText
  10
 170.65789807920
  20
 221.54042669497
  30
0.0
  40
 4.5000000000000
  41
0.0
  71
7
  72
1
   1
\A1;２－%%c４.５穴 %%c８.３皿
   7
GMM001
   0
ENDBLK
   5
F2
 100
AcDbEntity
   8
0
 100
AcDbBlockEnd
   0
BLOCK
   5
F3
 100
AcDbEntity
   8
0
 100
AcDbBlockBegin
   2
*D8
  70
65
  10
0.0
  20
0.0
  30
0.0
   3
*D8
   0
POLYLINE
   5
F4
 100
AcDbEntity
   8
LEVEL001
   6
CONTINUOUS
  62
3
 100
AcDb2dPolyline
  66
1
  10
0.0
  20
0.0
  30
0.0
  70
0
   0
VERTEX
   5
F5
 100
AcDbEntity
   8
LEVEL001
   6
CONTINUOUS
  62
3
 100
AcDbVertex
 100
AcDb2dVertex
  10
 148.33875816606
  20
 205.67372249034
  30
0.0
   0
VERTEX
   5
F6
 100
AcDbEntity
   8
LEVEL001
   6
CONTINUOUS
  62
3
 100
AcDbVertex
 100
AcDb2dVertex
  10
 160.04394368309
  20
 228.29514127267
  30
0.0
   0
VERTEX
   5
F7
 100
AcDbEntity
   8
LEVEL001
   6
CONTINUOUS
  62
3
 100
AcDbVertex
 100
AcDb2dVertex
  10
 206.04394368309
  20
 228.29514127267
  30
0.0
   0
SEQEND
   5
F8
 100
AcDbEntity
   8
LEVEL001
   6
CONTINUOUS
  62
3
   0
INSERT
   5
F9
 100
AcDbEntity
   8
LEVEL001
   6
CONTINUOUS
  62
3
 100
AcDbBlockReference
   2
_OPEN30
  10
 148.33875816606
  20
 205.67372249034
  30
0.0
  41
 3.0000000000000
  42
 3.0000000000000
  43
 3.0000000000000
  50
 242.64122956520
   0
MTEXT
   5
FA
 100
AcDbEntity
   8
LEVEL001
  62
3
 100
AcDbMText
  10
 160.04394368309
  20
 230.22371270124
  30
0.0
  40
 4.5000000000000
  41
0.0
  71
7
  72
1
   1
\A1;%%c４.５長穴 %%c８.３長皿
   7
GMM001
   0
ENDBLK
   5
FB
 100
AcDbEntity
   8
0
 100
AcDbBlockEnd
   0
BLOCK
   5
FC
 100
AcDbEntity
   8
0
 100
AcDbBlockBegin
   2
*D9
  70
65
  10
0.0
  20
0.0
  30
0.0
   3
*D9
   0
LINE
   5
FD
 100
AcDbEntity
   8
LEVEL001
 100
AcDbLine
   6
CONTINUOUS
  62
3
  10
 188.04282815745
  20
 213.09908642010
  30
0.0
  11
 198.23658487709
  21
 213.09908642010
  31
0.0
   0
LINE
   5
FE
 100
AcDbEntity
   8
LEVEL001
 100
AcDbLine
   6
CONTINUOUS
  62
3
  10
 188.04282815745
  20
 183.09908642010
  30
0.0
  11
 198.23658487709
  21
 183.09908642010
  31
0.0
   0
LINE
   5
FF
 100
AcDbEntity
   8
LEVEL001
 100
AcDbLine
   6
CONTINUOUS
  62
3
  10
 197.23658487709
  20
 213.09908642010
  30
0.0
  11
 197.23658487709
  21
 198.09908642010
  31
0.0
   0
LINE
   5
100
 100
AcDbEntity
   8
LEVEL001
 100
AcDbLine
   6
CONTINUOUS
  62
3
  10
 197.23658487709
  20
 183.09908642010
  30
0.0
  11
 197.23658487709
  21
 198.09908642010
  31
0.0
   0
INSERT
   5
101
 100
AcDbEntity
   8
LEVEL001
   6
CONTINUOUS
  62
3
 100
AcDbBlockReference
   2
_OPEN30
  10
 197.23658487709
  20
 213.09908642010
  30
0.0
  41
 3.0000000000000
  42
 3.0000000000000
  43
 3.0000000000000
  50
 90.000000000000
   0
INSERT
   5
102
 100
AcDbEntity
   8
LEVEL001
   6
CONTINUOUS
  62
3
 100
AcDbBlockReference
   2
_OPEN30
  10
 197.23658487709
  20
 183.09908642010
  30
0.0
  41
 3.0000000000000
  42
 3.0000000000000
  43
 3.0000000000000
  50
 270.00000000000
   0
MTEXT
   5
103
 100
AcDbEntity
   8
LEVEL001
  62
3
 100
AcDbMText
  10
 195.30801344852
  20
 198.09908642010
  30
0.0
  40
 4.5000000000000
  41
0.0
  71
8
  72
1
   1
\A1;30
   7
GMM001
  11
0.0
  21
 1.0000000000000
  31
0.0
   0
ENDBLK
   5
104
 100
AcDbEntity
   8
0
 100
AcDbBlockEnd
   0
BLOCK
   5
105
 100
AcDbEntity
   8
0
 100
AcDbBlockBegin
   2
*D10
  70
65
  10
0.0
  20
0.0
  30
0.0
   3
*D10
   0
LINE
   5
106
 100
AcDbEntity
   8
LEVEL001
 100
AcDbLine
   6
CONTINUOUS
  62
3
  10
 159.53875816606
  20
 181.09908642010
  30
0.0
  11
 198.23658487709
  21
 181.09908642010
  31
0.0
   0
LINE
   5
107
 100
AcDbEntity
   8
LEVEL001
 100
AcDbLine
   6
CONTINUOUS
  62
3
  10
 188.04282815745
  20
 183.09908642010
  30
0.0
  11
 198.23658487709
  21
 183.09908642010
  31
0.0
   0
LINE
   5
108
 100
AcDbEntity
   8
LEVEL001
 100
AcDbLine
   6
CONTINUOUS
  62
3
  10
 197.23658487709
  20
 173.44963639619
  30
0.0
  11
 197.23658487709
  21
 182.09908642010
  31
0.0
   0
LINE
   5
109
 100
AcDbEntity
   8
LEVEL001
 100
AcDbLine
   6
CONTINUOUS
  62
3
  10
 197.23658487709
  20
 186.84908642010
  30
0.0
  11
 197.23658487709
  21
 182.09908642010
  31
0.0
   0
INSERT
   5
10A
 100
AcDbEntity
   8
LEVEL001
   6
CONTINUOUS
  62
3
 100
AcDbBlockReference
   2
_OPEN30
  10
 197.23658487709
  20
 181.09908642010
  30
0.0
  41
 3.0000000000000
  42
 3.0000000000000
  43
 3.0000000000000
  50
 90.000000000000
   0
INSERT
   5
10B
 100
AcDbEntity
   8
LEVEL001
   6
CONTINUOUS
  62
3
 100
AcDbBlockReference
   2
_OPEN30
  10
 197.23658487709
  20
 183.09908642010
  30
0.0
  41
 3.0000000000000
  42
 3.0000000000000
  43
 3.0000000000000
  50
 270.00000000000
   0
MTEXT
   5
10C
 100
AcDbEntity
   8
LEVEL001
  62
3
 100
AcDbMText
  10
 195.30801344852
  20
 175.44963639619
  30
0.0
  40
 4.5000000000000
  41
0.0
  71
8
  72
1
   1
\A1;2
   7
GMM001
  11
0.0
  21
 1.0000000000000
  31
0.0
   0
ENDBLK
   5
10D
 100
AcDbEntity
   8
0
 100
AcDbBlockEnd
   0
BLOCK
   5
10E
 100
AcDbEntity
   8
0
 100
AcDbBlockBegin
   2
*D11
  70
65
  10
0.0
  20
0.0
  30
0.0
   3
*D11
   0
LINE
   5
10F
 100
AcDbEntity
   8
LEVEL001
 100
AcDbLine
   6
CONTINUOUS
  62
3
  10
 133.33875816606
  20
 135.89893802617
  30
0.0
  11
 133.33875816606
  21
 146.31322561632
  31
0.0
   0
LINE
   5
110
 100
AcDbEntity
   8
LEVEL001
 100
AcDbLine
   6
CONTINUOUS
  62
3
  10
 163.33875816606
  20
 135.89893802617
  30
0.0
  11
 163.33875816606
  21
 146.31322561632
  31
0.0
   0
LINE
   5
111
 100
AcDbEntity
   8
LEVEL001
 100
AcDbLine
   6
CONTINUOUS
  62
3
  10
 133.33875816606
  20
 145.31322561632
  30
0.0
  11
 148.33875816606
  21
 145.31322561632
  31
0.0
   0
LINE
   5
112
 100
AcDbEntity
   8
LEVEL001
 100
AcDbLine
   6
CONTINUOUS
  62
3
  10
 163.33875816606
  20
 145.31322561632
  30
0.0
  11
 148.33875816606
  21
 145.31322561632
  31
0.0
   0
INSERT
   5
113
 100
AcDbEntity
   8
LEVEL001
   6
CONTINUOUS
  62
3
 100
AcDbBlockReference
   2
_OPEN30
  10
 133.33875816606
  20
 145.31322561632
  30
0.0
  41
 3.0000000000000
  42
 3.0000000000000
  43
 3.0000000000000
  50
 180.00000000000
   0
INSERT
   5
114
 100
AcDbEntity
   8
LEVEL001
   6
CONTINUOUS
  62
3
 100
AcDbBlockReference
   2
_OPEN30
  10
 163.33875816606
  20
 145.31322561632
  30
0.0
  41
 3.0000000000000
  42
 3.0000000000000
  43
 3.0000000000000
  50
0.0
   0
MTEXT
   5
115
 100
AcDbEntity
   8
LEVEL001
  62
3
 100
AcDbMText
  10
 148.33875816606
  20
 147.24179704489
  30
0.0
  40
 4.5000000000000
  41
0.0
  71
8
  72
1
   1
\A1;30
   7
GMM001
   0
ENDBLK
   5
116
 100
AcDbEntity
   8
0
 100
AcDbBlockEnd
   0
BLOCK
   5
117
 100
AcDbEntity
   8
0
 100
AcDbBlockBegin
   2
*D12
  70
65
  10
0.0
  20
0.0
  30
0.0
   3
*D12
   0
LINE
   5
118
 100
AcDbEntity
   8
LEVEL001
 100
AcDbLine
   6
CONTINUOUS
  62
3
  10
 173.83875816606
  20
 118.39893802617
  30
0.0
  11
 187.54282815745
  21
 118.39893802617
  31
0.0
   0
LINE
   5
119
 100
AcDbEntity
   8
LEVEL001
 100
AcDbLine
   6
CONTINUOUS
  62
3
  10
 173.83875816606
  20
 123.39893802617
  30
0.0
  11
 187.54282815745
  21
 123.39893802617
  31
0.0
   0
LINE
   5
11A
 100
AcDbEntity
   8
LEVEL001
 100
AcDbLine
   6
CONTINUOUS
  62
3
  10
 186.54282815745
  20
 114.64893802617
  30
0.0
  11
 186.54282815745
  21
 120.89893802617
  31
0.0
   0
LINE
   5
11B
 100
AcDbEntity
   8
LEVEL001
 100
AcDbLine
   6
CONTINUOUS
  62
3
  10
 186.54282815745
  20
 127.14893802617
  30
0.0
  11
 186.54282815745
  21
 120.89893802617
  31
0.0
   0
INSERT
   5
11C
 100
AcDbEntity
   8
LEVEL001
   6
CONTINUOUS
  62
3
 100
AcDbBlockReference
   2
_OPEN30
  10
 186.54282815745
  20
 118.39893802617
  30
0.0
  41
 3.0000000000000
  42
 3.0000000000000
  43
 3.0000000000000
  50
 90.000000000000
   0
INSERT
   5
11D
 100
AcDbEntity
   8
LEVEL001
   6
CONTINUOUS
  62
3
 100
AcDbBlockReference
   2
_OPEN30
  10
 186.54282815745
  20
 123.39893802617
  30
0.0
  41
 3.0000000000000
  42
 3.0000000000000
  43
 3.0000000000000
  50
 270.00000000000
   0
MTEXT
   5
11E
 100
AcDbEntity
   8
LEVEL001
  62
3
 100
AcDbMText
  10
 184.61425672888
  20
 120.89893802617
  30
0.0
  40
 4.5000000000000
  41
0.0
  71
8
  72
1
   1
\A1;5
   7
GMM001
  11
0.0
  21
 1.0000000000000
  31
0.0
   0
ENDBLK
   5
11F
 100
AcDbEntity
   8
0
 100
AcDbBlockEnd
   0
BLOCK
   5
120
 100
AcDbEntity
   8
0
 100
AcDbBlockBegin
   2
*D13
  70
65
  10
0.0
  20
0.0
  30
0.0
   3
*D13
   0
LINE
   5
121
 100
AcDbEntity
   8
LEVEL001
 100
AcDbLine
   6
CONTINUOUS
  62
3
  10
 163.83875816606
  20
 135.39893802617
  30
0.0
  11
 187.54282815745
  21
 135.39893802617
  31
0.0
   0
LINE
   5
122
 100
AcDbEntity
   8
LEVEL001
 100
AcDbLine
   6
CONTINUOUS
  62
3
  10
 186.54282815745
  20
 123.39893802617
  30
0.0
  11
 186.54282815745
  21
 129.39893802617
  31
0.0
   0
LINE
   5
123
 100
AcDbEntity
   8
LEVEL001
 100
AcDbLine
   6
CONTINUOUS
  62
3
  10
 186.54282815745
  20
 135.39893802617
  30
0.0
  11
 186.54282815745
  21
 129.39893802617
  31
0.0
   0
INSERT
   5
124
 100
AcDbEntity
   8
LEVEL001
   6
CONTINUOUS
  62
3
 100
AcDbBlockReference
   2
_OPEN30
  10
 186.54282815745
  20
 123.39893802617
  30
0.0
  41
 3.0000000000000
  42
 3.0000000000000
  43
 3.0000000000000
  50
 270.00000000000
   0
INSERT
   5
125
 100
AcDbEntity
   8
LEVEL001
   6
CONTINUOUS
  62
3
 100
AcDbBlockReference
   2
_OPEN30
  10
 186.54282815745
  20
 135.39893802617
  30
0.0
  41
 3.0000000000000
  42
 3.0000000000000
  43
 3.0000000000000
  50
 90.000000000000
   0
MTEXT
   5
126
 100
AcDbEntity
   8
LEVEL001
  62
3
 100
AcDbMText
  10
 184.61425672888
  20
 129.39893802617
  30
0.0
  40
 4.5000000000000
  41
0.0
  71
8
  72
1
   1
\A1;12
   7
GMM001
  11
0.0
  21
 1.0000000000000
  31
0.0
   0
ENDBLK
   5
127
 100
AcDbEntity
   8
0
 100
AcDbBlockEnd
   0
BLOCK
   5
128
 100
AcDbEntity
   8
0
 100
AcDbBlockBegin
   2
*D14
  70
65
  10
0.0
  20
0.0
  30
0.0
   3
*D14
   0
LINE
   5
129
 100
AcDbEntity
   8
LEVEL001
 100
AcDbLine
   6
CONTINUOUS
  62
3
  10
 129.33875816606
  20
 121.22663841508
  30
0.0
  11
 126.69872231964
  21
 122.65149304964
  31
0.0
   0
LINE
   5
12A
 100
AcDbEntity
   8
LEVEL001
 100
AcDbLine
   6
CONTINUOUS
  62
3
  10
 126.69872231964
  20
 122.65149304964
  30
0.0
  11
 112.22216749375
  21
 130.46463932345
  31
0.0
   0
INSERT
   5
12B
 100
AcDbEntity
   8
LEVEL001
   6
CONTINUOUS
  62
3
 100
AcDbBlockReference
   2
_OPEN30
  10
 124.05868647323
  20
 124.07634768420
  30
0.0
  41
 3.0000000000000
  42
 3.0000000000000
  43
 3.0000000000000
  50
 331.64380483427
   0
MTEXT
   5
12C
 100
AcDbEntity
   8
LEVEL001
  62
3
 100
AcDbMText
  10
 120.17824106356
  20
 128.36219286588
  30
0.0
  40
 4.5000000000000
  41
0.0
  71
9
  72
1
   1
\A1;R6
   7
GMM001
  11
 0.88001194880583
  21
-0.47495154485376
  31
0.0
   0
ENDBLK
   5
12D
 100
AcDbEntity
   8
0
 100
AcDbBlockEnd
   0
BLOCK
   5
12E
 100
AcDbEntity
   8
0
 100
AcDbBlockBegin
   2
*D15
  70
65
  10
0.0
  20
0.0
  30
0.0
   3
*D15
   0
LINE
   5
12F
 100
AcDbEntity
   8
LEVEL001
 100
AcDbLine
   6
CONTINUOUS
  62
3
  10
 134.27550805803
  20
 133.39893802617
  30
0.0
  11
 133.53474511233
  21
 134.07070454683
  31
0.0
   0
LINE
   5
130
 100
AcDbEntity
   8
LEVEL001
 100
AcDbLine
   6
CONTINUOUS
  62
3
  10
 133.53474511233
  20
 134.07070454683
  30
0.0
  11
 124.12141121379
  21
 142.60725810638
  31
0.0
   0
INSERT
   5
131
 100
AcDbEntity
   8
LEVEL001
   6
CONTINUOUS
  62
3
 100
AcDbBlockReference
   2
_OPEN30
  10
 132.79398216664
  20
 134.74247106749
  30
0.0
  41
 3.0000000000000
  42
 3.0000000000000
  43
 3.0000000000000
  50
 317.79644744927
   0
MTEXT
   5
132
 100
AcDbEntity
   8
LEVEL001
  62
3
 100
AcDbMText
  10
 131.34306449778
  20
 138.66174019349
  30
0.0
  40
 4.5000000000000
  41
0.0
  71
9
  72
1
   1
\A1;R2
   7
GMM001
  11
 0.74076294569616
  21
-0.67176652066291
  31
0.0
   0
ENDBLK
   5
133
 100
AcDbEntity
   8
0
 100
AcDbBlockEnd
   0
BLOCK
   5
134
 100
AcDbEntity
   8
0
 100
AcDbBlockBegin
   2
*D16
  70
65
  10
0.0
  20
0.0
  30
0.0
   3
*D16
   0
LINE
   5
135
 100
AcDbEntity
   8
LEVEL001
 100
AcDbLine
   6
CONTINUOUS
  62
3
  10
 188.04282815745
  20
 135.39893802617
  30
0.0
  11
 198.23658487709
  21
 135.39893802617
  31
0.0
   0
LINE
   5
136
 100
AcDbEntity
   8
LEVEL001
 100
AcDbLine
   6
CONTINUOUS
  62
3
  10
 188.04282815745
  20
 118.39893802617
  30
0.0
  11
 198.23658487709
  21
 118.39893802617
  31
0.0
   0
LINE
   5
137
 100
AcDbEntity
   8
LEVEL001
 100
AcDbLine
   6
CONTINUOUS
  62
3
  10
 197.23658487709
  20
 135.39893802617
  30
0.0
  11
 197.23658487709
  21
 126.89893802617
  31
0.0
   0
LINE
   5
138
 100
AcDbEntity
   8
LEVEL001
 100
AcDbLine
   6
CONTINUOUS
  62
3
  10
 197.23658487709
  20
 118.39893802617
  30
0.0
  11
 197.23658487709
  21
 126.89893802617
  31
0.0
   0
INSERT
   5
139
 100
AcDbEntity
   8
LEVEL001
   6
CONTINUOUS
  62
3
 100
AcDbBlockReference
   2
_OPEN30
  10
 197.23658487709
  20
 135.39893802617
  30
0.0
  41
 3.0000000000000
  42
 3.0000000000000
  43
 3.0000000000000
  50
 90.000000000000
   0
INSERT
   5
13A
 100
AcDbEntity
   8
LEVEL001
   6
CONTINUOUS
  62
3
 100
AcDbBlockReference
   2
_OPEN30
  10
 197.23658487709
  20
 118.39893802617
  30
0.0
  41
 3.0000000000000
  42
 3.0000000000000
  43
 3.0000000000000
  50
 270.00000000000
   0
MTEXT
   5
13B
 100
AcDbEntity
   8
LEVEL001
  62
3
 100
AcDbMText
  10
 195.30801344852
  20
 126.89893802617
  30
0.0
  40
 4.5000000000000
  41
0.0
  71
8
  72
1
   1
\A1;17
   7
GMM001
  11
0.0
  21
 1.0000000000000
  31
0.0
   0
ENDBLK
   5
13C
 100
AcDbEntity
   8
0
 100
AcDbBlockEnd
   0
BLOCK
   5
13D
 100
AcDbEntity
   8
0
 100
AcDbBlockBegin
   2
*D17
  70
65
  10
0.0
  20
0.0
  30
0.0
   3
*D17
   0
LINE
   5
13E
 100
AcDbEntity
   8
LEVEL001
 100
AcDbLine
   6
CONTINUOUS
  62
3
  10
 137.63875816606
  20
 125.09893802617
  30
0.0
  11
 137.63875816606
  21
 102.03073719805
  31
0.0
   0
LINE
   5
13F
 100
AcDbEntity
   8
LEVEL001
 100
AcDbLine
   6
CONTINUOUS
  62
3
  10
 159.03875816606
  20
 125.09893802617
  30
0.0
  11
 159.03875816606
  21
 102.03073719805
  31
0.0
   0
LINE
   5
140
 100
AcDbEntity
   8
LEVEL001
 100
AcDbLine
   6
CONTINUOUS
  62
3
  10
 137.63875816606
  20
 103.03073719805
  30
0.0
  11
 148.33875816606
  21
 103.03073719805
  31
0.0
   0
LINE
   5
141
 100
AcDbEntity
   8
LEVEL001
 100
AcDbLine
   6
CONTINUOUS
  62
3
  10
 159.03875816606
  20
 103.03073719805
  30
0.0
  11
 148.33875816606
  21
 103.03073719805
  31
0.0
   0
INSERT
   5
142
 100
AcDbEntity
   8
LEVEL001
   6
CONTINUOUS
  62
3
 100
AcDbBlockReference
   2
_OPEN30
  10
 137.63875816606
  20
 103.03073719805
  30
0.0
  41
 3.0000000000000
  42
 3.0000000000000
  43
 3.0000000000000
  50
 180.00000000000
   0
INSERT
   5
143
 100
AcDbEntity
   8
LEVEL001
   6
CONTINUOUS
  62
3
 100
AcDbBlockReference
   2
_OPEN30
  10
 159.03875816606
  20
 103.03073719805
  30
0.0
  41
 3.0000000000000
  42
 3.0000000000000
  43
 3.0000000000000
  50
0.0
   0
MTEXT
   5
144
 100
AcDbEntity
   8
LEVEL001
  62
3
 100
AcDbMText
  10
 148.33875816606
  20
 104.95930862662
  30
0.0
  40
 4.5000000000000
  41
0.0
  71
8
  72
1
   1
\A1;21.4
   7
GMM001
   0
ENDBLK
   5
145
 100
AcDbEntity
   8
0
 100
AcDbBlockEnd
   0
BLOCK
   5
146
 100
AcDbEntity
   8
0
 100
AcDbBlockBegin
   2
*D18
  70
65
  10
0.0
  20
0.0
  30
0.0
   3
*D18
   0
LINE
   5
147
 100
AcDbEntity
   8
LEVEL001
 100
AcDbLine
   6
CONTINUOUS
  62
3
  10
 143.33875816606
  20
 202.17578325072
  30
0.0
  11
 140.40914039851
  21
 206.22761490271
  31
0.0
   0
LINE
   5
148
 100
AcDbEntity
   8
LEVEL001
 100
AcDbLine
   6
CONTINUOUS
  62
3
  10
 140.40914039851
  20
 206.22761490271
  30
0.0
  11
 127.34904770679
  21
 224.29048219286
  31
0.0
   0
INSERT
   5
149
 100
AcDbEntity
   8
LEVEL001
   6
CONTINUOUS
  62
3
 100
AcDbBlockReference
   2
_OPEN30
  10
 137.47952263096
  20
 210.27944655469
  30
0.0
  41
 3.0000000000000
  42
 3.0000000000000
  43
 3.0000000000000
  50
 305.86826165949
   0
MTEXT
   5
14A
 100
AcDbEntity
   8
LEVEL001
  62
3
 100
AcDbMText
  10
 135.94297970040
  20
 215.69608165272
  30
0.0
  40
 4.5000000000000
  41
0.0
  71
9
  72
1
   1
\A1;R10
   7
GMM001
  11
 0.58592355351066
  21
-0.81036633039721
  31
0.0
   0
ENDBLK
   5
14B
 100
AcDbEntity
   8
0
 100
AcDbBlockEnd
   0
BLOCK
   5
14C
 100
AcDbEntity
   8
0
 100
AcDbBlockBegin
   2
*D19
  70
65
  10
0.0
  20
0.0
  30
0.0
   3
*D19
   0
LINE
   5
14D
 100
AcDbEntity
   8
LEVEL001
 100
AcDbLine
   6
CONTINUOUS
  62
3
  10
 133.33875816606
  20
 203.09908642010
  30
0.0
  11
 129.79095123795
  21
 206.62230455142
  31
0.0
   0
LINE
   5
14E
 100
AcDbEntity
   8
LEVEL001
 100
AcDbLine
   6
CONTINUOUS
  62
3
  10
 129.79095123795
  20
 206.62230455142
  30
0.0
  11
 116.72213641343
  21
 219.60054329936
  31
0.0
   0
INSERT
   5
14F
 100
AcDbEntity
   8
LEVEL001
   6
CONTINUOUS
  62
3
 100
AcDbBlockReference
   2
_OPEN30
  10
 126.24314430984
  20
 210.14552268274
  30
0.0
  41
 3.0000000000000
  42
 3.0000000000000
  43
 3.0000000000000
  50
 315.19923965605
   0
MTEXT
   5
150
 100
AcDbEntity
   8
LEVEL001
  62
3
 100
AcDbMText
  10
 126.59582860583
  20
 212.51325959932
  30
0.0
  40
 4.5000000000000
  41
0.0
  71
9
  72
1
   1
\A1;R10
   7
GMM001
  11
 0.70956138562201
  21
-0.70464362626379
  31
0.0
   0
ENDBLK
   5
151
 100
AcDbEntity
   8
0
 100
AcDbBlockEnd
   0
BLOCK
   5
152
 100
AcDbEntity
   8
0
 100
AcDbBlockBegin
   2
*D20
  70
65
  10
0.0
  20
0.0
  30
0.0
   3
*D20
   0
LINE
   5
153
 100
AcDbEntity
   8
LEVEL001
 100
AcDbLine
   6
CONTINUOUS
  62
3
  10
 222.57135586479
  20
 133.39893802617
  30
0.0
  11
 210.51832605277
  21
 133.39893802617
  31
0.0
   0
LINE
   5
154
 100
AcDbEntity
   8
LEVEL001
 100
AcDbLine
   6
CONTINUOUS
  62
3
  10
 211.51832605277
  20
 125.59893802617
  30
0.0
  11
 211.51832605277
  21
 129.49893802617
  31
0.0
   0
LINE
   5
155
 100
AcDbEntity
   8
LEVEL001
 100
AcDbLine
   6
CONTINUOUS
  62
3
  10
 211.51832605277
  20
 133.39893802617
  30
0.0
  11
 211.51832605277
  21
 129.49893802617
  31
0.0
   0
INSERT
   5
156
 100
AcDbEntity
   8
LEVEL001
   6
CONTINUOUS
  62
3
 100
AcDbBlockReference
   2
_OPEN30
  10
 211.51832605277
  20
 125.59893802617
  30
0.0
  41
 3.0000000000000
  42
 3.0000000000000
  43
 3.0000000000000
  50
 270.00000000000
   0
INSERT
   5
157
 100
AcDbEntity
   8
LEVEL001
   6
CONTINUOUS
  62
3
 100
AcDbBlockReference
   2
_OPEN30
  10
 211.51832605277
  20
 133.39893802617
  30
0.0
  41
 3.0000000000000
  42
 3.0000000000000
  43
 3.0000000000000
  50
 90.000000000000
   0
MTEXT
   5
158
 100
AcDbEntity
   8
LEVEL001
  62
3
 100
AcDbMText
  10
 209.58975462420
  20
 129.49893802617
  30
0.0
  40
 4.5000000000000
  41
0.0
  71
8
  72
1
   1
\A1;7.8
   7
GMM001
  11
0.0
  21
 1.0000000000000
  31
0.0
   0
ENDBLK
   5
159
 100
AcDbEntity
   8
0
 100
AcDbBlockEnd
   0
BLOCK
   5
15A
 100
AcDbEntity
   8
0
 100
AcDbBlockBegin
   2
*D21
  70
65
  10
0.0
  20
0.0
  30
0.0
   3
*D21
   0
LINE
   5
15B
 100
AcDbEntity
   8
LEVEL001
 100
AcDbLine
   6
CONTINUOUS
  62
3
  10
 222.57135586479
  20
 135.39893802617
  30
0.0
  11
 210.51832605277
  21
 135.39893802617
  31
0.0
   0
LINE
   5
15C
 100
AcDbEntity
   8
LEVEL001
 100
AcDbLine
   6
CONTINUOUS
  62
3
  10
 211.51832605277
  20
 129.64893802617
  30
0.0
  11
 211.51832605277
  21
 134.39893802617
  31
0.0
   0
LINE
   5
15D
 100
AcDbEntity
   8
LEVEL001
 100
AcDbLine
   6
CONTINUOUS
  62
3
  10
 211.51832605277
  20
 140.72047509905
  30
0.0
  11
 211.51832605277
  21
 134.39893802617
  31
0.0
   0
INSERT
   5
15E
 100
AcDbEntity
   8
LEVEL001
   6
CONTINUOUS
  62
3
 100
AcDbBlockReference
   2
_OPEN30
  10
 211.51832605277
  20
 133.39893802617
  30
0.0
  41
 3.0000000000000
  42
 3.0000000000000
  43
 3.0000000000000
  50
 90.000000000000
   0
INSERT
   5
15F
 100
AcDbEntity
   8
LEVEL001
   6
CONTINUOUS
  62
3
 100
AcDbBlockReference
   2
_OPEN30
  10
 211.51832605277
  20
 135.39893802617
  30
0.0
  41
 3.0000000000000
  42
 3.0000000000000
  43
 3.0000000000000
  50
 270.00000000000
   0
MTEXT
   5
160
 100
AcDbEntity
   8
LEVEL001
  62
3
 100
AcDbMText
  10
 209.35527434039
  20
 136.72047509905
  30
0.0
  40
 4.5000000000000
  41
0.0
  71
7
  72
1
   1
\A1;2
   7
GMM001
  11
0.0
  21
 1.0000000000000
  31
0.0
   0
ENDBLK
   5
161
 100
AcDbEntity
   8
0
 100
AcDbBlockEnd
   0
BLOCK
   5
162
 100
AcDbEntity
   8
0
 100
AcDbBlockBegin
   2
*D22
  70
65
  10
0.0
  20
0.0
  30
0.0
   3
*D22
   0
LINE
   5
163
 100
AcDbEntity
   8
LEVEL001
 100
AcDbLine
   6
CONTINUOUS
  62
3
  10
 222.57135586479
  20
 118.39893802617
  30
0.0
  11
 210.51832605277
  21
 118.39893802617
  31
0.0
   0
LINE
   5
164
 100
AcDbEntity
   8
LEVEL001
 100
AcDbLine
   6
CONTINUOUS
  62
3
  10
 222.57135586479
  20
 125.59893802617
  30
0.0
  11
 210.51832605277
  21
 125.59893802617
  31
0.0
   0
LINE
   5
165
 100
AcDbEntity
   8
LEVEL001
 100
AcDbLine
   6
CONTINUOUS
  62
3
  10
 211.51832605277
  20
 106.64353151467
  30
0.0
  11
 211.51832605277
  21
 121.99893802617
  31
0.0
   0
LINE
   5
166
 100
AcDbEntity
   8
LEVEL001
 100
AcDbLine
   6
CONTINUOUS
  62
3
  10
 211.51832605277
  20
 125.59893802617
  30
0.0
  11
 211.51832605277
  21
 121.99893802617
  31
0.0
   0
INSERT
   5
167
 100
AcDbEntity
   8
LEVEL001
   6
CONTINUOUS
  62
3
 100
AcDbBlockReference
   2
_OPEN30
  10
 211.51832605277
  20
 118.39893802617
  30
0.0
  41
 3.0000000000000
  42
 3.0000000000000
  43
 3.0000000000000
  50
 270.00000000000
   0
INSERT
   5
168
 100
AcDbEntity
   8
LEVEL001
   6
CONTINUOUS
  62
3
 100
AcDbBlockReference
   2
_OPEN30
  10
 211.51832605277
  20
 125.59893802617
  30
0.0
  41
 3.0000000000000
  42
 3.0000000000000
  43
 3.0000000000000
  50
 90.000000000000
   0
MTEXT
   5
169
 100
AcDbEntity
   8
LEVEL001
  62
3
 100
AcDbMText
  10
 209.70999065813
  20
 116.64353151467
  30
0.0
  40
 4.5000000000000
  41
0.0
  71
9
  72
1
   1
\A1;7.2
   7
GMM001
  11
0.0
  21
 1.0000000000000
  31
0.0
   0
ENDBLK
   5
16A
 100
AcDbEntity
   8
0
 100
AcDbBlockEnd
   0
BLOCK
   5
16B
 100
AcDbEntity
   8
0
 100
AcDbBlockBegin
   2
*D23
  70
65
  10
0.0
  20
0.0
  30
0.0
   3
*D23
   0
LINE
   5
16C
 100
AcDbEntity
   8
LEVEL001
 100
AcDbLine
   6
CONTINUOUS
  62
3
  10
 251.07135586479
  20
 133.39893802617
  30
0.0
  11
 251.65120155627
  21
 134.21366434468
  31
0.0
   0
LINE
   5
16D
 100
AcDbEntity
   8
LEVEL001
 100
AcDbLine
   6
CONTINUOUS
  62
3
  10
 251.65120155627
  20
 134.21366434468
  30
0.0
  11
 258.25685175413
  21
 143.49509412204
  31
0.0
   0
INSERT
   5
16E
 100
AcDbEntity
   8
LEVEL001
   6
CONTINUOUS
  62
3
 100
AcDbBlockReference
   2
_OPEN30
  10
 252.23104724774
  20
 135.02839066320
  30
0.0
  41
 3.0000000000000
  42
 3.0000000000000
  43
 3.0000000000000
  50
 234.56030986824
   0
MTEXT
   5
16F
 100
AcDbEntity
   8
LEVEL001
  62
3
 100
AcDbMText
  10
 252.04682832236
  20
 138.09555740747
  30
0.0
  40
 4.5000000000000
  41
0.0
  71
7
  72
1
   1
\A1;R2
   7
GMM001
  11
 0.57984569147209
  21
 0.81472631851515
  31
0.0
   0
ENDBLK
   5
170
 100
AcDbEntity
   8
0
 100
AcDbBlockEnd
   0
BLOCK
   5
171
 100
AcDbEntity
   8
0
 100
AcDbBlockBegin
   2
*D24
  70
65
  10
0.0
  20
0.0
  30
0.0
   3
*D24
   0
LINE
   5
172
 100
AcDbEntity
   8
LEVEL001
 100
AcDbLine
   6
CONTINUOUS
  62
3
  10
 123.33875816606
  20
 123.89893802617
  30
0.0
  11
 123.33875816606
  21
 155.46556671449
  31
0.0
   0
LINE
   5
173
 100
AcDbEntity
   8
LEVEL001
 100
AcDbLine
   6
CONTINUOUS
  62
3
  10
 173.33875816606
  20
 123.89893802617
  30
0.0
  11
 173.33875816606
  21
 155.46556671449
  31
0.0
   0
LINE
   5
174
 100
AcDbEntity
   8
LEVEL001
 100
AcDbLine
   6
CONTINUOUS
  62
3
  10
 123.33875816606
  20
 154.46556671449
  30
0.0
  11
 148.33875816606
  21
 154.46556671449
  31
0.0
   0
LINE
   5
175
 100
AcDbEntity
   8
LEVEL001
 100
AcDbLine
   6
CONTINUOUS
  62
3
  10
 173.33875816606
  20
 154.46556671449
  30
0.0
  11
 148.33875816606
  21
 154.46556671449
  31
0.0
   0
INSERT
   5
176
 100
AcDbEntity
   8
LEVEL001
   6
CONTINUOUS
  62
3
 100
AcDbBlockReference
   2
_OPEN30
  10
 123.33875816606
  20
 154.46556671449
  30
0.0
  41
 3.0000000000000
  42
 3.0000000000000
  43
 3.0000000000000
  50
 180.00000000000
   0
INSERT
   5
177
 100
AcDbEntity
   8
LEVEL001
   6
CONTINUOUS
  62
3
 100
AcDbBlockReference
   2
_OPEN30
  10
 173.33875816606
  20
 154.46556671449
  30
0.0
  41
 3.0000000000000
  42
 3.0000000000000
  43
 3.0000000000000
  50
0.0
   0
MTEXT
   5
178
 100
AcDbEntity
   8
LEVEL001
  62
3
 100
AcDbMText
  10
 148.33875816606
  20
 156.39413814306
  30
0.0
  40
 4.5000000000000
  41
0.0
  71
8
  72
1
   1
\A1;50
   7
GMM001
   0
ENDBLK
   5
179
 100
AcDbEntity
   8
0
 100
AcDbBlockEnd
   0
BLOCK
   5
17A
 100
AcDbEntity
   8
0
 100
AcDbBlockBegin
   2
*D25
  70
65
  10
0.0
  20
0.0
  30
0.0
   3
*D25
   0
LINE
   5
17B
 100
AcDbEntity
   8
LEVEL001
 100
AcDbLine
   6
CONTINUOUS
  62
3
  10
 134.33875816606
  20
 117.89893802617
  30
0.0
  11
 134.33875816606
  21
 92.484218077475
  31
0.0
   0
LINE
   5
17C
 100
AcDbEntity
   8
LEVEL001
 100
AcDbLine
   6
CONTINUOUS
  62
3
  10
 162.33875816606
  20
 117.89893802617
  30
0.0
  11
 162.33875816606
  21
 92.484218077475
  31
0.0
   0
LINE
   5
17D
 100
AcDbEntity
   8
LEVEL001
 100
AcDbLine
   6
CONTINUOUS
  62
3
  10
 134.33875816606
  20
 93.484218077475
  30
0.0
  11
 148.33875816606
  21
 93.484218077475
  31
0.0
   0
LINE
   5
17E
 100
AcDbEntity
   8
LEVEL001
 100
AcDbLine
   6
CONTINUOUS
  62
3
  10
 162.33875816606
  20
 93.484218077475
  30
0.0
  11
 148.33875816606
  21
 93.484218077475
  31
0.0
   0
INSERT
   5
17F
 100
AcDbEntity
   8
LEVEL001
   6
CONTINUOUS
  62
3
 100
AcDbBlockReference
   2
_OPEN30
  10
 134.33875816606
  20
 93.484218077475
  30
0.0
  41
 3.0000000000000
  42
 3.0000000000000
  43
 3.0000000000000
  50
 180.00000000000
   0
INSERT
   5
180
 100
AcDbEntity
   8
LEVEL001
   6
CONTINUOUS
  62
3
 100
AcDbBlockReference
   2
_OPEN30
  10
 162.33875816606
  20
 93.484218077475
  30
0.0
  41
 3.0000000000000
  42
 3.0000000000000
  43
 3.0000000000000
  50
0.0
   0
MTEXT
   5
181
 100
AcDbEntity
   8
LEVEL001
  62
3
 100
AcDbMText
  10
 148.33875816606
  20
 95.412789506046
  30
0.0
  40
 4.5000000000000
  41
0.0
  71
8
  72
1
   1
\A1;28
   7
GMM001
   0
ENDBLK
   5
182
 100
AcDbEntity
   8
0
 100
AcDbBlockEnd
   0
BLOCK
   5
183
 100
AcDbEntity
   8
0
 100
AcDbBlockBegin
   2
*D26
  70
65
  10
0.0
  20
0.0
  30
0.0
   3
*D26
   0
LINE
   5
184
 100
AcDbEntity
   8
LEVEL001
 100
AcDbLine
   6
CONTINUOUS
  62
3
  10
 156.33875816606
  20
 188.11564907457
  30
0.0
  11
 156.33875816606
  21
 164.82855093257
  31
0.0
   0
LINE
   5
185
 100
AcDbEntity
   8
LEVEL001
 100
AcDbLine
   6
CONTINUOUS
  62
3
  10
 140.33875816606
  20
 188.11564907457
  30
0.0
  11
 140.33875816606
  21
 164.82855093257
  31
0.0
   0
LINE
   5
186
 100
AcDbEntity
   8
LEVEL001
 100
AcDbLine
   6
CONTINUOUS
  62
3
  10
 156.33875816606
  20
 165.82855093257
  30
0.0
  11
 148.33875816606
  21
 165.82855093257
  31
0.0
   0
LINE
   5
187
 100
AcDbEntity
   8
LEVEL001
 100
AcDbLine
   6
CONTINUOUS
  62
3
  10
 140.33875816606
  20
 165.82855093257
  30
0.0
  11
 148.33875816606
  21
 165.82855093257
  31
0.0
   0
INSERT
   5
188
 100
AcDbEntity
   8
LEVEL001
   6
CONTINUOUS
  62
3
 100
AcDbBlockReference
   2
_OPEN30
  10
 156.33875816606
  20
 165.82855093257
  30
0.0
  41
 3.0000000000000
  42
 3.0000000000000
  43
 3.0000000000000
  50
0.0
   0
INSERT
   5
189
 100
AcDbEntity
   8
LEVEL001
   6
CONTINUOUS
  62
3
 100
AcDbBlockReference
   2
_OPEN30
  10
 140.33875816606
  20
 165.82855093257
  30
0.0
  41
 3.0000000000000
  42
 3.0000000000000
  43
 3.0000000000000
  50
 180.00000000000
   0
MTEXT
   5
18A
 100
AcDbEntity
   8
LEVEL001
  62
3
 100
AcDbMText
  10
 148.33875816606
  20
 167.75712236114
  30
0.0
  40
 4.5000000000000
  41
0.0
  71
8
  72
1
   1
\A1;16
   7
GMM001
   0
ENDBLK
   5
18B
 100
AcDbEntity
   8
0
 100
AcDbBlockEnd
   0
ENDSEC
   0
SECTION
   2
ENTITIES
   0
LINE
   5
18C
 100
AcDbEntity
   8
LEVEL001
 100
AcDbLine
   6
DASHDOT
  62
3
  10
 142.83362326702
  20
 208.09908642010
  30
0.0
  11
 154.18890872135
  21
 208.09908642010
  31
0.0
   0
LINE
   5
18D
 100
AcDbEntity
   8
LEVEL001
 100
AcDbLine
   6
CONTINUOUS
  62
7
  10
 146.08875816606
  20
 203.09908642010
  30
0.0
  11
 146.08875816606
  21
 208.09908642010
  31
0.0
   0
LINE
   5
18E
 100
AcDbEntity
   8
LEVEL001
 100
AcDbLine
   6
CONTINUOUS
  62
7
  10
 150.58875816606
  20
 203.09908642010
  30
0.0
  11
 150.58875816606
  21
 208.09908642010
  31
0.0
   0
ARC
   5
18F
 100
AcDbEntity
   8
LEVEL001
   6
CONTINUOUS
  62
7
 100
AcDbCircle
  10
 148.33875816606
  20
 203.09908642010
  30
0.0
  40
 2.2500000000000
 100
AcDbArc
  50
 180.00000000000
  51
0.0
   0
ARC
   5
190
 100
AcDbEntity
   8
LEVEL001
   6
CONTINUOUS
  62
7
 100
AcDbCircle
  10
 148.33875816606
  20
 208.09908642010
  30
0.0
  40
 2.2500000000000
 100
AcDbArc
  50
0.0
  51
 180.00000000000
   0
POINT
   5
191
 100
AcDbEntity
   8
LEVEL001
 100
AcDbPoint
  62
7
  10
 123.33875816606
  20
 213.09908642010
  30
0.0
   0
ARC
   5
192
 100
AcDbEntity
   8
LEVEL001
   6
CONTINUOUS
  62
7
 100
AcDbCircle
  10
 129.33875816606
  20
 189.09908642010
  30
0.0
  40
 6.0000000000000
 100
AcDbArc
  50
 180.00000000000
  51
 270.00000000000
   0
POINT
   5
193
 100
AcDbEntity
   8
LEVEL001
 100
AcDbPoint
  62
7
  10
 123.33875816606
  20
 183.09908642010
  30
0.0
   0
LINE
   5
194
 100
AcDbEntity
   8
LEVEL001
 100
AcDbLine
   6
CONTINUOUS
  62
7
  10
 123.33875816606
  20
 203.09908642010
  30
0.0
  11
 123.33875816606
  21
 189.09908642010
  31
0.0
   0
POINT
   5
195
 100
AcDbEntity
   8
LEVEL001
 100
AcDbPoint
  62
7
  10
 173.33875816606
  20
 213.09908642010
  30
0.0
   0
ARC
   5
196
 100
AcDbEntity
   8
LEVEL001
   6
CONTINUOUS
  62
7
 100
AcDbCircle
  10
 167.33875816606
  20
 189.09908642010
  30
0.0
  40
 6.0000000000000
 100
AcDbArc
  50
 270.00000000000
  51
0.0
   0
POINT
   5
197
 100
AcDbEntity
   8
LEVEL001
 100
AcDbPoint
  62
7
  10
 173.33875816606
  20
 183.09908642010
  30
0.0
   0
LINE
   5
198
 100
AcDbEntity
   8
LEVEL001
 100
AcDbLine
   6
CONTINUOUS
  62
7
  10
 173.33875816606
  20
 189.09908642010
  30
0.0
  11
 173.33875816606
  21
 203.09908642010
  31
0.0
   0
LINE
   5
199
 100
AcDbEntity
   8
LEVEL001
 100
AcDbLine
   6
CONTINUOUS
  62
7
  10
 133.33875816606
  20
 213.09908642010
  30
0.0
  11
 163.33875816606
  21
 213.09908642010
  31
0.0
   0
LINE
   5
19A
 100
AcDbEntity
   8
LEVEL001
 100
AcDbLine
   6
DASHDOT
  62
3
  10
 148.33875816606
  20
 178.16522194725
  30
0.0
  11
 148.33875816606
  21
 218.35476485157
  31
0.0
   0
CIRCLE
   5
19B
 100
AcDbEntity
   8
LEVEL001
 100
AcDbCircle
   6
CONTINUOUS
  62
7
  10
 140.33875816606
  20
 194.09908642010
  30
0.0
  40
 4.1500000000000
   0
LINE
   5
19C
 100
AcDbEntity
   8
LEVEL001
 100
AcDbLine
   6
DASHDOT
  62
3
  10
 140.33875816606
  20
 188.61564907457
  30
0.0
  11
 140.33875816606
  21
 199.77372060305
  31
0.0
   0
CIRCLE
   5
19D
 100
AcDbEntity
   8
LEVEL001
 100
AcDbCircle
   6
CONTINUOUS
  62
7
  10
 140.33875816606
  20
 194.09908642010
  30
0.0
  40
 2.2500000000000
   0
CIRCLE
   5
19E
 100
AcDbEntity
   8
LEVEL001
 100
AcDbCircle
   6
CONTINUOUS
  62
7
  10
 156.33875816606
  20
 194.09908642010
  30
0.0
  40
 4.1500000000000
   0
LINE
   5
19F
 100
AcDbEntity
   8
LEVEL001
 100
AcDbLine
   6
DASHDOT
  62
3
  10
 156.33875816606
  20
 188.61564907457
  30
0.0
  11
 156.33875816606
  21
 199.77372060305
  31
0.0
   0
CIRCLE
   5
1A0
 100
AcDbEntity
   8
LEVEL001
 100
AcDbCircle
   6
CONTINUOUS
  62
7
  10
 156.33875816606
  20
 194.09908642010
  30
0.0
  40
 2.2500000000000
   0
ARC
   5
1A1
 100
AcDbEntity
   8
LEVEL001
   6
CONTINUOUS
  62
7
 100
AcDbCircle
  10
 133.33875816606
  20
 203.09908642010
  30
0.0
  40
 10.000000000000
 100
AcDbArc
  50
 90.000000000001
  51
 180.00000000000
   0
ARC
   5
1A2
 100
AcDbEntity
   8
LEVEL001
   6
CONTINUOUS
  62
7
 100
AcDbCircle
  10
 163.33875816606
  20
 203.09908642010
  30
0.0
  40
 10.000000000000
 100
AcDbArc
  50
0.0
  51
 90.000000000000
   0
ARC
   5
1A3
 100
AcDbEntity
   8
LEVEL001
   6
CONTINUOUS
  62
7
 100
AcDbCircle
  10
 135.33875816606
  20
 185.09908642010
  30
0.0
  40
 2.0000000000000
 100
AcDbArc
  50
 180.00000000000
  51
 269.99999999997
   0
POINT
   5
1A4
 100
AcDbEntity
   8
LEVEL001
 100
AcDbPoint
  62
7
  10
 133.33875816606
  20
 183.09908642010
  30
0.0
   0
ARC
   5
1A5
 100
AcDbEntity
   8
LEVEL001
   6
CONTINUOUS
  62
7
 100
AcDbCircle
  10
 161.33875816606
  20
 185.09908642010
  30
0.0
  40
 2.0000000000000
 100
AcDbArc
  50
 269.99999999999
  51
0.0
   0
POINT
   5
1A6
 100
AcDbEntity
   8
LEVEL001
 100
AcDbPoint
  62
7
  10
 163.33875816606
  20
 183.09908642010
  30
0.0
   0
LINE
   5
1A7
 100
AcDbEntity
   8
LEVEL001
 100
AcDbLine
   6
CONTINUOUS
  62
7
  10
 133.33875816606
  20
 185.09908642010
  30
0.0
  11
 133.33875816606
  21
 202.17578325072
  31
0.0
   0
ARC
   5
1A8
 100
AcDbEntity
   8
LEVEL001
   6
CONTINUOUS
  62
7
 100
AcDbCircle
  10
 143.33875816606
  20
 202.17578325072
  30
0.0
  40
 10.000000000000
 100
AcDbArc
  50
 110.92483242764
  51
 180.00000000000
   0
LINE
   5
1A9
 100
AcDbEntity
   8
LEVEL001
 100
AcDbLine
   6
CONTINUOUS
  62
7
  10
 163.33875816606
  20
 185.09908642010
  30
0.0
  11
 163.33875816606
  21
 202.17578325072
  31
0.0
   0
ARC
   5
1AA
 100
AcDbEntity
   8
LEVEL001
   6
CONTINUOUS
  62
7
 100
AcDbCircle
  10
 153.33875816606
  20
 202.17578325072
  30
0.0
  40
 10.000000000000
 100
AcDbArc
  50
0.0
  51
 69.075167572361
   0
ARC
   5
1AB
 100
AcDbEntity
   8
LEVEL001
   6
CONTINUOUS
  62
7
 100
AcDbCircle
  10
 148.33875816606
  20
 189.09908642010
  30
0.0
  40
 24.000000000000
 100
AcDbArc
  50
 69.075167572362
  51
 110.92483242764
   0
LINE
   5
1AC
 100
AcDbEntity
   8
LEVEL001
 100
AcDbLine
   6
DASHDOT
  62
3
  10
 134.61294335676
  20
 194.09908642010
  30
0.0
  11
 162.47345285240
  21
 194.09908642010
  31
0.0
   0
LINE
   5
1AD
 100
AcDbEntity
   8
LEVEL001
 100
AcDbLine
   6
CONTINUOUS
  62
7
  10
 129.33875816606
  20
 183.09908642010
  30
0.0
  11
 167.33875816606
  21
 183.09908642010
  31
0.0
   0
ARC
   5
1AE
 100
AcDbEntity
   8
LEVEL001
   6
CONTINUOUS
  62
7
 100
AcDbCircle
  10
 148.33875816606
  20
 203.09908642010
  30
0.0
  40
 4.1500000000000
 100
AcDbArc
  50
 180.00000000000
  51
0.0
   0
LINE
   5
1AF
 100
AcDbEntity
   8
LEVEL001
 100
AcDbLine
   6
CONTINUOUS
  62
7
  10
 144.18875816606
  20
 208.09908642010
  30
0.0
  11
 144.18875816606
  21
 203.09908642010
  31
0.0
   0
ARC
   5
1B0
 100
AcDbEntity
   8
LEVEL001
   6
CONTINUOUS
  62
7
 100
AcDbCircle
  10
 148.33875816606
  20
 208.09908642010
  30
0.0
  40
 4.1500000000000
 100
AcDbArc
  50
0.0
  51
 180.00000000000
   0
LINE
   5
1B1
 100
AcDbEntity
   8
LEVEL001
 100
AcDbLine
   6
CONTINUOUS
  62
7
  10
 152.48875816606
  20
 203.09908642010
  30
0.0
  11
 152.48875816606
  21
 208.09908642010
  31
0.0
   0
LINE
   5
1B2
 100
AcDbEntity
   8
LEVEL001
 100
AcDbLine
   6
DASHDOT
  62
3
  10
 142.83362326702
  20
 203.09908642010
  30
0.0
  11
 154.18890872135
  21
 203.09908642010
  31
0.0
   0
DIMENSION
   5
1B3
 100
AcDbEntity
   8
LEVEL001
   6
CONTINUOUS
  62
3
 100
AcDbDimension
   2
*D1
  10
 186.54282815745
  20
 203.09908642010
  30
0.0
  11
 186.54282815745
  21
 198.59908642010
  31
0.0
  70
0
   3
GMM001
 100
AcDbAlignedDimension
  13
 186.54282815745
  23
 194.09908642010
  33
0.0
  14
 154.18890872135
  24
 203.09908642010
  34
0.0
  50
 90.000000000000
 100
AcDbRotatedDimension
   0
DIMENSION
   5
1B4
 100
AcDbEntity
   8
LEVEL001
   6
CONTINUOUS
  62
3
 100
AcDbDimension
   2
*D2
  10
 186.54282815745
  20
 208.09908642010
  30
0.0
  11
 186.54282815745
  21
 205.59908642010
  31
0.0
  70
0
   3
GMM001
 100
AcDbAlignedDimension
  13
 186.54282815745
  23
 203.09908642010
  33
0.0
  14
 154.18890872135
  24
 208.09908642010
  34
0.0
  50
 90.000000000000
 100
AcDbRotatedDimension
   0
DIMENSION
   5
1B5
 100
AcDbEntity
   8
LEVEL001
   6
CONTINUOUS
  62
3
 100
AcDbDimension
   2
*D3
  10
 186.54282815745
  20
 213.09908642010
  30
0.0
  11
 186.54282815745
  21
 210.59908642010
  31
0.0
  70
0
   3
GMM001
 100
AcDbAlignedDimension
  13
 186.54282815745
  23
 208.09908642010
  33
0.0
  14
 173.33875816606
  24
 213.09908642010
  34
0.0
  50
 90.000000000000
 100
AcDbRotatedDimension
   0
DIMENSION
   5
1B6
 100
AcDbEntity
   8
LEVEL001
   6
CONTINUOUS
  62
3
 100
AcDbDimension
   2
*D4
  10
 186.54282815745
  20
 194.09908642010
  30
0.0
  11
 186.54282815745
  21
 188.59908642010
  31
0.0
  70
0
   3
GMM001
 100
AcDbAlignedDimension
  13
 173.33875816606
  23
 183.09908642010
  33
0.0
  14
 162.47345285240
  24
 194.09908642010
  34
0.0
  50
 90.000000000000
 100
AcDbRotatedDimension
   0
POLYLINE
   5
1B7
 100
AcDbEntity
   8
LEVEL001
   6
CONTINUOUS
  62
3
 100
AcDb2dPolyline
  66
1
  10
0.0
  20
0.0
  30
0.0
  70
0
   0
VERTEX
   5
1B8
 100
AcDbEntity
   8
LEVEL001
   6
CONTINUOUS
  62
3
 100
AcDbVertex
 100
AcDb2dVertex
  10
 144.39463958817
  20
 215.82155074454
  30
0.0
   0
VERTEX
   5
1B9
 100
AcDbEntity
   8
LEVEL001
   6
CONTINUOUS
  62
3
 100
AcDbVertex
 100
AcDb2dVertex
  10
 144.12941961567
  20
 212.72706705680
  30
0.0
   0
VERTEX
   5
1BA
 100
AcDbEntity
   8
LEVEL001
   6
CONTINUOUS
  62
3
 100
AcDbVertex
 100
AcDb2dVertex
  10
 142.81186500558
  20
 215.53957852823
  30
0.0
   0
SEQEND
   5
1BB
 100
AcDbEntity
   8
LEVEL001
   6
CONTINUOUS
  62
3
   0
DIMENSION
   5
1BC
 100
AcDbEntity
   8
LEVEL001
   6
CONTINUOUS
  62
3
 100
AcDbDimension
   2
*D5
  10
 129.33875816606
  20
 189.09908642010
  30
0.0
  11
 123.48370295844
  21
 182.88158787691
  31
0.0
  70
132
   3
GMM002
 100
AcDbRadialDimension
  15
 125.22534377999
  25
 184.73104085160
  35
0.0
  40
 3.1895417871561
   0
DIMENSION
   5
1BD
 100
AcDbEntity
   8
LEVEL001
   6
CONTINUOUS
  62
3
 100
AcDbDimension
   2
*D6
  10
 135.33875816606
  20
 185.09908642010
  30
0.0
  11
 129.88377245833
  21
 178.87346354364
  31
0.0
  70
132
   3
GMM002
 100
AcDbRadialDimension
  15
 134.02071391356
  25
 183.59483931658
  35
0.0
  40
 6.5669674544945
   0
INSERT
   5
1BE
 100
AcDbEntity
   8
LEVEL001
 100
AcDbBlockReference
   2
*D7
  10
0.0
  20
0.0
  30
0.0
   0
LINE
   5
1BF
 100
AcDbEntity
   8
LEVEL001
 100
AcDbLine
   6
CONTINUOUS
  62
3
  10
 144.12941961567
  20
 212.72706705680
  30
0.0
  11
 141.24643560958
  21
 228.90991608557
  31
0.0
   0
TEXT
   5
1C0
 100
AcDbEntity
   8
LEVEL001
  62
3
 100
AcDbText
  10
 141.71376065840
  20
 229.84611833829
  30
0.0
  40
 4.5000000000000
   1
Ｒ２４
  50
 280.10130247637
  41
 0.88888888888889
   7
STANDARD
 100
AcDbText
   0
ARC
   5
1C1
 100
AcDbEntity
   8
LEVEL001
   6
DOT
  62
1
 100
AcDbCircle
  10
 126.80893603791
  20
 186.39908642011
  30
0.0
  40
 0.30000000000000
 100
AcDbArc
  50
 226.86374113202
  51
 270.00000000245
   0
INSERT
   5
1C2
 100
AcDbEntity
   8
LEVEL001
 100
AcDbBlockReference
   2
*D8
  10
0.0
  20
0.0
  30
0.0
   0
LINE
   5
1C3
 100
AcDbEntity
   8
LEVEL001
 100
AcDbLine
   6
CONTINUOUS
  62
7
  10
 158.53875816606
  20
 181.09908642010
  30
0.0
  11
 138.13875816606
  21
 181.09908642010
  31
0.0
   0
ARC
   5
1C4
 100
AcDbEntity
   8
LEVEL001
   6
CONTINUOUS
  62
7
 100
AcDbCircle
  10
 138.13875816606
  20
 181.59908642010
  30
0.0
  40
 0.50000000000000
 100
AcDbArc
  50
 180.00000000014
  51
 270.00000000000
   0
POINT
   5
1C5
 100
AcDbEntity
   8
LEVEL001
 100
AcDbPoint
  62
7
  10
 137.63875816606
  20
 181.09908642010
  30
0.0
   0
ARC
   5
1C6
 100
AcDbEntity
   8
LEVEL001
   6
CONTINUOUS
  62
7
 100
AcDbCircle
  10
 158.53875816606
  20
 181.59908642010
  30
0.0
  40
 0.50000000000000
 100
AcDbArc
  50
 270.00000000031
  51
0.0
   0
POINT
   5
1C7
 100
AcDbEntity
   8
LEVEL001
 100
AcDbPoint
  62
7
  10
 159.03875816606
  20
 181.09908642010
  30
0.0
   0
LINE
   5
1C8
 100
AcDbEntity
   8
LEVEL001
 100
AcDbLine
   6
CONTINUOUS
  62
7
  10
 137.63875816606
  20
 181.59908642010
  30
0.0
  11
 137.63875816606
  21
 183.09908642010
  31
0.0
   0
LINE
   5
1C9
 100
AcDbEntity
   8
LEVEL001
 100
AcDbLine
   6
CONTINUOUS
  62
7
  10
 159.03875816606
  20
 181.59908642010
  30
0.0
  11
 159.03875816606
  21
 183.09908642010
  31
0.0
   0
DIMENSION
   5
1CA
 100
AcDbEntity
   8
LEVEL001
   6
CONTINUOUS
  62
3
 100
AcDbDimension
   2
*D9
  10
 197.23658487709
  20
 183.09908642010
  30
0.0
  11
 197.23658487709
  21
 198.09908642010
  31
0.0
  70
0
   3
GMM001
 100
AcDbAlignedDimension
  13
 187.54282815745
  23
 213.09908642010
  33
0.0
  14
 187.54282815745
  24
 183.09908642010
  34
0.0
  50
 270.00000000000
 100
AcDbRotatedDimension
   0
DIMENSION
   5
1CB
 100
AcDbEntity
   8
LEVEL001
   6
CONTINUOUS
  62
3
 100
AcDbDimension
   2
*D10
  10
 197.23658487709
  20
 183.09908642010
  30
0.0
  11
 197.23658487709
  21
 175.44963639619
  31
0.0
  70
128
   3
GMM003
 100
AcDbAlignedDimension
  13
 159.03875816606
  23
 181.09908642010
  33
0.0
  14
 187.54282815745
  24
 183.09908642010
  34
0.0
  50
 90.000000000000
 100
AcDbRotatedDimension
   0
LINE
   5
1CC
 100
AcDbEntity
   8
LEVEL001
 100
AcDbLine
   6
CONTINUOUS
  62
7
  10
 123.33875816606
  20
 118.39893802617
  30
0.0
  11
 173.33875816606
  21
 118.39893802617
  31
0.0
   0
LINE
   5
1CD
 100
AcDbEntity
   8
LEVEL001
 100
AcDbLine
   6
CONTINUOUS
  62
7
  10
 137.63875816606
  20
 133.39893802617
  30
0.0
  11
 159.03875816606
  21
 133.39893802617
  31
0.0
   0
LINE
   5
1CE
 100
AcDbEntity
   8
LEVEL001
 100
AcDbLine
   6
CONTINUOUS
  62
7
  10
 123.33875816606
  20
 121.22663841508
  30
0.0
  11
 123.33875816606
  21
 118.39893802617
  31
0.0
   0
ARC
   5
1CF
 100
AcDbEntity
   8
LEVEL001
   6
CONTINUOUS
  62
7
 100
AcDbCircle
  10
 129.33875816606
  20
 121.22663841508
  30
0.0
  40
 6.0000000000000
 100
AcDbArc
  50
 140.19442890774
  51
 180.00000000000
   0
POINT
   5
1D0
 100
AcDbEntity
   8
LEVEL001
 100
AcDbPoint
  62
7
  10
 123.33875816606
  20
 123.39893802617
  30
0.0
   0
ARC
   5
1D1
 100
AcDbEntity
   8
LEVEL001
   6
CONTINUOUS
  62
7
 100
AcDbCircle
  10
 167.33875816606
  20
 121.22663841508
  30
0.0
  40
 6.0000000000000
 100
AcDbArc
  50
 0.32568879938186E-11
  51
 39.805571092268
   0
POINT
   5
1D2
 100
AcDbEntity
   8
LEVEL001
 100
AcDbPoint
  62
7
  10
 173.33875816606
  20
 123.39893802617
  30
0.0
   0
LINE
   5
1D3
 100
AcDbEntity
   8
LEVEL001
 100
AcDbLine
   6
CONTINUOUS
  62
7
  10
 173.33875816606
  20
 121.22663841508
  30
0.0
  11
 173.33875816606
  21
 118.39893802617
  31
0.0
   0
LINE
   5
1D4
 100
AcDbEntity
   8
LEVEL001
 100
AcDbLine
   6
CONTINUOUS
  62
7
  10
 132.73906549884
  20
 134.67930682550
  30
0.0
  11
 124.72943048848
  21
 125.06774481307
  31
0.0
   0
ARC
   5
1D5
 100
AcDbEntity
   8
LEVEL001
   6
CONTINUOUS
  62
7
 100
AcDbCircle
  10
 134.27550805803
  20
 133.39893802617
  30
0.0
  40
 2.0000000000000
 100
AcDbArc
  50
 89.999999999998
  51
 140.19442890774
   0
POINT
   5
1D6
 100
AcDbEntity
   8
LEVEL001
 100
AcDbPoint
  62
7
  10
 133.33875816606
  20
 135.39893802617
  30
0.0
   0
LINE
   5
1D7
 100
AcDbEntity
   8
LEVEL001
 100
AcDbLine
   6
CONTINUOUS
  62
7
  10
 134.27550805803
  20
 135.39893802617
  30
0.0
  11
 162.40200827409
  21
 135.39893802617
  31
0.0
   0
ARC
   5
1D8
 100
AcDbEntity
   8
LEVEL001
   6
CONTINUOUS
  62
7
 100
AcDbCircle
  10
 162.40200827409
  20
 133.39893802617
  30
0.0
  40
 2.0000000000000
 100
AcDbArc
  50
 39.805571092268
  51
 90.000000000001
   0
POINT
   5
1D9
 100
AcDbEntity
   8
LEVEL001
 100
AcDbPoint
  62
7
  10
 163.33875816606
  20
 135.39893802617
  30
0.0
   0
LINE
   5
1DA
 100
AcDbEntity
   8
LEVEL001
 100
AcDbLine
   6
CONTINUOUS
  62
7
  10
 163.93845083329
  20
 134.67930682550
  30
0.0
  11
 171.94808584365
  21
 125.06774481307
  31
0.0
   0
DIMENSION
   5
1DB
 100
AcDbEntity
   8
LEVEL001
   6
CONTINUOUS
  62
3
 100
AcDbDimension
   2
*D11
  10
 163.33875816606
  20
 145.31322561632
  30
0.0
  11
 148.33875816606
  21
 145.31322561632
  31
0.0
  70
0
   3
GMM001
 100
AcDbAlignedDimension
  13
 133.33875816606
  23
 135.39893802617
  33
0.0
  14
 163.33875816606
  24
 135.39893802617
  34
0.0
 100
AcDbRotatedDimension
   0
DIMENSION
   5
1DC
 100
AcDbEntity
   8
LEVEL001
   6
CONTINUOUS
  62
3
 100
AcDbDimension
   2
*D12
  10
 186.54282815745
  20
 123.39893802617
  30
0.0
  11
 186.54282815745
  21
 120.89893802617
  31
0.0
  70
0
   3
GMM001
 100
AcDbAlignedDimension
  13
 173.33875816606
  23
 118.39893802617
  33
0.0
  14
 173.33875816606
  24
 123.39893802617
  34
0.0
  50
 90.000000000000
 100
AcDbRotatedDimension
   0
DIMENSION
   5
1DD
 100
AcDbEntity
   8
LEVEL001
   6
CONTINUOUS
  62
3
 100
AcDbDimension
   2
*D13
  10
 186.54282815745
  20
 135.39893802617
  30
0.0
  11
 186.54282815745
  21
 129.39893802617
  31
0.0
  70
0
   3
GMM001
 100
AcDbAlignedDimension
  13
 186.54282815745
  23
 123.39893802617
  33
0.0
  14
 163.33875816606
  24
 135.39893802617
  34
0.0
  50
 90.000000000000
 100
AcDbRotatedDimension
   0
DIMENSION
   5
1DE
 100
AcDbEntity
   8
LEVEL001
   6
CONTINUOUS
  62
3
 100
AcDbDimension
   2
*D14
  10
 129.33875816606
  20
 121.22663841508
  30
0.0
  11
 119.26226308420
  21
 126.66502696462
  31
0.0
  70
132
   3
GMM002
 100
AcDbRadialDimension
  15
 124.05868647323
  25
 124.07634768420
  35
0.0
  40
 5.7815504407340
   0
DIMENSION
   5
1DF
 100
AcDbEntity
   8
LEVEL001
   6
CONTINUOUS
  62
3
 100
AcDbDimension
   2
*D15
  10
 134.27550805803
  20
 133.39893802617
  30
0.0
  11
 130.04751477936
  21
 137.23312594108
  31
0.0
  70
132
   3
GMM002
 100
AcDbRadialDimension
  15
 132.79398216664
  25
 134.74247106749
  35
0.0
  40
 4.1792143476757
   0
LINE
   5
1E0
 100
AcDbEntity
   8
LEVEL001
 100
AcDbLine
   6
DASHDOT
  62
3
  10
 140.33875816606
  20
 116.07328426943
  30
0.0
  11
 140.33875816606
  21
 137.60671658819
  31
0.0
   0
LINE
   5
1E1
 100
AcDbEntity
   8
LEVEL001
 100
AcDbLine
   6
DASHDOT
  62
3
  10
 156.33875816606
  20
 115.77650388857
  30
0.0
  11
 156.33875816606
  21
 137.60671658819
  31
0.0
   0
LINE
   5
1E2
 100
AcDbEntity
   8
LEVEL001
 100
AcDbLine
   6
DASHDOT
  62
3
  10
 148.33875816606
  20
 138.78008116871
  30
0.0
  11
 148.33875816606
  21
 113.03128536558
  31
0.0
   0
LINE
   5
1E3
 100
AcDbEntity
   8
LEVEL001
 100
AcDbLine
   6
CONTINUOUS
  62
7
  10
 137.63875816606
  20
 133.39893802617
  30
0.0
  11
 137.63875816606
  21
 125.59893802617
  31
0.0
   0
LINE
   5
1E4
 100
AcDbEntity
   8
LEVEL001
 100
AcDbLine
   6
CONTINUOUS
  62
7
  10
 137.63875816606
  20
 125.59893802617
  30
0.0
  11
 159.03875816606
  21
 125.59893802617
  31
0.0
   0
LINE
   5
1E5
 100
AcDbEntity
   8
LEVEL001
 100
AcDbLine
   6
CONTINUOUS
  62
7
  10
 159.03875816606
  20
 133.39893802617
  30
0.0
  11
 159.03875816606
  21
 125.59893802617
  31
0.0
   0
DIMENSION
   5
1E6
 100
AcDbEntity
   8
LEVEL001
   6
CONTINUOUS
  62
3
 100
AcDbDimension
   2
*D16
  10
 197.23658487709
  20
 118.39893802617
  30
0.0
  11
 197.23658487709
  21
 126.89893802617
  31
0.0
  70
0
   3
GMM001
 100
AcDbAlignedDimension
  13
 187.54282815745
  23
 135.39893802617
  33
0.0
  14
 187.54282815745
  24
 118.39893802617
  34
0.0
  50
 270.00000000000
 100
AcDbRotatedDimension
   0
LINE
   5
1E7
 100
AcDbEntity
   8
LEVEL001
 100
AcDbLine
   6
CONTINUOUS
  62
15
  10
 142.98538280445
  20
 120.86466099379
  30
0.0
  11
 143.72495472946
  21
 123.62478099379
  31
0.0
   0
LINE
   5
1E8
 100
AcDbEntity
   8
LEVEL001
 100
AcDbLine
   6
CONTINUOUS
  62
15
  10
 147.14589790464
  20
 123.62478099379
  30
0.0
  11
 145.68541716477
  21
 121.88424782514
  31
0.0
   0
LINE
   5
1E9
 100
AcDbEntity
   8
LEVEL001
 100
AcDbLine
   6
CONTINUOUS
  62
15
  10
 143.72495472946
  20
 123.62478099379
  30
0.0
  11
 144.88442264047
  21
 123.62478099379
  31
0.0
   0
LINE
   5
1EA
 100
AcDbEntity
   8
LEVEL001
 100
AcDbLine
   6
CONTINUOUS
  62
15
  10
 143.80540196052
  20
 119.59782099379
  30
0.0
  11
 142.64593404951
  21
 119.59782099379
  31
0.0
   0
LINE
   5
1EB
 100
AcDbEntity
   8
LEVEL001
 100
AcDbLine
   6
CONTINUOUS
  62
15
  10
 144.40066716846
  20
 121.81938099381
  30
0.0
  11
 145.91557764259
  21
 123.62478099379
  31
0.0
   0
LINE
   5
1EC
 100
AcDbEntity
   8
LEVEL001
 100
AcDbLine
   6
CONTINUOUS
  62
15
  10
 145.91557764259
  20
 123.62478099379
  30
0.0
  11
 147.14589790464
  21
 123.62478099379
  31
0.0
   0
LINE
   5
1ED
 100
AcDbEntity
   8
LEVEL001
 100
AcDbLine
   6
CONTINUOUS
  62
15
  10
 144.75252770571
  20
 119.59782099379
  30
0.0
  11
 146.04755159880
  21
 119.59782099379
  31
0.0
   0
LINE
   5
1EE
 100
AcDbEntity
   8
LEVEL001
 100
AcDbLine
   6
CONTINUOUS
  62
15
  10
 144.88442264047
  20
 123.62478099379
  30
0.0
  11
 144.14485071546
  21
 120.86466099379
  31
0.0
   0
LINE
   5
1EF
 100
AcDbEntity
   8
LEVEL001
 100
AcDbLine
   6
CONTINUOUS
  62
15
  10
 144.11533343242
  20
 120.75450099379
  30
0.0
  11
 143.80540196052
  21
 119.59782099379
  31
0.0
   0
LINE
   5
1F0
 100
AcDbEntity
   8
LEVEL001
 100
AcDbLine
   6
CONTINUOUS
  62
15
  10
 144.40066716846
  20
 121.81938099381
  30
0.0
  11
 144.55187996133
  21
 120.86466099379
  31
0.0
   0
LINE
   5
1F1
 100
AcDbEntity
   8
LEVEL001
 100
AcDbLine
   6
CONTINUOUS
  62
15
  10
 144.56932759127
  20
 120.75450099379
  30
0.0
  11
 144.75252770571
  21
 119.59782099379
  31
0.0
   0
LINE
   5
1F2
 100
AcDbEntity
   8
LEVEL001
 100
AcDbLine
   6
CONTINUOUS
  62
15
  10
 145.86435148437
  20
 120.75450099379
  30
0.0
  11
 154.42271472946
  21
 120.75450099379
  31
0.0
   0
LINE
   5
1F3
 100
AcDbEntity
   8
LEVEL001
 100
AcDbLine
   6
CONTINUOUS
  62
15
  10
 146.04755159880
  20
 119.59782099379
  30
0.0
  11
 145.86435148437
  21
 120.75450099379
  31
0.0
   0
LINE
   5
1F4
 100
AcDbEntity
   8
LEVEL001
 100
AcDbLine
   6
CONTINUOUS
  62
15
  10
 145.84690385442
  20
 120.86466099379
  30
0.0
  11
 145.68541716477
  21
 121.88424782514
  31
0.0
   0
LINE
   5
1F5
 100
AcDbEntity
   8
LEVEL001
 100
AcDbLine
   6
CONTINUOUS
  62
15
  10
 144.55187996133
  20
 120.86466099379
  30
0.0
  11
 144.14485071546
  21
 120.86466099379
  31
0.0
   0
LINE
   5
1F6
 100
AcDbEntity
   8
LEVEL001
 100
AcDbLine
   6
CONTINUOUS
  62
15
  10
 144.11533343242
  20
 120.75450099379
  30
0.0
  11
 144.56932759127
  21
 120.75450099379
  31
0.0
   0
LINE
   5
1F7
 100
AcDbEntity
   8
LEVEL001
 100
AcDbLine
   6
CONTINUOUS
  62
15
  10
 148.19191352184
  20
 120.86466099379
  30
0.0
  11
 148.78061933355
  21
 123.06174099379
  31
0.0
   0
LINE
   5
1F8
 100
AcDbEntity
   8
LEVEL001
 100
AcDbLine
   6
CONTINUOUS
  62
15
  10
 146.96855472946
  20
 123.06174099379
  30
0.0
  11
 147.60214375187
  21
 123.06174099379
  31
0.0
   0
LINE
   5
1F9
 100
AcDbEntity
   8
LEVEL001
 100
AcDbLine
   6
CONTINUOUS
  62
15
  10
 147.86191525106
  20
 123.06174099379
  30
0.0
  11
 148.49550427347
  21
 123.06174099379
  31
0.0
   0
LINE
   5
1FA
 100
AcDbEntity
   8
LEVEL001
 100
AcDbLine
   6
CONTINUOUS
  62
15
  10
 146.58403721840
  20
 121.62670210612
  30
0.0
  11
 146.96855472946
  21
 123.06174099379
  31
0.0
   0
ARC
   5
1FB
 100
AcDbEntity
   8
LEVEL001
   6
CONTINUOUS
  62
15
 100
AcDbCircle
  10
 147.17735978210
  20
 121.47666099379
  30
0.0
  40
 0.61200000000000
 100
AcDbArc
  50
 165.80840229903
  51
 270.00000000139
   0
LINE
   5
1FC
 100
AcDbEntity
   8
LEVEL001
 100
AcDbLine
   6
CONTINUOUS
  62
15
  10
 148.06480369752
  20
 121.45434456151
  30
0.0
  11
 148.49550427347
  21
 123.06174099379
  31
0.0
   0
ARC
   5
1FD
 100
AcDbEntity
   8
LEVEL001
   6
CONTINUOUS
  62
15
 100
AcDbCircle
  10
 147.29631311013
  20
 121.66026099381
  30
0.0
  40
 0.79560000000000
 100
AcDbArc
  50
 268.34236379701
  51
 344.99999999914
   0
ARC
   5
1FE
 100
AcDbEntity
   8
LEVEL001
   6
CONTINUOUS
  62
15
 100
AcDbCircle
  10
 147.25637635842
  20
 121.53724899379
  30
0.0
  40
 0.61200000000000E-1
 100
AcDbArc
  50
 173.14994158376
  51
 270.00000002054
   0
ARC
   5
1FF
 100
AcDbEntity
   8
LEVEL001
   6
CONTINUOUS
  62
15
 100
AcDbCircle
  10
 147.37661541411
  20
 121.55560899390
  30
0.0
  40
 0.79560000000000E-1
 100
AcDbArc
  50
 268.34236376855
  51
 337.88876965613
   0
LINE
   5
200
 100
AcDbEntity
   8
LEVEL001
 100
AcDbLine
   6
CONTINUOUS
  62
15
  10
 147.25637635844
  20
 121.47604899379
  30
0.0
  11
 147.37431396813
  21
 121.47604899379
  31
0.0
   0
LINE
   5
201
 100
AcDbEntity
   8
LEVEL001
 100
AcDbLine
   6
CONTINUOUS
  62
15
  10
 147.27320943935
  20
 120.86466099379
  30
0.0
  11
 147.27329865070
  21
 120.86499393509
  31
0.0
   0
LINE
   5
202
 100
AcDbEntity
   8
LEVEL001
 100
AcDbLine
   6
CONTINUOUS
  62
15
  10
 147.45032416363
  20
 121.52566214355
  30
0.0
  11
 147.86191525106
  21
 123.06174099379
  31
0.0
   0
LINE
   5
203
 100
AcDbEntity
   8
LEVEL001
 100
AcDbLine
   6
CONTINUOUS
  62
15
  10
 147.19546118556
  20
 121.54398099379
  30
0.0
  11
 147.60214375187
  21
 123.06174099379
  31
0.0
   0
LINE
   5
204
 100
AcDbEntity
   8
LEVEL001
 100
AcDbLine
   6
CONTINUOUS
  62
15
  10
 142.98538280445
  20
 120.86466099379
  30
0.0
  11
 142.38467472946
  21
 120.86466099379
  31
0.0
   0
LINE
   5
205
 100
AcDbEntity
   8
LEVEL001
 100
AcDbLine
   6
CONTINUOUS
  62
15
  10
 142.38467472946
  20
 120.75450099379
  30
0.0
  11
 142.95586552141
  21
 120.75450099379
  31
0.0
   0
LINE
   5
206
 100
AcDbEntity
   8
LEVEL001
 100
AcDbLine
   6
CONTINUOUS
  62
15
  10
 142.64593404951
  20
 119.59782099379
  30
0.0
  11
 142.95586552141
  21
 120.75450099379
  31
0.0
   0
LINE
   5
207
 100
AcDbEntity
   8
LEVEL001
 100
AcDbLine
   6
CONTINUOUS
  62
15
  10
 148.19191352184
  20
 120.86466099379
  30
0.0
  11
 147.27320943935
  21
 120.86466099379
  31
0.0
   0
LINE
   5
208
 100
AcDbEntity
   8
LEVEL001
 100
AcDbLine
   6
CONTINUOUS
  62
15
  10
 147.17735978211
  20
 120.86466099379
  30
0.0
  11
 145.84690385442
  21
 120.86466099379
  31
0.0
   0
LINE
   5
209
 100
AcDbEntity
   8
LEVEL001
 100
AcDbLine
   6
CONTINUOUS
  62
15
  10
 150.06733702818
  20
 120.86466099379
  30
0.0
  11
 150.65604283989
  21
 123.06174099379
  31
0.0
   0
LINE
   5
20A
 100
AcDbEntity
   8
LEVEL001
 100
AcDbLine
   6
CONTINUOUS
  62
15
  10
 150.70092605059
  20
 120.86466099379
  30
0.0
  11
 151.28963186229
  21
 123.06174099379
  31
0.0
   0
LINE
   5
20B
 100
AcDbEntity
   8
LEVEL001
 100
AcDbLine
   6
CONTINUOUS
  62
15
  10
 150.99871289112
  20
 120.86466099379
  30
0.0
  11
 151.58741870283
  21
 123.06174099379
  31
0.0
   0
LINE
   5
20C
 100
AcDbEntity
   8
LEVEL001
 100
AcDbLine
   6
CONTINUOUS
  62
15
  10
 151.63230191353
  20
 120.86466099379
  30
0.0
  11
 152.22100772524
  21
 123.06174099379
  31
0.0
   0
LINE
   5
20D
 100
AcDbEntity
   8
LEVEL001
 100
AcDbLine
   6
CONTINUOUS
  62
15
  10
 152.93749529969
  20
 120.86466099379
  30
0.0
  11
 153.52620111140
  21
 123.06174099379
  31
0.0
   0
LINE
   5
20E
 100
AcDbEntity
   8
LEVEL001
 100
AcDbLine
   6
CONTINUOUS
  62
15
  10
 153.57108432210
  20
 120.86466099379
  30
0.0
  11
 154.15979013381
  21
 123.06174099379
  31
0.0
   0
LINE
   5
20F
 100
AcDbEntity
   8
LEVEL001
 100
AcDbLine
   6
CONTINUOUS
  62
15
  10
 153.52620111140
  20
 123.06174099379
  30
0.0
  11
 154.15979013381
  21
 123.06174099379
  31
0.0
   0
LINE
   5
210
 100
AcDbEntity
   8
LEVEL001
 100
AcDbLine
   6
CONTINUOUS
  62
15
  10
 148.78061933355
  20
 123.06174099379
  30
0.0
  11
 149.41420835596
  21
 123.06174099379
  31
0.0
   0
LINE
   5
211
 100
AcDbEntity
   8
LEVEL001
 100
AcDbLine
   6
CONTINUOUS
  62
15
  10
 150.65604283989
  20
 123.06174099379
  30
0.0
  11
 151.28963186229
  21
 123.06174099379
  31
0.0
   0
LINE
   5
212
 100
AcDbEntity
   8
LEVEL001
 100
AcDbLine
   6
CONTINUOUS
  62
15
  10
 151.95863187601
  20
 122.08254099380
  30
0.0
  11
 152.15152511819
  21
 120.86466099379
  31
0.0
   0
LINE
   5
213
 100
AcDbEntity
   8
LEVEL001
 100
AcDbLine
   6
CONTINUOUS
  62
15
  10
 151.95863187601
  20
 122.08254099380
  30
0.0
  11
 152.78027823485
  21
 123.06174099379
  31
0.0
   0
LINE
   5
214
 100
AcDbEntity
   8
LEVEL001
 100
AcDbLine
   6
CONTINUOUS
  62
15
  10
 152.85790178715
  20
 120.86466099379
  30
0.0
  11
 152.65940460127
  21
 122.11792290180
  31
0.0
   0
LINE
   5
215
 100
AcDbEntity
   8
LEVEL001
 100
AcDbLine
   6
CONTINUOUS
  62
15
  10
 153.45136201416
  20
 123.06174099379
  30
0.0
  11
 152.65940460127
  21
 122.11792290180
  31
0.0
   0
LINE
   5
216
 100
AcDbEntity
   8
LEVEL001
 100
AcDbLine
   6
CONTINUOUS
  62
15
  10
 151.58741870283
  20
 123.06174099379
  30
0.0
  11
 152.22100772524
  21
 123.06174099379
  31
0.0
   0
LINE
   5
217
 100
AcDbEntity
   8
LEVEL001
 100
AcDbLine
   6
CONTINUOUS
  62
15
  10
 152.78027823485
  20
 123.06174099379
  30
0.0
  11
 153.45136201416
  21
 123.06174099379
  31
0.0
   0
LINE
   5
218
 100
AcDbEntity
   8
LEVEL001
 100
AcDbLine
   6
CONTINUOUS
  62
15
  10
 149.12947031576
  20
 121.52616687636
  30
0.0
  11
 149.23424255474
  21
 120.86466099379
  31
0.0
   0
LINE
   5
219
 100
AcDbEntity
   8
LEVEL001
 100
AcDbLine
   6
CONTINUOUS
  62
15
  10
 148.82550254425
  20
 120.86466099379
  30
0.0
  11
 149.25022345019
  21
 122.44974099379
  31
0.0
   0
LINE
   5
21A
 100
AcDbEntity
   8
LEVEL001
 100
AcDbLine
   6
CONTINUOUS
  62
15
  10
 149.41420835596
  20
 123.06174099379
  30
0.0
  11
 149.61211501800
  21
 123.06174099379
  31
0.0
   0
LINE
   5
21B
 100
AcDbEntity
   8
LEVEL001
 100
AcDbLine
   6
CONTINUOUS
  62
15
  10
 149.94061922370
  20
 120.86466099379
  30
0.0
  11
 149.81103295598
  21
 121.68283648785
  31
0.0
   0
ARC
   5
21C
 100
AcDbEntity
   8
LEVEL001
   6
CONTINUOUS
  62
15
 100
AcDbCircle
  10
 149.61211501797
  20
 122.35794099379
  30
0.0
  40
 0.70380000000000
 100
AcDbArc
  50
 286.41748408590
  51
 89.999999997945
   0
LINE
   5
21D
 100
AcDbEntity
   8
LEVEL001
 100
AcDbLine
   6
CONTINUOUS
  62
15
  10
 149.25022345019
  20
 122.44974099379
  30
0.0
  11
 149.42851501800
  21
 122.44974099379
  31
0.0
   0
LINE
   5
21E
 100
AcDbEntity
   8
LEVEL001
 100
AcDbLine
   6
CONTINUOUS
  62
15
  10
 149.12947031576
  20
 121.52616687636
  30
0.0
  11
 149.27855031121
  21
 122.08254099379
  31
0.0
   0
LINE
   5
21F
 100
AcDbEntity
   8
LEVEL001
 100
AcDbLine
   6
CONTINUOUS
  62
15
  10
 149.27855031121
  20
 122.08254099379
  30
0.0
  11
 149.42851501800
  21
 122.08254099379
  31
0.0
   0
ARC
   5
220
 100
AcDbEntity
   8
LEVEL001
   6
CONTINUOUS
  62
15
 100
AcDbCircle
  10
 149.42851501800
  20
 122.26614099379
  30
0.0
  40
 0.18360000000000
 100
AcDbArc
  50
 270.00000000000
  51
 90.000000000000
   0
LINE
   5
221
 100
AcDbEntity
   8
LEVEL001
 100
AcDbLine
   6
CONTINUOUS
  62
15
  10
 149.23424255474
  20
 120.86466099379
  30
0.0
  11
 148.82550254425
  21
 120.86466099379
  31
0.0
   0
LINE
   5
222
 100
AcDbEntity
   8
LEVEL001
 100
AcDbLine
   6
CONTINUOUS
  62
15
  10
 150.06733702818
  20
 120.86466099379
  30
0.0
  11
 149.94061922370
  21
 120.86466099379
  31
0.0
   0
LINE
   5
223
 100
AcDbEntity
   8
LEVEL001
 100
AcDbLine
   6
CONTINUOUS
  62
15
  10
 150.99871289112
  20
 120.86466099379
  30
0.0
  11
 150.70092605059
  21
 120.86466099379
  31
0.0
   0
LINE
   5
224
 100
AcDbEntity
   8
LEVEL001
 100
AcDbLine
   6
CONTINUOUS
  62
15
  10
 152.15152511819
  20
 120.86466099379
  30
0.0
  11
 151.63230191353
  21
 120.86466099379
  31
0.0
   0
LINE
   5
225
 100
AcDbEntity
   8
LEVEL001
 100
AcDbLine
   6
CONTINUOUS
  62
15
  10
 154.42271472946
  20
 120.86466099379
  30
0.0
  11
 153.57108432210
  21
 120.86466099379
  31
0.0
   0
LINE
   5
226
 100
AcDbEntity
   8
LEVEL001
 100
AcDbLine
   6
CONTINUOUS
  62
15
  10
 152.93749529969
  20
 120.86466099379
  30
0.0
  11
 152.85790178715
  21
 120.86466099379
  31
0.0
   0
LINE
   5
227
 100
AcDbEntity
   8
LEVEL001
 100
AcDbLine
   6
CONTINUOUS
  62
15
  10
 154.42271472946
  20
 120.75450099379
  30
0.0
  11
 154.42271472946
  21
 120.86466099379
  31
0.0
   0
LINE
   5
228
 100
AcDbEntity
   8
LEVEL001
 100
AcDbLine
   6
CONTINUOUS
  62
15
  10
 142.38467472946
  20
 120.75450099379
  30
0.0
  11
 142.38467472946
  21
 120.86466099379
  31
0.0
   0
DIMENSION
   5
229
 100
AcDbEntity
   8
LEVEL001
   6
CONTINUOUS
  62
3
 100
AcDbDimension
   2
*D17
  10
 159.03875816606
  20
 103.03073719805
  30
0.0
  11
 148.33875816606
  21
 103.03073719805
  31
0.0
  70
0
   3
GMM001
 100
AcDbAlignedDimension
  13
 137.63875816606
  23
 125.59893802617
  33
0.0
  14
 159.03875816606
  24
 125.59893802617
  34
0.0
 100
AcDbRotatedDimension
   0
LINE
   5
22A
 100
AcDbEntity
   8
LEVEL001
 100
AcDbLine
   6
CONTINUOUS
  62
7
  10
 159.03875816606
  20
 133.29893802617
  30
0.0
  11
 137.63875816606
  21
 133.29893802617
  31
0.0
   0
LINE
   5
22B
 100
AcDbEntity
   8
LEVEL001
 100
AcDbLine
   6
CONTINUOUS
  62
7
  10
 159.03875816606
  20
 125.69893802617
  30
0.0
  11
 137.63875816606
  21
 125.69893802617
  31
0.0
   0
LINE
   5
22C
 100
AcDbEntity
   8
LEVEL001
 100
AcDbLine
   6
CONTINUOUS
  62
15
  10
 351.42659004064
  20
 227.28676501852
  30
0.0
  11
 344.76831059674
  21
 240.35699006622
  31
0.0
   0
ARC
   5
22D
 100
AcDbEntity
   8
LEVEL001
   6
CONTINUOUS
  62
15
 100
AcDbCircle
  10
 336.09305777924
  20
 235.43234073672
  30
0.0
  40
 9.9759120680717
 100
AcDbArc
  50
 29.646631565104
  51
 62.058796853804
   0
ARC
   5
22E
 100
AcDbEntity
   8
LEVEL001
   6
CONTINUOUS
  62
15
 100
AcDbCircle
  10
 345.91890783404
  20
 224.39875666692
  30
0.0
  40
 6.2147366797285
 100
AcDbArc
  50
 359.34833205348
  51
 27.688882474382
   0
LINE
   5
22F
 100
AcDbEntity
   8
LEVEL001
 100
AcDbLine
   6
CONTINUOUS
  62
15
  10
 352.13660661114
  20
 222.36622134632
  30
0.0
  11
 352.13660638734
  21
 224.32880405942
  31
0.0
   0
LINE
   5
230
 100
AcDbEntity
   8
LEVEL001
 100
AcDbLine
   6
CONTINUOUS
  62
15
  10
 307.71355533714
  20
 240.77206405332
  30
0.0
  11
 307.32887792264
  21
 240.44609836062
  31
0.0
   0
LINE
   5
231
 100
AcDbEntity
   8
LEVEL001
 100
AcDbLine
   6
CONTINUOUS
  62
15
  10
 307.32887792264
  20
 240.44609836062
  30
0.0
  11
 307.00799783064
  21
 240.16227509112
  31
0.0
   0
LINE
   5
232
 100
AcDbEntity
   8
LEVEL001
 100
AcDbLine
   6
CONTINUOUS
  62
15
  10
 307.00799783064
  20
 240.16227509112
  30
0.0
  11
 306.75072153114
  21
 239.92576614202
  31
0.0
   0
LINE
   5
233
 100
AcDbEntity
   8
LEVEL001
 100
AcDbLine
   6
CONTINUOUS
  62
15
  10
 306.75072153114
  20
 239.92576614202
  30
0.0
  11
 306.54413381414
  21
 239.72953393912
  31
0.0
   0
LINE
   5
234
 100
AcDbEntity
   8
LEVEL001
 100
AcDbLine
   6
CONTINUOUS
  62
15
  10
 306.54413381414
  20
 239.72953393912
  30
0.0
  11
 306.37940153964
  21
 239.56889059312
  31
0.0
   0
LINE
   5
235
 100
AcDbEntity
   8
LEVEL001
 100
AcDbLine
   6
CONTINUOUS
  62
15
  10
 306.37940153964
  20
 239.56889059312
  30
0.0
  11
 306.23968901734
  21
 239.42979217182
  31
0.0
   0
LINE
   5
236
 100
AcDbEntity
   8
LEVEL001
 100
AcDbLine
   6
CONTINUOUS
  62
15
  10
 306.23968901734
  20
 239.42979217182
  30
0.0
  11
 306.12500629014
  21
 239.31373614052
  31
0.0
   0
LINE
   5
237
 100
AcDbEntity
   8
LEVEL001
 100
AcDbLine
   6
CONTINUOUS
  62
15
  10
 306.12500629014
  20
 239.31373614052
  30
0.0
  11
 306.00744687584
  21
 239.19310072542
  31
0.0
   0
LINE
   5
238
 100
AcDbEntity
   8
LEVEL001
 100
AcDbLine
   6
CONTINUOUS
  62
15
  10
 306.00744687584
  20
 239.19310072542
  30
0.0
  11
 305.88655934224
  21
 239.06746273312
  31
0.0
   0
LINE
   5
239
 100
AcDbEntity
   8
LEVEL001
 100
AcDbLine
   6
CONTINUOUS
  62
15
  10
 305.88655934224
  20
 239.06746273312
  30
0.0
  11
 305.76241579994
  21
 238.93701168962
  31
0.0
   0
LINE
   5
23A
 100
AcDbEntity
   8
LEVEL001
 100
AcDbLine
   6
CONTINUOUS
  62
15
  10
 305.76241579994
  20
 238.93701168962
  30
0.0
  11
 305.55801263964
  21
 238.72000571232
  31
0.0
   0
LINE
   5
23B
 100
AcDbEntity
   8
LEVEL001
 100
AcDbLine
   6
CONTINUOUS
  62
15
  10
 305.55801263964
  20
 238.72000571232
  30
0.0
  11
 305.36462627044
  21
 238.51377534662
  31
0.0
   0
LINE
   5
23C
 100
AcDbEntity
   8
LEVEL001
 100
AcDbLine
   6
CONTINUOUS
  62
15
  10
 305.36462627044
  20
 238.51377534662
  30
0.0
  11
 305.19453245584
  21
 238.33326737642
  31
0.0
   0
LINE
   5
23D
 100
AcDbEntity
   8
LEVEL001
 100
AcDbLine
   6
CONTINUOUS
  62
15
  10
 305.19453245584
  20
 238.33326737642
  30
0.0
  11
 305.04688941134
  21
 238.17839239632
  31
0.0
   0
LINE
   5
23E
 100
AcDbEntity
   8
LEVEL001
 100
AcDbLine
   6
CONTINUOUS
  62
15
  10
 305.04688941134
  20
 238.17839239632
  30
0.0
  11
 304.94660493654
  21
 238.07461358632
  31
0.0
   0
LINE
   5
23F
 100
AcDbEntity
   8
LEVEL001
 100
AcDbLine
   6
CONTINUOUS
  62
15
  10
 304.94660493654
  20
 238.07461358632
  30
0.0
  11
 304.81248444494
  21
 237.93812689262
  31
0.0
   0
LINE
   5
240
 100
AcDbEntity
   8
LEVEL001
 100
AcDbLine
   6
CONTINUOUS
  62
15
  10
 304.81248444494
  20
 237.93812689262
  30
0.0
  11
 304.63922072634
  21
 237.76636106352
  31
0.0
   0
LINE
   5
241
 100
AcDbEntity
   8
LEVEL001
 100
AcDbLine
   6
CONTINUOUS
  62
15
  10
 304.63922072634
  20
 237.76636106352
  30
0.0
  11
 304.41678447714
  21
 237.55390764362
  31
0.0
   0
LINE
   5
242
 100
AcDbEntity
   8
LEVEL001
 100
AcDbLine
   6
CONTINUOUS
  62
15
  10
 304.41678447714
  20
 237.55390764362
  30
0.0
  11
 304.15324286764
  21
 237.31397593962
  31
0.0
   0
LINE
   5
243
 100
AcDbEntity
   8
LEVEL001
 100
AcDbLine
   6
CONTINUOUS
  62
15
  10
 320.58586664384
  20
 248.21016782142
  30
0.0
  11
 307.75134953574
  21
 240.80095914482
  31
0.0
   0
LINE
   5
244
 100
AcDbEntity
   8
LEVEL001
 100
AcDbLine
   6
CONTINUOUS
  62
15
  10
 335.60613248704
  20
 247.22489955792
  30
0.0
  11
 335.29507178754
  21
 247.39955800022
  31
0.0
   0
LINE
   5
245
 100
AcDbEntity
   8
LEVEL001
 100
AcDbLine
   6
CONTINUOUS
  62
15
  10
 335.29507178754
  20
 247.39955800022
  30
0.0
  11
 334.69765305154
  21
 247.70928742332
  31
0.0
   0
LINE
   5
246
 100
AcDbEntity
   8
LEVEL001
 100
AcDbLine
   6
CONTINUOUS
  62
15
  10
 334.69765305154
  20
 247.70928742332
  30
0.0
  11
 334.08031894174
  21
 247.99732670712
  31
0.0
   0
LINE
   5
247
 100
AcDbEntity
   8
LEVEL001
 100
AcDbLine
   6
CONTINUOUS
  62
15
  10
 334.08031894174
  20
 247.99732670712
  30
0.0
  11
 333.44611687294
  21
 248.26282908262
  31
0.0
   0
LINE
   5
248
 100
AcDbEntity
   8
LEVEL001
 100
AcDbLine
   6
CONTINUOUS
  62
15
  10
 333.44611687294
  20
 248.26282908262
  30
0.0
  11
 332.79817098024
  21
 248.50506315272
  31
0.0
   0
LINE
   5
249
 100
AcDbEntity
   8
LEVEL001
 100
AcDbLine
   6
CONTINUOUS
  62
15
  10
 332.79817098024
  20
 248.50506315272
  30
0.0
  11
 332.13955205674
  21
 248.72344995932
  31
0.0
   0
LINE
   5
24A
 100
AcDbEntity
   8
LEVEL001
 100
AcDbLine
   6
CONTINUOUS
  62
15
  10
 332.13955205674
  20
 248.72344995932
  30
0.0
  11
 331.47326240684
  21
 248.91755728222
  31
0.0
   0
LINE
   5
24B
 100
AcDbEntity
   8
LEVEL001
 100
AcDbLine
   6
CONTINUOUS
  62
15
  10
 331.47326240684
  20
 248.91755728222
  30
0.0
  11
 330.80220950444
  21
 249.08708367202
  31
0.0
   0
LINE
   5
24C
 100
AcDbEntity
   8
LEVEL001
 100
AcDbLine
   6
CONTINUOUS
  62
15
  10
 330.80220950444
  20
 249.08708367202
  30
0.0
  11
 330.12918294424
  21
 249.23185807152
  31
0.0
   0
LINE
   5
24D
 100
AcDbEntity
   8
LEVEL001
 100
AcDbLine
   6
CONTINUOUS
  62
15
  10
 330.12918294424
  20
 249.23185807152
  30
0.0
  11
 329.45683007494
  21
 249.35182118712
  31
0.0
   0
LINE
   5
24E
 100
AcDbEntity
   8
LEVEL001
 100
AcDbLine
   6
CONTINUOUS
  62
15
  10
 329.45683007494
  20
 249.35182118712
  30
0.0
  11
 328.78763558524
  21
 249.44701370392
  31
0.0
   0
LINE
   5
24F
 100
AcDbEntity
   8
LEVEL001
 100
AcDbLine
   6
CONTINUOUS
  62
15
  10
 328.78763558524
  20
 249.44701370392
  30
0.0
  11
 328.12390042944
  21
 249.51756564132
  31
0.0
   0
LINE
   5
250
 100
AcDbEntity
   8
LEVEL001
 100
AcDbLine
   6
CONTINUOUS
  62
15
  10
 328.12390042944
  20
 249.51756564132
  30
0.0
  11
 327.46772799874
  21
 249.56367164192
  31
0.0
   0
LINE
   5
251
 100
AcDbEntity
   8
LEVEL001
 100
AcDbLine
   6
CONTINUOUS
  62
15
  10
 327.46772799874
  20
 249.56367164192
  30
0.0
  11
 326.82102082834
  21
 249.58557918612
  31
0.0
   0
LINE
   5
252
 100
AcDbEntity
   8
LEVEL001
 100
AcDbLine
   6
CONTINUOUS
  62
15
  10
 326.82102082834
  20
 249.58557918612
  30
0.0
  11
 326.18547335304
  21
 249.58355399532
  31
0.0
   0
LINE
   5
253
 100
AcDbEntity
   8
LEVEL001
 100
AcDbLine
   6
CONTINUOUS
  62
15
  10
 326.18547335304
  20
 249.58355399532
  30
0.0
  11
 325.56257981054
  21
 249.55786634622
  31
0.0
   0
LINE
   5
254
 100
AcDbEntity
   8
LEVEL001
 100
AcDbLine
   6
CONTINUOUS
  62
15
  10
 325.56257981054
  20
 249.55786634622
  30
0.0
  11
 324.95365070434
  21
 249.50876255622
  31
0.0
   0
LINE
   5
255
 100
AcDbEntity
   8
LEVEL001
 100
AcDbLine
   6
CONTINUOUS
  62
15
  10
 324.95365070434
  20
 249.50876255622
  30
0.0
  11
 324.35982926774
  21
 249.43643646972
  31
0.0
   0
LINE
   5
256
 100
AcDbEntity
   8
LEVEL001
 100
AcDbLine
   6
CONTINUOUS
  62
15
  10
 324.35982926774
  20
 249.43643646972
  30
0.0
  11
 323.78213624464
  21
 249.34101729142
  31
0.0
   0
LINE
   5
257
 100
AcDbEntity
   8
LEVEL001
 100
AcDbLine
   6
CONTINUOUS
  62
15
  10
 323.78213624464
  20
 249.34101729142
  30
0.0
  11
 323.22150479264
  21
 249.22254259182
  31
0.0
   0
LINE
   5
258
 100
AcDbEntity
   8
LEVEL001
 100
AcDbLine
   6
CONTINUOUS
  62
15
  10
 323.22150479264
  20
 249.22254259182
  30
0.0
  11
 322.67884172754
  21
 249.08095412412
  31
0.0
   0
LINE
   5
259
 100
AcDbEntity
   8
LEVEL001
 100
AcDbLine
   6
CONTINUOUS
  62
15
  10
 322.67884172754
  20
 249.08095412412
  30
0.0
  11
 322.15510589014
  21
 248.91610884772
  31
0.0
   0
LINE
   5
25A
 100
AcDbEntity
   8
LEVEL001
 100
AcDbLine
   6
CONTINUOUS
  62
15
  10
 322.15510589014
  20
 248.91610884772
  30
0.0
  11
 321.65138256184
  21
 248.72779983712
  31
0.0
   0
LINE
   5
25B
 100
AcDbEntity
   8
LEVEL001
 100
AcDbLine
   6
CONTINUOUS
  62
15
  10
 321.65138256184
  20
 248.72779983712
  30
0.0
  11
 321.16897895334
  21
 248.51582053152
  31
0.0
   0
LINE
   5
25C
 100
AcDbEntity
   8
LEVEL001
 100
AcDbLine
   6
CONTINUOUS
  62
15
  10
 321.16897895334
  20
 248.51582053152
  30
0.0
  11
 320.70950257204
  21
 248.28005864192
  31
0.0
   0
LINE
   5
25D
 100
AcDbEntity
   8
LEVEL001
 100
AcDbLine
   6
CONTINUOUS
  62
15
  10
 320.70950257204
  20
 248.28005864192
  30
0.0
  11
 320.58586610894
  21
 248.21016785312
  31
0.0
   0
LINE
   5
25E
 100
AcDbEntity
   8
LEVEL001
 100
AcDbLine
   6
CONTINUOUS
  62
15
  10
 340.76760877434
  20
 244.24524253082
  30
0.0
  11
 335.60630540814
  21
 247.22479954752
  31
0.0
   0
ARC
   5
25F
 100
AcDbEntity
   8
LEVEL001
   6
CONTINUOUS
  62
15
 100
AcDbCircle
  10
 308.62321905834
  20
 232.67561189412
  30
0.0
  40
 6.4409104205947
 100
AcDbArc
  50
 133.92732894150
  51
 176.33506803660
   0
LINE
   5
260
 100
AcDbEntity
   8
LEVEL001
 100
AcDbLine
   6
CONTINUOUS
  62
15
  10
 302.19548075984
  20
 233.08732467352
  30
0.0
  11
 302.19548111424
  21
 230.53030246462
  31
0.0
   0
SPLINE
   5
261
 100
AcDbEntity
   8
LEVEL001
   6
CONTINUOUS
  62
15
 100
AcDbSpline
  70
8
  71
3
  72
20
  73
16
  74
14
  42
 0.10000000000000E-6
  43
 0.10000000000000E-6
  44
 0.10000000000000E-4
  40
0.0
  40
0.0
  40
0.0
  40
0.0
  40
 0.21459001334672E-1
  40
 0.68754052459774E-1
  40
 0.14404461637450
  40
 0.25007970827674
  40
 0.38611577323256
  40
 0.49993055497499
  40
 0.62875386734692
  40
 0.74980197258924
  40
 0.80052482969209
  40
 0.85108605023942
  40
 0.90130148786930
  40
 0.95099467703312
  40
 1.0000000000000
  40
 1.0000000000000
  40
 1.0000000000000
  40
 1.0000000000000
  10
 330.82289811218
  20
 215.22910786109
  30
0.0
  10
 330.86015949691
  20
 215.23949294406
  30
0.0
  10
 330.97954395289
  20
 215.27276646543
  30
0.0
  10
 331.24899848113
  20
 215.35396560752
  30
0.0
  10
 331.71808055906
  20
 215.50923989873
  30
0.0
  10
 332.44766254564
  20
 215.77544593616
  30
0.0
  10
 333.35582831879
  20
 216.13885131312
  30
0.0
  10
 334.37720987206
  20
 216.57909469565
  30
0.0
  10
 335.37774221069
  20
 217.03906575624
  30
0.0
  10
 336.18906502909
  20
 217.43502248308
  30
0.0
  10
 336.76483967822
  20
 217.72830438135
  30
0.0
  10
 337.14573541751
  20
 217.92733094083
  30
0.0
  10
 337.50976494881
  20
 218.12273130886
  30
0.0
  10
 337.85564808454
  20
 218.31321250351
  30
0.0
  10
 338.06967130563
  20
 218.43562419061
  30
0.0
  10
 338.17593711294
  20
 218.49640346815
  30
0.0
  11
 330.82289811218
  21
 215.22910786109
  31
0.0
  11
 330.93558131235
  21
 215.26079730110
  31
0.0
  11
 331.19993478490
  21
 215.34029129434
  31
0.0
  11
 331.66272429337
  21
 215.49334931409
  31
0.0
  11
 332.39044201807
  21
 215.75874898737
  31
0.0
  11
 333.42330388523
  21
 216.17201988983
  31
0.0
  11
 334.33960183851
  21
 216.56709971705
  31
0.0
  11
 335.39567725013
  21
 217.05238621842
  31
0.0
  11
 336.36954865580
  21
 217.52781763027
  31
0.0
  11
 336.76333958380
  21
 217.72838030276
  31
0.0
  11
 337.14419777438
  21
 217.92740191474
  31
0.0
  11
 337.50859081660
  21
 218.12291821280
  31
0.0
  11
 337.85338648793
  21
 218.31311967681
  31
0.0
  11
 338.17593711294
  21
 218.49640346815
  31
0.0
   0
ARC
   5
262
 100
AcDbEntity
   8
LEVEL001
   6
CONTINUOUS
  62
15
 100
AcDbCircle
  10
 328.15514233964
  20
 232.72952115442
  30
0.0
  40
 4.1045658262544
 100
AcDbArc
  50
 240.81418563326
  51
 263.06963778856
   0
ARC
   5
263
 100
AcDbEntity
   8
LEVEL001
   6
CONTINUOUS
  62
15
 100
AcDbCircle
  10
 326.03013656814
  20
 217.83216280172
  30
0.0
  40
 10.944800628844
 100
AcDbArc
  50
 69.505922936205
  51
 81.436517543106
   0
SPLINE
   5
264
 100
AcDbEntity
   8
LEVEL001
   6
CONTINUOUS
  62
15
 100
AcDbSpline
  70
8
  71
3
  72
10
  73
6
  74
4
  42
 0.10000000000000E-6
  43
 0.10000000000000E-6
  44
 0.10000000000000E-4
  40
0.0
  40
0.0
  40
0.0
  40
0.0
  40
 0.33333333333333
  40
 0.66666666666667
  40
 1.0000000000000
  40
 1.0000000000000
  40
 1.0000000000000
  40
 1.0000000000000
  10
 329.86202702488
  20
 228.08424897924
  30
0.0
  10
 330.57646409076
  20
 226.89808875795
  30
0.0
  10
 332.36020957205
  20
 224.73063118483
  30
0.0
  10
 335.45448923733
  20
 221.72113293191
  30
0.0
  10
 337.36581490630
  20
 219.62732583344
  30
0.0
  10
 338.17593711294
  20
 218.49640346815
  30
0.0
  11
 329.86202702488
  21
 228.08424897924
  31
0.0
  11
 332.42998647928
  21
 224.77091253596
  31
0.0
  11
 335.41660737703
  21
 221.69926419945
  31
0.0
  11
 338.17593711294
  21
 218.49640346815
  31
0.0
   0
LINE
   5
265
 100
AcDbEntity
   8
LEVEL001
 100
AcDbLine
   6
CONTINUOUS
  62
15
  10
 338.17593664084
  20
 218.49640361052
  30
0.0
  11
 348.22432059344
  21
 224.29721177772
  31
0.0
   0
LINE
   5
266
 100
AcDbEntity
   8
LEVEL001
 100
AcDbLine
   6
CONTINUOUS
  62
15
  10
 342.56065336284
  20
 235.41500992452
  30
0.0
  11
 329.86202674844
  21
 228.08424934312
  31
0.0
   0
LINE
   5
267
 100
AcDbEntity
   8
LEVEL001
 100
AcDbLine
   6
CONTINUOUS
  62
15
  10
 348.22432059344
  20
 224.29721177772
  30
0.0
  11
 342.56065336284
  21
 235.41500992452
  31
0.0
   0
LINE
   5
268
 100
AcDbEntity
   8
LEVEL001
 100
AcDbLine
   6
CONTINUOUS
  62
15
  10
 308.62216113094
  20
 239.26673055022
  30
0.0
  11
 326.15357740834
  21
 229.14605935782
  31
0.0
   0
LINE
   5
269
 100
AcDbEntity
   8
LEVEL001
 100
AcDbLine
   6
CONTINUOUS
  62
15
  10
 330.82289811214
  20
 212.56932400452
  30
0.0
  11
 330.82289768014
  21
 215.22910813652
  31
0.0
   0
LINE
   5
26A
 100
AcDbEntity
   8
LEVEL001
 100
AcDbLine
   6
CONTINUOUS
  62
15
  10
 303.95284042714
  20
 228.08107812912
  30
0.0
  11
 330.82289811214
  21
 212.56932400452
  31
0.0
   0
LINE
   5
26B
 100
AcDbEntity
   8
LEVEL001
 100
AcDbLine
   6
CONTINUOUS
  62
15
  10
 303.95284085914
  20
 230.74086176242
  30
0.0
  11
 303.95284042714
  21
 228.08107812912
  31
0.0
   0
LINE
   5
26C
 100
AcDbEntity
   8
LEVEL001
 100
AcDbLine
   6
CONTINUOUS
  62
15
  10
 327.65987350544
  20
 228.65494517602
  30
0.0
  11
 341.47422441024
  21
 236.62980025372
  31
0.0
   0
ARC
   5
26D
 100
AcDbEntity
   8
LEVEL001
   6
CONTINUOUS
  62
15
 100
AcDbCircle
  10
 339.89517421774
  20
 234.12439106881
  30
0.0
  40
 2.9614984786862
 100
AcDbArc
  50
 25.836166743158
  51
 57.778558138169
   0
SPLINE
   5
26E
 100
AcDbEntity
   8
LEVEL001
   6
CONTINUOUS
  62
15
 100
AcDbSpline
  70
8
  71
3
  72
20
  73
16
  74
14
  42
 0.10000000000000E-6
  43
 0.10000000000000E-6
  44
 0.10000000000000E-4
  40
0.0
  40
0.0
  40
0.0
  40
0.0
  40
 0.56957196695432E-1
  40
 0.11549631317095
  40
 0.17561743502689
  40
 0.23732063945635
  40
 0.30060599603828
  40
 0.36547356743400
  40
 0.43192341000084
  40
 0.49995557433445
  40
 0.57351047783775
  40
 0.66029429335321
  40
 0.76030524734012
  40
 0.87354126938021
  40
 1.0000000000000
  40
 1.0000000000000
  40
 1.0000000000000
  40
 1.0000000000000
  10
 338.17593711294
  20
 218.49640346815
  30
0.0
  10
 338.21366140454
  20
 218.42724268060
  30
0.0
  10
 338.29015773597
  20
 218.28700024520
  30
0.0
  10
 338.39986978595
  20
 218.07170120433
  30
0.0
  10
 338.50717263116
  20
 217.84944904256
  30
0.0
  10
 338.61094124088
  20
 217.62036782795
  30
0.0
  10
 338.71062112877
  20
 217.38486881430
  30
0.0
  10
 338.80546363821
  20
 217.14336806424
  30
0.0
  10
 338.89474371796
  20
 216.89637370999
  30
0.0
  10
 338.97929606023
  20
 216.63958752648
  30
0.0
  10
 339.06197333234
  20
 216.35953083222
  30
0.0
  10
 339.14293188584
  20
 216.04340099655
  30
0.0
  10
 339.21737959742
  20
 215.68502080852
  30
0.0
  10
 339.27943999846
  20
 215.28752850340
  30
0.0
  10
 339.29825370575
  20
 215.01960729004
  30
0.0
  10
 339.30817948642
  20
 214.87825677580
  30
0.0
  11
 338.17593711294
  21
 218.49640346815
  31
0.0
  11
 338.28805371315
  21
 218.28859258649
  31
0.0
  11
 338.39802097924
  21
 218.07345898143
  31
0.0
  11
 338.50521233872
  21
 217.85124139633
  31
0.0
  11
 338.60897141298
  21
 217.62223855049
  31
0.0
  11
 338.70861334838
  21
 217.38681310293
  31
0.0
  11
 338.80342654856
  21
 217.14539548970
  31
0.0
  11
 338.89267483870
  21
 216.89848758310
  31
0.0
  11
 338.97560009185
  21
 216.64666611644
  31
0.0
  11
 339.05546080496
  21
 216.37616114661
  31
0.0
  11
 339.13628561337
  21
 216.06025929157
  31
0.0
  11
 339.21102837203
  21
 215.70196092801
  31
0.0
  11
 339.27145029514
  21
 215.30580082733
  31
0.0
  11
 339.30817948642
  21
 214.87825677580
  31
0.0
   0
LINE
   5
26F
 100
AcDbEntity
   8
LEVEL001
 100
AcDbLine
   6
CONTINUOUS
  62
15
  10
 316.57469620624
  20
 240.26822534152
  30
0.0
  11
 316.88663030044
  21
 240.10553287932
  31
0.0
   0
LINE
   5
270
 100
AcDbEntity
   8
LEVEL001
 100
AcDbLine
   6
CONTINUOUS
  62
15
  10
 316.88663030044
  20
 240.10553287932
  30
0.0
  11
 317.22547482814
  21
 239.96189318952
  31
0.0
   0
LINE
   5
271
 100
AcDbEntity
   8
LEVEL001
 100
AcDbLine
   6
CONTINUOUS
  62
15
  10
 317.22547482814
  20
 239.96189318952
  30
0.0
  11
 317.58775366214
  21
 239.83878037992
  31
0.0
   0
LINE
   5
272
 100
AcDbEntity
   8
LEVEL001
 100
AcDbLine
   6
CONTINUOUS
  62
15
  10
 317.58775366214
  20
 239.83878037992
  30
0.0
  11
 317.96974898944
  21
 239.73745718402
  31
0.0
   0
LINE
   5
273
 100
AcDbEntity
   8
LEVEL001
 100
AcDbLine
   6
CONTINUOUS
  62
15
  10
 317.96974898944
  20
 239.73745718402
  30
0.0
  11
 318.36754082384
  21
 239.65896355592
  31
0.0
   0
LINE
   5
274
 100
AcDbEntity
   8
LEVEL001
 100
AcDbLine
   6
CONTINUOUS
  62
15
  10
 318.36754082384
  20
 239.65896355592
  30
0.0
  11
 318.77704750654
  21
 239.60410507502
  31
0.0
   0
LINE
   5
275
 100
AcDbEntity
   8
LEVEL001
 100
AcDbLine
   6
CONTINUOUS
  62
15
  10
 318.77704750654
  20
 239.60410507502
  30
0.0
  11
 319.19406719424
  21
 239.57344458272
  31
0.0
   0
LINE
   5
276
 100
AcDbEntity
   8
LEVEL001
 100
AcDbLine
   6
CONTINUOUS
  62
15
  10
 319.19406719424
  20
 239.57344458272
  30
0.0
  11
 319.61432066474
  21
 239.56729685922
  31
0.0
   0
LINE
   5
277
 100
AcDbEntity
   8
LEVEL001
 100
AcDbLine
   6
CONTINUOUS
  62
15
  10
 319.61432066474
  20
 239.56729685922
  30
0.0
  11
 320.03349445144
  21
 239.58572463272
  31
0.0
   0
LINE
   5
278
 100
AcDbEntity
   8
LEVEL001
 100
AcDbLine
   6
CONTINUOUS
  62
15
  10
 320.03349445144
  20
 239.58572463272
  30
0.0
  11
 320.44728891744
  21
 239.62853895882
  31
0.0
   0
LINE
   5
279
 100
AcDbEntity
   8
LEVEL001
 100
AcDbLine
   6
CONTINUOUS
  62
15
  10
 320.44728891744
  20
 239.62853895882
  30
0.0
  11
 320.85145710904
  21
 239.69530074152
  31
0.0
   0
LINE
   5
27A
 100
AcDbEntity
   8
LEVEL001
 100
AcDbLine
   6
CONTINUOUS
  62
15
  10
 320.85145710904
  20
 239.69530074152
  30
0.0
  11
 321.24185184224
  21
 239.78532472512
  31
0.0
   0
LINE
   5
27B
 100
AcDbEntity
   8
LEVEL001
 100
AcDbLine
   6
CONTINUOUS
  62
15
  10
 321.24185184224
  20
 239.78532472512
  30
0.0
  11
 321.61446686164
  21
 239.89768690722
  31
0.0
   0
LINE
   5
27C
 100
AcDbEntity
   8
LEVEL001
 100
AcDbLine
   6
CONTINUOUS
  62
15
  10
 321.61446686164
  20
 239.89768690722
  30
0.0
  11
 321.96547964544
  21
 240.03123480352
  31
0.0
   0
LINE
   5
27D
 100
AcDbEntity
   8
LEVEL001
 100
AcDbLine
   6
CONTINUOUS
  62
15
  10
 321.96547964544
  20
 240.03123480352
  30
0.0
  11
 322.29128680284
  21
 240.18459742722
  31
0.0
   0
LINE
   5
27E
 100
AcDbEntity
   8
LEVEL001
 100
AcDbLine
   6
CONTINUOUS
  62
15
  10
 322.29128680284
  20
 240.18459742722
  30
0.0
  11
 322.58854589124
  21
 240.35620144622
  31
0.0
   0
LINE
   5
27F
 100
AcDbEntity
   8
LEVEL001
 100
AcDbLine
   6
CONTINUOUS
  62
15
  10
 322.58854589124
  20
 240.35620144622
  30
0.0
  11
 322.85420719094
  21
 240.54428629492
  31
0.0
   0
LINE
   5
280
 100
AcDbEntity
   8
LEVEL001
 100
AcDbLine
   6
CONTINUOUS
  62
15
  10
 322.85420719094
  20
 240.54428629492
  30
0.0
  11
 323.08554333984
  21
 240.74692128162
  31
0.0
   0
LINE
   5
281
 100
AcDbEntity
   8
LEVEL001
 100
AcDbLine
   6
CONTINUOUS
  62
15
  10
 323.08554333984
  20
 240.74692128162
  30
0.0
  11
 323.28018143754
  21
 240.96202735362
  31
0.0
   0
LINE
   5
282
 100
AcDbEntity
   8
LEVEL001
 100
AcDbLine
   6
CONTINUOUS
  62
15
  10
 323.28018143754
  20
 240.96202735362
  30
0.0
  11
 323.43612444774
  21
 241.18739743602
  31
0.0
   0
LINE
   5
283
 100
AcDbEntity
   8
LEVEL001
 100
AcDbLine
   6
CONTINUOUS
  62
15
  10
 323.43612444774
  20
 241.18739743602
  30
0.0
  11
 323.55177177814
  21
 241.42071876662
  31
0.0
   0
LINE
   5
284
 100
AcDbEntity
   8
LEVEL001
 100
AcDbLine
   6
CONTINUOUS
  62
15
  10
 323.55177177814
  20
 241.42071876662
  30
0.0
  11
 323.62593640204
  21
 241.65959722712
  31
0.0
   0
LINE
   5
285
 100
AcDbEntity
   8
LEVEL001
 100
AcDbLine
   6
CONTINUOUS
  62
15
  10
 323.62593640204
  20
 241.65959722712
  30
0.0
  11
 323.65785770074
  21
 241.90158110352
  31
0.0
   0
LINE
   5
286
 100
AcDbEntity
   8
LEVEL001
 100
AcDbLine
   6
CONTINUOUS
  62
15
  10
 323.65785770074
  20
 241.90158110352
  30
0.0
  11
 323.64720837744
  21
 242.14418826792
  31
0.0
   0
LINE
   5
287
 100
AcDbEntity
   8
LEVEL001
 100
AcDbLine
   6
CONTINUOUS
  62
15
  10
 323.64720837744
  20
 242.14418826792
  30
0.0
  11
 323.59409676294
  21
 242.38492841922
  31
0.0
   0
LINE
   5
288
 100
AcDbEntity
   8
LEVEL001
 100
AcDbLine
   6
CONTINUOUS
  62
15
  10
 323.59409676294
  20
 242.38492841922
  30
0.0
  11
 323.49906944894
  21
 242.62133197532
  31
0.0
   0
LINE
   5
289
 100
AcDbEntity
   8
LEVEL001
 100
AcDbLine
   6
CONTINUOUS
  62
15
  10
 323.49906944894
  20
 242.62133197532
  30
0.0
  11
 323.36309943514
  21
 242.85097212322
  31
0.0
   0
LINE
   5
28A
 100
AcDbEntity
   8
LEVEL001
 100
AcDbLine
   6
CONTINUOUS
  62
15
  10
 323.36309943514
  20
 242.85097212322
  30
0.0
  11
 323.18758382354
  21
 243.07149352182
  31
0.0
   0
LINE
   5
28B
 100
AcDbEntity
   8
LEVEL001
 100
AcDbLine
   6
CONTINUOUS
  62
15
  10
 323.18758382354
  20
 243.07149352182
  30
0.0
  11
 322.97432241644
  21
 243.28063226092
  31
0.0
   0
LINE
   5
28C
 100
AcDbEntity
   8
LEVEL001
 100
AcDbLine
   6
CONTINUOUS
  62
15
  10
 322.97432241644
  20
 243.28063226092
  30
0.0
  11
 322.72550454504
  21
 243.47624323312
  31
0.0
   0
LINE
   5
28D
 100
AcDbEntity
   8
LEVEL001
 100
AcDbLine
   6
CONTINUOUS
  62
15
  10
 322.72550454504
  20
 243.47624323312
  30
0.0
  11
 322.44368272774
  21
 243.65631914272
  31
0.0
   0
LINE
   5
28E
 100
AcDbEntity
   8
LEVEL001
 100
AcDbLine
   6
CONTINUOUS
  62
15
  10
 322.44368272774
  20
 243.65631914272
  30
0.0
  11
 322.13174863354
  21
 243.81901122482
  31
0.0
   0
LINE
   5
28F
 100
AcDbEntity
   8
LEVEL001
 100
AcDbLine
   6
CONTINUOUS
  62
15
  10
 322.13174863354
  20
 243.81901122482
  30
0.0
  11
 321.79290377654
  21
 243.96265072452
  31
0.0
   0
LINE
   5
290
 100
AcDbEntity
   8
LEVEL001
 100
AcDbLine
   6
CONTINUOUS
  62
15
  10
 321.79290377654
  20
 243.96265072452
  30
0.0
  11
 321.43062593044
  21
 244.08576372422
  31
0.0
   0
LINE
   5
291
 100
AcDbEntity
   8
LEVEL001
 100
AcDbLine
   6
CONTINUOUS
  62
15
  10
 321.43062593044
  20
 244.08576372422
  30
0.0
  11
 321.04862994454
  21
 244.18708692012
  31
0.0
   0
LINE
   5
292
 100
AcDbEntity
   8
LEVEL001
 100
AcDbLine
   6
CONTINUOUS
  62
15
  10
 321.04862994454
  20
 244.18708692012
  30
0.0
  11
 320.65083876864
  21
 244.26558054822
  31
0.0
   0
LINE
   5
293
 100
AcDbEntity
   8
LEVEL001
 100
AcDbLine
   6
CONTINUOUS
  62
15
  10
 320.65083876864
  20
 244.26558054822
  30
0.0
  11
 320.24133142744
  21
 244.32043864892
  31
0.0
   0
LINE
   5
294
 100
AcDbEntity
   8
LEVEL001
 100
AcDbLine
   6
CONTINUOUS
  62
15
  10
 320.24133142744
  20
 244.32043864892
  30
0.0
  11
 319.82431206904
  21
 244.35109933142
  31
0.0
   0
LINE
   5
295
 100
AcDbEntity
   8
LEVEL001
 100
AcDbLine
   6
CONTINUOUS
  62
15
  10
 319.82431206904
  20
 244.35109933142
  30
0.0
  11
 319.40405859854
  21
 244.35724705482
  31
0.0
   0
LINE
   5
296
 100
AcDbEntity
   8
LEVEL001
 100
AcDbLine
   6
CONTINUOUS
  62
15
  10
 319.40405859854
  20
 244.35724705482
  30
0.0
  11
 318.98488448254
  21
 244.33881947142
  31
0.0
   0
LINE
   5
297
 100
AcDbEntity
   8
LEVEL001
 100
AcDbLine
   6
CONTINUOUS
  62
15
  10
 318.98488448254
  20
 244.33881947142
  30
0.0
  11
 318.57109001654
  21
 244.29600514532
  31
0.0
   0
LINE
   5
298
 100
AcDbEntity
   8
LEVEL001
 100
AcDbLine
   6
CONTINUOUS
  62
15
  10
 318.57109001654
  20
 244.29600514532
  30
0.0
  11
 318.16692215424
  21
 244.22924317252
  31
0.0
   0
LINE
   5
299
 100
AcDbEntity
   8
LEVEL001
 100
AcDbLine
   6
CONTINUOUS
  62
15
  10
 318.16692215424
  20
 244.22924317252
  30
0.0
  11
 317.77652709174
  21
 244.13921937902
  31
0.0
   0
LINE
   5
29A
 100
AcDbEntity
   8
LEVEL001
 100
AcDbLine
   6
CONTINUOUS
  62
15
  10
 317.77652709174
  20
 244.13921937902
  30
0.0
  11
 317.40391207244
  21
 244.02685719692
  31
0.0
   0
LINE
   5
29B
 100
AcDbEntity
   8
LEVEL001
 100
AcDbLine
   6
CONTINUOUS
  62
15
  10
 317.40391207244
  20
 244.02685719692
  30
0.0
  11
 317.05289994714
  21
 243.89330968082
  31
0.0
   0
LINE
   5
29C
 100
AcDbEntity
   8
LEVEL001
 100
AcDbLine
   6
CONTINUOUS
  62
15
  10
 317.05289994714
  20
 243.89330968082
  30
0.0
  11
 316.72709229574
  21
 243.73994658182
  31
0.0
   0
LINE
   5
29D
 100
AcDbEntity
   8
LEVEL001
 100
AcDbLine
   6
CONTINUOUS
  62
15
  10
 316.72709229574
  20
 243.73994658182
  30
0.0
  11
 316.42983320744
  21
 243.56834256282
  31
0.0
   0
LINE
   5
29E
 100
AcDbEntity
   8
LEVEL001
 100
AcDbLine
   6
CONTINUOUS
  62
15
  10
 316.42983320744
  20
 243.56834256282
  30
0.0
  11
 316.16417240164
  21
 243.38025818942
  31
0.0
   0
LINE
   5
29F
 100
AcDbEntity
   8
LEVEL001
 100
AcDbLine
   6
CONTINUOUS
  62
15
  10
 316.16417240164
  20
 243.38025818942
  30
0.0
  11
 315.93283559414
  21
 243.17762282252
  31
0.0
   0
LINE
   5
2A0
 100
AcDbEntity
   8
LEVEL001
 100
AcDbLine
   6
CONTINUOUS
  62
15
  10
 315.93283559414
  20
 243.17762282252
  30
0.0
  11
 315.73819749644
  21
 242.96251675052
  31
0.0
   0
LINE
   5
2A1
 100
AcDbEntity
   8
LEVEL001
 100
AcDbLine
   6
CONTINUOUS
  62
15
  10
 315.73819749644
  20
 242.96251675052
  30
0.0
  11
 315.58225481554
  21
 242.73714647802
  31
0.0
   0
LINE
   5
2A2
 100
AcDbEntity
   8
LEVEL001
 100
AcDbLine
   6
CONTINUOUS
  62
15
  10
 315.58225481554
  20
 242.73714647802
  30
0.0
  11
 315.46660715594
  21
 242.50382533752
  31
0.0
   0
LINE
   5
2A3
 100
AcDbEntity
   8
LEVEL001
 100
AcDbLine
   6
CONTINUOUS
  62
15
  10
 315.46660715594
  20
 242.50382533752
  30
0.0
  11
 315.39244253194
  21
 242.26494687702
  31
0.0
   0
LINE
   5
2A4
 100
AcDbEntity
   8
LEVEL001
 100
AcDbLine
   6
CONTINUOUS
  62
15
  10
 315.39244253194
  20
 242.26494687702
  30
0.0
  11
 315.36052156254
  21
 242.02296281062
  31
0.0
   0
LINE
   5
2A5
 100
AcDbEntity
   8
LEVEL001
 100
AcDbLine
   6
CONTINUOUS
  62
15
  10
 315.36052156254
  20
 242.02296281062
  30
0.0
  11
 315.37117088584
  21
 241.78035564612
  31
0.0
   0
LINE
   5
2A6
 100
AcDbEntity
   8
LEVEL001
 100
AcDbLine
   6
CONTINUOUS
  62
15
  10
 315.37117088584
  20
 241.78035564612
  30
0.0
  11
 315.42428217114
  21
 241.53961530472
  31
0.0
   0
LINE
   5
2A7
 100
AcDbEntity
   8
LEVEL001
 100
AcDbLine
   6
CONTINUOUS
  62
15
  10
 315.42428217114
  20
 241.53961530472
  30
0.0
  11
 315.51931014364
  21
 241.30321212882
  31
0.0
   0
LINE
   5
2A8
 100
AcDbEntity
   8
LEVEL001
 100
AcDbLine
   6
CONTINUOUS
  62
15
  10
 315.51931014364
  20
 241.30321212882
  30
0.0
  11
 315.65527949894
  21
 241.07357198092
  31
0.0
   0
LINE
   5
2A9
 100
AcDbEntity
   8
LEVEL001
 100
AcDbLine
   6
CONTINUOUS
  62
15
  10
 315.65527949894
  20
 241.07357198092
  30
0.0
  11
 315.83079576894
  21
 240.85305058232
  31
0.0
   0
LINE
   5
2AA
 100
AcDbEntity
   8
LEVEL001
 100
AcDbLine
   6
CONTINUOUS
  62
15
  10
 315.83079576894
  20
 240.85305058232
  30
0.0
  11
 316.04405618824
  21
 240.64391165312
  31
0.0
   0
LINE
   5
2AB
 100
AcDbEntity
   8
LEVEL001
 100
AcDbLine
   6
CONTINUOUS
  62
15
  10
 316.04405618824
  20
 240.64391165312
  30
0.0
  11
 316.29287438904
  21
 240.44830087102
  31
0.0
   0
LINE
   5
2AC
 100
AcDbEntity
   8
LEVEL001
 100
AcDbLine
   6
CONTINUOUS
  62
15
  10
 316.29287438904
  20
 240.44830087102
  30
0.0
  11
 316.57469620624
  21
 240.26822534152
  31
0.0
   0
LINE
   5
2AD
 100
AcDbEntity
   8
LEVEL001
 100
AcDbLine
   6
CONTINUOUS
  62
15
  10
 327.88840524264
  20
 233.73696013672
  30
0.0
  11
 328.20033900754
  21
 233.57426786462
  31
0.0
   0
LINE
   5
2AE
 100
AcDbEntity
   8
LEVEL001
 100
AcDbLine
   6
CONTINUOUS
  62
15
  10
 328.20033900754
  20
 233.57426786462
  30
0.0
  11
 328.53918353524
  21
 233.43062817482
  31
0.0
   0
LINE
   5
2AF
 100
AcDbEntity
   8
LEVEL001
 100
AcDbLine
   6
CONTINUOUS
  62
15
  10
 328.53918353524
  20
 233.43062817482
  30
0.0
  11
 328.90146203994
  21
 233.30751555532
  31
0.0
   0
LINE
   5
2B0
 100
AcDbEntity
   8
LEVEL001
 100
AcDbLine
   6
CONTINUOUS
  62
15
  10
 328.90146203994
  20
 233.30751555532
  30
0.0
  11
 329.28345769654
  21
 233.20619216932
  31
0.0
   0
LINE
   5
2B1
 100
AcDbEntity
   8
LEVEL001
 100
AcDbLine
   6
CONTINUOUS
  62
15
  10
 329.28345769654
  20
 233.20619216932
  30
0.0
  11
 329.68124920164
  21
 233.12769873122
  31
0.0
   0
LINE
   5
2B2
 100
AcDbEntity
   8
LEVEL001
 100
AcDbLine
   6
CONTINUOUS
  62
15
  10
 329.68124920164
  20
 233.12769873122
  30
0.0
  11
 330.09075588434
  21
 233.07284025042
  31
0.0
   0
LINE
   5
2B3
 100
AcDbEntity
   8
LEVEL001
 100
AcDbLine
   6
CONTINUOUS
  62
15
  10
 330.09075588434
  20
 233.07284025042
  30
0.0
  11
 330.50777557204
  21
 233.04217975802
  31
0.0
   0
LINE
   5
2B4
 100
AcDbEntity
   8
LEVEL001
 100
AcDbLine
   6
CONTINUOUS
  62
15
  10
 330.50777557204
  20
 233.04217975802
  30
0.0
  11
 330.92802904254
  21
 233.03603203462
  31
0.0
   0
LINE
   5
2B5
 100
AcDbEntity
   8
LEVEL001
 100
AcDbLine
   6
CONTINUOUS
  62
15
  10
 330.92802904254
  20
 233.03603203462
  30
0.0
  11
 331.34720315854
  21
 233.05445961802
  31
0.0
   0
LINE
   5
2B6
 100
AcDbEntity
   8
LEVEL001
 100
AcDbLine
   6
CONTINUOUS
  62
15
  10
 331.34720315854
  20
 233.05445961802
  30
0.0
  11
 331.76099762454
  21
 233.09727394402
  31
0.0
   0
LINE
   5
2B7
 100
AcDbEntity
   8
LEVEL001
 100
AcDbLine
   6
CONTINUOUS
  62
15
  10
 331.76099762454
  20
 233.09727394402
  30
0.0
  11
 332.16516548684
  21
 233.16403591692
  31
0.0
   0
LINE
   5
2B8
 100
AcDbEntity
   8
LEVEL001
 100
AcDbLine
   6
CONTINUOUS
  62
15
  10
 332.16516548684
  20
 233.16403591692
  30
0.0
  11
 332.55556054934
  21
 233.25405971042
  31
0.0
   0
LINE
   5
2B9
 100
AcDbEntity
   8
LEVEL001
 100
AcDbLine
   6
CONTINUOUS
  62
15
  10
 332.55556054934
  20
 233.25405971042
  30
0.0
  11
 332.92817556874
  21
 233.36642189252
  31
0.0
   0
LINE
   5
2BA
 100
AcDbEntity
   8
LEVEL001
 100
AcDbLine
   6
CONTINUOUS
  62
15
  10
 332.92817556874
  20
 233.36642189252
  30
0.0
  11
 333.27918835254
  21
 233.49996978882
  31
0.0
   0
LINE
   5
2BB
 100
AcDbEntity
   8
LEVEL001
 100
AcDbLine
   6
CONTINUOUS
  62
15
  10
 333.27918835254
  20
 233.49996978882
  30
0.0
  11
 333.60499534534
  21
 233.65333250752
  31
0.0
   0
LINE
   5
2BC
 100
AcDbEntity
   8
LEVEL001
 100
AcDbLine
   6
CONTINUOUS
  62
15
  10
 333.60499534534
  20
 233.65333250752
  30
0.0
  11
 333.90225443364
  21
 233.82493652662
  31
0.0
   0
LINE
   5
2BD
 100
AcDbEntity
   8
LEVEL001
 100
AcDbLine
   6
CONTINUOUS
  62
15
  10
 333.90225443364
  20
 233.82493652662
  30
0.0
  11
 334.16791589804
  21
 234.01302128022
  31
0.0
   0
LINE
   5
2BE
 100
AcDbEntity
   8
LEVEL001
 100
AcDbLine
   6
CONTINUOUS
  62
15
  10
 334.16791589804
  20
 234.01302128022
  30
0.0
  11
 334.39925204694
  21
 234.21565626692
  31
0.0
   0
LINE
   5
2BF
 100
AcDbEntity
   8
LEVEL001
 100
AcDbLine
   6
CONTINUOUS
  62
15
  10
 334.39925204694
  20
 234.21565626692
  30
0.0
  11
 334.59389014464
  21
 234.43076233892
  31
0.0
   0
LINE
   5
2C0
 100
AcDbEntity
   8
LEVEL001
 100
AcDbLine
   6
CONTINUOUS
  62
15
  10
 334.59389014464
  20
 234.43076233892
  30
0.0
  11
 334.74983282564
  21
 234.65613261132
  31
0.0
   0
LINE
   5
2C1
 100
AcDbEntity
   8
LEVEL001
 100
AcDbLine
   6
CONTINUOUS
  62
15
  10
 334.74983282564
  20
 234.65613261132
  30
0.0
  11
 334.86548048514
  21
 234.88945375192
  31
0.0
   0
LINE
   5
2C2
 100
AcDbEntity
   8
LEVEL001
 100
AcDbLine
   6
CONTINUOUS
  62
15
  10
 334.86548048514
  20
 234.88945375192
  30
0.0
  11
 334.93964510914
  21
 235.12833221242
  31
0.0
   0
LINE
   5
2C3
 100
AcDbEntity
   8
LEVEL001
 100
AcDbLine
   6
CONTINUOUS
  62
15
  10
 334.93964510914
  20
 235.12833221242
  30
0.0
  11
 334.97156607854
  21
 235.37031627882
  31
0.0
   0
LINE
   5
2C4
 100
AcDbEntity
   8
LEVEL001
 100
AcDbLine
   6
CONTINUOUS
  62
15
  10
 334.97156607854
  20
 235.37031627882
  30
0.0
  11
 334.96091675524
  21
 235.61292344332
  31
0.0
   0
LINE
   5
2C5
 100
AcDbEntity
   8
LEVEL001
 100
AcDbLine
   6
CONTINUOUS
  62
15
  10
 334.96091675524
  20
 235.61292344332
  30
0.0
  11
 334.90780514074
  21
 235.85366359462
  31
0.0
   0
LINE
   5
2C6
 100
AcDbEntity
   8
LEVEL001
 100
AcDbLine
   6
CONTINUOUS
  62
15
  10
 334.90780514074
  20
 235.85366359462
  30
0.0
  11
 334.81277782674
  21
 236.09006715072
  31
0.0
   0
LINE
   5
2C7
 100
AcDbEntity
   8
LEVEL001
 100
AcDbLine
   6
CONTINUOUS
  62
15
  10
 334.81277782674
  20
 236.09006715072
  30
0.0
  11
 334.67680814224
  21
 236.31970710852
  31
0.0
   0
LINE
   5
2C8
 100
AcDbEntity
   8
LEVEL001
 100
AcDbLine
   6
CONTINUOUS
  62
15
  10
 334.67680814224
  20
 236.31970710852
  30
0.0
  11
 334.50129220134
  21
 236.54022869722
  31
0.0
   0
LINE
   5
2C9
 100
AcDbEntity
   8
LEVEL001
 100
AcDbLine
   6
CONTINUOUS
  62
15
  10
 334.50129220134
  20
 236.54022869722
  30
0.0
  11
 334.28803112354
  21
 236.74936724622
  31
0.0
   0
LINE
   5
2CA
 100
AcDbEntity
   8
LEVEL001
 100
AcDbLine
   6
CONTINUOUS
  62
15
  10
 334.28803112354
  20
 236.74936724622
  30
0.0
  11
 334.03921325214
  21
 236.94497821842
  31
0.0
   0
LINE
   5
2CB
 100
AcDbEntity
   8
LEVEL001
 100
AcDbLine
   6
CONTINUOUS
  62
15
  10
 334.03921325214
  20
 236.94497821842
  30
0.0
  11
 333.75739176404
  21
 237.12505393792
  31
0.0
   0
LINE
   5
2CC
 100
AcDbEntity
   8
LEVEL001
 100
AcDbLine
   6
CONTINUOUS
  62
15
  10
 333.75739176404
  20
 237.12505393792
  30
0.0
  11
 333.44545734064
  21
 237.28774621012
  31
0.0
   0
LINE
   5
2CD
 100
AcDbEntity
   8
LEVEL001
 100
AcDbLine
   6
CONTINUOUS
  62
15
  10
 333.44545734064
  20
 237.28774621012
  30
0.0
  11
 333.10661248364
  21
 237.43138570982
  31
0.0
   0
LINE
   5
2CE
 100
AcDbEntity
   8
LEVEL001
 100
AcDbLine
   6
CONTINUOUS
  62
15
  10
 333.10661248364
  20
 237.43138570982
  30
0.0
  11
 332.74433430824
  21
 237.55449889962
  31
0.0
   0
LINE
   5
2CF
 100
AcDbEntity
   8
LEVEL001
 100
AcDbLine
   6
CONTINUOUS
  62
15
  10
 332.74433430824
  20
 237.55449889962
  30
0.0
  11
 332.36233865164
  21
 237.65582190542
  31
0.0
   0
LINE
   5
2D0
 100
AcDbEntity
   8
LEVEL001
 100
AcDbLine
   6
CONTINUOUS
  62
15
  10
 332.36233865164
  20
 237.65582190542
  30
0.0
  11
 331.96454714654
  21
 237.73431572362
  31
0.0
   0
LINE
   5
2D1
 100
AcDbEntity
   8
LEVEL001
 100
AcDbLine
   6
CONTINUOUS
  62
15
  10
 331.96454714654
  20
 237.73431572362
  30
0.0
  11
 331.55503980524
  21
 237.78917382432
  31
0.0
   0
LINE
   5
2D2
 100
AcDbEntity
   8
LEVEL001
 100
AcDbLine
   6
CONTINUOUS
  62
15
  10
 331.55503980524
  20
 237.78917382432
  30
0.0
  11
 331.13802044684
  21
 237.81983450672
  31
0.0
   0
LINE
   5
2D3
 100
AcDbEntity
   8
LEVEL001
 100
AcDbLine
   6
CONTINUOUS
  62
15
  10
 331.13802044684
  20
 237.81983450672
  30
0.0
  11
 330.71776697634
  21
 237.82598223022
  31
0.0
   0
LINE
   5
2D4
 100
AcDbEntity
   8
LEVEL001
 100
AcDbLine
   6
CONTINUOUS
  62
15
  10
 330.71776697634
  20
 237.82598223022
  30
0.0
  11
 330.29859318964
  21
 237.80755445672
  31
0.0
   0
LINE
   5
2D5
 100
AcDbEntity
   8
LEVEL001
 100
AcDbLine
   6
CONTINUOUS
  62
15
  10
 330.29859318964
  20
 237.80755445672
  30
0.0
  11
 329.88479872364
  21
 237.76474013062
  31
0.0
   0
LINE
   5
2D6
 100
AcDbEntity
   8
LEVEL001
 100
AcDbLine
   6
CONTINUOUS
  62
15
  10
 329.88479872364
  20
 237.76474013062
  30
0.0
  11
 329.48063053204
  21
 237.69797834792
  31
0.0
   0
LINE
   5
2D7
 100
AcDbEntity
   8
LEVEL001
 100
AcDbLine
   6
CONTINUOUS
  62
15
  10
 329.48063053204
  20
 237.69797834792
  30
0.0
  11
 329.09023579884
  21
 237.60795436432
  31
0.0
   0
LINE
   5
2D8
 100
AcDbEntity
   8
LEVEL001
 100
AcDbLine
   6
CONTINUOUS
  62
15
  10
 329.09023579884
  20
 237.60795436432
  30
0.0
  11
 328.71762077944
  21
 237.49559218222
  31
0.0
   0
LINE
   5
2D9
 100
AcDbEntity
   8
LEVEL001
 100
AcDbLine
   6
CONTINUOUS
  62
15
  10
 328.71762077944
  20
 237.49559218222
  30
0.0
  11
 328.36660865424
  21
 237.36204466612
  31
0.0
   0
LINE
   5
2DA
 100
AcDbEntity
   8
LEVEL001
 100
AcDbLine
   6
CONTINUOUS
  62
15
  10
 328.36660865424
  20
 237.36204466612
  30
0.0
  11
 328.04080083824
  21
 237.20868166222
  31
0.0
   0
LINE
   5
2DB
 100
AcDbEntity
   8
LEVEL001
 100
AcDbLine
   6
CONTINUOUS
  62
15
  10
 328.04080083824
  20
 237.20868166222
  30
0.0
  11
 327.74354174984
  21
 237.03707764322
  31
0.0
   0
LINE
   5
2DC
 100
AcDbEntity
   8
LEVEL001
 100
AcDbLine
   6
CONTINUOUS
  62
15
  10
 327.74354174984
  20
 237.03707764322
  30
0.0
  11
 327.47788110874
  21
 236.84899317472
  31
0.0
   0
LINE
   5
2DD
 100
AcDbEntity
   8
LEVEL001
 100
AcDbLine
   6
CONTINUOUS
  62
15
  10
 327.47788110874
  20
 236.84899317472
  30
0.0
  11
 327.24654430124
  21
 236.64635780782
  31
0.0
   0
LINE
   5
2DE
 100
AcDbEntity
   8
LEVEL001
 100
AcDbLine
   6
CONTINUOUS
  62
15
  10
 327.24654430124
  20
 236.64635780782
  30
0.0
  11
 327.05190620354
  21
 236.43125173582
  31
0.0
   0
LINE
   5
2DF
 100
AcDbEntity
   8
LEVEL001
 100
AcDbLine
   6
CONTINUOUS
  62
15
  10
 327.05190620354
  20
 236.43125173582
  30
0.0
  11
 326.89596319334
  21
 236.20588165342
  31
0.0
   0
LINE
   5
2E0
 100
AcDbEntity
   8
LEVEL001
 100
AcDbLine
   6
CONTINUOUS
  62
15
  10
 326.89596319334
  20
 236.20588165342
  30
0.0
  11
 326.78031586304
  21
 235.97256032282
  31
0.0
   0
LINE
   5
2E1
 100
AcDbEntity
   8
LEVEL001
 100
AcDbLine
   6
CONTINUOUS
  62
15
  10
 326.78031586304
  20
 235.97256032282
  30
0.0
  11
 326.70615123904
  21
 235.73368186232
  31
0.0
   0
LINE
   5
2E2
 100
AcDbEntity
   8
LEVEL001
 100
AcDbLine
   6
CONTINUOUS
  62
15
  10
 326.70615123904
  20
 235.73368186232
  30
0.0
  11
 326.67422994034
  21
 235.49169798592
  31
0.0
   0
LINE
   5
2E3
 100
AcDbEntity
   8
LEVEL001
 100
AcDbLine
   6
CONTINUOUS
  62
15
  10
 326.67422994034
  20
 235.49169798592
  30
0.0
  11
 326.68487926364
  21
 235.24909082152
  31
0.0
   0
LINE
   5
2E4
 100
AcDbEntity
   8
LEVEL001
 100
AcDbLine
   6
CONTINUOUS
  62
15
  10
 326.68487926364
  20
 235.24909082152
  30
0.0
  11
 326.73799054894
  21
 235.00835048012
  31
0.0
   0
LINE
   5
2E5
 100
AcDbEntity
   8
LEVEL001
 100
AcDbLine
   6
CONTINUOUS
  62
15
  10
 326.73799054894
  20
 235.00835048012
  30
0.0
  11
 326.83301852144
  21
 234.77194730412
  31
0.0
   0
LINE
   5
2E6
 100
AcDbEntity
   8
LEVEL001
 100
AcDbLine
   6
CONTINUOUS
  62
15
  10
 326.83301852144
  20
 234.77194730412
  30
0.0
  11
 326.96898820594
  21
 234.54230696622
  31
0.0
   0
LINE
   5
2E7
 100
AcDbEntity
   8
LEVEL001
 100
AcDbLine
   6
CONTINUOUS
  62
15
  10
 326.96898820594
  20
 234.54230696622
  30
0.0
  11
 327.14450414684
  21
 234.32178575762
  31
0.0
   0
LINE
   5
2E8
 100
AcDbEntity
   8
LEVEL001
 100
AcDbLine
   6
CONTINUOUS
  62
15
  10
 327.14450414684
  20
 234.32178575762
  30
0.0
  11
 327.35776489534
  21
 234.11264663842
  31
0.0
   0
LINE
   5
2E9
 100
AcDbEntity
   8
LEVEL001
 100
AcDbLine
   6
CONTINUOUS
  62
15
  10
 327.35776489534
  20
 234.11264663842
  30
0.0
  11
 327.60658309604
  21
 233.91703585632
  31
0.0
   0
LINE
   5
2EA
 100
AcDbEntity
   8
LEVEL001
 100
AcDbLine
   6
CONTINUOUS
  62
15
  10
 327.60658309604
  20
 233.91703585632
  30
0.0
  11
 327.88840524264
  21
 233.73696013672
  31
0.0
   0
LINE
   5
2EB
 100
AcDbEntity
   8
LEVEL001
 100
AcDbLine
   6
CONTINUOUS
  62
15
  10
 335.15923738324
  20
 246.80662956092
  30
0.0
  11
 334.60621363744
  21
 247.12588337392
  31
0.0
   0
ARC
   5
2EC
 100
AcDbEntity
   8
LEVEL001
   6
CONTINUOUS
  62
15
 100
AcDbCircle
  10
 334.95924594584
  20
 240.78009965732
  30
0.0
  40
 6.0298478599506
 100
AcDbArc
  50
 88.099322128327
  51
 117.97157002703
   0
LINE
   5
2ED
 100
AcDbEntity
   8
LEVEL001
 100
AcDbLine
   6
CONTINUOUS
  62
15
  10
 332.13104565734
  20
 246.10554309862
  30
0.0
  11
 328.59551175144
  21
 244.06452281912
  31
0.0
   0
LINE
   5
2EE
 100
AcDbEntity
   8
LEVEL001
 100
AcDbLine
   6
CONTINUOUS
  62
15
  10
 328.59551148114
  20
 244.06452269532
  30
0.0
  11
 328.31369032244
  21
 243.88444754602
  31
0.0
   0
LINE
   5
2EF
 100
AcDbEntity
   8
LEVEL001
 100
AcDbLine
   6
CONTINUOUS
  62
15
  10
 328.31369032244
  20
 243.88444754602
  30
0.0
  11
 328.06487146314
  21
 243.68883638372
  31
0.0
   0
LINE
   5
2F0
 100
AcDbEntity
   8
LEVEL001
 100
AcDbLine
   6
CONTINUOUS
  62
15
  10
 328.06487146314
  20
 243.68883638372
  30
0.0
  11
 327.85161071464
  21
 243.47969764472
  31
0.0
   0
LINE
   5
2F1
 100
AcDbEntity
   8
LEVEL001
 100
AcDbLine
   6
CONTINUOUS
  62
15
  10
 327.85161071464
  20
 243.47969764472
  30
0.0
  11
 327.67609526774
  21
 243.25917653122
  31
0.0
   0
LINE
   5
2F2
 100
AcDbEntity
   8
LEVEL001
 100
AcDbLine
   6
CONTINUOUS
  62
15
  10
 327.67609526774
  20
 243.25917653122
  30
0.0
  11
 327.54012607704
  21
 243.02953628822
  31
0.0
   0
LINE
   5
2F3
 100
AcDbEntity
   8
LEVEL001
 100
AcDbLine
   6
CONTINUOUS
  62
15
  10
 327.54012607704
  20
 243.02953628822
  30
0.0
  11
 327.44509695214
  21
 242.79313225692
  31
0.0
   0
LINE
   5
2F4
 100
AcDbEntity
   8
LEVEL001
 100
AcDbLine
   6
CONTINUOUS
  62
15
  10
 327.44509695214
  20
 242.79313225692
  30
0.0
  11
 327.39198632534
  21
 242.55239229572
  31
0.0
   0
LINE
   5
2F5
 100
AcDbEntity
   8
LEVEL001
 100
AcDbLine
   6
CONTINUOUS
  62
15
  10
 327.39198632534
  20
 242.55239229572
  30
0.0
  11
 327.38133733134
  21
 242.30978570152
  31
0.0
   0
LINE
   5
2F6
 100
AcDbEntity
   8
LEVEL001
 100
AcDbLine
   6
CONTINUOUS
  62
15
  10
 327.38133733134
  20
 242.30978570152
  30
0.0
  11
 327.41325863004
  21
 242.06780144502
  31
0.0
   0
LINE
   5
2F7
 100
AcDbEntity
   8
LEVEL001
 100
AcDbLine
   6
CONTINUOUS
  62
15
  10
 327.41325863004
  20
 242.06780144502
  30
0.0
  11
 327.48742325394
  21
 241.82892298452
  31
0.0
   0
LINE
   5
2F8
 100
AcDbEntity
   8
LEVEL001
 100
AcDbLine
   6
CONTINUOUS
  62
15
  10
 327.48742325394
  20
 241.82892298452
  30
0.0
  11
 327.60307017274
  21
 241.59560151132
  31
0.0
   0
LINE
   5
2F9
 100
AcDbEntity
   8
LEVEL001
 100
AcDbLine
   6
CONTINUOUS
  62
15
  10
 327.60307017274
  20
 241.59560151132
  30
0.0
  11
 327.75901268904
  21
 241.37023133392
  31
0.0
   0
LINE
   5
2FA
 100
AcDbEntity
   8
LEVEL001
 100
AcDbLine
   6
CONTINUOUS
  62
15
  10
 327.75901268904
  20
 241.37023133392
  30
0.0
  11
 327.95365160994
  21
 241.15512554702
  31
0.0
   0
LINE
   5
2FB
 100
AcDbEntity
   8
LEVEL001
 100
AcDbLine
   6
CONTINUOUS
  62
15
  10
 327.95365160994
  20
 241.15512554702
  30
0.0
  11
 328.18498800584
  21
 240.95249041772
  31
0.0
   0
LINE
   5
2FC
 100
AcDbEntity
   8
LEVEL001
 100
AcDbLine
   6
CONTINUOUS
  62
15
  10
 328.18498800584
  20
 240.95249041772
  30
0.0
  11
 328.45064904824
  21
 240.76440590762
  31
0.0
   0
LINE
   5
2FD
 100
AcDbEntity
   8
LEVEL001
 100
AcDbLine
   6
CONTINUOUS
  62
15
  10
 328.45064904824
  20
 240.76440590762
  30
0.0
  11
 328.74790832184
  21
 240.59280178172
  31
0.0
   0
LINE
   5
2FE
 100
AcDbEntity
   8
LEVEL001
 100
AcDbLine
   6
CONTINUOUS
  62
15
  10
 328.74790832184
  20
 240.59280178172
  30
0.0
  11
 329.07371555124
  21
 240.43943892632
  31
0.0
   0
LINE
   5
2FF
 100
AcDbEntity
   8
LEVEL001
 100
AcDbLine
   6
CONTINUOUS
  62
15
  10
 329.07371555124
  20
 240.43943892632
  30
0.0
  11
 329.42472792354
  21
 240.30589126762
  31
0.0
   0
LINE
   5
300
 100
AcDbEntity
   8
LEVEL001
 100
AcDbLine
   6
CONTINUOUS
  62
15
  10
 329.42472792354
  20
 240.30589126762
  30
0.0
  11
 329.79734244894
  21
 240.19352861032
  31
0.0
   0
LINE
   5
301
 100
AcDbEntity
   8
LEVEL001
 100
AcDbLine
   6
CONTINUOUS
  62
15
  10
 329.79734244894
  20
 240.19352861032
  30
0.0
  11
 330.18773734684
  21
 240.10350491182
  31
0.0
   0
LINE
   5
302
 100
AcDbEntity
   8
LEVEL001
 100
AcDbLine
   6
CONTINUOUS
  62
15
  10
 330.18773734684
  20
 240.10350491182
  30
0.0
  11
 330.59190578534
  21
 240.03674336672
  31
0.0
   0
LINE
   5
303
 100
AcDbEntity
   8
LEVEL001
 100
AcDbLine
   6
CONTINUOUS
  62
15
  10
 330.59190578534
  20
 240.03674336672
  30
0.0
  11
 331.00570025134
  21
 239.99392904062
  31
0.0
   0
LINE
   5
304
 100
AcDbEntity
   8
LEVEL001
 100
AcDbLine
   6
CONTINUOUS
  62
15
  10
 331.00570025134
  20
 239.99392904062
  30
0.0
  11
 331.42487469664
  21
 239.97550126722
  31
0.0
   0
LINE
   5
305
 100
AcDbEntity
   8
LEVEL001
 100
AcDbLine
   6
CONTINUOUS
  62
15
  10
 331.42487469664
  20
 239.97550126722
  30
0.0
  11
 331.84512717934
  21
 239.98164880052
  31
0.0
   0
LINE
   5
306
 100
AcDbEntity
   8
LEVEL001
 100
AcDbLine
   6
CONTINUOUS
  62
15
  10
 331.84512717934
  20
 239.98164880052
  30
0.0
  11
 332.26214620844
  21
 240.01230891272
  31
0.0
   0
LINE
   5
307
 100
AcDbEntity
   8
LEVEL001
 100
AcDbLine
   6
CONTINUOUS
  62
15
  10
 332.26214620844
  20
 240.01230891272
  30
0.0
  11
 332.67165437284
  21
 240.06716805892
  31
0.0
   0
LINE
   5
308
 100
AcDbEntity
   8
LEVEL001
 100
AcDbLine
   6
CONTINUOUS
  62
15
  10
 332.67165437284
  20
 240.06716805892
  30
0.0
  11
 333.06944604264
  21
 240.14566140182
  31
0.0
   0
LINE
   5
309
 100
AcDbEntity
   8
LEVEL001
 100
AcDbLine
   6
CONTINUOUS
  62
15
  10
 333.06944604264
  20
 240.14566140182
  30
0.0
  11
 333.45144120534
  21
 240.24698431262
  31
0.0
   0
LINE
   5
30A
 100
AcDbEntity
   8
LEVEL001
 100
AcDbLine
   6
CONTINUOUS
  62
15
  10
 333.45144120534
  20
 240.24698431262
  30
0.0
  11
 333.81371938074
  21
 240.37009712222
  31
0.0
   0
LINE
   5
30B
 100
AcDbEntity
   8
LEVEL001
 100
AcDbLine
   6
CONTINUOUS
  62
15
  10
 333.81371938074
  20
 240.37009712222
  30
0.0
  11
 334.15256456704
  21
 240.51373719222
  31
0.0
   0
LINE
   5
30C
 100
AcDbEntity
   8
LEVEL001
 100
AcDbLine
   6
CONTINUOUS
  62
15
  10
 334.15256456704
  20
 240.51373719222
  30
0.0
  11
 334.46449767334
  21
 240.67642908422
  31
0.0
   0
LINE
   5
30D
 100
AcDbEntity
   8
LEVEL001
 100
AcDbLine
   6
CONTINUOUS
  62
15
  10
 334.46449803534
  20
 240.67642915502
  30
0.0
  11
 338.00003194124
  21
 242.71744943462
  31
0.0
   0
ARC
   5
30E
 100
AcDbEntity
   8
LEVEL001
   6
CONTINUOUS
  62
15
 100
AcDbCircle
  10
 337.16189890504
  20
 244.59562371891
  30
0.0
  40
 2.0566975962986
 100
AcDbArc
  50
 294.04876932706
  51
 356.37502008372
   0
LINE
   5
30F
 100
AcDbEntity
   8
LEVEL001
 100
AcDbLine
   6
CONTINUOUS
  62
15
  10
 339.76750464834
  20
 244.14633349482
  30
0.0
  11
 339.21448090244
  21
 244.46558730782
  31
0.0
   0
ELLIPSE
   5
310
 100
AcDbEntity
   8
LEVEL001
   6
CONTINUOUS
  62
15
 100
AcDbEllipse
  10
 334.11065039884
  20
 240.88070104752
  30
0.0
  11
-9.2246124284961
  21
 1.9650933466826
  31
0.0
  40
 0.54064882900000
  41
 2.6011992237242
  42
-2.1111897566605
   0
ARC
   5
311
 100
AcDbEntity
   8
LEVEL001
   6
CONTINUOUS
  62
15
 100
AcDbCircle
  10
 309.48286802254
  20
 240.95972101911
  30
0.0
  40
 1.8992190713885
 100
AcDbArc
  50
 205.69366030401
  51
 243.05147075568
   0
LINE
   5
312
 100
AcDbEntity
   8
LEVEL001
 100
AcDbLine
   6
CONTINUOUS
  62
15
  10
 321.58578537644
  20
 248.11115172042
  30
0.0
  11
 307.77143423774
  21
 240.13629677782
  31
0.0
   0
ELLIPSE
   5
313
 100
AcDbEntity
   8
LEVEL001
   6
CONTINUOUS
  62
15
 100
AcDbEllipse
  10
 328.94935938794
  20
 243.86025092662
  30
0.0
  11
-9.2246124284961
  21
 1.9650933466826
  31
0.0
  40
 0.54064882900000
  41
-2.1111897566605
  42
-0.54039342986565
   0
LINE
   5
314
 100
AcDbEntity
   8
LEVEL001
 100
AcDbLine
   6
CONTINUOUS
  62
15
  10
 339.30817978674
  20
 214.87825660452
  30
0.0
  11
 339.30817948644
  21
 212.56932400452
  31
0.0
   0
ARC
   5
315
 100
AcDbEntity
   8
LEVEL001
   6
CONTINUOUS
  62
15
 100
AcDbCircle
  10
 335.06553909854
  20
 220.71700359332
  30
0.0
  40
 9.1861136143607
 100
AcDbArc
  50
 242.49320576640
  51
 297.50678909950
   0
LINE
   5
316
 100
AcDbEntity
   8
LEVEL001
 100
AcDbLine
   6
CONTINUOUS
  62
15
  10
 349.20767442304
  20
 220.59311355852
  30
0.0
  11
 339.30817978674
  21
 214.87825660452
  31
0.0
   0
ARC
   5
317
 100
AcDbEntity
   8
LEVEL001
   6
CONTINUOUS
  62
15
 100
AcDbCircle
  10
 340.81850766204
  20
 220.34855752671
  30
0.0
  40
 8.3927305168581
 100
AcDbArc
  50
 1.6697772681078
  51
 28.065787034709
   0
LINE
   5
318
 100
AcDbEntity
   8
LEVEL001
 100
AcDbLine
   6
CONTINUOUS
  62
15
  10
 334.91219368134
  20
 235.02273626892
  30
0.0
  11
 334.90780514074
  21
 235.03712264892
  31
0.0
   0
LINE
   5
319
 100
AcDbEntity
   8
LEVEL001
 100
AcDbLine
   6
CONTINUOUS
  62
15
  10
 334.90780514074
  20
 235.03712264892
  30
0.0
  11
 334.81277782674
  21
 235.27352620502
  31
0.0
   0
LINE
   5
31A
 100
AcDbEntity
   8
LEVEL001
 100
AcDbLine
   6
CONTINUOUS
  62
15
  10
 334.81277782674
  20
 235.27352620502
  30
0.0
  11
 334.67680814224
  21
 235.50316616282
  31
0.0
   0
LINE
   5
31B
 100
AcDbEntity
   8
LEVEL001
 100
AcDbLine
   6
CONTINUOUS
  62
15
  10
 334.67680814224
  20
 235.50316616282
  30
0.0
  11
 334.50129220134
  21
 235.72368775152
  31
0.0
   0
LINE
   5
31C
 100
AcDbEntity
   8
LEVEL001
 100
AcDbLine
   6
CONTINUOUS
  62
15
  10
 334.50129220134
  20
 235.72368775152
  30
0.0
  11
 334.28803112354
  21
 235.93282630042
  31
0.0
   0
LINE
   5
31D
 100
AcDbEntity
   8
LEVEL001
 100
AcDbLine
   6
CONTINUOUS
  62
15
  10
 334.28803112354
  20
 235.93282630042
  30
0.0
  11
 334.03921325214
  21
 236.12843727272
  31
0.0
   0
LINE
   5
31E
 100
AcDbEntity
   8
LEVEL001
 100
AcDbLine
   6
CONTINUOUS
  62
15
  10
 334.03921325214
  20
 236.12843727272
  30
0.0
  11
 333.75739176404
  21
 236.30851299222
  31
0.0
   0
LINE
   5
31F
 100
AcDbEntity
   8
LEVEL001
 100
AcDbLine
   6
CONTINUOUS
  62
15
  10
 333.75739176404
  20
 236.30851299222
  30
0.0
  11
 333.44545734064
  21
 236.47120526432
  31
0.0
   0
LINE
   5
320
 100
AcDbEntity
   8
LEVEL001
 100
AcDbLine
   6
CONTINUOUS
  62
15
  10
 333.44545734064
  20
 236.47120526432
  30
0.0
  11
 333.10661248364
  21
 236.61484476412
  31
0.0
   0
LINE
   5
321
 100
AcDbEntity
   8
LEVEL001
 100
AcDbLine
   6
CONTINUOUS
  62
15
  10
 333.10661248364
  20
 236.61484476412
  30
0.0
  11
 332.74433430824
  21
 236.73795795392
  31
0.0
   0
LINE
   5
322
 100
AcDbEntity
   8
LEVEL001
 100
AcDbLine
   6
CONTINUOUS
  62
15
  10
 332.74433430824
  20
 236.73795795392
  30
0.0
  11
 332.36233865164
  21
 236.83928095972
  31
0.0
   0
LINE
   5
323
 100
AcDbEntity
   8
LEVEL001
 100
AcDbLine
   6
CONTINUOUS
  62
15
  10
 332.36233865164
  20
 236.83928095972
  30
0.0
  11
 331.96454714654
  21
 236.91777477792
  31
0.0
   0
LINE
   5
324
 100
AcDbEntity
   8
LEVEL001
 100
AcDbLine
   6
CONTINUOUS
  62
15
  10
 331.96454714654
  20
 236.91777477792
  30
0.0
  11
 331.55503980524
  21
 236.97263287852
  31
0.0
   0
LINE
   5
325
 100
AcDbEntity
   8
LEVEL001
 100
AcDbLine
   6
CONTINUOUS
  62
15
  10
 331.55503980524
  20
 236.97263287852
  30
0.0
  11
 331.13802044684
  21
 237.00329356102
  31
0.0
   0
LINE
   5
326
 100
AcDbEntity
   8
LEVEL001
 100
AcDbLine
   6
CONTINUOUS
  62
15
  10
 331.13802044684
  20
 237.00329356102
  30
0.0
  11
 330.71776697634
  21
 237.00944128442
  31
0.0
   0
LINE
   5
327
 100
AcDbEntity
   8
LEVEL001
 100
AcDbLine
   6
CONTINUOUS
  62
15
  10
 330.71776697634
  20
 237.00944128442
  30
0.0
  11
 330.29859318964
  21
 236.99101351102
  31
0.0
   0
LINE
   5
328
 100
AcDbEntity
   8
LEVEL001
 100
AcDbLine
   6
CONTINUOUS
  62
15
  10
 330.29859318964
  20
 236.99101351102
  30
0.0
  11
 329.88479872364
  21
 236.94819918492
  31
0.0
   0
LINE
   5
329
 100
AcDbEntity
   8
LEVEL001
 100
AcDbLine
   6
CONTINUOUS
  62
15
  10
 329.88479872364
  20
 236.94819918492
  30
0.0
  11
 329.48063053204
  21
 236.88143740222
  31
0.0
   0
LINE
   5
32A
 100
AcDbEntity
   8
LEVEL001
 100
AcDbLine
   6
CONTINUOUS
  62
15
  10
 329.48063053204
  20
 236.88143740222
  30
0.0
  11
 329.09023579884
  21
 236.79141341862
  31
0.0
   0
LINE
   5
32B
 100
AcDbEntity
   8
LEVEL001
 100
AcDbLine
   6
CONTINUOUS
  62
15
  10
 329.09023579884
  20
 236.79141341862
  30
0.0
  11
 328.71762077944
  21
 236.67905123652
  31
0.0
   0
LINE
   5
32C
 100
AcDbEntity
   8
LEVEL001
 100
AcDbLine
   6
CONTINUOUS
  62
15
  10
 328.71762077944
  20
 236.67905123652
  30
0.0
  11
 328.36660865424
  21
 236.54550372032
  31
0.0
   0
LINE
   5
32D
 100
AcDbEntity
   8
LEVEL001
 100
AcDbLine
   6
CONTINUOUS
  62
15
  10
 328.36660865424
  20
 236.54550372032
  30
0.0
  11
 328.04080083824
  21
 236.39214071642
  31
0.0
   0
LINE
   5
32E
 100
AcDbEntity
   8
LEVEL001
 100
AcDbLine
   6
CONTINUOUS
  62
15
  10
 328.04080083824
  20
 236.39214071642
  30
0.0
  11
 327.74354174984
  21
 236.22053669742
  31
0.0
   0
LINE
   5
32F
 100
AcDbEntity
   8
LEVEL001
 100
AcDbLine
   6
CONTINUOUS
  62
15
  10
 327.74354174984
  20
 236.22053669742
  30
0.0
  11
 327.47788110874
  21
 236.03245222892
  31
0.0
   0
LINE
   5
330
 100
AcDbEntity
   8
LEVEL001
 100
AcDbLine
   6
CONTINUOUS
  62
15
  10
 327.47788110874
  20
 236.03245222892
  30
0.0
  11
 327.24654430124
  21
 235.82981686202
  31
0.0
   0
LINE
   5
331
 100
AcDbEntity
   8
LEVEL001
 100
AcDbLine
   6
CONTINUOUS
  62
15
  10
 327.24654430124
  20
 235.82981686202
  30
0.0
  11
 327.05190620354
  21
 235.61471079002
  31
0.0
   0
LINE
   5
332
 100
AcDbEntity
   8
LEVEL001
 100
AcDbLine
   6
CONTINUOUS
  62
15
  10
 327.05190620354
  20
 235.61471079002
  30
0.0
  11
 326.89596319334
  21
 235.38934070772
  31
0.0
   0
LINE
   5
333
 100
AcDbEntity
   8
LEVEL001
 100
AcDbLine
   6
CONTINUOUS
  62
15
  10
 326.89596319334
  20
 235.38934070772
  30
0.0
  11
 326.78031586304
  21
 235.15601937712
  31
0.0
   0
LINE
   5
334
 100
AcDbEntity
   8
LEVEL001
 100
AcDbLine
   6
CONTINUOUS
  62
15
  10
 326.78031586304
  20
 235.15601937712
  30
0.0
  11
 326.73360266684
  21
 235.02273645902
  31
0.0
   0
LINE
   5
335
 100
AcDbEntity
   8
LEVEL001
 100
AcDbLine
   6
CONTINUOUS
  62
15
  10
 349.20767442304
  20
 218.28418078722
  30
0.0
  11
 349.20767442304
  21
 220.59311355852
  31
0.0
   0
LINE
   5
336
 100
AcDbEntity
   8
LEVEL001
 100
AcDbLine
   6
CONTINUOUS
  62
15
  10
 339.30817948644
  20
 212.56932400452
  30
0.0
  11
 349.20767442304
  21
 218.28418078722
  31
0.0
   0
ARC
   5
337
 100
AcDbEntity
   8
LEVEL001
   6
CONTINUOUS
  62
15
 100
AcDbCircle
  10
 330.82289833874
  20
 231.63023593331
  30
0.0
  40
 2.8001027172257
 100
AcDbArc
  50
 38.972197712911
  51
 141.02780228705
   0
ARC
   5
338
 100
AcDbEntity
   8
LEVEL001
   6
CONTINUOUS
  62
15
 100
AcDbCircle
  10
 347.13203509534
  20
 222.86528518192
  30
0.0
  40
 5.0293934131169
 100
AcDbArc
  50
 294.37466553528
  51
 354.30520557536
   0
LINE
   5
339
 100
AcDbEntity
   8
LEVEL001
 100
AcDbLine
   6
CONTINUOUS
  62
15
  10
 323.59848497424
  20
 241.55400128362
  30
0.0
  11
 323.59409676294
  21
 241.56838747352
  31
0.0
   0
LINE
   5
33A
 100
AcDbEntity
   8
LEVEL001
 100
AcDbLine
   6
CONTINUOUS
  62
15
  10
 323.59409676294
  20
 241.56838747352
  30
0.0
  11
 323.49906944894
  21
 241.80479102962
  31
0.0
   0
LINE
   5
33B
 100
AcDbEntity
   8
LEVEL001
 100
AcDbLine
   6
CONTINUOUS
  62
15
  10
 323.49906944894
  20
 241.80479102962
  30
0.0
  11
 323.36309943514
  21
 242.03443117752
  31
0.0
   0
LINE
   5
33C
 100
AcDbEntity
   8
LEVEL001
 100
AcDbLine
   6
CONTINUOUS
  62
15
  10
 323.36309943514
  20
 242.03443117752
  30
0.0
  11
 323.18758382354
  21
 242.25495257612
  31
0.0
   0
LINE
   5
33D
 100
AcDbEntity
   8
LEVEL001
 100
AcDbLine
   6
CONTINUOUS
  62
15
  10
 323.18758382354
  20
 242.25495257612
  30
0.0
  11
 322.97432241644
  21
 242.46409131522
  31
0.0
   0
LINE
   5
33E
 100
AcDbEntity
   8
LEVEL001
 100
AcDbLine
   6
CONTINUOUS
  62
15
  10
 322.97432241644
  20
 242.46409131522
  30
0.0
  11
 322.72550454504
  21
 242.65970228742
  31
0.0
   0
LINE
   5
33F
 100
AcDbEntity
   8
LEVEL001
 100
AcDbLine
   6
CONTINUOUS
  62
15
  10
 322.72550454504
  20
 242.65970228742
  30
0.0
  11
 322.44368272774
  21
 242.83977819702
  31
0.0
   0
LINE
   5
340
 100
AcDbEntity
   8
LEVEL001
 100
AcDbLine
   6
CONTINUOUS
  62
15
  10
 322.44368272774
  20
 242.83977819702
  30
0.0
  11
 322.13174863354
  21
 243.00247027912
  31
0.0
   0
LINE
   5
341
 100
AcDbEntity
   8
LEVEL001
 100
AcDbLine
   6
CONTINUOUS
  62
15
  10
 322.13174863354
  20
 243.00247027912
  30
0.0
  11
 321.79290377654
  21
 243.14610977882
  31
0.0
   0
LINE
   5
342
 100
AcDbEntity
   8
LEVEL001
 100
AcDbLine
   6
CONTINUOUS
  62
15
  10
 321.79290377654
  20
 243.14610977882
  30
0.0
  11
 321.43062593044
  21
 243.26922277852
  31
0.0
   0
LINE
   5
343
 100
AcDbEntity
   8
LEVEL001
 100
AcDbLine
   6
CONTINUOUS
  62
15
  10
 321.43062593044
  20
 243.26922277852
  30
0.0
  11
 321.04862994454
  21
 243.37054597442
  31
0.0
   0
LINE
   5
344
 100
AcDbEntity
   8
LEVEL001
 100
AcDbLine
   6
CONTINUOUS
  62
15
  10
 321.04862994454
  20
 243.37054597442
  30
0.0
  11
 320.65083876864
  21
 243.44903960252
  31
0.0
   0
LINE
   5
345
 100
AcDbEntity
   8
LEVEL001
 100
AcDbLine
   6
CONTINUOUS
  62
15
  10
 320.65083876864
  20
 243.44903960252
  30
0.0
  11
 320.24133142744
  21
 243.50389770322
  31
0.0
   0
LINE
   5
346
 100
AcDbEntity
   8
LEVEL001
 100
AcDbLine
   6
CONTINUOUS
  62
15
  10
 320.24133142744
  20
 243.50389770322
  30
0.0
  11
 319.82431206904
  21
 243.53455838562
  31
0.0
   0
LINE
   5
347
 100
AcDbEntity
   8
LEVEL001
 100
AcDbLine
   6
CONTINUOUS
  62
15
  10
 319.82431206904
  20
 243.53455838562
  30
0.0
  11
 319.40405859854
  21
 243.54070610912
  31
0.0
   0
LINE
   5
348
 100
AcDbEntity
   8
LEVEL001
 100
AcDbLine
   6
CONTINUOUS
  62
15
  10
 319.40405859854
  20
 243.54070610912
  30
0.0
  11
 318.98488448254
  21
 243.52227852572
  31
0.0
   0
LINE
   5
349
 100
AcDbEntity
   8
LEVEL001
 100
AcDbLine
   6
CONTINUOUS
  62
15
  10
 318.98488448254
  20
 243.52227852572
  30
0.0
  11
 318.57109001654
  21
 243.47946419962
  31
0.0
   0
LINE
   5
34A
 100
AcDbEntity
   8
LEVEL001
 100
AcDbLine
   6
CONTINUOUS
  62
15
  10
 318.57109001654
  20
 243.47946419962
  30
0.0
  11
 318.16692215424
  21
 243.41270222682
  31
0.0
   0
LINE
   5
34B
 100
AcDbEntity
   8
LEVEL001
 100
AcDbLine
   6
CONTINUOUS
  62
15
  10
 318.16692215424
  20
 243.41270222682
  30
0.0
  11
 317.77652709174
  21
 243.32267843332
  31
0.0
   0
LINE
   5
34C
 100
AcDbEntity
   8
LEVEL001
 100
AcDbLine
   6
CONTINUOUS
  62
15
  10
 317.77652709174
  20
 243.32267843332
  30
0.0
  11
 317.40391207244
  21
 243.21031625122
  31
0.0
   0
LINE
   5
34D
 100
AcDbEntity
   8
LEVEL001
 100
AcDbLine
   6
CONTINUOUS
  62
15
  10
 317.40391207244
  20
 243.21031625122
  30
0.0
  11
 317.05289994714
  21
 243.07676873512
  31
0.0
   0
LINE
   5
34E
 100
AcDbEntity
   8
LEVEL001
 100
AcDbLine
   6
CONTINUOUS
  62
15
  10
 317.05289994714
  20
 243.07676873512
  30
0.0
  11
 316.72709229574
  21
 242.92340563612
  31
0.0
   0
LINE
   5
34F
 100
AcDbEntity
   8
LEVEL001
 100
AcDbLine
   6
CONTINUOUS
  62
15
  10
 316.72709229574
  20
 242.92340563612
  30
0.0
  11
 316.42983320744
  21
 242.75180161712
  31
0.0
   0
LINE
   5
350
 100
AcDbEntity
   8
LEVEL001
 100
AcDbLine
   6
CONTINUOUS
  62
15
  10
 316.42983320744
  20
 242.75180161712
  30
0.0
  11
 316.16417240164
  21
 242.56371724372
  31
0.0
   0
LINE
   5
351
 100
AcDbEntity
   8
LEVEL001
 100
AcDbLine
   6
CONTINUOUS
  62
15
  10
 316.16417240164
  20
 242.56371724372
  30
0.0
  11
 315.93283559414
  21
 242.36108187682
  31
0.0
   0
LINE
   5
352
 100
AcDbEntity
   8
LEVEL001
 100
AcDbLine
   6
CONTINUOUS
  62
15
  10
 315.93283559414
  20
 242.36108187682
  30
0.0
  11
 315.73819749644
  21
 242.14597580482
  31
0.0
   0
LINE
   5
353
 100
AcDbEntity
   8
LEVEL001
 100
AcDbLine
   6
CONTINUOUS
  62
15
  10
 315.73819749644
  20
 242.14597580482
  30
0.0
  11
 315.58225481554
  21
 241.92060553232
  31
0.0
   0
LINE
   5
354
 100
AcDbEntity
   8
LEVEL001
 100
AcDbLine
   6
CONTINUOUS
  62
15
  10
 315.58225481554
  20
 241.92060553232
  30
0.0
  11
 315.46660715594
  21
 241.68728439182
  31
0.0
   0
LINE
   5
355
 100
AcDbEntity
   8
LEVEL001
 100
AcDbLine
   6
CONTINUOUS
  62
15
  10
 315.46660715594
  20
 241.68728439182
  30
0.0
  11
 315.41989395974
  21
 241.55400147372
  31
0.0
   0
LINE
   5
356
 100
AcDbEntity
   8
LEVEL001
 100
AcDbLine
   6
CONTINUOUS
  62
15
  10
 307.77143423774
  20
 240.13629677782
  30
0.0
  11
 307.69068132874
  21
 240.38748403422
  31
0.0
   0
LINE
   5
357
 100
AcDbEntity
   8
LEVEL001
 100
AcDbLine
   6
CONTINUOUS
  62
15
  10
 307.69068132874
  20
 240.38748403422
  30
0.0
  11
 307.65888799344
  21
 240.58164283782
  31
0.0
   0
LINE
   5
358
 100
AcDbEntity
   8
LEVEL001
 100
AcDbLine
   6
CONTINUOUS
  62
15
  10
 307.65888799344
  20
 240.58164283782
  30
0.0
  11
 307.68940733324
  21
 240.74112982622
  31
0.0
   0
LINE
   5
359
 100
AcDbEntity
   8
LEVEL001
 100
AcDbLine
   6
CONTINUOUS
  62
15
  10
 307.68940733324
  20
 240.74112982622
  30
0.0
  11
 307.75749639014
  21
 240.78989650742
  31
0.0
   0
ARC
   5
35A
 100
AcDbEntity
   8
LEVEL001
   6
CONTINUOUS
  62
15
 100
AcDbCircle
  10
 319.50918996094
  20
 238.16150123001
  30
0.0
  40
 2.8001024203045
 100
AcDbArc
  50
 38.972190202709
  51
 141.02780979725
   0
LINE
   5
35B
 100
AcDbEntity
   8
LEVEL001
 100
AcDbLine
   6
CONTINUOUS
  62
15
  10
 328.59551175144
  20
 243.24798200722
  30
0.0
  11
 328.59551175144
  21
 244.06452281912
  31
0.0
   0
ARC
   5
35C
 100
AcDbEntity
   8
LEVEL001
   6
CONTINUOUS
  62
15
 100
AcDbCircle
  10
 329.56732941744
  20
 241.21368368101
  30
0.0
  40
 2.2545063169302
 100
AcDbArc
  50
 115.53458006384
  51
 160.60909969582
   0
LINE
   5
35D
 100
AcDbEntity
   8
LEVEL001
 100
AcDbLine
   6
CONTINUOUS
  62
15
  10
 329.93901463574
  20
 240.92096675842
  30
0.0
  11
 328.59551175144
  21
 243.24798200722
  31
0.0
   0
ARC
   5
35E
 100
AcDbEntity
   8
LEVEL001
   6
CONTINUOUS
  62
15
 100
AcDbCircle
  10
 330.57048980713
  20
 239.70802168321
  30
0.0
  40
 1.3674783955985
 100
AcDbArc
  50
 117.50208625661
  51
 152.90749315432
   0
LINE
   5
35F
 100
AcDbEntity
   8
LEVEL001
 100
AcDbLine
   6
CONTINUOUS
  62
15
  10
 339.15483440534
  20
 244.00322583052
  30
0.0
  11
 339.10812038604
  21
 244.13650846342
  31
0.0
   0
LINE
   5
360
 100
AcDbEntity
   8
LEVEL001
 100
AcDbLine
   6
CONTINUOUS
  62
15
  10
 339.10812038604
  20
 244.13650846342
  30
0.0
  11
 338.99247346724
  21
 244.36982993662
  31
0.0
   0
LINE
   5
361
 100
AcDbEntity
   8
LEVEL001
 100
AcDbLine
   6
CONTINUOUS
  62
15
  10
 338.99247346724
  20
 244.36982993662
  30
0.0
  11
 338.83653095094
  21
 244.59520011402
  31
0.0
   0
LINE
   5
362
 100
AcDbEntity
   8
LEVEL001
 100
AcDbLine
   6
CONTINUOUS
  62
15
  10
 338.83653095094
  20
 244.59520011402
  30
0.0
  11
 338.64189203014
  21
 244.81030590092
  31
0.0
   0
LINE
   5
363
 100
AcDbEntity
   8
LEVEL001
 100
AcDbLine
   6
CONTINUOUS
  62
15
  10
 338.64189203014
  20
 244.81030590092
  30
0.0
  11
 338.41055563424
  21
 245.01294103022
  31
0.0
   0
LINE
   5
364
 100
AcDbEntity
   8
LEVEL001
 100
AcDbLine
   6
CONTINUOUS
  62
15
  10
 338.41055563424
  20
 245.01294103022
  30
0.0
  11
 338.14489459174
  21
 245.20102554022
  31
0.0
   0
LINE
   5
365
 100
AcDbEntity
   8
LEVEL001
 100
AcDbLine
   6
CONTINUOUS
  62
15
  10
 338.14489459174
  20
 245.20102554022
  30
0.0
  11
 337.84763531814
  21
 245.37262966622
  31
0.0
   0
LINE
   5
366
 100
AcDbEntity
   8
LEVEL001
 100
AcDbLine
   6
CONTINUOUS
  62
15
  10
 337.84763531814
  20
 245.37262966622
  30
0.0
  11
 337.52182808874
  21
 245.52599252162
  31
0.0
   0
LINE
   5
367
 100
AcDbEntity
   8
LEVEL001
 100
AcDbLine
   6
CONTINUOUS
  62
15
  10
 337.52182808874
  20
 245.52599252162
  30
0.0
  11
 337.17081571644
  21
 245.65954018032
  31
0.0
   0
LINE
   5
368
 100
AcDbEntity
   8
LEVEL001
 100
AcDbLine
   6
CONTINUOUS
  62
15
  10
 337.17081571644
  20
 245.65954018032
  30
0.0
  11
 336.79820119104
  21
 245.77190283762
  31
0.0
   0
LINE
   5
369
 100
AcDbEntity
   8
LEVEL001
 100
AcDbLine
   6
CONTINUOUS
  62
15
  10
 336.79820119104
  20
 245.77190283762
  30
0.0
  11
 336.40780629314
  21
 245.86192653602
  31
0.0
   0
LINE
   5
36A
 100
AcDbEntity
   8
LEVEL001
 100
AcDbLine
   6
CONTINUOUS
  62
15
  10
 336.40780629314
  20
 245.86192653602
  30
0.0
  11
 336.00363785464
  21
 245.92868808122
  31
0.0
   0
LINE
   5
36B
 100
AcDbEntity
   8
LEVEL001
 100
AcDbLine
   6
CONTINUOUS
  62
15
  10
 336.00363785464
  20
 245.92868808122
  30
0.0
  11
 335.58984338864
  21
 245.97150240722
  31
0.0
   0
LINE
   5
36C
 100
AcDbEntity
   8
LEVEL001
 100
AcDbLine
   6
CONTINUOUS
  62
15
  10
 335.58984338864
  20
 245.97150240722
  30
0.0
  11
 335.17066894334
  21
 245.98993018072
  31
0.0
   0
LINE
   5
36D
 100
AcDbEntity
   8
LEVEL001
 100
AcDbLine
   6
CONTINUOUS
  62
15
  10
 335.17066894334
  20
 245.98993018072
  30
0.0
  11
 334.75041646064
  21
 245.98378264732
  31
0.0
   0
LINE
   5
36E
 100
AcDbEntity
   8
LEVEL001
 100
AcDbLine
   6
CONTINUOUS
  62
15
  10
 334.75041646064
  20
 245.98378264732
  30
0.0
  11
 334.33339743154
  21
 245.95312253512
  31
0.0
   0
LINE
   5
36F
 100
AcDbEntity
   8
LEVEL001
 100
AcDbLine
   6
CONTINUOUS
  62
15
  10
 334.33339743154
  20
 245.95312253512
  30
0.0
  11
 333.92389058424
  21
 245.89826414942
  31
0.0
   0
LINE
   5
370
 100
AcDbEntity
   8
LEVEL001
 100
AcDbLine
   6
CONTINUOUS
  62
15
  10
 333.92389058424
  20
 245.89826414942
  30
0.0
  11
 333.52609759734
  21
 245.81977004602
  31
0.0
   0
LINE
   5
371
 100
AcDbEntity
   8
LEVEL001
 100
AcDbLine
   6
CONTINUOUS
  62
15
  10
 333.52609759734
  20
 245.81977004602
  30
0.0
  11
 333.14410243474
  21
 245.71844713522
  31
0.0
   0
LINE
   5
372
 100
AcDbEntity
   8
LEVEL001
 100
AcDbLine
   6
CONTINUOUS
  62
15
  10
 333.14410243474
  20
 245.71844713522
  30
0.0
  11
 332.78182425924
  21
 245.59533432562
  31
0.0
   0
LINE
   5
373
 100
AcDbEntity
   8
LEVEL001
 100
AcDbLine
   6
CONTINUOUS
  62
15
  10
 332.78182425924
  20
 245.59533432562
  30
0.0
  11
 332.44297907304
  21
 245.45169425562
  31
0.0
   0
LINE
   5
374
 100
AcDbEntity
   8
LEVEL001
 100
AcDbLine
   6
CONTINUOUS
  62
15
  10
 332.44297907304
  20
 245.45169425562
  30
0.0
  11
 332.13104596664
  21
 245.28900236372
  31
0.0
   0
LINE
   5
375
 100
AcDbEntity
   8
LEVEL001
 100
AcDbLine
   6
CONTINUOUS
  62
15
  10
 332.13104565734
  20
 245.28900228682
  30
0.0
  11
 332.13104565734
  21
 246.10554309862
  31
0.0
   0
LINE
   5
376
 100
AcDbEntity
   8
LEVEL001
 100
AcDbLine
   6
CONTINUOUS
  62
15
  10
 339.21448158024
  20
 244.46558770732
  30
0.0
  11
 339.17204579534
  21
 244.73481981442
  31
0.0
   0
LINE
   5
377
 100
AcDbEntity
   8
LEVEL001
 100
AcDbLine
   6
CONTINUOUS
  62
15
  10
 339.17204579534
  20
 244.73481981442
  30
0.0
  11
 339.06964986224
  21
 244.96525249852
  31
0.0
   0
LINE
   5
378
 100
AcDbEntity
   8
LEVEL001
 100
AcDbLine
   6
CONTINUOUS
  62
15
  10
 339.06964986224
  20
 244.96525249852
  30
0.0
  11
 338.87851201094
  21
 245.20058679462
  31
0.0
   0
LINE
   5
379
 100
AcDbEntity
   8
LEVEL001
 100
AcDbLine
   6
CONTINUOUS
  62
15
  10
 338.87851201094
  20
 245.20058679462
  30
0.0
  11
 338.61282692124
  21
 245.42103113102
  31
0.0
   0
LINE
   5
37A
 100
AcDbEntity
   8
LEVEL001
 100
AcDbLine
   6
CONTINUOUS
  62
15
  10
 338.61282692124
  20
 245.42103113102
  30
0.0
  11
 338.26872397744
  21
 245.64909506832
  31
0.0
   0
LINE
   5
37B
 100
AcDbEntity
   8
LEVEL001
 100
AcDbLine
   6
CONTINUOUS
  62
15
  10
 338.26872397744
  20
 245.64909506832
  30
0.0
  11
 337.85748468474
  21
 245.88972083412
  31
0.0
   0
LINE
   5
37C
 100
AcDbEntity
   8
LEVEL001
 100
AcDbLine
   6
CONTINUOUS
  62
15
  10
 337.85748468474
  20
 245.88972083412
  30
0.0
  11
 337.38984124014
  21
 246.14074128602
  31
0.0
   0
LINE
   5
37D
 100
AcDbEntity
   8
LEVEL001
 100
AcDbLine
   6
CONTINUOUS
  62
15
  10
 337.38984124014
  20
 246.14074128602
  30
0.0
  11
 336.87834959734
  21
 246.38288152682
  31
0.0
   0
LINE
   5
37E
 100
AcDbEntity
   8
LEVEL001
 100
AcDbLine
   6
CONTINUOUS
  62
15
  10
 336.87834959734
  20
 246.38288152682
  30
0.0
  11
 336.29588031554
  21
 246.60436898882
  31
0.0
   0
LINE
   5
37F
 100
AcDbEntity
   8
LEVEL001
 100
AcDbLine
   6
CONTINUOUS
  62
15
  10
 336.29588031554
  20
 246.60436898882
  30
0.0
  11
 335.68270326804
  21
 246.75707252532
  31
0.0
   0
LINE
   5
380
 100
AcDbEntity
   8
LEVEL001
 100
AcDbLine
   6
CONTINUOUS
  62
15
  10
 335.68270326804
  20
 246.75707252532
  30
0.0
  11
 335.15923792774
  21
 246.80663003732
  31
0.0
   0
ARC
   5
381
 100
AcDbEntity
   8
LEVEL001
   6
CONTINUOUS
  62
15
 100
AcDbCircle
  10
 335.00615741614
  20
 240.53168664462
  30
0.0
  40
 2.8726619643235
 100
AcDbArc
  50
 37.924100495299
  51
 122.21968661609
   0
LINE
   5
382
 100
AcDbEntity
   8
LEVEL001
 100
AcDbLine
   6
CONTINUOUS
  62
15
  10
 333.47454854164
  20
 242.96198703792
  30
0.0
  11
 332.13104565734
  21
 245.28900228682
  31
0.0
   0
LINE
   5
383
 100
AcDbEntity
   8
LEVEL001
 100
AcDbLine
   6
CONTINUOUS
  62
15
  10
 333.47454854164
  20
 242.96198703792
  30
0.0
  11
 329.93901463574
  21
 240.92096675842
  31
0.0
   0
LINE
   5
384
 100
AcDbEntity
   8
LEVEL001
 100
AcDbLine
   6
CONTINUOUS
  62
15
  10
 332.13104565734
  20
 245.28900228682
  30
0.0
  11
 328.59551175144
  21
 243.24798200722
  31
0.0
   0
ARC
   5
385
 100
AcDbEntity
   8
LEVEL001
   6
CONTINUOUS
  62
15
 100
AcDbCircle
  10
 305.18355244614
  20
 230.81921444052
  30
0.0
  40
 3.0020063851252
 100
AcDbArc
  50
 185.52266568902
  51
 245.79748855264
   0
ELLIPSE
   5
386
 100
AcDbEntity
   8
LEVEL001
   6
CONTINUOUS
  62
15
 100
AcDbEllipse
  10
 342.13660661114
  20
 223.49263992562
  30
0.0
  11
-9.3030734469223
  21
-3.7654273865079
  31
0.0
  40
 0.19023078200000
  41
 2.2047588183130
  42
-3.1250860163865
   0
ELLIPSE
   5
387
 100
AcDbEntity
   8
LEVEL001
   6
CONTINUOUS
  62
15
 100
AcDbEllipse
  10
 334.11065039884
  20
 239.24761942372
  30
0.0
  11
-11.016126430920
  21
 0.43009810524742
  31
0.0
  40
 0.50677870130000
  41
 2.4645880008818
  42
-2.8652568338177
   0
ARC
   5
388
 100
AcDbEntity
   8
LEVEL001
   6
CONTINUOUS
  62
15
 100
AcDbCircle
  10
 340.35052014814
  20
 243.35691600751
  30
0.0
  40
 0.98137003787743
 100
AcDbArc
  50
 64.848906512287
  51
 126.44726669236
   0
ELLIPSE
   5
389
 100
AcDbEntity
   8
LEVEL001
   6
CONTINUOUS
  62
15
 100
AcDbEllipse
  10
 342.13660661114
  20
 223.49263992562
  30
0.0
  11
-9.9854927459233
  21
-1.1007709392405
  31
0.0
  40
 0.48916241820000
  41
 2.3023228592387
  42
 3.0876421967344
   0
SPLINE
   5
38A
 100
AcDbEntity
   8
LEVEL001
   6
CONTINUOUS
  62
15
 100
AcDbSpline
  70
8
  71
3
  72
18
  73
14
  74
12
  42
 0.10000000000000E-6
  43
 0.10000000000000E-6
  44
 0.10000000000000E-4
  40
0.0
  40
0.0
  40
0.0
  40
0.0
  40
 0.67118297219858E-1
  40
 0.16040394395392
  40
 0.25369506122763
  40
 0.34698885798515
  40
 0.44027731866107
  40
 0.53356920302421
  40
 0.62685955678268
  40
 0.72014200377235
  40
 0.81342632933623
  40
 0.90670812705162
  40
 1.0000000000000
  40
 1.0000000000000
  40
 1.0000000000000
  40
 1.0000000000000
  10
 304.16047138139
  20
 237.30633949391
  30
0.0
  10
 304.05207185015
  20
 237.20840586715
  30
0.0
  10
 303.79301116098
  20
 236.97435731961
  30
0.0
  10
 303.46424171879
  20
 236.52521051213
  30
0.0
  10
 303.17116731337
  20
 235.98006868501
  30
0.0
  10
 302.96256122532
  20
 235.38345060274
  30
0.0
  10
 302.83899467547
  20
 234.74826812252
  30
0.0
  10
 302.80496144207
  20
 234.08382717019
  30
0.0
  10
 302.85991106708
  20
 233.40208615705
  30
0.0
  10
 303.00294431110
  20
 232.71406645099
  30
0.0
  10
 303.23527635809
  20
 232.03283376442
  30
0.0
  10
 303.54533601828
  20
 231.36647010448
  30
0.0
  10
 303.81700102207
  20
 230.94940538379
  30
0.0
  10
 303.95284085910
  20
 230.74086176241
  30
0.0
  11
 304.16047138139
  21
 237.30633949391
  31
0.0
  11
 303.84423534521
  21
 237.00379589700
  31
0.0
  11
 303.47585065116
  21
 236.51694527733
  31
0.0
  11
 303.18524845995
  21
 235.97149556576
  31
0.0
  11
 302.97673137212
  21
 235.37701175020
  31
0.0
  11
 302.85391759583
  21
 234.74339836050
  31
0.0
  11
 302.81979231333
  21
 234.08093767663
  31
0.0
  11
 302.87459482324
  21
 233.40101728204
  31
0.0
  11
 303.01782699838
  21
 232.71519871722
  31
0.0
  11
 303.24823169785
  21
 232.03530959537
  31
0.0
  11
 303.56156227940
  21
 231.37328878630
  31
0.0
  11
 303.95284085910
  21
 230.74086176241
  31
0.0
   0
ARC
   5
38B
 100
AcDbEntity
   8
LEVEL001
   6
CONTINUOUS
  62
15
 100
AcDbCircle
  10
 321.00208164043
  20
 247.31496865891
  30
0.0
  40
 0.98722690697305
 100
AcDbArc
  50
 53.753849565007
  51
 114.93568617719
   0
LINE
   5
38C
 100
AcDbEntity
   8
LEVEL001
 100
AcDbLine
   6
CONTINUOUS
  62
15
  10
 329.93901438814
  20
 240.15777997252
  30
0.0
  11
 329.93901463574
  21
 240.92096675842
  31
0.0
   0
ARC
   5
38D
 100
AcDbEntity
   8
LEVEL001
   6
CONTINUOUS
  62
15
 100
AcDbCircle
  10
 335.18892895135
  20
 246.33950807172
  30
0.0
  40
 0.97874567672087
 100
AcDbArc
  50
 64.758170207090
  51
 126.53892756042
   0
LINE
   5
38E
 100
AcDbEntity
   8
LEVEL001
 100
AcDbLine
   6
CONTINUOUS
  62
15
  10
 333.47454887354
  20
 240.25400609672
  30
0.0
  11
 333.47454854164
  21
 242.96198703792
  31
0.0
   0
DIMENSION
   5
38F
 100
AcDbEntity
   8
LEVEL001
   6
CONTINUOUS
  62
3
 100
AcDbDimension
   2
*D18
  10
 143.33875816606
  20
 202.17578325072
  30
0.0
  11
 134.38013034892
  21
 214.56608622809
  31
0.0
  70
132
   3
GMM002
 100
AcDbRadialDimension
  15
 137.47952263096
  25
 210.27944655469
  35
0.0
  40
 5.6303552252619
   0
DIMENSION
   5
390
 100
AcDbEntity
   8
LEVEL001
   6
CONTINUOUS
  62
3
 100
AcDbDimension
   2
*D19
  10
 133.33875816606
  20
 203.09908642010
  30
0.0
  11
 125.23687304089
  21
 211.14481978420
  31
0.0
  70
132
   3
GMM002
 100
AcDbRadialDimension
  15
 126.24314430984
  25
 210.14552268274
  35
0.0
  40
 2.3938597115965
   0
LINE
   5
391
 100
AcDbEntity
   8
LEVEL001
 100
AcDbLine
   6
CONTINUOUS
  62
15
  10
 324.95391214654
  20
 228.20552948062
  30
0.0
  11
 309.82182639274
  21
 236.94109664452
  31
0.0
   0
LINE
   5
392
 100
AcDbEntity
   8
LEVEL001
 100
AcDbLine
   6
CONTINUOUS
  62
15
  10
 308.69670332792
  20
 236.29157692459
  30
0.0
  11
 308.69670332792
  21
 229.92255876469
  31
0.0
   0
LINE
   5
393
 100
AcDbEntity
   8
LEVEL001
 100
AcDbLine
   6
CONTINUOUS
  62
15
  10
 308.69670332792
  20
 236.29157692459
  30
0.0
  11
 309.82182639274
  21
 236.94109664452
  31
0.0
   0
LINE
   5
394
 100
AcDbEntity
   8
LEVEL001
 100
AcDbLine
   6
CONTINUOUS
  62
15
  10
 308.69670332792
  20
 236.29157692459
  30
0.0
  11
 323.82878908172
  21
 227.55600976069
  31
0.0
   0
LINE
   5
395
 100
AcDbEntity
   8
LEVEL001
 100
AcDbLine
   6
CONTINUOUS
  62
15
  10
 324.95391214654
  20
 221.83651132072
  30
0.0
  11
 324.95391214654
  21
 228.20552948062
  31
0.0
   0
LINE
   5
396
 100
AcDbEntity
   8
LEVEL001
 100
AcDbLine
   6
CONTINUOUS
  62
15
  10
 308.69670332792
  20
 229.92255876469
  30
0.0
  11
 323.82878908172
  21
 221.18699160079
  31
0.0
   0
LINE
   5
397
 100
AcDbEntity
   8
LEVEL001
 100
AcDbLine
   6
CONTINUOUS
  62
15
  10
 323.82878908172
  20
 227.55600976069
  30
0.0
  11
 323.82878908172
  21
 221.18699160079
  31
0.0
   0
LINE
   5
398
 100
AcDbEntity
   8
LEVEL001
 100
AcDbLine
   6
CONTINUOUS
  62
15
  10
 323.82878908172
  20
 221.18699160079
  30
0.0
  11
 324.95391214654
  21
 221.83651132072
  31
0.0
   0
LINE
   5
399
 100
AcDbEntity
   8
LEVEL001
 100
AcDbLine
   6
CONTINUOUS
  62
15
  10
 323.82878908172
  20
 227.55600976069
  30
0.0
  11
 324.95391214654
  21
 228.20552948062
  31
0.0
   0
LINE
   5
39A
 100
AcDbEntity
   8
LEVEL001
 100
AcDbLine
   6
CONTINUOUS
  62
7
  10
 223.07135586479
  20
 118.39893802617
  30
0.0
  11
 253.07135586479
  21
 118.39893802617
  31
0.0
   0
LINE
   5
39B
 100
AcDbEntity
   8
LEVEL001
 100
AcDbLine
   6
CONTINUOUS
  62
7
  10
 253.07135586479
  20
 123.39893802617
  30
0.0
  11
 223.07135586479
  21
 123.39893802617
  31
0.0
   0
LINE
   5
39C
 100
AcDbEntity
   8
LEVEL001
 100
AcDbLine
   6
CONTINUOUS
  62
7
  10
 223.07135586479
  20
 135.39893802617
  30
0.0
  11
 251.07135586479
  21
 135.39893802617
  31
0.0
   0
LINE
   5
39D
 100
AcDbEntity
   8
LEVEL001
 100
AcDbLine
   6
CONTINUOUS
  62
7
  10
 223.07135586479
  20
 135.39893802617
  30
0.0
  11
 223.07135586479
  21
 118.39893802617
  31
0.0
   0
DIMENSION
   5
39E
 100
AcDbEntity
   8
LEVEL001
   6
CONTINUOUS
  62
3
 100
AcDbDimension
   2
*D20
  10
 211.51832605277
  20
 133.39893802617
  30
0.0
  11
 211.51832605277
  21
 129.49893802617
  31
0.0
  70
0
   3
GMM001
 100
AcDbAlignedDimension
  13
 211.51832605277
  23
 125.59893802617
  33
0.0
  14
 223.07135586479
  24
 133.39893802617
  34
0.0
  50
 90.000000000000
 100
AcDbRotatedDimension
   0
DIMENSION
   5
39F
 100
AcDbEntity
   8
LEVEL001
   6
CONTINUOUS
  62
3
 100
AcDbDimension
   2
*D21
  10
 211.51832605277
  20
 135.39893802617
  30
0.0
  11
 211.51832605277
  21
 136.72047509905
  31
0.0
  70
128
   3
GMM004
 100
AcDbAlignedDimension
  13
 211.51832605277
  23
 133.39893802617
  33
0.0
  14
 223.07135586479
  24
 135.39893802617
  34
0.0
  50
 90.000000000000
 100
AcDbRotatedDimension
   0
DIMENSION
   5
3A0
 100
AcDbEntity
   8
LEVEL001
   6
CONTINUOUS
  62
3
 100
AcDbDimension
   2
*D22
  10
 211.51832605277
  20
 125.59893802617
  30
0.0
  11
 211.51832605277
  21
 116.64353151467
  31
0.0
  70
128
   3
GMM005
 100
AcDbAlignedDimension
  13
 223.07135586479
  23
 118.39893802617
  33
0.0
  14
 223.07135586479
  24
 125.59893802617
  34
0.0
  50
 90.000000000000
 100
AcDbRotatedDimension
   0
ARC
   5
3A1
 100
AcDbEntity
   8
LEVEL001
   6
CONTINUOUS
  62
7
 100
AcDbCircle
  10
 251.07135586479
  20
 133.39893802617
  30
0.0
  40
 2.0000000000000
 100
AcDbArc
  50
0.0
  51
 90.000000000000
   0
DIMENSION
   5
3A2
 100
AcDbEntity
   8
LEVEL001
   6
CONTINUOUS
  62
3
 100
AcDbDimension
   2
*D23
  10
 251.07135586479
  20
 133.39893802617
  30
0.0
  11
 253.61808622235
  21
 136.97728357392
  31
0.0
  70
132
   3
GMM002
 100
AcDbRadialDimension
  15
 252.23104724774
  25
 135.02839066320
  35
0.0
  40
 3.0726940052097
   0
POINT
   5
3A3
 100
AcDbEntity
   8
LEVEL001
 100
AcDbPoint
  62
7
  10
 253.07135586479
  20
 135.39893802617
  30
0.0
   0
LINE
   5
3A4
 100
AcDbEntity
   8
LEVEL001
 100
AcDbLine
   6
CONTINUOUS
  62
7
  10
 253.07135586479
  20
 133.39893802617
  30
0.0
  11
 253.07135586479
  21
 118.39893802617
  31
0.0
   0
LINE
   5
3A5
 100
AcDbEntity
   8
LEVEL001
 100
AcDbLine
   6
CONTINUOUS
  62
7
  10
 221.07135586479
  20
 133.29893802617
  30
0.0
  11
 223.07135586479
  21
 133.29893802617
  31
0.0
   0
LINE
   5
3A6
 100
AcDbEntity
   8
LEVEL001
 100
AcDbLine
   6
CONTINUOUS
  62
7
  10
 221.07135586479
  20
 125.69893802617
  30
0.0
  11
 221.07135586479
  21
 133.29893802617
  31
0.0
   0
LINE
   5
3A7
 100
AcDbEntity
   8
LEVEL001
 100
AcDbLine
   6
CONTINUOUS
  62
7
  10
 221.07135586479
  20
 125.69893802617
  30
0.0
  11
 223.07135586479
  21
 125.69893802617
  31
0.0
   0
LINE
   5
3A8
 100
AcDbEntity
   8
LEVEL001
 100
AcDbLine
   6
DASHDOT
  62
3
  10
 234.07135586479
  20
 138.51000762292
  30
0.0
  11
 234.07135586479
  21
 113.19046454959
  31
0.0
   0
LINE
   5
3A9
 100
AcDbEntity
   8
LEVEL001
 100
AcDbLine
   6
DASHDOT
  62
3
  10
 243.07135586479
  20
 138.51000762292
  30
0.0
  11
 243.07135586479
  21
 113.19046454959
  31
0.0
   0
LINE
   5
3AA
 100
AcDbEntity
   8
LEVEL001
 100
AcDbLine
   6
DASHDOT
  62
3
  10
 248.07135586479
  20
 138.51000762292
  30
0.0
  11
 248.07135586479
  21
 113.19046454959
  31
0.0
   0
DIMENSION
   5
3AB
 100
AcDbEntity
   8
LEVEL001
   6
CONTINUOUS
  62
3
 100
AcDbDimension
   2
*D24
  10
 173.33875816606
  20
 154.46556671449
  30
0.0
  11
 148.33875816606
  21
 154.46556671449
  31
0.0
  70
0
   3
GMM001
 100
AcDbAlignedDimension
  13
 123.33875816606
  23
 123.39893802617
  33
0.0
  14
 173.33875816606
  24
 123.39893802617
  34
0.0
 100
AcDbRotatedDimension
   0
DIMENSION
   5
3AC
 100
AcDbEntity
   8
LEVEL001
   6
CONTINUOUS
  62
3
 100
AcDbDimension
   2
*D25
  10
 162.33875816606
  20
 93.484218077475
  30
0.0
  11
 148.33875816606
  21
 93.484218077475
  31
0.0
  70
0
   3
GMM001
 100
AcDbAlignedDimension
  13
 134.33875816606
  23
 118.39893802617
  33
0.0
  14
 162.33875816606
  24
 118.39893802617
  34
0.0
 100
AcDbRotatedDimension
   0
DIMENSION
   5
3AD
 100
AcDbEntity
   8
LEVEL001
   6
CONTINUOUS
  62
3
 100
AcDbDimension
   2
*D26
  10
 140.33875816606
  20
 165.82855093257
  30
0.0
  11
 148.33875816606
  21
 165.82855093257
  31
0.0
  70
0
   3
GMM001
 100
AcDbAlignedDimension
  13
 156.33875816606
  23
 188.61564907457
  33
0.0
  14
 140.33875816606
  24
 188.61564907457
  34
0.0
  50
 180.00000000000
 100
AcDbRotatedDimension
   0
ENDSEC
  0
SECTION
  2
OBJECTS
  0
DICTIONARY
  5
C
100
AcDbDictionary
  3
ACAD_GROUP
350
D
  3
ACAD_MLINESTYLE
350
1B
  0
DICTIONARY
  5
D
102
{ACAD_REACTORS
330
C
102
}
100
AcDbDictionary
  0
DICTIONARY
  5
1B
102
{ACAD_REACTORS
330
C
102
}
100
AcDbDictionary
  3
STANDARD
350
1C
  0
MLINESTYLE
  5
1C
102
{ACAD_REACTORS
330
1B
102
}
100
AcDbMlineStyle
  2
STANDARD
 70
     0
  3

 62
   256
 51
90.0
 52
90.0
 71
     2
 49
0.5
 62
   256
  6
BYLAYER
 49
-0.5
 62
   256
  6
BYLAYER
  0
ENDSEC
   0
EOF
