   0
SECTION
   2
HEADER
   9
$ACADVER
   1
AC1015
   9
$LIMMIN
  10
0.0
  20
0.0
   9
$LIMMAX
  10
 420.00000000000
  20
 297.00000000000
   9
$EXTMIN
  10
0.0
  20
0.0
  30
0.0
   9
$EXTMAX
  10
 420.00000000000
  20
 297.00000000000
  30
0.0
   9
$LTSCALE
  40
 8.4000000000000
   9
$HANDSEED
   5
24A
   0
ENDSEC
   0
SECTION
   2
TABLES
  0
TABLE
  2
VPORT
  5
8
100
AcDbSymbolTable
 70
     1
  0
VPORT
  5
249
100
AcDbSymbolTableRecord
100
AcDbViewportTableRecord
  2
*ACTIVE
 70
     0
 10
0.0
 20
0.0
 11
1.0
 21
1.0
  12
 210.00000000000
  22
 148.50000000000
 13
0.0
 23
0.0
 14
1.0
 24
1.0
 15
0.0
 25
0.0
 16
0.0
 26
0.0
 36
1.0
 17
0.0
 27
0.0
 37
0.0
  40
 420.00000000000
  41
 1.4787878787879
 42
50.0
 43
0.0
 44
0.0
 50
0.0
 51
0.0
 71
     0
 72
   100
 73
     1
 74
     1
 75
     0
 76
     0
 77
     0
 78
     0
  0
ENDTAB
  0
TABLE
  2
LTYPE
  5
5
100
AcDbSymbolTable
 70
    25
  0
LTYPE
  5
12
100
AcDbSymbolTableRecord
100
AcDbLinetypeTableRecord
  2
BYBLOCK
 70
     0
  3

 72
    65
 73
     0
 40
0.0
  0
LTYPE
  5
13
100
AcDbSymbolTableRecord
100
AcDbLinetypeTableRecord
  2
BYLAYER
 70
     0
  3

 72
    65
 73
     0
 40
0.0
  0
LTYPE
  5
14
100
AcDbSymbolTableRecord
100
AcDbLinetypeTableRecord
  2
CONTINUOUS
 70
     0
  3
Solid line
 72
    65
 73
     0
 40
0.0
  0
LTYPE
  5
20
100
AcDbSymbolTableRecord
100
AcDbLinetypeTableRecord
  2
BORDER
 70
     0
  3
__ __ . __ __ . __ __ . __ __ . __ __ . __ __ .
 72
    65
 73
     6
 40
1.75
 49
0.5
 74
     0
 49
-0.25
 74
     0
 49
0.5
 74
     0
 49
-0.25
 74
     0
 49
0.0
 74
     0
 49
-0.25
 74
     0
  0
LTYPE
  5
21
100
AcDbSymbolTableRecord
100
AcDbLinetypeTableRecord
  2
BORDER2
 70
     0
  3
__.__.__.__.__.__.__.__.__.__.__.__.__.__.__.__
 72
    65
 73
     6
 40
0.875
 49
0.25
 74
     0
 49
-0.125
 74
     0
 49
0.25
 74
     0
 49
-0.125
 74
     0
 49
0.0
 74
     0
 49
-0.125
 74
     0
  0
LTYPE
  5
22
100
AcDbSymbolTableRecord
100
AcDbLinetypeTableRecord
  2
BORDERX2
 70
     0
  3
____  ____  .  ____  ____  .  ____  ____  .  __
 72
    65
 73
     6
 40
3.5
 49
1.0
 74
     0
 49
-0.5
 74
     0
 49
1.0
 74
     0
 49
-0.5
 74
     0
 49
0.0
 74
     0
 49
-0.5
 74
     0
  0
LTYPE
  5
23
100
AcDbSymbolTableRecord
100
AcDbLinetypeTableRecord
  2
CENTER
 70
     0
  3
____ _ ____ _ ____ _ ____ _ ____ _ ____ _ ____ 
 72
    65
 73
     4
 40
2.0
 49
1.25
 74
     0
 49
-0.25
 74
     0
 49
0.25
 74
     0
 49
-0.25
 74
     0
  0
LTYPE
  5
24
100
AcDbSymbolTableRecord
100
AcDbLinetypeTableRecord
  2
CENTER2
 70
     0
  3
___ _ ___ _ ___ _ ___ _ ___ _ ___ _ ___ _ ___ _
 72
    65
 73
     4
 40
1.125
 49
0.75
 74
     0
 49
-0.125
 74
     0
 49
0.125
 74
     0
 49
-0.125
 74
     0
  0
LTYPE
  5
25
100
AcDbSymbolTableRecord
100
AcDbLinetypeTableRecord
  2
CENTERX2
 70
     0
  3
________  __  ________  __  ________  __  _____
 72
    65
 73
     4
 40
4.0
 49
2.5
 74
     0
 49
-0.5
 74
     0
 49
0.5
 74
     0
 49
-0.5
 74
     0
  0
LTYPE
  5
26
100
AcDbSymbolTableRecord
100
AcDbLinetypeTableRecord
  2
DASHDOT
 70
     0
  3
__ . __ . __ . __ . __ . __ . __ . __ . __ . __
 72
    65
 73
     4
 40
1.0
 49
0.5
 74
     0
 49
-0.25
 74
     0
 49
0.0
 74
     0
 49
-0.25
 74
     0
  0
LTYPE
  5
27
100
AcDbSymbolTableRecord
100
AcDbLinetypeTableRecord
  2
DASHDOT2
 70
     0
  3
_._._._._._._._._._._._._._._._._._._._._._._._
 72
    65
 73
     4
 40
0.5
 49
0.25
 74
     0
 49
-0.125
 74
     0
 49
0.0
 74
     0
 49
-0.125
 74
     0
  0
LTYPE
  5
28
100
AcDbSymbolTableRecord
100
AcDbLinetypeTableRecord
  2
DASHDOTX2
 70
     0
  3
____  .  ____  .  ____  .  ____  .  ____  .  __
 72
    65
 73
     4
 40
2.0
 49
1.0
 74
     0
 49
-0.5
 74
     0
 49
0.0
 74
     0
 49
-0.5
 74
     0
  0
LTYPE
  5
29
100
AcDbSymbolTableRecord
100
AcDbLinetypeTableRecord
  2
DASHED
 70
     0
  3
__ __ __ __ __ __ __ __ __ __ __ __ __ __ __ __
 72
    65
 73
     2
 40
0.75
 49
0.5
 74
     0
 49
-0.25
 74
     0
  0
LTYPE
  5
2A
100
AcDbSymbolTableRecord
100
AcDbLinetypeTableRecord
  2
DASHED2
 70
     0
  3
_ _ _ _ _ _ _ _ _ _ _ _ _ _ _ _ _ _ _ _ _ _ _ _
 72
    65
 73
     2
 40
0.375
 49
0.25
 74
     0
 49
-0.125
 74
     0
  0
LTYPE
  5
2B
100
AcDbSymbolTableRecord
100
AcDbLinetypeTableRecord
  2
DASHEDX2
 70
     0
  3
____  ____  ____  ____  ____  ____  ____  ____ 
 72
    65
 73
     2
 40
1.5
 49
1.0
 74
     0
 49
-0.5
 74
     0
  0
LTYPE
  5
2C
100
AcDbSymbolTableRecord
100
AcDbLinetypeTableRecord
  2
DIVIDE
 70
     0
  3
____ . . ____ . . ____ . . ____ . . ____ . . __
 72
    65
 73
     6
 40
1.25
 49
0.5
 74
     0
 49
-0.25
 74
     0
 49
0.0
 74
     0
 49
-0.25
 74
     0
 49
0.0
 74
     0
 49
-0.25
 74
     0
  0
LTYPE
  5
2D
100
AcDbSymbolTableRecord
100
AcDbLinetypeTableRecord
  2
DIVIDE2
 70
     0
  3
__..__..__..__..__..__..__..__..__..__..__..__.
 72
    65
 73
     6
 40
0.625
 49
0.25
 74
     0
 49
-0.125
 74
     0
 49
0.0
 74
     0
 49
-0.125
 74
     0
 49
0.0
 74
     0
 49
-0.125
 74
     0
  0
LTYPE
  5
2E
100
AcDbSymbolTableRecord
100
AcDbLinetypeTableRecord
  2
DIVIDEX2
 70
     0
  3
________  .  .  ________  .  .  ________  .  . 
 72
    65
 73
     6
 40
2.5
 49
1.0
 74
     0
 49
-0.5
 74
     0
 49
0.0
 74
     0
 49
-0.5
 74
     0
 49
0.0
 74
     0
 49
-0.5
 74
     0
  0
LTYPE
  5
2F
100
AcDbSymbolTableRecord
100
AcDbLinetypeTableRecord
  2
DOT
 70
     0
  3
. . . . . . . . . . . . . . . . . . . . . . . .
 72
    65
 73
     2
 40
0.25
 49
0.0
 74
     0
 49
-0.25
 74
     0
  0
LTYPE
  5
30
100
AcDbSymbolTableRecord
100
AcDbLinetypeTableRecord
  2
DOT2
 70
     0
  3
...............................................
 72
    65
 73
     2
 40
0.125
 49
0.0
 74
     0
 49
-0.125
 74
     0
  0
LTYPE
  5
31
100
AcDbSymbolTableRecord
100
AcDbLinetypeTableRecord
  2
DOTX2
 70
     0
  3
.  .  .  .  .  .  .  .  .  .  .  .  .  .  .  . 
 72
    65
 73
     2
 40
0.5
 49
0.0
 74
     0
 49
-0.5
 74
     0
  0
LTYPE
  5
32
100
AcDbSymbolTableRecord
100
AcDbLinetypeTableRecord
  2
HIDDEN
 70
     0
  3
__ __ __ __ __ __ __ __ __ __ __ __ __ __ __ __
 72
    65
 73
     2
 40
0.375
 49
0.25
 74
     0
 49
-0.125
 74
     0
  0
LTYPE
  5
33
100
AcDbSymbolTableRecord
100
AcDbLinetypeTableRecord
  2
HIDDEN2
 70
     0
  3
_ _ _ _ _ _ _ _ _ _ _ _ _ _ _ _ _ _ _ _ _ _ _ _
 72
    65
 73
     2
 40
0.1875
 49
0.125
 74
     0
 49
-0.0625
 74
     0
  0
LTYPE
  5
34
100
AcDbSymbolTableRecord
100
AcDbLinetypeTableRecord
  2
HIDDENX2
 70
     0
  3
____ ____ ____ ____ ____ ____ ____ ____ ____ __
 72
    65
 73
     2
 40
0.75
 49
0.5
 74
     0
 49
-0.25
 74
     0
  0
LTYPE
  5
35
100
AcDbSymbolTableRecord
100
AcDbLinetypeTableRecord
  2
PHANTOM
 70
     0
  3
______  __  __  ______  __  __  ______  __  __ 
 72
    65
 73
     6
 40
2.5
 49
1.25
 74
     0
 49
-0.25
 74
     0
 49
0.25
 74
     0
 49
-0.25
 74
     0
 49
0.25
 74
     0
 49
-0.25
 74
     0
  0
LTYPE
  5
36
100
AcDbSymbolTableRecord
100
AcDbLinetypeTableRecord
  2
PHANTOM2
 70
     0
  3
___ _ _ ___ _ _ ___ _ _ ___ _ _ ___ _ _ ___ _ _
 72
    65
 73
     6
 40
1.25
 49
0.625
 74
     0
 49
-0.125
 74
     0
 49
0.125
 74
     0
 49
-0.125
 74
     0
 49
0.125
 74
     0
 49
-0.125
 74
     0
  0
LTYPE
  5
37
100
AcDbSymbolTableRecord
100
AcDbLinetypeTableRecord
  2
PHANTOMX2
 70
     0
  3
____________    ____    ____    ____________   
 72
    65
 73
     6
 40
5.0
 49
2.5
 74
     0
 49
-0.5
 74
     0
 49
0.5
 74
     0
 49
-0.5
 74
     0
 49
0.5
 74
     0
 49
-0.5
 74
     0
  0
ENDTAB
   0
TABLE
   2
LAYER
   5
2
 100
AcDbSymbolTable
  70
2
   0
LAYER
   5
E
 100
AcDbSymbolTableRecord
 100
AcDbLayerTableRecord
   2
0
  70
0
  62
7
   6
CONTINUOUS
 390
30
   0
LAYER
   5
39
 100
AcDbSymbolTableRecord
 100
AcDbLayerTableRecord
   2
LEVEL001
  70
0
  62
7
   6
CONTINUOUS
 390
30
   0
ENDTAB
  0
TABLE
  2
STYLE
  5
3
100
AcDbSymbolTable
  70
4
  0
STYLE
  5
F
100
AcDbSymbolTableRecord
100
AcDbTextStyleTableRecord
  2
STANDARD
 70
     0
 40
0.0
 41
1.0
 50
0.0
 71
     0
 42
0.2
  3
TXT
  4
BIGFONT
  0
STYLE
  5
38
100
AcDbSymbolTableRecord
100
AcDbTextStyleTableRecord
  2
STANDARD1
 70
     4
 40
0.0
 41
1.0
 50
0.0
 71
     0
 42
0.2
  3
TXT
  4
BIGFONT
   0
STYLE
   5
3A
 100
AcDbSymbolTableRecord
 100
AcDbTextStyleTableRecord
   2
GMM001
  70
0
  40
0.0
  41
 1.0000000000000
  50
0.0
  71
     0
  42
1.0
   3
txt.shx
   4
bigfont.shx
   0
STYLE
   5
3B
 100
AcDbSymbolTableRecord
 100
AcDbTextStyleTableRecord
   2
GMM002
  70
0
  40
0.0
  41
 0.95000000000000
  50
0.0
  71
     0
  42
1.0
   3
txt.shx
   4
bigfont.shx
   0
ENDTAB
  0
TABLE
  2
VIEW
  5
6
100
AcDbSymbolTable
 70
     0
  0
ENDTAB
  0
TABLE
  2
UCS
  5
7
100
AcDbSymbolTable
 70
     0
  0
ENDTAB
  0
TABLE
  2
APPID
  5
9
100
AcDbSymbolTable
 70
     1
  0
APPID
  5
10
100
AcDbSymbolTableRecord
100
AcDbRegAppTableRecord
  2
ACAD
 70
     0
  0
ENDTAB
   0
TABLE
   2
DIMSTYLE
   5
A
 100
AcDbSymbolTable
  70
4
 100
AcDbDimStyleTable
  0
DIMSTYLE
105
1D
100
AcDbSymbolTableRecord
100
AcDbDimStyleTableRecord
  2
STANDARD
 70
     0
  3

  4

  5

  6

  7

 40
1.0
 41
0.18
 42
0.0625
 43
0.38
 44
0.18
 45
0.0
 46
0.0
 47
0.0
 48
0.0
140
0.18
141
0.09
142
0.0
143
25.4
144
1.0
145
0.0
146
1.0
147
0.09
 71
     0
 72
     0
 73
     1
 74
     1
 75
     0
 76
     0
 77
     0
 78
     0
170
     0
171
     2
172
     0
173
     0
174
     0
175
     0
176
     0
177
     0
178
     0
270
     2
271
     4
272
     4
273
     2
274
     2
340
F
275
     0
280
     0
281
     0
282
     0
283
     1
284
     0
285
     0
286
     0
287
     3
288
     0
   0
DIMSTYLE
 105
3C
 100
AcDbSymbolTableRecord
 100
AcDbDimStyleTableRecord
   2
GMM001
  70
0
   3

   4

   5

   6
_OPEN30
   7
_OPEN30
  40
 1.0000000000000
  41
 3.0000000000000
  42
 1.0000000000000
  43
 8.0000000000000
  44
 1.0000000000000
  45
0.0
  46
0.0
  47
0.0
  48
0.0
 140
 4.0000000000000
 141
 1.0000000000000
 142
0.0
 143
 0.39400000000000E-1
 144
 1.0000000000000
 145
0.0
 146
 0.62500000000000
 147
 1.7142857142857
  71
0
  72
0
  73
0
  74
0
  75
0
  76
0
  77
3
  78
8
 170
0
 171
2
 172
1
 173
1
 174
0
 175
0
 176
3
 177
3
 178
3
 270
2
 271
6
 272
0
 273
2
 274
2
 340
3A
 275
1
 280
0
 281
0
 282
0
 283
1
 284
0
 285
0
 286
0
 287
3
 288
0
   0
DIMSTYLE
 105
3D
 100
AcDbSymbolTableRecord
 100
AcDbDimStyleTableRecord
   2
GMM002
  70
0
   3
R<>
   4

   5

   6
_NONE
   7
_OPEN30
  40
 1.0000000000000
  41
 3.0000000000000
  42
 1.0000000000000
  43
 8.0000000000000
  44
 1.0000000000000
  45
0.0
  46
0.0
  47
0.0
  48
0.0
 140
 4.0000000000000
 141
 1.0000000000000
 142
0.0
 143
 0.39400000000000E-1
 144
 1.0000000000000
 145
0.0
 146
 0.62500000000000
 147
 1.7142857142857
  71
0
  72
0
  73
0
  74
0
  75
0
  76
0
  77
3
  78
8
 170
0
 171
2
 172
1
 173
1
 174
0
 175
0
 176
3
 177
3
 178
3
 270
2
 271
6
 272
0
 273
2
 274
2
 340
3A
 275
1
 280
0
 281
0
 282
0
 283
1
 284
0
 285
0
 286
0
 287
3
 288
1
   0
ENDTAB
  0
TABLE
  2
BLOCK_RECORD
  5
1
100
AcDbSymbolTable
 70
     0
  0
BLOCK_RECORD
  5
18
100
AcDbSymbolTableRecord
100
AcDbBlockTableRecord
  2
*MODEL_SPACE
  0
BLOCK_RECORD
  5
15
100
AcDbSymbolTableRecord
100
AcDbBlockTableRecord
  2
*PAPER_SPACE
   0
BLOCK_RECORD
   5
3E
 100
AcDbSymbolTableRecord
 100
AcDbBlockTableRecord
   2
*D1
   0
BLOCK_RECORD
   5
3F
 100
AcDbSymbolTableRecord
 100
AcDbBlockTableRecord
   2
*D2
   0
BLOCK_RECORD
   5
40
 100
AcDbSymbolTableRecord
 100
AcDbBlockTableRecord
   2
*D3
   0
BLOCK_RECORD
   5
41
 100
AcDbSymbolTableRecord
 100
AcDbBlockTableRecord
   2
*D4
   0
BLOCK_RECORD
   5
42
 100
AcDbSymbolTableRecord
 100
AcDbBlockTableRecord
   2
*D5
   0
BLOCK_RECORD
   5
43
 100
AcDbSymbolTableRecord
 100
AcDbBlockTableRecord
   2
*D6
   0
BLOCK_RECORD
   5
44
 100
AcDbSymbolTableRecord
 100
AcDbBlockTableRecord
   2
*D7
   0
BLOCK_RECORD
   5
45
 100
AcDbSymbolTableRecord
 100
AcDbBlockTableRecord
   2
*D8
   0
BLOCK_RECORD
   5
46
 100
AcDbSymbolTableRecord
 100
AcDbBlockTableRecord
   2
*D9
   0
BLOCK_RECORD
   5
47
 100
AcDbSymbolTableRecord
 100
AcDbBlockTableRecord
   2
*D10
   0
BLOCK_RECORD
   5
48
 100
AcDbSymbolTableRecord
 100
AcDbBlockTableRecord
   2
*D11
   0
BLOCK_RECORD
   5
49
 100
AcDbSymbolTableRecord
 100
AcDbBlockTableRecord
   2
*D12
   0
BLOCK_RECORD
   5
4A
 100
AcDbSymbolTableRecord
 100
AcDbBlockTableRecord
   2
*D13
   0
BLOCK_RECORD
   5
4B
 100
AcDbSymbolTableRecord
 100
AcDbBlockTableRecord
   2
*D14
   0
BLOCK_RECORD
   5
4C
 100
AcDbSymbolTableRecord
 100
AcDbBlockTableRecord
   2
*D15
   0
BLOCK_RECORD
   5
4D
 100
AcDbSymbolTableRecord
 100
AcDbBlockTableRecord
   2
*D16
   0
BLOCK_RECORD
   5
4E
 100
AcDbSymbolTableRecord
 100
AcDbBlockTableRecord
   2
*D17
   0
BLOCK_RECORD
   5
4F
 100
AcDbSymbolTableRecord
 100
AcDbBlockTableRecord
   2
*D18
   0
BLOCK_RECORD
   5
50
 100
AcDbSymbolTableRecord
 100
AcDbBlockTableRecord
   2
_ARCHTICK
   0
BLOCK_RECORD
   5
51
 100
AcDbSymbolTableRecord
 100
AcDbBlockTableRecord
   2
_BOXBLANK
   0
BLOCK_RECORD
   5
52
 100
AcDbSymbolTableRecord
 100
AcDbBlockTableRecord
   2
_BOXFILLED
   0
BLOCK_RECORD
   5
53
 100
AcDbSymbolTableRecord
 100
AcDbBlockTableRecord
   2
_CLOSED
   0
BLOCK_RECORD
   5
54
 100
AcDbSymbolTableRecord
 100
AcDbBlockTableRecord
   2
_CLOSEDBLANK
   0
BLOCK_RECORD
   5
55
 100
AcDbSymbolTableRecord
 100
AcDbBlockTableRecord
   2
_DATUMBLANK
   0
BLOCK_RECORD
   5
56
 100
AcDbSymbolTableRecord
 100
AcDbBlockTableRecord
   2
_DATUMFILLED
   0
BLOCK_RECORD
   5
57
 100
AcDbSymbolTableRecord
 100
AcDbBlockTableRecord
   2
_DOT
   0
BLOCK_RECORD
   5
58
 100
AcDbSymbolTableRecord
 100
AcDbBlockTableRecord
   2
_DOTBLANK
   0
BLOCK_RECORD
   5
59
 100
AcDbSymbolTableRecord
 100
AcDbBlockTableRecord
   2
_DOTSMALL
   0
BLOCK_RECORD
   5
5A
 100
AcDbSymbolTableRecord
 100
AcDbBlockTableRecord
   2
_INTEGRAL
   0
BLOCK_RECORD
   5
5B
 100
AcDbSymbolTableRecord
 100
AcDbBlockTableRecord
   2
_NONE
   0
BLOCK_RECORD
   5
5C
 100
AcDbSymbolTableRecord
 100
AcDbBlockTableRecord
   2
_OBLIQUE
   0
BLOCK_RECORD
   5
5D
 100
AcDbSymbolTableRecord
 100
AcDbBlockTableRecord
   2
_OPEN
   0
BLOCK_RECORD
   5
5E
 100
AcDbSymbolTableRecord
 100
AcDbBlockTableRecord
   2
_OPEN30
   0
BLOCK_RECORD
   5
5F
 100
AcDbSymbolTableRecord
 100
AcDbBlockTableRecord
   2
_OPEN90
   0
BLOCK_RECORD
   5
60
 100
AcDbSymbolTableRecord
 100
AcDbBlockTableRecord
   2
_ORIGIN
   0
ENDTAB
   0
ENDSEC
  0
SECTION
  2
BLOCKS
  0
BLOCK
  5
19
100
AcDbEntity
  8
0
100
AcDbBlockBegin
  2
*MODEL_SPACE
 70
     0
 10
0.0
 20
0.0
 30
0.0
  3
*MODEL_SPACE
  1

  0
ENDBLK
  5
1A
100
AcDbEntity
  8
0
100
AcDbBlockEnd
  0
BLOCK
  5
16
100
AcDbEntity
 67
     1
  8
0
100
AcDbBlockBegin
  2
*PAPER_SPACE
 70
     0
 10
0.0
 20
0.0
 30
0.0
  3
*PAPER_SPACE
  1

  0
ENDBLK
  5
17
100
AcDbEntity
 67
     1
  8
0
100
AcDbBlockEnd
   0
BLOCK
   5
61
 100
AcDbEntity
   8
0
 100
AcDbBlockBegin
   2
_ARCHTICK
  70
0
  10
0.0
  20
0.0
  30
0.0
   3
_ARCHTICK
   0
POLYLINE
   5
62
 100
AcDbEntity
   8
0
   6
BYBLOCK
  62
0
 100
AcDb2dPolyline
  66
1
  10
0.0
  20
0.0
  30
0.0
  70
1
  40
 0.15000000000000
  41
 0.15000000000000
   0
VERTEX
   5
63
 100
AcDbEntity
   8
0
   6
BYBLOCK
  62
0
 100
AcDbVertex
 100
AcDb2dVertex
  10
-0.50000000000000
  20
-0.50000000000000
  30
0.0
  40
 0.15000000000000
  41
 0.15000000000000
   0
VERTEX
   5
64
 100
AcDbEntity
   8
0
   6
BYBLOCK
  62
0
 100
AcDbVertex
 100
AcDb2dVertex
  10
 0.50000000000000
  20
 0.50000000000000
  30
0.0
  40
 0.15000000000000
  41
 0.15000000000000
   0
SEQEND
   5
65
 100
AcDbEntity
   8
0
   6
BYBLOCK
  62
0
   0
ENDBLK
   5
66
 100
AcDbEntity
   8
0
 100
AcDbBlockEnd
   0
BLOCK
   5
67
 100
AcDbEntity
   8
0
 100
AcDbBlockBegin
   2
_OBLIQUE
  70
0
  10
0.0
  20
0.0
  30
0.0
   3
_OBLIQUE
   0
LINE
   5
68
 100
AcDbEntity
   8
0
 100
AcDbLine
   6
BYBLOCK
  62
0
  10
-0.50000000000000
  20
-0.50000000000000
  30
0.0
  11
 0.50000000000000
  21
 0.50000000000000
  31
0.0
   0
ENDBLK
   5
69
 100
AcDbEntity
   8
0
 100
AcDbBlockEnd
   0
BLOCK
   5
6A
 100
AcDbEntity
   8
0
 100
AcDbBlockBegin
   2
_BOXBLANK
  70
0
  10
0.0
  20
0.0
  30
0.0
   3
_BOXBLANK
   0
LINE
   5
6B
 100
AcDbEntity
   8
0
 100
AcDbLine
   6
BYBLOCK
  62
0
  10
-0.50000000000000
  20
-0.50000000000000
  30
0.0
  11
 0.50000000000000
  21
-0.50000000000000
  31
0.0
   0
LINE
   5
6C
 100
AcDbEntity
   8
0
 100
AcDbLine
   6
BYBLOCK
  62
0
  10
 0.50000000000000
  20
-0.50000000000000
  30
0.0
  11
 0.50000000000000
  21
 0.50000000000000
  31
0.0
   0
LINE
   5
6D
 100
AcDbEntity
   8
0
 100
AcDbLine
   6
BYBLOCK
  62
0
  10
 0.50000000000000
  20
 0.50000000000000
  30
0.0
  11
-0.50000000000000
  21
 0.50000000000000
  31
0.0
   0
LINE
   5
6E
 100
AcDbEntity
   8
0
 100
AcDbLine
   6
BYBLOCK
  62
0
  10
-0.50000000000000
  20
 0.50000000000000
  30
0.0
  11
-0.50000000000000
  21
-0.50000000000000
  31
0.0
   0
LINE
   5
6F
 100
AcDbEntity
   8
0
 100
AcDbLine
   6
BYBLOCK
  62
0
  10
-0.50000000000000
  20
0.0
  30
0.0
  11
-1.0000000000000
  21
0.0
  31
0.0
   0
ENDBLK
   5
70
 100
AcDbEntity
   8
0
 100
AcDbBlockEnd
   0
BLOCK
   5
71
 100
AcDbEntity
   8
0
 100
AcDbBlockBegin
   2
_BOXFILLED
  70
0
  10
0.0
  20
0.0
  30
0.0
   3
_BOXFILLED
   0
SOLID
   5
72
 100
AcDbEntity
   8
0
 100
AcDbTrace
   6
BYBLOCK
  62
0
  10
-0.50000000000000
  20
 0.50000000000000
  30
0.0
  11
 0.50000000000000
  21
 0.50000000000000
  31
0.0
  12
-0.50000000000000
  22
-0.50000000000000
  32
0.0
  13
 0.50000000000000
  23
-0.50000000000000
  33
0.0
   0
LINE
   5
73
 100
AcDbEntity
   8
0
 100
AcDbLine
   6
BYBLOCK
  62
0
  10
-0.50000000000000
  20
0.0
  30
0.0
  11
-1.0000000000000
  21
0.0
  31
0.0
   0
ENDBLK
   5
74
 100
AcDbEntity
   8
0
 100
AcDbBlockEnd
   0
BLOCK
   5
75
 100
AcDbEntity
   8
0
 100
AcDbBlockBegin
   2
_CLOSED
  70
0
  10
0.0
  20
0.0
  30
0.0
   3
_CLOSED
   0
LINE
   5
76
 100
AcDbEntity
   8
0
 100
AcDbLine
   6
BYBLOCK
  62
0
  10
-1.0000000000000
  20
 0.16666666666667
  30
0.0
  11
0.0
  21
0.0
  31
0.0
   0
LINE
   5
77
 100
AcDbEntity
   8
0
 100
AcDbLine
   6
BYBLOCK
  62
0
  10
0.0
  20
0.0
  30
0.0
  11
-1.0000000000000
  21
-0.16666666666667
  31
0.0
   0
LINE
   5
78
 100
AcDbEntity
   8
0
 100
AcDbLine
   6
BYBLOCK
  62
0
  10
-1.0000000000000
  20
 0.16666666666667
  30
0.0
  11
-1.0000000000000
  21
-0.16666666666667
  31
0.0
   0
LINE
   5
79
 100
AcDbEntity
   8
0
 100
AcDbLine
   6
BYBLOCK
  62
0
  10
0.0
  20
0.0
  30
0.0
  11
-1.0000000000000
  21
0.0
  31
0.0
   0
ENDBLK
   5
7A
 100
AcDbEntity
   8
0
 100
AcDbBlockEnd
   0
BLOCK
   5
7B
 100
AcDbEntity
   8
0
 100
AcDbBlockBegin
   2
_OPEN
  70
0
  10
0.0
  20
0.0
  30
0.0
   3
_OPEN
   0
LINE
   5
7C
 100
AcDbEntity
   8
0
 100
AcDbLine
   6
BYBLOCK
  62
0
  10
-1.0000000000000
  20
 0.16666666666667
  30
0.0
  11
0.0
  21
0.0
  31
0.0
   0
LINE
   5
7D
 100
AcDbEntity
   8
0
 100
AcDbLine
   6
BYBLOCK
  62
0
  10
0.0
  20
0.0
  30
0.0
  11
-1.0000000000000
  21
-0.16666666666667
  31
0.0
   0
LINE
   5
7E
 100
AcDbEntity
   8
0
 100
AcDbLine
   6
BYBLOCK
  62
0
  10
0.0
  20
0.0
  30
0.0
  11
-1.0000000000000
  21
0.0
  31
0.0
   0
ENDBLK
   5
7F
 100
AcDbEntity
   8
0
 100
AcDbBlockEnd
   0
BLOCK
   5
80
 100
AcDbEntity
   8
0
 100
AcDbBlockBegin
   2
_OPEN30
  70
0
  10
0.0
  20
0.0
  30
0.0
   3
_OPEN30
   0
LINE
   5
81
 100
AcDbEntity
   8
0
 100
AcDbLine
   6
BYBLOCK
  62
0
  10
-1.0000000000000
  20
 0.26794919243110
  30
0.0
  11
0.0
  21
0.0
  31
0.0
   0
LINE
   5
82
 100
AcDbEntity
   8
0
 100
AcDbLine
   6
BYBLOCK
  62
0
  10
0.0
  20
0.0
  30
0.0
  11
-1.0000000000000
  21
-0.26794919243110
  31
0.0
   0
LINE
   5
83
 100
AcDbEntity
   8
0
 100
AcDbLine
   6
BYBLOCK
  62
0
  10
0.0
  20
0.0
  30
0.0
  11
-1.0000000000000
  21
0.0
  31
0.0
   0
ENDBLK
   5
84
 100
AcDbEntity
   8
0
 100
AcDbBlockEnd
   0
BLOCK
   5
85
 100
AcDbEntity
   8
0
 100
AcDbBlockBegin
   2
_OPEN90
  70
0
  10
0.0
  20
0.0
  30
0.0
   3
_OPEN90
   0
LINE
   5
86
 100
AcDbEntity
   8
0
 100
AcDbLine
   6
BYBLOCK
  62
0
  10
-0.50000000000000
  20
 0.50000000000000
  30
0.0
  11
0.0
  21
0.0
  31
0.0
   0
LINE
   5
87
 100
AcDbEntity
   8
0
 100
AcDbLine
   6
BYBLOCK
  62
0
  10
0.0
  20
0.0
  30
0.0
  11
-0.50000000000000
  21
-0.50000000000000
  31
0.0
   0
LINE
   5
88
 100
AcDbEntity
   8
0
 100
AcDbLine
   6
BYBLOCK
  62
0
  10
0.0
  20
0.0
  30
0.0
  11
-1.0000000000000
  21
0.0
  31
0.0
   0
ENDBLK
   5
89
 100
AcDbEntity
   8
0
 100
AcDbBlockEnd
   0
BLOCK
   5
8A
 100
AcDbEntity
   8
0
 100
AcDbBlockBegin
   2
_CLOSEDBLANK
  70
0
  10
0.0
  20
0.0
  30
0.0
   3
_CLOSEDBLANK
   0
LINE
   5
8B
 100
AcDbEntity
   8
0
 100
AcDbLine
   6
BYBLOCK
  62
0
  10
-1.0000000000000
  20
 0.16666666666667
  30
0.0
  11
0.0
  21
0.0
  31
0.0
   0
LINE
   5
8C
 100
AcDbEntity
   8
0
 100
AcDbLine
   6
BYBLOCK
  62
0
  10
0.0
  20
0.0
  30
0.0
  11
-1.0000000000000
  21
-0.16666666666667
  31
0.0
   0
LINE
   5
8D
 100
AcDbEntity
   8
0
 100
AcDbLine
   6
BYBLOCK
  62
0
  10
-1.0000000000000
  20
 0.16666666666667
  30
0.0
  11
-1.0000000000000
  21
-0.16666666666667
  31
0.0
   0
ENDBLK
   5
8E
 100
AcDbEntity
   8
0
 100
AcDbBlockEnd
   0
BLOCK
   5
8F
 100
AcDbEntity
   8
0
 100
AcDbBlockBegin
   2
_DOT
  70
0
  10
0.0
  20
0.0
  30
0.0
   3
_DOT
   0
POLYLINE
   5
90
 100
AcDbEntity
   8
0
   6
BYBLOCK
  62
0
 100
AcDb2dPolyline
  66
1
  10
0.0
  20
0.0
  30
0.0
  70
1
  40
 0.50000000000000
  41
 0.50000000000000
   0
VERTEX
   5
91
 100
AcDbEntity
   8
0
   6
BYBLOCK
  62
0
 100
AcDbVertex
 100
AcDb2dVertex
  10
-0.25000000000000
  20
0.0
  30
0.0
  42
 1.0000000000000
  40
 0.50000000000000
  41
 0.50000000000000
   0
VERTEX
   5
92
 100
AcDbEntity
   8
0
   6
BYBLOCK
  62
0
 100
AcDbVertex
 100
AcDb2dVertex
  10
 0.25000000000000
  20
0.0
  30
0.0
  42
 1.0000000000000
  40
 0.50000000000000
  41
 0.50000000000000
   0
SEQEND
   5
93
 100
AcDbEntity
   8
0
   6
BYBLOCK
  62
0
   0
LINE
   5
94
 100
AcDbEntity
   8
0
 100
AcDbLine
   6
BYBLOCK
  62
0
  10
-0.50000000000000
  20
0.0
  30
0.0
  11
-1.0000000000000
  21
0.0
  31
0.0
   0
ENDBLK
   5
95
 100
AcDbEntity
   8
0
 100
AcDbBlockEnd
   0
BLOCK
   5
96
 100
AcDbEntity
   8
0
 100
AcDbBlockBegin
   2
_DOTSMALL
  70
0
  10
0.0
  20
0.0
  30
0.0
   3
_DOTSMALL
   0
POLYLINE
   5
97
 100
AcDbEntity
   8
0
   6
BYBLOCK
  62
0
 100
AcDb2dPolyline
  66
1
  10
0.0
  20
0.0
  30
0.0
  70
1
  40
 0.50000000000000
  41
 0.50000000000000
   0
VERTEX
   5
98
 100
AcDbEntity
   8
0
   6
BYBLOCK
  62
0
 100
AcDbVertex
 100
AcDb2dVertex
  10
-0.62500000000000E-1
  20
0.0
  30
0.0
  42
 1.0000000000000
  40
 0.50000000000000
  41
 0.50000000000000
   0
VERTEX
   5
99
 100
AcDbEntity
   8
0
   6
BYBLOCK
  62
0
 100
AcDbVertex
 100
AcDb2dVertex
  10
 0.62500000000000E-1
  20
0.0
  30
0.0
  42
 1.0000000000000
  40
 0.50000000000000
  41
 0.50000000000000
   0
SEQEND
   5
9A
 100
AcDbEntity
   8
0
   6
BYBLOCK
  62
0
   0
ENDBLK
   5
9B
 100
AcDbEntity
   8
0
 100
AcDbBlockEnd
   0
BLOCK
   5
9C
 100
AcDbEntity
   8
0
 100
AcDbBlockBegin
   2
_DATUMBLANK
  70
0
  10
0.0
  20
0.0
  30
0.0
   3
_DATUMBLANK
   0
LINE
   5
9D
 100
AcDbEntity
   8
0
 100
AcDbLine
   6
BYBLOCK
  62
0
  10
0.0
  20
 0.57735027000000
  30
0.0
  11
-1.0000000000000
  21
0.0
  31
0.0
   0
LINE
   5
9E
 100
AcDbEntity
   8
0
 100
AcDbLine
   6
BYBLOCK
  62
0
  10
-1.0000000000000
  20
0.0
  30
0.0
  11
0.0
  21
-0.57735027000000
  31
0.0
   0
LINE
   5
9F
 100
AcDbEntity
   8
0
 100
AcDbLine
   6
BYBLOCK
  62
0
  10
0.0
  20
-0.57735027000000
  30
0.0
  11
0.0
  21
 0.57735027000000
  31
0.0
   0
ENDBLK
   5
A0
 100
AcDbEntity
   8
0
 100
AcDbBlockEnd
   0
BLOCK
   5
A1
 100
AcDbEntity
   8
0
 100
AcDbBlockBegin
   2
_DATUMFILLED
  70
0
  10
0.0
  20
0.0
  30
0.0
   3
_DATUMFILLED
   0
SOLID
   5
A2
 100
AcDbEntity
   8
0
 100
AcDbTrace
   6
BYBLOCK
  62
0
  10
0.0
  20
 0.57735027000000
  30
0.0
  11
-1.0000000000000
  21
0.0
  31
0.0
  12
0.0
  22
-0.57735027000000
  32
0.0
  13
0.0
  23
-0.57735027000000
  33
0.0
   0
ENDBLK
   5
A3
 100
AcDbEntity
   8
0
 100
AcDbBlockEnd
   0
BLOCK
   5
A4
 100
AcDbEntity
   8
0
 100
AcDbBlockBegin
   2
_ORIGIN
  70
0
  10
0.0
  20
0.0
  30
0.0
   3
_ORIGIN
   0
CIRCLE
   5
A5
 100
AcDbEntity
   8
0
 100
AcDbCircle
   6
BYBLOCK
  62
0
  10
0.0
  20
0.0
  30
0.0
  40
 0.50000000000000
   0
LINE
   5
A6
 100
AcDbEntity
   8
0
 100
AcDbLine
   6
BYBLOCK
  62
0
  10
0.0
  20
0.0
  30
0.0
  11
-1.0000000000000
  21
0.0
  31
0.0
   0
ENDBLK
   5
A7
 100
AcDbEntity
   8
0
 100
AcDbBlockEnd
   0
BLOCK
   5
A8
 100
AcDbEntity
   8
0
 100
AcDbBlockBegin
   2
_NONE
  70
0
  10
0.0
  20
0.0
  30
0.0
   3
_NONE
   0
CIRCLE
   5
A9
 100
AcDbEntity
   8
0
 100
AcDbCircle
   6
BYBLOCK
  62
0
  10
0.0
  20
0.0
  30
0.0
  40
 0.25000000000000
   0
ENDBLK
   5
AA
 100
AcDbEntity
   8
0
 100
AcDbBlockEnd
   0
BLOCK
   5
AB
 100
AcDbEntity
   8
0
 100
AcDbBlockBegin
   2
_DOTBLANK
  70
0
  10
0.0
  20
0.0
  30
0.0
   3
_DOTBLANK
   0
CIRCLE
   5
AC
 100
AcDbEntity
   8
0
 100
AcDbCircle
   6
BYBLOCK
  62
0
  10
0.0
  20
0.0
  30
0.0
  40
 0.50000000000000
   0
LINE
   5
AD
 100
AcDbEntity
   8
0
 100
AcDbLine
   6
BYBLOCK
  62
0
  10
-0.50000000000000
  20
0.0
  30
0.0
  11
-1.0000000000000
  21
0.0
  31
0.0
   0
ENDBLK
   5
AE
 100
AcDbEntity
   8
0
 100
AcDbBlockEnd
   0
BLOCK
   5
AF
 100
AcDbEntity
   8
0
 100
AcDbBlockBegin
   2
_INTEGRAL
  70
0
  10
0.0
  20
0.0
  30
0.0
   3
_INTEGRAL
   0
ARC
   5
B0
 100
AcDbEntity
   8
0
   6
BYBLOCK
  62
0
 100
AcDbCircle
  10
 0.44488800000000
  20
-0.91335000000000E-1
  30
0.0
  40
 0.45416700000000
 100
AcDbArc
  50
 102.00000000000
  51
 168.00000000000
   0
ARC
   5
B1
 100
AcDbEntity
   8
0
   6
BYBLOCK
  62
0
 100
AcDbCircle
  10
-0.44488800000000
  20
 0.91335000000000E-1
  30
0.0
  40
 0.45416700000000
 100
AcDbArc
  50
 282.00000000000
  51
 348.00000000000
   0
ENDBLK
   5
B2
 100
AcDbEntity
   8
0
 100
AcDbBlockEnd
   0
BLOCK
   5
B3
 100
AcDbEntity
   8
0
 100
AcDbBlockBegin
   2
*D1
  70
65
  10
0.0
  20
0.0
  30
0.0
   3
*D1
   0
LINE
   5
B4
 100
AcDbEntity
   8
LEVEL001
 100
AcDbLine
   6
CONTINUOUS
  62
3
  10
 233.95205085022
  20
 172.89167490616
  30
0.0
  11
 233.95205085022
  21
 161.04632241297
  31
0.0
   0
LINE
   5
B5
 100
AcDbEntity
   8
LEVEL001
 100
AcDbLine
   6
CONTINUOUS
  62
3
  10
 253.95205085022
  20
 172.89167490616
  30
0.0
  11
 253.95205085022
  21
 161.04632241297
  31
0.0
   0
LINE
   5
B6
 100
AcDbEntity
   8
LEVEL001
 100
AcDbLine
   6
CONTINUOUS
  62
3
  10
 233.95205085022
  20
 162.04632241297
  30
0.0
  11
 243.95205085022
  21
 162.04632241297
  31
0.0
   0
LINE
   5
B7
 100
AcDbEntity
   8
LEVEL001
 100
AcDbLine
   6
CONTINUOUS
  62
3
  10
 253.95205085022
  20
 162.04632241297
  30
0.0
  11
 243.95205085022
  21
 162.04632241297
  31
0.0
   0
INSERT
   5
B8
 100
AcDbEntity
   8
LEVEL001
   6
CONTINUOUS
  62
3
 100
AcDbBlockReference
   2
_OPEN30
  10
 233.95205085022
  20
 162.04632241297
  30
0.0
  41
 3.0000000000000
  42
 3.0000000000000
  43
 3.0000000000000
  50
 180.00000000000
   0
INSERT
   5
B9
 100
AcDbEntity
   8
LEVEL001
   6
CONTINUOUS
  62
3
 100
AcDbBlockReference
   2
_OPEN30
  10
 253.95205085022
  20
 162.04632241297
  30
0.0
  41
 3.0000000000000
  42
 3.0000000000000
  43
 3.0000000000000
  50
0.0
   0
MTEXT
   5
BA
 100
AcDbEntity
   8
LEVEL001
  62
3
 100
AcDbMText
  10
 243.95205085022
  20
 163.76060812726
  30
0.0
  40
 4.0000000000000
  41
0.0
  71
8
  72
1
   1
\A1;20
   7
GMM001
   0
ENDBLK
   5
BB
 100
AcDbEntity
   8
0
 100
AcDbBlockEnd
   0
BLOCK
   5
BC
 100
AcDbEntity
   8
0
 100
AcDbBlockBegin
   2
*D2
  70
65
  10
0.0
  20
0.0
  30
0.0
   3
*D2
   0
LINE
   5
BD
 100
AcDbEntity
   8
LEVEL001
 100
AcDbLine
   6
CONTINUOUS
  62
3
  10
 244.95205085022
  20
 207.89167490616
  30
0.0
  11
 268.97290507615
  21
 207.89167490616
  31
0.0
   0
LINE
   5
BE
 100
AcDbEntity
   8
LEVEL001
 100
AcDbLine
   6
CONTINUOUS
  62
3
  10
 254.95205085022
  20
 173.89167490616
  30
0.0
  11
 268.97290507615
  21
 173.89167490616
  31
0.0
   0
LINE
   5
BF
 100
AcDbEntity
   8
LEVEL001
 100
AcDbLine
   6
CONTINUOUS
  62
3
  10
 267.97290507615
  20
 207.89167490616
  30
0.0
  11
 267.97290507615
  21
 190.89167490616
  31
0.0
   0
LINE
   5
C0
 100
AcDbEntity
   8
LEVEL001
 100
AcDbLine
   6
CONTINUOUS
  62
3
  10
 267.97290507615
  20
 173.89167490616
  30
0.0
  11
 267.97290507615
  21
 190.89167490616
  31
0.0
   0
INSERT
   5
C1
 100
AcDbEntity
   8
LEVEL001
   6
CONTINUOUS
  62
3
 100
AcDbBlockReference
   2
_OPEN30
  10
 267.97290507615
  20
 207.89167490616
  30
0.0
  41
 3.0000000000000
  42
 3.0000000000000
  43
 3.0000000000000
  50
 90.000000000000
   0
INSERT
   5
C2
 100
AcDbEntity
   8
LEVEL001
   6
CONTINUOUS
  62
3
 100
AcDbBlockReference
   2
_OPEN30
  10
 267.97290507615
  20
 173.89167490616
  30
0.0
  41
 3.0000000000000
  42
 3.0000000000000
  43
 3.0000000000000
  50
 270.00000000000
   0
MTEXT
   5
C3
 100
AcDbEntity
   8
LEVEL001
  62
3
 100
AcDbMText
  10
 266.25861936186
  20
 190.89167490616
  30
0.0
  40
 4.0000000000000
  41
0.0
  71
8
  72
1
   1
\A1;34
   7
GMM001
  11
0.0
  21
 1.0000000000000
  31
0.0
   0
ENDBLK
   5
C4
 100
AcDbEntity
   8
0
 100
AcDbBlockEnd
   0
BLOCK
   5
C5
 100
AcDbEntity
   8
0
 100
AcDbBlockBegin
   2
*D3
  70
65
  10
0.0
  20
0.0
  30
0.0
   3
*D3
   0
LINE
   5
C6
 100
AcDbEntity
   8
LEVEL001
 100
AcDbLine
   6
CONTINUOUS
  62
3
  10
 243.95205085022
  20
 184.89167490616
  30
0.0
  11
 240.22089371908
  21
 195.76956378511
  31
0.0
   0
LINE
   5
C7
 100
AcDbEntity
   8
LEVEL001
 100
AcDbLine
   6
CONTINUOUS
  62
3
  10
 240.22089371908
  20
 195.76956378511
  30
0.0
  11
 232.07244407590
  21
 219.52571412641
  31
0.0
   0
INSERT
   5
C8
 100
AcDbEntity
   8
LEVEL001
   6
CONTINUOUS
  62
3
 100
AcDbBlockReference
   2
_OPEN30
  10
 236.48973658795
  20
 206.64745266406
  30
0.0
  41
 3.0000000000000
  42
 3.0000000000000
  43
 3.0000000000000
  50
 288.93216262449
   0
MTEXT
   5
C9
 100
AcDbEntity
   8
LEVEL001
  62
3
 100
AcDbMText
  10
 237.58737408289
  20
 208.73107089339
  30
0.0
  40
 4.0000000000000
  41
0.0
  71
9
  72
1
   1
\A1;R23
   7
GMM001
  11
 0.32444844618564
  21
-0.94590338077825
  31
0.0
   0
ENDBLK
   5
CA
 100
AcDbEntity
   8
0
 100
AcDbBlockEnd
   0
BLOCK
   5
CB
 100
AcDbEntity
   8
0
 100
AcDbBlockBegin
   2
*D4
  70
65
  10
0.0
  20
0.0
  30
0.0
   3
*D4
   0
LINE
   5
CC
 100
AcDbEntity
   8
LEVEL001
 100
AcDbLine
   6
CONTINUOUS
  62
3
  10
 239.24901127084
  20
 184.89167490616
  30
0.0
  11
 224.76405551862
  21
 184.89167490616
  31
0.0
   0
LINE
   5
CD
 100
AcDbEntity
   8
LEVEL001
 100
AcDbLine
   6
CONTINUOUS
  62
3
  10
 232.95205085022
  20
 173.89167490616
  30
0.0
  11
 224.76405551862
  21
 173.89167490616
  31
0.0
   0
LINE
   5
CE
 100
AcDbEntity
   8
LEVEL001
 100
AcDbLine
   6
CONTINUOUS
  62
3
  10
 225.76405551862
  20
 184.89167490616
  30
0.0
  11
 225.76405551862
  21
 179.39167490616
  31
0.0
   0
LINE
   5
CF
 100
AcDbEntity
   8
LEVEL001
 100
AcDbLine
   6
CONTINUOUS
  62
3
  10
 225.76405551862
  20
 173.89167490616
  30
0.0
  11
 225.76405551862
  21
 179.39167490616
  31
0.0
   0
INSERT
   5
D0
 100
AcDbEntity
   8
LEVEL001
   6
CONTINUOUS
  62
3
 100
AcDbBlockReference
   2
_OPEN30
  10
 225.76405551862
  20
 184.89167490616
  30
0.0
  41
 3.0000000000000
  42
 3.0000000000000
  43
 3.0000000000000
  50
 90.000000000000
   0
INSERT
   5
D1
 100
AcDbEntity
   8
LEVEL001
   6
CONTINUOUS
  62
3
 100
AcDbBlockReference
   2
_OPEN30
  10
 225.76405551862
  20
 173.89167490616
  30
0.0
  41
 3.0000000000000
  42
 3.0000000000000
  43
 3.0000000000000
  50
 270.00000000000
   0
MTEXT
   5
D2
 100
AcDbEntity
   8
LEVEL001
  62
3
 100
AcDbMText
  10
 224.04976980434
  20
 179.39167490616
  30
0.0
  40
 4.0000000000000
  41
0.0
  71
8
  72
1
   1
\A1;11
   7
GMM001
  11
0.0
  21
 1.0000000000000
  31
0.0
   0
ENDBLK
   5
D3
 100
AcDbEntity
   8
0
 100
AcDbBlockEnd
   0
BLOCK
   5
D4
 100
AcDbEntity
   8
0
 100
AcDbBlockBegin
   2
*D5
  70
65
  10
0.0
  20
0.0
  30
0.0
   3
*D5
   0
LINE
   5
D5
 100
AcDbEntity
   8
LEVEL001
 100
AcDbLine
   6
CONTINUOUS
  62
3
  10
 285.89393322085
  20
 208.89167490616
  30
0.0
  11
 285.89393322085
  21
 215.27544310951
  31
0.0
   0
LINE
   5
D6
 100
AcDbEntity
   8
LEVEL001
 100
AcDbLine
   6
CONTINUOUS
  62
3
  10
 293.89393322085
  20
 208.89167490616
  30
0.0
  11
 293.89393322085
  21
 215.27544310951
  31
0.0
   0
LINE
   5
D7
 100
AcDbEntity
   8
LEVEL001
 100
AcDbLine
   6
CONTINUOUS
  62
3
  10
 285.89393322085
  20
 214.27544310951
  30
0.0
  11
 289.89393322085
  21
 214.27544310951
  31
0.0
   0
LINE
   5
D8
 100
AcDbEntity
   8
LEVEL001
 100
AcDbLine
   6
CONTINUOUS
  62
3
  10
 293.89393322085
  20
 214.27544310951
  30
0.0
  11
 289.89393322085
  21
 214.27544310951
  31
0.0
   0
INSERT
   5
D9
 100
AcDbEntity
   8
LEVEL001
   6
CONTINUOUS
  62
3
 100
AcDbBlockReference
   2
_OPEN30
  10
 285.89393322085
  20
 214.27544310951
  30
0.0
  41
 3.0000000000000
  42
 3.0000000000000
  43
 3.0000000000000
  50
 180.00000000000
   0
INSERT
   5
DA
 100
AcDbEntity
   8
LEVEL001
   6
CONTINUOUS
  62
3
 100
AcDbBlockReference
   2
_OPEN30
  10
 293.89393322085
  20
 214.27544310951
  30
0.0
  41
 3.0000000000000
  42
 3.0000000000000
  43
 3.0000000000000
  50
0.0
   0
MTEXT
   5
DB
 100
AcDbEntity
   8
LEVEL001
  62
3
 100
AcDbMText
  10
 289.89393322085
  20
 215.98972882379
  30
0.0
  40
 4.0000000000000
  41
0.0
  71
8
  72
1
   1
\A1;8
   7
GMM001
   0
ENDBLK
   5
DC
 100
AcDbEntity
   8
0
 100
AcDbBlockEnd
   0
BLOCK
   5
DD
 100
AcDbEntity
   8
0
 100
AcDbBlockBegin
   2
*D6
  70
65
  10
0.0
  20
0.0
  30
0.0
   3
*D6
   0
LINE
   5
DE
 100
AcDbEntity
   8
LEVEL001
 100
AcDbLine
   6
CONTINUOUS
  62
3
  10
 285.89393322085
  20
 172.89167490616
  30
0.0
  11
 285.89393322085
  21
 161.04632241297
  31
0.0
   0
LINE
   5
DF
 100
AcDbEntity
   8
LEVEL001
 100
AcDbLine
   6
CONTINUOUS
  62
3
  10
 313.89393322085
  20
 183.59167490616
  30
0.0
  11
 313.89393322085
  21
 161.04632241297
  31
0.0
   0
LINE
   5
E0
 100
AcDbEntity
   8
LEVEL001
 100
AcDbLine
   6
CONTINUOUS
  62
3
  10
 285.89393322085
  20
 162.04632241297
  30
0.0
  11
 299.89393322085
  21
 162.04632241297
  31
0.0
   0
LINE
   5
E1
 100
AcDbEntity
   8
LEVEL001
 100
AcDbLine
   6
CONTINUOUS
  62
3
  10
 313.89393322085
  20
 162.04632241297
  30
0.0
  11
 299.89393322085
  21
 162.04632241297
  31
0.0
   0
INSERT
   5
E2
 100
AcDbEntity
   8
LEVEL001
   6
CONTINUOUS
  62
3
 100
AcDbBlockReference
   2
_OPEN30
  10
 285.89393322085
  20
 162.04632241297
  30
0.0
  41
 3.0000000000000
  42
 3.0000000000000
  43
 3.0000000000000
  50
 180.00000000000
   0
INSERT
   5
E3
 100
AcDbEntity
   8
LEVEL001
   6
CONTINUOUS
  62
3
 100
AcDbBlockReference
   2
_OPEN30
  10
 313.89393322085
  20
 162.04632241297
  30
0.0
  41
 3.0000000000000
  42
 3.0000000000000
  43
 3.0000000000000
  50
0.0
   0
MTEXT
   5
E4
 100
AcDbEntity
   8
LEVEL001
  62
3
 100
AcDbMText
  10
 299.89393322085
  20
 163.76060812726
  30
0.0
  40
 4.0000000000000
  41
0.0
  71
8
  72
1
   1
\A1;28
   7
GMM001
   0
ENDBLK
   5
E5
 100
AcDbEntity
   8
0
 100
AcDbBlockEnd
   0
BLOCK
   5
E6
 100
AcDbEntity
   8
0
 100
AcDbBlockBegin
   2
*D7
  70
65
  10
0.0
  20
0.0
  30
0.0
   3
*D7
   0
LINE
   5
E7
 100
AcDbEntity
   8
LEVEL001
 100
AcDbLine
   6
CONTINUOUS
  62
3
  10
 314.89393322085
  20
 201.59167490616
  30
0.0
  11
 328.94930510016
  21
 201.59167490616
  31
0.0
   0
LINE
   5
E8
 100
AcDbEntity
   8
LEVEL001
 100
AcDbLine
   6
CONTINUOUS
  62
3
  10
 314.89393322085
  20
 184.59167490616
  30
0.0
  11
 328.94930510016
  21
 184.59167490616
  31
0.0
   0
LINE
   5
E9
 100
AcDbEntity
   8
LEVEL001
 100
AcDbLine
   6
CONTINUOUS
  62
3
  10
 327.94930510016
  20
 201.59167490616
  30
0.0
  11
 327.94930510016
  21
 193.09167490616
  31
0.0
   0
LINE
   5
EA
 100
AcDbEntity
   8
LEVEL001
 100
AcDbLine
   6
CONTINUOUS
  62
3
  10
 327.94930510016
  20
 184.59167490616
  30
0.0
  11
 327.94930510016
  21
 193.09167490616
  31
0.0
   0
INSERT
   5
EB
 100
AcDbEntity
   8
LEVEL001
   6
CONTINUOUS
  62
3
 100
AcDbBlockReference
   2
_OPEN30
  10
 327.94930510016
  20
 201.59167490616
  30
0.0
  41
 3.0000000000000
  42
 3.0000000000000
  43
 3.0000000000000
  50
 90.000000000000
   0
INSERT
   5
EC
 100
AcDbEntity
   8
LEVEL001
   6
CONTINUOUS
  62
3
 100
AcDbBlockReference
   2
_OPEN30
  10
 327.94930510016
  20
 184.59167490616
  30
0.0
  41
 3.0000000000000
  42
 3.0000000000000
  43
 3.0000000000000
  50
 270.00000000000
   0
MTEXT
   5
ED
 100
AcDbEntity
   8
LEVEL001
  62
3
 100
AcDbMText
  10
 326.23501938587
  20
 193.09167490616
  30
0.0
  40
 4.0000000000000
  41
0.0
  71
8
  72
1
   1
\A1;17
   7
GMM001
  11
0.0
  21
 1.0000000000000
  31
0.0
   0
ENDBLK
   5
EE
 100
AcDbEntity
   8
0
 100
AcDbBlockEnd
   0
BLOCK
   5
EF
 100
AcDbEntity
   8
0
 100
AcDbBlockBegin
   2
*D8
  70
65
  10
0.0
  20
0.0
  30
0.0
   3
*D8
   0
POLYLINE
   5
F0
 100
AcDbEntity
   8
LEVEL001
   6
CONTINUOUS
  62
3
 100
AcDb2dPolyline
  66
1
  10
0.0
  20
0.0
  30
0.0
  70
0
   0
VERTEX
   5
F1
 100
AcDbEntity
   8
LEVEL001
   6
CONTINUOUS
  62
3
 100
AcDbVertex
 100
AcDb2dVertex
  10
 313.89393322085
  20
 193.09167490616
  30
0.0
   0
VERTEX
   5
F2
 100
AcDbEntity
   8
LEVEL001
   6
CONTINUOUS
  62
3
 100
AcDbVertex
 100
AcDb2dVertex
  10
 324.42280316345
  20
 218.70776791062
  30
0.0
   0
VERTEX
   5
F3
 100
AcDbEntity
   8
LEVEL001
   6
CONTINUOUS
  62
3
 100
AcDbVertex
 100
AcDb2dVertex
  10
 366.22280316345
  20
 218.70776791062
  30
0.0
   0
SEQEND
   5
F4
 100
AcDbEntity
   8
LEVEL001
   6
CONTINUOUS
  62
3
   0
INSERT
   5
F5
 100
AcDbEntity
   8
LEVEL001
   6
CONTINUOUS
  62
3
 100
AcDbBlockReference
   2
_OPEN30
  10
 313.89393322085
  20
 193.09167490616
  30
0.0
  41
 3.0000000000000
  42
 3.0000000000000
  43
 3.0000000000000
  50
 247.65608296315
   0
MTEXT
   5
F6
 100
AcDbEntity
   8
LEVEL001
  62
3
 100
AcDbMText
  10
 324.42280316345
  20
 220.42205362491
  30
0.0
  40
 4.0000000000000
  41
0.0
  71
7
  72
1
   1
\A1;Ｍ４タップ（有効１３）
   7
GMM002
   0
ENDBLK
   5
F7
 100
AcDbEntity
   8
0
 100
AcDbBlockEnd
   0
BLOCK
   5
F8
 100
AcDbEntity
   8
0
 100
AcDbBlockBegin
   2
*D9
  70
65
  10
0.0
  20
0.0
  30
0.0
   3
*D9
   0
LINE
   5
F9
 100
AcDbEntity
   8
LEVEL001
 100
AcDbLine
   6
CONTINUOUS
  62
3
  10
 351.05470571748
  20
 183.59167490616
  30
0.0
  11
 351.05470571748
  21
 161.04632241297
  31
0.0
   0
LINE
   5
FA
 100
AcDbEntity
   8
LEVEL001
 100
AcDbLine
   6
CONTINUOUS
  62
3
  10
 361.05470571748
  20
 183.59167490616
  30
0.0
  11
 361.05470571748
  21
 161.04632241297
  31
0.0
   0
LINE
   5
FB
 100
AcDbEntity
   8
LEVEL001
 100
AcDbLine
   6
CONTINUOUS
  62
3
  10
 351.05470571748
  20
 162.04632241297
  30
0.0
  11
 356.05470571748
  21
 162.04632241297
  31
0.0
   0
LINE
   5
FC
 100
AcDbEntity
   8
LEVEL001
 100
AcDbLine
   6
CONTINUOUS
  62
3
  10
 361.05470571748
  20
 162.04632241297
  30
0.0
  11
 356.05470571748
  21
 162.04632241297
  31
0.0
   0
INSERT
   5
FD
 100
AcDbEntity
   8
LEVEL001
   6
CONTINUOUS
  62
3
 100
AcDbBlockReference
   2
_OPEN30
  10
 351.05470571748
  20
 162.04632241297
  30
0.0
  41
 3.0000000000000
  42
 3.0000000000000
  43
 3.0000000000000
  50
 180.00000000000
   0
INSERT
   5
FE
 100
AcDbEntity
   8
LEVEL001
   6
CONTINUOUS
  62
3
 100
AcDbBlockReference
   2
_OPEN30
  10
 361.05470571748
  20
 162.04632241297
  30
0.0
  41
 3.0000000000000
  42
 3.0000000000000
  43
 3.0000000000000
  50
0.0
   0
MTEXT
   5
FF
 100
AcDbEntity
   8
LEVEL001
  62
3
 100
AcDbMText
  10
 356.05470571748
  20
 163.76060812726
  30
0.0
  40
 4.0000000000000
  41
0.0
  71
8
  72
1
   1
\A1;10
   7
GMM001
   0
ENDBLK
   5
100
 100
AcDbEntity
   8
0
 100
AcDbBlockEnd
   0
BLOCK
   5
101
 100
AcDbEntity
   8
0
 100
AcDbBlockBegin
   2
*D10
  70
65
  10
0.0
  20
0.0
  30
0.0
   3
*D10
   0
LINE
   5
102
 100
AcDbEntity
   8
LEVEL001
 100
AcDbLine
   6
CONTINUOUS
  62
3
  10
 307.02412828446
  20
 214.31203902372
  30
0.0
  11
 296.44763186640
  21
 204.21029429527
  31
0.0
   0
LINE
   5
103
 100
AcDbEntity
   8
LEVEL001
 100
AcDbLine
   6
CONTINUOUS
  62
3
  10
 296.44763186640
  20
 204.21029429527
  30
0.0
  11
 295.00133051196
  21
 202.82891368439
  31
0.0
   0
INSERT
   5
104
 100
AcDbEntity
   8
LEVEL001
   6
CONTINUOUS
  62
3
 100
AcDbBlockReference
   2
_OPEN30
  10
 295.00133051196
  20
 202.82891368439
  30
0.0
  41
 3.0000000000000
  42
 3.0000000000000
  43
 3.0000000000000
  50
 223.68477739254
   0
MTEXT
   5
105
 100
AcDbEntity
   8
LEVEL001
  62
3
 100
AcDbMText
  10
 300.05488234307
  20
 210.02620345542
  30
0.0
  40
 4.0000000000000
  41
0.0
  71
7
  72
1
   1
\A1;R4
   7
GMM001
  11
 0.72315067722234
  21
 0.69069030544295
  31
0.0
   0
ENDBLK
   5
106
 100
AcDbEntity
   8
0
 100
AcDbBlockEnd
   0
BLOCK
   5
107
 100
AcDbEntity
   8
0
 100
AcDbBlockBegin
   2
*D11
  70
65
  10
0.0
  20
0.0
  30
0.0
   3
*D11
   0
LINE
   5
108
 100
AcDbEntity
   8
LEVEL001
 100
AcDbLine
   6
CONTINUOUS
  62
3
  10
 100.70780609439
  20
 207.89167490616
  30
0.0
  11
 100.70780609439
  21
 215.27544310951
  31
0.0
   0
LINE
   5
109
 100
AcDbEntity
   8
LEVEL001
 100
AcDbLine
   6
CONTINUOUS
  62
3
  10
 108.70780609439
  20
 207.89167490616
  30
0.0
  11
 108.70780609439
  21
 215.27544310951
  31
0.0
   0
LINE
   5
10A
 100
AcDbEntity
   8
LEVEL001
 100
AcDbLine
   6
CONTINUOUS
  62
3
  10
 100.70780609439
  20
 214.27544310951
  30
0.0
  11
 104.70780609439
  21
 214.27544310951
  31
0.0
   0
LINE
   5
10B
 100
AcDbEntity
   8
LEVEL001
 100
AcDbLine
   6
CONTINUOUS
  62
3
  10
 108.70780609439
  20
 214.27544310951
  30
0.0
  11
 104.70780609439
  21
 214.27544310951
  31
0.0
   0
INSERT
   5
10C
 100
AcDbEntity
   8
LEVEL001
   6
CONTINUOUS
  62
3
 100
AcDbBlockReference
   2
_OPEN30
  10
 100.70780609439
  20
 214.27544310951
  30
0.0
  41
 3.0000000000000
  42
 3.0000000000000
  43
 3.0000000000000
  50
 180.00000000000
   0
INSERT
   5
10D
 100
AcDbEntity
   8
LEVEL001
   6
CONTINUOUS
  62
3
 100
AcDbBlockReference
   2
_OPEN30
  10
 108.70780609439
  20
 214.27544310951
  30
0.0
  41
 3.0000000000000
  42
 3.0000000000000
  43
 3.0000000000000
  50
0.0
   0
MTEXT
   5
10E
 100
AcDbEntity
   8
LEVEL001
  62
3
 100
AcDbMText
  10
 104.70780609439
  20
 215.98972882379
  30
0.0
  40
 4.0000000000000
  41
0.0
  71
8
  72
1
   1
\A1;8
   7
GMM001
   0
ENDBLK
   5
10F
 100
AcDbEntity
   8
0
 100
AcDbBlockEnd
   0
BLOCK
   5
110
 100
AcDbEntity
   8
0
 100
AcDbBlockBegin
   2
*D12
  70
65
  10
0.0
  20
0.0
  30
0.0
   3
*D12
   0
LINE
   5
111
 100
AcDbEntity
   8
LEVEL001
 100
AcDbLine
   6
CONTINUOUS
  62
3
  10
 100.70780609439
  20
 173.89167490616
  30
0.0
  11
 100.70780609439
  21
 161.04632241297
  31
0.0
   0
LINE
   5
112
 100
AcDbEntity
   8
LEVEL001
 100
AcDbLine
   6
CONTINUOUS
  62
3
  10
 128.70780609439
  20
 183.59167490616
  30
0.0
  11
 128.70780609439
  21
 161.04632241297
  31
0.0
   0
LINE
   5
113
 100
AcDbEntity
   8
LEVEL001
 100
AcDbLine
   6
CONTINUOUS
  62
3
  10
 100.70780609439
  20
 162.04632241297
  30
0.0
  11
 114.70780609439
  21
 162.04632241297
  31
0.0
   0
LINE
   5
114
 100
AcDbEntity
   8
LEVEL001
 100
AcDbLine
   6
CONTINUOUS
  62
3
  10
 128.70780609439
  20
 162.04632241297
  30
0.0
  11
 114.70780609439
  21
 162.04632241297
  31
0.0
   0
INSERT
   5
115
 100
AcDbEntity
   8
LEVEL001
   6
CONTINUOUS
  62
3
 100
AcDbBlockReference
   2
_OPEN30
  10
 100.70780609439
  20
 162.04632241297
  30
0.0
  41
 3.0000000000000
  42
 3.0000000000000
  43
 3.0000000000000
  50
 180.00000000000
   0
INSERT
   5
116
 100
AcDbEntity
   8
LEVEL001
   6
CONTINUOUS
  62
3
 100
AcDbBlockReference
   2
_OPEN30
  10
 128.70780609439
  20
 162.04632241297
  30
0.0
  41
 3.0000000000000
  42
 3.0000000000000
  43
 3.0000000000000
  50
0.0
   0
MTEXT
   5
117
 100
AcDbEntity
   8
LEVEL001
  62
3
 100
AcDbMText
  10
 114.70780609439
  20
 163.76060812726
  30
0.0
  40
 4.0000000000000
  41
0.0
  71
8
  72
1
   1
\A1;28
   7
GMM001
   0
ENDBLK
   5
118
 100
AcDbEntity
   8
0
 100
AcDbBlockEnd
   0
BLOCK
   5
119
 100
AcDbEntity
   8
0
 100
AcDbBlockBegin
   2
*D13
  70
65
  10
0.0
  20
0.0
  30
0.0
   3
*D13
   0
LINE
   5
11A
 100
AcDbEntity
   8
LEVEL001
 100
AcDbLine
   6
CONTINUOUS
  62
3
  10
 129.70780609439
  20
 201.59167490616
  30
0.0
  11
 143.71888925700
  21
 201.59167490616
  31
0.0
   0
LINE
   5
11B
 100
AcDbEntity
   8
LEVEL001
 100
AcDbLine
   6
CONTINUOUS
  62
3
  10
 129.70780609439
  20
 184.59167490616
  30
0.0
  11
 143.71888925700
  21
 184.59167490616
  31
0.0
   0
LINE
   5
11C
 100
AcDbEntity
   8
LEVEL001
 100
AcDbLine
   6
CONTINUOUS
  62
3
  10
 142.71888925700
  20
 201.59167490616
  30
0.0
  11
 142.71888925700
  21
 193.09167490616
  31
0.0
   0
LINE
   5
11D
 100
AcDbEntity
   8
LEVEL001
 100
AcDbLine
   6
CONTINUOUS
  62
3
  10
 142.71888925700
  20
 184.59167490616
  30
0.0
  11
 142.71888925700
  21
 193.09167490616
  31
0.0
   0
INSERT
   5
11E
 100
AcDbEntity
   8
LEVEL001
   6
CONTINUOUS
  62
3
 100
AcDbBlockReference
   2
_OPEN30
  10
 142.71888925700
  20
 201.59167490616
  30
0.0
  41
 3.0000000000000
  42
 3.0000000000000
  43
 3.0000000000000
  50
 90.000000000000
   0
INSERT
   5
11F
 100
AcDbEntity
   8
LEVEL001
   6
CONTINUOUS
  62
3
 100
AcDbBlockReference
   2
_OPEN30
  10
 142.71888925700
  20
 184.59167490616
  30
0.0
  41
 3.0000000000000
  42
 3.0000000000000
  43
 3.0000000000000
  50
 270.00000000000
   0
MTEXT
   5
120
 100
AcDbEntity
   8
LEVEL001
  62
3
 100
AcDbMText
  10
 141.00460354271
  20
 193.09167490616
  30
0.0
  40
 4.0000000000000
  41
0.0
  71
8
  72
1
   1
\A1;17
   7
GMM001
  11
0.0
  21
 1.0000000000000
  31
0.0
   0
ENDBLK
   5
121
 100
AcDbEntity
   8
0
 100
AcDbBlockEnd
   0
BLOCK
   5
122
 100
AcDbEntity
   8
0
 100
AcDbBlockBegin
   2
*D14
  70
65
  10
0.0
  20
0.0
  30
0.0
   3
*D14
   0
LINE
   5
123
 100
AcDbEntity
   8
LEVEL001
 100
AcDbLine
   6
CONTINUOUS
  62
3
  10
 164.84372027672
  20
 179.59167490616
  30
0.0
  11
 164.84372027672
  21
 161.04632241297
  31
0.0
   0
LINE
   5
124
 100
AcDbEntity
   8
LEVEL001
 100
AcDbLine
   6
CONTINUOUS
  62
3
  10
 174.84372027672
  20
 179.59167490616
  30
0.0
  11
 174.84372027672
  21
 161.04632241297
  31
0.0
   0
LINE
   5
125
 100
AcDbEntity
   8
LEVEL001
 100
AcDbLine
   6
CONTINUOUS
  62
3
  10
 164.84372027672
  20
 162.04632241297
  30
0.0
  11
 169.84372027672
  21
 162.04632241297
  31
0.0
   0
LINE
   5
126
 100
AcDbEntity
   8
LEVEL001
 100
AcDbLine
   6
CONTINUOUS
  62
3
  10
 174.84372027672
  20
 162.04632241297
  30
0.0
  11
 169.84372027672
  21
 162.04632241297
  31
0.0
   0
INSERT
   5
127
 100
AcDbEntity
   8
LEVEL001
   6
CONTINUOUS
  62
3
 100
AcDbBlockReference
   2
_OPEN30
  10
 164.84372027672
  20
 162.04632241297
  30
0.0
  41
 3.0000000000000
  42
 3.0000000000000
  43
 3.0000000000000
  50
 180.00000000000
   0
INSERT
   5
128
 100
AcDbEntity
   8
LEVEL001
   6
CONTINUOUS
  62
3
 100
AcDbBlockReference
   2
_OPEN30
  10
 174.84372027672
  20
 162.04632241297
  30
0.0
  41
 3.0000000000000
  42
 3.0000000000000
  43
 3.0000000000000
  50
0.0
   0
MTEXT
   5
129
 100
AcDbEntity
   8
LEVEL001
  62
3
 100
AcDbMText
  10
 169.84372027672
  20
 163.76060812726
  30
0.0
  40
 4.0000000000000
  41
0.0
  71
8
  72
1
   1
\A1;10
   7
GMM001
   0
ENDBLK
   5
12A
 100
AcDbEntity
   8
0
 100
AcDbBlockEnd
   0
BLOCK
   5
12B
 100
AcDbEntity
   8
0
 100
AcDbBlockBegin
   2
*D15
  70
65
  10
0.0
  20
0.0
  30
0.0
   3
*D15
   0
LINE
   5
12C
 100
AcDbEntity
   8
LEVEL001
 100
AcDbLine
   6
CONTINUOUS
  62
3
  10
 73.725136205916
  20
 206.89167490616
  30
0.0
  11
 86.466235056666
  21
 206.89167490616
  31
0.0
   0
LINE
   5
12D
 100
AcDbEntity
   8
LEVEL001
 100
AcDbLine
   6
CONTINUOUS
  62
3
  10
 73.725136205916
  20
 174.89167490616
  30
0.0
  11
 86.466235056666
  21
 174.89167490616
  31
0.0
   0
LINE
   5
12E
 100
AcDbEntity
   8
LEVEL001
 100
AcDbLine
   6
CONTINUOUS
  62
3
  10
 85.466235056666
  20
 206.89167490616
  30
0.0
  11
 85.466235056666
  21
 190.89167490616
  31
0.0
   0
LINE
   5
12F
 100
AcDbEntity
   8
LEVEL001
 100
AcDbLine
   6
CONTINUOUS
  62
3
  10
 85.466235056666
  20
 174.89167490616
  30
0.0
  11
 85.466235056666
  21
 190.89167490616
  31
0.0
   0
INSERT
   5
130
 100
AcDbEntity
   8
LEVEL001
   6
CONTINUOUS
  62
3
 100
AcDbBlockReference
   2
_OPEN30
  10
 85.466235056666
  20
 206.89167490616
  30
0.0
  41
 3.0000000000000
  42
 3.0000000000000
  43
 3.0000000000000
  50
 90.000000000000
   0
INSERT
   5
131
 100
AcDbEntity
   8
LEVEL001
   6
CONTINUOUS
  62
3
 100
AcDbBlockReference
   2
_OPEN30
  10
 85.466235056666
  20
 174.89167490616
  30
0.0
  41
 3.0000000000000
  42
 3.0000000000000
  43
 3.0000000000000
  50
 270.00000000000
   0
MTEXT
   5
132
 100
AcDbEntity
   8
LEVEL001
  62
3
 100
AcDbMText
  10
 83.751949342380
  20
 190.89167490616
  30
0.0
  40
 4.0000000000000
  41
0.0
  71
8
  72
1
   1
\A1;32
   7
GMM001
  11
0.0
  21
 1.0000000000000
  31
0.0
   0
ENDBLK
   5
133
 100
AcDbEntity
   8
0
 100
AcDbBlockEnd
   0
BLOCK
   5
134
 100
AcDbEntity
   8
0
 100
AcDbBlockBegin
   2
*D16
  70
65
  10
0.0
  20
0.0
  30
0.0
   3
*D16
   0
LINE
   5
135
 100
AcDbEntity
   8
LEVEL001
 100
AcDbLine
   6
CONTINUOUS
  62
3
  10
 52.725136205916
  20
 173.89167490616
  30
0.0
  11
 52.725136205916
  21
 161.04632241297
  31
0.0
   0
LINE
   5
136
 100
AcDbEntity
   8
LEVEL001
 100
AcDbLine
   6
CONTINUOUS
  62
3
  10
 72.725136205916
  20
 173.89167490616
  30
0.0
  11
 72.725136205916
  21
 161.04632241297
  31
0.0
   0
LINE
   5
137
 100
AcDbEntity
   8
LEVEL001
 100
AcDbLine
   6
CONTINUOUS
  62
3
  10
 52.725136205916
  20
 162.04632241297
  30
0.0
  11
 62.725136205916
  21
 162.04632241297
  31
0.0
   0
LINE
   5
138
 100
AcDbEntity
   8
LEVEL001
 100
AcDbLine
   6
CONTINUOUS
  62
3
  10
 72.725136205916
  20
 162.04632241297
  30
0.0
  11
 62.725136205916
  21
 162.04632241297
  31
0.0
   0
INSERT
   5
139
 100
AcDbEntity
   8
LEVEL001
   6
CONTINUOUS
  62
3
 100
AcDbBlockReference
   2
_OPEN30
  10
 52.725136205916
  20
 162.04632241297
  30
0.0
  41
 3.0000000000000
  42
 3.0000000000000
  43
 3.0000000000000
  50
 180.00000000000
   0
INSERT
   5
13A
 100
AcDbEntity
   8
LEVEL001
   6
CONTINUOUS
  62
3
 100
AcDbBlockReference
   2
_OPEN30
  10
 72.725136205916
  20
 162.04632241297
  30
0.0
  41
 3.0000000000000
  42
 3.0000000000000
  43
 3.0000000000000
  50
0.0
   0
MTEXT
   5
13B
 100
AcDbEntity
   8
LEVEL001
  62
3
 100
AcDbMText
  10
 62.725136205916
  20
 163.76060812726
  30
0.0
  40
 4.0000000000000
  41
0.0
  71
8
  72
1
   1
\A1;20
   7
GMM001
   0
ENDBLK
   5
13C
 100
AcDbEntity
   8
0
 100
AcDbBlockEnd
   0
BLOCK
   5
13D
 100
AcDbEntity
   8
0
 100
AcDbBlockBegin
   2
*D17
  70
65
  10
0.0
  20
0.0
  30
0.0
   3
*D17
   0
POLYLINE
   5
13E
 100
AcDbEntity
   8
LEVEL001
   6
CONTINUOUS
  62
3
 100
AcDb2dPolyline
  66
1
  10
0.0
  20
0.0
  30
0.0
  70
0
   0
VERTEX
   5
13F
 100
AcDbEntity
   8
LEVEL001
   6
CONTINUOUS
  62
3
 100
AcDbVertex
 100
AcDb2dVertex
  10
 128.70780609439
  20
 193.09167490616
  30
0.0
   0
VERTEX
   5
140
 100
AcDbEntity
   8
LEVEL001
   6
CONTINUOUS
  62
3
 100
AcDbVertex
 100
AcDb2dVertex
  10
 139.85643148201
  20
 217.77325463629
  30
0.0
   0
VERTEX
   5
141
 100
AcDbEntity
   8
LEVEL001
   6
CONTINUOUS
  62
3
 100
AcDbVertex
 100
AcDb2dVertex
  10
 181.65643148201
  20
 217.77325463629
  30
0.0
   0
SEQEND
   5
142
 100
AcDbEntity
   8
LEVEL001
   6
CONTINUOUS
  62
3
   0
INSERT
   5
143
 100
AcDbEntity
   8
LEVEL001
   6
CONTINUOUS
  62
3
 100
AcDbBlockReference
   2
_OPEN30
  10
 128.70780609439
  20
 193.09167490616
  30
0.0
  41
 3.0000000000000
  42
 3.0000000000000
  43
 3.0000000000000
  50
 245.69139113619
   0
MTEXT
   5
144
 100
AcDbEntity
   8
LEVEL001
  62
3
 100
AcDbMText
  10
 139.85643148201
  20
 219.48754035057
  30
0.0
  40
 4.0000000000000
  41
0.0
  71
7
  72
1
   1
\A1;Ｍ４タップ（有効１３）
   7
GMM002
   0
ENDBLK
   5
145
 100
AcDbEntity
   8
0
 100
AcDbBlockEnd
   0
BLOCK
   5
146
 100
AcDbEntity
   8
0
 100
AcDbBlockBegin
   2
*D18
  70
65
  10
0.0
  20
0.0
  30
0.0
   3
*D18
   0
LINE
   5
147
 100
AcDbEntity
   8
LEVEL001
 100
AcDbLine
   6
CONTINUOUS
  62
3
  10
 122.20904951063
  20
 213.12832559325
  30
0.0
  11
 111.14090562619
  21
 204.34876584964
  31
0.0
   0
LINE
   5
148
 100
AcDbEntity
   8
LEVEL001
 100
AcDbLine
   6
CONTINUOUS
  62
3
  10
 111.14090562619
  20
 204.34876584964
  30
0.0
  11
 109.57400515800
  21
 203.10585679313
  31
0.0
   0
INSERT
   5
149
 100
AcDbEntity
   8
LEVEL001
   6
CONTINUOUS
  62
3
 100
AcDbBlockReference
   2
_OPEN30
  10
 109.57400515800
  20
 203.10585679313
  30
0.0
  41
 3.0000000000000
  42
 3.0000000000000
  43
 3.0000000000000
  50
 218.42242980591
   0
MTEXT
   5
14A
 100
AcDbEntity
   8
LEVEL001
  62
3
 100
AcDbMText
  10
 114.87609701798
  20
 209.49974691135
  30
0.0
  40
 4.0000000000000
  41
0.0
  71
7
  72
1
   1
\A1;R4
   7
GMM001
  11
 0.78345023409720
  21
 0.62145452825854
  31
0.0
   0
ENDBLK
   5
14B
 100
AcDbEntity
   8
0
 100
AcDbBlockEnd
   0
ENDSEC
   0
SECTION
   2
ENTITIES
   0
ARC
   5
14C
 100
AcDbEntity
   8
LEVEL001
   6
CONTINUOUS
  62
7
 100
AcDbCircle
  10
 252.95205085022
  20
 204.96653480605
  30
0.0
  40
 1.0000000000000
 100
AcDbArc
  50
0.0
  51
 65.852260082976
   0
ARC
   5
14D
 100
AcDbEntity
   8
LEVEL001
   6
CONTINUOUS
  62
7
 100
AcDbCircle
  10
 234.95205085022
  20
 174.89167490616
  30
0.0
  40
 1.0000000000000
 100
AcDbArc
  50
 180.00000000000
  51
 270.00000000000
   0
POINT
   5
14E
 100
AcDbEntity
   8
LEVEL001
 100
AcDbPoint
  62
7
  10
 233.95205085022
  20
 173.89167490616
  30
0.0
   0
LINE
   5
14F
 100
AcDbEntity
   8
LEVEL001
 100
AcDbLine
   6
CONTINUOUS
  62
7
  10
 234.95205085022
  20
 173.89167490616
  30
0.0
  11
 252.95205085022
  21
 173.89167490616
  31
0.0
   0
ARC
   5
150
 100
AcDbEntity
   8
LEVEL001
   6
CONTINUOUS
  62
7
 100
AcDbCircle
  10
 252.95205085022
  20
 174.89167490616
  30
0.0
  40
 1.0000000000000
 100
AcDbArc
  50
 270.00000000000
  51
0.0
   0
POINT
   5
151
 100
AcDbEntity
   8
LEVEL001
 100
AcDbPoint
  62
7
  10
 253.95205085022
  20
 173.89167490616
  30
0.0
   0
LINE
   5
152
 100
AcDbEntity
   8
LEVEL001
 100
AcDbLine
   6
CONTINUOUS
  62
7
  10
 233.95205085022
  20
 174.89167490616
  30
0.0
  11
 233.95205085022
  21
 204.96653480605
  31
0.0
   0
ARC
   5
153
 100
AcDbEntity
   8
LEVEL001
   6
CONTINUOUS
  62
7
 100
AcDbCircle
  10
 234.95205085022
  20
 204.96653480605
  30
0.0
  40
 1.0000000000000
 100
AcDbArc
  50
 114.14773991702
  51
 180.00000000000
   0
LINE
   5
154
 100
AcDbEntity
   8
LEVEL001
 100
AcDbLine
   6
DASHDOT
  62
2
  10
 243.95205085022
  20
 210.47021598665
  30
0.0
  11
 243.95205085022
  21
 170.38997999845
  31
0.0
   0
DIMENSION
   5
155
 100
AcDbEntity
   8
LEVEL001
   6
CONTINUOUS
  62
3
 100
AcDbDimension
   2
*D1
  10
 253.95205085022
  20
 162.04632241297
  30
0.0
  11
 243.95205085022
  21
 162.04632241297
  31
0.0
  70
0
   3
GMM001
 100
AcDbAlignedDimension
  13
 233.95205085022
  23
 173.89167490616
  33
0.0
  14
 253.95205085022
  24
 173.89167490616
  34
0.0
 100
AcDbRotatedDimension
   0
ARC
   5
156
 100
AcDbEntity
   8
LEVEL001
   6
CONTINUOUS
  62
7
 100
AcDbCircle
  10
 243.95205085022
  20
 184.89167490616
  30
0.0
  40
 23.000000000000
 100
AcDbArc
  50
 65.852260082977
  51
 114.14773991702
   0
LINE
   5
157
 100
AcDbEntity
   8
LEVEL001
 100
AcDbLine
   6
CONTINUOUS
  62
7
  10
 253.95205085022
  20
 174.89167490616
  30
0.0
  11
 253.95205085022
  21
 204.96653480605
  31
0.0
   0
DIMENSION
   5
158
 100
AcDbEntity
   8
LEVEL001
   6
CONTINUOUS
  62
3
 100
AcDbDimension
   2
*D2
  10
 267.97290507615
  20
 173.89167490616
  30
0.0
  11
 267.97290507615
  21
 190.89167490616
  31
0.0
  70
0
   3
GMM001
 100
AcDbAlignedDimension
  13
 243.95205085022
  23
 207.89167490616
  33
0.0
  14
 253.95205085022
  24
 173.89167490616
  34
0.0
  50
 270.00000000000
 100
AcDbRotatedDimension
   0
DIMENSION
   5
159
 100
AcDbEntity
   8
LEVEL001
   6
CONTINUOUS
  62
3
 100
AcDbDimension
   2
*D3
  10
 243.95205085022
  20
 184.89167490616
  30
0.0
  11
 235.96582543013
  21
 208.17487355707
  31
0.0
  70
132
   3
GMM002
 100
AcDbRadialDimension
  15
 236.48973658795
  25
 206.64745266406
  35
0.0
  40
 2.3550526524670
   0
TEXT
   5
15A
 100
AcDbEntity
   8
LEVEL001
  62
7
 100
AcDbText
  10
 219.73101009020
  20
 229.31735651063
  30
0.0
  40
 5.0000000000000
   1
楕円型ツマミ
   7
STANDARD
 100
AcDbText
   0
LINE
   5
15B
 100
AcDbEntity
   8
LEVEL001
 100
AcDbLine
   6
CONTINUOUS
  62
7
  10
 219.62827838575
  20
 228.28830679393
  30
0.0
  11
 250.26433919810
  21
 228.28830679393
  31
0.0
   0
DIMENSION
   5
15C
 100
AcDbEntity
   8
LEVEL001
   6
CONTINUOUS
  62
3
 100
AcDbDimension
   2
*D4
  10
 225.76405551862
  20
 173.89167490616
  30
0.0
  11
 225.76405551862
  21
 179.39167490616
  31
0.0
  70
0
   3
GMM001
 100
AcDbAlignedDimension
  13
 240.24901127084
  23
 184.89167490616
  33
0.0
  14
 233.95205085022
  24
 173.89167490616
  34
0.0
  50
 270.00000000000
 100
AcDbRotatedDimension
   0
LINE
   5
15D
 100
AcDbEntity
   8
LEVEL001
 100
AcDbLine
   6
DASHDOT
  62
2
  10
 247.17998472217
  20
 184.89167490616
  30
0.0
  11
 240.24901127084
  21
 184.89167490616
  31
0.0
   0
ARC
   5
15E
 100
AcDbEntity
   8
LEVEL001
   6
CONTINUOUS
  62
7
 100
AcDbCircle
  10
 286.89393322085
  20
 206.89167490616
  30
0.0
  40
 1.0000000000000
 100
AcDbArc
  50
 89.999999999883
  51
 180.00000000000
   0
POINT
   5
15F
 100
AcDbEntity
   8
LEVEL001
 100
AcDbPoint
  62
7
  10
 285.89393322085
  20
 207.89167490616
  30
0.0
   0
ARC
   5
160
 100
AcDbEntity
   8
LEVEL001
   6
CONTINUOUS
  62
7
 100
AcDbCircle
  10
 293.59393322085
  20
 207.59167490615
  30
0.0
  40
 0.30000000000000
 100
AcDbArc
  50
 0.12701863175895E-8
  51
 90.000000000000
   0
POINT
   5
161
 100
AcDbEntity
   8
LEVEL001
 100
AcDbPoint
  62
7
  10
 293.89393322085
  20
 207.89167490616
  30
0.0
   0
ARC
   5
162
 100
AcDbEntity
   8
LEVEL001
   6
CONTINUOUS
  62
7
 100
AcDbCircle
  10
 297.89393322085
  20
 205.59167490616
  30
0.0
  40
 4.0000000000000
 100
AcDbArc
  50
 180.00000000000
  51
 270.00000000000
   0
POINT
   5
163
 100
AcDbEntity
   8
LEVEL001
 100
AcDbPoint
  62
7
  10
 293.89393322085
  20
 201.59167490616
  30
0.0
   0
LINE
   5
164
 100
AcDbEntity
   8
LEVEL001
 100
AcDbLine
   6
CONTINUOUS
  62
7
  10
 293.89393322085
  20
 207.59167490615
  30
0.0
  11
 293.89393322085
  21
 205.59167490616
  31
0.0
   0
ARC
   5
165
 100
AcDbEntity
   8
LEVEL001
   6
CONTINUOUS
  62
7
 100
AcDbCircle
  10
 297.89393322085
  20
 180.59167490616
  30
0.0
  40
 4.0000000000000
 100
AcDbArc
  50
 90.000000000007
  51
 180.00000000000
   0
POINT
   5
166
 100
AcDbEntity
   8
LEVEL001
 100
AcDbPoint
  62
7
  10
 293.89393322085
  20
 184.59167490616
  30
0.0
   0
LINE
   5
167
 100
AcDbEntity
   8
LEVEL001
 100
AcDbLine
   6
DASHDOT
  62
2
  10
 295.89536718786
  20
 193.09167490616
  30
0.0
  11
 318.01218134716
  21
 193.09167490616
  31
0.0
   0
ARC
   5
168
 100
AcDbEntity
   8
LEVEL001
   6
CONTINUOUS
  62
7
 100
AcDbCircle
  10
 286.89393322085
  20
 174.89167490616
  30
0.0
  40
 1.0000000000000
 100
AcDbArc
  50
 180.00000000000
  51
 270.00000000000
   0
POINT
   5
169
 100
AcDbEntity
   8
LEVEL001
 100
AcDbPoint
  62
7
  10
 285.89393322085
  20
 173.89167490616
  30
0.0
   0
ARC
   5
16A
 100
AcDbEntity
   8
LEVEL001
   6
CONTINUOUS
  62
7
 100
AcDbCircle
  10
 292.89393322085
  20
 174.89167490616
  30
0.0
  40
 1.0000000000000
 100
AcDbArc
  50
 270.00000000000
  51
0.0
   0
POINT
   5
16B
 100
AcDbEntity
   8
LEVEL001
 100
AcDbPoint
  62
7
  10
 293.89393322085
  20
 173.89167490616
  30
0.0
   0
LINE
   5
16C
 100
AcDbEntity
   8
LEVEL001
 100
AcDbLine
   6
CONTINUOUS
  62
7
  10
 293.89393322085
  20
 174.89167490616
  30
0.0
  11
 293.89393322085
  21
 180.59167490616
  31
0.0
   0
LINE
   5
16D
 100
AcDbEntity
   8
LEVEL001
 100
AcDbLine
   6
CONTINUOUS
  62
7
  10
 290.79393322085
  20
 184.59167490616
  30
0.0
  11
 313.89393322085
  21
 184.59167490616
  31
0.0
   0
LINE
   5
16E
 100
AcDbEntity
   8
LEVEL001
 100
AcDbLine
   6
CONTINUOUS
  62
7
  10
 290.77393322085
  20
 201.59167490616
  30
0.0
  11
 313.89393322085
  21
 201.59167490616
  31
0.0
   0
LINE
   5
16F
 100
AcDbEntity
   8
LEVEL001
 100
AcDbLine
   6
CONTINUOUS
  62
7
  10
 313.89393322085
  20
 184.59167490616
  30
0.0
  11
 313.89393322085
  21
 201.59167490616
  31
0.0
   0
LINE
   5
170
 100
AcDbEntity
   8
LEVEL001
 100
AcDbLine
   6
CONTINUOUS
  62
7
  10
 285.89393322085
  20
 174.89167490616
  30
0.0
  11
 285.89393322085
  21
 206.89167490616
  31
0.0
   0
LINE
   5
171
 100
AcDbEntity
   8
LEVEL001
 100
AcDbLine
   6
CONTINUOUS
  62
7
  10
 286.89393322085
  20
 207.89167490616
  30
0.0
  11
 293.59393322085
  21
 207.89167490616
  31
0.0
   0
LINE
   5
172
 100
AcDbEntity
   8
LEVEL001
 100
AcDbLine
   6
CONTINUOUS
  62
7
  10
 286.89393322085
  20
 173.89167490616
  30
0.0
  11
 292.89393322085
  21
 173.89167490616
  31
0.0
   0
LINE
   5
173
 100
AcDbEntity
   8
LEVEL001
 100
AcDbLine
   6
CONTINUOUS
  62
2
  10
 289.39393322085
  20
 173.89167490616
  30
0.0
  11
 289.39393322085
  21
 207.89167490616
  31
0.0
   0
LINE
   5
174
 100
AcDbEntity
   8
LEVEL001
 100
AcDbLine
   6
DOT
  62
1
  10
 313.39393322085
  20
 195.09167490616
  30
0.0
  11
 300.89393322085
  21
 195.09167490616
  31
0.0
   0
LINE
   5
175
 100
AcDbEntity
   8
LEVEL001
 100
AcDbLine
   6
DOT
  62
1
  10
 313.39393322085
  20
 191.09167490616
  30
0.0
  11
 300.89393322085
  21
 191.09167490616
  31
0.0
   0
LINE
   5
176
 100
AcDbEntity
   8
LEVEL001
 100
AcDbLine
   6
DOT
  62
1
  10
 313.39393322092
  20
 191.09167490616
  30
0.0
  11
 313.89393322085
  21
 190.59167490623
  31
0.0
   0
LINE
   5
177
 100
AcDbEntity
   8
LEVEL001
 100
AcDbLine
   6
DOT
  62
1
  10
 313.39393322092
  20
 195.09167490616
  30
0.0
  11
 313.89393322085
  21
 195.59167490609
  31
0.0
   0
LINE
   5
178
 100
AcDbEntity
   8
LEVEL001
 100
AcDbLine
   6
DOT
  62
1
  10
 297.74393322069
  20
 193.09167490616
  30
0.0
  11
 299.39393322069
  21
 194.74167490616
  31
0.0
   0
LINE
   5
179
 100
AcDbEntity
   8
LEVEL001
 100
AcDbLine
   6
DOT
  62
1
  10
 297.74393322069
  20
 193.09167490616
  30
0.0
  11
 299.39393322069
  21
 191.44167490616
  31
0.0
   0
LINE
   5
17A
 100
AcDbEntity
   8
LEVEL001
 100
AcDbLine
   6
DOT
  62
1
  10
 299.39393322085
  20
 191.44167490616
  30
0.0
  11
 299.39393322085
  21
 194.74167490616
  31
0.0
   0
LINE
   5
17B
 100
AcDbEntity
   8
LEVEL001
 100
AcDbLine
   6
DOT
  62
1
  10
 313.39393322085
  20
 191.44167490616
  30
0.0
  11
 299.39393322085
  21
 191.44167490616
  31
0.0
   0
LINE
   5
17C
 100
AcDbEntity
   8
LEVEL001
 100
AcDbLine
   6
DOT
  62
1
  10
 313.39393322085
  20
 194.74167490616
  30
0.0
  11
 299.39393322085
  21
 194.74167490616
  31
0.0
   0
LINE
   5
17D
 100
AcDbEntity
   8
LEVEL001
 100
AcDbLine
   6
DOT
  62
1
  10
 300.89393322085
  20
 191.09167490616
  30
0.0
  11
 300.89393322085
  21
 195.09167490616
  31
0.0
   0
LINE
   5
17E
 100
AcDbEntity
   8
LEVEL001
 100
AcDbLine
   6
DOT
  62
1
  10
 313.39393322085
  20
 191.09167490616
  30
0.0
  11
 313.39393322085
  21
 195.09167490616
  31
0.0
   0
ARC
   5
17F
 100
AcDbEntity
   8
LEVEL001
   6
CONTINUOUS
  62
2
 100
AcDbCircle
  10
 289.51641272638
  20
 205.78934089185
  30
0.0
  40
 4.3819810042257
 100
AcDbArc
  50
 286.67696047851
  51
 357.41457777123
   0
ARC
   5
180
 100
AcDbEntity
   8
LEVEL001
   6
CONTINUOUS
  62
2
 100
AcDbCircle
  10
 289.51641272638
  20
 180.39400892047
  30
0.0
  40
 4.3819810042257
 100
AcDbArc
  50
 2.5854222287730
  51
 73.323039521493
   0
DIMENSION
   5
181
 100
AcDbEntity
   8
LEVEL001
   6
CONTINUOUS
  62
3
 100
AcDbDimension
   2
*D5
  10
 293.89393322085
  20
 214.27544310951
  30
0.0
  11
 289.89393322085
  21
 214.27544310951
  31
0.0
  70
0
   3
GMM001
 100
AcDbAlignedDimension
  13
 285.89393322085
  23
 207.89167490616
  33
0.0
  14
 293.89393322085
  24
 207.89167490616
  34
0.0
 100
AcDbRotatedDimension
   0
DIMENSION
   5
182
 100
AcDbEntity
   8
LEVEL001
   6
CONTINUOUS
  62
3
 100
AcDbDimension
   2
*D6
  10
 313.89393322085
  20
 162.04632241297
  30
0.0
  11
 299.89393322085
  21
 162.04632241297
  31
0.0
  70
0
   3
GMM001
 100
AcDbAlignedDimension
  13
 285.89393322085
  23
 173.89167490616
  33
0.0
  14
 313.89393322085
  24
 184.59167490616
  34
0.0
 100
AcDbRotatedDimension
   0
DIMENSION
   5
183
 100
AcDbEntity
   8
LEVEL001
   6
CONTINUOUS
  62
3
 100
AcDbDimension
   2
*D7
  10
 327.94930510016
  20
 184.59167490616
  30
0.0
  11
 327.94930510016
  21
 193.09167490616
  31
0.0
  70
0
   3
GMM001
 100
AcDbAlignedDimension
  13
 313.89393322085
  23
 201.59167490616
  33
0.0
  14
 313.89393322085
  24
 184.59167490616
  34
0.0
  50
 270.00000000000
 100
AcDbRotatedDimension
   0
INSERT
   5
184
 100
AcDbEntity
   8
LEVEL001
 100
AcDbBlockReference
   2
*D8
  10
0.0
  20
0.0
  30
0.0
   0
LINE
   5
185
 100
AcDbEntity
   8
LEVEL001
 100
AcDbLine
   6
DASHDOT
  62
2
  10
 351.85586368666
  20
 193.09167490616
  30
0.0
  11
 359.85114392265
  21
 193.09167490616
  31
0.0
   0
ARC
   5
186
 100
AcDbEntity
   8
LEVEL001
   6
CONTINUOUS
  62
7
 100
AcDbCircle
  10
 365.05470571748
  20
 204.96653480605
  30
0.0
  40
 1.0000000000000
 100
AcDbArc
  50
0.0
  51
 65.852260082973
   0
ARC
   5
187
 100
AcDbEntity
   8
LEVEL001
   6
CONTINUOUS
  62
7
 100
AcDbCircle
  10
 347.05470571748
  20
 174.89167490616
  30
0.0
  40
 1.0000000000000
 100
AcDbArc
  50
 180.00000000000
  51
 270.00000000000
   0
POINT
   5
188
 100
AcDbEntity
   8
LEVEL001
 100
AcDbPoint
  62
7
  10
 346.05470571748
  20
 173.89167490616
  30
0.0
   0
LINE
   5
189
 100
AcDbEntity
   8
LEVEL001
 100
AcDbLine
   6
CONTINUOUS
  62
7
  10
 347.05470571748
  20
 173.89167490616
  30
0.0
  11
 365.05470571748
  21
 173.89167490616
  31
0.0
   0
ARC
   5
18A
 100
AcDbEntity
   8
LEVEL001
   6
CONTINUOUS
  62
7
 100
AcDbCircle
  10
 365.05470571748
  20
 174.89167490616
  30
0.0
  40
 1.0000000000000
 100
AcDbArc
  50
 270.00000000000
  51
0.0
   0
POINT
   5
18B
 100
AcDbEntity
   8
LEVEL001
 100
AcDbPoint
  62
7
  10
 366.05470571748
  20
 173.89167490616
  30
0.0
   0
LINE
   5
18C
 100
AcDbEntity
   8
LEVEL001
 100
AcDbLine
   6
CONTINUOUS
  62
7
  10
 366.05470571748
  20
 174.89167490616
  30
0.0
  11
 366.05470571748
  21
 204.96653480605
  31
0.0
   0
LINE
   5
18D
 100
AcDbEntity
   8
LEVEL001
 100
AcDbLine
   6
CONTINUOUS
  62
7
  10
 346.05470571748
  20
 174.89167490616
  30
0.0
  11
 346.05470571748
  21
 204.96653480605
  31
0.0
   0
ARC
   5
18E
 100
AcDbEntity
   8
LEVEL001
   6
CONTINUOUS
  62
7
 100
AcDbCircle
  10
 347.05470571748
  20
 204.96653480605
  30
0.0
  40
 1.0000000000000
 100
AcDbArc
  50
 114.14773991702
  51
 180.00000000000
   0
ARC
   5
18F
 100
AcDbEntity
   8
LEVEL001
   6
CONTINUOUS
  62
7
 100
AcDbCircle
  10
 356.05470571748
  20
 184.89167490616
  30
0.0
  40
 23.000000000000
 100
AcDbArc
  50
 65.852260082977
  51
 114.14773991702
   0
LINE
   5
190
 100
AcDbEntity
   8
LEVEL001
 100
AcDbLine
   6
DASHDOT
  62
2
  10
 356.05470571748
  20
 210.47021598665
  30
0.0
  11
 356.05470571748
  21
 170.38997999845
  31
0.0
   0
LINE
   5
191
 100
AcDbEntity
   8
LEVEL001
 100
AcDbLine
   6
CONTINUOUS
  62
7
  10
 351.05470571748
  20
 184.59167490616
  30
0.0
  11
 351.05470571748
  21
 201.59167490616
  31
0.0
   0
LINE
   5
192
 100
AcDbEntity
   8
LEVEL001
 100
AcDbLine
   6
CONTINUOUS
  62
7
  10
 361.05470571748
  20
 184.59167490616
  30
0.0
  11
 361.05470571748
  21
 201.59167490616
  31
0.0
   0
LINE
   5
193
 100
AcDbEntity
   8
LEVEL001
 100
AcDbLine
   6
CONTINUOUS
  62
7
  10
 351.05470571748
  20
 201.59167490616
  30
0.0
  11
 361.05470571748
  21
 201.59167490616
  31
0.0
   0
LINE
   5
194
 100
AcDbEntity
   8
LEVEL001
 100
AcDbLine
   6
CONTINUOUS
  62
7
  10
 351.05470571748
  20
 184.59167490616
  30
0.0
  11
 361.05470571748
  21
 184.59167490616
  31
0.0
   0
LINE
   5
195
 100
AcDbEntity
   8
LEVEL001
 100
AcDbLine
   6
CONTINUOUS
  62
2
  10
 347.47563318478
  20
 180.59167490616
  30
0.0
  11
 347.47563318478
  21
 205.59167490616
  31
0.0
   0
LINE
   5
196
 100
AcDbEntity
   8
LEVEL001
 100
AcDbLine
   6
CONTINUOUS
  62
2
  10
 364.63377825018
  20
 180.59167490616
  30
0.0
  11
 364.63377825018
  21
 205.59167490616
  31
0.0
   0
LINE
   5
197
 100
AcDbEntity
   8
LEVEL001
 100
AcDbLine
   6
CONTINUOUS
  62
2
  10
 347.47563318478
  20
 205.59167490616
  30
0.0
  11
 351.05470571748
  21
 201.59167490616
  31
0.0
   0
LINE
   5
198
 100
AcDbEntity
   8
LEVEL001
 100
AcDbLine
   6
CONTINUOUS
  62
2
  10
 361.05470571748
  20
 201.59167490616
  30
0.0
  11
 364.63377825018
  21
 205.59167490616
  31
0.0
   0
LINE
   5
199
 100
AcDbEntity
   8
LEVEL001
 100
AcDbLine
   6
CONTINUOUS
  62
2
  10
 351.05470571748
  20
 184.59167490616
  30
0.0
  11
 347.47563318478
  21
 180.59167490616
  31
0.0
   0
LINE
   5
19A
 100
AcDbEntity
   8
LEVEL001
 100
AcDbLine
   6
CONTINUOUS
  62
2
  10
 361.05470571748
  20
 184.59167490616
  30
0.0
  11
 364.63377825018
  21
 180.59167490616
  31
0.0
   0
CIRCLE
   5
19B
 100
AcDbEntity
   8
LEVEL001
 100
AcDbCircle
   6
CONTINUOUS
  62
7
  10
 356.05470571748
  20
 193.09167490616
  30
0.0
  40
 2.4999999999285
   0
CIRCLE
   5
19C
 100
AcDbEntity
   8
LEVEL001
 100
AcDbCircle
   6
CONTINUOUS
  62
7
  10
 356.05470571748
  20
 193.09167490616
  30
0.0
  40
 2.0124724407223
   0
CIRCLE
   5
19D
 100
AcDbEntity
   8
LEVEL001
 100
AcDbCircle
   6
CONTINUOUS
  62
2
  10
 356.05470571748
  20
 193.09167490616
  30
0.0
  40
 1.6500000000000
   0
DIMENSION
   5
19E
 100
AcDbEntity
   8
LEVEL001
   6
CONTINUOUS
  62
3
 100
AcDbDimension
   2
*D9
  10
 361.05470571748
  20
 162.04632241297
  30
0.0
  11
 356.05470571748
  21
 162.04632241297
  31
0.0
  70
0
   3
GMM001
 100
AcDbAlignedDimension
  13
 351.05470571748
  23
 184.59167490616
  33
0.0
  14
 361.05470571748
  24
 184.59167490616
  34
0.0
 100
AcDbRotatedDimension
   0
ARC
   5
19F
 100
AcDbEntity
   8
LEVEL001
   6
CONTINUOUS
  62
7
 100
AcDbCircle
  10
 258.95205085022
  20
 133.66842487221
  30
0.0
  40
 10.000000000000
 100
AcDbArc
  50
 129.94804794846
  51
 180.00000000000
   0
LINE
   5
1A0
 100
AcDbEntity
   8
LEVEL001
 100
AcDbLine
   6
CONTINUOUS
  62
7
  10
 248.95205085022
  20
 118.21657148848
  30
0.0
  11
 248.95205085022
  21
 133.66842487221
  31
0.0
   0
ARC
   5
1A1
 100
AcDbEntity
   8
LEVEL001
   6
CONTINUOUS
  62
7
 100
AcDbCircle
  10
 234.69044495545
  20
 142.65407148848
  30
0.0
  40
 0.50000000000000
 100
AcDbArc
  50
 126.59460973376
  51
 223.93520956552
   0
ARC
   5
1A2
 100
AcDbEntity
   8
LEVEL001
   6
CONTINUOUS
  62
7
 100
AcDbCircle
  10
 243.95205085022
  20
 151.57768259959
  30
0.0
  40
 13.361111111110
 100
AcDbArc
  50
 223.93520956551
  51
 316.06479043448
   0
ARC
   5
1A3
 100
AcDbEntity
   8
LEVEL001
   6
CONTINUOUS
  62
7
 100
AcDbCircle
  10
 253.21365674499
  20
 142.65407148848
  30
0.0
  40
 0.50000000000000
 100
AcDbArc
  50
 316.06479043448
  51
 53.405390266236
   0
ARC
   5
1A4
 100
AcDbEntity
   8
LEVEL001
   6
CONTINUOUS
  62
7
 100
AcDbCircle
  10
 243.95205085022
  20
 130.18085720276
  30
0.0
  40
 16.035714285714
 100
AcDbArc
  50
 53.405390266224
  51
 126.59460973378
   0
LINE
   5
1A5
 100
AcDbEntity
   8
LEVEL001
 100
AcDbLine
   6
DASHDOT
  62
2
  10
 243.95205085022
  20
 149.68299546962
  30
0.0
  11
 243.95205085022
  21
 112.12186449593
  31
0.0
   0
LINE
   5
1A6
 100
AcDbEntity
   8
LEVEL001
 100
AcDbLine
   6
CONTINUOUS
  62
7
  10
 238.95205085022
  20
 118.21657148848
  30
0.0
  11
 248.95205085022
  21
 118.21657148848
  31
0.0
   0
ARC
   5
1A7
 100
AcDbEntity
   8
LEVEL001
   6
CONTINUOUS
  62
7
 100
AcDbCircle
  10
 228.95205085022
  20
 133.66842487221
  30
0.0
  40
 10.000000000000
 100
AcDbArc
  50
0.0
  51
 50.051952051543
   0
LINE
   5
1A8
 100
AcDbEntity
   8
LEVEL001
 100
AcDbLine
   6
CONTINUOUS
  62
7
  10
 238.95205085022
  20
 118.21657148848
  30
0.0
  11
 238.95205085022
  21
 133.66842487221
  31
0.0
   0
DIMENSION
   5
1A9
 100
AcDbEntity
   8
LEVEL001
   6
CONTINUOUS
  62
3
 100
AcDbDimension
   2
*D10
  10
 297.89393322085
  20
 205.59167490616
  30
0.0
  11
 301.23892286668
  21
 208.78651658018
  31
0.0
  70
132
   3
GMM002
 100
AcDbRadialDimension
  15
 295.00133051196
  25
 202.82891368439
  35
0.0
  40
 8.7942803092595
   0
LINE
   5
1AA
 100
AcDbEntity
   8
LEVEL001
 100
AcDbLine
   6
DOT
  62
1
  10
 241.95205085022
  20
 118.71657148848
  30
0.0
  11
 241.95205085022
  21
 131.21657148848
  31
0.0
   0
LINE
   5
1AB
 100
AcDbEntity
   8
LEVEL001
 100
AcDbLine
   6
DOT
  62
1
  10
 241.95205085022
  20
 118.71657148840
  30
0.0
  11
 241.45205085029
  21
 118.21657148848
  31
0.0
   0
LINE
   5
1AC
 100
AcDbEntity
   8
LEVEL001
 100
AcDbLine
   6
DOT
  62
1
  10
 243.95205085022
  20
 134.36657148863
  30
0.0
  11
 245.60205085022
  21
 132.71657148863
  31
0.0
   0
LINE
   5
1AD
 100
AcDbEntity
   8
LEVEL001
 100
AcDbLine
   6
DOT
  62
1
  10
 243.95205085022
  20
 134.36657148863
  30
0.0
  11
 242.30205085022
  21
 132.71657148863
  31
0.0
   0
LINE
   5
1AE
 100
AcDbEntity
   8
LEVEL001
 100
AcDbLine
   6
DOT
  62
1
  10
 242.30205085022
  20
 132.71657148848
  30
0.0
  11
 245.60205085022
  21
 132.71657148848
  31
0.0
   0
LINE
   5
1AF
 100
AcDbEntity
   8
LEVEL001
 100
AcDbLine
   6
DOT
  62
1
  10
 242.30205085022
  20
 118.71657148848
  30
0.0
  11
 242.30205085022
  21
 132.71657148848
  31
0.0
   0
LINE
   5
1B0
 100
AcDbEntity
   8
LEVEL001
 100
AcDbLine
   6
DOT
  62
1
  10
 245.60205085022
  20
 118.71657148848
  30
0.0
  11
 245.60205085022
  21
 132.71657148848
  31
0.0
   0
LINE
   5
1B1
 100
AcDbEntity
   8
LEVEL001
 100
AcDbLine
   6
DOT
  62
1
  10
 241.95205085022
  20
 131.21657148848
  30
0.0
  11
 245.95205085022
  21
 131.21657148848
  31
0.0
   0
LINE
   5
1B2
 100
AcDbEntity
   8
LEVEL001
 100
AcDbLine
   6
DOT
  62
1
  10
 241.95205085022
  20
 118.71657148848
  30
0.0
  11
 245.95205085022
  21
 118.71657148848
  31
0.0
   0
LINE
   5
1B3
 100
AcDbEntity
   8
LEVEL001
 100
AcDbLine
   6
DOT
  62
1
  10
 245.95205085022
  20
 118.71657148848
  30
0.0
  11
 245.95205085022
  21
 131.21657148848
  31
0.0
   0
LINE
   5
1B4
 100
AcDbEntity
   8
LEVEL001
 100
AcDbLine
   6
DOT
  62
1
  10
 245.95205085022
  20
 118.71657148840
  30
0.0
  11
 246.45205085015
  21
 118.21657148848
  31
0.0
   0
LINE
   5
1B5
 100
AcDbEntity
   8
LEVEL001
 100
AcDbLine
   6
CONTINUOUS
  62
7
  10
 108.70780609439
  20
 206.89167490616
  30
0.0
  11
 108.74877932821
  21
 206.89167490616
  31
0.0
   0
ARC
   5
1B6
 100
AcDbEntity
   8
LEVEL001
   6
CONTINUOUS
  62
7
 100
AcDbCircle
  10
 112.70780609439
  20
 205.59167490616
  30
0.0
  40
 4.0000000000000
 100
AcDbArc
  50
 180.00000000000
  51
 270.00000000000
   0
POINT
   5
1B7
 100
AcDbEntity
   8
LEVEL001
 100
AcDbPoint
  62
7
  10
 108.70780609439
  20
 201.59167490616
  30
0.0
   0
ARC
   5
1B8
 100
AcDbEntity
   8
LEVEL001
   6
CONTINUOUS
  62
7
 100
AcDbCircle
  10
 112.70780609439
  20
 180.59167490616
  30
0.0
  40
 4.0000000000000
 100
AcDbArc
  50
 90.000000000007
  51
 180.00000000000
   0
POINT
   5
1B9
 100
AcDbEntity
   8
LEVEL001
 100
AcDbPoint
  62
7
  10
 108.70780609439
  20
 184.59167490616
  30
0.0
   0
ARC
   5
1BA
 100
AcDbEntity
   8
LEVEL001
   6
CONTINUOUS
  62
7
 100
AcDbCircle
  10
 108.20780609439
  20
 206.39167490616
  30
0.0
  40
 0.50000000000000
 100
AcDbArc
  50
0.0
  51
 90.000000000000
   0
POINT
   5
1BB
 100
AcDbEntity
   8
LEVEL001
 100
AcDbPoint
  62
7
  10
 108.70780609439
  20
 206.89167490616
  30
0.0
   0
ARC
   5
1BC
 100
AcDbEntity
   8
LEVEL001
   6
CONTINUOUS
  62
7
 100
AcDbCircle
  10
 108.20780609438
  20
 175.39167490616
  30
0.0
  40
 0.50000000000000
 100
AcDbArc
  50
 270.00000000023
  51
0.0
   0
POINT
   5
1BD
 100
AcDbEntity
   8
LEVEL001
 100
AcDbPoint
  62
7
  10
 108.70780609439
  20
 174.89167490616
  30
0.0
   0
ARC
   5
1BE
 100
AcDbEntity
   8
LEVEL001
   6
CONTINUOUS
  62
7
 100
AcDbCircle
  10
 101.20780609439
  20
 206.39167490616
  30
0.0
  40
 0.50000000000000
 100
AcDbArc
  50
 90.000000000000
  51
 180.00000000000
   0
POINT
   5
1BF
 100
AcDbEntity
   8
LEVEL001
 100
AcDbPoint
  62
7
  10
 100.70780609439
  20
 206.89167490616
  30
0.0
   0
LINE
   5
1C0
 100
AcDbEntity
   8
LEVEL001
 100
AcDbLine
   6
CONTINUOUS
  62
7
  10
 101.20780609439
  20
 206.89167490616
  30
0.0
  11
 108.20780609439
  21
 206.89167490616
  31
0.0
   0
LINE
   5
1C1
 100
AcDbEntity
   8
LEVEL001
 100
AcDbLine
   6
CONTINUOUS
  62
7
  10
 100.70780609439
  20
 175.39167490616
  30
0.0
  11
 100.70780609439
  21
 206.39167490616
  31
0.0
   0
ARC
   5
1C2
 100
AcDbEntity
   8
LEVEL001
   6
CONTINUOUS
  62
7
 100
AcDbCircle
  10
 101.20780609439
  20
 175.39167490616
  30
0.0
  40
 0.50000000000000
 100
AcDbArc
  50
 180.00000000000
  51
 270.00000000000
   0
POINT
   5
1C3
 100
AcDbEntity
   8
LEVEL001
 100
AcDbPoint
  62
7
  10
 100.70780609439
  20
 174.89167490616
  30
0.0
   0
LINE
   5
1C4
 100
AcDbEntity
   8
LEVEL001
 100
AcDbLine
   6
CONTINUOUS
  62
7
  10
 101.20780609439
  20
 174.89167490616
  30
0.0
  11
 108.20780609439
  21
 174.89167490616
  31
0.0
   0
LINE
   5
1C5
 100
AcDbEntity
   8
LEVEL001
 100
AcDbLine
   6
CONTINUOUS
  62
7
  10
 108.70780609439
  20
 175.39167490616
  30
0.0
  11
 108.70780609439
  21
 206.39167490616
  31
0.0
   0
LINE
   5
1C6
 100
AcDbEntity
   8
LEVEL001
 100
AcDbLine
   6
DOT
  62
1
  10
 128.20780609439
  20
 195.09167490616
  30
0.0
  11
 115.70780609439
  21
 195.09167490616
  31
0.0
   0
LINE
   5
1C7
 100
AcDbEntity
   8
LEVEL001
 100
AcDbLine
   6
DOT
  62
1
  10
 128.20780609446
  20
 195.09167490616
  30
0.0
  11
 128.70780609439
  21
 195.59167490609
  31
0.0
   0
LINE
   5
1C8
 100
AcDbEntity
   8
LEVEL001
 100
AcDbLine
   6
DOT
  62
1
  10
 128.20780609446
  20
 191.09167490616
  30
0.0
  11
 128.70780609439
  21
 190.59167490623
  31
0.0
   0
LINE
   5
1C9
 100
AcDbEntity
   8
LEVEL001
 100
AcDbLine
   6
DOT
  62
1
  10
 128.20780609446
  20
 191.09167490616
  30
0.0
  11
 115.70780609439
  21
 191.09167490616
  31
0.0
   0
LINE
   5
1CA
 100
AcDbEntity
   8
LEVEL001
 100
AcDbLine
   6
DOT
  62
1
  10
 112.55780609423
  20
 193.09167490616
  30
0.0
  11
 114.20780609423
  21
 191.44167490616
  31
0.0
   0
LINE
   5
1CB
 100
AcDbEntity
   8
LEVEL001
 100
AcDbLine
   6
DOT
  62
1
  10
 112.55780609423
  20
 193.09167490616
  30
0.0
  11
 114.20780609423
  21
 194.74167490616
  31
0.0
   0
LINE
   5
1CC
 100
AcDbEntity
   8
LEVEL001
 100
AcDbLine
   6
DOT
  62
1
  10
 115.70780609439
  20
 195.09167490616
  30
0.0
  11
 115.70780609439
  21
 191.09167490616
  31
0.0
   0
LINE
   5
1CD
 100
AcDbEntity
   8
LEVEL001
 100
AcDbLine
   6
DOT
  62
1
  10
 128.20780609439
  20
 191.44167490616
  30
0.0
  11
 114.20780609423
  21
 191.44167490616
  31
0.0
   0
LINE
   5
1CE
 100
AcDbEntity
   8
LEVEL001
 100
AcDbLine
   6
DOT
  62
1
  10
 114.20780609439
  20
 194.74167490616
  30
0.0
  11
 114.20780609439
  21
 191.44167490616
  31
0.0
   0
LINE
   5
1CF
 100
AcDbEntity
   8
LEVEL001
 100
AcDbLine
   6
DOT
  62
1
  10
 128.20780609439
  20
 194.74167490616
  30
0.0
  11
 114.20780609439
  21
 194.74167490616
  31
0.0
   0
LINE
   5
1D0
 100
AcDbEntity
   8
LEVEL001
 100
AcDbLine
   6
DOT
  62
1
  10
 128.20780609439
  20
 191.09167490616
  30
0.0
  11
 128.20780609439
  21
 195.09167490616
  31
0.0
   0
LINE
   5
1D1
 100
AcDbEntity
   8
LEVEL001
 100
AcDbLine
   6
CONTINUOUS
  62
2
  10
 105.20780609439
  20
 174.89167490616
  30
0.0
  11
 105.20780609439
  21
 206.89167490616
  31
0.0
   0
DIMENSION
   5
1D2
 100
AcDbEntity
   8
LEVEL001
   6
CONTINUOUS
  62
3
 100
AcDbDimension
   2
*D11
  10
 108.70780609439
  20
 214.27544310951
  30
0.0
  11
 104.70780609439
  21
 214.27544310951
  31
0.0
  70
0
   3
GMM001
 100
AcDbAlignedDimension
  13
 100.70780609439
  23
 206.89167490616
  33
0.0
  14
 108.70780609439
  24
 206.89167490616
  34
0.0
 100
AcDbRotatedDimension
   0
DIMENSION
   5
1D3
 100
AcDbEntity
   8
LEVEL001
   6
CONTINUOUS
  62
3
 100
AcDbDimension
   2
*D12
  10
 128.70780609439
  20
 162.04632241297
  30
0.0
  11
 114.70780609439
  21
 162.04632241297
  31
0.0
  70
0
   3
GMM001
 100
AcDbAlignedDimension
  13
 100.70780609439
  23
 174.89167490616
  33
0.0
  14
 128.70780609439
  24
 184.59167490616
  34
0.0
 100
AcDbRotatedDimension
   0
LINE
   5
1D4
 100
AcDbEntity
   8
LEVEL001
 100
AcDbLine
   6
DASHDOT
  62
2
  10
 110.67136868566
  20
 193.09167490616
  30
0.0
  11
 132.68434803669
  21
 193.09167490616
  31
0.0
   0
DIMENSION
   5
1D5
 100
AcDbEntity
   8
LEVEL001
   6
CONTINUOUS
  62
3
 100
AcDbDimension
   2
*D13
  10
 142.71888925700
  20
 184.59167490616
  30
0.0
  11
 142.71888925700
  21
 193.09167490616
  31
0.0
  70
0
   3
GMM001
 100
AcDbAlignedDimension
  13
 128.70780609439
  23
 201.59167490616
  33
0.0
  14
 128.70780609439
  24
 184.59167490616
  34
0.0
  50
 270.00000000000
 100
AcDbRotatedDimension
   0
ARC
   5
1D6
 100
AcDbEntity
   8
LEVEL001
   6
CONTINUOUS
  62
7
 100
AcDbCircle
  10
 160.84372027672
  20
 205.89167490616
  30
0.0
  40
 1.0000000000000
 100
AcDbArc
  50
 90.000000000000
  51
 179.99999999986
   0
POINT
   5
1D7
 100
AcDbEntity
   8
LEVEL001
 100
AcDbPoint
  62
7
  10
 159.84372027672
  20
 206.89167490616
  30
0.0
   0
LINE
   5
1D8
 100
AcDbEntity
   8
LEVEL001
 100
AcDbLine
   6
CONTINUOUS
  62
7
  10
 159.84372027672
  20
 175.89167490616
  30
0.0
  11
 159.84372027672
  21
 205.89167490616
  31
0.0
   0
LINE
   5
1D9
 100
AcDbEntity
   8
LEVEL001
 100
AcDbLine
   6
CONTINUOUS
  62
7
  10
 160.84372027672
  20
 206.89167490616
  30
0.0
  11
 178.84372027672
  21
 206.89167490616
  31
0.0
   0
ARC
   5
1DA
 100
AcDbEntity
   8
LEVEL001
   6
CONTINUOUS
  62
7
 100
AcDbCircle
  10
 178.84372027672
  20
 205.89167490616
  30
0.0
  40
 1.0000000000000
 100
AcDbArc
  50
0.0
  51
 90.000000000000
   0
POINT
   5
1DB
 100
AcDbEntity
   8
LEVEL001
 100
AcDbPoint
  62
7
  10
 179.84372027672
  20
 206.89167490616
  30
0.0
   0
LINE
   5
1DC
 100
AcDbEntity
   8
LEVEL001
 100
AcDbLine
   6
CONTINUOUS
  62
7
  10
 179.84372027672
  20
 175.89167490616
  30
0.0
  11
 179.84372027672
  21
 205.89167490616
  31
0.0
   0
ARC
   5
1DD
 100
AcDbEntity
   8
LEVEL001
   6
CONTINUOUS
  62
7
 100
AcDbCircle
  10
 178.84372027672
  20
 175.89167490616
  30
0.0
  40
 1.0000000000000
 100
AcDbArc
  50
 270.00000000014
  51
0.0
   0
POINT
   5
1DE
 100
AcDbEntity
   8
LEVEL001
 100
AcDbPoint
  62
7
  10
 179.84372027672
  20
 174.89167490616
  30
0.0
   0
LINE
   5
1DF
 100
AcDbEntity
   8
LEVEL001
 100
AcDbLine
   6
CONTINUOUS
  62
7
  10
 160.84372027672
  20
 174.89167490616
  30
0.0
  11
 178.84372027672
  21
 174.89167490616
  31
0.0
   0
ARC
   5
1E0
 100
AcDbEntity
   8
LEVEL001
   6
CONTINUOUS
  62
7
 100
AcDbCircle
  10
 160.84372027672
  20
 175.89167490616
  30
0.0
  40
 1.0000000000000
 100
AcDbArc
  50
 180.00000000000
  51
 270.00000000010
   0
POINT
   5
1E1
 100
AcDbEntity
   8
LEVEL001
 100
AcDbPoint
  62
7
  10
 159.84372027672
  20
 174.89167490616
  30
0.0
   0
LINE
   5
1E2
 100
AcDbEntity
   8
LEVEL001
 100
AcDbLine
   6
CONTINUOUS
  62
7
  10
 164.84372027672
  20
 201.59167490616
  30
0.0
  11
 164.84372027672
  21
 184.59167490616
  31
0.0
   0
LINE
   5
1E3
 100
AcDbEntity
   8
LEVEL001
 100
AcDbLine
   6
CONTINUOUS
  62
7
  10
 164.84372027672
  20
 184.59167490616
  30
0.0
  11
 174.84372027672
  21
 184.59167490616
  31
0.0
   0
LINE
   5
1E4
 100
AcDbEntity
   8
LEVEL001
 100
AcDbLine
   6
CONTINUOUS
  62
7
  10
 174.84372027672
  20
 201.59167490616
  30
0.0
  11
 174.84372027672
  21
 184.59167490616
  31
0.0
   0
LINE
   5
1E5
 100
AcDbEntity
   8
LEVEL001
 100
AcDbLine
   6
CONTINUOUS
  62
7
  10
 164.84372027672
  20
 201.59167490616
  30
0.0
  11
 174.84372027672
  21
 201.59167490616
  31
0.0
   0
LINE
   5
1E6
 100
AcDbEntity
   8
LEVEL001
 100
AcDbLine
   6
CONTINUOUS
  62
2
  10
 164.84372027672
  20
 201.59167490616
  30
0.0
  11
 164.84372027672
  21
 205.59167490616
  31
0.0
   0
LINE
   5
1E7
 100
AcDbEntity
   8
LEVEL001
 100
AcDbLine
   6
CONTINUOUS
  62
2
  10
 174.84372027672
  20
 201.59167490616
  30
0.0
  11
 174.84372027672
  21
 205.59167490616
  31
0.0
   0
LINE
   5
1E8
 100
AcDbEntity
   8
LEVEL001
 100
AcDbLine
   6
CONTINUOUS
  62
2
  10
 164.84372027672
  20
 205.59167490616
  30
0.0
  11
 174.84372027672
  21
 205.59167490616
  31
0.0
   0
LINE
   5
1E9
 100
AcDbEntity
   8
LEVEL001
 100
AcDbLine
   6
CONTINUOUS
  62
2
  10
 164.84372027672
  20
 184.59167490616
  30
0.0
  11
 164.84372027672
  21
 180.59167490616
  31
0.0
   0
LINE
   5
1EA
 100
AcDbEntity
   8
LEVEL001
 100
AcDbLine
   6
CONTINUOUS
  62
2
  10
 174.84372027672
  20
 184.59167490616
  30
0.0
  11
 174.84372027672
  21
 180.59167490616
  31
0.0
   0
LINE
   5
1EB
 100
AcDbEntity
   8
LEVEL001
 100
AcDbLine
   6
CONTINUOUS
  62
2
  10
 164.84372027672
  20
 180.59167490616
  30
0.0
  11
 174.84372027672
  21
 180.59167490616
  31
0.0
   0
CIRCLE
   5
1EC
 100
AcDbEntity
   8
LEVEL001
 100
AcDbCircle
   6
CONTINUOUS
  62
7
  10
 169.84372027672
  20
 193.09167490616
  30
0.0
  40
 2.4999999999285
   0
CIRCLE
   5
1ED
 100
AcDbEntity
   8
LEVEL001
 100
AcDbCircle
   6
CONTINUOUS
  62
7
  10
 169.84372027672
  20
 193.09167490616
  30
0.0
  40
 2.0000000000000
   0
CIRCLE
   5
1EE
 100
AcDbEntity
   8
LEVEL001
 100
AcDbCircle
   6
CONTINUOUS
  62
2
  10
 169.84372027672
  20
 193.09167490616
  30
0.0
  40
 1.6500000000000
   0
LINE
   5
1EF
 100
AcDbEntity
   8
LEVEL001
 100
AcDbLine
   6
DASHDOT
  62
2
  10
 166.03928492383
  20
 193.09167490616
  30
0.0
  11
 173.93073035156
  21
 193.09167490616
  31
0.0
   0
LINE
   5
1F0
 100
AcDbEntity
   8
LEVEL001
 100
AcDbLine
   6
CONTINUOUS
  62
7
  10
 112.70780609439
  20
 184.59167490616
  30
0.0
  11
 128.70780609439
  21
 184.59167490616
  31
0.0
   0
LINE
   5
1F1
 100
AcDbEntity
   8
LEVEL001
 100
AcDbLine
   6
CONTINUOUS
  62
7
  10
 112.70780609439
  20
 201.59167490616
  30
0.0
  11
 128.70780609439
  21
 201.59167490616
  31
0.0
   0
LINE
   5
1F2
 100
AcDbEntity
   8
LEVEL001
 100
AcDbLine
   6
CONTINUOUS
  62
7
  10
 128.70780609439
  20
 184.59167490616
  30
0.0
  11
 128.70780609439
  21
 201.59167490616
  31
0.0
   0
DIMENSION
   5
1F3
 100
AcDbEntity
   8
LEVEL001
   6
CONTINUOUS
  62
3
 100
AcDbDimension
   2
*D14
  10
 174.84372027672
  20
 162.04632241297
  30
0.0
  11
 169.84372027672
  21
 162.04632241297
  31
0.0
  70
0
   3
GMM001
 100
AcDbAlignedDimension
  13
 164.84372027672
  23
 180.59167490616
  33
0.0
  14
 174.84372027672
  24
 180.59167490616
  34
0.0
 100
AcDbRotatedDimension
   0
LINE
   5
1F4
 100
AcDbEntity
   8
LEVEL001
 100
AcDbLine
   6
DASHDOT
  62
2
  10
 169.84372027672
  20
 210.51963510776
  30
0.0
  11
 169.84372027672
  21
 171.14706931516
  31
0.0
   0
ARC
   5
1F5
 100
AcDbEntity
   8
LEVEL001
   6
CONTINUOUS
  62
7
 100
AcDbCircle
  10
 53.725136205916
  20
 205.89167490616
  30
0.0
  40
 1.0000000000000
 100
AcDbArc
  50
 90.000000000000
  51
 179.99999999986
   0
POINT
   5
1F6
 100
AcDbEntity
   8
LEVEL001
 100
AcDbPoint
  62
7
  10
 52.725136205916
  20
 206.89167490616
  30
0.0
   0
LINE
   5
1F7
 100
AcDbEntity
   8
LEVEL001
 100
AcDbLine
   6
CONTINUOUS
  62
7
  10
 53.725136205916
  20
 206.89167490616
  30
0.0
  11
 71.725136205916
  21
 206.89167490616
  31
0.0
   0
ARC
   5
1F8
 100
AcDbEntity
   8
LEVEL001
   6
CONTINUOUS
  62
7
 100
AcDbCircle
  10
 71.725136205916
  20
 205.89167490616
  30
0.0
  40
 1.0000000000000
 100
AcDbArc
  50
0.0
  51
 90.000000000000
   0
POINT
   5
1F9
 100
AcDbEntity
   8
LEVEL001
 100
AcDbPoint
  62
7
  10
 72.725136205916
  20
 206.89167490616
  30
0.0
   0
LINE
   5
1FA
 100
AcDbEntity
   8
LEVEL001
 100
AcDbLine
   6
CONTINUOUS
  62
7
  10
 72.725136205916
  20
 175.89167490616
  30
0.0
  11
 72.725136205916
  21
 205.89167490616
  31
0.0
   0
ARC
   5
1FB
 100
AcDbEntity
   8
LEVEL001
   6
CONTINUOUS
  62
7
 100
AcDbCircle
  10
 71.725136205914
  20
 175.89167490616
  30
0.0
  40
 1.0000000000000
 100
AcDbArc
  50
 270.00000000014
  51
0.0
   0
POINT
   5
1FC
 100
AcDbEntity
   8
LEVEL001
 100
AcDbPoint
  62
7
  10
 72.725136205916
  20
 174.89167490616
  30
0.0
   0
LINE
   5
1FD
 100
AcDbEntity
   8
LEVEL001
 100
AcDbLine
   6
CONTINUOUS
  62
7
  10
 52.725136205916
  20
 175.89167490616
  30
0.0
  11
 52.725136205916
  21
 205.89167490616
  31
0.0
   0
ARC
   5
1FE
 100
AcDbEntity
   8
LEVEL001
   6
CONTINUOUS
  62
7
 100
AcDbCircle
  10
 53.725136205915
  20
 175.89167490616
  30
0.0
  40
 1.0000000000000
 100
AcDbArc
  50
 180.00000000000
  51
 270.00000000010
   0
POINT
   5
1FF
 100
AcDbEntity
   8
LEVEL001
 100
AcDbPoint
  62
7
  10
 52.725136205916
  20
 174.89167490616
  30
0.0
   0
LINE
   5
200
 100
AcDbEntity
   8
LEVEL001
 100
AcDbLine
   6
CONTINUOUS
  62
7
  10
 53.725136205916
  20
 174.89167490616
  30
0.0
  11
 71.725136205916
  21
 174.89167490616
  31
0.0
   0
ARC
   5
201
 100
AcDbEntity
   8
LEVEL001
   6
DOT
  62
7
 100
AcDbCircle
  10
 67.723920613352
  20
 183.89167490616
  30
0.0
  40
 3.3000000000000
 100
AcDbArc
  50
 269.99999998894
  51
 270.02110555509
   0
ARC
   5
202
 100
AcDbEntity
   8
LEVEL001
   6
DOT
  62
7
 100
AcDbCircle
  10
 57.726351798669
  20
 183.89167490616
  30
0.0
  40
 3.3000000000000
 100
AcDbArc
  50
 269.97889444165
  51
 270.00000000781
   0
ARC
   5
203
 100
AcDbEntity
   8
LEVEL001
   6
DOT
  62
7
 100
AcDbCircle
  10
 57.726351799698
  20
 202.29167490616
  30
0.0
  40
 3.3000000000000
 100
AcDbArc
  50
 90.000000010065
  51
 90.021105576221
   0
ARC
   5
204
 100
AcDbEntity
   8
LEVEL001
   6
DOT
  62
7
 100
AcDbCircle
  10
 67.723920612323
  20
 202.29167490616
  30
0.0
  40
 3.3000000000000
 100
AcDbArc
  50
 89.978894427035
  51
 89.999999993191
   0
DIMENSION
   5
205
 100
AcDbEntity
   8
LEVEL001
   6
CONTINUOUS
  62
3
 100
AcDbDimension
   2
*D15
  10
 85.466235056666
  20
 174.89167490616
  30
0.0
  11
 85.466235056666
  21
 190.89167490616
  31
0.0
  70
0
   3
GMM001
 100
AcDbAlignedDimension
  13
 72.725136205916
  23
 206.89167490616
  33
0.0
  14
 72.725136205916
  24
 174.89167490616
  34
0.0
  50
 270.00000000000
 100
AcDbRotatedDimension
   0
DIMENSION
   5
206
 100
AcDbEntity
   8
LEVEL001
   6
CONTINUOUS
  62
3
 100
AcDbDimension
   2
*D16
  10
 72.725136205916
  20
 162.04632241297
  30
0.0
  11
 62.725136205916
  21
 162.04632241297
  31
0.0
  70
0
   3
GMM001
 100
AcDbAlignedDimension
  13
 52.725136205916
  23
 174.89167490616
  33
0.0
  14
 72.725136205916
  24
 174.89167490616
  34
0.0
 100
AcDbRotatedDimension
   0
LINE
   5
207
 100
AcDbEntity
   8
LEVEL001
 100
AcDbLine
   6
CONTINUOUS
  62
7
  10
 67.725136206033
  20
 174.89167490616
  30
0.0
  11
 67.725136206033
  21
 206.89167490616
  31
0.0
   0
LINE
   5
208
 100
AcDbEntity
   8
LEVEL001
 100
AcDbLine
   6
CONTINUOUS
  62
7
  10
 69.725136206033
  20
 174.89167490616
  30
0.0
  11
 69.725136206033
  21
 206.89167490616
  31
0.0
   0
LINE
   5
209
 100
AcDbEntity
   8
LEVEL001
 100
AcDbLine
   6
CONTINUOUS
  62
7
  10
 63.725136206033
  20
 174.89167490616
  30
0.0
  11
 63.725136206033
  21
 206.89167490616
  31
0.0
   0
LINE
   5
20A
 100
AcDbEntity
   8
LEVEL001
 100
AcDbLine
   6
CONTINUOUS
  62
7
  10
 65.725136206033
  20
 174.89167490616
  30
0.0
  11
 65.725136206033
  21
 206.89167490616
  31
0.0
   0
LINE
   5
20B
 100
AcDbEntity
   8
LEVEL001
 100
AcDbLine
   6
CONTINUOUS
  62
2
  10
 68.725136206033
  20
 174.89167490616
  30
0.0
  11
 68.725136206033
  21
 206.89167490616
  31
0.0
   0
LINE
   5
20C
 100
AcDbEntity
   8
LEVEL001
 100
AcDbLine
   6
CONTINUOUS
  62
2
  10
 66.725136206033
  20
 174.89167490616
  30
0.0
  11
 66.725136206033
  21
 206.89167490616
  31
0.0
   0
LINE
   5
20D
 100
AcDbEntity
   8
LEVEL001
 100
AcDbLine
   6
CONTINUOUS
  62
2
  10
 64.725136206033
  20
 174.89167490616
  30
0.0
  11
 64.725136206033
  21
 206.89167490616
  31
0.0
   0
LINE
   5
20E
 100
AcDbEntity
   8
LEVEL001
 100
AcDbLine
   6
CONTINUOUS
  62
7
  10
 57.725136205800
  20
 174.89167490616
  30
0.0
  11
 57.725136205800
  21
 206.89167490616
  31
0.0
   0
LINE
   5
20F
 100
AcDbEntity
   8
LEVEL001
 100
AcDbLine
   6
CONTINUOUS
  62
7
  10
 55.725136205800
  20
 174.89167490616
  30
0.0
  11
 55.725136205800
  21
 206.89167490616
  31
0.0
   0
LINE
   5
210
 100
AcDbEntity
   8
LEVEL001
 100
AcDbLine
   6
CONTINUOUS
  62
7
  10
 61.725136205800
  20
 174.89167490616
  30
0.0
  11
 61.725136205800
  21
 206.89167490616
  31
0.0
   0
LINE
   5
211
 100
AcDbEntity
   8
LEVEL001
 100
AcDbLine
   6
CONTINUOUS
  62
7
  10
 59.725136205800
  20
 174.89167490616
  30
0.0
  11
 59.725136205800
  21
 206.89167490616
  31
0.0
   0
LINE
   5
212
 100
AcDbEntity
   8
LEVEL001
 100
AcDbLine
   6
CONTINUOUS
  62
2
  10
 56.725136205800
  20
 174.89167490616
  30
0.0
  11
 56.725136205800
  21
 206.89167490616
  31
0.0
   0
LINE
   5
213
 100
AcDbEntity
   8
LEVEL001
 100
AcDbLine
   6
CONTINUOUS
  62
2
  10
 58.725136205800
  20
 174.89167490616
  30
0.0
  11
 58.725136205800
  21
 206.89167490616
  31
0.0
   0
LINE
   5
214
 100
AcDbEntity
   8
LEVEL001
 100
AcDbLine
   6
CONTINUOUS
  62
2
  10
 60.725136205800
  20
 174.89167490616
  30
0.0
  11
 60.725136205800
  21
 206.89167490616
  31
0.0
   0
LINE
   5
215
 100
AcDbEntity
   8
LEVEL001
 100
AcDbLine
   6
CONTINUOUS
  62
7
  10
 57.725136205916
  20
 117.71657148848
  30
0.0
  11
 62.725136205916
  21
 117.71657148848
  31
0.0
   0
LINE
   5
216
 100
AcDbEntity
   8
LEVEL001
 100
AcDbLine
   6
CONTINUOUS
  62
7
  10
 62.725136205916
  20
 117.71657148848
  30
0.0
  11
 67.725136205916
  21
 117.71657148848
  31
0.0
   0
LINE
   5
217
 100
AcDbEntity
   8
LEVEL001
 100
AcDbLine
   6
CONTINUOUS
  62
7
  10
 52.725136205916
  20
 141.21657148848
  30
0.0
  11
 52.725136205916
  21
 144.71657148848
  31
0.0
   0
ARC
   5
218
 100
AcDbEntity
   8
LEVEL001
   6
CONTINUOUS
  62
7
 100
AcDbCircle
  10
 53.725136205914
  20
 144.71657148848
  30
0.0
  40
 1.0000000000000
 100
AcDbArc
  50
 89.999999999873
  51
 180.00000000000
   0
POINT
   5
219
 100
AcDbEntity
   8
LEVEL001
 100
AcDbPoint
  62
7
  10
 52.725136205916
  20
 145.71657148848
  30
0.0
   0
ARC
   5
21A
 100
AcDbEntity
   8
LEVEL001
   6
CONTINUOUS
  62
7
 100
AcDbCircle
  10
 71.725136205916
  20
 144.71657148848
  30
0.0
  40
 1.0000000000000
 100
AcDbArc
  50
0.0
  51
 90.000000000000
   0
POINT
   5
21B
 100
AcDbEntity
   8
LEVEL001
 100
AcDbPoint
  62
7
  10
 72.725136205916
  20
 145.71657148848
  30
0.0
   0
LINE
   5
21C
 100
AcDbEntity
   8
LEVEL001
 100
AcDbLine
   6
CONTINUOUS
  62
7
  10
 72.725136205916
  20
 141.21657148848
  30
0.0
  11
 72.725136205916
  21
 144.71657148848
  31
0.0
   0
LINE
   5
21D
 100
AcDbEntity
   8
LEVEL001
 100
AcDbLine
   6
CONTINUOUS
  62
7
  10
 61.725136205851
  20
 145.71657148848
  30
0.0
  11
 62.725136205851
  21
 144.71657148848
  31
0.0
   0
LINE
   5
21E
 100
AcDbEntity
   8
LEVEL001
 100
AcDbLine
   6
CONTINUOUS
  62
7
  10
 62.725136206033
  20
 144.71657148848
  30
0.0
  11
 63.725136206033
  21
 145.71657148848
  31
0.0
   0
LINE
   5
21F
 100
AcDbEntity
   8
LEVEL001
 100
AcDbLine
   6
CONTINUOUS
  62
7
  10
 63.725136205851
  20
 145.71657148848
  30
0.0
  11
 64.725136205851
  21
 144.71657148848
  31
0.0
   0
LINE
   5
220
 100
AcDbEntity
   8
LEVEL001
 100
AcDbLine
   6
CONTINUOUS
  62
7
  10
 64.725136206033
  20
 144.71657148848
  30
0.0
  11
 65.725136206033
  21
 145.71657148848
  31
0.0
   0
LINE
   5
221
 100
AcDbEntity
   8
LEVEL001
 100
AcDbLine
   6
CONTINUOUS
  62
7
  10
 65.725136205735
  20
 145.71657148848
  30
0.0
  11
 66.725136205735
  21
 144.71657148848
  31
0.0
   0
LINE
   5
222
 100
AcDbEntity
   8
LEVEL001
 100
AcDbLine
   6
CONTINUOUS
  62
7
  10
 66.725136205916
  20
 144.71657148848
  30
0.0
  11
 67.725136205916
  21
 145.71657148848
  31
0.0
   0
LINE
   5
223
 100
AcDbEntity
   8
LEVEL001
 100
AcDbLine
   6
CONTINUOUS
  62
7
  10
 67.725136205851
  20
 145.71657148848
  30
0.0
  11
 68.725136205851
  21
 144.71657148848
  31
0.0
   0
LINE
   5
224
 100
AcDbEntity
   8
LEVEL001
 100
AcDbLine
   6
CONTINUOUS
  62
7
  10
 68.725136206033
  20
 144.71657148848
  30
0.0
  11
 69.725136206033
  21
 145.71657148848
  31
0.0
   0
LINE
   5
225
 100
AcDbEntity
   8
LEVEL001
 100
AcDbLine
   6
CONTINUOUS
  62
7
  10
 61.725136205981
  20
 145.71657148848
  30
0.0
  11
 60.725136205982
  21
 144.71657148848
  31
0.0
   0
LINE
   5
226
 100
AcDbEntity
   8
LEVEL001
 100
AcDbLine
   6
CONTINUOUS
  62
7
  10
 60.725136205800
  20
 144.71657148848
  30
0.0
  11
 59.725136205800
  21
 145.71657148848
  31
0.0
   0
LINE
   5
227
 100
AcDbEntity
   8
LEVEL001
 100
AcDbLine
   6
CONTINUOUS
  62
7
  10
 59.725136206098
  20
 145.71657148848
  30
0.0
  11
 58.725136206098
  21
 144.71657148848
  31
0.0
   0
LINE
   5
228
 100
AcDbEntity
   8
LEVEL001
 100
AcDbLine
   6
CONTINUOUS
  62
7
  10
 58.725136205916
  20
 144.71657148848
  30
0.0
  11
 57.725136205916
  21
 145.71657148848
  31
0.0
   0
LINE
   5
229
 100
AcDbEntity
   8
LEVEL001
 100
AcDbLine
   6
CONTINUOUS
  62
7
  10
 57.725136205981
  20
 145.71657148848
  30
0.0
  11
 56.725136205982
  21
 144.71657148848
  31
0.0
   0
LINE
   5
22A
 100
AcDbEntity
   8
LEVEL001
 100
AcDbLine
   6
CONTINUOUS
  62
7
  10
 56.725136205800
  20
 144.71657148848
  30
0.0
  11
 55.725136205800
  21
 145.71657148848
  31
0.0
   0
LINE
   5
22B
 100
AcDbEntity
   8
LEVEL001
 100
AcDbLine
   6
CONTINUOUS
  62
7
  10
 69.725136206033
  20
 145.71657148848
  30
0.0
  11
 71.725136205916
  21
 145.71657148848
  31
0.0
   0
LINE
   5
22C
 100
AcDbEntity
   8
LEVEL001
 100
AcDbLine
   6
CONTINUOUS
  62
7
  10
 53.725136205916
  20
 145.71657148848
  30
0.0
  11
 55.725136205800
  21
 145.71657148848
  31
0.0
   0
LINE
   5
22D
 100
AcDbEntity
   8
LEVEL001
 100
AcDbLine
   6
CONTINUOUS
  62
7
  10
 57.725136205916
  20
 117.71657148848
  30
0.0
  11
 57.725136205916
  21
 137.80814700082
  31
0.0
   0
ARC
   5
22E
 100
AcDbEntity
   8
LEVEL001
   6
CONTINUOUS
  62
7
 100
AcDbCircle
  10
 56.725136205917
  20
 137.80814700082
  30
0.0
  40
 1.0000000000000
 100
AcDbArc
  50
 0.97706639814595E-11
  51
 69.377986878290
   0
ARC
   5
22F
 100
AcDbEntity
   8
LEVEL001
   6
CONTINUOUS
  62
7
 100
AcDbCircle
  10
 62.725136205917
  20
 153.75228577419
  30
0.0
  40
 16.035714285714
 100
AcDbArc
  50
 231.41990756162
  51
 249.37798687827
   0
LINE
   5
230
 100
AcDbEntity
   8
LEVEL001
 100
AcDbLine
   6
CONTINUOUS
  62
7
  10
 67.725136205916
  20
 117.71657148848
  30
0.0
  11
 67.725136205916
  21
 137.80814700082
  31
0.0
   0
ARC
   5
231
 100
AcDbEntity
   8
LEVEL001
   6
CONTINUOUS
  62
7
 100
AcDbCircle
  10
 68.725136205916
  20
 137.80814700082
  30
0.0
  40
 1.0000000000000
 100
AcDbArc
  50
 110.62201312172
  51
 180.00000000000
   0
ARC
   5
232
 100
AcDbEntity
   8
LEVEL001
   6
CONTINUOUS
  62
7
 100
AcDbCircle
  10
 62.725136205916
  20
 153.75228577419
  30
0.0
  40
 16.035714285714
 100
AcDbArc
  50
 290.62201312173
  51
 308.58009243838
   0
LINE
   5
233
 100
AcDbEntity
   8
LEVEL001
 100
AcDbLine
   6
CONTINUOUS
  62
7
  10
 57.725136205916
  20
 137.71657148848
  30
0.0
  11
 57.725136205916
  21
 137.80814700082
  31
0.0
   0
LINE
   5
234
 100
AcDbEntity
   8
LEVEL001
 100
AcDbLine
   6
CONTINUOUS
  62
7
  10
 67.725136205916
  20
 137.71657148848
  30
0.0
  11
 67.725136205916
  21
 137.80814700082
  31
0.0
   0
LINE
   5
235
 100
AcDbEntity
   8
LEVEL001
 100
AcDbLine
   6
CONTINUOUS
  62
7
  10
 57.725136205916
  20
 137.71657148848
  30
0.0
  11
 67.725136205916
  21
 137.71657148848
  31
0.0
   0
LINE
   5
236
 100
AcDbEntity
   8
LEVEL001
 100
AcDbLine
   6
DASHDOT
  62
2
  10
 62.725136205916
  20
 148.53254010444
  30
0.0
  11
 62.725136205916
  21
 114.12869105072
  31
0.0
   0
LINE
   5
237
 100
AcDbEntity
   8
LEVEL001
 100
AcDbLine
   6
DOT
  62
1
  10
 64.725136205916
  20
 118.21657148848
  30
0.0
  11
 64.725136205916
  21
 130.71657148848
  31
0.0
   0
LINE
   5
238
 100
AcDbEntity
   8
LEVEL001
 100
AcDbLine
   6
DOT
  62
1
  10
 60.725136205916
  20
 118.21657148840
  30
0.0
  11
 60.725136205916
  21
 130.71657148848
  31
0.0
   0
LINE
   5
239
 100
AcDbEntity
   8
LEVEL001
 100
AcDbLine
   6
DOT
  62
1
  10
 62.725136205916
  20
 133.86657148863
  30
0.0
  11
 61.075136205916
  21
 132.21657148863
  31
0.0
   0
LINE
   5
23A
 100
AcDbEntity
   8
LEVEL001
 100
AcDbLine
   6
DOT
  62
1
  10
 62.725136205916
  20
 133.86657148863
  30
0.0
  11
 64.375136205916
  21
 132.21657148863
  31
0.0
   0
LINE
   5
23B
 100
AcDbEntity
   8
LEVEL001
 100
AcDbLine
   6
DOT
  62
1
  10
 64.725136205916
  20
 130.71657148848
  30
0.0
  11
 60.725136205916
  21
 130.71657148848
  31
0.0
   0
LINE
   5
23C
 100
AcDbEntity
   8
LEVEL001
 100
AcDbLine
   6
DOT
  62
1
  10
 61.075136205916
  20
 118.21657148848
  30
0.0
  11
 61.075136205916
  21
 132.21657148863
  31
0.0
   0
LINE
   5
23D
 100
AcDbEntity
   8
LEVEL001
 100
AcDbLine
   6
DOT
  62
1
  10
 64.375136205916
  20
 132.21657148848
  30
0.0
  11
 61.075136205916
  21
 132.21657148848
  31
0.0
   0
LINE
   5
23E
 100
AcDbEntity
   8
LEVEL001
 100
AcDbLine
   6
DOT
  62
1
  10
 64.375136205916
  20
 118.21657148848
  30
0.0
  11
 64.375136205916
  21
 132.21657148848
  31
0.0
   0
LINE
   5
23F
 100
AcDbEntity
   8
LEVEL001
 100
AcDbLine
   6
DOT
  62
1
  10
 64.725136205916
  20
 118.21657148840
  30
0.0
  11
 65.225136205845
  21
 117.71657148848
  31
0.0
   0
LINE
   5
240
 100
AcDbEntity
   8
LEVEL001
 100
AcDbLine
   6
DOT
  62
1
  10
 60.725136205916
  20
 118.21657148840
  30
0.0
  11
 60.225136205988
  21
 117.71657148848
  31
0.0
   0
LINE
   5
241
 100
AcDbEntity
   8
LEVEL001
 100
AcDbLine
   6
DOT
  62
1
  10
 60.725136205916
  20
 118.21657148848
  30
0.0
  11
 64.725136205916
  21
 118.21657148848
  31
0.0
   0
LINE
   5
242
 100
AcDbEntity
   8
LEVEL001
 100
AcDbLine
   6
DASHDOT
  62
2
  10
 62.725136205916
  20
 210.51963510776
  30
0.0
  11
 62.725136205916
  21
 171.14706931516
  31
0.0
   0
TEXT
   5
243
 100
AcDbEntity
   8
LEVEL001
  62
7
 100
AcDbText
  10
 42.267588261283
  20
 229.31735651063
  30
0.0
  40
 5.0000000000000
   1
角型ツマミ
   7
STANDARD
 100
AcDbText
   0
LINE
   5
244
 100
AcDbEntity
   8
LEVEL001
 100
AcDbLine
   6
CONTINUOUS
  62
7
  10
 41.438012899020
  20
 228.28830679393
  30
0.0
  11
 67.189045347399
  21
 228.28830679393
  31
0.0
   0
INSERT
   5
245
 100
AcDbEntity
   8
LEVEL001
 100
AcDbBlockReference
   2
*D17
  10
0.0
  20
0.0
  30
0.0
   0
DIMENSION
   5
246
 100
AcDbEntity
   8
LEVEL001
   6
CONTINUOUS
  62
3
 100
AcDbDimension
   2
*D18
  10
 112.70780609439
  20
 205.59167490616
  30
0.0
  11
 115.94144763785
  21
 208.15668936718
  31
0.0
  70
132
   3
GMM002
 100
AcDbRadialDimension
  15
 109.57400515800
  25
 203.10585679313
  35
0.0
  40
 8.3062632353877
   0
ARC
   5
247
 100
AcDbEntity
   8
LEVEL001
   6
CONTINUOUS
  62
2
 100
AcDbCircle
  10
 356.05470571748
  20
 133.48327687267
  30
0.0
  40
 47.883208443077
 100
AcDbArc
  50
 79.678778546327
  51
 100.32122145367
   0
ARC
   5
248
 100
AcDbEntity
   8
LEVEL001
   6
CONTINUOUS
  62
2
 100
AcDbCircle
  10
 356.05470571748
  20
 252.70007293965
  30
0.0
  40
 47.883208443077
 100
AcDbArc
  50
 259.67877854633
  51
 280.32122145367
   0
ENDSEC
  0
SECTION
  2
OBJECTS
  0
DICTIONARY
  5
C
100
AcDbDictionary
  3
ACAD_GROUP
350
D
  3
ACAD_MLINESTYLE
350
1B
  0
DICTIONARY
  5
D
102
{ACAD_REACTORS
330
C
102
}
100
AcDbDictionary
  0
DICTIONARY
  5
1B
102
{ACAD_REACTORS
330
C
102
}
100
AcDbDictionary
  3
STANDARD
350
1C
  0
MLINESTYLE
  5
1C
102
{ACAD_REACTORS
330
1B
102
}
100
AcDbMlineStyle
  2
STANDARD
 70
     0
  3

 62
   256
 51
90.0
 52
90.0
 71
     2
 49
0.5
 62
   256
  6
BYLAYER
 49
-0.5
 62
   256
  6
BYLAYER
  0
ENDSEC
   0
EOF
