   0
SECTION
   2
HEADER
   9
$ACADVER
   1
AC1015
   9
$LIMMIN
  10
0.0
  20
0.0
   9
$LIMMAX
  10
 420.00000000000
  20
 297.00000000000
   9
$EXTMIN
  10
0.0
  20
0.0
  30
0.0
   9
$EXTMAX
  10
 420.00000000000
  20
 297.00000000000
  30
0.0
   9
$LTSCALE
  40
 8.4000000000000
   9
$HANDSEED
   5
342
   0
ENDSEC
   0
SECTION
   2
TABLES
  0
TABLE
  2
VPORT
  5
8
100
AcDbSymbolTable
 70
     1
  0
VPORT
  5
341
100
AcDbSymbolTableRecord
100
AcDbViewportTableRecord
  2
*ACTIVE
 70
     0
 10
0.0
 20
0.0
 11
1.0
 21
1.0
  12
 210.00000000000
  22
 148.50000000000
 13
0.0
 23
0.0
 14
1.0
 24
1.0
 15
0.0
 25
0.0
 16
0.0
 26
0.0
 36
1.0
 17
0.0
 27
0.0
 37
0.0
  40
 420.00000000000
  41
 1.4787878787879
 42
50.0
 43
0.0
 44
0.0
 50
0.0
 51
0.0
 71
     0
 72
   100
 73
     1
 74
     1
 75
     0
 76
     0
 77
     0
 78
     0
  0
ENDTAB
  0
TABLE
  2
LTYPE
  5
5
100
AcDbSymbolTable
 70
    25
  0
LTYPE
  5
12
100
AcDbSymbolTableRecord
100
AcDbLinetypeTableRecord
  2
BYBLOCK
 70
     0
  3

 72
    65
 73
     0
 40
0.0
  0
LTYPE
  5
13
100
AcDbSymbolTableRecord
100
AcDbLinetypeTableRecord
  2
BYLAYER
 70
     0
  3

 72
    65
 73
     0
 40
0.0
  0
LTYPE
  5
14
100
AcDbSymbolTableRecord
100
AcDbLinetypeTableRecord
  2
CONTINUOUS
 70
     0
  3
Solid line
 72
    65
 73
     0
 40
0.0
  0
LTYPE
  5
20
100
AcDbSymbolTableRecord
100
AcDbLinetypeTableRecord
  2
BORDER
 70
     0
  3
__ __ . __ __ . __ __ . __ __ . __ __ . __ __ .
 72
    65
 73
     6
 40
1.75
 49
0.5
 74
     0
 49
-0.25
 74
     0
 49
0.5
 74
     0
 49
-0.25
 74
     0
 49
0.0
 74
     0
 49
-0.25
 74
     0
  0
LTYPE
  5
21
100
AcDbSymbolTableRecord
100
AcDbLinetypeTableRecord
  2
BORDER2
 70
     0
  3
__.__.__.__.__.__.__.__.__.__.__.__.__.__.__.__
 72
    65
 73
     6
 40
0.875
 49
0.25
 74
     0
 49
-0.125
 74
     0
 49
0.25
 74
     0
 49
-0.125
 74
     0
 49
0.0
 74
     0
 49
-0.125
 74
     0
  0
LTYPE
  5
22
100
AcDbSymbolTableRecord
100
AcDbLinetypeTableRecord
  2
BORDERX2
 70
     0
  3
____  ____  .  ____  ____  .  ____  ____  .  __
 72
    65
 73
     6
 40
3.5
 49
1.0
 74
     0
 49
-0.5
 74
     0
 49
1.0
 74
     0
 49
-0.5
 74
     0
 49
0.0
 74
     0
 49
-0.5
 74
     0
  0
LTYPE
  5
23
100
AcDbSymbolTableRecord
100
AcDbLinetypeTableRecord
  2
CENTER
 70
     0
  3
____ _ ____ _ ____ _ ____ _ ____ _ ____ _ ____ 
 72
    65
 73
     4
 40
2.0
 49
1.25
 74
     0
 49
-0.25
 74
     0
 49
0.25
 74
     0
 49
-0.25
 74
     0
  0
LTYPE
  5
24
100
AcDbSymbolTableRecord
100
AcDbLinetypeTableRecord
  2
CENTER2
 70
     0
  3
___ _ ___ _ ___ _ ___ _ ___ _ ___ _ ___ _ ___ _
 72
    65
 73
     4
 40
1.125
 49
0.75
 74
     0
 49
-0.125
 74
     0
 49
0.125
 74
     0
 49
-0.125
 74
     0
  0
LTYPE
  5
25
100
AcDbSymbolTableRecord
100
AcDbLinetypeTableRecord
  2
CENTERX2
 70
     0
  3
________  __  ________  __  ________  __  _____
 72
    65
 73
     4
 40
4.0
 49
2.5
 74
     0
 49
-0.5
 74
     0
 49
0.5
 74
     0
 49
-0.5
 74
     0
  0
LTYPE
  5
26
100
AcDbSymbolTableRecord
100
AcDbLinetypeTableRecord
  2
DASHDOT
 70
     0
  3
__ . __ . __ . __ . __ . __ . __ . __ . __ . __
 72
    65
 73
     4
 40
1.0
 49
0.5
 74
     0
 49
-0.25
 74
     0
 49
0.0
 74
     0
 49
-0.25
 74
     0
  0
LTYPE
  5
27
100
AcDbSymbolTableRecord
100
AcDbLinetypeTableRecord
  2
DASHDOT2
 70
     0
  3
_._._._._._._._._._._._._._._._._._._._._._._._
 72
    65
 73
     4
 40
0.5
 49
0.25
 74
     0
 49
-0.125
 74
     0
 49
0.0
 74
     0
 49
-0.125
 74
     0
  0
LTYPE
  5
28
100
AcDbSymbolTableRecord
100
AcDbLinetypeTableRecord
  2
DASHDOTX2
 70
     0
  3
____  .  ____  .  ____  .  ____  .  ____  .  __
 72
    65
 73
     4
 40
2.0
 49
1.0
 74
     0
 49
-0.5
 74
     0
 49
0.0
 74
     0
 49
-0.5
 74
     0
  0
LTYPE
  5
29
100
AcDbSymbolTableRecord
100
AcDbLinetypeTableRecord
  2
DASHED
 70
     0
  3
__ __ __ __ __ __ __ __ __ __ __ __ __ __ __ __
 72
    65
 73
     2
 40
0.75
 49
0.5
 74
     0
 49
-0.25
 74
     0
  0
LTYPE
  5
2A
100
AcDbSymbolTableRecord
100
AcDbLinetypeTableRecord
  2
DASHED2
 70
     0
  3
_ _ _ _ _ _ _ _ _ _ _ _ _ _ _ _ _ _ _ _ _ _ _ _
 72
    65
 73
     2
 40
0.375
 49
0.25
 74
     0
 49
-0.125
 74
     0
  0
LTYPE
  5
2B
100
AcDbSymbolTableRecord
100
AcDbLinetypeTableRecord
  2
DASHEDX2
 70
     0
  3
____  ____  ____  ____  ____  ____  ____  ____ 
 72
    65
 73
     2
 40
1.5
 49
1.0
 74
     0
 49
-0.5
 74
     0
  0
LTYPE
  5
2C
100
AcDbSymbolTableRecord
100
AcDbLinetypeTableRecord
  2
DIVIDE
 70
     0
  3
____ . . ____ . . ____ . . ____ . . ____ . . __
 72
    65
 73
     6
 40
1.25
 49
0.5
 74
     0
 49
-0.25
 74
     0
 49
0.0
 74
     0
 49
-0.25
 74
     0
 49
0.0
 74
     0
 49
-0.25
 74
     0
  0
LTYPE
  5
2D
100
AcDbSymbolTableRecord
100
AcDbLinetypeTableRecord
  2
DIVIDE2
 70
     0
  3
__..__..__..__..__..__..__..__..__..__..__..__.
 72
    65
 73
     6
 40
0.625
 49
0.25
 74
     0
 49
-0.125
 74
     0
 49
0.0
 74
     0
 49
-0.125
 74
     0
 49
0.0
 74
     0
 49
-0.125
 74
     0
  0
LTYPE
  5
2E
100
AcDbSymbolTableRecord
100
AcDbLinetypeTableRecord
  2
DIVIDEX2
 70
     0
  3
________  .  .  ________  .  .  ________  .  . 
 72
    65
 73
     6
 40
2.5
 49
1.0
 74
     0
 49
-0.5
 74
     0
 49
0.0
 74
     0
 49
-0.5
 74
     0
 49
0.0
 74
     0
 49
-0.5
 74
     0
  0
LTYPE
  5
2F
100
AcDbSymbolTableRecord
100
AcDbLinetypeTableRecord
  2
DOT
 70
     0
  3
. . . . . . . . . . . . . . . . . . . . . . . .
 72
    65
 73
     2
 40
0.25
 49
0.0
 74
     0
 49
-0.25
 74
     0
  0
LTYPE
  5
30
100
AcDbSymbolTableRecord
100
AcDbLinetypeTableRecord
  2
DOT2
 70
     0
  3
...............................................
 72
    65
 73
     2
 40
0.125
 49
0.0
 74
     0
 49
-0.125
 74
     0
  0
LTYPE
  5
31
100
AcDbSymbolTableRecord
100
AcDbLinetypeTableRecord
  2
DOTX2
 70
     0
  3
.  .  .  .  .  .  .  .  .  .  .  .  .  .  .  . 
 72
    65
 73
     2
 40
0.5
 49
0.0
 74
     0
 49
-0.5
 74
     0
  0
LTYPE
  5
32
100
AcDbSymbolTableRecord
100
AcDbLinetypeTableRecord
  2
HIDDEN
 70
     0
  3
__ __ __ __ __ __ __ __ __ __ __ __ __ __ __ __
 72
    65
 73
     2
 40
0.375
 49
0.25
 74
     0
 49
-0.125
 74
     0
  0
LTYPE
  5
33
100
AcDbSymbolTableRecord
100
AcDbLinetypeTableRecord
  2
HIDDEN2
 70
     0
  3
_ _ _ _ _ _ _ _ _ _ _ _ _ _ _ _ _ _ _ _ _ _ _ _
 72
    65
 73
     2
 40
0.1875
 49
0.125
 74
     0
 49
-0.0625
 74
     0
  0
LTYPE
  5
34
100
AcDbSymbolTableRecord
100
AcDbLinetypeTableRecord
  2
HIDDENX2
 70
     0
  3
____ ____ ____ ____ ____ ____ ____ ____ ____ __
 72
    65
 73
     2
 40
0.75
 49
0.5
 74
     0
 49
-0.25
 74
     0
  0
LTYPE
  5
35
100
AcDbSymbolTableRecord
100
AcDbLinetypeTableRecord
  2
PHANTOM
 70
     0
  3
______  __  __  ______  __  __  ______  __  __ 
 72
    65
 73
     6
 40
2.5
 49
1.25
 74
     0
 49
-0.25
 74
     0
 49
0.25
 74
     0
 49
-0.25
 74
     0
 49
0.25
 74
     0
 49
-0.25
 74
     0
  0
LTYPE
  5
36
100
AcDbSymbolTableRecord
100
AcDbLinetypeTableRecord
  2
PHANTOM2
 70
     0
  3
___ _ _ ___ _ _ ___ _ _ ___ _ _ ___ _ _ ___ _ _
 72
    65
 73
     6
 40
1.25
 49
0.625
 74
     0
 49
-0.125
 74
     0
 49
0.125
 74
     0
 49
-0.125
 74
     0
 49
0.125
 74
     0
 49
-0.125
 74
     0
  0
LTYPE
  5
37
100
AcDbSymbolTableRecord
100
AcDbLinetypeTableRecord
  2
PHANTOMX2
 70
     0
  3
____________    ____    ____    ____________   
 72
    65
 73
     6
 40
5.0
 49
2.5
 74
     0
 49
-0.5
 74
     0
 49
0.5
 74
     0
 49
-0.5
 74
     0
 49
0.5
 74
     0
 49
-0.5
 74
     0
  0
ENDTAB
   0
TABLE
   2
LAYER
   5
2
 100
AcDbSymbolTable
  70
2
   0
LAYER
   5
E
 100
AcDbSymbolTableRecord
 100
AcDbLayerTableRecord
   2
0
  70
0
  62
7
   6
CONTINUOUS
 390
30
   0
LAYER
   5
39
 100
AcDbSymbolTableRecord
 100
AcDbLayerTableRecord
   2
LEVEL001
  70
0
  62
7
   6
CONTINUOUS
 390
30
   0
ENDTAB
  0
TABLE
  2
STYLE
  5
3
100
AcDbSymbolTable
  70
3
  0
STYLE
  5
F
100
AcDbSymbolTableRecord
100
AcDbTextStyleTableRecord
  2
STANDARD
 70
     0
 40
0.0
 41
1.0
 50
0.0
 71
     0
 42
0.2
  3
TXT
  4
BIGFONT
  0
STYLE
  5
38
100
AcDbSymbolTableRecord
100
AcDbTextStyleTableRecord
  2
STANDARD1
 70
     4
 40
0.0
 41
1.0
 50
0.0
 71
     0
 42
0.2
  3
TXT
  4
BIGFONT
   0
STYLE
   5
3A
 100
AcDbSymbolTableRecord
 100
AcDbTextStyleTableRecord
   2
GMM001
  70
0
  40
0.0
  41
 1.0000000000000
  50
0.0
  71
     0
  42
1.0
   3
txt.shx
   4
bigfont.shx
   0
ENDTAB
  0
TABLE
  2
VIEW
  5
6
100
AcDbSymbolTable
 70
     0
  0
ENDTAB
  0
TABLE
  2
UCS
  5
7
100
AcDbSymbolTable
 70
     0
  0
ENDTAB
  0
TABLE
  2
APPID
  5
9
100
AcDbSymbolTable
 70
     1
  0
APPID
  5
10
100
AcDbSymbolTableRecord
100
AcDbRegAppTableRecord
  2
ACAD
 70
     0
  0
ENDTAB
   0
TABLE
   2
DIMSTYLE
   5
A
 100
AcDbSymbolTable
  70
5
 100
AcDbDimStyleTable
  0
DIMSTYLE
105
1D
100
AcDbSymbolTableRecord
100
AcDbDimStyleTableRecord
  2
STANDARD
 70
     0
  3

  4

  5

  6

  7

 40
1.0
 41
0.18
 42
0.0625
 43
0.38
 44
0.18
 45
0.0
 46
0.0
 47
0.0
 48
0.0
140
0.18
141
0.09
142
0.0
143
25.4
144
1.0
145
0.0
146
1.0
147
0.09
 71
     0
 72
     0
 73
     1
 74
     1
 75
     0
 76
     0
 77
     0
 78
     0
170
     0
171
     2
172
     0
173
     0
174
     0
175
     0
176
     0
177
     0
178
     0
270
     2
271
     4
272
     4
273
     2
274
     2
340
F
275
     0
280
     0
281
     0
282
     0
283
     1
284
     0
285
     0
286
     0
287
     3
288
     0
   0
DIMSTYLE
 105
3B
 100
AcDbSymbolTableRecord
 100
AcDbDimStyleTableRecord
   2
GMM001
  70
0
   3

   4

   5

   6
_OPEN30
   7
_OPEN30
  40
 1.0000000000000
  41
 3.0000000000000
  42
0.0
  43
 8.0000000000000
  44
 2.0000000000000
  45
0.0
  46
0.0
  47
0.0
  48
0.0
 140
 4.0000000000000
 141
 1.0000000000000
 142
0.0
 143
 0.39400000000000E-1
 144
 1.0000000000000
 145
0.0
 146
 0.62500000000000
 147
 1.7142857142857
  71
0
  72
0
  73
0
  74
0
  75
0
  76
0
  77
3
  78
8
 170
0
 171
2
 172
1
 173
1
 174
0
 175
0
 176
2
 177
2
 178
2
 270
2
 271
6
 272
0
 273
2
 274
2
 340
3A
 275
1
 280
0
 281
0
 282
0
 283
1
 284
0
 285
0
 286
0
 287
3
 288
1
   0
DIMSTYLE
 105
3C
 100
AcDbSymbolTableRecord
 100
AcDbDimStyleTableRecord
   2
GMM002
  70
0
   3

   4

   5

   6
_OPEN30
   7
_OPEN30
  40
 1.0000000000000
  41
 3.0000000000000
  42
0.0
  43
 8.0000000000000
  44
 2.0000000000000
  45
0.0
  46
0.0
  47
0.0
  48
0.0
 140
 4.0000000000000
 141
 1.0000000000000
 142
0.0
 143
 0.39400000000000E-1
 144
 1.0000000000000
 145
0.0
 146
 0.62500000000000
 147
 1.7142857142857
  71
0
  72
0
  73
0
  74
0
  75
0
  76
0
  77
3
  78
8
 170
0
 171
2
 172
1
 173
1
 174
0
 175
0
 176
2
 177
2
 178
2
 270
2
 271
6
 272
0
 273
2
 274
2
 340
3A
 275
1
 280
0
 281
0
 282
0
 283
1
 284
0
 285
0
 286
0
 287
3
 288
0
   0
DIMSTYLE
 105
3D
 100
AcDbSymbolTableRecord
 100
AcDbDimStyleTableRecord
   2
GMM003
  70
0
   3
R<>
   4

   5

   6
_NONE
   7
_OPEN30
  40
 1.0000000000000
  41
 3.0000000000000
  42
0.0
  43
 8.0000000000000
  44
 2.0000000000000
  45
0.0
  46
0.0
  47
0.0
  48
0.0
 140
 4.0000000000000
 141
 1.0000000000000
 142
0.0
 143
 0.39400000000000E-1
 144
 1.0000000000000
 145
0.0
 146
 0.62500000000000
 147
 1.7142857142857
  71
0
  72
0
  73
0
  74
0
  75
0
  76
0
  77
3
  78
8
 170
0
 171
2
 172
1
 173
1
 174
0
 175
0
 176
2
 177
2
 178
2
 270
2
 271
6
 272
0
 273
2
 274
2
 340
3A
 275
1
 280
0
 281
0
 282
0
 283
1
 284
0
 285
0
 286
0
 287
3
 288
1
   0
ENDTAB
  0
TABLE
  2
BLOCK_RECORD
  5
1
100
AcDbSymbolTable
 70
     0
  0
BLOCK_RECORD
  5
18
100
AcDbSymbolTableRecord
100
AcDbBlockTableRecord
  2
*MODEL_SPACE
  0
BLOCK_RECORD
  5
15
100
AcDbSymbolTableRecord
100
AcDbBlockTableRecord
  2
*PAPER_SPACE
   0
BLOCK_RECORD
   5
3E
 100
AcDbSymbolTableRecord
 100
AcDbBlockTableRecord
   2
BLOCK001
   0
BLOCK_RECORD
   5
3F
 100
AcDbSymbolTableRecord
 100
AcDbBlockTableRecord
   2
BLOCK002
   0
BLOCK_RECORD
   5
40
 100
AcDbSymbolTableRecord
 100
AcDbBlockTableRecord
   2
*D1
   0
BLOCK_RECORD
   5
41
 100
AcDbSymbolTableRecord
 100
AcDbBlockTableRecord
   2
*D2
   0
BLOCK_RECORD
   5
42
 100
AcDbSymbolTableRecord
 100
AcDbBlockTableRecord
   2
*D3
   0
BLOCK_RECORD
   5
43
 100
AcDbSymbolTableRecord
 100
AcDbBlockTableRecord
   2
*D4
   0
BLOCK_RECORD
   5
44
 100
AcDbSymbolTableRecord
 100
AcDbBlockTableRecord
   2
*D5
   0
BLOCK_RECORD
   5
45
 100
AcDbSymbolTableRecord
 100
AcDbBlockTableRecord
   2
*D6
   0
BLOCK_RECORD
   5
46
 100
AcDbSymbolTableRecord
 100
AcDbBlockTableRecord
   2
*D7
   0
BLOCK_RECORD
   5
47
 100
AcDbSymbolTableRecord
 100
AcDbBlockTableRecord
   2
*D8
   0
BLOCK_RECORD
   5
48
 100
AcDbSymbolTableRecord
 100
AcDbBlockTableRecord
   2
*D9
   0
BLOCK_RECORD
   5
49
 100
AcDbSymbolTableRecord
 100
AcDbBlockTableRecord
   2
*D10
   0
BLOCK_RECORD
   5
4A
 100
AcDbSymbolTableRecord
 100
AcDbBlockTableRecord
   2
*D11
   0
BLOCK_RECORD
   5
4B
 100
AcDbSymbolTableRecord
 100
AcDbBlockTableRecord
   2
*D12
   0
BLOCK_RECORD
   5
4C
 100
AcDbSymbolTableRecord
 100
AcDbBlockTableRecord
   2
*D13
   0
BLOCK_RECORD
   5
4D
 100
AcDbSymbolTableRecord
 100
AcDbBlockTableRecord
   2
_ARCHTICK
   0
BLOCK_RECORD
   5
4E
 100
AcDbSymbolTableRecord
 100
AcDbBlockTableRecord
   2
_BOXBLANK
   0
BLOCK_RECORD
   5
4F
 100
AcDbSymbolTableRecord
 100
AcDbBlockTableRecord
   2
_BOXFILLED
   0
BLOCK_RECORD
   5
50
 100
AcDbSymbolTableRecord
 100
AcDbBlockTableRecord
   2
_CLOSED
   0
BLOCK_RECORD
   5
51
 100
AcDbSymbolTableRecord
 100
AcDbBlockTableRecord
   2
_CLOSEDBLANK
   0
BLOCK_RECORD
   5
52
 100
AcDbSymbolTableRecord
 100
AcDbBlockTableRecord
   2
_DATUMBLANK
   0
BLOCK_RECORD
   5
53
 100
AcDbSymbolTableRecord
 100
AcDbBlockTableRecord
   2
_DATUMFILLED
   0
BLOCK_RECORD
   5
54
 100
AcDbSymbolTableRecord
 100
AcDbBlockTableRecord
   2
_DOT
   0
BLOCK_RECORD
   5
55
 100
AcDbSymbolTableRecord
 100
AcDbBlockTableRecord
   2
_DOTBLANK
   0
BLOCK_RECORD
   5
56
 100
AcDbSymbolTableRecord
 100
AcDbBlockTableRecord
   2
_DOTSMALL
   0
BLOCK_RECORD
   5
57
 100
AcDbSymbolTableRecord
 100
AcDbBlockTableRecord
   2
_INTEGRAL
   0
BLOCK_RECORD
   5
58
 100
AcDbSymbolTableRecord
 100
AcDbBlockTableRecord
   2
_NONE
   0
BLOCK_RECORD
   5
59
 100
AcDbSymbolTableRecord
 100
AcDbBlockTableRecord
   2
_OBLIQUE
   0
BLOCK_RECORD
   5
5A
 100
AcDbSymbolTableRecord
 100
AcDbBlockTableRecord
   2
_OPEN
   0
BLOCK_RECORD
   5
5B
 100
AcDbSymbolTableRecord
 100
AcDbBlockTableRecord
   2
_OPEN30
   0
BLOCK_RECORD
   5
5C
 100
AcDbSymbolTableRecord
 100
AcDbBlockTableRecord
   2
_OPEN90
   0
BLOCK_RECORD
   5
5D
 100
AcDbSymbolTableRecord
 100
AcDbBlockTableRecord
   2
_ORIGIN
   0
ENDTAB
   0
ENDSEC
  0
SECTION
  2
BLOCKS
  0
BLOCK
  5
19
100
AcDbEntity
  8
0
100
AcDbBlockBegin
  2
*MODEL_SPACE
 70
     0
 10
0.0
 20
0.0
 30
0.0
  3
*MODEL_SPACE
  1

  0
ENDBLK
  5
1A
100
AcDbEntity
  8
0
100
AcDbBlockEnd
  0
BLOCK
  5
16
100
AcDbEntity
 67
     1
  8
0
100
AcDbBlockBegin
  2
*PAPER_SPACE
 70
     0
 10
0.0
 20
0.0
 30
0.0
  3
*PAPER_SPACE
  1

  0
ENDBLK
  5
17
100
AcDbEntity
 67
     1
  8
0
100
AcDbBlockEnd
   0
BLOCK
   5
5E
 100
AcDbEntity
   8
0
 100
AcDbBlockBegin
   2
_ARCHTICK
  70
0
  10
0.0
  20
0.0
  30
0.0
   3
_ARCHTICK
   0
POLYLINE
   5
5F
 100
AcDbEntity
   8
0
   6
BYBLOCK
  62
0
 100
AcDb2dPolyline
  66
1
  10
0.0
  20
0.0
  30
0.0
  70
1
  40
 0.15000000000000
  41
 0.15000000000000
   0
VERTEX
   5
60
 100
AcDbEntity
   8
0
   6
BYBLOCK
  62
0
 100
AcDbVertex
 100
AcDb2dVertex
  10
-0.50000000000000
  20
-0.50000000000000
  30
0.0
  40
 0.15000000000000
  41
 0.15000000000000
   0
VERTEX
   5
61
 100
AcDbEntity
   8
0
   6
BYBLOCK
  62
0
 100
AcDbVertex
 100
AcDb2dVertex
  10
 0.50000000000000
  20
 0.50000000000000
  30
0.0
  40
 0.15000000000000
  41
 0.15000000000000
   0
SEQEND
   5
62
 100
AcDbEntity
   8
0
   6
BYBLOCK
  62
0
   0
ENDBLK
   5
63
 100
AcDbEntity
   8
0
 100
AcDbBlockEnd
   0
BLOCK
   5
64
 100
AcDbEntity
   8
0
 100
AcDbBlockBegin
   2
_OBLIQUE
  70
0
  10
0.0
  20
0.0
  30
0.0
   3
_OBLIQUE
   0
LINE
   5
65
 100
AcDbEntity
   8
0
 100
AcDbLine
   6
BYBLOCK
  62
0
  10
-0.50000000000000
  20
-0.50000000000000
  30
0.0
  11
 0.50000000000000
  21
 0.50000000000000
  31
0.0
   0
ENDBLK
   5
66
 100
AcDbEntity
   8
0
 100
AcDbBlockEnd
   0
BLOCK
   5
67
 100
AcDbEntity
   8
0
 100
AcDbBlockBegin
   2
_BOXBLANK
  70
0
  10
0.0
  20
0.0
  30
0.0
   3
_BOXBLANK
   0
LINE
   5
68
 100
AcDbEntity
   8
0
 100
AcDbLine
   6
BYBLOCK
  62
0
  10
-0.50000000000000
  20
-0.50000000000000
  30
0.0
  11
 0.50000000000000
  21
-0.50000000000000
  31
0.0
   0
LINE
   5
69
 100
AcDbEntity
   8
0
 100
AcDbLine
   6
BYBLOCK
  62
0
  10
 0.50000000000000
  20
-0.50000000000000
  30
0.0
  11
 0.50000000000000
  21
 0.50000000000000
  31
0.0
   0
LINE
   5
6A
 100
AcDbEntity
   8
0
 100
AcDbLine
   6
BYBLOCK
  62
0
  10
 0.50000000000000
  20
 0.50000000000000
  30
0.0
  11
-0.50000000000000
  21
 0.50000000000000
  31
0.0
   0
LINE
   5
6B
 100
AcDbEntity
   8
0
 100
AcDbLine
   6
BYBLOCK
  62
0
  10
-0.50000000000000
  20
 0.50000000000000
  30
0.0
  11
-0.50000000000000
  21
-0.50000000000000
  31
0.0
   0
LINE
   5
6C
 100
AcDbEntity
   8
0
 100
AcDbLine
   6
BYBLOCK
  62
0
  10
-0.50000000000000
  20
0.0
  30
0.0
  11
-1.0000000000000
  21
0.0
  31
0.0
   0
ENDBLK
   5
6D
 100
AcDbEntity
   8
0
 100
AcDbBlockEnd
   0
BLOCK
   5
6E
 100
AcDbEntity
   8
0
 100
AcDbBlockBegin
   2
_BOXFILLED
  70
0
  10
0.0
  20
0.0
  30
0.0
   3
_BOXFILLED
   0
SOLID
   5
6F
 100
AcDbEntity
   8
0
 100
AcDbTrace
   6
BYBLOCK
  62
0
  10
-0.50000000000000
  20
 0.50000000000000
  30
0.0
  11
 0.50000000000000
  21
 0.50000000000000
  31
0.0
  12
-0.50000000000000
  22
-0.50000000000000
  32
0.0
  13
 0.50000000000000
  23
-0.50000000000000
  33
0.0
   0
LINE
   5
70
 100
AcDbEntity
   8
0
 100
AcDbLine
   6
BYBLOCK
  62
0
  10
-0.50000000000000
  20
0.0
  30
0.0
  11
-1.0000000000000
  21
0.0
  31
0.0
   0
ENDBLK
   5
71
 100
AcDbEntity
   8
0
 100
AcDbBlockEnd
   0
BLOCK
   5
72
 100
AcDbEntity
   8
0
 100
AcDbBlockBegin
   2
_CLOSED
  70
0
  10
0.0
  20
0.0
  30
0.0
   3
_CLOSED
   0
LINE
   5
73
 100
AcDbEntity
   8
0
 100
AcDbLine
   6
BYBLOCK
  62
0
  10
-1.0000000000000
  20
 0.16666666666667
  30
0.0
  11
0.0
  21
0.0
  31
0.0
   0
LINE
   5
74
 100
AcDbEntity
   8
0
 100
AcDbLine
   6
BYBLOCK
  62
0
  10
0.0
  20
0.0
  30
0.0
  11
-1.0000000000000
  21
-0.16666666666667
  31
0.0
   0
LINE
   5
75
 100
AcDbEntity
   8
0
 100
AcDbLine
   6
BYBLOCK
  62
0
  10
-1.0000000000000
  20
 0.16666666666667
  30
0.0
  11
-1.0000000000000
  21
-0.16666666666667
  31
0.0
   0
LINE
   5
76
 100
AcDbEntity
   8
0
 100
AcDbLine
   6
BYBLOCK
  62
0
  10
0.0
  20
0.0
  30
0.0
  11
-1.0000000000000
  21
0.0
  31
0.0
   0
ENDBLK
   5
77
 100
AcDbEntity
   8
0
 100
AcDbBlockEnd
   0
BLOCK
   5
78
 100
AcDbEntity
   8
0
 100
AcDbBlockBegin
   2
_OPEN
  70
0
  10
0.0
  20
0.0
  30
0.0
   3
_OPEN
   0
LINE
   5
79
 100
AcDbEntity
   8
0
 100
AcDbLine
   6
BYBLOCK
  62
0
  10
-1.0000000000000
  20
 0.16666666666667
  30
0.0
  11
0.0
  21
0.0
  31
0.0
   0
LINE
   5
7A
 100
AcDbEntity
   8
0
 100
AcDbLine
   6
BYBLOCK
  62
0
  10
0.0
  20
0.0
  30
0.0
  11
-1.0000000000000
  21
-0.16666666666667
  31
0.0
   0
LINE
   5
7B
 100
AcDbEntity
   8
0
 100
AcDbLine
   6
BYBLOCK
  62
0
  10
0.0
  20
0.0
  30
0.0
  11
-1.0000000000000
  21
0.0
  31
0.0
   0
ENDBLK
   5
7C
 100
AcDbEntity
   8
0
 100
AcDbBlockEnd
   0
BLOCK
   5
7D
 100
AcDbEntity
   8
0
 100
AcDbBlockBegin
   2
_OPEN30
  70
0
  10
0.0
  20
0.0
  30
0.0
   3
_OPEN30
   0
LINE
   5
7E
 100
AcDbEntity
   8
0
 100
AcDbLine
   6
BYBLOCK
  62
0
  10
-1.0000000000000
  20
 0.26794919243110
  30
0.0
  11
0.0
  21
0.0
  31
0.0
   0
LINE
   5
7F
 100
AcDbEntity
   8
0
 100
AcDbLine
   6
BYBLOCK
  62
0
  10
0.0
  20
0.0
  30
0.0
  11
-1.0000000000000
  21
-0.26794919243110
  31
0.0
   0
LINE
   5
80
 100
AcDbEntity
   8
0
 100
AcDbLine
   6
BYBLOCK
  62
0
  10
0.0
  20
0.0
  30
0.0
  11
-1.0000000000000
  21
0.0
  31
0.0
   0
ENDBLK
   5
81
 100
AcDbEntity
   8
0
 100
AcDbBlockEnd
   0
BLOCK
   5
82
 100
AcDbEntity
   8
0
 100
AcDbBlockBegin
   2
_OPEN90
  70
0
  10
0.0
  20
0.0
  30
0.0
   3
_OPEN90
   0
LINE
   5
83
 100
AcDbEntity
   8
0
 100
AcDbLine
   6
BYBLOCK
  62
0
  10
-0.50000000000000
  20
 0.50000000000000
  30
0.0
  11
0.0
  21
0.0
  31
0.0
   0
LINE
   5
84
 100
AcDbEntity
   8
0
 100
AcDbLine
   6
BYBLOCK
  62
0
  10
0.0
  20
0.0
  30
0.0
  11
-0.50000000000000
  21
-0.50000000000000
  31
0.0
   0
LINE
   5
85
 100
AcDbEntity
   8
0
 100
AcDbLine
   6
BYBLOCK
  62
0
  10
0.0
  20
0.0
  30
0.0
  11
-1.0000000000000
  21
0.0
  31
0.0
   0
ENDBLK
   5
86
 100
AcDbEntity
   8
0
 100
AcDbBlockEnd
   0
BLOCK
   5
87
 100
AcDbEntity
   8
0
 100
AcDbBlockBegin
   2
_CLOSEDBLANK
  70
0
  10
0.0
  20
0.0
  30
0.0
   3
_CLOSEDBLANK
   0
LINE
   5
88
 100
AcDbEntity
   8
0
 100
AcDbLine
   6
BYBLOCK
  62
0
  10
-1.0000000000000
  20
 0.16666666666667
  30
0.0
  11
0.0
  21
0.0
  31
0.0
   0
LINE
   5
89
 100
AcDbEntity
   8
0
 100
AcDbLine
   6
BYBLOCK
  62
0
  10
0.0
  20
0.0
  30
0.0
  11
-1.0000000000000
  21
-0.16666666666667
  31
0.0
   0
LINE
   5
8A
 100
AcDbEntity
   8
0
 100
AcDbLine
   6
BYBLOCK
  62
0
  10
-1.0000000000000
  20
 0.16666666666667
  30
0.0
  11
-1.0000000000000
  21
-0.16666666666667
  31
0.0
   0
ENDBLK
   5
8B
 100
AcDbEntity
   8
0
 100
AcDbBlockEnd
   0
BLOCK
   5
8C
 100
AcDbEntity
   8
0
 100
AcDbBlockBegin
   2
_DOT
  70
0
  10
0.0
  20
0.0
  30
0.0
   3
_DOT
   0
POLYLINE
   5
8D
 100
AcDbEntity
   8
0
   6
BYBLOCK
  62
0
 100
AcDb2dPolyline
  66
1
  10
0.0
  20
0.0
  30
0.0
  70
1
  40
 0.50000000000000
  41
 0.50000000000000
   0
VERTEX
   5
8E
 100
AcDbEntity
   8
0
   6
BYBLOCK
  62
0
 100
AcDbVertex
 100
AcDb2dVertex
  10
-0.25000000000000
  20
0.0
  30
0.0
  42
 1.0000000000000
  40
 0.50000000000000
  41
 0.50000000000000
   0
VERTEX
   5
8F
 100
AcDbEntity
   8
0
   6
BYBLOCK
  62
0
 100
AcDbVertex
 100
AcDb2dVertex
  10
 0.25000000000000
  20
0.0
  30
0.0
  42
 1.0000000000000
  40
 0.50000000000000
  41
 0.50000000000000
   0
SEQEND
   5
90
 100
AcDbEntity
   8
0
   6
BYBLOCK
  62
0
   0
LINE
   5
91
 100
AcDbEntity
   8
0
 100
AcDbLine
   6
BYBLOCK
  62
0
  10
-0.50000000000000
  20
0.0
  30
0.0
  11
-1.0000000000000
  21
0.0
  31
0.0
   0
ENDBLK
   5
92
 100
AcDbEntity
   8
0
 100
AcDbBlockEnd
   0
BLOCK
   5
93
 100
AcDbEntity
   8
0
 100
AcDbBlockBegin
   2
_DOTSMALL
  70
0
  10
0.0
  20
0.0
  30
0.0
   3
_DOTSMALL
   0
POLYLINE
   5
94
 100
AcDbEntity
   8
0
   6
BYBLOCK
  62
0
 100
AcDb2dPolyline
  66
1
  10
0.0
  20
0.0
  30
0.0
  70
1
  40
 0.50000000000000
  41
 0.50000000000000
   0
VERTEX
   5
95
 100
AcDbEntity
   8
0
   6
BYBLOCK
  62
0
 100
AcDbVertex
 100
AcDb2dVertex
  10
-0.62500000000000E-1
  20
0.0
  30
0.0
  42
 1.0000000000000
  40
 0.50000000000000
  41
 0.50000000000000
   0
VERTEX
   5
96
 100
AcDbEntity
   8
0
   6
BYBLOCK
  62
0
 100
AcDbVertex
 100
AcDb2dVertex
  10
 0.62500000000000E-1
  20
0.0
  30
0.0
  42
 1.0000000000000
  40
 0.50000000000000
  41
 0.50000000000000
   0
SEQEND
   5
97
 100
AcDbEntity
   8
0
   6
BYBLOCK
  62
0
   0
ENDBLK
   5
98
 100
AcDbEntity
   8
0
 100
AcDbBlockEnd
   0
BLOCK
   5
99
 100
AcDbEntity
   8
0
 100
AcDbBlockBegin
   2
_DATUMBLANK
  70
0
  10
0.0
  20
0.0
  30
0.0
   3
_DATUMBLANK
   0
LINE
   5
9A
 100
AcDbEntity
   8
0
 100
AcDbLine
   6
BYBLOCK
  62
0
  10
0.0
  20
 0.57735027000000
  30
0.0
  11
-1.0000000000000
  21
0.0
  31
0.0
   0
LINE
   5
9B
 100
AcDbEntity
   8
0
 100
AcDbLine
   6
BYBLOCK
  62
0
  10
-1.0000000000000
  20
0.0
  30
0.0
  11
0.0
  21
-0.57735027000000
  31
0.0
   0
LINE
   5
9C
 100
AcDbEntity
   8
0
 100
AcDbLine
   6
BYBLOCK
  62
0
  10
0.0
  20
-0.57735027000000
  30
0.0
  11
0.0
  21
 0.57735027000000
  31
0.0
   0
ENDBLK
   5
9D
 100
AcDbEntity
   8
0
 100
AcDbBlockEnd
   0
BLOCK
   5
9E
 100
AcDbEntity
   8
0
 100
AcDbBlockBegin
   2
_DATUMFILLED
  70
0
  10
0.0
  20
0.0
  30
0.0
   3
_DATUMFILLED
   0
SOLID
   5
9F
 100
AcDbEntity
   8
0
 100
AcDbTrace
   6
BYBLOCK
  62
0
  10
0.0
  20
 0.57735027000000
  30
0.0
  11
-1.0000000000000
  21
0.0
  31
0.0
  12
0.0
  22
-0.57735027000000
  32
0.0
  13
0.0
  23
-0.57735027000000
  33
0.0
   0
ENDBLK
   5
A0
 100
AcDbEntity
   8
0
 100
AcDbBlockEnd
   0
BLOCK
   5
A1
 100
AcDbEntity
   8
0
 100
AcDbBlockBegin
   2
_ORIGIN
  70
0
  10
0.0
  20
0.0
  30
0.0
   3
_ORIGIN
   0
CIRCLE
   5
A2
 100
AcDbEntity
   8
0
 100
AcDbCircle
   6
BYBLOCK
  62
0
  10
0.0
  20
0.0
  30
0.0
  40
 0.50000000000000
   0
LINE
   5
A3
 100
AcDbEntity
   8
0
 100
AcDbLine
   6
BYBLOCK
  62
0
  10
0.0
  20
0.0
  30
0.0
  11
-1.0000000000000
  21
0.0
  31
0.0
   0
ENDBLK
   5
A4
 100
AcDbEntity
   8
0
 100
AcDbBlockEnd
   0
BLOCK
   5
A5
 100
AcDbEntity
   8
0
 100
AcDbBlockBegin
   2
_NONE
  70
0
  10
0.0
  20
0.0
  30
0.0
   3
_NONE
   0
CIRCLE
   5
A6
 100
AcDbEntity
   8
0
 100
AcDbCircle
   6
BYBLOCK
  62
0
  10
0.0
  20
0.0
  30
0.0
  40
 0.25000000000000
   0
ENDBLK
   5
A7
 100
AcDbEntity
   8
0
 100
AcDbBlockEnd
   0
BLOCK
   5
A8
 100
AcDbEntity
   8
0
 100
AcDbBlockBegin
   2
_DOTBLANK
  70
0
  10
0.0
  20
0.0
  30
0.0
   3
_DOTBLANK
   0
CIRCLE
   5
A9
 100
AcDbEntity
   8
0
 100
AcDbCircle
   6
BYBLOCK
  62
0
  10
0.0
  20
0.0
  30
0.0
  40
 0.50000000000000
   0
LINE
   5
AA
 100
AcDbEntity
   8
0
 100
AcDbLine
   6
BYBLOCK
  62
0
  10
-0.50000000000000
  20
0.0
  30
0.0
  11
-1.0000000000000
  21
0.0
  31
0.0
   0
ENDBLK
   5
AB
 100
AcDbEntity
   8
0
 100
AcDbBlockEnd
   0
BLOCK
   5
AC
 100
AcDbEntity
   8
0
 100
AcDbBlockBegin
   2
_INTEGRAL
  70
0
  10
0.0
  20
0.0
  30
0.0
   3
_INTEGRAL
   0
ARC
   5
AD
 100
AcDbEntity
   8
0
   6
BYBLOCK
  62
0
 100
AcDbCircle
  10
 0.44488800000000
  20
-0.91335000000000E-1
  30
0.0
  40
 0.45416700000000
 100
AcDbArc
  50
 102.00000000000
  51
 168.00000000000
   0
ARC
   5
AE
 100
AcDbEntity
   8
0
   6
BYBLOCK
  62
0
 100
AcDbCircle
  10
-0.44488800000000
  20
 0.91335000000000E-1
  30
0.0
  40
 0.45416700000000
 100
AcDbArc
  50
 282.00000000000
  51
 348.00000000000
   0
ENDBLK
   5
AF
 100
AcDbEntity
   8
0
 100
AcDbBlockEnd
   0
BLOCK
   5
B0
 100
AcDbEntity
   8
0
 100
AcDbBlockBegin
   2
BLOCK001
  70
64
  10
0.0
  20
0.0
  30
0.0
   3
BLOCK001
   0
POLYLINE
   5
B1
 100
AcDbEntity
   8
LEVEL001
   6
CONTINUOUS
  62
8
 100
AcDb2dPolyline
  66
1
  10
0.0
  20
0.0
  30
0.0
  70
0
   0
VERTEX
   5
B2
 100
AcDbEntity
   8
LEVEL001
   6
CONTINUOUS
  62
8
 100
AcDbVertex
 100
AcDb2dVertex
  10
 307.49797615315
  20
 18.501906399220
  30
0.0
   0
VERTEX
   5
B3
 100
AcDbEntity
   8
LEVEL001
   6
CONTINUOUS
  62
8
 100
AcDbVertex
 100
AcDb2dVertex
  10
 310.79465539843
  20
 23.726906399220
  30
0.0
   0
VERTEX
   5
B4
 100
AcDbEntity
   8
LEVEL001
   6
CONTINUOUS
  62
8
 100
AcDbVertex
 100
AcDb2dVertex
  10
 314.13865539843
  20
 23.726906399220
  30
0.0
   0
VERTEX
   5
B5
 100
AcDbEntity
   8
LEVEL001
   6
CONTINUOUS
  62
8
 100
AcDbVertex
 100
AcDb2dVertex
  10
 310.84197615315
  20
 18.501906399220
  30
0.0
   0
VERTEX
   5
B6
 100
AcDbEntity
   8
LEVEL001
   6
CONTINUOUS
  62
8
 100
AcDbVertex
 100
AcDb2dVertex
  10
 311.48329690786
  20
 16.191906399220
  30
0.0
   0
VERTEX
   5
B7
 100
AcDbEntity
   8
LEVEL001
   6
CONTINUOUS
  62
8
 100
AcDbVertex
 100
AcDb2dVertex
  10
 334.29065539843
  20
 16.191906399220
  30
0.0
   0
VERTEX
   5
B8
 100
AcDbEntity
   8
LEVEL001
   6
CONTINUOUS
  62
8
 100
AcDbVertex
 100
AcDb2dVertex
  10
 334.29065539843
  20
 15.839906399220
  30
0.0
   0
VERTEX
   5
B9
 100
AcDbEntity
   8
LEVEL001
   6
CONTINUOUS
  62
8
 100
AcDbVertex
 100
AcDb2dVertex
  10
 311.58102197525
  20
 15.839906399220
  30
0.0
   0
VERTEX
   5
BA
 100
AcDbEntity
   8
LEVEL001
   6
CONTINUOUS
  62
8
 100
AcDbVertex
 100
AcDb2dVertex
  10
 312.46665539843
  20
 12.649906399220
  30
0.0
   0
VERTEX
   5
BB
 100
AcDbEntity
   8
LEVEL001
   6
CONTINUOUS
  62
8
 100
AcDbVertex
 100
AcDb2dVertex
  10
 308.70465539843
  20
 12.649906399220
  30
0.0
   0
VERTEX
   5
BC
 100
AcDbEntity
   8
LEVEL001
   6
CONTINUOUS
  62
8
 100
AcDbVertex
 100
AcDb2dVertex
  10
 308.04687911811
  20
 15.839906399220
  30
0.0
   0
VERTEX
   5
BD
 100
AcDbEntity
   8
LEVEL001
   6
CONTINUOUS
  62
8
 100
AcDbVertex
 100
AcDb2dVertex
  10
 307.09616483239
  20
 15.839906399220
  30
0.0
   0
VERTEX
   5
BE
 100
AcDbEntity
   8
LEVEL001
   6
CONTINUOUS
  62
8
 100
AcDbVertex
 100
AcDb2dVertex
  10
 306.61465539843
  20
 12.649906399220
  30
0.0
   0
VERTEX
   5
BF
 100
AcDbEntity
   8
LEVEL001
   6
CONTINUOUS
  62
8
 100
AcDbVertex
 100
AcDb2dVertex
  10
 303.27065539843
  20
 12.649906399220
  30
0.0
   0
VERTEX
   5
C0
 100
AcDbEntity
   8
LEVEL001
   6
CONTINUOUS
  62
8
 100
AcDbVertex
 100
AcDb2dVertex
  10
 303.75216483239
  20
 15.839906399220
  30
0.0
   0
VERTEX
   5
C1
 100
AcDbEntity
   8
LEVEL001
   6
CONTINUOUS
  62
8
 100
AcDbVertex
 100
AcDb2dVertex
  10
 302.17065539843
  20
 15.839906399220
  30
0.0
   0
VERTEX
   5
C2
 100
AcDbEntity
   8
LEVEL001
   6
CONTINUOUS
  62
8
 100
AcDbVertex
 100
AcDb2dVertex
  10
 302.17065539843
  20
 16.191906399220
  30
0.0
   0
VERTEX
   5
C3
 100
AcDbEntity
   8
LEVEL001
   6
CONTINUOUS
  62
8
 100
AcDbVertex
 100
AcDb2dVertex
  10
 303.80529690786
  20
 16.191906399220
  30
0.0
   0
VERTEX
   5
C4
 100
AcDbEntity
   8
LEVEL001
   6
CONTINUOUS
  62
8
 100
AcDbVertex
 100
AcDb2dVertex
  10
 304.94265539843
  20
 23.726906399220
  30
0.0
   0
VERTEX
   5
C5
 100
AcDbEntity
   8
LEVEL001
   6
CONTINUOUS
  62
8
 100
AcDbVertex
 100
AcDb2dVertex
  10
 308.28665539843
  20
 23.726906399220
  30
0.0
   0
VERTEX
   5
C6
 100
AcDbEntity
   8
LEVEL001
   6
CONTINUOUS
  62
8
 100
AcDbVertex
 100
AcDb2dVertex
  10
 307.14929690786
  20
 16.191906399220
  30
0.0
   0
VERTEX
   5
C7
 100
AcDbEntity
   8
LEVEL001
   6
CONTINUOUS
  62
8
 100
AcDbVertex
 100
AcDb2dVertex
  10
 307.97429690786
  20
 16.191906399220
  30
0.0
   0
VERTEX
   5
C8
 100
AcDbEntity
   8
LEVEL001
   6
CONTINUOUS
  62
8
 100
AcDbVertex
 100
AcDb2dVertex
  10
 307.49797615315
  20
 18.501906399220
  30
0.0
   0
SEQEND
   5
C9
 100
AcDbEntity
   8
LEVEL001
   6
CONTINUOUS
  62
8
   0
ENDBLK
   5
CA
 100
AcDbEntity
   8
0
 100
AcDbBlockEnd
   0
BLOCK
   5
CB
 100
AcDbEntity
   8
0
 100
AcDbBlockBegin
   2
BLOCK002
  70
64
  10
0.0
  20
0.0
  30
0.0
   3
BLOCK002
   0
POLYLINE
   5
CC
 100
AcDbEntity
   8
LEVEL001
   6
CONTINUOUS
  62
8
 100
AcDb2dPolyline
  66
1
  10
0.0
  20
0.0
  30
0.0
  70
0
   0
VERTEX
   5
CD
 100
AcDbEntity
   8
LEVEL001
   6
CONTINUOUS
  62
8
 100
AcDbVertex
 100
AcDb2dVertex
  10
 307.49797615315
  20
 18.501906399220
  30
0.0
   0
VERTEX
   5
CE
 100
AcDbEntity
   8
LEVEL001
   6
CONTINUOUS
  62
8
 100
AcDbVertex
 100
AcDb2dVertex
  10
 310.79465539843
  20
 23.726906399220
  30
0.0
   0
VERTEX
   5
CF
 100
AcDbEntity
   8
LEVEL001
   6
CONTINUOUS
  62
8
 100
AcDbVertex
 100
AcDb2dVertex
  10
 314.13865539843
  20
 23.726906399220
  30
0.0
   0
VERTEX
   5
D0
 100
AcDbEntity
   8
LEVEL001
   6
CONTINUOUS
  62
8
 100
AcDbVertex
 100
AcDb2dVertex
  10
 310.84197615315
  20
 18.501906399220
  30
0.0
   0
VERTEX
   5
D1
 100
AcDbEntity
   8
LEVEL001
   6
CONTINUOUS
  62
8
 100
AcDbVertex
 100
AcDb2dVertex
  10
 311.48329690786
  20
 16.191906399220
  30
0.0
   0
VERTEX
   5
D2
 100
AcDbEntity
   8
LEVEL001
   6
CONTINUOUS
  62
8
 100
AcDbVertex
 100
AcDb2dVertex
  10
 334.29065539843
  20
 16.191906399220
  30
0.0
   0
VERTEX
   5
D3
 100
AcDbEntity
   8
LEVEL001
   6
CONTINUOUS
  62
8
 100
AcDbVertex
 100
AcDb2dVertex
  10
 334.29065539843
  20
 15.839906399220
  30
0.0
   0
VERTEX
   5
D4
 100
AcDbEntity
   8
LEVEL001
   6
CONTINUOUS
  62
8
 100
AcDbVertex
 100
AcDb2dVertex
  10
 311.58102197525
  20
 15.839906399220
  30
0.0
   0
VERTEX
   5
D5
 100
AcDbEntity
   8
LEVEL001
   6
CONTINUOUS
  62
8
 100
AcDbVertex
 100
AcDb2dVertex
  10
 312.46665539843
  20
 12.649906399220
  30
0.0
   0
VERTEX
   5
D6
 100
AcDbEntity
   8
LEVEL001
   6
CONTINUOUS
  62
8
 100
AcDbVertex
 100
AcDb2dVertex
  10
 308.70465539843
  20
 12.649906399220
  30
0.0
   0
VERTEX
   5
D7
 100
AcDbEntity
   8
LEVEL001
   6
CONTINUOUS
  62
8
 100
AcDbVertex
 100
AcDb2dVertex
  10
 308.04687911811
  20
 15.839906399220
  30
0.0
   0
VERTEX
   5
D8
 100
AcDbEntity
   8
LEVEL001
   6
CONTINUOUS
  62
8
 100
AcDbVertex
 100
AcDb2dVertex
  10
 307.09616483239
  20
 15.839906399220
  30
0.0
   0
VERTEX
   5
D9
 100
AcDbEntity
   8
LEVEL001
   6
CONTINUOUS
  62
8
 100
AcDbVertex
 100
AcDb2dVertex
  10
 306.61465539843
  20
 12.649906399220
  30
0.0
   0
VERTEX
   5
DA
 100
AcDbEntity
   8
LEVEL001
   6
CONTINUOUS
  62
8
 100
AcDbVertex
 100
AcDb2dVertex
  10
 303.27065539843
  20
 12.649906399220
  30
0.0
   0
VERTEX
   5
DB
 100
AcDbEntity
   8
LEVEL001
   6
CONTINUOUS
  62
8
 100
AcDbVertex
 100
AcDb2dVertex
  10
 303.75216483239
  20
 15.839906399220
  30
0.0
   0
VERTEX
   5
DC
 100
AcDbEntity
   8
LEVEL001
   6
CONTINUOUS
  62
8
 100
AcDbVertex
 100
AcDb2dVertex
  10
 302.17065539843
  20
 15.839906399220
  30
0.0
   0
VERTEX
   5
DD
 100
AcDbEntity
   8
LEVEL001
   6
CONTINUOUS
  62
8
 100
AcDbVertex
 100
AcDb2dVertex
  10
 302.17065539843
  20
 16.191906399220
  30
0.0
   0
VERTEX
   5
DE
 100
AcDbEntity
   8
LEVEL001
   6
CONTINUOUS
  62
8
 100
AcDbVertex
 100
AcDb2dVertex
  10
 303.80529690786
  20
 16.191906399220
  30
0.0
   0
VERTEX
   5
DF
 100
AcDbEntity
   8
LEVEL001
   6
CONTINUOUS
  62
8
 100
AcDbVertex
 100
AcDb2dVertex
  10
 304.94265539843
  20
 23.726906399220
  30
0.0
   0
VERTEX
   5
E0
 100
AcDbEntity
   8
LEVEL001
   6
CONTINUOUS
  62
8
 100
AcDbVertex
 100
AcDb2dVertex
  10
 308.28665539843
  20
 23.726906399220
  30
0.0
   0
VERTEX
   5
E1
 100
AcDbEntity
   8
LEVEL001
   6
CONTINUOUS
  62
8
 100
AcDbVertex
 100
AcDb2dVertex
  10
 307.14929690786
  20
 16.191906399220
  30
0.0
   0
VERTEX
   5
E2
 100
AcDbEntity
   8
LEVEL001
   6
CONTINUOUS
  62
8
 100
AcDbVertex
 100
AcDb2dVertex
  10
 307.97429690786
  20
 16.191906399220
  30
0.0
   0
VERTEX
   5
E3
 100
AcDbEntity
   8
LEVEL001
   6
CONTINUOUS
  62
8
 100
AcDbVertex
 100
AcDb2dVertex
  10
 307.49797615315
  20
 18.501906399220
  30
0.0
   0
SEQEND
   5
E4
 100
AcDbEntity
   8
LEVEL001
   6
CONTINUOUS
  62
8
   0
ENDBLK
   5
E5
 100
AcDbEntity
   8
0
 100
AcDbBlockEnd
   0
BLOCK
   5
E6
 100
AcDbEntity
   8
0
 100
AcDbBlockBegin
   2
*D1
  70
65
  10
0.0
  20
0.0
  30
0.0
   3
*D1
   0
LINE
   5
E7
 100
AcDbEntity
   8
LEVEL001
 100
AcDbLine
   6
CONTINUOUS
  62
2
  10
 125.19305250241
  20
 204.17233348859
  30
0.0
  11
 128.36119409533
  21
 204.17233348859
  31
0.0
   0
LINE
   5
E8
 100
AcDbEntity
   8
LEVEL001
 100
AcDbLine
   6
CONTINUOUS
  62
2
  10
 124.25853922807
  20
 197.17233348859
  30
0.0
  11
 128.36119409533
  21
 197.17233348859
  31
0.0
   0
LINE
   5
E9
 100
AcDbEntity
   8
LEVEL001
 100
AcDbLine
   6
CONTINUOUS
  62
2
  10
 126.36119409533
  20
 213.36731873933
  30
0.0
  11
 126.36119409533
  21
 200.67233348859
  31
0.0
   0
LINE
   5
EA
 100
AcDbEntity
   8
LEVEL001
 100
AcDbLine
   6
CONTINUOUS
  62
2
  10
 126.36119409533
  20
 193.42233348859
  30
0.0
  11
 126.36119409533
  21
 200.67233348859
  31
0.0
   0
INSERT
   5
EB
 100
AcDbEntity
   8
LEVEL001
   6
CONTINUOUS
  62
2
 100
AcDbBlockReference
   2
_OPEN30
  10
 126.36119409533
  20
 204.17233348859
  30
0.0
  41
 3.0000000000000
  42
 3.0000000000000
  43
 3.0000000000000
  50
 270.00000000000
   0
INSERT
   5
EC
 100
AcDbEntity
   8
LEVEL001
   6
CONTINUOUS
  62
2
 100
AcDbBlockReference
   2
_OPEN30
  10
 126.36119409533
  20
 197.17233348859
  30
0.0
  41
 3.0000000000000
  42
 3.0000000000000
  43
 3.0000000000000
  50
 90.000000000000
   0
MTEXT
   5
ED
 100
AcDbEntity
   8
LEVEL001
  62
2
 100
AcDbMText
  10
 124.64690838104
  20
 211.36731873933
  30
0.0
  40
 4.0000000000000
  41
0.0
  71
8
  72
1
   1
\A1;7
   7
GMM001
  11
0.0
  21
 1.0000000000000
  31
0.0
   0
ENDBLK
   5
EE
 100
AcDbEntity
   8
0
 100
AcDbBlockEnd
   0
BLOCK
   5
EF
 100
AcDbEntity
   8
0
 100
AcDbBlockBegin
   2
*D2
  70
65
  10
0.0
  20
0.0
  30
0.0
   3
*D2
   0
LINE
   5
F0
 100
AcDbEntity
   8
LEVEL001
 100
AcDbLine
   6
CONTINUOUS
  62
2
  10
 98.395394736842
  20
 177.08206800186
  30
0.0
  11
 98.395394736842
  21
 165.44464139296
  31
0.0
   0
LINE
   5
F1
 100
AcDbEntity
   8
LEVEL001
 100
AcDbLine
   6
CONTINUOUS
  62
2
  10
 204.39539473684
  20
 177.08206800186
  30
0.0
  11
 204.39539473684
  21
 165.44464139296
  31
0.0
   0
LINE
   5
F2
 100
AcDbEntity
   8
LEVEL001
 100
AcDbLine
   6
CONTINUOUS
  62
2
  10
 98.395394736842
  20
 167.44464139296
  30
0.0
  11
 151.39539473684
  21
 167.44464139296
  31
0.0
   0
LINE
   5
F3
 100
AcDbEntity
   8
LEVEL001
 100
AcDbLine
   6
CONTINUOUS
  62
2
  10
 204.39539473684
  20
 167.44464139296
  30
0.0
  11
 151.39539473684
  21
 167.44464139296
  31
0.0
   0
INSERT
   5
F4
 100
AcDbEntity
   8
LEVEL001
   6
CONTINUOUS
  62
2
 100
AcDbBlockReference
   2
_OPEN30
  10
 98.395394736842
  20
 167.44464139296
  30
0.0
  41
 3.0000000000000
  42
 3.0000000000000
  43
 3.0000000000000
  50
 180.00000000000
   0
INSERT
   5
F5
 100
AcDbEntity
   8
LEVEL001
   6
CONTINUOUS
  62
2
 100
AcDbBlockReference
   2
_OPEN30
  10
 204.39539473684
  20
 167.44464139296
  30
0.0
  41
 3.0000000000000
  42
 3.0000000000000
  43
 3.0000000000000
  50
0.0
   0
MTEXT
   5
F6
 100
AcDbEntity
   8
LEVEL001
  62
2
 100
AcDbMText
  10
 151.39539473684
  20
 169.15892710725
  30
0.0
  40
 4.0000000000000
  41
0.0
  71
8
  72
1
   1
\A1;106
   7
GMM001
   0
ENDBLK
   5
F7
 100
AcDbEntity
   8
0
 100
AcDbBlockEnd
   0
BLOCK
   5
F8
 100
AcDbEntity
   8
0
 100
AcDbBlockBegin
   2
*D3
  70
65
  10
0.0
  20
0.0
  30
0.0
   3
*D3
   0
LINE
   5
F9
 100
AcDbEntity
   8
LEVEL001
 100
AcDbLine
   6
CONTINUOUS
  62
2
  10
 91.395394736842
  20
 172.96411051389
  30
0.0
  11
 91.395394736842
  21
 157.03402192394
  31
0.0
   0
LINE
   5
FA
 100
AcDbEntity
   8
LEVEL001
 100
AcDbLine
   6
CONTINUOUS
  62
2
  10
 211.39539473684
  20
 172.96411051389
  30
0.0
  11
 211.39539473684
  21
 157.03402192394
  31
0.0
   0
LINE
   5
FB
 100
AcDbEntity
   8
LEVEL001
 100
AcDbLine
   6
CONTINUOUS
  62
2
  10
 91.395394736842
  20
 159.03402192394
  30
0.0
  11
 151.39539473684
  21
 159.03402192394
  31
0.0
   0
LINE
   5
FC
 100
AcDbEntity
   8
LEVEL001
 100
AcDbLine
   6
CONTINUOUS
  62
2
  10
 211.39539473684
  20
 159.03402192394
  30
0.0
  11
 151.39539473684
  21
 159.03402192394
  31
0.0
   0
INSERT
   5
FD
 100
AcDbEntity
   8
LEVEL001
   6
CONTINUOUS
  62
2
 100
AcDbBlockReference
   2
_OPEN30
  10
 91.395394736842
  20
 159.03402192394
  30
0.0
  41
 3.0000000000000
  42
 3.0000000000000
  43
 3.0000000000000
  50
 180.00000000000
   0
INSERT
   5
FE
 100
AcDbEntity
   8
LEVEL001
   6
CONTINUOUS
  62
2
 100
AcDbBlockReference
   2
_OPEN30
  10
 211.39539473684
  20
 159.03402192394
  30
0.0
  41
 3.0000000000000
  42
 3.0000000000000
  43
 3.0000000000000
  50
0.0
   0
MTEXT
   5
FF
 100
AcDbEntity
   8
LEVEL001
  62
2
 100
AcDbMText
  10
 151.39539473684
  20
 160.74830763822
  30
0.0
  40
 4.0000000000000
  41
0.0
  71
8
  72
1
   1
\A1;120
   7
GMM001
   0
ENDBLK
   5
100
 100
AcDbEntity
   8
0
 100
AcDbBlockEnd
   0
BLOCK
   5
101
 100
AcDbEntity
   8
0
 100
AcDbBlockBegin
   2
*D4
  70
65
  10
0.0
  20
0.0
  30
0.0
   3
*D4
   0
LINE
   5
102
 100
AcDbEntity
   8
LEVEL001
 100
AcDbLine
   6
CONTINUOUS
  62
2
  10
 84.395394736842
  20
 177.08206800186
  30
0.0
  11
 84.395394736842
  21
 147.37738475579
  31
0.0
   0
LINE
   5
103
 100
AcDbEntity
   8
LEVEL001
 100
AcDbLine
   6
CONTINUOUS
  62
2
  10
 218.39539473684
  20
 177.08206800186
  30
0.0
  11
 218.39539473684
  21
 147.37738475579
  31
0.0
   0
LINE
   5
104
 100
AcDbEntity
   8
LEVEL001
 100
AcDbLine
   6
CONTINUOUS
  62
2
  10
 84.395394736842
  20
 149.37738475579
  30
0.0
  11
 151.39539473684
  21
 149.37738475579
  31
0.0
   0
LINE
   5
105
 100
AcDbEntity
   8
LEVEL001
 100
AcDbLine
   6
CONTINUOUS
  62
2
  10
 218.39539473684
  20
 149.37738475579
  30
0.0
  11
 151.39539473684
  21
 149.37738475579
  31
0.0
   0
INSERT
   5
106
 100
AcDbEntity
   8
LEVEL001
   6
CONTINUOUS
  62
2
 100
AcDbBlockReference
   2
_OPEN30
  10
 84.395394736842
  20
 149.37738475579
  30
0.0
  41
 3.0000000000000
  42
 3.0000000000000
  43
 3.0000000000000
  50
 180.00000000000
   0
INSERT
   5
107
 100
AcDbEntity
   8
LEVEL001
   6
CONTINUOUS
  62
2
 100
AcDbBlockReference
   2
_OPEN30
  10
 218.39539473684
  20
 149.37738475579
  30
0.0
  41
 3.0000000000000
  42
 3.0000000000000
  43
 3.0000000000000
  50
0.0
   0
MTEXT
   5
108
 100
AcDbEntity
   8
LEVEL001
  62
2
 100
AcDbMText
  10
 151.39539473684
  20
 151.09167047008
  30
0.0
  40
 4.0000000000000
  41
0.0
  71
8
  72
1
   1
\A1;134
   7
GMM001
   0
ENDBLK
   5
109
 100
AcDbEntity
   8
0
 100
AcDbBlockEnd
   0
BLOCK
   5
10A
 100
AcDbEntity
   8
0
 100
AcDbBlockBegin
   2
*D5
  70
65
  10
0.0
  20
0.0
  30
0.0
   3
*D5
   0
LINE
   5
10B
 100
AcDbEntity
   8
LEVEL001
 100
AcDbLine
   6
CONTINUOUS
  62
2
  10
 219.32990801118
  20
 178.17233348859
  30
0.0
  11
 235.74120436609
  21
 178.17233348859
  31
0.0
   0
LINE
   5
10C
 100
AcDbEntity
   8
LEVEL001
 100
AcDbLine
   6
CONTINUOUS
  62
2
  10
 219.32990801118
  20
 204.17233348859
  30
0.0
  11
 235.74120436609
  21
 204.17233348859
  31
0.0
   0
LINE
   5
10D
 100
AcDbEntity
   8
LEVEL001
 100
AcDbLine
   6
CONTINUOUS
  62
2
  10
 233.74120436609
  20
 178.17233348859
  30
0.0
  11
 233.74120436609
  21
 191.17233348859
  31
0.0
   0
LINE
   5
10E
 100
AcDbEntity
   8
LEVEL001
 100
AcDbLine
   6
CONTINUOUS
  62
2
  10
 233.74120436609
  20
 204.17233348859
  30
0.0
  11
 233.74120436609
  21
 191.17233348859
  31
0.0
   0
INSERT
   5
10F
 100
AcDbEntity
   8
LEVEL001
   6
CONTINUOUS
  62
2
 100
AcDbBlockReference
   2
_OPEN30
  10
 233.74120436609
  20
 178.17233348859
  30
0.0
  41
 3.0000000000000
  42
 3.0000000000000
  43
 3.0000000000000
  50
 270.00000000000
   0
INSERT
   5
110
 100
AcDbEntity
   8
LEVEL001
   6
CONTINUOUS
  62
2
 100
AcDbBlockReference
   2
_OPEN30
  10
 233.74120436609
  20
 204.17233348859
  30
0.0
  41
 3.0000000000000
  42
 3.0000000000000
  43
 3.0000000000000
  50
 90.000000000000
   0
MTEXT
   5
111
 100
AcDbEntity
   8
LEVEL001
  62
2
 100
AcDbMText
  10
 232.02691865180
  20
 191.17233348859
  30
0.0
  40
 4.0000000000000
  41
0.0
  71
8
  72
1
   1
\A1;26
   7
GMM001
  11
0.0
  21
 1.0000000000000
  31
0.0
   0
ENDBLK
   5
112
 100
AcDbEntity
   8
0
 100
AcDbBlockEnd
   0
BLOCK
   5
113
 100
AcDbEntity
   8
0
 100
AcDbBlockBegin
   2
*D6
  70
65
  10
0.0
  20
0.0
  30
0.0
   3
*D6
   0
LINE
   5
114
 100
AcDbEntity
   8
LEVEL001
 100
AcDbLine
   6
CONTINUOUS
  62
2
  10
 218.87995717539
  20
 132.95217332897
  30
0.0
  11
 235.74120436609
  21
 132.95217332897
  31
0.0
   0
LINE
   5
115
 100
AcDbEntity
   8
LEVEL001
 100
AcDbLine
   6
CONTINUOUS
  62
2
  10
 218.87995717539
  20
 124.95217332897
  30
0.0
  11
 235.74120436609
  21
 124.95217332897
  31
0.0
   0
LINE
   5
116
 100
AcDbEntity
   8
LEVEL001
 100
AcDbLine
   6
CONTINUOUS
  62
2
  10
 233.74120436609
  20
 132.95217332897
  30
0.0
  11
 233.74120436609
  21
 128.95217332897
  31
0.0
   0
LINE
   5
117
 100
AcDbEntity
   8
LEVEL001
 100
AcDbLine
   6
CONTINUOUS
  62
2
  10
 233.74120436609
  20
 124.95217332897
  30
0.0
  11
 233.74120436609
  21
 128.95217332897
  31
0.0
   0
INSERT
   5
118
 100
AcDbEntity
   8
LEVEL001
   6
CONTINUOUS
  62
2
 100
AcDbBlockReference
   2
_OPEN30
  10
 233.74120436609
  20
 132.95217332897
  30
0.0
  41
 3.0000000000000
  42
 3.0000000000000
  43
 3.0000000000000
  50
 90.000000000000
   0
INSERT
   5
119
 100
AcDbEntity
   8
LEVEL001
   6
CONTINUOUS
  62
2
 100
AcDbBlockReference
   2
_OPEN30
  10
 233.74120436609
  20
 124.95217332897
  30
0.0
  41
 3.0000000000000
  42
 3.0000000000000
  43
 3.0000000000000
  50
 270.00000000000
   0
MTEXT
   5
11A
 100
AcDbEntity
   8
LEVEL001
  62
2
 100
AcDbMText
  10
 232.02691865180
  20
 128.95217332897
  30
0.0
  40
 4.0000000000000
  41
0.0
  71
8
  72
1
   1
\A1;8
   7
GMM001
  11
0.0
  21
 1.0000000000000
  31
0.0
   0
ENDBLK
   5
11B
 100
AcDbEntity
   8
0
 100
AcDbBlockEnd
   0
BLOCK
   5
11C
 100
AcDbEntity
   8
0
 100
AcDbBlockBegin
   2
*D7
  70
65
  10
0.0
  20
0.0
  30
0.0
   3
*D7
   0
LINE
   5
11D
 100
AcDbEntity
   8
LEVEL001
 100
AcDbLine
   6
CONTINUOUS
  62
2
  10
 216.39539473684
  20
 202.17233348859
  30
0.0
  11
 217.06044351942
  21
 202.91913340610
  31
0.0
   0
LINE
   5
11E
 100
AcDbEntity
   8
LEVEL001
 100
AcDbLine
   6
CONTINUOUS
  62
2
  10
 217.06044351942
  20
 202.91913340610
  30
0.0
  11
 225.32441764748
  21
 212.19895671959
  31
0.0
   0
INSERT
   5
11F
 100
AcDbEntity
   8
LEVEL001
   6
CONTINUOUS
  62
2
 100
AcDbBlockReference
   2
_OPEN30
  10
 217.72549230199
  20
 203.66593332361
  30
0.0
  41
 3.0000000000000
  42
 3.0000000000000
  43
 3.0000000000000
  50
 228.31393203207
   0
MTEXT
   5
120
 100
AcDbEntity
   8
LEVEL001
  62
2
 100
AcDbMText
  10
 218.72379895686
  20
 207.36464100677
  30
0.0
  40
 4.0000000000000
  41
0.0
  71
7
  72
1
   1
\A1;R2
   7
GMM001
  11
 0.66504878257543
  21
 0.74679991751133
  31
0.0
   0
ENDBLK
   5
121
 100
AcDbEntity
   8
0
 100
AcDbBlockEnd
   0
BLOCK
   5
122
 100
AcDbEntity
   8
0
 100
AcDbBlockBegin
   2
*D8
  70
65
  10
0.0
  20
0.0
  30
0.0
   3
*D8
   0
LINE
   5
123
 100
AcDbEntity
   8
LEVEL001
 100
AcDbLine
   6
CONTINUOUS
  62
2
  10
 217.39539473684
  20
 131.95217332897
  30
0.0
  11
 217.74293764644
  21
 132.31163671512
  31
0.0
   0
LINE
   5
124
 100
AcDbEntity
   8
LEVEL001
 100
AcDbLine
   6
CONTINUOUS
  62
2
  10
 217.74293764644
  20
 132.31163671512
  30
0.0
  11
 225.64408708027
  21
 140.48378999899
  31
0.0
   0
INSERT
   5
125
 100
AcDbEntity
   8
LEVEL001
   6
CONTINUOUS
  62
2
 100
AcDbBlockReference
   2
_OPEN30
  10
 218.09048055605
  20
 132.67110010128
  30
0.0
  41
 3.0000000000000
  42
 3.0000000000000
  43
 3.0000000000000
  50
 225.96594371473
   0
MTEXT
   5
126
 100
AcDbEntity
   8
LEVEL001
  62
2
 100
AcDbMText
  10
 218.85095463125
  20
 135.92395151059
  30
0.0
  40
 4.0000000000000
  41
0.0
  71
7
  72
1
   1
\A1;R1
   7
GMM001
  11
 0.69508581920436
  21
 0.71892677230786
  31
0.0
   0
ENDBLK
   5
127
 100
AcDbEntity
   8
0
 100
AcDbBlockEnd
   0
BLOCK
   5
128
 100
AcDbEntity
   8
0
 100
AcDbBlockBegin
   2
*D9
  70
65
  10
0.0
  20
0.0
  30
0.0
   3
*D9
   0
LINE
   5
129
 100
AcDbEntity
   8
LEVEL001
 100
AcDbLine
   6
CONTINUOUS
  62
2
  10
 257.57423751151
  20
 204.64145836568
  30
0.0
  11
 257.57423751151
  21
 215.72847719725
  31
0.0
   0
LINE
   5
12A
 100
AcDbEntity
   8
LEVEL001
 100
AcDbLine
   6
CONTINUOUS
  62
2
  10
 264.57423751151
  20
 204.64145836568
  30
0.0
  11
 264.57423751151
  21
 215.72847719725
  31
0.0
   0
LINE
   5
12B
 100
AcDbEntity
   8
LEVEL001
 100
AcDbLine
   6
CONTINUOUS
  62
2
  10
 257.57423751151
  20
 213.72847719725
  30
0.0
  11
 261.07423751151
  21
 213.72847719725
  31
0.0
   0
LINE
   5
12C
 100
AcDbEntity
   8
LEVEL001
 100
AcDbLine
   6
CONTINUOUS
  62
2
  10
 264.57423751151
  20
 213.72847719725
  30
0.0
  11
 261.07423751151
  21
 213.72847719725
  31
0.0
   0
INSERT
   5
12D
 100
AcDbEntity
   8
LEVEL001
   6
CONTINUOUS
  62
2
 100
AcDbBlockReference
   2
_OPEN30
  10
 257.57423751151
  20
 213.72847719725
  30
0.0
  41
 3.0000000000000
  42
 3.0000000000000
  43
 3.0000000000000
  50
 180.00000000000
   0
INSERT
   5
12E
 100
AcDbEntity
   8
LEVEL001
   6
CONTINUOUS
  62
2
 100
AcDbBlockReference
   2
_OPEN30
  10
 264.57423751151
  20
 213.72847719725
  30
0.0
  41
 3.0000000000000
  42
 3.0000000000000
  43
 3.0000000000000
  50
0.0
   0
MTEXT
   5
12F
 100
AcDbEntity
   8
LEVEL001
  62
2
 100
AcDbMText
  10
 261.07423751151
  20
 215.44276291154
  30
0.0
  40
 4.0000000000000
  41
0.0
  71
8
  72
1
   1
\A1;7
   7
GMM001
   0
ENDBLK
   5
130
 100
AcDbEntity
   8
0
 100
AcDbBlockEnd
   0
BLOCK
   5
131
 100
AcDbEntity
   8
0
 100
AcDbBlockBegin
   2
*D10
  70
65
  10
0.0
  20
0.0
  30
0.0
   3
*D10
   0
LINE
   5
132
 100
AcDbEntity
   8
LEVEL001
 100
AcDbLine
   6
CONTINUOUS
  62
2
  10
 274.63895382198
  20
 214.73704979906
  30
0.0
  11
 264.07423751151
  21
 204.17233348859
  31
0.0
   0
INSERT
   5
133
 100
AcDbEntity
   8
LEVEL001
   6
CONTINUOUS
  62
2
 100
AcDbBlockReference
   2
_OPEN30
  10
 264.07423751151
  20
 204.17233348859
  30
0.0
  41
 3.0000000000000
  42
 3.0000000000000
  43
 3.0000000000000
  50
 45.000000000000
   0
MTEXT
   5
134
 100
AcDbEntity
   8
LEVEL001
  62
2
 100
AcDbMText
  10
 267.76991651902
  20
 210.29237860303
  30
0.0
  40
 4.0000000000000
  41
0.0
  71
7
  72
1
   1
\A1;C1
   7
GMM001
  11
 0.70710678118655
  21
 0.70710678118655
  31
0.0
   0
ENDBLK
   5
135
 100
AcDbEntity
   8
0
 100
AcDbBlockEnd
   0
BLOCK
   5
136
 100
AcDbEntity
   8
0
 100
AcDbBlockBegin
   2
*D11
  70
65
  10
0.0
  20
0.0
  30
0.0
   3
*D11
   0
LINE
   5
137
 100
AcDbEntity
   8
LEVEL001
 100
AcDbLine
   6
CONTINUOUS
  62
2
  10
 257.07423751151
  20
 177.53015059773
  30
0.0
  11
 257.07423751151
  21
 165.44464139296
  31
0.0
   0
LINE
   5
138
 100
AcDbEntity
   8
LEVEL001
 100
AcDbLine
   6
CONTINUOUS
  62
2
  10
 265.07423751151
  20
 177.53015059773
  30
0.0
  11
 265.07423751151
  21
 165.44464139296
  31
0.0
   0
LINE
   5
139
 100
AcDbEntity
   8
LEVEL001
 100
AcDbLine
   6
CONTINUOUS
  62
2
  10
 257.07423751151
  20
 167.44464139296
  30
0.0
  11
 261.07423751151
  21
 167.44464139296
  31
0.0
   0
LINE
   5
13A
 100
AcDbEntity
   8
LEVEL001
 100
AcDbLine
   6
CONTINUOUS
  62
2
  10
 265.07423751151
  20
 167.44464139296
  30
0.0
  11
 261.07423751151
  21
 167.44464139296
  31
0.0
   0
INSERT
   5
13B
 100
AcDbEntity
   8
LEVEL001
   6
CONTINUOUS
  62
2
 100
AcDbBlockReference
   2
_OPEN30
  10
 257.07423751151
  20
 167.44464139296
  30
0.0
  41
 3.0000000000000
  42
 3.0000000000000
  43
 3.0000000000000
  50
 180.00000000000
   0
INSERT
   5
13C
 100
AcDbEntity
   8
LEVEL001
   6
CONTINUOUS
  62
2
 100
AcDbBlockReference
   2
_OPEN30
  10
 265.07423751151
  20
 167.44464139296
  30
0.0
  41
 3.0000000000000
  42
 3.0000000000000
  43
 3.0000000000000
  50
0.0
   0
MTEXT
   5
13D
 100
AcDbEntity
   8
LEVEL001
  62
2
 100
AcDbMText
  10
 261.07423751151
  20
 169.15892710725
  30
0.0
  40
 4.0000000000000
  41
0.0
  71
8
  72
1
   1
\A1;8
   7
GMM001
   0
ENDBLK
   5
13E
 100
AcDbEntity
   8
0
 100
AcDbBlockEnd
   0
BLOCK
   5
13F
 100
AcDbEntity
   8
0
 100
AcDbBlockBegin
   2
*D12
  70
65
  10
0.0
  20
0.0
  30
0.0
   3
*D12
   0
LINE
   5
140
 100
AcDbEntity
   8
LEVEL001
 100
AcDbLine
   6
CONTINUOUS
  62
2
  10
 204.39539473684
  20
 124.12149486289
  30
0.0
  11
 204.39539473684
  21
 110.03963034983
  31
0.0
   0
LINE
   5
141
 100
AcDbEntity
   8
LEVEL001
 100
AcDbLine
   6
CONTINUOUS
  62
2
  10
 218.39539473684
  20
 124.12149486289
  30
0.0
  11
 218.39539473684
  21
 110.03963034983
  31
0.0
   0
LINE
   5
142
 100
AcDbEntity
   8
LEVEL001
 100
AcDbLine
   6
CONTINUOUS
  62
2
  10
 204.39539473684
  20
 112.03963034983
  30
0.0
  11
 211.39539473684
  21
 112.03963034983
  31
0.0
   0
LINE
   5
143
 100
AcDbEntity
   8
LEVEL001
 100
AcDbLine
   6
CONTINUOUS
  62
2
  10
 218.39539473684
  20
 112.03963034983
  30
0.0
  11
 211.39539473684
  21
 112.03963034983
  31
0.0
   0
INSERT
   5
144
 100
AcDbEntity
   8
LEVEL001
   6
CONTINUOUS
  62
2
 100
AcDbBlockReference
   2
_OPEN30
  10
 204.39539473684
  20
 112.03963034983
  30
0.0
  41
 3.0000000000000
  42
 3.0000000000000
  43
 3.0000000000000
  50
 180.00000000000
   0
INSERT
   5
145
 100
AcDbEntity
   8
LEVEL001
   6
CONTINUOUS
  62
2
 100
AcDbBlockReference
   2
_OPEN30
  10
 218.39539473684
  20
 112.03963034983
  30
0.0
  41
 3.0000000000000
  42
 3.0000000000000
  43
 3.0000000000000
  50
0.0
   0
MTEXT
   5
146
 100
AcDbEntity
   8
LEVEL001
  62
2
 100
AcDbMText
  10
 211.39539473684
  20
 113.75391606411
  30
0.0
  40
 4.0000000000000
  41
0.0
  71
8
  72
1
   1
\A1;14
   7
GMM001
   0
ENDBLK
   5
147
 100
AcDbEntity
   8
0
 100
AcDbBlockEnd
   0
BLOCK
   5
148
 100
AcDbEntity
   8
0
 100
AcDbBlockBegin
   2
*D13
  70
65
  10
0.0
  20
0.0
  30
0.0
   3
*D13
   0
POLYLINE
   5
149
 100
AcDbEntity
   8
LEVEL001
   6
CONTINUOUS
  62
2
 100
AcDb2dPolyline
  66
1
  10
0.0
  20
0.0
  30
0.0
  70
0
   0
VERTEX
   5
14A
 100
AcDbEntity
   8
LEVEL001
   6
CONTINUOUS
  62
2
 100
AcDbVertex
 100
AcDb2dVertex
  10
 91.395394736842
  20
 128.95217332897
  30
0.0
   0
VERTEX
   5
14B
 100
AcDbEntity
   8
LEVEL001
   6
CONTINUOUS
  62
2
 100
AcDbVertex
 100
AcDb2dVertex
  10
 97.695201688259
  20
 109.98970314065
  30
0.0
   0
VERTEX
   5
14C
 100
AcDbEntity
   8
LEVEL001
   6
CONTINUOUS
  62
2
 100
AcDbVertex
 100
AcDb2dVertex
  10
 143.69520168826
  20
 109.98970314065
  30
0.0
   0
SEQEND
   5
14D
 100
AcDbEntity
   8
LEVEL001
   6
CONTINUOUS
  62
2
   0
INSERT
   5
14E
 100
AcDbEntity
   8
LEVEL001
   6
CONTINUOUS
  62
2
 100
AcDbBlockReference
   2
_OPEN30
  10
 91.395394736842
  20
 128.95217332897
  30
0.0
  41
 3.0000000000000
  42
 3.0000000000000
  43
 3.0000000000000
  50
 108.37777808988
   0
MTEXT
   5
14F
 100
AcDbEntity
   8
LEVEL001
  62
2
 100
AcDbMText
  10
 97.695201688259
  20
 111.70398885493
  30
0.0
  40
 4.0000000000000
  41
0.0
  71
7
  72
1
   1
\A1;２－Ｍ４タップ 有効１１
   7
GMM001
   0
ENDBLK
   5
150
 100
AcDbEntity
   8
0
 100
AcDbBlockEnd
   0
ENDSEC
   0
SECTION
   2
ENTITIES
   0
POLYLINE
   5
151
 100
AcDbEntity
   8
LEVEL001
   6
CONTINUOUS
  62
3
 100
AcDb2dPolyline
  66
1
  10
0.0
  20
0.0
  30
0.0
  70
0
   0
VERTEX
   5
152
 100
AcDbEntity
   8
LEVEL001
   6
CONTINUOUS
  62
3
 100
AcDbVertex
 100
AcDb2dVertex
  10
 13.918643439585
  20
 10.623482664101
  30
0.0
   0
VERTEX
   5
153
 100
AcDbEntity
   8
LEVEL001
   6
CONTINUOUS
  62
3
 100
AcDbVertex
 100
AcDb2dVertex
  10
 13.918643439585
  20
 277.50000000000
  30
0.0
   0
VERTEX
   5
154
 100
AcDbEntity
   8
LEVEL001
   6
CONTINUOUS
  62
3
 100
AcDbVertex
 100
AcDb2dVertex
  10
 401.91864343959
  20
 277.50000000000
  30
0.0
   0
VERTEX
   5
155
 100
AcDbEntity
   8
LEVEL001
   6
CONTINUOUS
  62
3
 100
AcDbVertex
 100
AcDb2dVertex
  10
 401.91864343959
  20
 10.623482664101
  30
0.0
   0
VERTEX
   5
156
 100
AcDbEntity
   8
LEVEL001
   6
CONTINUOUS
  62
3
 100
AcDbVertex
 100
AcDb2dVertex
  10
 13.918643439585
  20
 10.623482664101
  30
0.0
   0
SEQEND
   5
157
 100
AcDbEntity
   8
LEVEL001
   6
CONTINUOUS
  62
3
   0
LINE
   5
158
 100
AcDbEntity
   8
LEVEL001
 100
AcDbLine
   6
CONTINUOUS
  62
3
  10
 391.91864343959
  20
 20.623482664101
  30
0.0
  11
 401.91864343959
  21
 20.623482664101
  31
0.0
   0
TEXT
   5
159
 100
AcDbEntity
   8
LEVEL001
  62
3
 100
AcDbText
  10
 392.83691101920
  20
 21.222201934655
  30
0.0
  40
 2.5000000000000
   1
ＲＥＶ.
   7
STANDARD
  72
1
  11
 397.21191101920
  21
 22.888868601321
  31
0.0
 100
AcDbText
  73
2
   0
LINE
   5
15A
 100
AcDbEntity
   8
LEVEL001
 100
AcDbLine
   6
CONTINUOUS
  62
3
  10
 391.91864343959
  20
 15.623482664101
  30
0.0
  11
 401.91864343959
  21
 15.623482664101
  31
0.0
   0
LINE
   5
15B
 100
AcDbEntity
   8
LEVEL001
 100
AcDbLine
   6
CONTINUOUS
  62
3
  10
 396.91864343959
  20
 20.623482664101
  30
0.0
  11
 396.91864343959
  21
 10.623482664101
  31
0.0
   0
LINE
   5
15C
 100
AcDbEntity
   8
LEVEL001
 100
AcDbLine
   6
CONTINUOUS
  62
3
  10
 340.91864343959
  20
 10.623482664101
  30
0.0
  11
 340.91864343959
  21
 25.623482664101
  31
0.0
   0
TEXT
   5
15D
 100
AcDbEntity
   8
LEVEL001
  62
3
 100
AcDbText
  10
 341.83137719671
  20
 22.387068135946
  30
0.0
  40
 2.5000000000000
   1
ＫＵＲＩＫＩ　ＷＯＲＫＳ　ＤＷＧ．ＮＯ．
  41
 0.80000000000000
   7
STANDARD
 100
AcDbText
   0
LINE
   5
15E
 100
AcDbEntity
   8
LEVEL001
 100
AcDbLine
   6
CONTINUOUS
  62
3
  10
 295.61559858025
  20
 25.623482664101
  30
0.0
  11
 295.61559858025
  21
 10.623482664101
  31
0.0
   0
LINE
   5
15F
 100
AcDbEntity
   8
LEVEL001
 100
AcDbLine
   6
CONTINUOUS
  62
3
  10
 279.33062661293
  20
 25.623482664101
  30
0.0
  11
 279.33062661293
  21
 10.623482664101
  31
0.0
   0
TEXT
   5
160
 100
AcDbEntity
   8
LEVEL001
  62
3
 100
AcDbText
  10
 277.85856144281
  20
 22.055162929662
  30
0.0
  40
 2.5000000000000
   1
ＰＲＯＪＥＣＴＩＯＮ
  41
 0.76000000000000
   7
STANDARD
  72
1
  11
 287.35856144281
  21
 23.721829596328
  31
0.0
 100
AcDbText
  73
2
   0
POLYLINE
   5
161
 100
AcDbEntity
   8
LEVEL001
   6
CONTINUOUS
  62
3
 100
AcDb2dPolyline
  66
1
  10
0.0
  20
0.0
  30
0.0
  70
0
   0
VERTEX
   5
162
 100
AcDbEntity
   8
LEVEL001
   6
CONTINUOUS
  62
3
 100
AcDbVertex
 100
AcDb2dVertex
  10
 287.32878649143
  20
 16.991901306721
  30
0.0
   0
VERTEX
   5
163
 100
AcDbEntity
   8
LEVEL001
   6
CONTINUOUS
  62
3
 100
AcDbVertex
 100
AcDb2dVertex
  10
 287.32878649143
  20
 14.001302906600
  30
0.0
   0
VERTEX
   5
164
 100
AcDbEntity
   8
LEVEL001
   6
CONTINUOUS
  62
3
 100
AcDbVertex
 100
AcDb2dVertex
  10
 293.35712748966
  20
 13.203904941814
  30
0.0
   0
VERTEX
   5
165
 100
AcDbEntity
   8
LEVEL001
   6
CONTINUOUS
  62
3
 100
AcDbVertex
 100
AcDb2dVertex
  10
 293.35712748966
  20
 17.789299271507
  30
0.0
   0
VERTEX
   5
166
 100
AcDbEntity
   8
LEVEL001
   6
CONTINUOUS
  62
3
 100
AcDbVertex
 100
AcDb2dVertex
  10
 287.32878649143
  20
 16.991901306721
  30
0.0
   0
SEQEND
   5
167
 100
AcDbEntity
   8
LEVEL001
   6
CONTINUOUS
  62
3
   0
CIRCLE
   5
168
 100
AcDbEntity
   8
LEVEL001
 100
AcDbCircle
   6
CONTINUOUS
  62
3
  10
 283.77741248046
  20
 15.496602106661
  30
0.0
  40
 1.4952992000607
   0
CIRCLE
   5
169
 100
AcDbEntity
   8
LEVEL001
 100
AcDbCircle
   6
CONTINUOUS
  62
3
  10
 283.77741248046
  20
 15.496602106661
  30
0.0
  40
 2.2926971648466
   0
LINE
   5
16A
 100
AcDbEntity
   8
LEVEL001
 100
AcDbLine
   6
DASHDOT
  62
3
  10
 283.77741248046
  20
 18.276819797895
  30
0.0
  11
 283.77741248046
  21
 12.739086639187
  31
0.0
   0
LINE
   5
16B
 100
AcDbEntity
   8
LEVEL001
 100
AcDbLine
   6
DASHDOT
  62
3
  10
 280.98579216525
  20
 15.496602106661
  30
0.0
  11
 294.03035588701
  21
 15.496602106661
  31
0.0
   0
LINE
   5
16C
 100
AcDbEntity
   8
LEVEL001
 100
AcDbLine
   6
CONTINUOUS
  62
3
  10
 227.33062661293
  20
 40.623482664101
  30
0.0
  11
 401.91864343959
  21
 40.623482664101
  31
0.0
   0
LINE
   5
16D
 100
AcDbEntity
   8
LEVEL001
 100
AcDbLine
   6
CONTINUOUS
  62
3
  10
 279.33062661293
  20
 25.623482664101
  30
0.0
  11
 279.33062661293
  21
 40.623482664101
  31
0.0
   0
LINE
   5
16E
 100
AcDbEntity
   8
LEVEL001
 100
AcDbLine
   6
CONTINUOUS
  62
3
  10
 391.91864343959
  20
 40.623482664101
  30
0.0
  11
 391.91864343959
  21
 10.623482664101
  31
0.0
   0
TEXT
   5
16F
 100
AcDbEntity
   8
LEVEL001
  62
3
 100
AcDbText
  10
 280.64192170489
  20
 37.573442796790
  30
0.0
  40
 2.5000000000000
   1
ＴＩＴＬＥ
  41
 0.76000000000000
   7
STANDARD
 100
AcDbText
   0
LINE
   5
170
 100
AcDbEntity
   8
LEVEL001
 100
AcDbLine
   6
CONTINUOUS
  62
3
  10
 340.91864343959
  20
 40.623482664101
  30
0.0
  11
 340.91864343959
  21
 25.623482664101
  31
0.0
   0
LINE
   5
171
 100
AcDbEntity
   8
LEVEL001
 100
AcDbLine
   6
CONTINUOUS
  62
3
  10
 340.91864343959
  20
 33.123482664101
  30
0.0
  11
 391.74519006525
  21
 33.123482664101
  31
0.0
   0
TEXT
   5
172
 100
AcDbEntity
   8
LEVEL001
  62
3
 100
AcDbText
  10
 391.47746081487
  20
 36.779986000955
  30
0.0
  40
 2.5000000000000
   1
ＳＣＡＬＥ
  41
 0.88000000000000
   7
STANDARD
  72
1
  11
 396.97746081487
  21
 38.446652667621
  31
0.0
 100
AcDbText
  73
2
   0
TEXT
   5
173
 100
AcDbEntity
   8
LEVEL001
  62
3
 100
AcDbText
  10
 341.51853871421
  20
 37.573442796790
  30
0.0
  40
 2.5000000000000
   1
ＰＴ.ＮＯ
  41
 0.76000000000000
   7
STANDARD
 100
AcDbText
   0
TEXT
   5
174
 100
AcDbEntity
   8
LEVEL001
  62
3
 100
AcDbText
  10
 341.51853871421
  20
 29.763824210947
  30
0.0
  40
 2.5000000000000
   1
ＰＴ.ＮＡＭＥ
  41
 0.76000000000000
   7
STANDARD
 100
AcDbText
   0
LINE
   5
175
 100
AcDbEntity
   8
LEVEL001
 100
AcDbLine
   6
CONTINUOUS
  62
3
  10
 399.49896791926
  20
 34.847167115437
  30
0.0
  11
 394.29795044724
  21
 27.832461499328
  31
0.0
   0
TEXT
   5
176
 100
AcDbEntity
   8
LEVEL001
  62
3
 100
AcDbText
  10
 392.65860789070
  20
 31.166707948577
  30
0.0
  40
 4.0000000000000
   1
１ 　
   7
STANDARD
 100
AcDbText
   0
TEXT
   5
177
 100
AcDbEntity
   8
LEVEL001
  62
3
 100
AcDbText
  10
 397.27376214709
  20
 27.158650445530
  30
0.0
  40
 4.0000000000000
   1
１ 　
   7
STANDARD
 100
AcDbText
   0
LINE
   5
178
 100
AcDbEntity
   8
LEVEL001
 100
AcDbLine
   6
CONTINUOUS
  62
3
  10
 279.33062661293
  20
 25.623482664101
  30
0.0
  11
 401.91864343959
  21
 25.623482664101
  31
0.0
   0
TEXT
   5
179
 100
AcDbEntity
   8
LEVEL001
  62
3
 100
AcDbText
  10
 265.53504939955
  20
 28.607349206730
  30
0.0
  40
 3.0000000000000
   1
ＤＷＮ．
   7
STANDARD
  72
1
  11
 271.53504939955
  21
 30.607349206730
  31
0.0
 100
AcDbText
  73
2
   0
LINE
   5
17A
 100
AcDbEntity
   8
LEVEL001
 100
AcDbLine
   6
CONTINUOUS
  62
3
  10
 261.99729327960
  20
 32.623482664101
  30
0.0
  11
 261.99729327960
  21
 10.623482664101
  31
0.0
   0
LINE
   5
17B
 100
AcDbEntity
   8
LEVEL001
 100
AcDbLine
   6
CONTINUOUS
  62
3
  10
 279.33062661293
  20
 32.623482664101
  30
0.0
  11
 227.33062661293
  21
 32.623482664101
  31
0.0
   0
LINE
   5
17C
 100
AcDbEntity
   8
LEVEL001
 100
AcDbLine
   6
CONTINUOUS
  62
3
  10
 244.66395994626
  20
 32.623482664101
  30
0.0
  11
 244.66395994626
  21
 10.623482664101
  31
0.0
   0
TEXT
   5
17D
 100
AcDbEntity
   8
LEVEL001
  62
3
 100
AcDbText
  10
 246.45196531502
  20
 28.607349206730
  30
0.0
  40
 3.0000000000000
   1
ＣＨＫＤ．
   7
STANDARD
  72
1
  11
 253.95196531502
  21
 30.607349206730
  31
0.0
 100
AcDbText
  73
2
   0
TEXT
   5
17E
 100
AcDbEntity
   8
LEVEL001
  62
3
 100
AcDbText
  10
 229.39637375302
  20
 28.607349206730
  30
0.0
  40
 3.0000000000000
   1
ＡＰＰＤ．
   7
STANDARD
  72
1
  11
 236.89637375302
  21
 30.607349206730
  31
0.0
 100
AcDbText
  73
2
   0
TEXT
   5
17F
 100
AcDbEntity
   8
LEVEL001
  62
3
 100
AcDbText
  10
 228.36854891388
  20
 37.010169988888
  30
0.0
  40
 2.5000000000000
   1
ＤＡＴＥ　
   7
STANDARD
  72
1
  11
 234.61854891388
  21
 38.676836655555
  31
0.0
 100
AcDbText
  73
2
   0
TEXT
   5
180
 100
AcDbEntity
   8
LEVEL001
  62
3
 100
AcDbText
  10
 253.00785717349
  20
 34.547198251772
  30
0.0
  40
 3.8000000000000
   1
／
  41
 0.78947368421053
   7
STANDARD
 100
AcDbText
   0
TEXT
   5
181
 100
AcDbEntity
   8
LEVEL001
  62
3
 100
AcDbText
  10
 265.29540145932
  20
 34.547198251772
  30
0.0
  40
 3.8000000000000
   1
／
  41
 0.78947368421053
   7
STANDARD
 100
AcDbText
   0
LINE
   5
182
 100
AcDbEntity
   8
LEVEL001
 100
AcDbLine
   6
CONTINUOUS
  62
8
  10
 310.79465539843
  20
 23.726906399220
  30
0.0
  11
 307.49797615315
  21
 18.501906399220
  31
0.0
   0
LINE
   5
183
 100
AcDbEntity
   8
LEVEL001
 100
AcDbLine
   6
CONTINUOUS
  62
8
  10
 308.70465539843
  20
 12.649906399220
  30
0.0
  11
 308.04687911811
  21
 15.839906399220
  31
0.0
   0
LINE
   5
184
 100
AcDbEntity
   8
LEVEL001
 100
AcDbLine
   6
CONTINUOUS
  62
8
  10
 307.97429690786
  20
 16.191906399220
  30
0.0
  11
 307.49797615315
  21
 18.501906399220
  31
0.0
   0
LINE
   5
185
 100
AcDbEntity
   8
LEVEL001
 100
AcDbLine
   6
CONTINUOUS
  62
8
  10
 308.28665539843
  20
 23.726906399220
  30
0.0
  11
 307.14929690786
  21
 16.191906399220
  31
0.0
   0
LINE
   5
186
 100
AcDbEntity
   8
LEVEL001
 100
AcDbLine
   6
CONTINUOUS
  62
8
  10
 307.09616483239
  20
 15.839906399220
  30
0.0
  11
 306.61465539843
  21
 12.649906399220
  31
0.0
   0
LINE
   5
187
 100
AcDbEntity
   8
LEVEL001
 100
AcDbLine
   6
CONTINUOUS
  62
8
  10
 304.94265539843
  20
 23.726906399220
  30
0.0
  11
 303.80529690786
  21
 16.191906399220
  31
0.0
   0
LINE
   5
188
 100
AcDbEntity
   8
LEVEL001
 100
AcDbLine
   6
CONTINUOUS
  62
8
  10
 303.75216483239
  20
 15.839906399220
  30
0.0
  11
 303.27065539843
  21
 12.649906399220
  31
0.0
   0
POLYLINE
   5
189
 100
AcDbEntity
   8
LEVEL001
   6
CONTINUOUS
  62
8
 100
AcDb2dPolyline
  66
1
  10
0.0
  20
0.0
  30
0.0
  70
0
   0
VERTEX
   5
18A
 100
AcDbEntity
   8
LEVEL001
   6
CONTINUOUS
  62
8
 100
AcDbVertex
 100
AcDb2dVertex
  10
 303.80529690786
  20
 16.191906399220
  30
0.0
   0
VERTEX
   5
18B
 100
AcDbEntity
   8
LEVEL001
   6
CONTINUOUS
  62
8
 100
AcDbVertex
 100
AcDb2dVertex
  10
 302.17065539843
  20
 16.191906399220
  30
0.0
   0
VERTEX
   5
18C
 100
AcDbEntity
   8
LEVEL001
   6
CONTINUOUS
  62
8
 100
AcDbVertex
 100
AcDb2dVertex
  10
 302.17065539843
  20
 15.839906399220
  30
0.0
   0
VERTEX
   5
18D
 100
AcDbEntity
   8
LEVEL001
   6
CONTINUOUS
  62
8
 100
AcDbVertex
 100
AcDb2dVertex
  10
 303.75216483239
  20
 15.839906399220
  30
0.0
   0
SEQEND
   5
18E
 100
AcDbEntity
   8
LEVEL001
   6
CONTINUOUS
  62
8
   0
LINE
   5
18F
 100
AcDbEntity
   8
LEVEL001
 100
AcDbLine
   6
CONTINUOUS
  62
8
  10
 307.97429690786
  20
 16.191906399220
  30
0.0
  11
 307.14929690786
  21
 16.191906399220
  31
0.0
   0
LINE
   5
190
 100
AcDbEntity
   8
LEVEL001
 100
AcDbLine
   6
CONTINUOUS
  62
8
  10
 307.09616483239
  20
 15.839906399220
  30
0.0
  11
 308.04687911811
  21
 15.839906399220
  31
0.0
   0
INSERT
   5
191
 100
AcDbEntity
   8
LEVEL001
 100
AcDbBlockReference
   2
BLOCK001
  10
0.0
  20
0.0
  30
0.0
   0
TEXT
   5
192
 100
AcDbEntity
   8
LEVEL001
  62
8
 100
AcDbText
  10
 313.57552972823
  20
 13.271725595648
  30
0.0
  40
 2.2550000000000
   1
Kuriki Manufacture Co.,Ltd
  41
 0.35365853658537
  51
 10.000000000000
   7
STANDARD
 100
AcDbText
   0
LINE
   5
193
 100
AcDbEntity
   8
LEVEL001
 100
AcDbLine
   6
CONTINUOUS
  62
8
  10
 314.13865539843
  20
 23.726906399220
  30
0.0
  11
 310.84197615315
  21
 18.501906399220
  31
0.0
   0
LINE
   5
194
 100
AcDbEntity
   8
LEVEL001
 100
AcDbLine
   6
CONTINUOUS
  62
8
  10
 333.09277973716
  20
 22.021906399220
  30
0.0
  11
 331.33277973716
  21
 22.021906399220
  31
0.0
   0
LINE
   5
195
 100
AcDbEntity
   8
LEVEL001
 100
AcDbLine
   6
CONTINUOUS
  62
8
  10
 333.09277973716
  20
 22.021906399220
  30
0.0
  11
 332.21277973716
  21
 16.191906399220
  31
0.0
   0
LINE
   5
196
 100
AcDbEntity
   8
LEVEL001
 100
AcDbLine
   6
CONTINUOUS
  62
8
  10
 331.33277973716
  20
 22.021906399220
  30
0.0
  11
 330.45277973716
  21
 16.191906399220
  31
0.0
   0
LINE
   5
197
 100
AcDbEntity
   8
LEVEL001
 100
AcDbLine
   6
CONTINUOUS
  62
8
  10
 332.21277973716
  20
 16.191906399220
  30
0.0
  11
 330.45277973716
  21
 16.191906399220
  31
0.0
   0
LINE
   5
198
 100
AcDbEntity
   8
LEVEL001
 100
AcDbLine
   6
CONTINUOUS
  62
8
  10
 327.92277973716
  20
 22.021906399220
  30
0.0
  11
 326.16277973716
  21
 22.021906399220
  31
0.0
   0
LINE
   5
199
 100
AcDbEntity
   8
LEVEL001
 100
AcDbLine
   6
CONTINUOUS
  62
8
  10
 327.92277973716
  20
 22.021906399220
  30
0.0
  11
 327.04277973716
  21
 16.191906399220
  31
0.0
   0
LINE
   5
19A
 100
AcDbEntity
   8
LEVEL001
 100
AcDbLine
   6
CONTINUOUS
  62
8
  10
 326.16277973716
  20
 22.021906399220
  30
0.0
  11
 325.28277973716
  21
 16.191906399220
  31
0.0
   0
LINE
   5
19B
 100
AcDbEntity
   8
LEVEL001
 100
AcDbLine
   6
CONTINUOUS
  62
8
  10
 327.04277973716
  20
 16.191906399220
  30
0.0
  11
 325.28277973716
  21
 16.191906399220
  31
0.0
   0
LINE
   5
19C
 100
AcDbEntity
   8
LEVEL001
 100
AcDbLine
   6
CONTINUOUS
  62
8
  10
 325.50277973716
  20
 22.021906399220
  30
0.0
  11
 323.74277973716
  21
 22.021906399220
  31
0.0
   0
LINE
   5
19D
 100
AcDbEntity
   8
LEVEL001
 100
AcDbLine
   6
CONTINUOUS
  62
8
  10
 325.50277973716
  20
 22.021906399220
  30
0.0
  11
 324.62277973716
  21
 16.191906399220
  31
0.0
   0
LINE
   5
19E
 100
AcDbEntity
   8
LEVEL001
 100
AcDbLine
   6
CONTINUOUS
  62
8
  10
 323.74277973716
  20
 22.021906399220
  30
0.0
  11
 322.86277973716
  21
 16.191906399220
  31
0.0
   0
LINE
   5
19F
 100
AcDbEntity
   8
LEVEL001
 100
AcDbLine
   6
CONTINUOUS
  62
8
  10
 324.62277973716
  20
 16.191906399220
  30
0.0
  11
 322.86277973716
  21
 16.191906399220
  31
0.0
   0
LINE
   5
1A0
 100
AcDbEntity
   8
LEVEL001
 100
AcDbLine
   6
CONTINUOUS
  62
8
  10
 331.00277973716
  20
 22.021906399220
  30
0.0
  11
 329.24277973716
  21
 22.021906399220
  31
0.0
   0
LINE
   5
1A1
 100
AcDbEntity
   8
LEVEL001
 100
AcDbLine
   6
CONTINUOUS
  62
8
  10
 329.24277973716
  20
 22.021906399220
  30
0.0
  11
 327.50768539753
  21
 19.271906399220
  31
0.0
   0
LINE
   5
1A2
 100
AcDbEntity
   8
LEVEL001
 100
AcDbLine
   6
CONTINUOUS
  62
8
  10
 328.14277973716
  20
 16.191906399220
  30
0.0
  11
 330.12277973716
  21
 16.191906399220
  31
0.0
   0
LINE
   5
1A3
 100
AcDbEntity
   8
LEVEL001
 100
AcDbLine
   6
CONTINUOUS
  62
8
  10
 328.14277973716
  20
 16.191906399220
  30
0.0
  11
 327.50768539753
  21
 19.271906399220
  31
0.0
   0
LINE
   5
1A4
 100
AcDbEntity
   8
LEVEL001
 100
AcDbLine
   6
CONTINUOUS
  62
8
  10
 331.00277973716
  20
 22.021906399220
  30
0.0
  11
 329.26768539753
  21
 19.271906399220
  31
0.0
   0
LINE
   5
1A5
 100
AcDbEntity
   8
LEVEL001
 100
AcDbLine
   6
CONTINUOUS
  62
8
  10
 329.26768539753
  20
 19.271906399220
  30
0.0
  11
 330.12277973716
  21
 16.191906399220
  31
0.0
   0
LINE
   5
1A6
 100
AcDbEntity
   8
LEVEL001
 100
AcDbLine
   6
CONTINUOUS
  62
8
  10
 320.55277973716
  20
 16.191906399220
  30
0.0
  11
 322.53277973716
  21
 16.191906399220
  31
0.0
   0
LINE
   5
1A7
 100
AcDbEntity
   8
LEVEL001
 100
AcDbLine
   6
CONTINUOUS
  62
8
  10
 318.79277973716
  20
 22.021906399220
  30
0.0
  11
 317.91277973716
  21
 16.191906399220
  31
0.0
   0
LINE
   5
1A8
 100
AcDbEntity
   8
LEVEL001
 100
AcDbLine
   6
CONTINUOUS
  62
8
  10
 319.67277973716
  20
 16.191906399220
  30
0.0
  11
 317.91277973716
  21
 16.191906399220
  31
0.0
   0
LINE
   5
1A9
 100
AcDbEntity
   8
LEVEL001
 100
AcDbLine
   6
CONTINUOUS
  62
8
  10
 320.55277973716
  20
 16.191906399220
  30
0.0
  11
 320.18986868594
  21
 17.951906399220
  31
0.0
   0
LINE
   5
1AA
 100
AcDbEntity
   8
LEVEL001
 100
AcDbLine
   6
CONTINUOUS
  62
8
  10
 321.89145898244
  20
 18.501906399220
  30
0.0
  11
 322.53277973716
  21
 16.191906399220
  31
0.0
   0
LINE
   5
1AB
 100
AcDbEntity
   8
LEVEL001
 100
AcDbLine
   6
CONTINUOUS
  62
8
  10
 320.30441679287
  20
 20.376501893337
  30
0.0
  11
 319.67277973716
  21
 16.191906399220
  31
0.0
   0
LINE
   5
1AC
 100
AcDbEntity
   8
LEVEL001
 100
AcDbLine
   6
CONTINUOUS
  62
8
  10
 320.18986868594
  20
 17.951906399220
  30
0.0
  11
 320.44435583905
  21
 19.602383443274
  31
0.0
   0
LINE
   5
1AD
 100
AcDbEntity
   8
LEVEL001
 100
AcDbLine
   6
CONTINUOUS
  62
8
  10
 318.13277973716
  20
 22.021906399220
  30
0.0
  11
 316.37277973716
  21
 22.021906399220
  31
0.0
   0
LINE
   5
1AE
 100
AcDbEntity
   8
LEVEL001
 100
AcDbLine
   6
CONTINUOUS
  62
8
  10
 315.82277973716
  20
 22.021906399220
  30
0.0
  11
 314.06277973716
  21
 22.021906399220
  31
0.0
   0
LINE
   5
1AF
 100
AcDbEntity
   8
LEVEL001
 100
AcDbLine
   6
CONTINUOUS
  62
8
  10
 316.37277973716
  20
 22.021906399220
  30
0.0
  11
 315.79577977385
  21
 18.199281642342
  31
0.0
   0
LINE
   5
1B0
 100
AcDbEntity
   8
LEVEL001
 100
AcDbLine
   6
CONTINUOUS
  62
8
  10
 315.82277973716
  20
 22.021906399220
  30
0.0
  11
 315.24516293293
  21
 18.195195071210
  31
0.0
   0
LINE
   5
1B1
 100
AcDbEntity
   8
LEVEL001
 100
AcDbLine
   6
CONTINUOUS
  62
8
  10
 314.06277973716
  20
 22.021906399220
  30
0.0
  11
 313.48610330959
  21
 18.201425066603
  31
0.0
   0
LINE
   5
1B2
 100
AcDbEntity
   8
LEVEL001
 100
AcDbLine
   6
CONTINUOUS
  62
8
  10
 318.13277973716
  20
 22.021906399220
  30
0.0
  11
 317.56623772790
  21
 18.268565587884
  31
0.0
   0
ARC
   5
1B3
 100
AcDbEntity
   8
LEVEL001
   6
CONTINUOUS
  62
8
 100
AcDbCircle
  10
 321.17013559103
  20
 20.281654931699
  30
0.0
  40
 1.7402514675212
 100
AcDbArc
  50
 351.41637851990
  51
 89.999999999884
   0
LINE
   5
1B4
 100
AcDbEntity
   8
LEVEL001
 100
AcDbLine
   6
CONTINUOUS
  62
8
  10
 321.17013559103
  20
 22.021906399220
  30
0.0
  11
 318.79277973716
  21
 22.021906399220
  31
0.0
   0
LINE
   5
1B5
 100
AcDbEntity
   8
LEVEL001
 100
AcDbLine
   6
CONTINUOUS
  62
8
  10
 320.30372313338
  20
 20.371906399220
  30
0.0
  11
 320.74169125181
  21
 20.371906399220
  31
0.0
   0
ARC
   5
1B6
 100
AcDbEntity
   8
LEVEL001
   6
CONTINUOUS
  62
8
 100
AcDbCircle
  10
 315.24421346245
  20
 17.958957507865
  30
0.0
  40
 1.7747512013310
 100
AcDbArc
  50
 172.14765871033
  51
 264.66082673523
   0
ARC
   5
1B7
 100
AcDbEntity
   8
LEVEL001
   6
CONTINUOUS
  62
8
 100
AcDbCircle
  10
 315.13195087093
  20
 18.656314041923
  30
0.0
  40
 2.4649749219048
 100
AcDbArc
  50
 268.77075588817
  51
 350.94960092969
   0
ARC
   5
1B8
 100
AcDbEntity
   8
LEVEL001
   6
CONTINUOUS
  62
8
 100
AcDbCircle
  10
 315.45722711450
  20
 18.165952445969
  30
0.0
  40
 0.21407089533906
 100
AcDbArc
  50
 170.68405351437
  51
 269.12700070221
   0
ARC
   5
1B9
 100
AcDbEntity
   8
LEVEL001
   6
CONTINUOUS
  62
8
 100
AcDbCircle
  10
 315.49071470583
  20
 18.260968658011
  30
0.0
  40
 0.31123943135484
 100
AcDbArc
  50
 263.21905471491
  51
 348.56840049760
   0
ARC
   5
1BA
 100
AcDbEntity
   8
LEVEL001
   6
CONTINUOUS
  62
8
 100
AcDbCircle
  10
 320.90313696564
  20
 20.240325896158
  30
0.0
  40
 1.9997206695528
 100
AcDbArc
  50
 299.61899079219
  51
 353.72968381429
   0
ARC
   5
1BB
 100
AcDbEntity
   8
LEVEL001
   6
CONTINUOUS
  62
8
 100
AcDbCircle
  10
 320.74169125182
  20
 19.989374860182
  30
0.0
  40
 0.38253153903777
 100
AcDbArc
  50
0.0
  51
 90.000000000485
   0
ARC
   5
1BC
 100
AcDbEntity
   8
LEVEL001
   6
CONTINUOUS
  62
8
 100
AcDbCircle
  10
 320.66185644368
  20
 20.071334648260
  30
0.0
  40
 0.46957432409482
 100
AcDbArc
  50
 272.95201820302
  51
 349.94807454550
   0
LINE
   5
1BD
 100
AcDbEntity
   8
LEVEL001
 100
AcDbLine
   6
CONTINUOUS
  62
8
  10
 320.68603935483
  20
 19.602383443274
  30
0.0
  11
 320.44435583905
  21
 19.602383443274
  31
0.0
   0
LINE
   5
1BE
 100
AcDbEntity
   8
LEVEL001
 100
AcDbLine
   6
CONTINUOUS
  62
8
  10
 310.84197615315
  20
 18.501906399220
  30
0.0
  11
 311.48329690786
  21
 16.191906399220
  31
0.0
   0
LINE
   5
1BF
 100
AcDbEntity
   8
LEVEL001
 100
AcDbLine
   6
CONTINUOUS
  62
8
  10
 311.58102197525
  20
 15.839906399220
  30
0.0
  11
 312.46665539843
  21
 12.649906399220
  31
0.0
   0
POLYLINE
   5
1C0
 100
AcDbEntity
   8
LEVEL001
   6
CONTINUOUS
  62
8
 100
AcDb2dPolyline
  66
1
  10
0.0
  20
0.0
  30
0.0
  70
0
   0
VERTEX
   5
1C1
 100
AcDbEntity
   8
LEVEL001
   6
CONTINUOUS
  62
8
 100
AcDbVertex
 100
AcDb2dVertex
  10
 311.58102197525
  20
 15.839906399220
  30
0.0
   0
VERTEX
   5
1C2
 100
AcDbEntity
   8
LEVEL001
   6
CONTINUOUS
  62
8
 100
AcDbVertex
 100
AcDb2dVertex
  10
 334.29065539843
  20
 15.839906399220
  30
0.0
   0
VERTEX
   5
1C3
 100
AcDbEntity
   8
LEVEL001
   6
CONTINUOUS
  62
8
 100
AcDbVertex
 100
AcDb2dVertex
  10
 334.29065539843
  20
 16.191906399220
  30
0.0
   0
VERTEX
   5
1C4
 100
AcDbEntity
   8
LEVEL001
   6
CONTINUOUS
  62
8
 100
AcDbVertex
 100
AcDb2dVertex
  10
 311.48329690786
  20
 16.191906399220
  30
0.0
   0
SEQEND
   5
1C5
 100
AcDbEntity
   8
LEVEL001
   6
CONTINUOUS
  62
8
   0
LINE
   5
1C6
 100
AcDbEntity
   8
LEVEL001
 100
AcDbLine
   6
CONTINUOUS
  62
8
  10
 308.28665539843
  20
 23.726906399220
  30
0.0
  11
 304.94265539843
  21
 23.726906399220
  31
0.0
   0
LINE
   5
1C7
 100
AcDbEntity
   8
LEVEL001
 100
AcDbLine
   6
CONTINUOUS
  62
8
  10
 314.13865539843
  20
 23.726906399220
  30
0.0
  11
 310.79465539843
  21
 23.726906399220
  31
0.0
   0
LINE
   5
1C8
 100
AcDbEntity
   8
LEVEL001
 100
AcDbLine
   6
CONTINUOUS
  62
8
  10
 306.61465539843
  20
 12.649906399220
  30
0.0
  11
 303.27065539843
  21
 12.649906399220
  31
0.0
   0
LINE
   5
1C9
 100
AcDbEntity
   8
LEVEL001
 100
AcDbLine
   6
CONTINUOUS
  62
8
  10
 308.70465539843
  20
 12.649906399220
  30
0.0
  11
 312.46665539843
  21
 12.649906399220
  31
0.0
   0
TEXT
   5
1CA
 100
AcDbEntity
   8
LEVEL001
  62
3
 100
AcDbText
  10
 239.01767413931
  20
 33.998437965356
  30
0.0
  40
 4.0000000000000
   1
 '０5
  51
 15.000000000000
   7
STANDARD
 100
AcDbText
   0
TEXT
   5
1CB
 100
AcDbEntity
   8
LEVEL001
  62
3
 100
AcDbText
  10
 255.81076775178
  20
 33.998437965356
  30
0.0
  40
 4.0000000000000
   1
０3
  51
 15.000000000000
   7
STANDARD
 100
AcDbText
   0
TEXT
   5
1CC
 100
AcDbEntity
   8
LEVEL001
  62
3
 100
AcDbText
  10
 268.03497877953
  20
 33.998437965356
  30
0.0
  40
 4.0000000000000
   1
０7
  51
 15.000000000000
   7
STANDARD
 100
AcDbText
   0
POLYLINE
   5
1CD
 100
AcDbEntity
   8
LEVEL001
   6
CONTINUOUS
  62
3
 100
AcDb2dPolyline
  66
1
  10
0.0
  20
0.0
  30
0.0
  70
0
   0
VERTEX
   5
1CE
 100
AcDbEntity
   8
LEVEL001
   6
CONTINUOUS
  62
3
 100
AcDbVertex
 100
AcDb2dVertex
  10
 13.918643439585
  20
 10.623482664101
  30
0.0
   0
VERTEX
   5
1CF
 100
AcDbEntity
   8
LEVEL001
   6
CONTINUOUS
  62
3
 100
AcDbVertex
 100
AcDb2dVertex
  10
 13.918643439585
  20
 277.50000000000
  30
0.0
   0
VERTEX
   5
1D0
 100
AcDbEntity
   8
LEVEL001
   6
CONTINUOUS
  62
3
 100
AcDbVertex
 100
AcDb2dVertex
  10
 401.91864343959
  20
 277.50000000000
  30
0.0
   0
VERTEX
   5
1D1
 100
AcDbEntity
   8
LEVEL001
   6
CONTINUOUS
  62
3
 100
AcDbVertex
 100
AcDb2dVertex
  10
 401.91864343959
  20
 10.623482664101
  30
0.0
   0
VERTEX
   5
1D2
 100
AcDbEntity
   8
LEVEL001
   6
CONTINUOUS
  62
3
 100
AcDbVertex
 100
AcDb2dVertex
  10
 13.918643439585
  20
 10.623482664101
  30
0.0
   0
SEQEND
   5
1D3
 100
AcDbEntity
   8
LEVEL001
   6
CONTINUOUS
  62
3
   0
TEXT
   5
1D4
 100
AcDbEntity
   8
LEVEL001
  62
3
 100
AcDbText
  10
 355.55842625414
  20
 278.16157012750
  30
0.0
  40
 3.0000000000000
   1
（様式ＳＭ－０５０２－１０５Ａ）
   7
STANDARD
 100
AcDbText
   0
LINE
   5
1D5
 100
AcDbEntity
   8
LEVEL001
 100
AcDbLine
   6
CONTINUOUS
  62
3
  10
 391.91864343959
  20
 20.623482664101
  30
0.0
  11
 401.91864343959
  21
 20.623482664101
  31
0.0
   0
TEXT
   5
1D6
 100
AcDbEntity
   8
LEVEL001
  62
3
 100
AcDbText
  10
 392.83691101920
  20
 21.222201934655
  30
0.0
  40
 2.5000000000000
   1
ＲＥＶ.
   7
STANDARD
  72
1
  11
 397.21191101920
  21
 22.888868601321
  31
0.0
 100
AcDbText
  73
2
   0
LINE
   5
1D7
 100
AcDbEntity
   8
LEVEL001
 100
AcDbLine
   6
CONTINUOUS
  62
3
  10
 391.91864343959
  20
 15.623482664101
  30
0.0
  11
 401.91864343959
  21
 15.623482664101
  31
0.0
   0
LINE
   5
1D8
 100
AcDbEntity
   8
LEVEL001
 100
AcDbLine
   6
CONTINUOUS
  62
3
  10
 396.91864343959
  20
 20.623482664101
  30
0.0
  11
 396.91864343959
  21
 10.623482664101
  31
0.0
   0
LINE
   5
1D9
 100
AcDbEntity
   8
LEVEL001
 100
AcDbLine
   6
CONTINUOUS
  62
3
  10
 340.91864343959
  20
 10.623482664101
  30
0.0
  11
 340.91864343959
  21
 25.623482664101
  31
0.0
   0
TEXT
   5
1DA
 100
AcDbEntity
   8
LEVEL001
  62
3
 100
AcDbText
  10
 341.83137719671
  20
 22.387068135946
  30
0.0
  40
 2.5000000000000
   1
ＫＵＲＩＫＩ　ＷＯＲＫＳ　ＤＷＧ．ＮＯ．
  41
 0.80000000000000
   7
STANDARD
 100
AcDbText
   0
LINE
   5
1DB
 100
AcDbEntity
   8
LEVEL001
 100
AcDbLine
   6
CONTINUOUS
  62
3
  10
 295.61559858025
  20
 25.623482664101
  30
0.0
  11
 295.61559858025
  21
 10.623482664101
  31
0.0
   0
LINE
   5
1DC
 100
AcDbEntity
   8
LEVEL001
 100
AcDbLine
   6
CONTINUOUS
  62
3
  10
 279.33062661293
  20
 25.623482664101
  30
0.0
  11
 279.33062661293
  21
 10.623482664101
  31
0.0
   0
TEXT
   5
1DD
 100
AcDbEntity
   8
LEVEL001
  62
3
 100
AcDbText
  10
 277.85856144281
  20
 22.055162929662
  30
0.0
  40
 2.5000000000000
   1
ＰＲＯＪＥＣＴＩＯＮ
  41
 0.76000000000000
   7
STANDARD
  72
1
  11
 287.35856144281
  21
 23.721829596328
  31
0.0
 100
AcDbText
  73
2
   0
POLYLINE
   5
1DE
 100
AcDbEntity
   8
LEVEL001
   6
CONTINUOUS
  62
3
 100
AcDb2dPolyline
  66
1
  10
0.0
  20
0.0
  30
0.0
  70
0
   0
VERTEX
   5
1DF
 100
AcDbEntity
   8
LEVEL001
   6
CONTINUOUS
  62
3
 100
AcDbVertex
 100
AcDb2dVertex
  10
 287.32878649143
  20
 16.991901306721
  30
0.0
   0
VERTEX
   5
1E0
 100
AcDbEntity
   8
LEVEL001
   6
CONTINUOUS
  62
3
 100
AcDbVertex
 100
AcDb2dVertex
  10
 287.32878649143
  20
 14.001302906600
  30
0.0
   0
VERTEX
   5
1E1
 100
AcDbEntity
   8
LEVEL001
   6
CONTINUOUS
  62
3
 100
AcDbVertex
 100
AcDb2dVertex
  10
 293.35712748966
  20
 13.203904941814
  30
0.0
   0
VERTEX
   5
1E2
 100
AcDbEntity
   8
LEVEL001
   6
CONTINUOUS
  62
3
 100
AcDbVertex
 100
AcDb2dVertex
  10
 293.35712748966
  20
 17.789299271507
  30
0.0
   0
VERTEX
   5
1E3
 100
AcDbEntity
   8
LEVEL001
   6
CONTINUOUS
  62
3
 100
AcDbVertex
 100
AcDb2dVertex
  10
 287.32878649143
  20
 16.991901306721
  30
0.0
   0
SEQEND
   5
1E4
 100
AcDbEntity
   8
LEVEL001
   6
CONTINUOUS
  62
3
   0
CIRCLE
   5
1E5
 100
AcDbEntity
   8
LEVEL001
 100
AcDbCircle
   6
CONTINUOUS
  62
3
  10
 283.77741248046
  20
 15.496602106661
  30
0.0
  40
 1.4952992000607
   0
CIRCLE
   5
1E6
 100
AcDbEntity
   8
LEVEL001
 100
AcDbCircle
   6
CONTINUOUS
  62
3
  10
 283.77741248046
  20
 15.496602106661
  30
0.0
  40
 2.2926971648466
   0
LINE
   5
1E7
 100
AcDbEntity
   8
LEVEL001
 100
AcDbLine
   6
DASHDOT
  62
3
  10
 283.77741248046
  20
 18.276819797895
  30
0.0
  11
 283.77741248046
  21
 12.739086639187
  31
0.0
   0
LINE
   5
1E8
 100
AcDbEntity
   8
LEVEL001
 100
AcDbLine
   6
DASHDOT
  62
3
  10
 280.98579216525
  20
 15.496602106661
  30
0.0
  11
 294.03035588701
  21
 15.496602106661
  31
0.0
   0
LINE
   5
1E9
 100
AcDbEntity
   8
LEVEL001
 100
AcDbLine
   6
CONTINUOUS
  62
3
  10
 227.33062661293
  20
 40.623482664101
  30
0.0
  11
 401.91864343959
  21
 40.623482664101
  31
0.0
   0
LINE
   5
1EA
 100
AcDbEntity
   8
LEVEL001
 100
AcDbLine
   6
CONTINUOUS
  62
3
  10
 279.33062661293
  20
 25.623482664101
  30
0.0
  11
 279.33062661293
  21
 40.623482664101
  31
0.0
   0
LINE
   5
1EB
 100
AcDbEntity
   8
LEVEL001
 100
AcDbLine
   6
CONTINUOUS
  62
3
  10
 391.91864343959
  20
 40.623482664101
  30
0.0
  11
 391.91864343959
  21
 10.623482664101
  31
0.0
   0
TEXT
   5
1EC
 100
AcDbEntity
   8
LEVEL001
  62
3
 100
AcDbText
  10
 280.64192170489
  20
 37.573442796790
  30
0.0
  40
 2.5000000000000
   1
ＴＩＴＬＥ
  41
 0.76000000000000
   7
STANDARD
 100
AcDbText
   0
LINE
   5
1ED
 100
AcDbEntity
   8
LEVEL001
 100
AcDbLine
   6
CONTINUOUS
  62
3
  10
 340.91864343959
  20
 40.623482664101
  30
0.0
  11
 340.91864343959
  21
 25.623482664101
  31
0.0
   0
LINE
   5
1EE
 100
AcDbEntity
   8
LEVEL001
 100
AcDbLine
   6
CONTINUOUS
  62
3
  10
 340.91864343959
  20
 33.123482664101
  30
0.0
  11
 391.74519006525
  21
 33.123482664101
  31
0.0
   0
TEXT
   5
1EF
 100
AcDbEntity
   8
LEVEL001
  62
3
 100
AcDbText
  10
 391.47746081487
  20
 36.779986000955
  30
0.0
  40
 2.5000000000000
   1
ＳＣＡＬＥ
  41
 0.88000000000000
   7
STANDARD
  72
1
  11
 396.97746081487
  21
 38.446652667621
  31
0.0
 100
AcDbText
  73
2
   0
TEXT
   5
1F0
 100
AcDbEntity
   8
LEVEL001
  62
3
 100
AcDbText
  10
 341.51853871421
  20
 37.573442796790
  30
0.0
  40
 2.5000000000000
   1
ＰＴ.ＮＯ
  41
 0.76000000000000
   7
STANDARD
 100
AcDbText
   0
TEXT
   5
1F1
 100
AcDbEntity
   8
LEVEL001
  62
3
 100
AcDbText
  10
 341.51853871421
  20
 29.763824210947
  30
0.0
  40
 2.5000000000000
   1
ＰＴ.ＮＡＭＥ
  41
 0.76000000000000
   7
STANDARD
 100
AcDbText
   0
LINE
   5
1F2
 100
AcDbEntity
   8
LEVEL001
 100
AcDbLine
   6
CONTINUOUS
  62
3
  10
 399.49896791926
  20
 34.847167115437
  30
0.0
  11
 394.29795044724
  21
 27.832461499328
  31
0.0
   0
TEXT
   5
1F3
 100
AcDbEntity
   8
LEVEL001
  62
3
 100
AcDbText
  10
 392.65860789070
  20
 31.166707948577
  30
0.0
  40
 4.0000000000000
   1
１ 　
   7
STANDARD
 100
AcDbText
   0
TEXT
   5
1F4
 100
AcDbEntity
   8
LEVEL001
  62
3
 100
AcDbText
  10
 397.27376214709
  20
 27.158650445530
  30
0.0
  40
 4.0000000000000
   1
１ 　
   7
STANDARD
 100
AcDbText
   0
LINE
   5
1F5
 100
AcDbEntity
   8
LEVEL001
 100
AcDbLine
   6
CONTINUOUS
  62
3
  10
 279.33062661293
  20
 25.623482664101
  30
0.0
  11
 401.91864343959
  21
 25.623482664101
  31
0.0
   0
TEXT
   5
1F6
 100
AcDbEntity
   8
LEVEL001
  62
3
 100
AcDbText
  10
 265.53504939955
  20
 28.607349206730
  30
0.0
  40
 3.0000000000000
   1
ＤＷＮ．
   7
STANDARD
  72
1
  11
 271.53504939955
  21
 30.607349206730
  31
0.0
 100
AcDbText
  73
2
   0
LINE
   5
1F7
 100
AcDbEntity
   8
LEVEL001
 100
AcDbLine
   6
CONTINUOUS
  62
3
  10
 261.99729327960
  20
 32.623482664101
  30
0.0
  11
 261.99729327960
  21
 10.623482664101
  31
0.0
   0
LINE
   5
1F8
 100
AcDbEntity
   8
LEVEL001
 100
AcDbLine
   6
CONTINUOUS
  62
3
  10
 279.33062661293
  20
 32.623482664101
  30
0.0
  11
 227.33062661293
  21
 32.623482664101
  31
0.0
   0
LINE
   5
1F9
 100
AcDbEntity
   8
LEVEL001
 100
AcDbLine
   6
CONTINUOUS
  62
3
  10
 244.66395994626
  20
 32.623482664101
  30
0.0
  11
 244.66395994626
  21
 10.623482664101
  31
0.0
   0
TEXT
   5
1FA
 100
AcDbEntity
   8
LEVEL001
  62
3
 100
AcDbText
  10
 246.45196531502
  20
 28.607349206730
  30
0.0
  40
 3.0000000000000
   1
ＣＨＫＤ．
   7
STANDARD
  72
1
  11
 253.95196531502
  21
 30.607349206730
  31
0.0
 100
AcDbText
  73
2
   0
TEXT
   5
1FB
 100
AcDbEntity
   8
LEVEL001
  62
3
 100
AcDbText
  10
 229.39637375302
  20
 28.607349206730
  30
0.0
  40
 3.0000000000000
   1
ＡＰＰＤ．
   7
STANDARD
  72
1
  11
 236.89637375302
  21
 30.607349206730
  31
0.0
 100
AcDbText
  73
2
   0
TEXT
   5
1FC
 100
AcDbEntity
   8
LEVEL001
  62
3
 100
AcDbText
  10
 228.36854891388
  20
 37.010169988888
  30
0.0
  40
 2.5000000000000
   1
ＤＡＴＥ　
   7
STANDARD
  72
1
  11
 234.61854891388
  21
 38.676836655555
  31
0.0
 100
AcDbText
  73
2
   0
TEXT
   5
1FD
 100
AcDbEntity
   8
LEVEL001
  62
3
 100
AcDbText
  10
 253.00785717349
  20
 34.547198251772
  30
0.0
  40
 3.8000000000000
   1
／
  41
 0.78947368421053
   7
STANDARD
 100
AcDbText
   0
TEXT
   5
1FE
 100
AcDbEntity
   8
LEVEL001
  62
3
 100
AcDbText
  10
 265.29540145932
  20
 34.547198251772
  30
0.0
  40
 3.8000000000000
   1
／
  41
 0.78947368421053
   7
STANDARD
 100
AcDbText
   0
LINE
   5
1FF
 100
AcDbEntity
   8
LEVEL001
 100
AcDbLine
   6
CONTINUOUS
  62
8
  10
 310.79465539843
  20
 23.726906399220
  30
0.0
  11
 307.49797615315
  21
 18.501906399220
  31
0.0
   0
LINE
   5
200
 100
AcDbEntity
   8
LEVEL001
 100
AcDbLine
   6
CONTINUOUS
  62
8
  10
 308.70465539843
  20
 12.649906399220
  30
0.0
  11
 308.04687911811
  21
 15.839906399220
  31
0.0
   0
LINE
   5
201
 100
AcDbEntity
   8
LEVEL001
 100
AcDbLine
   6
CONTINUOUS
  62
8
  10
 307.97429690786
  20
 16.191906399220
  30
0.0
  11
 307.49797615315
  21
 18.501906399220
  31
0.0
   0
LINE
   5
202
 100
AcDbEntity
   8
LEVEL001
 100
AcDbLine
   6
CONTINUOUS
  62
8
  10
 308.28665539843
  20
 23.726906399220
  30
0.0
  11
 307.14929690786
  21
 16.191906399220
  31
0.0
   0
LINE
   5
203
 100
AcDbEntity
   8
LEVEL001
 100
AcDbLine
   6
CONTINUOUS
  62
8
  10
 307.09616483239
  20
 15.839906399220
  30
0.0
  11
 306.61465539843
  21
 12.649906399220
  31
0.0
   0
LINE
   5
204
 100
AcDbEntity
   8
LEVEL001
 100
AcDbLine
   6
CONTINUOUS
  62
8
  10
 304.94265539843
  20
 23.726906399220
  30
0.0
  11
 303.80529690786
  21
 16.191906399220
  31
0.0
   0
LINE
   5
205
 100
AcDbEntity
   8
LEVEL001
 100
AcDbLine
   6
CONTINUOUS
  62
8
  10
 303.75216483239
  20
 15.839906399220
  30
0.0
  11
 303.27065539843
  21
 12.649906399220
  31
0.0
   0
POLYLINE
   5
206
 100
AcDbEntity
   8
LEVEL001
   6
CONTINUOUS
  62
8
 100
AcDb2dPolyline
  66
1
  10
0.0
  20
0.0
  30
0.0
  70
0
   0
VERTEX
   5
207
 100
AcDbEntity
   8
LEVEL001
   6
CONTINUOUS
  62
8
 100
AcDbVertex
 100
AcDb2dVertex
  10
 303.80529690786
  20
 16.191906399220
  30
0.0
   0
VERTEX
   5
208
 100
AcDbEntity
   8
LEVEL001
   6
CONTINUOUS
  62
8
 100
AcDbVertex
 100
AcDb2dVertex
  10
 302.17065539843
  20
 16.191906399220
  30
0.0
   0
VERTEX
   5
209
 100
AcDbEntity
   8
LEVEL001
   6
CONTINUOUS
  62
8
 100
AcDbVertex
 100
AcDb2dVertex
  10
 302.17065539843
  20
 15.839906399220
  30
0.0
   0
VERTEX
   5
20A
 100
AcDbEntity
   8
LEVEL001
   6
CONTINUOUS
  62
8
 100
AcDbVertex
 100
AcDb2dVertex
  10
 303.75216483239
  20
 15.839906399220
  30
0.0
   0
SEQEND
   5
20B
 100
AcDbEntity
   8
LEVEL001
   6
CONTINUOUS
  62
8
   0
LINE
   5
20C
 100
AcDbEntity
   8
LEVEL001
 100
AcDbLine
   6
CONTINUOUS
  62
8
  10
 307.97429690786
  20
 16.191906399220
  30
0.0
  11
 307.14929690786
  21
 16.191906399220
  31
0.0
   0
LINE
   5
20D
 100
AcDbEntity
   8
LEVEL001
 100
AcDbLine
   6
CONTINUOUS
  62
8
  10
 307.09616483239
  20
 15.839906399220
  30
0.0
  11
 308.04687911811
  21
 15.839906399220
  31
0.0
   0
INSERT
   5
20E
 100
AcDbEntity
   8
LEVEL001
 100
AcDbBlockReference
   2
BLOCK002
  10
0.0
  20
0.0
  30
0.0
   0
TEXT
   5
20F
 100
AcDbEntity
   8
LEVEL001
  62
8
 100
AcDbText
  10
 313.57552972823
  20
 13.271725595648
  30
0.0
  40
 2.2550000000000
   1
Kuriki Manufacture Co.,Ltd
  41
 0.35365853658537
  51
 10.000000000000
   7
STANDARD
 100
AcDbText
   0
LINE
   5
210
 100
AcDbEntity
   8
LEVEL001
 100
AcDbLine
   6
CONTINUOUS
  62
8
  10
 314.13865539843
  20
 23.726906399220
  30
0.0
  11
 310.84197615315
  21
 18.501906399220
  31
0.0
   0
LINE
   5
211
 100
AcDbEntity
   8
LEVEL001
 100
AcDbLine
   6
CONTINUOUS
  62
8
  10
 333.09277973716
  20
 22.021906399220
  30
0.0
  11
 331.33277973716
  21
 22.021906399220
  31
0.0
   0
LINE
   5
212
 100
AcDbEntity
   8
LEVEL001
 100
AcDbLine
   6
CONTINUOUS
  62
8
  10
 333.09277973716
  20
 22.021906399220
  30
0.0
  11
 332.21277973716
  21
 16.191906399220
  31
0.0
   0
LINE
   5
213
 100
AcDbEntity
   8
LEVEL001
 100
AcDbLine
   6
CONTINUOUS
  62
8
  10
 331.33277973716
  20
 22.021906399220
  30
0.0
  11
 330.45277973716
  21
 16.191906399220
  31
0.0
   0
LINE
   5
214
 100
AcDbEntity
   8
LEVEL001
 100
AcDbLine
   6
CONTINUOUS
  62
8
  10
 332.21277973716
  20
 16.191906399220
  30
0.0
  11
 330.45277973716
  21
 16.191906399220
  31
0.0
   0
LINE
   5
215
 100
AcDbEntity
   8
LEVEL001
 100
AcDbLine
   6
CONTINUOUS
  62
8
  10
 327.92277973716
  20
 22.021906399220
  30
0.0
  11
 326.16277973716
  21
 22.021906399220
  31
0.0
   0
LINE
   5
216
 100
AcDbEntity
   8
LEVEL001
 100
AcDbLine
   6
CONTINUOUS
  62
8
  10
 327.92277973716
  20
 22.021906399220
  30
0.0
  11
 327.04277973716
  21
 16.191906399220
  31
0.0
   0
LINE
   5
217
 100
AcDbEntity
   8
LEVEL001
 100
AcDbLine
   6
CONTINUOUS
  62
8
  10
 326.16277973716
  20
 22.021906399220
  30
0.0
  11
 325.28277973716
  21
 16.191906399220
  31
0.0
   0
LINE
   5
218
 100
AcDbEntity
   8
LEVEL001
 100
AcDbLine
   6
CONTINUOUS
  62
8
  10
 327.04277973716
  20
 16.191906399220
  30
0.0
  11
 325.28277973716
  21
 16.191906399220
  31
0.0
   0
LINE
   5
219
 100
AcDbEntity
   8
LEVEL001
 100
AcDbLine
   6
CONTINUOUS
  62
8
  10
 325.50277973716
  20
 22.021906399220
  30
0.0
  11
 323.74277973716
  21
 22.021906399220
  31
0.0
   0
LINE
   5
21A
 100
AcDbEntity
   8
LEVEL001
 100
AcDbLine
   6
CONTINUOUS
  62
8
  10
 325.50277973716
  20
 22.021906399220
  30
0.0
  11
 324.62277973716
  21
 16.191906399220
  31
0.0
   0
LINE
   5
21B
 100
AcDbEntity
   8
LEVEL001
 100
AcDbLine
   6
CONTINUOUS
  62
8
  10
 323.74277973716
  20
 22.021906399220
  30
0.0
  11
 322.86277973716
  21
 16.191906399220
  31
0.0
   0
LINE
   5
21C
 100
AcDbEntity
   8
LEVEL001
 100
AcDbLine
   6
CONTINUOUS
  62
8
  10
 324.62277973716
  20
 16.191906399220
  30
0.0
  11
 322.86277973716
  21
 16.191906399220
  31
0.0
   0
LINE
   5
21D
 100
AcDbEntity
   8
LEVEL001
 100
AcDbLine
   6
CONTINUOUS
  62
8
  10
 331.00277973716
  20
 22.021906399220
  30
0.0
  11
 329.24277973716
  21
 22.021906399220
  31
0.0
   0
LINE
   5
21E
 100
AcDbEntity
   8
LEVEL001
 100
AcDbLine
   6
CONTINUOUS
  62
8
  10
 329.24277973716
  20
 22.021906399220
  30
0.0
  11
 327.50768539753
  21
 19.271906399220
  31
0.0
   0
LINE
   5
21F
 100
AcDbEntity
   8
LEVEL001
 100
AcDbLine
   6
CONTINUOUS
  62
8
  10
 328.14277973716
  20
 16.191906399220
  30
0.0
  11
 330.12277973716
  21
 16.191906399220
  31
0.0
   0
LINE
   5
220
 100
AcDbEntity
   8
LEVEL001
 100
AcDbLine
   6
CONTINUOUS
  62
8
  10
 328.14277973716
  20
 16.191906399220
  30
0.0
  11
 327.50768539753
  21
 19.271906399220
  31
0.0
   0
LINE
   5
221
 100
AcDbEntity
   8
LEVEL001
 100
AcDbLine
   6
CONTINUOUS
  62
8
  10
 331.00277973716
  20
 22.021906399220
  30
0.0
  11
 329.26768539753
  21
 19.271906399220
  31
0.0
   0
LINE
   5
222
 100
AcDbEntity
   8
LEVEL001
 100
AcDbLine
   6
CONTINUOUS
  62
8
  10
 329.26768539753
  20
 19.271906399220
  30
0.0
  11
 330.12277973716
  21
 16.191906399220
  31
0.0
   0
LINE
   5
223
 100
AcDbEntity
   8
LEVEL001
 100
AcDbLine
   6
CONTINUOUS
  62
8
  10
 320.55277973716
  20
 16.191906399220
  30
0.0
  11
 322.53277973716
  21
 16.191906399220
  31
0.0
   0
LINE
   5
224
 100
AcDbEntity
   8
LEVEL001
 100
AcDbLine
   6
CONTINUOUS
  62
8
  10
 318.79277973716
  20
 22.021906399220
  30
0.0
  11
 317.91277973716
  21
 16.191906399220
  31
0.0
   0
LINE
   5
225
 100
AcDbEntity
   8
LEVEL001
 100
AcDbLine
   6
CONTINUOUS
  62
8
  10
 319.67277973716
  20
 16.191906399220
  30
0.0
  11
 317.91277973716
  21
 16.191906399220
  31
0.0
   0
LINE
   5
226
 100
AcDbEntity
   8
LEVEL001
 100
AcDbLine
   6
CONTINUOUS
  62
8
  10
 320.55277973716
  20
 16.191906399220
  30
0.0
  11
 320.18986868594
  21
 17.951906399220
  31
0.0
   0
LINE
   5
227
 100
AcDbEntity
   8
LEVEL001
 100
AcDbLine
   6
CONTINUOUS
  62
8
  10
 321.89145898244
  20
 18.501906399220
  30
0.0
  11
 322.53277973716
  21
 16.191906399220
  31
0.0
   0
LINE
   5
228
 100
AcDbEntity
   8
LEVEL001
 100
AcDbLine
   6
CONTINUOUS
  62
8
  10
 320.30441679287
  20
 20.376501893337
  30
0.0
  11
 319.67277973716
  21
 16.191906399220
  31
0.0
   0
LINE
   5
229
 100
AcDbEntity
   8
LEVEL001
 100
AcDbLine
   6
CONTINUOUS
  62
8
  10
 320.18986868594
  20
 17.951906399220
  30
0.0
  11
 320.44435583905
  21
 19.602383443274
  31
0.0
   0
LINE
   5
22A
 100
AcDbEntity
   8
LEVEL001
 100
AcDbLine
   6
CONTINUOUS
  62
8
  10
 318.13277973716
  20
 22.021906399220
  30
0.0
  11
 316.37277973716
  21
 22.021906399220
  31
0.0
   0
LINE
   5
22B
 100
AcDbEntity
   8
LEVEL001
 100
AcDbLine
   6
CONTINUOUS
  62
8
  10
 315.82277973716
  20
 22.021906399220
  30
0.0
  11
 314.06277973716
  21
 22.021906399220
  31
0.0
   0
LINE
   5
22C
 100
AcDbEntity
   8
LEVEL001
 100
AcDbLine
   6
CONTINUOUS
  62
8
  10
 316.37277973716
  20
 22.021906399220
  30
0.0
  11
 315.79577977385
  21
 18.199281642342
  31
0.0
   0
LINE
   5
22D
 100
AcDbEntity
   8
LEVEL001
 100
AcDbLine
   6
CONTINUOUS
  62
8
  10
 315.82277973716
  20
 22.021906399220
  30
0.0
  11
 315.24516293293
  21
 18.195195071210
  31
0.0
   0
LINE
   5
22E
 100
AcDbEntity
   8
LEVEL001
 100
AcDbLine
   6
CONTINUOUS
  62
8
  10
 314.06277973716
  20
 22.021906399220
  30
0.0
  11
 313.48610330959
  21
 18.201425066603
  31
0.0
   0
LINE
   5
22F
 100
AcDbEntity
   8
LEVEL001
 100
AcDbLine
   6
CONTINUOUS
  62
8
  10
 318.13277973716
  20
 22.021906399220
  30
0.0
  11
 317.56623772790
  21
 18.268565587884
  31
0.0
   0
ARC
   5
230
 100
AcDbEntity
   8
LEVEL001
   6
CONTINUOUS
  62
8
 100
AcDbCircle
  10
 321.17013559103
  20
 20.281654931699
  30
0.0
  40
 1.7402514675212
 100
AcDbArc
  50
 351.41637851990
  51
 89.999999999884
   0
LINE
   5
231
 100
AcDbEntity
   8
LEVEL001
 100
AcDbLine
   6
CONTINUOUS
  62
8
  10
 321.17013559103
  20
 22.021906399220
  30
0.0
  11
 318.79277973716
  21
 22.021906399220
  31
0.0
   0
LINE
   5
232
 100
AcDbEntity
   8
LEVEL001
 100
AcDbLine
   6
CONTINUOUS
  62
8
  10
 320.30372313338
  20
 20.371906399220
  30
0.0
  11
 320.74169125181
  21
 20.371906399220
  31
0.0
   0
ARC
   5
233
 100
AcDbEntity
   8
LEVEL001
   6
CONTINUOUS
  62
8
 100
AcDbCircle
  10
 315.24421346245
  20
 17.958957507865
  30
0.0
  40
 1.7747512013310
 100
AcDbArc
  50
 172.14765871033
  51
 264.66082673523
   0
ARC
   5
234
 100
AcDbEntity
   8
LEVEL001
   6
CONTINUOUS
  62
8
 100
AcDbCircle
  10
 315.13195087093
  20
 18.656314041923
  30
0.0
  40
 2.4649749219048
 100
AcDbArc
  50
 268.77075588817
  51
 350.94960092969
   0
ARC
   5
235
 100
AcDbEntity
   8
LEVEL001
   6
CONTINUOUS
  62
8
 100
AcDbCircle
  10
 315.45722711450
  20
 18.165952445969
  30
0.0
  40
 0.21407089533906
 100
AcDbArc
  50
 170.68405351437
  51
 269.12700070221
   0
ARC
   5
236
 100
AcDbEntity
   8
LEVEL001
   6
CONTINUOUS
  62
8
 100
AcDbCircle
  10
 315.49071470583
  20
 18.260968658011
  30
0.0
  40
 0.31123943135484
 100
AcDbArc
  50
 263.21905471491
  51
 348.56840049760
   0
ARC
   5
237
 100
AcDbEntity
   8
LEVEL001
   6
CONTINUOUS
  62
8
 100
AcDbCircle
  10
 320.90313696564
  20
 20.240325896158
  30
0.0
  40
 1.9997206695528
 100
AcDbArc
  50
 299.61899079219
  51
 353.72968381429
   0
ARC
   5
238
 100
AcDbEntity
   8
LEVEL001
   6
CONTINUOUS
  62
8
 100
AcDbCircle
  10
 320.74169125182
  20
 19.989374860182
  30
0.0
  40
 0.38253153903777
 100
AcDbArc
  50
0.0
  51
 90.000000000485
   0
ARC
   5
239
 100
AcDbEntity
   8
LEVEL001
   6
CONTINUOUS
  62
8
 100
AcDbCircle
  10
 320.66185644368
  20
 20.071334648260
  30
0.0
  40
 0.46957432409482
 100
AcDbArc
  50
 272.95201820302
  51
 349.94807454550
   0
LINE
   5
23A
 100
AcDbEntity
   8
LEVEL001
 100
AcDbLine
   6
CONTINUOUS
  62
8
  10
 320.68603935483
  20
 19.602383443274
  30
0.0
  11
 320.44435583905
  21
 19.602383443274
  31
0.0
   0
LINE
   5
23B
 100
AcDbEntity
   8
LEVEL001
 100
AcDbLine
   6
CONTINUOUS
  62
8
  10
 310.84197615315
  20
 18.501906399220
  30
0.0
  11
 311.48329690786
  21
 16.191906399220
  31
0.0
   0
LINE
   5
23C
 100
AcDbEntity
   8
LEVEL001
 100
AcDbLine
   6
CONTINUOUS
  62
8
  10
 311.58102197525
  20
 15.839906399220
  30
0.0
  11
 312.46665539843
  21
 12.649906399220
  31
0.0
   0
POLYLINE
   5
23D
 100
AcDbEntity
   8
LEVEL001
   6
CONTINUOUS
  62
8
 100
AcDb2dPolyline
  66
1
  10
0.0
  20
0.0
  30
0.0
  70
0
   0
VERTEX
   5
23E
 100
AcDbEntity
   8
LEVEL001
   6
CONTINUOUS
  62
8
 100
AcDbVertex
 100
AcDb2dVertex
  10
 311.58102197525
  20
 15.839906399220
  30
0.0
   0
VERTEX
   5
23F
 100
AcDbEntity
   8
LEVEL001
   6
CONTINUOUS
  62
8
 100
AcDbVertex
 100
AcDb2dVertex
  10
 334.29065539843
  20
 15.839906399220
  30
0.0
   0
VERTEX
   5
240
 100
AcDbEntity
   8
LEVEL001
   6
CONTINUOUS
  62
8
 100
AcDbVertex
 100
AcDb2dVertex
  10
 334.29065539843
  20
 16.191906399220
  30
0.0
   0
VERTEX
   5
241
 100
AcDbEntity
   8
LEVEL001
   6
CONTINUOUS
  62
8
 100
AcDbVertex
 100
AcDb2dVertex
  10
 311.48329690786
  20
 16.191906399220
  30
0.0
   0
SEQEND
   5
242
 100
AcDbEntity
   8
LEVEL001
   6
CONTINUOUS
  62
8
   0
LINE
   5
243
 100
AcDbEntity
   8
LEVEL001
 100
AcDbLine
   6
CONTINUOUS
  62
8
  10
 308.28665539843
  20
 23.726906399220
  30
0.0
  11
 304.94265539843
  21
 23.726906399220
  31
0.0
   0
LINE
   5
244
 100
AcDbEntity
   8
LEVEL001
 100
AcDbLine
   6
CONTINUOUS
  62
8
  10
 314.13865539843
  20
 23.726906399220
  30
0.0
  11
 310.79465539843
  21
 23.726906399220
  31
0.0
   0
LINE
   5
245
 100
AcDbEntity
   8
LEVEL001
 100
AcDbLine
   6
CONTINUOUS
  62
8
  10
 306.61465539843
  20
 12.649906399220
  30
0.0
  11
 303.27065539843
  21
 12.649906399220
  31
0.0
   0
LINE
   5
246
 100
AcDbEntity
   8
LEVEL001
 100
AcDbLine
   6
CONTINUOUS
  62
8
  10
 308.70465539843
  20
 12.649906399220
  30
0.0
  11
 312.46665539843
  21
 12.649906399220
  31
0.0
   0
TEXT
   5
247
 100
AcDbEntity
   8
LEVEL001
  62
3
 100
AcDbText
  10
 239.01767413931
  20
 33.998437965356
  30
0.0
  40
 4.0000000000000
   1
 '０5
  51
 15.000000000000
   7
STANDARD
 100
AcDbText
   0
TEXT
   5
248
 100
AcDbEntity
   8
LEVEL001
  62
3
 100
AcDbText
  10
 255.81076775178
  20
 33.998437965356
  30
0.0
  40
 4.0000000000000
   1
０3
  51
 15.000000000000
   7
STANDARD
 100
AcDbText
   0
TEXT
   5
249
 100
AcDbEntity
   8
LEVEL001
  62
3
 100
AcDbText
  10
 268.03497877953
  20
 33.998437965356
  30
0.0
  40
 4.0000000000000
   1
０7
  51
 15.000000000000
   7
STANDARD
 100
AcDbText
   0
TEXT
   5
24A
 100
AcDbEntity
   8
LEVEL001
  62
7
 100
AcDbText
  10
 350.05220763155
  20
 14.713613214761
  30
0.0
  40
 4.0000000000000
   1
K3-000882
  41
 0.50000000000000
   7
STANDARD
 100
AcDbText
   0
TEXT
   5
24B
 100
AcDbEntity
   8
LEVEL001
  62
7
 100
AcDbText
  10
 295.33484463066
  20
 29.471625171873
  30
0.0
  40
 4.0000000000000
   1
ＴＫＣ取手
   7
STANDARD
 100
AcDbText
   0
TEXT
   5
24C
 100
AcDbEntity
   8
LEVEL001
  62
7
 100
AcDbText
  10
 357.94723401119
  20
 27.368970304616
  30
0.0
  40
 4.0000000000000
   1
ＴＫＣ取手
   7
STANDARD
 100
AcDbText
   0
LINE
   5
24D
 100
AcDbEntity
   8
LEVEL001
 100
AcDbLine
   6
CONTINUOUS
  62
3
  10
 227.33062661293
  20
 40.623482664101
  30
0.0
  11
 227.33062661293
  21
 10.623482664101
  31
0.0
   0
CIRCLE
   5
24E
 100
AcDbEntity
   8
LEVEL001
 100
AcDbCircle
   6
CONTINUOUS
  62
2
  10
 235.66445033037
  20
 21.269582401453
  30
0.0
  40
 5.0937102885353
   0
TEXT
   5
24F
 100
AcDbEntity
   8
LEVEL001
  62
2
 100
AcDbText
  10
 229.51031779709
  20
 11.727834700358
  30
0.0
  40
 3.8000000000000
   1
22,02,08
  41
 0.42105263157895
   7
STANDARD
 100
AcDbText
   0
TEXT
   5
250
 100
AcDbEntity
   8
LEVEL001
  62
14
 100
AcDbText
  10
 235.53133614528
  20
 25.934246068624
  30
0.0
  40
 3.5000000000000
   1
田口
  41
 1.1428571428571
   7
STANDARD1
  72
1
  11
 235.53133614528
  21
 21.267579401958
  31
0.0
 100
AcDbText
   0
CIRCLE
   5
251
 100
AcDbEntity
   8
LEVEL001
 100
AcDbCircle
   6
CONTINUOUS
  62
2
  10
 253.35966516595
  20
 21.269582401453
  30
0.0
  40
 5.0937102885353
   0
TEXT
   5
252
 100
AcDbEntity
   8
LEVEL001
  62
14
 100
AcDbText
  10
 253.35966516595
  20
 25.934246068624
  30
0.0
  40
 3.5000000000000
   1
工藤
  41
 1.1428571428571
   7
STANDARD1
  72
1
  11
 253.35966516595
  21
 21.267579401958
  31
0.0
 100
AcDbText
   0
TEXT
   5
253
 100
AcDbEntity
   8
LEVEL001
  62
2
 100
AcDbText
  10
 246.84365113042
  20
 11.727834700358
  30
0.0
  40
 3.8000000000000
   1
22,02,08
  41
 0.42105263157895
   7
STANDARD
 100
AcDbText
   0
CIRCLE
   5
254
 100
AcDbEntity
   8
LEVEL001
 100
AcDbCircle
   6
CONTINUOUS
  62
2
  10
 270.33321128836
  20
 21.269582401453
  30
0.0
  40
 5.0937102885353
   0
TEXT
   5
255
 100
AcDbEntity
   8
LEVEL001
  62
2
 100
AcDbText
  10
 264.17698446375
  20
 11.727834700358
  30
0.0
  40
 3.8000000000000
   1
22,02,08
  41
 0.42105263157895
   7
STANDARD
 100
AcDbText
   0
TEXT
   5
256
 100
AcDbEntity
   8
LEVEL001
  62
14
 100
AcDbText
  10
 270.33321128836
  20
 25.934246068624
  30
0.0
  40
 3.5000000000000
   1
小見
  41
 1.1428571428571
   7
STANDARD1
  72
1
  11
 270.33321128836
  21
 21.267579401958
  31
0.0
 100
AcDbText
   0
LINE
   5
257
 100
AcDbEntity
   8
LEVEL001
 100
AcDbLine
   6
CONTINUOUS
  62
3
  10
 227.33062661293
  20
 40.623482664101
  30
0.0
  11
 227.33062661293
  21
 10.623482664101
  31
0.0
   0
TEXT
   5
258
 100
AcDbEntity
   8
LEVEL001
  62
14
 100
AcDbText
  10
 358.41398853134
  20
 34.354940604921
  30
0.0
  40
 4.0000000000000
   1
表１
  41
 0.75000000000000
   7
STANDARD
 100
AcDbText
   0
LINE
   5
259
 100
AcDbEntity
   8
LEVEL001
 100
AcDbLine
   6
CONTINUOUS
  62
3
  10
 394.67321902473
  20
 65.907534855823
  30
0.0
  11
 394.67321902473
  21
 46.907534855823
  31
0.0
   0
LINE
   5
25A
 100
AcDbEntity
   8
LEVEL001
 100
AcDbLine
   6
CONTINUOUS
  62
3
  10
 325.09091813978
  20
 65.907534855823
  30
0.0
  11
 394.67321902473
  21
 65.907534855823
  31
0.0
   0
LINE
   5
25B
 100
AcDbEntity
   8
LEVEL001
 100
AcDbLine
   6
CONTINUOUS
  62
3
  10
 325.09091813978
  20
 58.907534855823
  30
0.0
  11
 394.67321902473
  21
 58.907534855823
  31
0.0
   0
LINE
   5
25C
 100
AcDbEntity
   8
LEVEL001
 100
AcDbLine
   6
CONTINUOUS
  62
3
  10
 325.09091813978
  20
 52.907534855823
  30
0.0
  11
 394.67321902473
  21
 52.907534855823
  31
0.0
   0
LINE
   5
25D
 100
AcDbEntity
   8
LEVEL001
 100
AcDbLine
   6
CONTINUOUS
  62
3
  10
 325.09091813978
  20
 46.907534855823
  30
0.0
  11
 394.67321902473
  21
 46.907534855823
  31
0.0
   0
TEXT
   5
25E
 100
AcDbEntity
   8
LEVEL001
  62
14
 100
AcDbText
  10
 326.27619560534
  20
 67.152579165119
  30
0.0
  40
 3.8000000000000
   1
表１
   7
STANDARD
 100
AcDbText
   0
TEXT
   5
25F
 100
AcDbEntity
   8
LEVEL001
  62
14
 100
AcDbText
  10
 326.70056270129
  20
 53.491927536046
  30
0.0
  40
 3.8000000000000
   1
２２３－１２０ＨＳ
   7
STANDARD
 100
AcDbText
   0
TEXT
   5
260
 100
AcDbEntity
   8
LEVEL001
  62
14
 100
AcDbText
  10
 326.70056270129
  20
 47.491927536046
  30
0.0
  40
 3.8000000000000
   1
２２３－１２０ＣＲ
   7
STANDARD
 100
AcDbText
   0
LINE
   5
261
 100
AcDbEntity
   8
LEVEL001
 100
AcDbLine
   6
CONTINUOUS
  62
3
  10
 325.09091813978
  20
 46.907534855823
  30
0.0
  11
 325.09091813978
  21
 65.907534855823
  31
0.0
   0
LINE
   5
262
 100
AcDbEntity
   8
LEVEL001
 100
AcDbLine
   6
CONTINUOUS
  62
3
  10
 362.87852875925
  20
 65.907534855823
  30
0.0
  11
 362.87852875925
  21
 46.907534855823
  31
0.0
   0
TEXT
   5
263
 100
AcDbEntity
   8
LEVEL001
  62
14
 100
AcDbText
  10
 337.36966040753
  20
 60.258494395673
  30
0.0
  40
 3.8000000000000
   1
品 　番
   7
STANDARD
 100
AcDbText
   0
TEXT
   5
264
 100
AcDbEntity
   8
LEVEL001
  62
14
 100
AcDbText
  10
 366.47801832297
  20
 60.050824779154
  30
0.0
  40
 3.8000000000000
   1
仕上げ／色調
   7
STANDARD
 100
AcDbText
   0
TEXT
   5
265
 100
AcDbEntity
   8
LEVEL001
  62
14
 100
AcDbText
  10
 365.69957941712
  20
 47.491927536046
  30
0.0
  40
 3.8000000000000
   1
クローム
   7
STANDARD
 100
AcDbText
   0
TEXT
   5
266
 100
AcDbEntity
   8
LEVEL001
  62
14
 100
AcDbText
  10
 365.59574460886
  20
 53.491927536046
  30
0.0
  40
 3.8000000000000
   1
サテンシルバー
   7
STANDARD
 100
AcDbText
   0
LINE
   5
267
 100
AcDbEntity
   8
LEVEL001
 100
AcDbLine
   6
CONTINUOUS
  62
7
  10
 84.395394736842
  20
 178.17233348859
  30
0.0
  11
 91.395394736842
  21
 178.17233348859
  31
0.0
   0
LINE
   5
268
 100
AcDbEntity
   8
LEVEL001
 100
AcDbLine
   6
CONTINUOUS
  62
7
  10
 91.395394736842
  20
 178.17233348859
  30
0.0
  11
 98.395394736842
  21
 178.17233348859
  31
0.0
   0
LINE
   5
269
 100
AcDbEntity
   8
LEVEL001
 100
AcDbLine
   6
CONTINUOUS
  62
7
  10
 211.39539473684
  20
 178.17233348859
  30
0.0
  11
 218.39539473684
  21
 178.17233348859
  31
0.0
   0
LINE
   5
26A
 100
AcDbEntity
   8
LEVEL001
 100
AcDbLine
   6
CONTINUOUS
  62
7
  10
 204.39539473684
  20
 178.17233348859
  30
0.0
  11
 211.39539473684
  21
 178.17233348859
  31
0.0
   0
POINT
   5
26B
 100
AcDbEntity
   8
LEVEL001
 100
AcDbPoint
  62
7
  10
 204.39539473684
  20
 197.17233348859
  30
0.0
   0
POINT
   5
26C
 100
AcDbEntity
   8
LEVEL001
 100
AcDbPoint
  62
7
  10
 98.395394736842
  20
 197.17233348859
  30
0.0
   0
ARC
   5
26D
 100
AcDbEntity
   8
LEVEL001
   6
CONTINUOUS
  62
7
 100
AcDbCircle
  10
 203.39539473684
  20
 196.17233348859
  30
0.0
  40
 1.0000000000000
 100
AcDbArc
  50
 0.61880871882554E-10
  51
 90.000000000000
   0
POINT
   5
26E
 100
AcDbEntity
   8
LEVEL001
 100
AcDbPoint
  62
7
  10
 204.39539473684
  20
 197.17233348859
  30
0.0
   0
LINE
   5
26F
 100
AcDbEntity
   8
LEVEL001
 100
AcDbLine
   6
CONTINUOUS
  62
7
  10
 204.39539473684
  20
 178.17233348859
  30
0.0
  11
 204.39539473684
  21
 196.17233348859
  31
0.0
   0
LINE
   5
270
 100
AcDbEntity
   8
LEVEL001
 100
AcDbLine
   6
CONTINUOUS
  62
7
  10
 98.395394736842
  20
 178.17233348859
  30
0.0
  11
 98.395394736842
  21
 196.17233348859
  31
0.0
   0
ARC
   5
271
 100
AcDbEntity
   8
LEVEL001
   6
CONTINUOUS
  62
7
 100
AcDbCircle
  10
 99.395394736842
  20
 196.17233348859
  30
0.0
  40
 1.0000000000000
 100
AcDbArc
  50
 89.999999999979
  51
 180.00000000000
   0
POINT
   5
272
 100
AcDbEntity
   8
LEVEL001
 100
AcDbPoint
  62
7
  10
 98.395394736842
  20
 197.17233348859
  30
0.0
   0
LINE
   5
273
 100
AcDbEntity
   8
LEVEL001
 100
AcDbLine
   6
CONTINUOUS
  62
7
  10
 99.395394736842
  20
 197.17233348859
  30
0.0
  11
 203.39539473684
  21
 197.17233348859
  31
0.0
   0
POINT
   5
274
 100
AcDbEntity
   8
LEVEL001
 100
AcDbPoint
  62
7
  10
 97.395394736842
  20
 195.17233348859
  30
0.0
   0
LINE
   5
275
 100
AcDbEntity
   8
LEVEL001
 100
AcDbLine
   6
CONTINUOUS
  62
7
  10
 257.07423751151
  20
 178.67233348859
  30
0.0
  11
 261.07423751151
  21
 178.67233348859
  31
0.0
   0
LINE
   5
276
 100
AcDbEntity
   8
LEVEL001
 100
AcDbLine
   6
CONTINUOUS
  62
7
  10
 261.07423751151
  20
 178.67233348859
  30
0.0
  11
 265.07423751151
  21
 178.67233348859
  31
0.0
   0
LINE
   5
277
 100
AcDbEntity
   8
LEVEL001
 100
AcDbLine
   6
CONTINUOUS
  62
7
  10
 263.57423751151
  20
 204.67233348859
  30
0.0
  11
 264.57423751151
  21
 203.67233348859
  31
0.0
   0
LINE
   5
278
 100
AcDbEntity
   8
LEVEL001
 100
AcDbLine
   6
CONTINUOUS
  62
7
  10
 258.57423751151
  20
 204.67233348859
  30
0.0
  11
 257.57423751151
  21
 203.67233348859
  31
0.0
   0
LINE
   5
279
 100
AcDbEntity
   8
LEVEL001
 100
AcDbLine
   6
CONTINUOUS
  62
7
  10
 261.07423751151
  20
 204.67233348859
  30
0.0
  11
 263.57423751151
  21
 204.67233348859
  31
0.0
   0
LINE
   5
27A
 100
AcDbEntity
   8
LEVEL001
 100
AcDbLine
   6
CONTINUOUS
  62
7
  10
 258.57423751151
  20
 204.67233348859
  30
0.0
  11
 261.07423751151
  21
 204.67233348859
  31
0.0
   0
LINE
   5
27B
 100
AcDbEntity
   8
LEVEL001
 100
AcDbLine
   6
CONTINUOUS
  62
7
  10
 257.57423751151
  20
 203.67233348859
  30
0.0
  11
 257.07423751151
  21
 178.67233348859
  31
0.0
   0
LINE
   5
27C
 100
AcDbEntity
   8
LEVEL001
 100
AcDbLine
   6
CONTINUOUS
  62
7
  10
 264.57423751151
  20
 203.67233348859
  30
0.0
  11
 265.07423751151
  21
 178.67233348859
  31
0.0
   0
LINE
   5
27D
 100
AcDbEntity
   8
LEVEL001
 100
AcDbLine
   6
CONTINUOUS
  62
7
  10
 99.395394736842
  20
 204.17233348859
  30
0.0
  11
 203.39539473684
  21
 204.17233348859
  31
0.0
   0
LINE
   5
27E
 100
AcDbEntity
   8
LEVEL001
 100
AcDbLine
   6
CONTINUOUS
  62
7
  10
 84.395394736842
  20
 178.17233348859
  30
0.0
  11
 84.395394736842
  21
 202.17233348859
  31
0.0
   0
ARC
   5
27F
 100
AcDbEntity
   8
LEVEL001
   6
CONTINUOUS
  62
7
 100
AcDbCircle
  10
 86.395394736842
  20
 202.17233348859
  30
0.0
  40
 2.0000000000000
 100
AcDbArc
  50
 90.000000000000
  51
 180.00000000000
   0
POINT
   5
280
 100
AcDbEntity
   8
LEVEL001
 100
AcDbPoint
  62
7
  10
 84.395394736842
  20
 204.17233348859
  30
0.0
   0
LINE
   5
281
 100
AcDbEntity
   8
LEVEL001
 100
AcDbLine
   6
CONTINUOUS
  62
7
  10
 86.395394736842
  20
 204.17233348859
  30
0.0
  11
 98.395394736842
  21
 204.17233348859
  31
0.0
   0
LINE
   5
282
 100
AcDbEntity
   8
LEVEL001
 100
AcDbLine
   6
CONTINUOUS
  62
7
  10
 98.395394736842
  20
 203.67233348859
  30
0.0
  11
 99.395394736842
  21
 203.67233348859
  31
0.0
   0
LINE
   5
283
 100
AcDbEntity
   8
LEVEL001
 100
AcDbLine
   6
CONTINUOUS
  62
7
  10
 98.395394736842
  20
 196.17233348859
  30
0.0
  11
 98.395394736842
  21
 204.17233348859
  31
0.0
   0
LINE
   5
284
 100
AcDbEntity
   8
LEVEL001
 100
AcDbLine
   6
CONTINUOUS
  62
7
  10
 99.395394736842
  20
 197.17233348859
  30
0.0
  11
 99.395394736842
  21
 204.17233348859
  31
0.0
   0
LINE
   5
285
 100
AcDbEntity
   8
LEVEL001
 100
AcDbLine
   6
CONTINUOUS
  62
15
  10
 85.395394736842
  20
 203.17233348859
  30
0.0
  11
 98.395394736842
  21
 203.17233348859
  31
0.0
   0
LINE
   5
286
 100
AcDbEntity
   8
LEVEL001
 100
AcDbLine
   6
CONTINUOUS
  62
15
  10
 99.395394736842
  20
 203.17233348859
  30
0.0
  11
 203.39539473684
  21
 203.17233348859
  31
0.0
   0
LINE
   5
287
 100
AcDbEntity
   8
LEVEL001
 100
AcDbLine
   6
CONTINUOUS
  62
15
  10
 204.39539473684
  20
 203.17233348859
  30
0.0
  11
 217.11756982301
  21
 203.17233348859
  31
0.0
   0
LINE
   5
288
 100
AcDbEntity
   8
LEVEL001
 100
AcDbLine
   6
CONTINUOUS
  62
7
  10
 203.39539473684
  20
 197.17233348859
  30
0.0
  11
 203.39539473684
  21
 204.17233348859
  31
0.0
   0
LINE
   5
289
 100
AcDbEntity
   8
LEVEL001
 100
AcDbLine
   6
CONTINUOUS
  62
7
  10
 204.39539473684
  20
 196.17233348859
  30
0.0
  11
 204.39539473684
  21
 204.17233348859
  31
0.0
   0
LINE
   5
28A
 100
AcDbEntity
   8
LEVEL001
 100
AcDbLine
   6
CONTINUOUS
  62
7
  10
 203.39539473684
  20
 203.67233348859
  30
0.0
  11
 204.39539473684
  21
 203.67233348859
  31
0.0
   0
LINE
   5
28B
 100
AcDbEntity
   8
LEVEL001
 100
AcDbLine
   6
CONTINUOUS
  62
7
  10
 204.39539473684
  20
 204.17233348859
  30
0.0
  11
 216.39539473684
  21
 204.17233348859
  31
0.0
   0
ARC
   5
28C
 100
AcDbEntity
   8
LEVEL001
   6
CONTINUOUS
  62
7
 100
AcDbCircle
  10
 216.39539473684
  20
 202.17233348859
  30
0.0
  40
 2.0000000000000
 100
AcDbArc
  50
0.0
  51
 90.000000000000
   0
POINT
   5
28D
 100
AcDbEntity
   8
LEVEL001
 100
AcDbPoint
  62
7
  10
 218.39539473684
  20
 204.17233348859
  30
0.0
   0
LINE
   5
28E
 100
AcDbEntity
   8
LEVEL001
 100
AcDbLine
   6
CONTINUOUS
  62
7
  10
 218.39539473684
  20
 178.17233348859
  30
0.0
  11
 218.39539473684
  21
 202.17233348859
  31
0.0
   0
LINE
   5
28F
 100
AcDbEntity
   8
LEVEL001
 100
AcDbLine
   6
DOT
  62
1
  10
 211.39539473684
  20
 189.17233348859
  30
0.0
  11
 213.04539473684
  21
 189.17233348859
  31
0.0
   0
LINE
   5
290
 100
AcDbEntity
   8
LEVEL001
 100
AcDbLine
   6
DOT
  62
1
  10
 211.39539473684
  20
 190.32703402695
  30
0.0
  11
 213.04539473684
  21
 189.37440608279
  31
0.0
   0
LINE
   5
291
 100
AcDbEntity
   8
LEVEL001
 100
AcDbLine
   6
DOT
  62
1
  10
 213.04539473684
  20
 189.37440608279
  30
0.0
  11
 213.39539473681
  21
 189.17233348859
  31
0.0
   0
LINE
   5
292
 100
AcDbEntity
   8
LEVEL001
 100
AcDbLine
   6
DOT
  62
1
  10
 213.04539473684
  20
 189.17233348859
  30
0.0
  11
 213.39539473681
  21
 189.17233348859
  31
0.0
   0
LINE
   5
293
 100
AcDbEntity
   8
LEVEL001
 100
AcDbLine
   6
DOT
  62
1
  10
 213.04539473684
  20
 189.17233348859
  30
0.0
  11
 213.04539473684
  21
 189.37440608279
  31
0.0
   0
LINE
   5
294
 100
AcDbEntity
   8
LEVEL001
 100
AcDbLine
   6
DOT
  62
1
  10
 211.39539473684
  20
 192.62496143277
  30
0.0
  11
 213.04539473684
  21
 191.67233348861
  31
0.0
   0
LINE
   5
295
 100
AcDbEntity
   8
LEVEL001
 100
AcDbLine
   6
DOT
  62
1
  10
 211.39539473684
  20
 191.67233348859
  30
0.0
  11
 213.04539473684
  21
 191.67233348859
  31
0.0
   0
LINE
   5
296
 100
AcDbEntity
   8
LEVEL001
 100
AcDbLine
   6
DOT
  62
1
  10
 213.04539473684
  20
 189.37440608279
  30
0.0
  11
 213.04539473684
  21
 191.67233348859
  31
0.0
   0
LINE
   5
297
 100
AcDbEntity
   8
LEVEL001
 100
AcDbLine
   6
DOT
  62
1
  10
 213.04539473684
  20
 178.67233348859
  30
0.0
  11
 213.04539473684
  21
 189.17233348859
  31
0.0
   0
LINE
   5
298
 100
AcDbEntity
   8
LEVEL001
 100
AcDbLine
   6
DOT
  62
1
  10
 213.39539473684
  20
 178.67233348845
  30
0.0
  11
 213.39539473684
  21
 189.17233348857
  31
0.0
   0
LINE
   5
299
 100
AcDbEntity
   8
LEVEL001
 100
AcDbLine
   6
DOT
  62
1
  10
 211.39539473684
  20
 189.17233348859
  30
0.0
  11
 209.74539473684
  21
 189.17233348859
  31
0.0
   0
LINE
   5
29A
 100
AcDbEntity
   8
LEVEL001
 100
AcDbLine
   6
DOT
  62
1
  10
 211.39539473684
  20
 190.32703402695
  30
0.0
  11
 209.74539473684
  21
 189.37440608279
  31
0.0
   0
LINE
   5
29B
 100
AcDbEntity
   8
LEVEL001
 100
AcDbLine
   6
DOT
  62
1
  10
 209.74539473684
  20
 189.37440608279
  30
0.0
  11
 209.39539473687
  21
 189.17233348859
  31
0.0
   0
LINE
   5
29C
 100
AcDbEntity
   8
LEVEL001
 100
AcDbLine
   6
DOT
  62
1
  10
 209.74539473684
  20
 189.17233348859
  30
0.0
  11
 209.39539473687
  21
 189.17233348859
  31
0.0
   0
LINE
   5
29D
 100
AcDbEntity
   8
LEVEL001
 100
AcDbLine
   6
DOT
  62
1
  10
 211.39539473684
  20
 192.62496143277
  30
0.0
  11
 209.74539473684
  21
 191.67233348861
  31
0.0
   0
LINE
   5
29E
 100
AcDbEntity
   8
LEVEL001
 100
AcDbLine
   6
DOT
  62
1
  10
 211.39539473684
  20
 191.67233348859
  30
0.0
  11
 209.74539473684
  21
 191.67233348859
  31
0.0
   0
LINE
   5
29F
 100
AcDbEntity
   8
LEVEL001
 100
AcDbLine
   6
DOT
  62
1
  10
 209.74539473684
  20
 189.37440608279
  30
0.0
  11
 209.74539473684
  21
 191.67233348859
  31
0.0
   0
LINE
   5
2A0
 100
AcDbEntity
   8
LEVEL001
 100
AcDbLine
   6
DOT
  62
1
  10
 209.74539473684
  20
 189.17233348859
  30
0.0
  11
 209.74539473684
  21
 189.37440608279
  31
0.0
   0
LINE
   5
2A1
 100
AcDbEntity
   8
LEVEL001
 100
AcDbLine
   6
DOT
  62
1
  10
 209.39539473684
  20
 178.67233348852
  30
0.0
  11
 209.39539473684
  21
 189.17233348857
  31
0.0
   0
LINE
   5
2A2
 100
AcDbEntity
   8
LEVEL001
 100
AcDbLine
   6
DOT
  62
1
  10
 209.74539473684
  20
 178.67233348859
  30
0.0
  11
 209.74539473684
  21
 189.17233348859
  31
0.0
   0
LINE
   5
2A3
 100
AcDbEntity
   8
LEVEL001
 100
AcDbLine
   6
DOT
  62
1
  10
 211.39539473684
  20
 178.67233348859
  30
0.0
  11
 213.04539473684
  21
 178.67233348859
  31
0.0
   0
LINE
   5
2A4
 100
AcDbEntity
   8
LEVEL001
 100
AcDbLine
   6
DOT
  62
1
  10
 213.04539473684
  20
 178.67233348859
  30
0.0
  11
 213.39539473671
  21
 178.67233348859
  31
0.0
   0
LINE
   5
2A5
 100
AcDbEntity
   8
LEVEL001
 100
AcDbLine
   6
DOT
  62
1
  10
 213.39539473671
  20
 178.67233348859
  30
0.0
  11
 213.89539473671
  21
 178.17233348859
  31
0.0
   0
LINE
   5
2A6
 100
AcDbEntity
   8
LEVEL001
 100
AcDbLine
   6
DOT
  62
1
  10
 208.89539473691
  20
 178.17233348859
  30
0.0
  11
 209.39539473691
  21
 178.67233348859
  31
0.0
   0
LINE
   5
2A7
 100
AcDbEntity
   8
LEVEL001
 100
AcDbLine
   6
DOT
  62
1
  10
 209.39539473691
  20
 178.67233348859
  30
0.0
  11
 209.74539473684
  21
 178.67233348859
  31
0.0
   0
LINE
   5
2A8
 100
AcDbEntity
   8
LEVEL001
 100
AcDbLine
   6
DOT
  62
1
  10
 209.74539473684
  20
 178.67233348859
  30
0.0
  11
 211.39539473684
  21
 178.67233348859
  31
0.0
   0
LINE
   5
2A9
 100
AcDbEntity
   8
LEVEL001
 100
AcDbLine
   6
DOT
  62
1
  10
 91.395394736842
  20
 189.17233348859
  30
0.0
  11
 93.045394736842
  21
 189.17233348859
  31
0.0
   0
LINE
   5
2AA
 100
AcDbEntity
   8
LEVEL001
 100
AcDbLine
   6
DOT
  62
1
  10
 91.395394736842
  20
 190.32703402695
  30
0.0
  11
 93.045394736842
  21
 189.37440608279
  31
0.0
   0
LINE
   5
2AB
 100
AcDbEntity
   8
LEVEL001
 100
AcDbLine
   6
DOT
  62
1
  10
 93.045394736842
  20
 189.37440608279
  30
0.0
  11
 93.395394736811
  21
 189.17233348859
  31
0.0
   0
LINE
   5
2AC
 100
AcDbEntity
   8
LEVEL001
 100
AcDbLine
   6
DOT
  62
1
  10
 93.045394736842
  20
 189.17233348859
  30
0.0
  11
 93.395394736811
  21
 189.17233348859
  31
0.0
   0
LINE
   5
2AD
 100
AcDbEntity
   8
LEVEL001
 100
AcDbLine
   6
DOT
  62
1
  10
 93.045394736842
  20
 189.17233348859
  30
0.0
  11
 93.045394736842
  21
 189.37440608279
  31
0.0
   0
LINE
   5
2AE
 100
AcDbEntity
   8
LEVEL001
 100
AcDbLine
   6
DOT
  62
1
  10
 91.395394736842
  20
 192.62496143277
  30
0.0
  11
 93.045394736842
  21
 191.67233348861
  31
0.0
   0
LINE
   5
2AF
 100
AcDbEntity
   8
LEVEL001
 100
AcDbLine
   6
DOT
  62
1
  10
 91.395394736842
  20
 191.67233348859
  30
0.0
  11
 93.045394736842
  21
 191.67233348859
  31
0.0
   0
LINE
   5
2B0
 100
AcDbEntity
   8
LEVEL001
 100
AcDbLine
   6
DOT
  62
1
  10
 93.045394736842
  20
 189.37440608279
  30
0.0
  11
 93.045394736842
  21
 191.67233348859
  31
0.0
   0
LINE
   5
2B1
 100
AcDbEntity
   8
LEVEL001
 100
AcDbLine
   6
DOT
  62
1
  10
 93.045394736842
  20
 178.67233348859
  30
0.0
  11
 93.045394736842
  21
 189.17233348859
  31
0.0
   0
LINE
   5
2B2
 100
AcDbEntity
   8
LEVEL001
 100
AcDbLine
   6
DOT
  62
1
  10
 93.395394736842
  20
 178.67233348845
  30
0.0
  11
 93.395394736842
  21
 189.17233348857
  31
0.0
   0
LINE
   5
2B3
 100
AcDbEntity
   8
LEVEL001
 100
AcDbLine
   6
DOT
  62
1
  10
 91.395394736842
  20
 189.17233348859
  30
0.0
  11
 89.745394736842
  21
 189.17233348859
  31
0.0
   0
LINE
   5
2B4
 100
AcDbEntity
   8
LEVEL001
 100
AcDbLine
   6
DOT
  62
1
  10
 91.395394736842
  20
 190.32703402695
  30
0.0
  11
 89.745394736842
  21
 189.37440608279
  31
0.0
   0
LINE
   5
2B5
 100
AcDbEntity
   8
LEVEL001
 100
AcDbLine
   6
DOT
  62
1
  10
 89.745394736842
  20
 189.37440608279
  30
0.0
  11
 89.395394736874
  21
 189.17233348859
  31
0.0
   0
LINE
   5
2B6
 100
AcDbEntity
   8
LEVEL001
 100
AcDbLine
   6
DOT
  62
1
  10
 89.745394736842
  20
 189.17233348859
  30
0.0
  11
 89.395394736874
  21
 189.17233348859
  31
0.0
   0
LINE
   5
2B7
 100
AcDbEntity
   8
LEVEL001
 100
AcDbLine
   6
DOT
  62
1
  10
 91.395394736842
  20
 192.62496143277
  30
0.0
  11
 89.745394736842
  21
 191.67233348861
  31
0.0
   0
LINE
   5
2B8
 100
AcDbEntity
   8
LEVEL001
 100
AcDbLine
   6
DOT
  62
1
  10
 91.395394736842
  20
 191.67233348859
  30
0.0
  11
 89.745394736842
  21
 191.67233348859
  31
0.0
   0
LINE
   5
2B9
 100
AcDbEntity
   8
LEVEL001
 100
AcDbLine
   6
DOT
  62
1
  10
 89.745394736842
  20
 189.37440608279
  30
0.0
  11
 89.745394736842
  21
 191.67233348859
  31
0.0
   0
LINE
   5
2BA
 100
AcDbEntity
   8
LEVEL001
 100
AcDbLine
   6
DOT
  62
1
  10
 89.745394736842
  20
 189.17233348859
  30
0.0
  11
 89.745394736842
  21
 189.37440608279
  31
0.0
   0
LINE
   5
2BB
 100
AcDbEntity
   8
LEVEL001
 100
AcDbLine
   6
DOT
  62
1
  10
 89.395394736842
  20
 178.67233348852
  30
0.0
  11
 89.395394736842
  21
 189.17233348857
  31
0.0
   0
LINE
   5
2BC
 100
AcDbEntity
   8
LEVEL001
 100
AcDbLine
   6
DOT
  62
1
  10
 89.745394736842
  20
 178.67233348859
  30
0.0
  11
 89.745394736842
  21
 189.17233348859
  31
0.0
   0
LINE
   5
2BD
 100
AcDbEntity
   8
LEVEL001
 100
AcDbLine
   6
DOT
  62
1
  10
 88.895394736911
  20
 178.17233348859
  30
0.0
  11
 89.395394736911
  21
 178.67233348859
  31
0.0
   0
LINE
   5
2BE
 100
AcDbEntity
   8
LEVEL001
 100
AcDbLine
   6
DOT
  62
1
  10
 89.395394736911
  20
 178.67233348859
  30
0.0
  11
 89.745394736842
  21
 178.67233348859
  31
0.0
   0
LINE
   5
2BF
 100
AcDbEntity
   8
LEVEL001
 100
AcDbLine
   6
DOT
  62
1
  10
 89.745394736842
  20
 178.67233348859
  30
0.0
  11
 91.395394736842
  21
 178.67233348859
  31
0.0
   0
LINE
   5
2C0
 100
AcDbEntity
   8
LEVEL001
 100
AcDbLine
   6
DOT
  62
1
  10
 91.395394736842
  20
 178.67233348859
  30
0.0
  11
 93.045394736842
  21
 178.67233348859
  31
0.0
   0
LINE
   5
2C1
 100
AcDbEntity
   8
LEVEL001
 100
AcDbLine
   6
DOT
  62
1
  10
 93.045394736842
  20
 178.67233348859
  30
0.0
  11
 93.395394736707
  21
 178.67233348859
  31
0.0
   0
LINE
   5
2C2
 100
AcDbEntity
   8
LEVEL001
 100
AcDbLine
   6
DOT
  62
1
  10
 93.395394736707
  20
 178.67233348859
  30
0.0
  11
 93.895394736707
  21
 178.17233348859
  31
0.0
   0
LINE
   5
2C3
 100
AcDbEntity
   8
LEVEL001
 100
AcDbLine
   6
DOT
  62
1
  10
 257.95722041651
  20
 197.81647923854
  30
0.0
  11
 258.07011287312
  21
 203.46110206899
  31
0.0
   0
LINE
   5
2C4
 100
AcDbEntity
   8
LEVEL001
 100
AcDbLine
   6
DOT
  62
1
  10
 264.19125460650
  20
 197.81647923854
  30
0.0
  11
 264.07836214989
  21
 203.46110206909
  31
0.0
   0
LINE
   5
2C5
 100
AcDbEntity
   8
LEVEL001
 100
AcDbLine
   6
DOT
  62
1
  10
 261.07423751151
  20
 189.67233348859
  30
0.0
  11
 262.72423751151
  21
 189.67233348859
  31
0.0
   0
LINE
   5
2C6
 100
AcDbEntity
   8
LEVEL001
 100
AcDbLine
   6
DOT
  62
1
  10
 261.07423751151
  20
 190.82703402695
  30
0.0
  11
 262.72423751151
  21
 189.87440608279
  31
0.0
   0
LINE
   5
2C7
 100
AcDbEntity
   8
LEVEL001
 100
AcDbLine
   6
DOT
  62
1
  10
 262.72423751151
  20
 189.87440608279
  30
0.0
  11
 263.07423751147
  21
 189.67233348859
  31
0.0
   0
LINE
   5
2C8
 100
AcDbEntity
   8
LEVEL001
 100
AcDbLine
   6
DOT
  62
1
  10
 262.72423751151
  20
 189.67233348859
  30
0.0
  11
 263.07423751147
  21
 189.67233348859
  31
0.0
   0
LINE
   5
2C9
 100
AcDbEntity
   8
LEVEL001
 100
AcDbLine
   6
DOT
  62
1
  10
 262.72423751151
  20
 189.67233348859
  30
0.0
  11
 262.72423751151
  21
 189.87440608279
  31
0.0
   0
LINE
   5
2CA
 100
AcDbEntity
   8
LEVEL001
 100
AcDbLine
   6
DOT
  62
1
  10
 261.07423751151
  20
 193.12496143277
  30
0.0
  11
 262.72423751151
  21
 192.17233348861
  31
0.0
   0
LINE
   5
2CB
 100
AcDbEntity
   8
LEVEL001
 100
AcDbLine
   6
DOT
  62
1
  10
 261.07423751151
  20
 192.17233348859
  30
0.0
  11
 262.72423751151
  21
 192.17233348859
  31
0.0
   0
LINE
   5
2CC
 100
AcDbEntity
   8
LEVEL001
 100
AcDbLine
   6
DOT
  62
1
  10
 262.72423751151
  20
 189.87440608279
  30
0.0
  11
 262.72423751151
  21
 192.17233348859
  31
0.0
   0
LINE
   5
2CD
 100
AcDbEntity
   8
LEVEL001
 100
AcDbLine
   6
DOT
  62
1
  10
 262.72423751151
  20
 179.17233348859
  30
0.0
  11
 262.72423751151
  21
 189.67233348859
  31
0.0
   0
LINE
   5
2CE
 100
AcDbEntity
   8
LEVEL001
 100
AcDbLine
   6
DOT
  62
1
  10
 263.07423751151
  20
 179.17233348841
  30
0.0
  11
 263.07423751151
  21
 189.67233348857
  31
0.0
   0
LINE
   5
2CF
 100
AcDbEntity
   8
LEVEL001
 100
AcDbLine
   6
DOT
  62
1
  10
 261.07423751151
  20
 189.67233348859
  30
0.0
  11
 259.42423751151
  21
 189.67233348859
  31
0.0
   0
LINE
   5
2D0
 100
AcDbEntity
   8
LEVEL001
 100
AcDbLine
   6
DOT
  62
1
  10
 261.07423751151
  20
 190.82703402695
  30
0.0
  11
 259.42423751151
  21
 189.87440608279
  31
0.0
   0
LINE
   5
2D1
 100
AcDbEntity
   8
LEVEL001
 100
AcDbLine
   6
DOT
  62
1
  10
 259.42423751151
  20
 189.87440608279
  30
0.0
  11
 259.07423751154
  21
 189.67233348859
  31
0.0
   0
LINE
   5
2D2
 100
AcDbEntity
   8
LEVEL001
 100
AcDbLine
   6
DOT
  62
1
  10
 259.42423751151
  20
 189.67233348859
  30
0.0
  11
 259.07423751154
  21
 189.67233348859
  31
0.0
   0
LINE
   5
2D3
 100
AcDbEntity
   8
LEVEL001
 100
AcDbLine
   6
DOT
  62
1
  10
 261.07423751151
  20
 193.12496143277
  30
0.0
  11
 259.42423751151
  21
 192.17233348861
  31
0.0
   0
LINE
   5
2D4
 100
AcDbEntity
   8
LEVEL001
 100
AcDbLine
   6
DOT
  62
1
  10
 261.07423751151
  20
 192.17233348859
  30
0.0
  11
 259.42423751151
  21
 192.17233348859
  31
0.0
   0
LINE
   5
2D5
 100
AcDbEntity
   8
LEVEL001
 100
AcDbLine
   6
DOT
  62
1
  10
 259.42423751151
  20
 189.87440608279
  30
0.0
  11
 259.42423751151
  21
 192.17233348859
  31
0.0
   0
LINE
   5
2D6
 100
AcDbEntity
   8
LEVEL001
 100
AcDbLine
   6
DOT
  62
1
  10
 259.42423751151
  20
 189.67233348859
  30
0.0
  11
 259.42423751151
  21
 189.87440608279
  31
0.0
   0
LINE
   5
2D7
 100
AcDbEntity
   8
LEVEL001
 100
AcDbLine
   6
DOT
  62
1
  10
 259.07423751151
  20
 179.17233348857
  30
0.0
  11
 259.07423751151
  21
 189.67233348857
  31
0.0
   0
LINE
   5
2D8
 100
AcDbEntity
   8
LEVEL001
 100
AcDbLine
   6
DOT
  62
1
  10
 259.42423751151
  20
 179.17233348859
  30
0.0
  11
 259.42423751151
  21
 189.67233348859
  31
0.0
   0
LINE
   5
2D9
 100
AcDbEntity
   8
LEVEL001
 100
AcDbLine
   6
DOT
  62
1
  10
 258.57423751153
  20
 178.67233348859
  30
0.0
  11
 259.07423751153
  21
 179.17233348859
  31
0.0
   0
LINE
   5
2DA
 100
AcDbEntity
   8
LEVEL001
 100
AcDbLine
   6
DOT
  62
1
  10
 259.07423751153
  20
 179.17233348859
  30
0.0
  11
 259.42423751151
  21
 179.17233348859
  31
0.0
   0
LINE
   5
2DB
 100
AcDbEntity
   8
LEVEL001
 100
AcDbLine
   6
DOT
  62
1
  10
 259.42423751151
  20
 179.17233348859
  30
0.0
  11
 261.07423751151
  21
 179.17233348859
  31
0.0
   0
LINE
   5
2DC
 100
AcDbEntity
   8
LEVEL001
 100
AcDbLine
   6
DOT
  62
1
  10
 261.07423751151
  20
 179.17233348859
  30
0.0
  11
 262.72423751151
  21
 179.17233348859
  31
0.0
   0
LINE
   5
2DD
 100
AcDbEntity
   8
LEVEL001
 100
AcDbLine
   6
DOT
  62
1
  10
 262.72423751151
  20
 179.17233348859
  30
0.0
  11
 263.07423751132
  21
 179.17233348859
  31
0.0
   0
LINE
   5
2DE
 100
AcDbEntity
   8
LEVEL001
 100
AcDbLine
   6
DOT
  62
1
  10
 263.07423751132
  20
 179.17233348859
  30
0.0
  11
 263.57423751132
  21
 178.67233348859
  31
0.0
   0
LINE
   5
2DF
 100
AcDbEntity
   8
LEVEL001
 100
AcDbLine
   6
DOT
  62
1
  10
 263.36713073039
  20
 204.17233348859
  30
0.0
  11
 264.07836214989
  21
 203.46110206909
  31
0.0
   0
LINE
   5
2E0
 100
AcDbEntity
   8
LEVEL001
 100
AcDbLine
   6
DOT
  62
1
  10
 258.07011287312
  20
 203.46110206899
  30
0.0
  11
 258.78134429272
  21
 204.17233348859
  31
0.0
   0
LINE
   5
2E1
 100
AcDbEntity
   8
LEVEL001
 100
AcDbLine
   6
DOT
  62
1
  10
 258.78134429272
  20
 204.17233348859
  30
0.0
  11
 263.36713073039
  21
 204.17233348859
  31
0.0
   0
ARC
   5
2E2
 100
AcDbEntity
   8
LEVEL001
   6
DOT
  62
1
 100
AcDbCircle
  10
 258.47443749151
  20
 198.67233348859
  30
0.0
  40
 1.0000000000000
 100
AcDbArc
  50
 178.85423716183
  51
 269.99999999971
   0
ARC
   5
2E3
 100
AcDbEntity
   8
LEVEL001
   6
DOT
  62
1
 100
AcDbCircle
  10
 263.67403753150
  20
 198.67233348859
  30
0.0
  40
 1.0000000000000
 100
AcDbArc
  50
 270.00000000000
  51
 1.1457628380294
   0
LINE
   5
2E4
 100
AcDbEntity
   8
LEVEL001
 100
AcDbLine
   6
DOT
  62
1
  10
 258.47443749151
  20
 197.67233348859
  30
0.0
  11
 263.67403753150
  21
 197.67233348859
  31
0.0
   0
LINE
   5
2E5
 100
AcDbEntity
   8
LEVEL001
 100
AcDbLine
   6
DASHDOT
  62
3
  10
 91.395394736842
  20
 195.54818131035
  30
0.0
  11
 91.395394736842
  21
 174.05437600061
  31
0.0
   0
LINE
   5
2E6
 100
AcDbEntity
   8
LEVEL001
 100
AcDbLine
   6
DASHDOT
  62
3
  10
 211.39539473684
  20
 195.54818131035
  30
0.0
  11
 211.39539473684
  21
 174.05437600061
  31
0.0
   0
LINE
   5
2E7
 100
AcDbEntity
   8
LEVEL001
 100
AcDbLine
   6
DASHDOT
  62
3
  10
 151.39539473684
  20
 211.00380973608
  30
0.0
  11
 151.39539473684
  21
 176.47826971155
  31
0.0
   0
DIMENSION
   5
2E8
 100
AcDbEntity
   8
LEVEL001
   6
CONTINUOUS
  62
2
 100
AcDbDimension
   2
*D1
  10
 126.36119409533
  20
 197.17233348859
  30
0.0
  11
 126.36119409533
  21
 211.36731873933
  31
0.0
  70
128
   3
GMM001
 100
AcDbAlignedDimension
  13
 125.19305250241
  23
 204.17233348859
  33
0.0
  14
 124.25853922807
  24
 197.17233348859
  34
0.0
  50
 270.00000000000
 100
AcDbRotatedDimension
   0
LINE
   5
2E9
 100
AcDbEntity
   8
LEVEL001
 100
AcDbLine
   6
CONTINUOUS
  62
7
  10
 91.395394736842
  20
 132.95217332897
  30
0.0
  11
 98.395394736842
  21
 132.95217332897
  31
0.0
   0
LINE
   5
2EA
 100
AcDbEntity
   8
LEVEL001
 100
AcDbLine
   6
CONTINUOUS
  62
7
  10
 91.395394736842
  20
 124.95217332897
  30
0.0
  11
 98.395394736842
  21
 124.95217332897
  31
0.0
   0
POINT
   5
2EB
 100
AcDbEntity
   8
LEVEL001
 100
AcDbPoint
  62
7
  10
 84.395394736842
  20
 132.95217332897
  30
0.0
   0
LINE
   5
2EC
 100
AcDbEntity
   8
LEVEL001
 100
AcDbLine
   6
CONTINUOUS
  62
7
  10
 98.395394736842
  20
 128.95217332897
  30
0.0
  11
 98.395394736842
  21
 131.95217332897
  31
0.0
   0
ARC
   5
2ED
 100
AcDbEntity
   8
LEVEL001
   6
CONTINUOUS
  62
7
 100
AcDbCircle
  10
 97.395394736843
  20
 131.95217332897
  30
0.0
  40
 1.0000000000000
 100
AcDbArc
  50
0.0
  51
 90.000000000018
   0
ARC
   5
2EE
 100
AcDbEntity
   8
LEVEL001
   6
CONTINUOUS
  62
7
 100
AcDbCircle
  10
 97.395394736843
  20
 125.95217332897
  30
0.0
  40
 1.0000000000000
 100
AcDbArc
  50
 269.99999999998
  51
0.0
   0
LINE
   5
2EF
 100
AcDbEntity
   8
LEVEL001
 100
AcDbLine
   6
CONTINUOUS
  62
7
  10
 98.395394736842
  20
 125.95217332897
  30
0.0
  11
 98.395394736842
  21
 128.95217332897
  31
0.0
   0
LINE
   5
2F0
 100
AcDbEntity
   8
LEVEL001
 100
AcDbLine
   6
CONTINUOUS
  62
7
  10
 211.39539473684
  20
 132.95217332897
  30
0.0
  11
 204.39539473684
  21
 132.95217332897
  31
0.0
   0
LINE
   5
2F1
 100
AcDbEntity
   8
LEVEL001
 100
AcDbLine
   6
CONTINUOUS
  62
7
  10
 204.39539473684
  20
 128.95217332897
  30
0.0
  11
 204.39539473684
  21
 131.95217332897
  31
0.0
   0
ARC
   5
2F2
 100
AcDbEntity
   8
LEVEL001
   6
CONTINUOUS
  62
7
 100
AcDbCircle
  10
 205.39539473684
  20
 131.95217332897
  30
0.0
  40
 1.0000000000000
 100
AcDbArc
  50
 90.000000000023
  51
 180.00000000000
   0
LINE
   5
2F3
 100
AcDbEntity
   8
LEVEL001
 100
AcDbLine
   6
CONTINUOUS
  62
7
  10
 211.39539473684
  20
 124.95217332897
  30
0.0
  11
 204.39539473684
  21
 124.95217332897
  31
0.0
   0
ARC
   5
2F4
 100
AcDbEntity
   8
LEVEL001
   6
CONTINUOUS
  62
7
 100
AcDbCircle
  10
 205.39539473684
  20
 125.95217332897
  30
0.0
  40
 1.0000000000000
 100
AcDbArc
  50
 180.00000000000
  51
 269.99999999998
   0
LINE
   5
2F5
 100
AcDbEntity
   8
LEVEL001
 100
AcDbLine
   6
CONTINUOUS
  62
7
  10
 204.39539473684
  20
 125.95217332897
  30
0.0
  11
 204.39539473684
  21
 128.95217332897
  31
0.0
   0
POINT
   5
2F6
 100
AcDbEntity
   8
LEVEL001
 100
AcDbPoint
  62
7
  10
 218.39539473684
  20
 132.95217332897
  30
0.0
   0
LINE
   5
2F7
 100
AcDbEntity
   8
LEVEL001
 100
AcDbLine
   6
CONTINUOUS
  62
7
  10
 85.895394736842
  20
 128.95217332897
  30
0.0
  11
 85.895394736842
  21
 131.45217332897
  31
0.0
   0
LINE
   5
2F8
 100
AcDbEntity
   8
LEVEL001
 100
AcDbLine
   6
CONTINUOUS
  62
7
  10
 85.895394736842
  20
 131.45217332897
  30
0.0
  11
 88.945904994059
  21
 131.45217332897
  31
0.0
   0
ARC
   5
2F9
 100
AcDbEntity
   8
LEVEL001
   6
CONTINUOUS
  62
7
 100
AcDbCircle
  10
 91.395394736842
  20
 128.95217332897
  30
0.0
  40
 3.5000000000000
 100
AcDbArc
  50
 134.41530859719
  51
 225.58469140281
   0
LINE
   5
2FA
 100
AcDbEntity
   8
LEVEL001
 100
AcDbLine
   6
CONTINUOUS
  62
7
  10
 85.895394736842
  20
 126.45217332897
  30
0.0
  11
 88.945904994059
  21
 126.45217332897
  31
0.0
   0
LINE
   5
2FB
 100
AcDbEntity
   8
LEVEL001
 100
AcDbLine
   6
CONTINUOUS
  62
7
  10
 85.895394736842
  20
 126.45217332897
  30
0.0
  11
 85.895394736842
  21
 128.95217332897
  31
0.0
   0
LINE
   5
2FC
 100
AcDbEntity
   8
LEVEL001
 100
AcDbLine
   6
CONTINUOUS
  62
7
  10
 205.89539473684
  20
 128.95217332897
  30
0.0
  11
 205.89539473684
  21
 131.45217332897
  31
0.0
   0
LINE
   5
2FD
 100
AcDbEntity
   8
LEVEL001
 100
AcDbLine
   6
CONTINUOUS
  62
7
  10
 205.89539473684
  20
 131.45217332897
  30
0.0
  11
 208.94590499406
  21
 131.45217332897
  31
0.0
   0
ARC
   5
2FE
 100
AcDbEntity
   8
LEVEL001
   6
CONTINUOUS
  62
7
 100
AcDbCircle
  10
 211.39539473684
  20
 128.95217332897
  30
0.0
  40
 3.5000000000000
 100
AcDbArc
  50
 134.41530859719
  51
 225.58469140281
   0
LINE
   5
2FF
 100
AcDbEntity
   8
LEVEL001
 100
AcDbLine
   6
CONTINUOUS
  62
7
  10
 205.89539473684
  20
 126.45217332897
  30
0.0
  11
 208.94590499406
  21
 126.45217332897
  31
0.0
   0
LINE
   5
300
 100
AcDbEntity
   8
LEVEL001
 100
AcDbLine
   6
CONTINUOUS
  62
7
  10
 205.89539473684
  20
 126.45217332897
  30
0.0
  11
 205.89539473684
  21
 128.95217332897
  31
0.0
   0
LINE
   5
301
 100
AcDbEntity
   8
LEVEL001
 100
AcDbLine
   6
CONTINUOUS
  62
7
  10
 213.84488447963
  20
 131.45217332897
  30
0.0
  11
 216.89539473684
  21
 131.45217332897
  31
0.0
   0
LINE
   5
302
 100
AcDbEntity
   8
LEVEL001
 100
AcDbLine
   6
CONTINUOUS
  62
7
  10
 216.89539473684
  20
 128.95217332897
  30
0.0
  11
 216.89539473684
  21
 131.45217332897
  31
0.0
   0
ARC
   5
303
 100
AcDbEntity
   8
LEVEL001
   6
CONTINUOUS
  62
7
 100
AcDbCircle
  10
 211.39539473684
  20
 128.95217332897
  30
0.0
  40
 3.5000000000000
 100
AcDbArc
  50
 314.41530859719
  51
 45.584691402808
   0
LINE
   5
304
 100
AcDbEntity
   8
LEVEL001
 100
AcDbLine
   6
CONTINUOUS
  62
7
  10
 216.89539473684
  20
 126.45217332897
  30
0.0
  11
 216.89539473684
  21
 128.95217332897
  31
0.0
   0
LINE
   5
305
 100
AcDbEntity
   8
LEVEL001
 100
AcDbLine
   6
CONTINUOUS
  62
7
  10
 213.84488447963
  20
 126.45217332897
  30
0.0
  11
 216.89539473684
  21
 126.45217332897
  31
0.0
   0
LINE
   5
306
 100
AcDbEntity
   8
LEVEL001
 100
AcDbLine
   6
CONTINUOUS
  62
7
  10
 84.395394736842
  20
 128.95217332897
  30
0.0
  11
 84.395394736842
  21
 131.95217332897
  31
0.0
   0
ARC
   5
307
 100
AcDbEntity
   8
LEVEL001
   6
CONTINUOUS
  62
7
 100
AcDbCircle
  10
 85.395394736842
  20
 131.95217332897
  30
0.0
  40
 1.0000000000000
 100
AcDbArc
  50
 89.999999999995
  51
 180.00000000000
   0
POINT
   5
308
 100
AcDbEntity
   8
LEVEL001
 100
AcDbPoint
  62
7
  10
 84.395394736842
  20
 132.95217332897
  30
0.0
   0
LINE
   5
309
 100
AcDbEntity
   8
LEVEL001
 100
AcDbLine
   6
CONTINUOUS
  62
7
  10
 85.395394736842
  20
 132.95217332897
  30
0.0
  11
 91.395394736842
  21
 132.95217332897
  31
0.0
   0
LINE
   5
30A
 100
AcDbEntity
   8
LEVEL001
 100
AcDbLine
   6
CONTINUOUS
  62
7
  10
 84.395394736842
  20
 125.95217332897
  30
0.0
  11
 84.395394736842
  21
 128.95217332897
  31
0.0
   0
ARC
   5
30B
 100
AcDbEntity
   8
LEVEL001
   6
CONTINUOUS
  62
7
 100
AcDbCircle
  10
 85.395394736842
  20
 125.95217332897
  30
0.0
  40
 1.0000000000000
 100
AcDbArc
  50
 180.00000000000
  51
 270.00000000001
   0
POINT
   5
30C
 100
AcDbEntity
   8
LEVEL001
 100
AcDbPoint
  62
7
  10
 84.395394736842
  20
 124.95217332897
  30
0.0
   0
LINE
   5
30D
 100
AcDbEntity
   8
LEVEL001
 100
AcDbLine
   6
CONTINUOUS
  62
7
  10
 85.395394736842
  20
 124.95217332897
  30
0.0
  11
 91.395394736842
  21
 124.95217332897
  31
0.0
   0
LINE
   5
30E
 100
AcDbEntity
   8
LEVEL001
 100
AcDbLine
   6
CONTINUOUS
  62
7
  10
 217.39539473684
  20
 132.95217332897
  30
0.0
  11
 211.39539473684
  21
 132.95217332897
  31
0.0
   0
ARC
   5
30F
 100
AcDbEntity
   8
LEVEL001
   6
CONTINUOUS
  62
7
 100
AcDbCircle
  10
 217.39539473684
  20
 131.95217332897
  30
0.0
  40
 1.0000000000000
 100
AcDbArc
  50
 0.17912883966003E-10
  51
 90.000000000000
   0
POINT
   5
310
 100
AcDbEntity
   8
LEVEL001
 100
AcDbPoint
  62
7
  10
 218.39539473684
  20
 132.95217332897
  30
0.0
   0
LINE
   5
311
 100
AcDbEntity
   8
LEVEL001
 100
AcDbLine
   6
CONTINUOUS
  62
7
  10
 218.39539473684
  20
 128.95217332897
  30
0.0
  11
 218.39539473684
  21
 131.95217332897
  31
0.0
   0
LINE
   5
312
 100
AcDbEntity
   8
LEVEL001
 100
AcDbLine
   6
CONTINUOUS
  62
7
  10
 218.39539473684
  20
 125.95217332897
  30
0.0
  11
 218.39539473684
  21
 128.95217332897
  31
0.0
   0
ARC
   5
313
 100
AcDbEntity
   8
LEVEL001
   6
CONTINUOUS
  62
7
 100
AcDbCircle
  10
 217.39539473684
  20
 125.95217332897
  30
0.0
  40
 1.0000000000000
 100
AcDbArc
  50
 269.99999999998
  51
0.0
   0
POINT
   5
314
 100
AcDbEntity
   8
LEVEL001
 100
AcDbPoint
  62
7
  10
 218.39539473684
  20
 124.95217332897
  30
0.0
   0
LINE
   5
315
 100
AcDbEntity
   8
LEVEL001
 100
AcDbLine
   6
CONTINUOUS
  62
7
  10
 217.39539473684
  20
 124.95217332897
  30
0.0
  11
 211.39539473684
  21
 124.95217332897
  31
0.0
   0
LINE
   5
316
 100
AcDbEntity
   8
LEVEL001
 100
AcDbLine
   6
CONTINUOUS
  62
7
  10
 99.395394736842
  20
 132.95217332897
  30
0.0
  11
 151.39539473684
  21
 132.95217332897
  31
0.0
   0
LINE
   5
317
 100
AcDbEntity
   8
LEVEL001
 100
AcDbLine
   6
CONTINUOUS
  62
7
  10
 99.395394736842
  20
 124.95217332897
  30
0.0
  11
 151.39539473684
  21
 124.95217332897
  31
0.0
   0
LINE
   5
318
 100
AcDbEntity
   8
LEVEL001
 100
AcDbLine
   6
CONTINUOUS
  62
7
  10
 203.39539473684
  20
 132.95217332897
  30
0.0
  11
 151.39539473684
  21
 132.95217332897
  31
0.0
   0
LINE
   5
319
 100
AcDbEntity
   8
LEVEL001
 100
AcDbLine
   6
CONTINUOUS
  62
7
  10
 203.39539473684
  20
 124.95217332897
  30
0.0
  11
 151.39539473684
  21
 124.95217332897
  31
0.0
   0
CIRCLE
   5
31A
 100
AcDbEntity
   8
LEVEL001
 100
AcDbCircle
   6
CONTINUOUS
  62
7
  10
 91.395394736842
  20
 128.95217332897
  30
0.0
  40
 2.0000000000000
   0
CIRCLE
   5
31B
 100
AcDbEntity
   8
LEVEL001
 100
AcDbCircle
   6
CONTINUOUS
  62
7
  10
 91.395394736842
  20
 128.95217332897
  30
0.0
  40
 2.5000000000000
   0
CIRCLE
   5
31C
 100
AcDbEntity
   8
LEVEL001
 100
AcDbCircle
   6
CONTINUOUS
  62
7
  10
 211.39539473684
  20
 128.95217332897
  30
0.0
  40
 2.0000000000000
   0
CIRCLE
   5
31D
 100
AcDbEntity
   8
LEVEL001
 100
AcDbCircle
   6
CONTINUOUS
  62
7
  10
 211.39539473684
  20
 128.95217332897
  30
0.0
  40
 2.5000000000000
   0
CIRCLE
   5
31E
 100
AcDbEntity
   8
LEVEL001
 100
AcDbCircle
   6
CONTINUOUS
  62
15
  10
 211.39539473684
  20
 128.95217332897
  30
0.0
  40
 1.6500000000000
   0
LINE
   5
31F
 100
AcDbEntity
   8
LEVEL001
 100
AcDbLine
   6
CONTINUOUS
  62
15
  10
 204.39539473684
  20
 131.95217332897
  30
0.0
  11
 151.39539473684
  21
 131.95217332897
  31
0.0
   0
LINE
   5
320
 100
AcDbEntity
   8
LEVEL001
 100
AcDbLine
   6
CONTINUOUS
  62
15
  10
 204.39539473684
  20
 125.95217332897
  30
0.0
  11
 151.39539473684
  21
 125.95217332897
  31
0.0
   0
LINE
   5
321
 100
AcDbEntity
   8
LEVEL001
 100
AcDbLine
   6
CONTINUOUS
  62
15
  10
 98.395394736842
  20
 131.95217332897
  30
0.0
  11
 151.39539473684
  21
 131.95217332897
  31
0.0
   0
LINE
   5
322
 100
AcDbEntity
   8
LEVEL001
 100
AcDbLine
   6
CONTINUOUS
  62
15
  10
 98.395394736842
  20
 125.95217332897
  30
0.0
  11
 151.39539473684
  21
 125.95217332897
  31
0.0
   0
CIRCLE
   5
323
 100
AcDbEntity
   8
LEVEL001
 100
AcDbCircle
   6
CONTINUOUS
  62
15
  10
 91.395394736842
  20
 128.95217332897
  30
0.0
  40
 1.6500000000000
   0
LINE
   5
324
 100
AcDbEntity
   8
LEVEL001
 100
AcDbLine
   6
CONTINUOUS
  62
7
  10
 98.395394736842
  20
 132.45217332897
  30
0.0
  11
 99.395394736842
  21
 132.45217332897
  31
0.0
   0
LINE
   5
325
 100
AcDbEntity
   8
LEVEL001
 100
AcDbLine
   6
CONTINUOUS
  62
7
  10
 99.395394736842
  20
 132.45217332897
  30
0.0
  11
 99.395394736842
  21
 132.95217332897
  31
0.0
   0
LINE
   5
326
 100
AcDbEntity
   8
LEVEL001
 100
AcDbLine
   6
CONTINUOUS
  62
7
  10
 98.395394736842
  20
 132.45217332897
  30
0.0
  11
 98.395394736842
  21
 132.95217332897
  31
0.0
   0
LINE
   5
327
 100
AcDbEntity
   8
LEVEL001
 100
AcDbLine
   6
CONTINUOUS
  62
7
  10
 98.395394736842
  20
 124.95217332897
  30
0.0
  11
 98.395394736842
  21
 125.45217332897
  31
0.0
   0
LINE
   5
328
 100
AcDbEntity
   8
LEVEL001
 100
AcDbLine
   6
CONTINUOUS
  62
7
  10
 98.395394736842
  20
 125.45217332897
  30
0.0
  11
 99.395394736842
  21
 125.45217332897
  31
0.0
   0
LINE
   5
329
 100
AcDbEntity
   8
LEVEL001
 100
AcDbLine
   6
CONTINUOUS
  62
7
  10
 99.395394736842
  20
 124.95217332897
  30
0.0
  11
 99.395394736842
  21
 125.45217332897
  31
0.0
   0
LINE
   5
32A
 100
AcDbEntity
   8
LEVEL001
 100
AcDbLine
   6
CONTINUOUS
  62
7
  10
 204.39539473684
  20
 132.45217332897
  30
0.0
  11
 204.39539473684
  21
 132.95217332897
  31
0.0
   0
LINE
   5
32B
 100
AcDbEntity
   8
LEVEL001
 100
AcDbLine
   6
CONTINUOUS
  62
7
  10
 204.39539473684
  20
 132.45217332897
  30
0.0
  11
 203.39539473684
  21
 132.45217332897
  31
0.0
   0
LINE
   5
32C
 100
AcDbEntity
   8
LEVEL001
 100
AcDbLine
   6
CONTINUOUS
  62
7
  10
 203.39539473684
  20
 132.45217332897
  30
0.0
  11
 203.39539473684
  21
 132.95217332897
  31
0.0
   0
LINE
   5
32D
 100
AcDbEntity
   8
LEVEL001
 100
AcDbLine
   6
CONTINUOUS
  62
7
  10
 204.39539473684
  20
 125.45217332897
  30
0.0
  11
 203.39539473684
  21
 125.45217332897
  31
0.0
   0
LINE
   5
32E
 100
AcDbEntity
   8
LEVEL001
 100
AcDbLine
   6
CONTINUOUS
  62
7
  10
 203.39539473684
  20
 124.95217332897
  30
0.0
  11
 203.39539473684
  21
 125.45217332897
  31
0.0
   0
LINE
   5
32F
 100
AcDbEntity
   8
LEVEL001
 100
AcDbLine
   6
CONTINUOUS
  62
7
  10
 204.39539473684
  20
 124.95217332897
  30
0.0
  11
 204.39539473684
  21
 125.45217332897
  31
0.0
   0
LINE
   5
330
 100
AcDbEntity
   8
LEVEL001
 100
AcDbLine
   6
DASHDOT
  62
3
  10
 151.39539473684
  20
 137.09996216653
  30
0.0
  11
 151.39539473684
  21
 119.96721880370
  31
0.0
   0
LINE
   5
331
 100
AcDbEntity
   8
LEVEL001
 100
AcDbLine
   6
DASHDOT
  62
3
  10
 211.39539473684
  20
 134.37429844972
  30
0.0
  11
 211.39539473684
  21
 123.57547839072
  31
0.0
   0
LINE
   5
332
 100
AcDbEntity
   8
LEVEL001
 100
AcDbLine
   6
DASHDOT
  62
3
  10
 82.567620141205
  20
 128.95217332897
  30
0.0
  11
 220.77174993472
  21
 128.95217332897
  31
0.0
   0
LINE
   5
333
 100
AcDbEntity
   8
LEVEL001
 100
AcDbLine
   6
DASHDOT
  62
3
  10
 91.395394736842
  20
 134.37429844972
  30
0.0
  11
 91.395394736842
  21
 123.57547839072
  31
0.0
   0
DIMENSION
   5
334
 100
AcDbEntity
   8
LEVEL001
   6
CONTINUOUS
  62
2
 100
AcDbDimension
   2
*D2
  10
 204.39539473684
  20
 167.44464139296
  30
0.0
  11
 151.39539473684
  21
 167.44464139296
  31
0.0
  70
0
   3
GMM002
 100
AcDbAlignedDimension
  13
 98.395394736842
  23
 177.08206800186
  33
0.0
  14
 204.39539473684
  24
 177.08206800186
  34
0.0
 100
AcDbRotatedDimension
   0
DIMENSION
   5
335
 100
AcDbEntity
   8
LEVEL001
   6
CONTINUOUS
  62
2
 100
AcDbDimension
   2
*D3
  10
 211.39539473684
  20
 159.03402192394
  30
0.0
  11
 151.39539473684
  21
 159.03402192394
  31
0.0
  70
0
   3
GMM002
 100
AcDbAlignedDimension
  13
 91.395394736842
  23
 172.96411051389
  33
0.0
  14
 211.39539473684
  24
 172.96411051389
  34
0.0
 100
AcDbRotatedDimension
   0
DIMENSION
   5
336
 100
AcDbEntity
   8
LEVEL001
   6
CONTINUOUS
  62
2
 100
AcDbDimension
   2
*D4
  10
 218.39539473684
  20
 149.37738475579
  30
0.0
  11
 151.39539473684
  21
 149.37738475579
  31
0.0
  70
0
   3
GMM002
 100
AcDbAlignedDimension
  13
 84.395394736842
  23
 177.08206800186
  33
0.0
  14
 218.39539473684
  24
 177.08206800186
  34
0.0
 100
AcDbRotatedDimension
   0
DIMENSION
   5
337
 100
AcDbEntity
   8
LEVEL001
   6
CONTINUOUS
  62
2
 100
AcDbDimension
   2
*D5
  10
 233.74120436609
  20
 204.17233348859
  30
0.0
  11
 233.74120436609
  21
 191.17233348859
  31
0.0
  70
0
   3
GMM002
 100
AcDbAlignedDimension
  13
 219.32990801118
  23
 178.17233348859
  33
0.0
  14
 219.32990801118
  24
 204.17233348859
  34
0.0
  50
 90.000000000000
 100
AcDbRotatedDimension
   0
DIMENSION
   5
338
 100
AcDbEntity
   8
LEVEL001
   6
CONTINUOUS
  62
2
 100
AcDbDimension
   2
*D6
  10
 233.74120436609
  20
 124.95217332897
  30
0.0
  11
 233.74120436609
  21
 128.95217332897
  31
0.0
  70
0
   3
GMM002
 100
AcDbAlignedDimension
  13
 218.87995717539
  23
 132.95217332897
  33
0.0
  14
 218.87995717539
  24
 124.95217332897
  34
0.0
  50
 270.00000000000
 100
AcDbRotatedDimension
   0
DIMENSION
   5
339
 100
AcDbEntity
   8
LEVEL001
   6
CONTINUOUS
  62
2
 100
AcDbDimension
   2
*D7
  10
 216.39539473684
  20
 202.17233348859
  30
0.0
  11
 220.00402738688
  21
 206.22455737950
  31
0.0
  70
132
   3
GMM003
 100
AcDbRadialDimension
  15
 217.72549230199
  25
 203.66593332361
  35
0.0
  40
 3.8310644346747
   0
DIMENSION
   5
33A
 100
AcDbEntity
   8
LEVEL001
   6
CONTINUOUS
  62
2
 100
AcDbDimension
   2
*D8
  10
 217.39539473684
  20
 131.95217332897
  30
0.0
  11
 220.08340052663
  21
 134.73237582053
  31
0.0
  70
132
   3
GMM003
 100
AcDbRadialDimension
  15
 218.09048055605
  25
 132.67110010128
  35
0.0
  40
 3.3405632923401
   0
DIMENSION
   5
33B
 100
AcDbEntity
   8
LEVEL001
   6
CONTINUOUS
  62
2
 100
AcDbDimension
   2
*D9
  10
 264.57423751151
  20
 213.72847719725
  30
0.0
  11
 261.07423751151
  21
 213.72847719725
  31
0.0
  70
0
   3
GMM002
 100
AcDbAlignedDimension
  13
 257.57423751151
  23
 204.64145836568
  33
0.0
  14
 264.57423751151
  24
 204.64145836568
  34
0.0
 100
AcDbRotatedDimension
   0
INSERT
   5
33C
 100
AcDbEntity
   8
LEVEL001
 100
AcDbBlockReference
   2
*D10
  10
0.0
  20
0.0
  30
0.0
   0
DIMENSION
   5
33D
 100
AcDbEntity
   8
LEVEL001
   6
CONTINUOUS
  62
2
 100
AcDbDimension
   2
*D11
  10
 265.07423751151
  20
 167.44464139296
  30
0.0
  11
 261.07423751151
  21
 167.44464139296
  31
0.0
  70
0
   3
GMM002
 100
AcDbAlignedDimension
  13
 257.07423751151
  23
 177.53015059773
  33
0.0
  14
 265.07423751151
  24
 177.53015059773
  34
0.0
 100
AcDbRotatedDimension
   0
LINE
   5
33E
 100
AcDbEntity
   8
LEVEL001
 100
AcDbLine
   6
DASHDOT
  62
3
  10
 261.07423751151
  20
 207.67759878515
  30
0.0
  11
 261.07423751151
  21
 173.75546991122
  31
0.0
   0
DIMENSION
   5
33F
 100
AcDbEntity
   8
LEVEL001
   6
CONTINUOUS
  62
2
 100
AcDbDimension
   2
*D12
  10
 218.39539473684
  20
 112.03963034983
  30
0.0
  11
 211.39539473684
  21
 112.03963034983
  31
0.0
  70
0
   3
GMM002
 100
AcDbAlignedDimension
  13
 204.39539473684
  23
 124.12149486289
  33
0.0
  14
 218.39539473684
  24
 124.12149486289
  34
0.0
 100
AcDbRotatedDimension
   0
INSERT
   5
340
 100
AcDbEntity
   8
LEVEL001
 100
AcDbBlockReference
   2
*D13
  10
0.0
  20
0.0
  30
0.0
   0
ENDSEC
  0
SECTION
  2
OBJECTS
  0
DICTIONARY
  5
C
100
AcDbDictionary
  3
ACAD_GROUP
350
D
  3
ACAD_MLINESTYLE
350
1B
  0
DICTIONARY
  5
D
102
{ACAD_REACTORS
330
C
102
}
100
AcDbDictionary
  0
DICTIONARY
  5
1B
102
{ACAD_REACTORS
330
C
102
}
100
AcDbDictionary
  3
STANDARD
350
1C
  0
MLINESTYLE
  5
1C
102
{ACAD_REACTORS
330
1B
102
}
100
AcDbMlineStyle
  2
STANDARD
 70
     0
  3

 62
   256
 51
90.0
 52
90.0
 71
     2
 49
0.5
 62
   256
  6
BYLAYER
 49
-0.5
 62
   256
  6
BYLAYER
  0
ENDSEC
   0
EOF
