   0
SECTION
   2
HEADER
   9
$ACADVER
   1
AC1015
   9
$LIMMIN
  10
0.0
  20
0.0
   9
$LIMMAX
  10
 420.00000000000
  20
 297.00000000000
   9
$EXTMIN
  10
0.0
  20
0.0
  30
0.0
   9
$EXTMAX
  10
 420.00000000000
  20
 297.00000000000
  30
0.0
   9
$LTSCALE
  40
 8.4000000000000
   9
$HANDSEED
   5
333
   0
ENDSEC
   0
SECTION
   2
TABLES
  0
TABLE
  2
VPORT
  5
8
100
AcDbSymbolTable
 70
     1
  0
VPORT
  5
332
100
AcDbSymbolTableRecord
100
AcDbViewportTableRecord
  2
*ACTIVE
 70
     0
 10
0.0
 20
0.0
 11
1.0
 21
1.0
  12
 210.00000000000
  22
 148.50000000000
 13
0.0
 23
0.0
 14
1.0
 24
1.0
 15
0.0
 25
0.0
 16
0.0
 26
0.0
 36
1.0
 17
0.0
 27
0.0
 37
0.0
  40
 420.00000000000
  41
 1.4787878787879
 42
50.0
 43
0.0
 44
0.0
 50
0.0
 51
0.0
 71
     0
 72
   100
 73
     1
 74
     1
 75
     0
 76
     0
 77
     0
 78
     0
  0
ENDTAB
  0
TABLE
  2
LTYPE
  5
5
100
AcDbSymbolTable
 70
    25
  0
LTYPE
  5
12
100
AcDbSymbolTableRecord
100
AcDbLinetypeTableRecord
  2
BYBLOCK
 70
     0
  3

 72
    65
 73
     0
 40
0.0
  0
LTYPE
  5
13
100
AcDbSymbolTableRecord
100
AcDbLinetypeTableRecord
  2
BYLAYER
 70
     0
  3

 72
    65
 73
     0
 40
0.0
  0
LTYPE
  5
14
100
AcDbSymbolTableRecord
100
AcDbLinetypeTableRecord
  2
CONTINUOUS
 70
     0
  3
Solid line
 72
    65
 73
     0
 40
0.0
  0
LTYPE
  5
20
100
AcDbSymbolTableRecord
100
AcDbLinetypeTableRecord
  2
BORDER
 70
     0
  3
__ __ . __ __ . __ __ . __ __ . __ __ . __ __ .
 72
    65
 73
     6
 40
1.75
 49
0.5
 74
     0
 49
-0.25
 74
     0
 49
0.5
 74
     0
 49
-0.25
 74
     0
 49
0.0
 74
     0
 49
-0.25
 74
     0
  0
LTYPE
  5
21
100
AcDbSymbolTableRecord
100
AcDbLinetypeTableRecord
  2
BORDER2
 70
     0
  3
__.__.__.__.__.__.__.__.__.__.__.__.__.__.__.__
 72
    65
 73
     6
 40
0.875
 49
0.25
 74
     0
 49
-0.125
 74
     0
 49
0.25
 74
     0
 49
-0.125
 74
     0
 49
0.0
 74
     0
 49
-0.125
 74
     0
  0
LTYPE
  5
22
100
AcDbSymbolTableRecord
100
AcDbLinetypeTableRecord
  2
BORDERX2
 70
     0
  3
____  ____  .  ____  ____  .  ____  ____  .  __
 72
    65
 73
     6
 40
3.5
 49
1.0
 74
     0
 49
-0.5
 74
     0
 49
1.0
 74
     0
 49
-0.5
 74
     0
 49
0.0
 74
     0
 49
-0.5
 74
     0
  0
LTYPE
  5
23
100
AcDbSymbolTableRecord
100
AcDbLinetypeTableRecord
  2
CENTER
 70
     0
  3
____ _ ____ _ ____ _ ____ _ ____ _ ____ _ ____ 
 72
    65
 73
     4
 40
2.0
 49
1.25
 74
     0
 49
-0.25
 74
     0
 49
0.25
 74
     0
 49
-0.25
 74
     0
  0
LTYPE
  5
24
100
AcDbSymbolTableRecord
100
AcDbLinetypeTableRecord
  2
CENTER2
 70
     0
  3
___ _ ___ _ ___ _ ___ _ ___ _ ___ _ ___ _ ___ _
 72
    65
 73
     4
 40
1.125
 49
0.75
 74
     0
 49
-0.125
 74
     0
 49
0.125
 74
     0
 49
-0.125
 74
     0
  0
LTYPE
  5
25
100
AcDbSymbolTableRecord
100
AcDbLinetypeTableRecord
  2
CENTERX2
 70
     0
  3
________  __  ________  __  ________  __  _____
 72
    65
 73
     4
 40
4.0
 49
2.5
 74
     0
 49
-0.5
 74
     0
 49
0.5
 74
     0
 49
-0.5
 74
     0
  0
LTYPE
  5
26
100
AcDbSymbolTableRecord
100
AcDbLinetypeTableRecord
  2
DASHDOT
 70
     0
  3
__ . __ . __ . __ . __ . __ . __ . __ . __ . __
 72
    65
 73
     4
 40
1.0
 49
0.5
 74
     0
 49
-0.25
 74
     0
 49
0.0
 74
     0
 49
-0.25
 74
     0
  0
LTYPE
  5
27
100
AcDbSymbolTableRecord
100
AcDbLinetypeTableRecord
  2
DASHDOT2
 70
     0
  3
_._._._._._._._._._._._._._._._._._._._._._._._
 72
    65
 73
     4
 40
0.5
 49
0.25
 74
     0
 49
-0.125
 74
     0
 49
0.0
 74
     0
 49
-0.125
 74
     0
  0
LTYPE
  5
28
100
AcDbSymbolTableRecord
100
AcDbLinetypeTableRecord
  2
DASHDOTX2
 70
     0
  3
____  .  ____  .  ____  .  ____  .  ____  .  __
 72
    65
 73
     4
 40
2.0
 49
1.0
 74
     0
 49
-0.5
 74
     0
 49
0.0
 74
     0
 49
-0.5
 74
     0
  0
LTYPE
  5
29
100
AcDbSymbolTableRecord
100
AcDbLinetypeTableRecord
  2
DASHED
 70
     0
  3
__ __ __ __ __ __ __ __ __ __ __ __ __ __ __ __
 72
    65
 73
     2
 40
0.75
 49
0.5
 74
     0
 49
-0.25
 74
     0
  0
LTYPE
  5
2A
100
AcDbSymbolTableRecord
100
AcDbLinetypeTableRecord
  2
DASHED2
 70
     0
  3
_ _ _ _ _ _ _ _ _ _ _ _ _ _ _ _ _ _ _ _ _ _ _ _
 72
    65
 73
     2
 40
0.375
 49
0.25
 74
     0
 49
-0.125
 74
     0
  0
LTYPE
  5
2B
100
AcDbSymbolTableRecord
100
AcDbLinetypeTableRecord
  2
DASHEDX2
 70
     0
  3
____  ____  ____  ____  ____  ____  ____  ____ 
 72
    65
 73
     2
 40
1.5
 49
1.0
 74
     0
 49
-0.5
 74
     0
  0
LTYPE
  5
2C
100
AcDbSymbolTableRecord
100
AcDbLinetypeTableRecord
  2
DIVIDE
 70
     0
  3
____ . . ____ . . ____ . . ____ . . ____ . . __
 72
    65
 73
     6
 40
1.25
 49
0.5
 74
     0
 49
-0.25
 74
     0
 49
0.0
 74
     0
 49
-0.25
 74
     0
 49
0.0
 74
     0
 49
-0.25
 74
     0
  0
LTYPE
  5
2D
100
AcDbSymbolTableRecord
100
AcDbLinetypeTableRecord
  2
DIVIDE2
 70
     0
  3
__..__..__..__..__..__..__..__..__..__..__..__.
 72
    65
 73
     6
 40
0.625
 49
0.25
 74
     0
 49
-0.125
 74
     0
 49
0.0
 74
     0
 49
-0.125
 74
     0
 49
0.0
 74
     0
 49
-0.125
 74
     0
  0
LTYPE
  5
2E
100
AcDbSymbolTableRecord
100
AcDbLinetypeTableRecord
  2
DIVIDEX2
 70
     0
  3
________  .  .  ________  .  .  ________  .  . 
 72
    65
 73
     6
 40
2.5
 49
1.0
 74
     0
 49
-0.5
 74
     0
 49
0.0
 74
     0
 49
-0.5
 74
     0
 49
0.0
 74
     0
 49
-0.5
 74
     0
  0
LTYPE
  5
2F
100
AcDbSymbolTableRecord
100
AcDbLinetypeTableRecord
  2
DOT
 70
     0
  3
. . . . . . . . . . . . . . . . . . . . . . . .
 72
    65
 73
     2
 40
0.25
 49
0.0
 74
     0
 49
-0.25
 74
     0
  0
LTYPE
  5
30
100
AcDbSymbolTableRecord
100
AcDbLinetypeTableRecord
  2
DOT2
 70
     0
  3
...............................................
 72
    65
 73
     2
 40
0.125
 49
0.0
 74
     0
 49
-0.125
 74
     0
  0
LTYPE
  5
31
100
AcDbSymbolTableRecord
100
AcDbLinetypeTableRecord
  2
DOTX2
 70
     0
  3
.  .  .  .  .  .  .  .  .  .  .  .  .  .  .  . 
 72
    65
 73
     2
 40
0.5
 49
0.0
 74
     0
 49
-0.5
 74
     0
  0
LTYPE
  5
32
100
AcDbSymbolTableRecord
100
AcDbLinetypeTableRecord
  2
HIDDEN
 70
     0
  3
__ __ __ __ __ __ __ __ __ __ __ __ __ __ __ __
 72
    65
 73
     2
 40
0.375
 49
0.25
 74
     0
 49
-0.125
 74
     0
  0
LTYPE
  5
33
100
AcDbSymbolTableRecord
100
AcDbLinetypeTableRecord
  2
HIDDEN2
 70
     0
  3
_ _ _ _ _ _ _ _ _ _ _ _ _ _ _ _ _ _ _ _ _ _ _ _
 72
    65
 73
     2
 40
0.1875
 49
0.125
 74
     0
 49
-0.0625
 74
     0
  0
LTYPE
  5
34
100
AcDbSymbolTableRecord
100
AcDbLinetypeTableRecord
  2
HIDDENX2
 70
     0
  3
____ ____ ____ ____ ____ ____ ____ ____ ____ __
 72
    65
 73
     2
 40
0.75
 49
0.5
 74
     0
 49
-0.25
 74
     0
  0
LTYPE
  5
35
100
AcDbSymbolTableRecord
100
AcDbLinetypeTableRecord
  2
PHANTOM
 70
     0
  3
______  __  __  ______  __  __  ______  __  __ 
 72
    65
 73
     6
 40
2.5
 49
1.25
 74
     0
 49
-0.25
 74
     0
 49
0.25
 74
     0
 49
-0.25
 74
     0
 49
0.25
 74
     0
 49
-0.25
 74
     0
  0
LTYPE
  5
36
100
AcDbSymbolTableRecord
100
AcDbLinetypeTableRecord
  2
PHANTOM2
 70
     0
  3
___ _ _ ___ _ _ ___ _ _ ___ _ _ ___ _ _ ___ _ _
 72
    65
 73
     6
 40
1.25
 49
0.625
 74
     0
 49
-0.125
 74
     0
 49
0.125
 74
     0
 49
-0.125
 74
     0
 49
0.125
 74
     0
 49
-0.125
 74
     0
  0
LTYPE
  5
37
100
AcDbSymbolTableRecord
100
AcDbLinetypeTableRecord
  2
PHANTOMX2
 70
     0
  3
____________    ____    ____    ____________   
 72
    65
 73
     6
 40
5.0
 49
2.5
 74
     0
 49
-0.5
 74
     0
 49
0.5
 74
     0
 49
-0.5
 74
     0
 49
0.5
 74
     0
 49
-0.5
 74
     0
  0
ENDTAB
   0
TABLE
   2
LAYER
   5
2
 100
AcDbSymbolTable
  70
2
   0
LAYER
   5
E
 100
AcDbSymbolTableRecord
 100
AcDbLayerTableRecord
   2
0
  70
0
  62
7
   6
CONTINUOUS
 390
30
   0
LAYER
   5
39
 100
AcDbSymbolTableRecord
 100
AcDbLayerTableRecord
   2
LEVEL001
  70
0
  62
7
   6
CONTINUOUS
 390
30
   0
ENDTAB
  0
TABLE
  2
STYLE
  5
3
100
AcDbSymbolTable
  70
3
  0
STYLE
  5
F
100
AcDbSymbolTableRecord
100
AcDbTextStyleTableRecord
  2
STANDARD
 70
     0
 40
0.0
 41
1.0
 50
0.0
 71
     0
 42
0.2
  3
TXT
  4
BIGFONT
  0
STYLE
  5
38
100
AcDbSymbolTableRecord
100
AcDbTextStyleTableRecord
  2
STANDARD1
 70
     4
 40
0.0
 41
1.0
 50
0.0
 71
     0
 42
0.2
  3
TXT
  4
BIGFONT
   0
STYLE
   5
3A
 100
AcDbSymbolTableRecord
 100
AcDbTextStyleTableRecord
   2
GMM001
  70
0
  40
0.0
  41
 0.84210526315789
  50
0.0
  71
     0
  42
1.0
   3
txt.shx
   4
bigfont.shx
   0
ENDTAB
  0
TABLE
  2
VIEW
  5
6
100
AcDbSymbolTable
 70
     0
  0
ENDTAB
  0
TABLE
  2
UCS
  5
7
100
AcDbSymbolTable
 70
     0
  0
ENDTAB
  0
TABLE
  2
APPID
  5
9
100
AcDbSymbolTable
 70
     1
  0
APPID
  5
10
100
AcDbSymbolTableRecord
100
AcDbRegAppTableRecord
  2
ACAD
 70
     0
  0
ENDTAB
   0
TABLE
   2
DIMSTYLE
   5
A
 100
AcDbSymbolTable
  70
4
 100
AcDbDimStyleTable
  0
DIMSTYLE
105
1D
100
AcDbSymbolTableRecord
100
AcDbDimStyleTableRecord
  2
STANDARD
 70
     0
  3

  4

  5

  6

  7

 40
1.0
 41
0.18
 42
0.0625
 43
0.38
 44
0.18
 45
0.0
 46
0.0
 47
0.0
 48
0.0
140
0.18
141
0.09
142
0.0
143
25.4
144
1.0
145
0.0
146
1.0
147
0.09
 71
     0
 72
     0
 73
     1
 74
     1
 75
     0
 76
     0
 77
     0
 78
     0
170
     0
171
     2
172
     0
173
     0
174
     0
175
     0
176
     0
177
     0
178
     0
270
     2
271
     4
272
     4
273
     2
274
     2
340
F
275
     0
280
     0
281
     0
282
     0
283
     1
284
     0
285
     0
286
     0
287
     3
288
     0
   0
DIMSTYLE
 105
3B
 100
AcDbSymbolTableRecord
 100
AcDbDimStyleTableRecord
   2
GMM001
  70
0
   3

   4

   5

   6
_OPEN30
   7
_OPEN30
  40
 1.0000000000000
  41
 3.0000000000000
  42
0.0
  43
 8.0000000000000
  44
 2.0000000000000
  45
0.0
  46
0.0
  47
0.0
  48
0.0
 140
 3.8000000000000
 141
 1.0000000000000
 142
0.0
 143
 0.39400000000000E-1
 144
 1.0000000000000
 145
0.0
 146
 0.65789473684211
 147
 1.6285714285714
  71
0
  72
0
  73
0
  74
0
  75
0
  76
0
  77
3
  78
8
 170
0
 171
2
 172
1
 173
1
 174
0
 175
0
 176
2
 177
2
 178
2
 270
2
 271
6
 272
0
 273
2
 274
2
 340
3A
 275
1
 280
0
 281
0
 282
0
 283
1
 284
0
 285
0
 286
0
 287
3
 288
0
   0
DIMSTYLE
 105
3C
 100
AcDbSymbolTableRecord
 100
AcDbDimStyleTableRecord
   2
GMM002
  70
0
   3

   4

   5

   6
_OPEN30
   7
_OPEN30
  40
 1.0000000000000
  41
 3.0000000000000
  42
0.0
  43
 8.0000000000000
  44
 2.0000000000000
  45
0.0
  46
0.0
  47
0.0
  48
0.0
 140
 3.8000000000000
 141
 1.0000000000000
 142
0.0
 143
 0.39400000000000E-1
 144
 1.0000000000000
 145
0.0
 146
 0.65789473684211
 147
 1.4535370000000
  71
0
  72
0
  73
0
  74
0
  75
0
  76
0
  77
3
  78
8
 170
0
 171
2
 172
1
 173
1
 174
0
 175
0
 176
2
 177
2
 178
2
 270
2
 271
6
 272
0
 273
2
 274
2
 340
3A
 275
1
 280
0
 281
0
 282
0
 283
1
 284
0
 285
0
 286
0
 287
3
 288
1
   0
ENDTAB
  0
TABLE
  2
BLOCK_RECORD
  5
1
100
AcDbSymbolTable
 70
     0
  0
BLOCK_RECORD
  5
18
100
AcDbSymbolTableRecord
100
AcDbBlockTableRecord
  2
*MODEL_SPACE
  0
BLOCK_RECORD
  5
15
100
AcDbSymbolTableRecord
100
AcDbBlockTableRecord
  2
*PAPER_SPACE
   0
BLOCK_RECORD
   5
3D
 100
AcDbSymbolTableRecord
 100
AcDbBlockTableRecord
   2
*D1
   0
BLOCK_RECORD
   5
3E
 100
AcDbSymbolTableRecord
 100
AcDbBlockTableRecord
   2
*D2
   0
BLOCK_RECORD
   5
3F
 100
AcDbSymbolTableRecord
 100
AcDbBlockTableRecord
   2
*D3
   0
BLOCK_RECORD
   5
40
 100
AcDbSymbolTableRecord
 100
AcDbBlockTableRecord
   2
*D4
   0
BLOCK_RECORD
   5
41
 100
AcDbSymbolTableRecord
 100
AcDbBlockTableRecord
   2
*D5
   0
BLOCK_RECORD
   5
42
 100
AcDbSymbolTableRecord
 100
AcDbBlockTableRecord
   2
*D6
   0
BLOCK_RECORD
   5
43
 100
AcDbSymbolTableRecord
 100
AcDbBlockTableRecord
   2
*D7
   0
BLOCK_RECORD
   5
44
 100
AcDbSymbolTableRecord
 100
AcDbBlockTableRecord
   2
*D8
   0
BLOCK_RECORD
   5
45
 100
AcDbSymbolTableRecord
 100
AcDbBlockTableRecord
   2
*D9
   0
BLOCK_RECORD
   5
46
 100
AcDbSymbolTableRecord
 100
AcDbBlockTableRecord
   2
*D10
   0
BLOCK_RECORD
   5
47
 100
AcDbSymbolTableRecord
 100
AcDbBlockTableRecord
   2
_ARCHTICK
   0
BLOCK_RECORD
   5
48
 100
AcDbSymbolTableRecord
 100
AcDbBlockTableRecord
   2
_BOXBLANK
   0
BLOCK_RECORD
   5
49
 100
AcDbSymbolTableRecord
 100
AcDbBlockTableRecord
   2
_BOXFILLED
   0
BLOCK_RECORD
   5
4A
 100
AcDbSymbolTableRecord
 100
AcDbBlockTableRecord
   2
_CLOSED
   0
BLOCK_RECORD
   5
4B
 100
AcDbSymbolTableRecord
 100
AcDbBlockTableRecord
   2
_CLOSEDBLANK
   0
BLOCK_RECORD
   5
4C
 100
AcDbSymbolTableRecord
 100
AcDbBlockTableRecord
   2
_DATUMBLANK
   0
BLOCK_RECORD
   5
4D
 100
AcDbSymbolTableRecord
 100
AcDbBlockTableRecord
   2
_DATUMFILLED
   0
BLOCK_RECORD
   5
4E
 100
AcDbSymbolTableRecord
 100
AcDbBlockTableRecord
   2
_DOT
   0
BLOCK_RECORD
   5
4F
 100
AcDbSymbolTableRecord
 100
AcDbBlockTableRecord
   2
_DOTBLANK
   0
BLOCK_RECORD
   5
50
 100
AcDbSymbolTableRecord
 100
AcDbBlockTableRecord
   2
_DOTSMALL
   0
BLOCK_RECORD
   5
51
 100
AcDbSymbolTableRecord
 100
AcDbBlockTableRecord
   2
_INTEGRAL
   0
BLOCK_RECORD
   5
52
 100
AcDbSymbolTableRecord
 100
AcDbBlockTableRecord
   2
_NONE
   0
BLOCK_RECORD
   5
53
 100
AcDbSymbolTableRecord
 100
AcDbBlockTableRecord
   2
_OBLIQUE
   0
BLOCK_RECORD
   5
54
 100
AcDbSymbolTableRecord
 100
AcDbBlockTableRecord
   2
_OPEN
   0
BLOCK_RECORD
   5
55
 100
AcDbSymbolTableRecord
 100
AcDbBlockTableRecord
   2
_OPEN30
   0
BLOCK_RECORD
   5
56
 100
AcDbSymbolTableRecord
 100
AcDbBlockTableRecord
   2
_OPEN90
   0
BLOCK_RECORD
   5
57
 100
AcDbSymbolTableRecord
 100
AcDbBlockTableRecord
   2
_ORIGIN
   0
ENDTAB
   0
ENDSEC
  0
SECTION
  2
BLOCKS
  0
BLOCK
  5
19
100
AcDbEntity
  8
0
100
AcDbBlockBegin
  2
*MODEL_SPACE
 70
     0
 10
0.0
 20
0.0
 30
0.0
  3
*MODEL_SPACE
  1

  0
ENDBLK
  5
1A
100
AcDbEntity
  8
0
100
AcDbBlockEnd
  0
BLOCK
  5
16
100
AcDbEntity
 67
     1
  8
0
100
AcDbBlockBegin
  2
*PAPER_SPACE
 70
     0
 10
0.0
 20
0.0
 30
0.0
  3
*PAPER_SPACE
  1

  0
ENDBLK
  5
17
100
AcDbEntity
 67
     1
  8
0
100
AcDbBlockEnd
   0
BLOCK
   5
58
 100
AcDbEntity
   8
0
 100
AcDbBlockBegin
   2
_ARCHTICK
  70
0
  10
0.0
  20
0.0
  30
0.0
   3
_ARCHTICK
   0
POLYLINE
   5
59
 100
AcDbEntity
   8
0
   6
BYBLOCK
  62
0
 100
AcDb2dPolyline
  66
1
  10
0.0
  20
0.0
  30
0.0
  70
1
  40
 0.15000000000000
  41
 0.15000000000000
   0
VERTEX
   5
5A
 100
AcDbEntity
   8
0
   6
BYBLOCK
  62
0
 100
AcDbVertex
 100
AcDb2dVertex
  10
-0.50000000000000
  20
-0.50000000000000
  30
0.0
  40
 0.15000000000000
  41
 0.15000000000000
   0
VERTEX
   5
5B
 100
AcDbEntity
   8
0
   6
BYBLOCK
  62
0
 100
AcDbVertex
 100
AcDb2dVertex
  10
 0.50000000000000
  20
 0.50000000000000
  30
0.0
  40
 0.15000000000000
  41
 0.15000000000000
   0
SEQEND
   5
5C
 100
AcDbEntity
   8
0
   6
BYBLOCK
  62
0
   0
ENDBLK
   5
5D
 100
AcDbEntity
   8
0
 100
AcDbBlockEnd
   0
BLOCK
   5
5E
 100
AcDbEntity
   8
0
 100
AcDbBlockBegin
   2
_OBLIQUE
  70
0
  10
0.0
  20
0.0
  30
0.0
   3
_OBLIQUE
   0
LINE
   5
5F
 100
AcDbEntity
   8
0
 100
AcDbLine
   6
BYBLOCK
  62
0
  10
-0.50000000000000
  20
-0.50000000000000
  30
0.0
  11
 0.50000000000000
  21
 0.50000000000000
  31
0.0
   0
ENDBLK
   5
60
 100
AcDbEntity
   8
0
 100
AcDbBlockEnd
   0
BLOCK
   5
61
 100
AcDbEntity
   8
0
 100
AcDbBlockBegin
   2
_BOXBLANK
  70
0
  10
0.0
  20
0.0
  30
0.0
   3
_BOXBLANK
   0
LINE
   5
62
 100
AcDbEntity
   8
0
 100
AcDbLine
   6
BYBLOCK
  62
0
  10
-0.50000000000000
  20
-0.50000000000000
  30
0.0
  11
 0.50000000000000
  21
-0.50000000000000
  31
0.0
   0
LINE
   5
63
 100
AcDbEntity
   8
0
 100
AcDbLine
   6
BYBLOCK
  62
0
  10
 0.50000000000000
  20
-0.50000000000000
  30
0.0
  11
 0.50000000000000
  21
 0.50000000000000
  31
0.0
   0
LINE
   5
64
 100
AcDbEntity
   8
0
 100
AcDbLine
   6
BYBLOCK
  62
0
  10
 0.50000000000000
  20
 0.50000000000000
  30
0.0
  11
-0.50000000000000
  21
 0.50000000000000
  31
0.0
   0
LINE
   5
65
 100
AcDbEntity
   8
0
 100
AcDbLine
   6
BYBLOCK
  62
0
  10
-0.50000000000000
  20
 0.50000000000000
  30
0.0
  11
-0.50000000000000
  21
-0.50000000000000
  31
0.0
   0
LINE
   5
66
 100
AcDbEntity
   8
0
 100
AcDbLine
   6
BYBLOCK
  62
0
  10
-0.50000000000000
  20
0.0
  30
0.0
  11
-1.0000000000000
  21
0.0
  31
0.0
   0
ENDBLK
   5
67
 100
AcDbEntity
   8
0
 100
AcDbBlockEnd
   0
BLOCK
   5
68
 100
AcDbEntity
   8
0
 100
AcDbBlockBegin
   2
_BOXFILLED
  70
0
  10
0.0
  20
0.0
  30
0.0
   3
_BOXFILLED
   0
SOLID
   5
69
 100
AcDbEntity
   8
0
 100
AcDbTrace
   6
BYBLOCK
  62
0
  10
-0.50000000000000
  20
 0.50000000000000
  30
0.0
  11
 0.50000000000000
  21
 0.50000000000000
  31
0.0
  12
-0.50000000000000
  22
-0.50000000000000
  32
0.0
  13
 0.50000000000000
  23
-0.50000000000000
  33
0.0
   0
LINE
   5
6A
 100
AcDbEntity
   8
0
 100
AcDbLine
   6
BYBLOCK
  62
0
  10
-0.50000000000000
  20
0.0
  30
0.0
  11
-1.0000000000000
  21
0.0
  31
0.0
   0
ENDBLK
   5
6B
 100
AcDbEntity
   8
0
 100
AcDbBlockEnd
   0
BLOCK
   5
6C
 100
AcDbEntity
   8
0
 100
AcDbBlockBegin
   2
_CLOSED
  70
0
  10
0.0
  20
0.0
  30
0.0
   3
_CLOSED
   0
LINE
   5
6D
 100
AcDbEntity
   8
0
 100
AcDbLine
   6
BYBLOCK
  62
0
  10
-1.0000000000000
  20
 0.16666666666667
  30
0.0
  11
0.0
  21
0.0
  31
0.0
   0
LINE
   5
6E
 100
AcDbEntity
   8
0
 100
AcDbLine
   6
BYBLOCK
  62
0
  10
0.0
  20
0.0
  30
0.0
  11
-1.0000000000000
  21
-0.16666666666667
  31
0.0
   0
LINE
   5
6F
 100
AcDbEntity
   8
0
 100
AcDbLine
   6
BYBLOCK
  62
0
  10
-1.0000000000000
  20
 0.16666666666667
  30
0.0
  11
-1.0000000000000
  21
-0.16666666666667
  31
0.0
   0
LINE
   5
70
 100
AcDbEntity
   8
0
 100
AcDbLine
   6
BYBLOCK
  62
0
  10
0.0
  20
0.0
  30
0.0
  11
-1.0000000000000
  21
0.0
  31
0.0
   0
ENDBLK
   5
71
 100
AcDbEntity
   8
0
 100
AcDbBlockEnd
   0
BLOCK
   5
72
 100
AcDbEntity
   8
0
 100
AcDbBlockBegin
   2
_OPEN
  70
0
  10
0.0
  20
0.0
  30
0.0
   3
_OPEN
   0
LINE
   5
73
 100
AcDbEntity
   8
0
 100
AcDbLine
   6
BYBLOCK
  62
0
  10
-1.0000000000000
  20
 0.16666666666667
  30
0.0
  11
0.0
  21
0.0
  31
0.0
   0
LINE
   5
74
 100
AcDbEntity
   8
0
 100
AcDbLine
   6
BYBLOCK
  62
0
  10
0.0
  20
0.0
  30
0.0
  11
-1.0000000000000
  21
-0.16666666666667
  31
0.0
   0
LINE
   5
75
 100
AcDbEntity
   8
0
 100
AcDbLine
   6
BYBLOCK
  62
0
  10
0.0
  20
0.0
  30
0.0
  11
-1.0000000000000
  21
0.0
  31
0.0
   0
ENDBLK
   5
76
 100
AcDbEntity
   8
0
 100
AcDbBlockEnd
   0
BLOCK
   5
77
 100
AcDbEntity
   8
0
 100
AcDbBlockBegin
   2
_OPEN30
  70
0
  10
0.0
  20
0.0
  30
0.0
   3
_OPEN30
   0
LINE
   5
78
 100
AcDbEntity
   8
0
 100
AcDbLine
   6
BYBLOCK
  62
0
  10
-1.0000000000000
  20
 0.26794919243110
  30
0.0
  11
0.0
  21
0.0
  31
0.0
   0
LINE
   5
79
 100
AcDbEntity
   8
0
 100
AcDbLine
   6
BYBLOCK
  62
0
  10
0.0
  20
0.0
  30
0.0
  11
-1.0000000000000
  21
-0.26794919243110
  31
0.0
   0
LINE
   5
7A
 100
AcDbEntity
   8
0
 100
AcDbLine
   6
BYBLOCK
  62
0
  10
0.0
  20
0.0
  30
0.0
  11
-1.0000000000000
  21
0.0
  31
0.0
   0
ENDBLK
   5
7B
 100
AcDbEntity
   8
0
 100
AcDbBlockEnd
   0
BLOCK
   5
7C
 100
AcDbEntity
   8
0
 100
AcDbBlockBegin
   2
_OPEN90
  70
0
  10
0.0
  20
0.0
  30
0.0
   3
_OPEN90
   0
LINE
   5
7D
 100
AcDbEntity
   8
0
 100
AcDbLine
   6
BYBLOCK
  62
0
  10
-0.50000000000000
  20
 0.50000000000000
  30
0.0
  11
0.0
  21
0.0
  31
0.0
   0
LINE
   5
7E
 100
AcDbEntity
   8
0
 100
AcDbLine
   6
BYBLOCK
  62
0
  10
0.0
  20
0.0
  30
0.0
  11
-0.50000000000000
  21
-0.50000000000000
  31
0.0
   0
LINE
   5
7F
 100
AcDbEntity
   8
0
 100
AcDbLine
   6
BYBLOCK
  62
0
  10
0.0
  20
0.0
  30
0.0
  11
-1.0000000000000
  21
0.0
  31
0.0
   0
ENDBLK
   5
80
 100
AcDbEntity
   8
0
 100
AcDbBlockEnd
   0
BLOCK
   5
81
 100
AcDbEntity
   8
0
 100
AcDbBlockBegin
   2
_CLOSEDBLANK
  70
0
  10
0.0
  20
0.0
  30
0.0
   3
_CLOSEDBLANK
   0
LINE
   5
82
 100
AcDbEntity
   8
0
 100
AcDbLine
   6
BYBLOCK
  62
0
  10
-1.0000000000000
  20
 0.16666666666667
  30
0.0
  11
0.0
  21
0.0
  31
0.0
   0
LINE
   5
83
 100
AcDbEntity
   8
0
 100
AcDbLine
   6
BYBLOCK
  62
0
  10
0.0
  20
0.0
  30
0.0
  11
-1.0000000000000
  21
-0.16666666666667
  31
0.0
   0
LINE
   5
84
 100
AcDbEntity
   8
0
 100
AcDbLine
   6
BYBLOCK
  62
0
  10
-1.0000000000000
  20
 0.16666666666667
  30
0.0
  11
-1.0000000000000
  21
-0.16666666666667
  31
0.0
   0
ENDBLK
   5
85
 100
AcDbEntity
   8
0
 100
AcDbBlockEnd
   0
BLOCK
   5
86
 100
AcDbEntity
   8
0
 100
AcDbBlockBegin
   2
_DOT
  70
0
  10
0.0
  20
0.0
  30
0.0
   3
_DOT
   0
POLYLINE
   5
87
 100
AcDbEntity
   8
0
   6
BYBLOCK
  62
0
 100
AcDb2dPolyline
  66
1
  10
0.0
  20
0.0
  30
0.0
  70
1
  40
 0.50000000000000
  41
 0.50000000000000
   0
VERTEX
   5
88
 100
AcDbEntity
   8
0
   6
BYBLOCK
  62
0
 100
AcDbVertex
 100
AcDb2dVertex
  10
-0.25000000000000
  20
0.0
  30
0.0
  42
 1.0000000000000
  40
 0.50000000000000
  41
 0.50000000000000
   0
VERTEX
   5
89
 100
AcDbEntity
   8
0
   6
BYBLOCK
  62
0
 100
AcDbVertex
 100
AcDb2dVertex
  10
 0.25000000000000
  20
0.0
  30
0.0
  42
 1.0000000000000
  40
 0.50000000000000
  41
 0.50000000000000
   0
SEQEND
   5
8A
 100
AcDbEntity
   8
0
   6
BYBLOCK
  62
0
   0
LINE
   5
8B
 100
AcDbEntity
   8
0
 100
AcDbLine
   6
BYBLOCK
  62
0
  10
-0.50000000000000
  20
0.0
  30
0.0
  11
-1.0000000000000
  21
0.0
  31
0.0
   0
ENDBLK
   5
8C
 100
AcDbEntity
   8
0
 100
AcDbBlockEnd
   0
BLOCK
   5
8D
 100
AcDbEntity
   8
0
 100
AcDbBlockBegin
   2
_DOTSMALL
  70
0
  10
0.0
  20
0.0
  30
0.0
   3
_DOTSMALL
   0
POLYLINE
   5
8E
 100
AcDbEntity
   8
0
   6
BYBLOCK
  62
0
 100
AcDb2dPolyline
  66
1
  10
0.0
  20
0.0
  30
0.0
  70
1
  40
 0.50000000000000
  41
 0.50000000000000
   0
VERTEX
   5
8F
 100
AcDbEntity
   8
0
   6
BYBLOCK
  62
0
 100
AcDbVertex
 100
AcDb2dVertex
  10
-0.62500000000000E-1
  20
0.0
  30
0.0
  42
 1.0000000000000
  40
 0.50000000000000
  41
 0.50000000000000
   0
VERTEX
   5
90
 100
AcDbEntity
   8
0
   6
BYBLOCK
  62
0
 100
AcDbVertex
 100
AcDb2dVertex
  10
 0.62500000000000E-1
  20
0.0
  30
0.0
  42
 1.0000000000000
  40
 0.50000000000000
  41
 0.50000000000000
   0
SEQEND
   5
91
 100
AcDbEntity
   8
0
   6
BYBLOCK
  62
0
   0
ENDBLK
   5
92
 100
AcDbEntity
   8
0
 100
AcDbBlockEnd
   0
BLOCK
   5
93
 100
AcDbEntity
   8
0
 100
AcDbBlockBegin
   2
_DATUMBLANK
  70
0
  10
0.0
  20
0.0
  30
0.0
   3
_DATUMBLANK
   0
LINE
   5
94
 100
AcDbEntity
   8
0
 100
AcDbLine
   6
BYBLOCK
  62
0
  10
0.0
  20
 0.57735027000000
  30
0.0
  11
-1.0000000000000
  21
0.0
  31
0.0
   0
LINE
   5
95
 100
AcDbEntity
   8
0
 100
AcDbLine
   6
BYBLOCK
  62
0
  10
-1.0000000000000
  20
0.0
  30
0.0
  11
0.0
  21
-0.57735027000000
  31
0.0
   0
LINE
   5
96
 100
AcDbEntity
   8
0
 100
AcDbLine
   6
BYBLOCK
  62
0
  10
0.0
  20
-0.57735027000000
  30
0.0
  11
0.0
  21
 0.57735027000000
  31
0.0
   0
ENDBLK
   5
97
 100
AcDbEntity
   8
0
 100
AcDbBlockEnd
   0
BLOCK
   5
98
 100
AcDbEntity
   8
0
 100
AcDbBlockBegin
   2
_DATUMFILLED
  70
0
  10
0.0
  20
0.0
  30
0.0
   3
_DATUMFILLED
   0
SOLID
   5
99
 100
AcDbEntity
   8
0
 100
AcDbTrace
   6
BYBLOCK
  62
0
  10
0.0
  20
 0.57735027000000
  30
0.0
  11
-1.0000000000000
  21
0.0
  31
0.0
  12
0.0
  22
-0.57735027000000
  32
0.0
  13
0.0
  23
-0.57735027000000
  33
0.0
   0
ENDBLK
   5
9A
 100
AcDbEntity
   8
0
 100
AcDbBlockEnd
   0
BLOCK
   5
9B
 100
AcDbEntity
   8
0
 100
AcDbBlockBegin
   2
_ORIGIN
  70
0
  10
0.0
  20
0.0
  30
0.0
   3
_ORIGIN
   0
CIRCLE
   5
9C
 100
AcDbEntity
   8
0
 100
AcDbCircle
   6
BYBLOCK
  62
0
  10
0.0
  20
0.0
  30
0.0
  40
 0.50000000000000
   0
LINE
   5
9D
 100
AcDbEntity
   8
0
 100
AcDbLine
   6
BYBLOCK
  62
0
  10
0.0
  20
0.0
  30
0.0
  11
-1.0000000000000
  21
0.0
  31
0.0
   0
ENDBLK
   5
9E
 100
AcDbEntity
   8
0
 100
AcDbBlockEnd
   0
BLOCK
   5
9F
 100
AcDbEntity
   8
0
 100
AcDbBlockBegin
   2
_NONE
  70
0
  10
0.0
  20
0.0
  30
0.0
   3
_NONE
   0
CIRCLE
   5
A0
 100
AcDbEntity
   8
0
 100
AcDbCircle
   6
BYBLOCK
  62
0
  10
0.0
  20
0.0
  30
0.0
  40
 0.25000000000000
   0
ENDBLK
   5
A1
 100
AcDbEntity
   8
0
 100
AcDbBlockEnd
   0
BLOCK
   5
A2
 100
AcDbEntity
   8
0
 100
AcDbBlockBegin
   2
_DOTBLANK
  70
0
  10
0.0
  20
0.0
  30
0.0
   3
_DOTBLANK
   0
CIRCLE
   5
A3
 100
AcDbEntity
   8
0
 100
AcDbCircle
   6
BYBLOCK
  62
0
  10
0.0
  20
0.0
  30
0.0
  40
 0.50000000000000
   0
LINE
   5
A4
 100
AcDbEntity
   8
0
 100
AcDbLine
   6
BYBLOCK
  62
0
  10
-0.50000000000000
  20
0.0
  30
0.0
  11
-1.0000000000000
  21
0.0
  31
0.0
   0
ENDBLK
   5
A5
 100
AcDbEntity
   8
0
 100
AcDbBlockEnd
   0
BLOCK
   5
A6
 100
AcDbEntity
   8
0
 100
AcDbBlockBegin
   2
_INTEGRAL
  70
0
  10
0.0
  20
0.0
  30
0.0
   3
_INTEGRAL
   0
ARC
   5
A7
 100
AcDbEntity
   8
0
   6
BYBLOCK
  62
0
 100
AcDbCircle
  10
 0.44488800000000
  20
-0.91335000000000E-1
  30
0.0
  40
 0.45416700000000
 100
AcDbArc
  50
 102.00000000000
  51
 168.00000000000
   0
ARC
   5
A8
 100
AcDbEntity
   8
0
   6
BYBLOCK
  62
0
 100
AcDbCircle
  10
-0.44488800000000
  20
 0.91335000000000E-1
  30
0.0
  40
 0.45416700000000
 100
AcDbArc
  50
 282.00000000000
  51
 348.00000000000
   0
ENDBLK
   5
A9
 100
AcDbEntity
   8
0
 100
AcDbBlockEnd
   0
BLOCK
   5
AA
 100
AcDbEntity
   8
0
 100
AcDbBlockBegin
   2
*D1
  70
65
  10
0.0
  20
0.0
  30
0.0
   3
*D1
   0
POLYLINE
   5
AB
 100
AcDbEntity
   8
LEVEL001
   6
CONTINUOUS
  62
2
 100
AcDb2dPolyline
  66
1
  10
0.0
  20
0.0
  30
0.0
  70
0
   0
VERTEX
   5
AC
 100
AcDbEntity
   8
LEVEL001
   6
CONTINUOUS
  62
2
 100
AcDbVertex
 100
AcDb2dVertex
  10
 184.41838558894
  20
 188.68263508991
  30
0.0
   0
VERTEX
   5
AD
 100
AcDbEntity
   8
LEVEL001
   6
CONTINUOUS
  62
2
 100
AcDbVertex
 100
AcDb2dVertex
  10
 190.36982949752
  20
 201.99156343921
  30
0.0
   0
VERTEX
   5
AE
 100
AcDbEntity
   8
LEVEL001
   6
CONTINUOUS
  62
2
 100
AcDbVertex
 100
AcDb2dVertex
  10
 206.36982949752
  20
 201.99156343921
  30
0.0
   0
SEQEND
   5
AF
 100
AcDbEntity
   8
LEVEL001
   6
CONTINUOUS
  62
2
   0
INSERT
   5
B0
 100
AcDbEntity
   8
LEVEL001
   6
CONTINUOUS
  62
2
 100
AcDbBlockReference
   2
_OPEN30
  10
 184.41838558894
  20
 188.68263508991
  30
0.0
  41
 3.0000000000000
  42
 3.0000000000000
  43
 3.0000000000000
  50
 245.90691462220
   0
MTEXT
   5
B1
 100
AcDbEntity
   8
LEVEL001
  62
2
 100
AcDbMText
  10
 190.36982949752
  20
 203.62013486778
  30
0.0
  40
 3.8000000000000
  41
0.0
  71
7
  72
1
   1
\A1;（Ｒ７７）
   7
GMM001
   0
ENDBLK
   5
B2
 100
AcDbEntity
   8
0
 100
AcDbBlockEnd
   0
BLOCK
   5
B3
 100
AcDbEntity
   8
0
 100
AcDbBlockBegin
   2
*D2
  70
65
  10
0.0
  20
0.0
  30
0.0
   3
*D2
   0
POLYLINE
   5
B4
 100
AcDbEntity
   8
LEVEL001
   6
CONTINUOUS
  62
2
 100
AcDb2dPolyline
  66
1
  10
0.0
  20
0.0
  30
0.0
  70
0
   0
VERTEX
   5
B5
 100
AcDbEntity
   8
LEVEL001
   6
CONTINUOUS
  62
2
 100
AcDbVertex
 100
AcDb2dVertex
  10
 185.49761787049
  20
 179.12674816331
  30
0.0
   0
VERTEX
   5
B6
 100
AcDbEntity
   8
LEVEL001
   6
CONTINUOUS
  62
2
 100
AcDbVertex
 100
AcDb2dVertex
  10
 179.70292566084
  20
 167.54271006501
  30
0.0
   0
VERTEX
   5
B7
 100
AcDbEntity
   8
LEVEL001
   6
CONTINUOUS
  62
2
 100
AcDbVertex
 100
AcDb2dVertex
  10
 163.70292566084
  20
 167.54271006501
  30
0.0
   0
SEQEND
   5
B8
 100
AcDbEntity
   8
LEVEL001
   6
CONTINUOUS
  62
2
   0
INSERT
   5
B9
 100
AcDbEntity
   8
LEVEL001
   6
CONTINUOUS
  62
2
 100
AcDbBlockReference
   2
_OPEN30
  10
 185.49761787049
  20
 179.12674816331
  30
0.0
  41
 3.0000000000000
  42
 3.0000000000000
  43
 3.0000000000000
  50
 63.424372429781
   0
MTEXT
   5
BA
 100
AcDbEntity
   8
LEVEL001
  62
2
 100
AcDbMText
  10
 163.70292566084
  20
 169.17128149358
  30
0.0
  40
 3.8000000000000
  41
0.0
  71
7
  72
1
   1
\A1;（Ｒ４８）
   7
GMM001
   0
ENDBLK
   5
BB
 100
AcDbEntity
   8
0
 100
AcDbBlockEnd
   0
BLOCK
   5
BC
 100
AcDbEntity
   8
0
 100
AcDbBlockBegin
   2
*D3
  70
65
  10
0.0
  20
0.0
  30
0.0
   3
*D3
   0
POLYLINE
   5
BD
 100
AcDbEntity
   8
LEVEL001
   6
CONTINUOUS
  62
2
 100
AcDb2dPolyline
  66
1
  10
0.0
  20
0.0
  30
0.0
  70
0
   0
VERTEX
   5
BE
 100
AcDbEntity
   8
LEVEL001
   6
CONTINUOUS
  62
2
 100
AcDbVertex
 100
AcDb2dVertex
  10
 149.77526851327
  20
 89.417782032239
  30
0.0
   0
VERTEX
   5
BF
 100
AcDbEntity
   8
LEVEL001
   6
CONTINUOUS
  62
2
 100
AcDbVertex
 100
AcDb2dVertex
  10
 152.57243198233
  20
 72.437899162489
  30
0.0
   0
VERTEX
   5
C0
 100
AcDbEntity
   8
LEVEL001
   6
CONTINUOUS
  62
2
 100
AcDbVertex
 100
AcDb2dVertex
  10
 132.46404181991
  20
 72.437899162489
  30
0.0
   0
SEQEND
   5
C1
 100
AcDbEntity
   8
LEVEL001
   6
CONTINUOUS
  62
2
   0
INSERT
   5
C2
 100
AcDbEntity
   8
LEVEL001
   6
CONTINUOUS
  62
2
 100
AcDbBlockReference
   2
_OPEN30
  10
 149.77526851327
  20
 89.417782032239
  30
0.0
  41
 3.0000000000000
  42
 3.0000000000000
  43
 3.0000000000000
  50
 99.354545890681
   0
MTEXT
   5
C3
 100
AcDbEntity
   8
LEVEL001
  62
2
 100
AcDbMText
  10
 132.46404181991
  20
 74.066470591061
  30
0.0
  40
 3.8000000000000
  41
0.0
  71
7
  72
1
   1
\A1;（Ｒ３５２）
   7
GMM001
   0
ENDBLK
   5
C4
 100
AcDbEntity
   8
0
 100
AcDbBlockEnd
   0
BLOCK
   5
C5
 100
AcDbEntity
   8
0
 100
AcDbBlockBegin
   2
*D4
  70
65
  10
0.0
  20
0.0
  30
0.0
   3
*D4
   0
LINE
   5
C6
 100
AcDbEntity
   8
LEVEL001
 100
AcDbLine
   6
CONTINUOUS
  62
2
  10
 112.97975661537
  20
 104.03869110916
  30
0.0
  11
 112.97975661537
  21
 116.76240600784
  31
0.0
   0
LINE
   5
C7
 100
AcDbEntity
   8
LEVEL001
 100
AcDbLine
   6
CONTINUOUS
  62
2
  10
 212.97975661537
  20
 104.03869110916
  30
0.0
  11
 212.97975661537
  21
 116.76240600784
  31
0.0
   0
LINE
   5
C8
 100
AcDbEntity
   8
LEVEL001
 100
AcDbLine
   6
CONTINUOUS
  62
2
  10
 112.97975661537
  20
 114.76240600784
  30
0.0
  11
 162.97975661537
  21
 114.76240600784
  31
0.0
   0
LINE
   5
C9
 100
AcDbEntity
   8
LEVEL001
 100
AcDbLine
   6
CONTINUOUS
  62
2
  10
 212.97975661537
  20
 114.76240600784
  30
0.0
  11
 162.97975661537
  21
 114.76240600784
  31
0.0
   0
INSERT
   5
CA
 100
AcDbEntity
   8
LEVEL001
   6
CONTINUOUS
  62
2
 100
AcDbBlockReference
   2
_OPEN30
  10
 112.97975661537
  20
 114.76240600784
  30
0.0
  41
 3.0000000000000
  42
 3.0000000000000
  43
 3.0000000000000
  50
 180.00000000000
   0
INSERT
   5
CB
 100
AcDbEntity
   8
LEVEL001
   6
CONTINUOUS
  62
2
 100
AcDbBlockReference
   2
_OPEN30
  10
 212.97975661537
  20
 114.76240600784
  30
0.0
  41
 3.0000000000000
  42
 3.0000000000000
  43
 3.0000000000000
  50
0.0
   0
MTEXT
   5
CC
 100
AcDbEntity
   8
LEVEL001
  62
2
 100
AcDbMText
  10
 162.97975661537
  20
 116.39097743641
  30
0.0
  40
 3.8000000000000
  41
0.0
  71
8
  72
1
   1
\A1;100
   7
GMM001
   0
ENDBLK
   5
CD
 100
AcDbEntity
   8
0
 100
AcDbBlockEnd
   0
BLOCK
   5
CE
 100
AcDbEntity
   8
0
 100
AcDbBlockBegin
   2
*D5
  70
65
  10
0.0
  20
0.0
  30
0.0
   3
*D5
   0
LINE
   5
CF
 100
AcDbEntity
   8
LEVEL001
 100
AcDbLine
   6
CONTINUOUS
  62
2
  10
 218.67072713373
  20
 86.157539847539
  30
0.0
  11
 244.90468962216
  21
 86.157539847539
  31
0.0
   0
LINE
   5
D0
 100
AcDbEntity
   8
LEVEL001
 100
AcDbLine
   6
CONTINUOUS
  62
2
  10
 218.13047956233
  20
 100.15753984754
  30
0.0
  11
 244.90468962216
  21
 100.15753984754
  31
0.0
   0
LINE
   5
D1
 100
AcDbEntity
   8
LEVEL001
 100
AcDbLine
   6
CONTINUOUS
  62
2
  10
 242.90468962216
  20
 86.157539847539
  30
0.0
  11
 242.90468962216
  21
 93.157539847539
  31
0.0
   0
LINE
   5
D2
 100
AcDbEntity
   8
LEVEL001
 100
AcDbLine
   6
CONTINUOUS
  62
2
  10
 242.90468962216
  20
 100.15753984754
  30
0.0
  11
 242.90468962216
  21
 93.157539847539
  31
0.0
   0
INSERT
   5
D3
 100
AcDbEntity
   8
LEVEL001
   6
CONTINUOUS
  62
2
 100
AcDbBlockReference
   2
_OPEN30
  10
 242.90468962216
  20
 86.157539847539
  30
0.0
  41
 3.0000000000000
  42
 3.0000000000000
  43
 3.0000000000000
  50
 270.00000000000
   0
INSERT
   5
D4
 100
AcDbEntity
   8
LEVEL001
   6
CONTINUOUS
  62
2
 100
AcDbBlockReference
   2
_OPEN30
  10
 242.90468962216
  20
 100.15753984754
  30
0.0
  41
 3.0000000000000
  42
 3.0000000000000
  43
 3.0000000000000
  50
 90.000000000000
   0
MTEXT
   5
D5
 100
AcDbEntity
   8
LEVEL001
  62
2
 100
AcDbMText
  10
 241.27611819359
  20
 93.157539847539
  30
0.0
  40
 3.8000000000000
  41
0.0
  71
8
  72
1
   1
\A1;14
   7
GMM001
  11
0.0
  21
 1.0000000000000
  31
0.0
   0
ENDBLK
   5
D6
 100
AcDbEntity
   8
0
 100
AcDbBlockEnd
   0
BLOCK
   5
D7
 100
AcDbEntity
   8
0
 100
AcDbBlockBegin
   2
*D6
  70
65
  10
0.0
  20
0.0
  30
0.0
   3
*D6
   0
LINE
   5
D8
 100
AcDbEntity
   8
LEVEL001
 100
AcDbLine
   6
CONTINUOUS
  62
2
  10
 223.97975661537
  20
 161.76499604807
  30
0.0
  11
 246.68541156747
  21
 161.76499604807
  31
0.0
   0
LINE
   5
D9
 100
AcDbEntity
   8
LEVEL001
 100
AcDbLine
   6
CONTINUOUS
  62
2
  10
 174.02261259642
  20
 191.76499604807
  30
0.0
  11
 246.68541156747
  21
 191.76499604807
  31
0.0
   0
LINE
   5
DA
 100
AcDbEntity
   8
LEVEL001
 100
AcDbLine
   6
CONTINUOUS
  62
2
  10
 244.68541156747
  20
 161.76499604807
  30
0.0
  11
 244.68541156747
  21
 176.76499604807
  31
0.0
   0
LINE
   5
DB
 100
AcDbEntity
   8
LEVEL001
 100
AcDbLine
   6
CONTINUOUS
  62
2
  10
 244.68541156747
  20
 191.76499604807
  30
0.0
  11
 244.68541156747
  21
 176.76499604807
  31
0.0
   0
INSERT
   5
DC
 100
AcDbEntity
   8
LEVEL001
   6
CONTINUOUS
  62
2
 100
AcDbBlockReference
   2
_OPEN30
  10
 244.68541156747
  20
 161.76499604807
  30
0.0
  41
 3.0000000000000
  42
 3.0000000000000
  43
 3.0000000000000
  50
 270.00000000000
   0
INSERT
   5
DD
 100
AcDbEntity
   8
LEVEL001
   6
CONTINUOUS
  62
2
 100
AcDbBlockReference
   2
_OPEN30
  10
 244.68541156747
  20
 191.76499604807
  30
0.0
  41
 3.0000000000000
  42
 3.0000000000000
  43
 3.0000000000000
  50
 90.000000000000
   0
MTEXT
   5
DE
 100
AcDbEntity
   8
LEVEL001
  62
2
 100
AcDbMText
  10
 243.05684013890
  20
 176.76499604807
  30
0.0
  40
 3.8000000000000
  41
0.0
  71
8
  72
1
   1
\A1;30
   7
GMM001
  11
0.0
  21
 1.0000000000000
  31
0.0
   0
ENDBLK
   5
DF
 100
AcDbEntity
   8
0
 100
AcDbBlockEnd
   0
BLOCK
   5
E0
 100
AcDbEntity
   8
0
 100
AcDbBlockBegin
   2
*D7
  70
65
  10
0.0
  20
0.0
  30
0.0
   3
*D7
   0
POLYLINE
   5
E1
 100
AcDbEntity
   8
LEVEL001
   6
CONTINUOUS
  62
2
 100
AcDb2dPolyline
  66
1
  10
0.0
  20
0.0
  30
0.0
  70
0
   0
VERTEX
   5
E2
 100
AcDbEntity
   8
LEVEL001
   6
CONTINUOUS
  62
2
 100
AcDbVertex
 100
AcDb2dVertex
  10
 212.97975661537
  20
 93.157539847539
  30
0.0
   0
VERTEX
   5
E3
 100
AcDbEntity
   8
LEVEL001
   6
CONTINUOUS
  62
2
 100
AcDbVertex
 100
AcDb2dVertex
  10
 217.98490069994
  20
 73.112651250465
  30
0.0
   0
VERTEX
   5
E4
 100
AcDbEntity
   8
LEVEL001
   6
CONTINUOUS
  62
2
 100
AcDbVertex
 100
AcDb2dVertex
  10
 260.09504526996
  20
 73.112651250465
  30
0.0
   0
SEQEND
   5
E5
 100
AcDbEntity
   8
LEVEL001
   6
CONTINUOUS
  62
2
   0
INSERT
   5
E6
 100
AcDbEntity
   8
LEVEL001
   6
CONTINUOUS
  62
2
 100
AcDbBlockReference
   2
_OPEN30
  10
 212.97975661537
  20
 93.157539847539
  30
0.0
  41
 3.0000000000000
  42
 3.0000000000000
  43
 3.0000000000000
  50
 104.01989088573
   0
MTEXT
   5
E7
 100
AcDbEntity
   8
LEVEL001
  62
2
 100
AcDbMText
  10
 220.09504526996
  20
 74.741222679037
  30
0.0
  40
 3.8000000000000
  41
0.0
  71
7
  72
1
   1
\A1;２-Ｍ４×０.７　有効７.５
   7
GMM001
   0
ENDBLK
   5
E8
 100
AcDbEntity
   8
0
 100
AcDbBlockEnd
   0
BLOCK
   5
E9
 100
AcDbEntity
   8
0
 100
AcDbBlockBegin
   2
*D8
  70
65
  10
0.0
  20
0.0
  30
0.0
   3
*D8
   0
LINE
   5
EA
 100
AcDbEntity
   8
LEVEL001
 100
AcDbLine
   6
CONTINUOUS
  62
2
  10
 101.97975661537
  20
 161.76499604807
  30
0.0
  11
 101.97975661537
  21
 137.39688025057
  31
0.0
   0
LINE
   5
EB
 100
AcDbEntity
   8
LEVEL001
 100
AcDbLine
   6
CONTINUOUS
  62
2
  10
 223.97975661537
  20
 161.76499604807
  30
0.0
  11
 223.97975661537
  21
 137.39688025057
  31
0.0
   0
LINE
   5
EC
 100
AcDbEntity
   8
LEVEL001
 100
AcDbLine
   6
CONTINUOUS
  62
2
  10
 101.97975661537
  20
 139.39688025057
  30
0.0
  11
 162.97975661537
  21
 139.39688025057
  31
0.0
   0
LINE
   5
ED
 100
AcDbEntity
   8
LEVEL001
 100
AcDbLine
   6
CONTINUOUS
  62
2
  10
 223.97975661537
  20
 139.39688025057
  30
0.0
  11
 162.97975661537
  21
 139.39688025057
  31
0.0
   0
INSERT
   5
EE
 100
AcDbEntity
   8
LEVEL001
   6
CONTINUOUS
  62
2
 100
AcDbBlockReference
   2
_OPEN30
  10
 101.97975661537
  20
 139.39688025057
  30
0.0
  41
 3.0000000000000
  42
 3.0000000000000
  43
 3.0000000000000
  50
 180.00000000000
   0
INSERT
   5
EF
 100
AcDbEntity
   8
LEVEL001
   6
CONTINUOUS
  62
2
 100
AcDbBlockReference
   2
_OPEN30
  10
 223.97975661537
  20
 139.39688025057
  30
0.0
  41
 3.0000000000000
  42
 3.0000000000000
  43
 3.0000000000000
  50
0.0
   0
MTEXT
   5
F0
 100
AcDbEntity
   8
LEVEL001
  62
2
 100
AcDbMText
  10
 162.97975661537
  20
 141.02545167914
  30
0.0
  40
 3.8000000000000
  41
0.0
  71
8
  72
1
   1
\A1;122
   7
GMM001
   0
ENDBLK
   5
F1
 100
AcDbEntity
   8
0
 100
AcDbBlockEnd
   0
BLOCK
   5
F2
 100
AcDbEntity
   8
0
 100
AcDbBlockBegin
   2
*D9
  70
65
  10
0.0
  20
0.0
  30
0.0
   3
*D9
   0
LINE
   5
F3
 100
AcDbEntity
   8
LEVEL001
 100
AcDbLine
   6
CONTINUOUS
  62
2
  10
 203.97975661537
  20
 161.76499604807
  30
0.0
  11
 203.97975661537
  21
 145.54057772097
  31
0.0
   0
LINE
   5
F4
 100
AcDbEntity
   8
LEVEL001
 100
AcDbLine
   6
CONTINUOUS
  62
2
  10
 223.97975661537
  20
 161.76499604807
  30
0.0
  11
 223.97975661537
  21
 145.54057772097
  31
0.0
   0
LINE
   5
F5
 100
AcDbEntity
   8
LEVEL001
 100
AcDbLine
   6
CONTINUOUS
  62
2
  10
 203.97975661537
  20
 147.54057772097
  30
0.0
  11
 213.97975661537
  21
 147.54057772097
  31
0.0
   0
LINE
   5
F6
 100
AcDbEntity
   8
LEVEL001
 100
AcDbLine
   6
CONTINUOUS
  62
2
  10
 223.97975661537
  20
 147.54057772097
  30
0.0
  11
 213.97975661537
  21
 147.54057772097
  31
0.0
   0
INSERT
   5
F7
 100
AcDbEntity
   8
LEVEL001
   6
CONTINUOUS
  62
2
 100
AcDbBlockReference
   2
_OPEN30
  10
 203.97975661537
  20
 147.54057772097
  30
0.0
  41
 3.0000000000000
  42
 3.0000000000000
  43
 3.0000000000000
  50
 180.00000000000
   0
INSERT
   5
F8
 100
AcDbEntity
   8
LEVEL001
   6
CONTINUOUS
  62
2
 100
AcDbBlockReference
   2
_OPEN30
  10
 223.97975661537
  20
 147.54057772097
  30
0.0
  41
 3.0000000000000
  42
 3.0000000000000
  43
 3.0000000000000
  50
0.0
   0
MTEXT
   5
F9
 100
AcDbEntity
   8
LEVEL001
  62
2
 100
AcDbMText
  10
 213.97975661537
  20
 149.16914914954
  30
0.0
  40
 3.8000000000000
  41
0.0
  71
8
  72
1
   1
\A1;20
   7
GMM001
   0
ENDBLK
   5
FA
 100
AcDbEntity
   8
0
 100
AcDbBlockEnd
   0
BLOCK
   5
FB
 100
AcDbEntity
   8
0
 100
AcDbBlockBegin
   2
*D10
  70
65
  10
0.0
  20
0.0
  30
0.0
   3
*D10
   0
LINE
   5
FC
 100
AcDbEntity
   8
LEVEL001
 100
AcDbLine
   6
CONTINUOUS
  62
2
  10
 162.97975661537
  20
 89.656036061845
  30
0.0
  11
 181.18476778767
  21
 79.145367960921
  31
0.0
   0
LINE
   5
FD
 100
AcDbEntity
   8
LEVEL001
 100
AcDbLine
   6
CONTINUOUS
  62
2
  10
 162.97975661537
  20
 96.659043633133
  30
0.0
  11
 181.18476778767
  21
 86.148375532210
  31
0.0
   0
LINE
   5
FE
 100
AcDbEntity
   8
LEVEL001
 100
AcDbLine
   6
CONTINUOUS
  62
2
  10
 179.45271698010
  20
 75.287241437832
  30
0.0
  11
 179.45271698010
  21
 83.646871746565
  31
0.0
   0
LINE
   5
FF
 100
AcDbEntity
   8
LEVEL001
 100
AcDbLine
   6
CONTINUOUS
  62
2
  10
 179.45271698010
  20
 87.148375532210
  30
0.0
  11
 179.45271698010
  21
 83.646871746565
  31
0.0
   0
INSERT
   5
100
 100
AcDbEntity
   8
LEVEL001
   6
CONTINUOUS
  62
2
 100
AcDbBlockReference
   2
_OPEN30
  10
 179.45271698010
  20
 80.145367960921
  30
0.0
  41
 3.0000000000000
  42
 3.0000000000000
  43
 3.0000000000000
  50
 270.00000000000
   0
INSERT
   5
101
 100
AcDbEntity
   8
LEVEL001
   6
CONTINUOUS
  62
2
 100
AcDbBlockReference
   2
_OPEN30
  10
 179.45271698010
  20
 87.148375532210
  30
0.0
  41
 3.0000000000000
  42
 3.0000000000000
  43
 3.0000000000000
  50
 90.000000000000
   0
MTEXT
   5
102
 100
AcDbEntity
   8
LEVEL001
  62
2
 100
AcDbMText
  10
 177.99917998010
  20
 76.887241437832
  30
0.0
  40
 3.8000000000000
  41
0.0
  71
8
  72
1
   1
\A1;7
   7
GMM001
  11
0.0
  21
 1.0000000000000
  31
0.0
   0
ENDBLK
   5
103
 100
AcDbEntity
   8
0
 100
AcDbBlockEnd
   0
ENDSEC
   0
SECTION
   2
ENTITIES
   0
LINE
   5
104
 100
AcDbEntity
   8
LEVEL001
 100
AcDbLine
   6
CONTINUOUS
  62
7
  10
 211.81955510477
  20
 238.18134251674
  30
0.0
  11
 210.06377419487
  21
 237.91926152664
  31
0.0
   0
LINE
   5
105
 100
AcDbEntity
   8
LEVEL001
 100
AcDbLine
   6
CONTINUOUS
  62
7
  10
 210.06377419487
  20
 237.91926152664
  30
0.0
  11
 208.34681619717
  21
 237.68003230074
  31
0.0
   0
LINE
   5
106
 100
AcDbEntity
   8
LEVEL001
 100
AcDbLine
   6
CONTINUOUS
  62
7
  10
 208.34681619717
  20
 237.68003230074
  30
0.0
  11
 206.70981962417
  21
 237.46546603684
  31
0.0
   0
LINE
   5
107
 100
AcDbEntity
   8
LEVEL001
 100
AcDbLine
   6
CONTINUOUS
  62
7
  10
 206.70981962417
  20
 237.46546603684
  30
0.0
  11
 205.18765041777
  21
 237.27652209424
  31
0.0
   0
LINE
   5
108
 100
AcDbEntity
   8
LEVEL001
 100
AcDbLine
   6
CONTINUOUS
  62
7
  10
 205.18765041777
  20
 237.27652209424
  30
0.0
  11
 203.80952840487
  21
 237.11351758284
  31
0.0
   0
LINE
   5
109
 100
AcDbEntity
   8
LEVEL001
 100
AcDbLine
   6
CONTINUOUS
  62
7
  10
 203.80952840487
  20
 237.11351758284
  30
0.0
  11
 202.61960069297
  21
 236.97854325894
  31
0.0
   0
LINE
   5
10A
 100
AcDbEntity
   8
LEVEL001
 100
AcDbLine
   6
CONTINUOUS
  62
7
  10
 202.61960069297
  20
 236.97854325894
  30
0.0
  11
 201.58200043507
  21
 236.86499864344
  31
0.0
   0
LINE
   5
10B
 100
AcDbEntity
   8
LEVEL001
 100
AcDbLine
   6
CONTINUOUS
  62
7
  10
 201.58200043507
  20
 236.86499864344
  30
0.0
  11
 200.55942651167
  21
 236.75673126804
  31
0.0
   0
LINE
   5
10C
 100
AcDbEntity
   8
LEVEL001
 100
AcDbLine
   6
CONTINUOUS
  62
7
  10
 200.55942651167
  20
 236.75673126804
  30
0.0
  11
 199.53264338067
  21
 236.65152724904
  31
0.0
   0
LINE
   5
10D
 100
AcDbEntity
   8
LEVEL001
 100
AcDbLine
   6
CONTINUOUS
  62
7
  10
 199.53264338067
  20
 236.65152724904
  30
0.0
  11
 197.65906159737
  21
 236.46829881784
  31
0.0
   0
LINE
   5
10E
 100
AcDbEntity
   8
LEVEL001
 100
AcDbLine
   6
CONTINUOUS
  62
7
  10
 197.65906159737
  20
 236.46829881784
  30
0.0
  11
 195.78363601207
  21
 236.29581579204
  31
0.0
   0
LINE
   5
10F
 100
AcDbEntity
   8
LEVEL001
 100
AcDbLine
   6
CONTINUOUS
  62
7
  10
 195.78363601207
  20
 236.29581579204
  30
0.0
  11
 193.91896765887
  21
 236.13480469274
  31
0.0
   0
LINE
   5
110
 100
AcDbEntity
   8
LEVEL001
 100
AcDbLine
   6
CONTINUOUS
  62
7
  10
 193.91896765887
  20
 236.13480469274
  30
0.0
  11
 192.07364275457
  21
 235.98546576824
  31
0.0
   0
LINE
   5
111
 100
AcDbEntity
   8
LEVEL001
 100
AcDbLine
   6
CONTINUOUS
  62
7
  10
 192.07364275457
  20
 235.98546576824
  30
0.0
  11
 190.10341499637
  21
 235.83673566804
  31
0.0
   0
LINE
   5
112
 100
AcDbEntity
   8
LEVEL001
 100
AcDbLine
   6
CONTINUOUS
  62
7
  10
 190.10341499637
  20
 235.83673566804
  30
0.0
  11
 187.83692676787
  21
 235.67904584984
  31
0.0
   0
LINE
   5
113
 100
AcDbEntity
   8
LEVEL001
 100
AcDbLine
   6
CONTINUOUS
  62
7
  10
 187.83692676787
  20
 235.67904584984
  30
0.0
  11
 185.25758442357
  21
 235.51670677564
  31
0.0
   0
LINE
   5
114
 100
AcDbEntity
   8
LEVEL001
 100
AcDbLine
   6
CONTINUOUS
  62
7
  10
 185.25758442357
  20
 235.51670677564
  30
0.0
  11
 182.34848458557
  21
 235.35511013814
  31
0.0
   0
LINE
   5
115
 100
AcDbEntity
   8
LEVEL001
 100
AcDbLine
   6
CONTINUOUS
  62
7
  10
 182.34848458557
  20
 235.35511013814
  30
0.0
  11
 179.21781264337
  21
 235.20625193214
  31
0.0
   0
LINE
   5
116
 100
AcDbEntity
   8
LEVEL001
 100
AcDbLine
   6
CONTINUOUS
  62
7
  10
 179.21781264337
  20
 235.20625193214
  30
0.0
  11
 176.18424471747
  21
 235.08637799514
  31
0.0
   0
LINE
   5
117
 100
AcDbEntity
   8
LEVEL001
 100
AcDbLine
   6
CONTINUOUS
  62
7
  10
 176.18424471747
  20
 235.08637799514
  30
0.0
  11
 173.75769213038
  21
 235.00766606364
  31
0.0
   0
LINE
   5
118
 100
AcDbEntity
   8
LEVEL001
 100
AcDbLine
   6
CONTINUOUS
  62
7
  10
 173.75769213038
  20
 235.00766606364
  30
0.0
  11
 171.43469513637
  21
 234.94668123134
  31
0.0
   0
LINE
   5
119
 100
AcDbEntity
   8
LEVEL001
 100
AcDbLine
   6
CONTINUOUS
  62
7
  10
 171.43469513637
  20
 234.94668123134
  30
0.0
  11
 169.22403440367
  21
 234.90184464974
  31
0.0
   0
LINE
   5
11A
 100
AcDbEntity
   8
LEVEL001
 100
AcDbLine
   6
CONTINUOUS
  62
7
  10
 169.22403440367
  20
 234.90184464974
  30
0.0
  11
 167.16948369607
  21
 234.87190828824
  31
0.0
   0
LINE
   5
11B
 100
AcDbEntity
   8
LEVEL001
 100
AcDbLine
   6
CONTINUOUS
  62
7
  10
 167.16948369607
  20
 234.87190828824
  30
0.0
  11
 165.40606029707
  21
 234.85541335054
  31
0.0
   0
LINE
   5
11C
 100
AcDbEntity
   8
LEVEL001
 100
AcDbLine
   6
CONTINUOUS
  62
7
  10
 165.40606029707
  20
 234.85541335054
  30
0.0
  11
 163.94601874018
  21
 234.84832875674
  31
0.0
   0
LINE
   5
11D
 100
AcDbEntity
   8
LEVEL001
 100
AcDbLine
   6
CONTINUOUS
  62
7
  10
 163.94601874018
  20
 234.84832875674
  30
0.0
  11
 162.16062512237
  21
 234.84795035754
  31
0.0
   0
LINE
   5
11E
 100
AcDbEntity
   8
LEVEL001
 100
AcDbLine
   6
CONTINUOUS
  62
7
  10
 162.16062512237
  20
 234.84795035754
  30
0.0
  11
 160.30012060387
  21
 234.85725331714
  31
0.0
   0
LINE
   5
11F
 100
AcDbEntity
   8
LEVEL001
 100
AcDbLine
   6
CONTINUOUS
  62
7
  10
 160.30012060387
  20
 234.85725331714
  30
0.0
  11
 158.20357432687
  21
 234.87928842524
  31
0.0
   0
LINE
   5
120
 100
AcDbEntity
   8
LEVEL001
 100
AcDbLine
   6
CONTINUOUS
  62
7
  10
 158.20357432687
  20
 234.87928842524
  30
0.0
  11
 155.70110208267
  21
 234.92120804474
  31
0.0
   0
LINE
   5
121
 100
AcDbEntity
   8
LEVEL001
 100
AcDbLine
   6
CONTINUOUS
  62
7
  10
 155.70110208267
  20
 234.92120804474
  30
0.0
  11
 152.80779028797
  21
 234.99039326674
  31
0.0
   0
LINE
   5
122
 100
AcDbEntity
   8
LEVEL001
 100
AcDbLine
   6
CONTINUOUS
  62
7
  10
 152.80779028797
  20
 234.99039326674
  30
0.0
  11
 149.70012610288
  21
 235.08906331314
  31
0.0
   0
LINE
   5
123
 100
AcDbEntity
   8
LEVEL001
 100
AcDbLine
   6
CONTINUOUS
  62
7
  10
 149.70012610288
  20
 235.08906331314
  30
0.0
  11
 146.80992039567
  21
 235.20333042664
  31
0.0
   0
LINE
   5
124
 100
AcDbEntity
   8
LEVEL001
 100
AcDbLine
   6
CONTINUOUS
  62
7
  10
 146.80992039567
  20
 235.20333042664
  30
0.0
  11
 144.15870020467
  21
 235.32727084184
  31
0.0
   0
LINE
   5
125
 100
AcDbEntity
   8
LEVEL001
 100
AcDbLine
   6
CONTINUOUS
  62
7
  10
 144.15870020467
  20
 235.32727084184
  30
0.0
  11
 141.74156588677
  21
 235.45638296424
  31
0.0
   0
LINE
   5
126
 100
AcDbEntity
   8
LEVEL001
 100
AcDbLine
   6
CONTINUOUS
  62
7
  10
 141.74156588677
  20
 235.45638296424
  30
0.0
  11
 139.54982337747
  21
 235.58687341514
  31
0.0
   0
LINE
   5
127
 100
AcDbEntity
   8
LEVEL001
 100
AcDbLine
   6
CONTINUOUS
  62
7
  10
 139.54982337747
  20
 235.58687341514
  30
0.0
  11
 138.20324460137
  21
 235.67346382114
  31
0.0
   0
LINE
   5
128
 100
AcDbEntity
   8
LEVEL001
 100
AcDbLine
   6
CONTINUOUS
  62
7
  10
 138.20324460137
  20
 235.67346382114
  30
0.0
  11
 136.79397213237
  21
 235.76944101364
  31
0.0
   0
LINE
   5
129
 100
AcDbEntity
   8
LEVEL001
 100
AcDbLine
   6
CONTINUOUS
  62
7
  10
 136.79397213237
  20
 235.76944101364
  30
0.0
  11
 135.32746038488
  21
 235.87521793844
  31
0.0
   0
LINE
   5
12A
 100
AcDbEntity
   8
LEVEL001
 100
AcDbLine
   6
CONTINUOUS
  62
7
  10
 135.32746038488
  20
 235.87521793844
  30
0.0
  11
 133.80972199337
  21
 235.99111836274
  31
0.0
   0
LINE
   5
12B
 100
AcDbEntity
   8
LEVEL001
 100
AcDbLine
   6
CONTINUOUS
  62
7
  10
 133.80972199337
  20
 235.99111836274
  30
0.0
  11
 132.24735030837
  21
 236.11735638194
  31
0.0
   0
LINE
   5
12C
 100
AcDbEntity
   8
LEVEL001
 100
AcDbLine
   6
CONTINUOUS
  62
7
  10
 132.24735030837
  20
 236.11735638194
  30
0.0
  11
 130.65403081097
  21
 236.25344337694
  31
0.0
   0
LINE
   5
12D
 100
AcDbEntity
   8
LEVEL001
 100
AcDbLine
   6
CONTINUOUS
  62
7
  10
 130.65403081097
  20
 236.25344337694
  30
0.0
  11
 129.22832153767
  21
 236.38159066844
  31
0.0
   0
LINE
   5
12E
 100
AcDbEntity
   8
LEVEL001
 100
AcDbLine
   6
CONTINUOUS
  62
7
  10
 129.22832153767
  20
 236.38159066844
  30
0.0
  11
 128.04959758447
  21
 236.49218509424
  31
0.0
   0
LINE
   5
12F
 100
AcDbEntity
   8
LEVEL001
 100
AcDbLine
   6
CONTINUOUS
  62
7
  10
 128.04959758447
  20
 236.49218509424
  30
0.0
  11
 127.27531470457
  21
 236.56717505314
  31
0.0
   0
LINE
   5
130
 100
AcDbEntity
   8
LEVEL001
 100
AcDbLine
   6
CONTINUOUS
  62
7
  10
 127.27531470457
  20
 236.56717505314
  30
0.0
  11
 126.64457695227
  21
 236.62966323824
  31
0.0
   0
LINE
   5
131
 100
AcDbEntity
   8
LEVEL001
 100
AcDbLine
   6
CONTINUOUS
  62
7
  10
 126.64457695227
  20
 236.62966323824
  30
0.0
  11
 125.97044942797
  21
 236.69786560464
  31
0.0
   0
LINE
   5
132
 100
AcDbEntity
   8
LEVEL001
 100
AcDbLine
   6
CONTINUOUS
  62
7
  10
 125.97044942797
  20
 236.69786560464
  30
0.0
  11
 124.98462814017
  21
 236.80029362134
  31
0.0
   0
LINE
   5
133
 100
AcDbEntity
   8
LEVEL001
 100
AcDbLine
   6
CONTINUOUS
  62
7
  10
 124.98462814017
  20
 236.80029362134
  30
0.0
  11
 123.70376241177
  21
 236.93829963444
  31
0.0
   0
LINE
   5
134
 100
AcDbEntity
   8
LEVEL001
 100
AcDbLine
   6
CONTINUOUS
  62
7
  10
 123.70376241177
  20
 236.93829963444
  30
0.0
  11
 122.43024199707
  21
 237.08126186294
  31
0.0
   0
LINE
   5
135
 100
AcDbEntity
   8
LEVEL001
 100
AcDbLine
   6
CONTINUOUS
  62
7
  10
 122.43024199707
  20
 237.08126186294
  30
0.0
  11
 120.99051508837
  21
 237.25016254504
  31
0.0
   0
LINE
   5
136
 100
AcDbEntity
   8
LEVEL001
 100
AcDbLine
   6
CONTINUOUS
  62
7
  10
 120.99051508837
  20
 237.25016254504
  30
0.0
  11
 119.40915902247
  21
 237.44520291034
  31
0.0
   0
LINE
   5
137
 100
AcDbEntity
   8
LEVEL001
 100
AcDbLine
   6
CONTINUOUS
  62
7
  10
 119.40915902247
  20
 237.44520291034
  30
0.0
  11
 117.71577237048
  21
 237.66613768564
  31
0.0
   0
LINE
   5
138
 100
AcDbEntity
   8
LEVEL001
 100
AcDbLine
   6
CONTINUOUS
  62
7
  10
 117.71577237048
  20
 237.66613768564
  30
0.0
  11
 115.94555567248
  21
 237.91208904694
  31
0.0
   0
LINE
   5
139
 100
AcDbEntity
   8
LEVEL001
 100
AcDbLine
   6
CONTINUOUS
  62
7
  10
 115.94555567248
  20
 237.91208904694
  30
0.0
  11
 114.13995812607
  21
 238.18134251674
  31
0.0
   0
LINE
   5
13A
 100
AcDbEntity
   8
LEVEL001
 100
AcDbLine
   6
CONTINUOUS
  62
7
  10
 114.13995812607
  20
 224.51189784304
  30
0.0
  11
 115.89573903597
  21
 224.77397883314
  31
0.0
   0
LINE
   5
13B
 100
AcDbEntity
   8
LEVEL001
 100
AcDbLine
   6
CONTINUOUS
  62
7
  10
 115.89573903597
  20
 224.77397883314
  30
0.0
  11
 117.61269703367
  21
 225.01320805914
  31
0.0
   0
LINE
   5
13C
 100
AcDbEntity
   8
LEVEL001
 100
AcDbLine
   6
CONTINUOUS
  62
7
  10
 117.61269703367
  20
 225.01320805914
  30
0.0
  11
 119.24969360667
  21
 225.22777432294
  31
0.0
   0
LINE
   5
13D
 100
AcDbEntity
   8
LEVEL001
 100
AcDbLine
   6
CONTINUOUS
  62
7
  10
 119.24969360667
  20
 225.22777432294
  30
0.0
  11
 120.77186281297
  21
 225.41671826554
  31
0.0
   0
LINE
   5
13E
 100
AcDbEntity
   8
LEVEL001
 100
AcDbLine
   6
CONTINUOUS
  62
7
  10
 120.77186281297
  20
 225.41671826554
  30
0.0
  11
 122.14998482597
  21
 225.57972277694
  31
0.0
   0
LINE
   5
13F
 100
AcDbEntity
   8
LEVEL001
 100
AcDbLine
   6
CONTINUOUS
  62
7
  10
 122.14998482597
  20
 225.57972277694
  30
0.0
  11
 123.33991253787
  21
 225.71469710084
  31
0.0
   0
LINE
   5
140
 100
AcDbEntity
   8
LEVEL001
 100
AcDbLine
   6
CONTINUOUS
  62
7
  10
 123.33991253787
  20
 225.71469710084
  30
0.0
  11
 124.37751279567
  21
 225.82824171634
  31
0.0
   0
LINE
   5
141
 100
AcDbEntity
   8
LEVEL001
 100
AcDbLine
   6
CONTINUOUS
  62
7
  10
 124.37751279567
  20
 225.82824171634
  30
0.0
  11
 125.40008671917
  21
 225.93650909174
  31
0.0
   0
LINE
   5
142
 100
AcDbEntity
   8
LEVEL001
 100
AcDbLine
   6
CONTINUOUS
  62
7
  10
 125.40008671917
  20
 225.93650909174
  30
0.0
  11
 126.42686985017
  21
 226.04171311074
  31
0.0
   0
LINE
   5
143
 100
AcDbEntity
   8
LEVEL001
 100
AcDbLine
   6
CONTINUOUS
  62
7
  10
 126.42686985017
  20
 226.04171311074
  30
0.0
  11
 128.30045163348
  21
 226.22494154194
  31
0.0
   0
LINE
   5
144
 100
AcDbEntity
   8
LEVEL001
 100
AcDbLine
   6
CONTINUOUS
  62
7
  10
 128.30045163348
  20
 226.22494154194
  30
0.0
  11
 130.17587721877
  21
 226.39742456774
  31
0.0
   0
LINE
   5
145
 100
AcDbEntity
   8
LEVEL001
 100
AcDbLine
   6
CONTINUOUS
  62
7
  10
 130.17587721877
  20
 226.39742456774
  30
0.0
  11
 132.04054557197
  21
 226.55843566704
  31
0.0
   0
LINE
   5
146
 100
AcDbEntity
   8
LEVEL001
 100
AcDbLine
   6
CONTINUOUS
  62
7
  10
 132.04054557197
  20
 226.55843566704
  30
0.0
  11
 133.88587047617
  21
 226.70777459154
  31
0.0
   0
LINE
   5
147
 100
AcDbEntity
   8
LEVEL001
 100
AcDbLine
   6
CONTINUOUS
  62
7
  10
 133.88587047617
  20
 226.70777459154
  30
0.0
  11
 135.85609823447
  21
 226.85650469184
  31
0.0
   0
LINE
   5
148
 100
AcDbEntity
   8
LEVEL001
 100
AcDbLine
   6
CONTINUOUS
  62
7
  10
 135.85609823447
  20
 226.85650469184
  30
0.0
  11
 138.12258646297
  21
 227.01419451004
  31
0.0
   0
LINE
   5
149
 100
AcDbEntity
   8
LEVEL001
 100
AcDbLine
   6
CONTINUOUS
  62
7
  10
 138.12258646297
  20
 227.01419451004
  30
0.0
  11
 140.70192880728
  21
 227.17653358414
  31
0.0
   0
LINE
   5
14A
 100
AcDbEntity
   8
LEVEL001
 100
AcDbLine
   6
CONTINUOUS
  62
7
  10
 140.70192880728
  20
 227.17653358414
  30
0.0
  11
 143.61102864527
  21
 227.33813022164
  31
0.0
   0
LINE
   5
14B
 100
AcDbEntity
   8
LEVEL001
 100
AcDbLine
   6
CONTINUOUS
  62
7
  10
 143.61102864527
  20
 227.33813022164
  30
0.0
  11
 146.74170058737
  21
 227.48698842774
  31
0.0
   0
LINE
   5
14C
 100
AcDbEntity
   8
LEVEL001
 100
AcDbLine
   6
CONTINUOUS
  62
7
  10
 146.74170058737
  20
 227.48698842774
  30
0.0
  11
 149.77526851337
  21
 227.60686236464
  31
0.0
   0
LINE
   5
14D
 100
AcDbEntity
   8
LEVEL001
 100
AcDbLine
   6
CONTINUOUS
  62
7
  10
 149.77526851337
  20
 227.60686236464
  30
0.0
  11
 152.20182110048
  21
 227.68557429614
  31
0.0
   0
LINE
   5
14E
 100
AcDbEntity
   8
LEVEL001
 100
AcDbLine
   6
CONTINUOUS
  62
7
  10
 152.20182110048
  20
 227.68557429614
  30
0.0
  11
 154.52481809447
  21
 227.74655912844
  31
0.0
   0
LINE
   5
14F
 100
AcDbEntity
   8
LEVEL001
 100
AcDbLine
   6
CONTINUOUS
  62
7
  10
 154.52481809447
  20
 227.74655912844
  30
0.0
  11
 156.73547882707
  21
 227.79139571014
  31
0.0
   0
LINE
   5
150
 100
AcDbEntity
   8
LEVEL001
 100
AcDbLine
   6
CONTINUOUS
  62
7
  10
 156.73547882707
  20
 227.79139571014
  30
0.0
  11
 158.79002953467
  21
 227.82133207154
  31
0.0
   0
LINE
   5
151
 100
AcDbEntity
   8
LEVEL001
 100
AcDbLine
   6
CONTINUOUS
  62
7
  10
 158.79002953467
  20
 227.82133207154
  30
0.0
  11
 160.55345293377
  21
 227.83782700924
  31
0.0
   0
LINE
   5
152
 100
AcDbEntity
   8
LEVEL001
 100
AcDbLine
   6
CONTINUOUS
  62
7
  10
 160.55345293377
  20
 227.83782700924
  30
0.0
  11
 162.01349449057
  21
 227.84491160304
  31
0.0
   0
LINE
   5
153
 100
AcDbEntity
   8
LEVEL001
 100
AcDbLine
   6
CONTINUOUS
  62
7
  10
 162.01349449057
  20
 227.84491160304
  30
0.0
  11
 163.79888810847
  21
 227.84529000234
  31
0.0
   0
LINE
   5
154
 100
AcDbEntity
   8
LEVEL001
 100
AcDbLine
   6
CONTINUOUS
  62
7
  10
 163.79888810847
  20
 227.84529000234
  30
0.0
  11
 165.65939262697
  21
 227.83598704264
  31
0.0
   0
LINE
   5
155
 100
AcDbEntity
   8
LEVEL001
 100
AcDbLine
   6
CONTINUOUS
  62
7
  10
 165.65939262697
  20
 227.83598704264
  30
0.0
  11
 167.75593890397
  21
 227.81395193454
  31
0.0
   0
LINE
   5
156
 100
AcDbEntity
   8
LEVEL001
 100
AcDbLine
   6
CONTINUOUS
  62
7
  10
 167.75593890397
  20
 227.81395193454
  30
0.0
  11
 170.25841114807
  21
 227.77203231504
  31
0.0
   0
LINE
   5
157
 100
AcDbEntity
   8
LEVEL001
 100
AcDbLine
   6
CONTINUOUS
  62
7
  10
 170.25841114807
  20
 227.77203231504
  30
0.0
  11
 173.15172294287
  21
 227.70284709314
  31
0.0
   0
LINE
   5
158
 100
AcDbEntity
   8
LEVEL001
 100
AcDbLine
   6
CONTINUOUS
  62
7
  10
 173.15172294287
  20
 227.70284709314
  30
0.0
  11
 176.25938712787
  21
 227.60417704664
  31
0.0
   0
LINE
   5
159
 100
AcDbEntity
   8
LEVEL001
 100
AcDbLine
   6
CONTINUOUS
  62
7
  10
 176.25938712787
  20
 227.60417704664
  30
0.0
  11
 179.14959283517
  21
 227.48990993324
  31
0.0
   0
LINE
   5
15A
 100
AcDbEntity
   8
LEVEL001
 100
AcDbLine
   6
CONTINUOUS
  62
7
  10
 179.14959283517
  20
 227.48990993324
  30
0.0
  11
 181.80081302607
  21
 227.36596951794
  31
0.0
   0
LINE
   5
15B
 100
AcDbEntity
   8
LEVEL001
 100
AcDbLine
   6
CONTINUOUS
  62
7
  10
 181.80081302607
  20
 227.36596951794
  30
0.0
  11
 184.21794734407
  21
 227.23685739554
  31
0.0
   0
LINE
   5
15C
 100
AcDbEntity
   8
LEVEL001
 100
AcDbLine
   6
CONTINUOUS
  62
7
  10
 184.21794734407
  20
 227.23685739554
  30
0.0
  11
 186.40968985337
  21
 227.10636694464
  31
0.0
   0
LINE
   5
15D
 100
AcDbEntity
   8
LEVEL001
 100
AcDbLine
   6
CONTINUOUS
  62
7
  10
 186.40968985337
  20
 227.10636694464
  30
0.0
  11
 187.75626862937
  21
 227.01977653864
  31
0.0
   0
LINE
   5
15E
 100
AcDbEntity
   8
LEVEL001
 100
AcDbLine
   6
CONTINUOUS
  62
7
  10
 187.75626862937
  20
 227.01977653864
  30
0.0
  11
 189.16554109837
  21
 226.92379934614
  31
0.0
   0
LINE
   5
15F
 100
AcDbEntity
   8
LEVEL001
 100
AcDbLine
   6
CONTINUOUS
  62
7
  10
 189.16554109837
  20
 226.92379934614
  30
0.0
  11
 190.63205284597
  21
 226.81802242134
  31
0.0
   0
LINE
   5
160
 100
AcDbEntity
   8
LEVEL001
 100
AcDbLine
   6
CONTINUOUS
  62
7
  10
 190.63205284597
  20
 226.81802242134
  30
0.0
  11
 192.14979123737
  21
 226.70212199704
  31
0.0
   0
LINE
   5
161
 100
AcDbEntity
   8
LEVEL001
 100
AcDbLine
   6
CONTINUOUS
  62
7
  10
 192.14979123737
  20
 226.70212199704
  30
0.0
  11
 193.71216292237
  21
 226.57588397784
  31
0.0
   0
LINE
   5
162
 100
AcDbEntity
   8
LEVEL001
 100
AcDbLine
   6
CONTINUOUS
  62
7
  10
 193.71216292237
  20
 226.57588397784
  30
0.0
  11
 195.30548241987
  21
 226.43979698284
  31
0.0
   0
LINE
   5
163
 100
AcDbEntity
   8
LEVEL001
 100
AcDbLine
   6
CONTINUOUS
  62
7
  10
 195.30548241987
  20
 226.43979698284
  30
0.0
  11
 196.73119169308
  21
 226.31164969134
  31
0.0
   0
LINE
   5
164
 100
AcDbEntity
   8
LEVEL001
 100
AcDbLine
   6
CONTINUOUS
  62
7
  10
 196.73119169308
  20
 226.31164969134
  30
0.0
  11
 197.90991564637
  21
 226.20105526554
  31
0.0
   0
LINE
   5
165
 100
AcDbEntity
   8
LEVEL001
 100
AcDbLine
   6
CONTINUOUS
  62
7
  10
 197.90991564637
  20
 226.20105526554
  30
0.0
  11
 198.68419852618
  21
 226.12606530664
  31
0.0
   0
LINE
   5
166
 100
AcDbEntity
   8
LEVEL001
 100
AcDbLine
   6
CONTINUOUS
  62
7
  10
 198.68419852618
  20
 226.12606530664
  30
0.0
  11
 199.31493627857
  21
 226.06357712154
  31
0.0
   0
LINE
   5
167
 100
AcDbEntity
   8
LEVEL001
 100
AcDbLine
   6
CONTINUOUS
  62
7
  10
 199.31493627857
  20
 226.06357712154
  30
0.0
  11
 199.98906380287
  21
 225.99537475514
  31
0.0
   0
LINE
   5
168
 100
AcDbEntity
   8
LEVEL001
 100
AcDbLine
   6
CONTINUOUS
  62
7
  10
 199.98906380287
  20
 225.99537475514
  30
0.0
  11
 200.97488509057
  21
 225.89294673854
  31
0.0
   0
LINE
   5
169
 100
AcDbEntity
   8
LEVEL001
 100
AcDbLine
   6
CONTINUOUS
  62
7
  10
 200.97488509057
  20
 225.89294673854
  30
0.0
  11
 202.25575081897
  21
 225.75494072544
  31
0.0
   0
LINE
   5
16A
 100
AcDbEntity
   8
LEVEL001
 100
AcDbLine
   6
CONTINUOUS
  62
7
  10
 202.25575081897
  20
 225.75494072544
  30
0.0
  11
 203.52927123377
  21
 225.61197849694
  31
0.0
   0
LINE
   5
16B
 100
AcDbEntity
   8
LEVEL001
 100
AcDbLine
   6
CONTINUOUS
  62
7
  10
 203.52927123377
  20
 225.61197849694
  30
0.0
  11
 204.96899814237
  21
 225.44307781474
  31
0.0
   0
LINE
   5
16C
 100
AcDbEntity
   8
LEVEL001
 100
AcDbLine
   6
CONTINUOUS
  62
7
  10
 204.96899814237
  20
 225.44307781474
  30
0.0
  11
 206.55035420837
  21
 225.24803744944
  31
0.0
   0
LINE
   5
16D
 100
AcDbEntity
   8
LEVEL001
 100
AcDbLine
   6
CONTINUOUS
  62
7
  10
 206.55035420837
  20
 225.24803744944
  30
0.0
  11
 208.24374086027
  21
 225.02710267414
  31
0.0
   0
LINE
   5
16E
 100
AcDbEntity
   8
LEVEL001
 100
AcDbLine
   6
CONTINUOUS
  62
7
  10
 208.24374086027
  20
 225.02710267414
  30
0.0
  11
 210.01395755837
  21
 224.78115131284
  31
0.0
   0
LINE
   5
16F
 100
AcDbEntity
   8
LEVEL001
 100
AcDbLine
   6
CONTINUOUS
  62
7
  10
 210.01395755837
  20
 224.78115131284
  30
0.0
  11
 211.81955510477
  21
 224.51189784304
  31
0.0
   0
LINE
   5
170
 100
AcDbEntity
   8
LEVEL001
 100
AcDbLine
   6
CONTINUOUS
  62
7
  10
 114.14035032417
  20
 238.18128177094
  30
0.0
  11
 113.71623839207
  21
 238.24027445094
  31
0.0
   0
LINE
   5
171
 100
AcDbEntity
   8
LEVEL001
 100
AcDbLine
   6
CONTINUOUS
  62
7
  10
 113.71623839207
  20
 238.24027445094
  30
0.0
  11
 112.56120490448
  21
 238.33477728784
  31
0.0
   0
LINE
   5
172
 100
AcDbEntity
   8
LEVEL001
 100
AcDbLine
   6
CONTINUOUS
  62
7
  10
 112.56120490448
  20
 238.33477728784
  30
0.0
  11
 111.39830832627
  21
 238.33477728784
  31
0.0
   0
LINE
   5
173
 100
AcDbEntity
   8
LEVEL001
 100
AcDbLine
   6
CONTINUOUS
  62
7
  10
 111.39830832627
  20
 238.33477728784
  30
0.0
  11
 110.24327483877
  21
 238.24027445094
  31
0.0
   0
LINE
   5
174
 100
AcDbEntity
   8
LEVEL001
 100
AcDbLine
   6
CONTINUOUS
  62
7
  10
 110.24327483877
  20
 238.24027445094
  30
0.0
  11
 109.11172428827
  21
 238.05254676614
  31
0.0
   0
LINE
   5
175
 100
AcDbEntity
   8
LEVEL001
 100
AcDbLine
   6
CONTINUOUS
  62
7
  10
 109.11172428827
  20
 238.05254676614
  30
0.0
  11
 108.01895895497
  21
 237.77413292804
  31
0.0
   0
LINE
   5
176
 100
AcDbEntity
   8
LEVEL001
 100
AcDbLine
   6
CONTINUOUS
  62
7
  10
 108.01895895497
  20
 237.77413292804
  30
0.0
  11
 106.97975661537
  21
 237.40879800644
  31
0.0
   0
LINE
   5
177
 100
AcDbEntity
   8
LEVEL001
 100
AcDbLine
   6
CONTINUOUS
  62
7
  10
 106.97975661537
  20
 237.40879800644
  30
0.0
  11
 106.00817069837
  21
 236.96148252914
  31
0.0
   0
LINE
   5
178
 100
AcDbEntity
   8
LEVEL001
 100
AcDbLine
   6
CONTINUOUS
  62
7
  10
 106.00817069837
  20
 236.96148252914
  30
0.0
  11
 105.11734023667
  21
 236.43823567094
  31
0.0
   0
LINE
   5
179
 100
AcDbEntity
   8
LEVEL001
 100
AcDbLine
   6
CONTINUOUS
  62
7
  10
 105.11734023667
  20
 236.43823567094
  30
0.0
  11
 104.31931218417
  21
 235.84613344774
  31
0.0
   0
LINE
   5
17A
 100
AcDbEntity
   8
LEVEL001
 100
AcDbLine
   6
CONTINUOUS
  62
7
  10
 104.31931218417
  20
 235.84613344774
  30
0.0
  11
 103.62487850127
  21
 235.19318302644
  31
0.0
   0
LINE
   5
17B
 100
AcDbEntity
   8
LEVEL001
 100
AcDbLine
   6
CONTINUOUS
  62
7
  10
 103.62487850127
  20
 235.19318302644
  30
0.0
  11
 103.04343021217
  21
 234.48821444134
  31
0.0
   0
LINE
   5
17C
 100
AcDbEntity
   8
LEVEL001
 100
AcDbLine
   6
CONTINUOUS
  62
7
  10
 103.04343021217
  20
 234.48821444134
  30
0.0
  11
 102.58283040757
  21
 233.74076118314
  31
0.0
   0
LINE
   5
17D
 100
AcDbEntity
   8
LEVEL001
 100
AcDbLine
   6
CONTINUOUS
  62
7
  10
 102.58283040757
  20
 233.74076118314
  30
0.0
  11
 102.24930790957
  21
 232.96093127514
  31
0.0
   0
LINE
   5
17E
 100
AcDbEntity
   8
LEVEL001
 100
AcDbLine
   6
CONTINUOUS
  62
7
  10
 102.24930790957
  20
 232.96093127514
  30
0.0
  11
 102.04737303797
  21
 232.15927057874
  31
0.0
   0
LINE
   5
17F
 100
AcDbEntity
   8
LEVEL001
 100
AcDbLine
   6
CONTINUOUS
  62
7
  10
 102.04737303797
  20
 232.15927057874
  30
0.0
  11
 101.97975661537
  21
 231.34662017994
  31
0.0
   0
LINE
   5
180
 100
AcDbEntity
   8
LEVEL001
 100
AcDbLine
   6
CONTINUOUS
  62
7
  10
 223.97975661537
  20
 231.34662017994
  30
0.0
  11
 223.91214019287
  21
 232.15927057874
  31
0.0
   0
LINE
   5
181
 100
AcDbEntity
   8
LEVEL001
 100
AcDbLine
   6
CONTINUOUS
  62
7
  10
 223.91214019287
  20
 232.15927057874
  30
0.0
  11
 223.71020532117
  21
 232.96093127514
  31
0.0
   0
LINE
   5
182
 100
AcDbEntity
   8
LEVEL001
 100
AcDbLine
   6
CONTINUOUS
  62
7
  10
 223.71020532117
  20
 232.96093127514
  30
0.0
  11
 223.37668282327
  21
 233.74076118314
  31
0.0
   0
LINE
   5
183
 100
AcDbEntity
   8
LEVEL001
 100
AcDbLine
   6
CONTINUOUS
  62
7
  10
 223.37668282327
  20
 233.74076118314
  30
0.0
  11
 222.91608301867
  21
 234.48821444134
  31
0.0
   0
LINE
   5
184
 100
AcDbEntity
   8
LEVEL001
 100
AcDbLine
   6
CONTINUOUS
  62
7
  10
 222.91608301867
  20
 234.48821444134
  30
0.0
  11
 222.33463472957
  21
 235.19318302644
  31
0.0
   0
LINE
   5
185
 100
AcDbEntity
   8
LEVEL001
 100
AcDbLine
   6
CONTINUOUS
  62
7
  10
 222.33463472957
  20
 235.19318302644
  30
0.0
  11
 221.64020104657
  21
 235.84613344774
  31
0.0
   0
LINE
   5
186
 100
AcDbEntity
   8
LEVEL001
 100
AcDbLine
   6
CONTINUOUS
  62
7
  10
 221.64020104657
  20
 235.84613344774
  30
0.0
  11
 220.84217299407
  21
 236.43823567094
  31
0.0
   0
LINE
   5
187
 100
AcDbEntity
   8
LEVEL001
 100
AcDbLine
   6
CONTINUOUS
  62
7
  10
 220.84217299407
  20
 236.43823567094
  30
0.0
  11
 219.95134253247
  21
 236.96148252914
  31
0.0
   0
LINE
   5
188
 100
AcDbEntity
   8
LEVEL001
 100
AcDbLine
   6
CONTINUOUS
  62
7
  10
 219.95134253247
  20
 236.96148252914
  30
0.0
  11
 218.97975661537
  21
 237.40879800644
  31
0.0
   0
LINE
   5
189
 100
AcDbEntity
   8
LEVEL001
 100
AcDbLine
   6
CONTINUOUS
  62
7
  10
 218.97975661537
  20
 237.40879800644
  30
0.0
  11
 217.94055427577
  21
 237.77413292804
  31
0.0
   0
LINE
   5
18A
 100
AcDbEntity
   8
LEVEL001
 100
AcDbLine
   6
CONTINUOUS
  62
7
  10
 217.94055427577
  20
 237.77413292804
  30
0.0
  11
 216.84778894247
  21
 238.05254676614
  31
0.0
   0
LINE
   5
18B
 100
AcDbEntity
   8
LEVEL001
 100
AcDbLine
   6
CONTINUOUS
  62
7
  10
 216.84778894247
  20
 238.05254676614
  30
0.0
  11
 215.71623839207
  21
 238.24027445094
  31
0.0
   0
LINE
   5
18C
 100
AcDbEntity
   8
LEVEL001
 100
AcDbLine
   6
CONTINUOUS
  62
7
  10
 215.71623839207
  20
 238.24027445094
  30
0.0
  11
 214.56120490448
  21
 238.33477728784
  31
0.0
   0
LINE
   5
18D
 100
AcDbEntity
   8
LEVEL001
 100
AcDbLine
   6
CONTINUOUS
  62
7
  10
 214.56120490448
  20
 238.33477728784
  30
0.0
  11
 213.39830832627
  21
 238.33477728784
  31
0.0
   0
LINE
   5
18E
 100
AcDbEntity
   8
LEVEL001
 100
AcDbLine
   6
CONTINUOUS
  62
7
  10
 213.39830832627
  20
 238.33477728784
  30
0.0
  11
 212.24327483877
  21
 238.24027445094
  31
0.0
   0
LINE
   5
18F
 100
AcDbEntity
   8
LEVEL001
 100
AcDbLine
   6
CONTINUOUS
  62
7
  10
 212.24327483877
  20
 238.24027445094
  30
0.0
  11
 211.81820302737
  21
 238.18113305074
  31
0.0
   0
LINE
   5
190
 100
AcDbEntity
   8
LEVEL001
 100
AcDbLine
   6
CONTINUOUS
  62
7
  10
 101.97975661537
  20
 231.34662017994
  30
0.0
  11
 102.04737303797
  21
 230.53396978104
  31
0.0
   0
LINE
   5
191
 100
AcDbEntity
   8
LEVEL001
 100
AcDbLine
   6
CONTINUOUS
  62
7
  10
 102.04737303797
  20
 230.53396978104
  30
0.0
  11
 102.24930790957
  21
 229.73230908474
  31
0.0
   0
LINE
   5
192
 100
AcDbEntity
   8
LEVEL001
 100
AcDbLine
   6
CONTINUOUS
  62
7
  10
 102.24930790957
  20
 229.73230908474
  30
0.0
  11
 102.58283040757
  21
 228.95247917664
  31
0.0
   0
LINE
   5
193
 100
AcDbEntity
   8
LEVEL001
 100
AcDbLine
   6
CONTINUOUS
  62
7
  10
 102.58283040757
  20
 228.95247917664
  30
0.0
  11
 103.04343021217
  21
 228.20502591854
  31
0.0
   0
LINE
   5
194
 100
AcDbEntity
   8
LEVEL001
 100
AcDbLine
   6
CONTINUOUS
  62
7
  10
 103.04343021217
  20
 228.20502591854
  30
0.0
  11
 103.62487850127
  21
 227.50005733344
  31
0.0
   0
LINE
   5
195
 100
AcDbEntity
   8
LEVEL001
 100
AcDbLine
   6
CONTINUOUS
  62
7
  10
 103.62487850127
  20
 227.50005733344
  30
0.0
  11
 104.31931218417
  21
 226.84710691214
  31
0.0
   0
LINE
   5
196
 100
AcDbEntity
   8
LEVEL001
 100
AcDbLine
   6
CONTINUOUS
  62
7
  10
 104.31931218417
  20
 226.84710691214
  30
0.0
  11
 105.11734023667
  21
 226.25500468894
  31
0.0
   0
LINE
   5
197
 100
AcDbEntity
   8
LEVEL001
 100
AcDbLine
   6
CONTINUOUS
  62
7
  10
 105.11734023667
  20
 226.25500468894
  30
0.0
  11
 106.00817069837
  21
 225.73175783064
  31
0.0
   0
LINE
   5
198
 100
AcDbEntity
   8
LEVEL001
 100
AcDbLine
   6
CONTINUOUS
  62
7
  10
 106.00817069837
  20
 225.73175783064
  30
0.0
  11
 106.97975661537
  21
 225.28444235344
  31
0.0
   0
LINE
   5
199
 100
AcDbEntity
   8
LEVEL001
 100
AcDbLine
   6
CONTINUOUS
  62
7
  10
 106.97975661537
  20
 225.28444235344
  30
0.0
  11
 108.01895895497
  21
 224.91910743174
  31
0.0
   0
LINE
   5
19A
 100
AcDbEntity
   8
LEVEL001
 100
AcDbLine
   6
CONTINUOUS
  62
7
  10
 108.01895895497
  20
 224.91910743174
  30
0.0
  11
 109.11172428827
  21
 224.64069359374
  31
0.0
   0
LINE
   5
19B
 100
AcDbEntity
   8
LEVEL001
 100
AcDbLine
   6
CONTINUOUS
  62
7
  10
 109.11172428827
  20
 224.64069359374
  30
0.0
  11
 110.24327483877
  21
 224.45296590884
  31
0.0
   0
LINE
   5
19C
 100
AcDbEntity
   8
LEVEL001
 100
AcDbLine
   6
CONTINUOUS
  62
7
  10
 110.24327483877
  20
 224.45296590884
  30
0.0
  11
 111.39830832627
  21
 224.35846307204
  31
0.0
   0
LINE
   5
19D
 100
AcDbEntity
   8
LEVEL001
 100
AcDbLine
   6
CONTINUOUS
  62
7
  10
 111.39830832627
  20
 224.35846307204
  30
0.0
  11
 112.56120490448
  21
 224.35846307204
  31
0.0
   0
LINE
   5
19E
 100
AcDbEntity
   8
LEVEL001
 100
AcDbLine
   6
CONTINUOUS
  62
7
  10
 112.56120490448
  20
 224.35846307204
  30
0.0
  11
 113.71623839207
  21
 224.45296590884
  31
0.0
   0
LINE
   5
19F
 100
AcDbEntity
   8
LEVEL001
 100
AcDbLine
   6
CONTINUOUS
  62
7
  10
 113.71623839207
  20
 224.45296590884
  30
0.0
  11
 114.14131020347
  21
 224.51210730904
  31
0.0
   0
LINE
   5
1A0
 100
AcDbEntity
   8
LEVEL001
 100
AcDbLine
   6
CONTINUOUS
  62
7
  10
 211.81916290667
  20
 224.51195858884
  30
0.0
  11
 212.24327483877
  21
 224.45296590884
  31
0.0
   0
LINE
   5
1A1
 100
AcDbEntity
   8
LEVEL001
 100
AcDbLine
   6
CONTINUOUS
  62
7
  10
 212.24327483877
  20
 224.45296590884
  30
0.0
  11
 213.39830832627
  21
 224.35846307204
  31
0.0
   0
LINE
   5
1A2
 100
AcDbEntity
   8
LEVEL001
 100
AcDbLine
   6
CONTINUOUS
  62
7
  10
 213.39830832627
  20
 224.35846307204
  30
0.0
  11
 214.56120490448
  21
 224.35846307204
  31
0.0
   0
LINE
   5
1A3
 100
AcDbEntity
   8
LEVEL001
 100
AcDbLine
   6
CONTINUOUS
  62
7
  10
 214.56120490448
  20
 224.35846307204
  30
0.0
  11
 215.71623839207
  21
 224.45296590884
  31
0.0
   0
LINE
   5
1A4
 100
AcDbEntity
   8
LEVEL001
 100
AcDbLine
   6
CONTINUOUS
  62
7
  10
 215.71623839207
  20
 224.45296590884
  30
0.0
  11
 216.84778894247
  21
 224.64069359374
  31
0.0
   0
LINE
   5
1A5
 100
AcDbEntity
   8
LEVEL001
 100
AcDbLine
   6
CONTINUOUS
  62
7
  10
 216.84778894247
  20
 224.64069359374
  30
0.0
  11
 217.94055427577
  21
 224.91910743174
  31
0.0
   0
LINE
   5
1A6
 100
AcDbEntity
   8
LEVEL001
 100
AcDbLine
   6
CONTINUOUS
  62
7
  10
 217.94055427577
  20
 224.91910743174
  30
0.0
  11
 218.97975661537
  21
 225.28444235344
  31
0.0
   0
LINE
   5
1A7
 100
AcDbEntity
   8
LEVEL001
 100
AcDbLine
   6
CONTINUOUS
  62
7
  10
 218.97975661537
  20
 225.28444235344
  30
0.0
  11
 219.95134253247
  21
 225.73175783064
  31
0.0
   0
LINE
   5
1A8
 100
AcDbEntity
   8
LEVEL001
 100
AcDbLine
   6
CONTINUOUS
  62
7
  10
 219.95134253247
  20
 225.73175783064
  30
0.0
  11
 220.84217299407
  21
 226.25500468894
  31
0.0
   0
LINE
   5
1A9
 100
AcDbEntity
   8
LEVEL001
 100
AcDbLine
   6
CONTINUOUS
  62
7
  10
 220.84217299407
  20
 226.25500468894
  30
0.0
  11
 221.64020104657
  21
 226.84710691214
  31
0.0
   0
LINE
   5
1AA
 100
AcDbEntity
   8
LEVEL001
 100
AcDbLine
   6
CONTINUOUS
  62
7
  10
 221.64020104657
  20
 226.84710691214
  30
0.0
  11
 222.33463472957
  21
 227.50005733344
  31
0.0
   0
LINE
   5
1AB
 100
AcDbEntity
   8
LEVEL001
 100
AcDbLine
   6
CONTINUOUS
  62
7
  10
 222.33463472957
  20
 227.50005733344
  30
0.0
  11
 222.91608301867
  21
 228.20502591854
  31
0.0
   0
LINE
   5
1AC
 100
AcDbEntity
   8
LEVEL001
 100
AcDbLine
   6
CONTINUOUS
  62
7
  10
 222.91608301867
  20
 228.20502591854
  30
0.0
  11
 223.37668282327
  21
 228.95247917664
  31
0.0
   0
LINE
   5
1AD
 100
AcDbEntity
   8
LEVEL001
 100
AcDbLine
   6
CONTINUOUS
  62
7
  10
 223.37668282327
  20
 228.95247917664
  30
0.0
  11
 223.71020532117
  21
 229.73230908474
  31
0.0
   0
LINE
   5
1AE
 100
AcDbEntity
   8
LEVEL001
 100
AcDbLine
   6
CONTINUOUS
  62
7
  10
 223.71020532117
  20
 229.73230908474
  30
0.0
  11
 223.91214019287
  21
 230.53396978104
  31
0.0
   0
LINE
   5
1AF
 100
AcDbEntity
   8
LEVEL001
 100
AcDbLine
   6
CONTINUOUS
  62
7
  10
 223.91214019287
  20
 230.53396978104
  30
0.0
  11
 223.97975661537
  21
 231.34662017994
  31
0.0
   0
LINE
   5
1B0
 100
AcDbEntity
   8
LEVEL001
 100
AcDbLine
   6
CONTINUOUS
  62
7
  10
 114.13995812607
  20
 86.322817510639
  30
0.0
  11
 115.89573903588
  21
 86.584898500739
  31
0.0
   0
LINE
   5
1B1
 100
AcDbEntity
   8
LEVEL001
 100
AcDbLine
   6
CONTINUOUS
  62
7
  10
 115.89573903588
  20
 86.584898500739
  30
0.0
  11
 117.61269703357
  21
 86.824127726639
  31
0.0
   0
LINE
   5
1B2
 100
AcDbEntity
   8
LEVEL001
 100
AcDbLine
   6
CONTINUOUS
  62
7
  10
 117.61269703357
  20
 86.824127726639
  30
0.0
  11
 119.24969360657
  21
 87.038693990539
  31
0.0
   0
LINE
   5
1B3
 100
AcDbEntity
   8
LEVEL001
 100
AcDbLine
   6
CONTINUOUS
  62
7
  10
 119.24969360657
  20
 87.038693990539
  30
0.0
  11
 120.77186281297
  21
 87.227637933139
  31
0.0
   0
LINE
   5
1B4
 100
AcDbEntity
   8
LEVEL001
 100
AcDbLine
   6
CONTINUOUS
  62
7
  10
 120.77186281297
  20
 87.227637933139
  30
0.0
  11
 122.14998482588
  21
 87.390642444539
  31
0.0
   0
LINE
   5
1B5
 100
AcDbEntity
   8
LEVEL001
 100
AcDbLine
   6
CONTINUOUS
  62
7
  10
 122.14998482588
  20
 87.390642444539
  30
0.0
  11
 123.33991253777
  21
 87.525616768439
  31
0.0
   0
LINE
   5
1B6
 100
AcDbEntity
   8
LEVEL001
 100
AcDbLine
   6
CONTINUOUS
  62
7
  10
 123.33991253777
  20
 87.525616768439
  30
0.0
  11
 124.37751279567
  21
 87.639161383939
  31
0.0
   0
LINE
   5
1B7
 100
AcDbEntity
   8
LEVEL001
 100
AcDbLine
   6
CONTINUOUS
  62
7
  10
 124.37751279567
  20
 87.639161383939
  30
0.0
  11
 125.40008671907
  21
 87.747428759339
  31
0.0
   0
LINE
   5
1B8
 100
AcDbEntity
   8
LEVEL001
 100
AcDbLine
   6
CONTINUOUS
  62
7
  10
 125.40008671907
  20
 87.747428759339
  30
0.0
  11
 126.42686985007
  21
 87.852632778339
  31
0.0
   0
LINE
   5
1B9
 100
AcDbEntity
   8
LEVEL001
 100
AcDbLine
   6
CONTINUOUS
  62
7
  10
 126.42686985007
  20
 87.852632778339
  30
0.0
  11
 128.30045163337
  21
 88.035861209539
  31
0.0
   0
LINE
   5
1BA
 100
AcDbEntity
   8
LEVEL001
 100
AcDbLine
   6
CONTINUOUS
  62
7
  10
 128.30045163337
  20
 88.035861209539
  30
0.0
  11
 130.17587721868
  21
 88.208344235339
  31
0.0
   0
LINE
   5
1BB
 100
AcDbEntity
   8
LEVEL001
 100
AcDbLine
   6
CONTINUOUS
  62
7
  10
 130.17587721868
  20
 88.208344235339
  30
0.0
  11
 132.04054557187
  21
 88.369355334639
  31
0.0
   0
LINE
   5
1BC
 100
AcDbEntity
   8
LEVEL001
 100
AcDbLine
   6
CONTINUOUS
  62
7
  10
 132.04054557187
  20
 88.369355334639
  30
0.0
  11
 133.88587047607
  21
 88.518694259139
  31
0.0
   0
LINE
   5
1BD
 100
AcDbEntity
   8
LEVEL001
 100
AcDbLine
   6
CONTINUOUS
  62
7
  10
 133.88587047607
  20
 88.518694259139
  30
0.0
  11
 135.85609823438
  21
 88.667424359339
  31
0.0
   0
LINE
   5
1BE
 100
AcDbEntity
   8
LEVEL001
 100
AcDbLine
   6
CONTINUOUS
  62
7
  10
 135.85609823438
  20
 88.667424359339
  30
0.0
  11
 138.12258646288
  21
 88.825114177539
  31
0.0
   0
LINE
   5
1BF
 100
AcDbEntity
   8
LEVEL001
 100
AcDbLine
   6
CONTINUOUS
  62
7
  10
 138.12258646288
  20
 88.825114177539
  30
0.0
  11
 140.70192880717
  21
 88.987453251739
  31
0.0
   0
LINE
   5
1C0
 100
AcDbEntity
   8
LEVEL001
 100
AcDbLine
   6
CONTINUOUS
  62
7
  10
 140.70192880717
  20
 88.987453251739
  30
0.0
  11
 143.61102864527
  21
 89.149049889239
  31
0.0
   0
LINE
   5
1C1
 100
AcDbEntity
   8
LEVEL001
 100
AcDbLine
   6
CONTINUOUS
  62
7
  10
 143.61102864527
  20
 89.149049889239
  30
0.0
  11
 146.74170058737
  21
 89.297908095339
  31
0.0
   0
LINE
   5
1C2
 100
AcDbEntity
   8
LEVEL001
 100
AcDbLine
   6
CONTINUOUS
  62
7
  10
 146.74170058737
  20
 89.297908095339
  30
0.0
  11
 149.77526851327
  21
 89.417782032239
  31
0.0
   0
LINE
   5
1C3
 100
AcDbEntity
   8
LEVEL001
 100
AcDbLine
   6
CONTINUOUS
  62
7
  10
 149.77526851327
  20
 89.417782032239
  30
0.0
  11
 152.20182110037
  21
 89.496493963739
  31
0.0
   0
LINE
   5
1C4
 100
AcDbEntity
   8
LEVEL001
 100
AcDbLine
   6
CONTINUOUS
  62
7
  10
 152.20182110037
  20
 89.496493963739
  30
0.0
  11
 154.52481809438
  21
 89.557478796039
  31
0.0
   0
LINE
   5
1C5
 100
AcDbEntity
   8
LEVEL001
 100
AcDbLine
   6
CONTINUOUS
  62
7
  10
 154.52481809438
  20
 89.557478796039
  30
0.0
  11
 156.73547882707
  21
 89.602315377739
  31
0.0
   0
LINE
   5
1C6
 100
AcDbEntity
   8
LEVEL001
 100
AcDbLine
   6
CONTINUOUS
  62
7
  10
 156.73547882707
  20
 89.602315377739
  30
0.0
  11
 158.79002953468
  21
 89.632251739139
  31
0.0
   0
LINE
   5
1C7
 100
AcDbEntity
   8
LEVEL001
 100
AcDbLine
   6
CONTINUOUS
  62
7
  10
 158.79002953468
  20
 89.632251739139
  30
0.0
  11
 160.55345293367
  21
 89.648746676839
  31
0.0
   0
LINE
   5
1C8
 100
AcDbEntity
   8
LEVEL001
 100
AcDbLine
   6
CONTINUOUS
  62
7
  10
 160.55345293367
  20
 89.648746676839
  30
0.0
  11
 162.01349449048
  21
 89.655831270639
  31
0.0
   0
LINE
   5
1C9
 100
AcDbEntity
   8
LEVEL001
 100
AcDbLine
   6
CONTINUOUS
  62
7
  10
 162.01349449048
  20
 89.655831270639
  30
0.0
  11
 163.79888810838
  21
 89.656209669939
  31
0.0
   0
LINE
   5
1CA
 100
AcDbEntity
   8
LEVEL001
 100
AcDbLine
   6
CONTINUOUS
  62
7
  10
 163.79888810838
  20
 89.656209669939
  30
0.0
  11
 165.65939262687
  21
 89.646906710239
  31
0.0
   0
LINE
   5
1CB
 100
AcDbEntity
   8
LEVEL001
 100
AcDbLine
   6
CONTINUOUS
  62
7
  10
 165.65939262687
  20
 89.646906710239
  30
0.0
  11
 167.75593890388
  21
 89.624871602139
  31
0.0
   0
LINE
   5
1CC
 100
AcDbEntity
   8
LEVEL001
 100
AcDbLine
   6
CONTINUOUS
  62
7
  10
 167.75593890388
  20
 89.624871602139
  30
0.0
  11
 170.25841114797
  21
 89.582951982639
  31
0.0
   0
LINE
   5
1CD
 100
AcDbEntity
   8
LEVEL001
 100
AcDbLine
   6
CONTINUOUS
  62
7
  10
 170.25841114797
  20
 89.582951982639
  30
0.0
  11
 173.15172294278
  21
 89.513766760739
  31
0.0
   0
LINE
   5
1CE
 100
AcDbEntity
   8
LEVEL001
 100
AcDbLine
   6
CONTINUOUS
  62
7
  10
 173.15172294278
  20
 89.513766760739
  30
0.0
  11
 176.25938712788
  21
 89.415096714239
  31
0.0
   0
LINE
   5
1CF
 100
AcDbEntity
   8
LEVEL001
 100
AcDbLine
   6
CONTINUOUS
  62
7
  10
 176.25938712788
  20
 89.415096714239
  30
0.0
  11
 179.14959283508
  21
 89.300829600839
  31
0.0
   0
LINE
   5
1D0
 100
AcDbEntity
   8
LEVEL001
 100
AcDbLine
   6
CONTINUOUS
  62
7
  10
 179.14959283508
  20
 89.300829600839
  30
0.0
  11
 181.80081302607
  21
 89.176889185539
  31
0.0
   0
LINE
   5
1D1
 100
AcDbEntity
   8
LEVEL001
 100
AcDbLine
   6
CONTINUOUS
  62
7
  10
 181.80081302607
  20
 89.176889185539
  30
0.0
  11
 184.21794734397
  21
 89.047777063139
  31
0.0
   0
LINE
   5
1D2
 100
AcDbEntity
   8
LEVEL001
 100
AcDbLine
   6
CONTINUOUS
  62
7
  10
 184.21794734397
  20
 89.047777063139
  30
0.0
  11
 186.40968985328
  21
 88.917286612239
  31
0.0
   0
LINE
   5
1D3
 100
AcDbEntity
   8
LEVEL001
 100
AcDbLine
   6
CONTINUOUS
  62
7
  10
 186.40968985328
  20
 88.917286612239
  30
0.0
  11
 187.75626862937
  21
 88.830696206239
  31
0.0
   0
LINE
   5
1D4
 100
AcDbEntity
   8
LEVEL001
 100
AcDbLine
   6
CONTINUOUS
  62
7
  10
 187.75626862937
  20
 88.830696206239
  30
0.0
  11
 189.16554109838
  21
 88.734719013739
  31
0.0
   0
LINE
   5
1D5
 100
AcDbEntity
   8
LEVEL001
 100
AcDbLine
   6
CONTINUOUS
  62
7
  10
 189.16554109838
  20
 88.734719013739
  30
0.0
  11
 190.63205284597
  21
 88.628942088939
  31
0.0
   0
LINE
   5
1D6
 100
AcDbEntity
   8
LEVEL001
 100
AcDbLine
   6
CONTINUOUS
  62
7
  10
 190.63205284597
  20
 88.628942088939
  30
0.0
  11
 192.14979123737
  21
 88.513041664639
  31
0.0
   0
LINE
   5
1D7
 100
AcDbEntity
   8
LEVEL001
 100
AcDbLine
   6
CONTINUOUS
  62
7
  10
 192.14979123737
  20
 88.513041664639
  30
0.0
  11
 193.71216292237
  21
 88.386803645439
  31
0.0
   0
LINE
   5
1D8
 100
AcDbEntity
   8
LEVEL001
 100
AcDbLine
   6
CONTINUOUS
  62
7
  10
 193.71216292237
  20
 88.386803645439
  30
0.0
  11
 195.30548241977
  21
 88.250716650439
  31
0.0
   0
LINE
   5
1D9
 100
AcDbEntity
   8
LEVEL001
 100
AcDbLine
   6
CONTINUOUS
  62
7
  10
 195.30548241977
  20
 88.250716650439
  30
0.0
  11
 196.73119169308
  21
 88.122569358939
  31
0.0
   0
LINE
   5
1DA
 100
AcDbEntity
   8
LEVEL001
 100
AcDbLine
   6
CONTINUOUS
  62
7
  10
 196.73119169308
  20
 88.122569358939
  30
0.0
  11
 197.90991564627
  21
 88.011974933139
  31
0.0
   0
LINE
   5
1DB
 100
AcDbEntity
   8
LEVEL001
 100
AcDbLine
   6
CONTINUOUS
  62
7
  10
 197.90991564627
  20
 88.011974933139
  30
0.0
  11
 198.68419852608
  21
 87.936984974239
  31
0.0
   0
LINE
   5
1DC
 100
AcDbEntity
   8
LEVEL001
 100
AcDbLine
   6
CONTINUOUS
  62
7
  10
 198.68419852608
  20
 87.936984974239
  30
0.0
  11
 199.31493627847
  21
 87.874496789139
  31
0.0
   0
LINE
   5
1DD
 100
AcDbEntity
   8
LEVEL001
 100
AcDbLine
   6
CONTINUOUS
  62
7
  10
 199.31493627847
  20
 87.874496789139
  30
0.0
  11
 199.98906380278
  21
 87.806294422739
  31
0.0
   0
LINE
   5
1DE
 100
AcDbEntity
   8
LEVEL001
 100
AcDbLine
   6
CONTINUOUS
  62
7
  10
 199.98906380278
  20
 87.806294422739
  30
0.0
  11
 200.97488509058
  21
 87.703866406139
  31
0.0
   0
LINE
   5
1DF
 100
AcDbEntity
   8
LEVEL001
 100
AcDbLine
   6
CONTINUOUS
  62
7
  10
 200.97488509058
  20
 87.703866406139
  30
0.0
  11
 202.25575081898
  21
 87.565860393039
  31
0.0
   0
LINE
   5
1E0
 100
AcDbEntity
   8
LEVEL001
 100
AcDbLine
   6
CONTINUOUS
  62
7
  10
 202.25575081898
  20
 87.565860393039
  30
0.0
  11
 203.52927123367
  21
 87.422898164539
  31
0.0
   0
LINE
   5
1E1
 100
AcDbEntity
   8
LEVEL001
 100
AcDbLine
   6
CONTINUOUS
  62
7
  10
 203.52927123367
  20
 87.422898164539
  30
0.0
  11
 204.96899814238
  21
 87.253997482339
  31
0.0
   0
LINE
   5
1E2
 100
AcDbEntity
   8
LEVEL001
 100
AcDbLine
   6
CONTINUOUS
  62
7
  10
 204.96899814238
  20
 87.253997482339
  30
0.0
  11
 206.55035420828
  21
 87.058957117039
  31
0.0
   0
LINE
   5
1E3
 100
AcDbEntity
   8
LEVEL001
 100
AcDbLine
   6
CONTINUOUS
  62
7
  10
 206.55035420828
  20
 87.058957117039
  30
0.0
  11
 208.24374086027
  21
 86.838022341739
  31
0.0
   0
LINE
   5
1E4
 100
AcDbEntity
   8
LEVEL001
 100
AcDbLine
   6
CONTINUOUS
  62
7
  10
 208.24374086027
  20
 86.838022341739
  30
0.0
  11
 210.01395755828
  21
 86.592070980439
  31
0.0
   0
LINE
   5
1E5
 100
AcDbEntity
   8
LEVEL001
 100
AcDbLine
   6
CONTINUOUS
  62
7
  10
 210.01395755828
  20
 86.592070980439
  30
0.0
  11
 211.81955510477
  21
 86.322817510639
  31
0.0
   0
LINE
   5
1E6
 100
AcDbEntity
   8
LEVEL001
 100
AcDbLine
   6
CONTINUOUS
  62
7
  10
 211.81955510477
  20
 99.992262184339
  30
0.0
  11
 210.06377419498
  21
 99.730181194239
  31
0.0
   0
LINE
   5
1E7
 100
AcDbEntity
   8
LEVEL001
 100
AcDbLine
   6
CONTINUOUS
  62
7
  10
 210.06377419498
  20
 99.730181194239
  30
0.0
  11
 208.34681619727
  21
 99.490951968339
  31
0.0
   0
LINE
   5
1E8
 100
AcDbEntity
   8
LEVEL001
 100
AcDbLine
   6
CONTINUOUS
  62
7
  10
 208.34681619727
  20
 99.490951968339
  30
0.0
  11
 206.70981962427
  21
 99.276385704439
  31
0.0
   0
LINE
   5
1E9
 100
AcDbEntity
   8
LEVEL001
 100
AcDbLine
   6
CONTINUOUS
  62
7
  10
 206.70981962427
  20
 99.276385704439
  30
0.0
  11
 205.18765041787
  21
 99.087441761839
  31
0.0
   0
LINE
   5
1EA
 100
AcDbEntity
   8
LEVEL001
 100
AcDbLine
   6
CONTINUOUS
  62
7
  10
 205.18765041787
  20
 99.087441761839
  30
0.0
  11
 203.80952840497
  21
 98.924437250439
  31
0.0
   0
LINE
   5
1EB
 100
AcDbEntity
   8
LEVEL001
 100
AcDbLine
   6
CONTINUOUS
  62
7
  10
 203.80952840497
  20
 98.924437250439
  30
0.0
  11
 202.61960069308
  21
 98.789462926539
  31
0.0
   0
LINE
   5
1EC
 100
AcDbEntity
   8
LEVEL001
 100
AcDbLine
   6
CONTINUOUS
  62
7
  10
 202.61960069308
  20
 98.789462926539
  30
0.0
  11
 201.58200043517
  21
 98.675918311039
  31
0.0
   0
LINE
   5
1ED
 100
AcDbEntity
   8
LEVEL001
 100
AcDbLine
   6
CONTINUOUS
  62
7
  10
 201.58200043517
  20
 98.675918311039
  30
0.0
  11
 200.55942651167
  21
 98.567650935639
  31
0.0
   0
LINE
   5
1EE
 100
AcDbEntity
   8
LEVEL001
 100
AcDbLine
   6
CONTINUOUS
  62
7
  10
 200.55942651167
  20
 98.567650935639
  30
0.0
  11
 199.53264338067
  21
 98.462446916639
  31
0.0
   0
LINE
   5
1EF
 100
AcDbEntity
   8
LEVEL001
 100
AcDbLine
   6
CONTINUOUS
  62
7
  10
 199.53264338067
  20
 98.462446916639
  30
0.0
  11
 197.65906159748
  21
 98.279218485439
  31
0.0
   0
LINE
   5
1F0
 100
AcDbEntity
   8
LEVEL001
 100
AcDbLine
   6
CONTINUOUS
  62
7
  10
 197.65906159748
  20
 98.279218485439
  30
0.0
  11
 195.78363601218
  21
 98.106735459639
  31
0.0
   0
LINE
   5
1F1
 100
AcDbEntity
   8
LEVEL001
 100
AcDbLine
   6
CONTINUOUS
  62
7
  10
 195.78363601218
  20
 98.106735459639
  30
0.0
  11
 193.91896765897
  21
 97.945724360339
  31
0.0
   0
LINE
   5
1F2
 100
AcDbEntity
   8
LEVEL001
 100
AcDbLine
   6
CONTINUOUS
  62
7
  10
 193.91896765897
  20
 97.945724360339
  30
0.0
  11
 192.07364275467
  21
 97.796385435839
  31
0.0
   0
LINE
   5
1F3
 100
AcDbEntity
   8
LEVEL001
 100
AcDbLine
   6
CONTINUOUS
  62
7
  10
 192.07364275467
  20
 97.796385435839
  30
0.0
  11
 190.10341499647
  21
 97.647655335639
  31
0.0
   0
LINE
   5
1F4
 100
AcDbEntity
   8
LEVEL001
 100
AcDbLine
   6
CONTINUOUS
  62
7
  10
 190.10341499647
  20
 97.647655335639
  30
0.0
  11
 187.83692676797
  21
 97.489965517439
  31
0.0
   0
LINE
   5
1F5
 100
AcDbEntity
   8
LEVEL001
 100
AcDbLine
   6
CONTINUOUS
  62
7
  10
 187.83692676797
  20
 97.489965517439
  30
0.0
  11
 185.25758442357
  21
 97.327626443239
  31
0.0
   0
LINE
   5
1F6
 100
AcDbEntity
   8
LEVEL001
 100
AcDbLine
   6
CONTINUOUS
  62
7
  10
 185.25758442357
  20
 97.327626443239
  30
0.0
  11
 182.34848458557
  21
 97.166029805739
  31
0.0
   0
LINE
   5
1F7
 100
AcDbEntity
   8
LEVEL001
 100
AcDbLine
   6
CONTINUOUS
  62
7
  10
 182.34848458557
  20
 97.166029805739
  30
0.0
  11
 179.21781264347
  21
 97.017171599739
  31
0.0
   0
LINE
   5
1F8
 100
AcDbEntity
   8
LEVEL001
 100
AcDbLine
   6
CONTINUOUS
  62
7
  10
 179.21781264347
  20
 97.017171599739
  30
0.0
  11
 176.18424471748
  21
 96.897297662739
  31
0.0
   0
LINE
   5
1F9
 100
AcDbEntity
   8
LEVEL001
 100
AcDbLine
   6
CONTINUOUS
  62
7
  10
 176.18424471748
  20
 96.897297662739
  30
0.0
  11
 173.75769213047
  21
 96.818585731239
  31
0.0
   0
LINE
   5
1FA
 100
AcDbEntity
   8
LEVEL001
 100
AcDbLine
   6
CONTINUOUS
  62
7
  10
 173.75769213047
  20
 96.818585731239
  30
0.0
  11
 171.43469513648
  21
 96.757600898939
  31
0.0
   0
LINE
   5
1FB
 100
AcDbEntity
   8
LEVEL001
 100
AcDbLine
   6
CONTINUOUS
  62
7
  10
 171.43469513648
  20
 96.757600898939
  30
0.0
  11
 169.22403440377
  21
 96.712764317239
  31
0.0
   0
LINE
   5
1FC
 100
AcDbEntity
   8
LEVEL001
 100
AcDbLine
   6
CONTINUOUS
  62
7
  10
 169.22403440377
  20
 96.712764317239
  30
0.0
  11
 167.16948369618
  21
 96.682827955839
  31
0.0
   0
LINE
   5
1FD
 100
AcDbEntity
   8
LEVEL001
 100
AcDbLine
   6
CONTINUOUS
  62
7
  10
 167.16948369618
  20
 96.682827955839
  30
0.0
  11
 165.40606029717
  21
 96.666333018139
  31
0.0
   0
LINE
   5
1FE
 100
AcDbEntity
   8
LEVEL001
 100
AcDbLine
   6
CONTINUOUS
  62
7
  10
 165.40606029717
  20
 96.666333018139
  30
0.0
  11
 163.94601874038
  21
 96.659248424339
  31
0.0
   0
LINE
   5
1FF
 100
AcDbEntity
   8
LEVEL001
 100
AcDbLine
   6
CONTINUOUS
  62
7
  10
 163.94601874038
  20
 96.659248424339
  30
0.0
  11
 162.16062512247
  21
 96.658870025039
  31
0.0
   0
LINE
   5
200
 100
AcDbEntity
   8
LEVEL001
 100
AcDbLine
   6
CONTINUOUS
  62
7
  10
 162.16062512247
  20
 96.658870025039
  30
0.0
  11
 160.30012060397
  21
 96.668172984739
  31
0.0
   0
LINE
   5
201
 100
AcDbEntity
   8
LEVEL001
 100
AcDbLine
   6
CONTINUOUS
  62
7
  10
 160.30012060397
  20
 96.668172984739
  30
0.0
  11
 158.20357432697
  21
 96.690208092839
  31
0.0
   0
LINE
   5
202
 100
AcDbEntity
   8
LEVEL001
 100
AcDbLine
   6
CONTINUOUS
  62
7
  10
 158.20357432697
  20
 96.690208092839
  30
0.0
  11
 155.70110208277
  21
 96.732127712339
  31
0.0
   0
LINE
   5
203
 100
AcDbEntity
   8
LEVEL001
 100
AcDbLine
   6
CONTINUOUS
  62
7
  10
 155.70110208277
  20
 96.732127712339
  30
0.0
  11
 152.80779028807
  21
 96.801312934239
  31
0.0
   0
LINE
   5
204
 100
AcDbEntity
   8
LEVEL001
 100
AcDbLine
   6
CONTINUOUS
  62
7
  10
 152.80779028807
  20
 96.801312934239
  30
0.0
  11
 149.70012610297
  21
 96.899982980739
  31
0.0
   0
LINE
   5
205
 100
AcDbEntity
   8
LEVEL001
 100
AcDbLine
   6
CONTINUOUS
  62
7
  10
 149.70012610297
  20
 96.899982980739
  30
0.0
  11
 146.80992039578
  21
 97.014250094139
  31
0.0
   0
LINE
   5
206
 100
AcDbEntity
   8
LEVEL001
 100
AcDbLine
   6
CONTINUOUS
  62
7
  10
 146.80992039578
  20
 97.014250094139
  30
0.0
  11
 144.15870020477
  21
 97.138190509439
  31
0.0
   0
LINE
   5
207
 100
AcDbEntity
   8
LEVEL001
 100
AcDbLine
   6
CONTINUOUS
  62
7
  10
 144.15870020477
  20
 97.138190509439
  30
0.0
  11
 141.74156588677
  21
 97.267302631839
  31
0.0
   0
LINE
   5
208
 100
AcDbEntity
   8
LEVEL001
 100
AcDbLine
   6
CONTINUOUS
  62
7
  10
 141.74156588677
  20
 97.267302631839
  30
0.0
  11
 139.54982337758
  21
 97.397793082739
  31
0.0
   0
LINE
   5
209
 100
AcDbEntity
   8
LEVEL001
 100
AcDbLine
   6
CONTINUOUS
  62
7
  10
 139.54982337758
  20
 97.397793082739
  30
0.0
  11
 138.20324460147
  21
 97.484383488739
  31
0.0
   0
LINE
   5
20A
 100
AcDbEntity
   8
LEVEL001
 100
AcDbLine
   6
CONTINUOUS
  62
7
  10
 138.20324460147
  20
 97.484383488739
  30
0.0
  11
 136.79397213248
  21
 97.580360681239
  31
0.0
   0
LINE
   5
20B
 100
AcDbEntity
   8
LEVEL001
 100
AcDbLine
   6
CONTINUOUS
  62
7
  10
 136.79397213248
  20
 97.580360681239
  30
0.0
  11
 135.32746038488
  21
 97.686137606039
  31
0.0
   0
LINE
   5
20C
 100
AcDbEntity
   8
LEVEL001
 100
AcDbLine
   6
CONTINUOUS
  62
7
  10
 135.32746038488
  20
 97.686137606039
  30
0.0
  11
 133.80972199347
  21
 97.802038030339
  31
0.0
   0
LINE
   5
20D
 100
AcDbEntity
   8
LEVEL001
 100
AcDbLine
   6
CONTINUOUS
  62
7
  10
 133.80972199347
  20
 97.802038030339
  30
0.0
  11
 132.24735030847
  21
 97.928276049539
  31
0.0
   0
LINE
   5
20E
 100
AcDbEntity
   8
LEVEL001
 100
AcDbLine
   6
CONTINUOUS
  62
7
  10
 132.24735030847
  20
 97.928276049539
  30
0.0
  11
 130.65403081097
  21
 98.064363044539
  31
0.0
   0
LINE
   5
20F
 100
AcDbEntity
   8
LEVEL001
 100
AcDbLine
   6
CONTINUOUS
  62
7
  10
 130.65403081097
  20
 98.064363044539
  30
0.0
  11
 129.22832153778
  21
 98.192510336039
  31
0.0
   0
LINE
   5
210
 100
AcDbEntity
   8
LEVEL001
 100
AcDbLine
   6
CONTINUOUS
  62
7
  10
 129.22832153778
  20
 98.192510336039
  30
0.0
  11
 128.04959758458
  21
 98.303104761839
  31
0.0
   0
LINE
   5
211
 100
AcDbEntity
   8
LEVEL001
 100
AcDbLine
   6
CONTINUOUS
  62
7
  10
 128.04959758458
  20
 98.303104761839
  30
0.0
  11
 127.27531470467
  21
 98.378094720739
  31
0.0
   0
LINE
   5
212
 100
AcDbEntity
   8
LEVEL001
 100
AcDbLine
   6
CONTINUOUS
  62
7
  10
 127.27531470467
  20
 98.378094720739
  30
0.0
  11
 126.64457695237
  21
 98.440582905839
  31
0.0
   0
LINE
   5
213
 100
AcDbEntity
   8
LEVEL001
 100
AcDbLine
   6
CONTINUOUS
  62
7
  10
 126.64457695237
  20
 98.440582905839
  30
0.0
  11
 125.97044942797
  21
 98.508785272239
  31
0.0
   0
LINE
   5
214
 100
AcDbEntity
   8
LEVEL001
 100
AcDbLine
   6
CONTINUOUS
  62
7
  10
 125.97044942797
  20
 98.508785272239
  30
0.0
  11
 124.98462814027
  21
 98.611213288839
  31
0.0
   0
LINE
   5
215
 100
AcDbEntity
   8
LEVEL001
 100
AcDbLine
   6
CONTINUOUS
  62
7
  10
 124.98462814027
  20
 98.611213288839
  30
0.0
  11
 123.70376241187
  21
 98.749219301939
  31
0.0
   0
LINE
   5
216
 100
AcDbEntity
   8
LEVEL001
 100
AcDbLine
   6
CONTINUOUS
  62
7
  10
 123.70376241187
  20
 98.749219301939
  30
0.0
  11
 122.43024199707
  21
 98.892181530439
  31
0.0
   0
LINE
   5
217
 100
AcDbEntity
   8
LEVEL001
 100
AcDbLine
   6
CONTINUOUS
  62
7
  10
 122.43024199707
  20
 98.892181530439
  30
0.0
  11
 120.99051508847
  21
 99.061082212639
  31
0.0
   0
LINE
   5
218
 100
AcDbEntity
   8
LEVEL001
 100
AcDbLine
   6
CONTINUOUS
  62
7
  10
 120.99051508847
  20
 99.061082212639
  30
0.0
  11
 119.40915902247
  21
 99.256122577939
  31
0.0
   0
LINE
   5
219
 100
AcDbEntity
   8
LEVEL001
 100
AcDbLine
   6
CONTINUOUS
  62
7
  10
 119.40915902247
  20
 99.256122577939
  30
0.0
  11
 117.71577237058
  21
 99.477057353239
  31
0.0
   0
LINE
   5
21A
 100
AcDbEntity
   8
LEVEL001
 100
AcDbLine
   6
CONTINUOUS
  62
7
  10
 117.71577237058
  20
 99.477057353239
  30
0.0
  11
 115.94555567257
  21
 99.723008714539
  31
0.0
   0
LINE
   5
21B
 100
AcDbEntity
   8
LEVEL001
 100
AcDbLine
   6
CONTINUOUS
  62
7
  10
 115.94555567257
  20
 99.723008714539
  30
0.0
  11
 114.13995812607
  21
 99.992262184339
  31
0.0
   0
LINE
   5
21C
 100
AcDbEntity
   8
LEVEL001
 100
AcDbLine
   6
CONTINUOUS
  62
7
  10
 101.97975661537
  20
 93.157539847539
  30
0.0
  11
 102.04737303797
  21
 93.970190246339
  31
0.0
   0
LINE
   5
21D
 100
AcDbEntity
   8
LEVEL001
 100
AcDbLine
   6
CONTINUOUS
  62
7
  10
 102.04737303797
  20
 93.970190246339
  30
0.0
  11
 102.24930790957
  21
 94.771850942739
  31
0.0
   0
LINE
   5
21E
 100
AcDbEntity
   8
LEVEL001
 100
AcDbLine
   6
CONTINUOUS
  62
7
  10
 102.24930790957
  20
 94.771850942739
  30
0.0
  11
 102.58283040757
  21
 95.551680850739
  31
0.0
   0
LINE
   5
21F
 100
AcDbEntity
   8
LEVEL001
 100
AcDbLine
   6
CONTINUOUS
  62
7
  10
 102.58283040757
  20
 95.551680850739
  30
0.0
  11
 103.04343021218
  21
 96.299134108939
  31
0.0
   0
LINE
   5
220
 100
AcDbEntity
   8
LEVEL001
 100
AcDbLine
   6
CONTINUOUS
  62
7
  10
 103.04343021218
  20
 96.299134108939
  30
0.0
  11
 103.62487850127
  21
 97.004102693939
  31
0.0
   0
LINE
   5
221
 100
AcDbEntity
   8
LEVEL001
 100
AcDbLine
   6
CONTINUOUS
  62
7
  10
 103.62487850127
  20
 97.004102693939
  30
0.0
  11
 104.31931218417
  21
 97.657053115339
  31
0.0
   0
LINE
   5
222
 100
AcDbEntity
   8
LEVEL001
 100
AcDbLine
   6
CONTINUOUS
  62
7
  10
 106.00817069837
  20
 98.772402196739
  30
0.0
  11
 106.97975661537
  21
 99.219717673939
  31
0.0
   0
LINE
   5
223
 100
AcDbEntity
   8
LEVEL001
 100
AcDbLine
   6
CONTINUOUS
  62
7
  10
 106.97975661537
  20
 99.219717673939
  30
0.0
  11
 108.01895895497
  21
 99.585052595639
  31
0.0
   0
LINE
   5
224
 100
AcDbEntity
   8
LEVEL001
 100
AcDbLine
   6
CONTINUOUS
  62
7
  10
 108.01895895497
  20
 99.585052595639
  30
0.0
  11
 109.11172428827
  21
 99.863466433739
  31
0.0
   0
LINE
   5
225
 100
AcDbEntity
   8
LEVEL001
 100
AcDbLine
   6
CONTINUOUS
  62
7
  10
 109.11172428827
  20
 99.863466433739
  30
0.0
  11
 110.24327483877
  21
 100.05119411854
  31
0.0
   0
LINE
   5
226
 100
AcDbEntity
   8
LEVEL001
 100
AcDbLine
   6
CONTINUOUS
  62
7
  10
 110.24327483877
  20
 100.05119411854
  30
0.0
  11
 111.39830832627
  21
 100.14569695544
  31
0.0
   0
LINE
   5
227
 100
AcDbEntity
   8
LEVEL001
 100
AcDbLine
   6
CONTINUOUS
  62
7
  10
 111.39830832627
  20
 100.14569695544
  30
0.0
  11
 112.56120490448
  21
 100.14569695544
  31
0.0
   0
LINE
   5
228
 100
AcDbEntity
   8
LEVEL001
 100
AcDbLine
   6
CONTINUOUS
  62
7
  10
 112.56120490448
  20
 100.14569695544
  30
0.0
  11
 113.71623839208
  21
 100.05119411854
  31
0.0
   0
LINE
   5
229
 100
AcDbEntity
   8
LEVEL001
 100
AcDbLine
   6
CONTINUOUS
  62
7
  10
 113.71623839208
  20
 100.05119411854
  30
0.0
  11
 114.84778894248
  21
 99.863466433739
  31
0.0
   0
LINE
   5
22A
 100
AcDbEntity
   8
LEVEL001
 100
AcDbLine
   6
CONTINUOUS
  62
7
  10
 114.84778894248
  20
 99.863466433739
  30
0.0
  11
 115.94055427577
  21
 99.585052595639
  31
0.0
   0
LINE
   5
22B
 100
AcDbEntity
   8
LEVEL001
 100
AcDbLine
   6
CONTINUOUS
  62
7
  10
 115.94055427577
  20
 99.585052595639
  30
0.0
  11
 116.97975661537
  21
 99.219717673939
  31
0.0
   0
LINE
   5
22C
 100
AcDbEntity
   8
LEVEL001
 100
AcDbLine
   6
CONTINUOUS
  62
7
  10
 116.97975661537
  20
 99.219717673939
  30
0.0
  11
 117.95134253248
  21
 98.772402196739
  31
0.0
   0
LINE
   5
22D
 100
AcDbEntity
   8
LEVEL001
 100
AcDbLine
   6
CONTINUOUS
  62
7
  10
 117.95134253248
  20
 98.772402196739
  30
0.0
  11
 118.84217299407
  21
 98.249155338539
  31
0.0
   0
LINE
   5
22E
 100
AcDbEntity
   8
LEVEL001
 100
AcDbLine
   6
CONTINUOUS
  62
7
  10
 118.84217299407
  20
 98.249155338539
  30
0.0
  11
 119.64020104657
  21
 97.657053115339
  31
0.0
   0
LINE
   5
22F
 100
AcDbEntity
   8
LEVEL001
 100
AcDbLine
   6
CONTINUOUS
  62
7
  10
 119.64020104657
  20
 97.657053115339
  30
0.0
  11
 120.33463472957
  21
 97.004102693939
  31
0.0
   0
LINE
   5
230
 100
AcDbEntity
   8
LEVEL001
 100
AcDbLine
   6
CONTINUOUS
  62
7
  10
 120.33463472957
  20
 97.004102693939
  30
0.0
  11
 120.91608301868
  21
 96.299134108939
  31
0.0
   0
LINE
   5
231
 100
AcDbEntity
   8
LEVEL001
 100
AcDbLine
   6
CONTINUOUS
  62
7
  10
 120.91608301868
  20
 96.299134108939
  30
0.0
  11
 121.37668282327
  21
 95.551680850739
  31
0.0
   0
LINE
   5
232
 100
AcDbEntity
   8
LEVEL001
 100
AcDbLine
   6
CONTINUOUS
  62
7
  10
 121.37668282327
  20
 95.551680850739
  30
0.0
  11
 121.71020532118
  21
 94.771850942739
  31
0.0
   0
LINE
   5
233
 100
AcDbEntity
   8
LEVEL001
 100
AcDbLine
   6
CONTINUOUS
  62
7
  10
 121.71020532118
  20
 94.771850942739
  30
0.0
  11
 121.91214019287
  21
 93.970190246339
  31
0.0
   0
LINE
   5
234
 100
AcDbEntity
   8
LEVEL001
 100
AcDbLine
   6
CONTINUOUS
  62
7
  10
 121.91214019287
  20
 93.970190246339
  30
0.0
  11
 121.97975661537
  21
 93.157539847539
  31
0.0
   0
LINE
   5
235
 100
AcDbEntity
   8
LEVEL001
 100
AcDbLine
   6
CONTINUOUS
  62
7
  10
 121.97975661537
  20
 93.157539847539
  30
0.0
  11
 121.91214019287
  21
 92.344889448639
  31
0.0
   0
LINE
   5
236
 100
AcDbEntity
   8
LEVEL001
 100
AcDbLine
   6
CONTINUOUS
  62
7
  10
 121.91214019287
  20
 92.344889448639
  30
0.0
  11
 121.71020532118
  21
 91.543228752339
  31
0.0
   0
LINE
   5
237
 100
AcDbEntity
   8
LEVEL001
 100
AcDbLine
   6
CONTINUOUS
  62
7
  10
 121.71020532118
  20
 91.543228752339
  30
0.0
  11
 121.37668282327
  21
 90.763398844239
  31
0.0
   0
LINE
   5
238
 100
AcDbEntity
   8
LEVEL001
 100
AcDbLine
   6
CONTINUOUS
  62
7
  10
 121.37668282327
  20
 90.763398844239
  30
0.0
  11
 120.91608301868
  21
 90.015945586039
  31
0.0
   0
LINE
   5
239
 100
AcDbEntity
   8
LEVEL001
 100
AcDbLine
   6
CONTINUOUS
  62
7
  10
 120.91608301868
  20
 90.015945586039
  30
0.0
  11
 120.33463472957
  21
 89.310977001039
  31
0.0
   0
LINE
   5
23A
 100
AcDbEntity
   8
LEVEL001
 100
AcDbLine
   6
CONTINUOUS
  62
7
  10
 120.33463472957
  20
 89.310977001039
  30
0.0
  11
 119.64020104657
  21
 88.658026579639
  31
0.0
   0
LINE
   5
23B
 100
AcDbEntity
   8
LEVEL001
 100
AcDbLine
   6
CONTINUOUS
  62
7
  10
 119.64020104657
  20
 88.658026579639
  30
0.0
  11
 118.84217299407
  21
 88.065924356439
  31
0.0
   0
LINE
   5
23C
 100
AcDbEntity
   8
LEVEL001
 100
AcDbLine
   6
CONTINUOUS
  62
7
  10
 118.84217299407
  20
 88.065924356439
  30
0.0
  11
 117.95134253248
  21
 87.542677498239
  31
0.0
   0
LINE
   5
23D
 100
AcDbEntity
   8
LEVEL001
 100
AcDbLine
   6
CONTINUOUS
  62
7
  10
 117.95134253248
  20
 87.542677498239
  30
0.0
  11
 116.97975661537
  21
 87.095362021039
  31
0.0
   0
LINE
   5
23E
 100
AcDbEntity
   8
LEVEL001
 100
AcDbLine
   6
CONTINUOUS
  62
7
  10
 116.97975661537
  20
 87.095362021039
  30
0.0
  11
 115.94055427577
  21
 86.730027099339
  31
0.0
   0
LINE
   5
23F
 100
AcDbEntity
   8
LEVEL001
 100
AcDbLine
   6
CONTINUOUS
  62
7
  10
 115.94055427577
  20
 86.730027099339
  30
0.0
  11
 114.84778894248
  21
 86.451613261239
  31
0.0
   0
LINE
   5
240
 100
AcDbEntity
   8
LEVEL001
 100
AcDbLine
   6
CONTINUOUS
  62
7
  10
 114.84778894248
  20
 86.451613261239
  30
0.0
  11
 113.71623839208
  21
 86.263885576439
  31
0.0
   0
LINE
   5
241
 100
AcDbEntity
   8
LEVEL001
 100
AcDbLine
   6
CONTINUOUS
  62
7
  10
 113.71623839208
  20
 86.263885576439
  30
0.0
  11
 112.56120490448
  21
 86.169382739639
  31
0.0
   0
LINE
   5
242
 100
AcDbEntity
   8
LEVEL001
 100
AcDbLine
   6
CONTINUOUS
  62
7
  10
 112.56120490448
  20
 86.169382739639
  30
0.0
  11
 111.39830832627
  21
 86.169382739639
  31
0.0
   0
LINE
   5
243
 100
AcDbEntity
   8
LEVEL001
 100
AcDbLine
   6
CONTINUOUS
  62
7
  10
 111.39830832627
  20
 86.169382739639
  30
0.0
  11
 110.24327483877
  21
 86.263885576439
  31
0.0
   0
LINE
   5
244
 100
AcDbEntity
   8
LEVEL001
 100
AcDbLine
   6
CONTINUOUS
  62
7
  10
 110.24327483877
  20
 86.263885576439
  30
0.0
  11
 109.11172428827
  21
 86.451613261239
  31
0.0
   0
LINE
   5
245
 100
AcDbEntity
   8
LEVEL001
 100
AcDbLine
   6
CONTINUOUS
  62
7
  10
 109.11172428827
  20
 86.451613261239
  30
0.0
  11
 108.01895895497
  21
 86.730027099339
  31
0.0
   0
LINE
   5
246
 100
AcDbEntity
   8
LEVEL001
 100
AcDbLine
   6
CONTINUOUS
  62
7
  10
 108.01895895497
  20
 86.730027099339
  30
0.0
  11
 106.97975661537
  21
 87.095362021039
  31
0.0
   0
LINE
   5
247
 100
AcDbEntity
   8
LEVEL001
 100
AcDbLine
   6
CONTINUOUS
  62
7
  10
 106.97975661537
  20
 87.095362021039
  30
0.0
  11
 106.00817069837
  21
 87.542677498239
  31
0.0
   0
LINE
   5
248
 100
AcDbEntity
   8
LEVEL001
 100
AcDbLine
   6
CONTINUOUS
  62
7
  10
 106.00817069837
  20
 87.542677498239
  30
0.0
  11
 105.11734023667
  21
 88.065924356439
  31
0.0
   0
LINE
   5
249
 100
AcDbEntity
   8
LEVEL001
 100
AcDbLine
   6
CONTINUOUS
  62
7
  10
 105.11734023667
  20
 88.065924356439
  30
0.0
  11
 104.31931218417
  21
 88.658026579639
  31
0.0
   0
LINE
   5
24A
 100
AcDbEntity
   8
LEVEL001
 100
AcDbLine
   6
CONTINUOUS
  62
7
  10
 104.31931218417
  20
 88.658026579639
  30
0.0
  11
 103.62487850127
  21
 89.310977001039
  31
0.0
   0
LINE
   5
24B
 100
AcDbEntity
   8
LEVEL001
 100
AcDbLine
   6
CONTINUOUS
  62
7
  10
 103.62487850127
  20
 89.310977001039
  30
0.0
  11
 103.04343021218
  21
 90.015945586039
  31
0.0
   0
LINE
   5
24C
 100
AcDbEntity
   8
LEVEL001
 100
AcDbLine
   6
CONTINUOUS
  62
7
  10
 103.04343021218
  20
 90.015945586039
  30
0.0
  11
 102.58283040757
  21
 90.763398844239
  31
0.0
   0
LINE
   5
24D
 100
AcDbEntity
   8
LEVEL001
 100
AcDbLine
   6
CONTINUOUS
  62
7
  10
 102.58283040757
  20
 90.763398844239
  30
0.0
  11
 102.24930790957
  21
 91.543228752339
  31
0.0
   0
LINE
   5
24E
 100
AcDbEntity
   8
LEVEL001
 100
AcDbLine
   6
CONTINUOUS
  62
7
  10
 102.24930790957
  20
 91.543228752339
  30
0.0
  11
 102.04737303797
  21
 92.344889448639
  31
0.0
   0
LINE
   5
24F
 100
AcDbEntity
   8
LEVEL001
 100
AcDbLine
   6
CONTINUOUS
  62
7
  10
 102.04737303797
  20
 92.344889448639
  30
0.0
  11
 101.97975661537
  21
 93.157539847539
  31
0.0
   0
CIRCLE
   5
250
 100
AcDbEntity
   8
LEVEL001
 100
AcDbCircle
   6
CONTINUOUS
  62
7
  10
 112.97975661537
  20
 93.157539847539
  30
0.0
  40
 2.0000000000000
   0
LINE
   5
251
 100
AcDbEntity
   8
LEVEL001
 100
AcDbLine
   6
CONTINUOUS
  62
7
  10
 223.97975661537
  20
 93.157539847539
  30
0.0
  11
 223.91214019288
  21
 92.344889448639
  31
0.0
   0
LINE
   5
252
 100
AcDbEntity
   8
LEVEL001
 100
AcDbLine
   6
CONTINUOUS
  62
7
  10
 223.91214019288
  20
 92.344889448639
  30
0.0
  11
 223.71020532118
  21
 91.543228752339
  31
0.0
   0
LINE
   5
253
 100
AcDbEntity
   8
LEVEL001
 100
AcDbLine
   6
CONTINUOUS
  62
7
  10
 223.71020532118
  20
 91.543228752339
  30
0.0
  11
 223.37668282327
  21
 90.763398844239
  31
0.0
   0
LINE
   5
254
 100
AcDbEntity
   8
LEVEL001
 100
AcDbLine
   6
CONTINUOUS
  62
7
  10
 223.37668282327
  20
 90.763398844239
  30
0.0
  11
 222.91608301867
  21
 90.015945586039
  31
0.0
   0
LINE
   5
255
 100
AcDbEntity
   8
LEVEL001
 100
AcDbLine
   6
CONTINUOUS
  62
7
  10
 222.91608301867
  20
 90.015945586039
  30
0.0
  11
 222.33463472957
  21
 89.310977001039
  31
0.0
   0
LINE
   5
256
 100
AcDbEntity
   8
LEVEL001
 100
AcDbLine
   6
CONTINUOUS
  62
7
  10
 222.33463472957
  20
 89.310977001039
  30
0.0
  11
 221.64020104658
  21
 88.658026579639
  31
0.0
   0
LINE
   5
257
 100
AcDbEntity
   8
LEVEL001
 100
AcDbLine
   6
CONTINUOUS
  62
7
  10
 221.64020104658
  20
 88.658026579639
  30
0.0
  11
 220.84217299407
  21
 88.065924356439
  31
0.0
   0
LINE
   5
258
 100
AcDbEntity
   8
LEVEL001
 100
AcDbLine
   6
CONTINUOUS
  62
7
  10
 220.84217299407
  20
 88.065924356439
  30
0.0
  11
 219.95134253248
  21
 87.542677498239
  31
0.0
   0
LINE
   5
259
 100
AcDbEntity
   8
LEVEL001
 100
AcDbLine
   6
CONTINUOUS
  62
7
  10
 219.95134253248
  20
 87.542677498239
  30
0.0
  11
 218.97975661537
  21
 87.095362021039
  31
0.0
   0
LINE
   5
25A
 100
AcDbEntity
   8
LEVEL001
 100
AcDbLine
   6
CONTINUOUS
  62
7
  10
 218.97975661537
  20
 87.095362021039
  30
0.0
  11
 217.94055427577
  21
 86.730027099339
  31
0.0
   0
LINE
   5
25B
 100
AcDbEntity
   8
LEVEL001
 100
AcDbLine
   6
CONTINUOUS
  62
7
  10
 217.94055427577
  20
 86.730027099339
  30
0.0
  11
 216.84778894247
  21
 86.451613261239
  31
0.0
   0
LINE
   5
25C
 100
AcDbEntity
   8
LEVEL001
 100
AcDbLine
   6
CONTINUOUS
  62
7
  10
 216.84778894247
  20
 86.451613261239
  30
0.0
  11
 215.71623839207
  21
 86.263885576439
  31
0.0
   0
LINE
   5
25D
 100
AcDbEntity
   8
LEVEL001
 100
AcDbLine
   6
CONTINUOUS
  62
7
  10
 215.71623839207
  20
 86.263885576439
  30
0.0
  11
 214.56120490448
  21
 86.169382739639
  31
0.0
   0
LINE
   5
25E
 100
AcDbEntity
   8
LEVEL001
 100
AcDbLine
   6
CONTINUOUS
  62
7
  10
 214.56120490448
  20
 86.169382739639
  30
0.0
  11
 213.39830832627
  21
 86.169382739639
  31
0.0
   0
LINE
   5
25F
 100
AcDbEntity
   8
LEVEL001
 100
AcDbLine
   6
CONTINUOUS
  62
7
  10
 213.39830832627
  20
 86.169382739639
  30
0.0
  11
 212.24327483877
  21
 86.263885576439
  31
0.0
   0
LINE
   5
260
 100
AcDbEntity
   8
LEVEL001
 100
AcDbLine
   6
CONTINUOUS
  62
7
  10
 212.24327483877
  20
 86.263885576439
  30
0.0
  11
 211.11172428827
  21
 86.451613261239
  31
0.0
   0
LINE
   5
261
 100
AcDbEntity
   8
LEVEL001
 100
AcDbLine
   6
CONTINUOUS
  62
7
  10
 211.11172428827
  20
 86.451613261239
  30
0.0
  11
 210.01895895497
  21
 86.730027099339
  31
0.0
   0
LINE
   5
262
 100
AcDbEntity
   8
LEVEL001
 100
AcDbLine
   6
CONTINUOUS
  62
7
  10
 210.01895895497
  20
 86.730027099339
  30
0.0
  11
 208.97975661537
  21
 87.095362021039
  31
0.0
   0
LINE
   5
263
 100
AcDbEntity
   8
LEVEL001
 100
AcDbLine
   6
CONTINUOUS
  62
7
  10
 208.97975661537
  20
 87.095362021039
  30
0.0
  11
 208.00817069838
  21
 87.542677498239
  31
0.0
   0
LINE
   5
264
 100
AcDbEntity
   8
LEVEL001
 100
AcDbLine
   6
CONTINUOUS
  62
7
  10
 208.00817069838
  20
 87.542677498239
  30
0.0
  11
 207.11734023667
  21
 88.065924356439
  31
0.0
   0
LINE
   5
265
 100
AcDbEntity
   8
LEVEL001
 100
AcDbLine
   6
CONTINUOUS
  62
7
  10
 207.11734023667
  20
 88.065924356439
  30
0.0
  11
 206.31931218417
  21
 88.658026579639
  31
0.0
   0
LINE
   5
266
 100
AcDbEntity
   8
LEVEL001
 100
AcDbLine
   6
CONTINUOUS
  62
7
  10
 206.31931218417
  20
 88.658026579639
  30
0.0
  11
 205.62487850128
  21
 89.310977001039
  31
0.0
   0
LINE
   5
267
 100
AcDbEntity
   8
LEVEL001
 100
AcDbLine
   6
CONTINUOUS
  62
7
  10
 205.62487850128
  20
 89.310977001039
  30
0.0
  11
 205.04343021218
  21
 90.015945586039
  31
0.0
   0
LINE
   5
268
 100
AcDbEntity
   8
LEVEL001
 100
AcDbLine
   6
CONTINUOUS
  62
7
  10
 205.04343021218
  20
 90.015945586039
  30
0.0
  11
 204.58283040758
  21
 90.763398844239
  31
0.0
   0
LINE
   5
269
 100
AcDbEntity
   8
LEVEL001
 100
AcDbLine
   6
CONTINUOUS
  62
7
  10
 204.58283040758
  20
 90.763398844239
  30
0.0
  11
 204.24930790957
  21
 91.543228752339
  31
0.0
   0
LINE
   5
26A
 100
AcDbEntity
   8
LEVEL001
 100
AcDbLine
   6
CONTINUOUS
  62
7
  10
 204.24930790957
  20
 91.543228752339
  30
0.0
  11
 204.04737303798
  21
 92.344889448639
  31
0.0
   0
LINE
   5
26B
 100
AcDbEntity
   8
LEVEL001
 100
AcDbLine
   6
CONTINUOUS
  62
7
  10
 204.04737303798
  20
 92.344889448639
  30
0.0
  11
 203.97975661537
  21
 93.157539847539
  31
0.0
   0
LINE
   5
26C
 100
AcDbEntity
   8
LEVEL001
 100
AcDbLine
   6
CONTINUOUS
  62
7
  10
 203.97975661537
  20
 93.157539847539
  30
0.0
  11
 204.04737303798
  21
 93.970190246339
  31
0.0
   0
LINE
   5
26D
 100
AcDbEntity
   8
LEVEL001
 100
AcDbLine
   6
CONTINUOUS
  62
7
  10
 204.04737303798
  20
 93.970190246339
  30
0.0
  11
 204.24930790957
  21
 94.771850942739
  31
0.0
   0
LINE
   5
26E
 100
AcDbEntity
   8
LEVEL001
 100
AcDbLine
   6
CONTINUOUS
  62
7
  10
 204.24930790957
  20
 94.771850942739
  30
0.0
  11
 204.58283040758
  21
 95.551680850739
  31
0.0
   0
LINE
   5
26F
 100
AcDbEntity
   8
LEVEL001
 100
AcDbLine
   6
CONTINUOUS
  62
7
  10
 204.58283040758
  20
 95.551680850739
  30
0.0
  11
 205.04343021218
  21
 96.299134108939
  31
0.0
   0
LINE
   5
270
 100
AcDbEntity
   8
LEVEL001
 100
AcDbLine
   6
CONTINUOUS
  62
7
  10
 205.04343021218
  20
 96.299134108939
  30
0.0
  11
 205.62487850128
  21
 97.004102693939
  31
0.0
   0
LINE
   5
271
 100
AcDbEntity
   8
LEVEL001
 100
AcDbLine
   6
CONTINUOUS
  62
7
  10
 205.62487850128
  20
 97.004102693939
  30
0.0
  11
 206.31931218417
  21
 97.657053115339
  31
0.0
   0
LINE
   5
272
 100
AcDbEntity
   8
LEVEL001
 100
AcDbLine
   6
CONTINUOUS
  62
7
  10
 206.31931218417
  20
 97.657053115339
  30
0.0
  11
 207.11734023667
  21
 98.249155338539
  31
0.0
   0
LINE
   5
273
 100
AcDbEntity
   8
LEVEL001
 100
AcDbLine
   6
CONTINUOUS
  62
7
  10
 207.11734023667
  20
 98.249155338539
  30
0.0
  11
 208.00817069838
  21
 98.772402196739
  31
0.0
   0
LINE
   5
274
 100
AcDbEntity
   8
LEVEL001
 100
AcDbLine
   6
CONTINUOUS
  62
7
  10
 208.00817069838
  20
 98.772402196739
  30
0.0
  11
 208.97975661537
  21
 99.219717673939
  31
0.0
   0
LINE
   5
275
 100
AcDbEntity
   8
LEVEL001
 100
AcDbLine
   6
CONTINUOUS
  62
7
  10
 208.97975661537
  20
 99.219717673939
  30
0.0
  11
 210.01895895497
  21
 99.585052595639
  31
0.0
   0
LINE
   5
276
 100
AcDbEntity
   8
LEVEL001
 100
AcDbLine
   6
CONTINUOUS
  62
7
  10
 210.01895895497
  20
 99.585052595639
  30
0.0
  11
 211.11172428827
  21
 99.863466433739
  31
0.0
   0
LINE
   5
277
 100
AcDbEntity
   8
LEVEL001
 100
AcDbLine
   6
CONTINUOUS
  62
7
  10
 211.11172428827
  20
 99.863466433739
  30
0.0
  11
 212.24327483877
  21
 100.05119411854
  31
0.0
   0
LINE
   5
278
 100
AcDbEntity
   8
LEVEL001
 100
AcDbLine
   6
CONTINUOUS
  62
7
  10
 212.24327483877
  20
 100.05119411854
  30
0.0
  11
 213.39830832627
  21
 100.14569695544
  31
0.0
   0
LINE
   5
279
 100
AcDbEntity
   8
LEVEL001
 100
AcDbLine
   6
CONTINUOUS
  62
7
  10
 213.39830832627
  20
 100.14569695544
  30
0.0
  11
 214.56120490448
  21
 100.14569695544
  31
0.0
   0
LINE
   5
27A
 100
AcDbEntity
   8
LEVEL001
 100
AcDbLine
   6
CONTINUOUS
  62
7
  10
 214.56120490448
  20
 100.14569695544
  30
0.0
  11
 215.71623839207
  21
 100.05119411854
  31
0.0
   0
LINE
   5
27B
 100
AcDbEntity
   8
LEVEL001
 100
AcDbLine
   6
CONTINUOUS
  62
7
  10
 215.71623839207
  20
 100.05119411854
  30
0.0
  11
 216.84778894247
  21
 99.863466433739
  31
0.0
   0
LINE
   5
27C
 100
AcDbEntity
   8
LEVEL001
 100
AcDbLine
   6
CONTINUOUS
  62
7
  10
 216.84778894247
  20
 99.863466433739
  30
0.0
  11
 217.94055427577
  21
 99.585052595639
  31
0.0
   0
LINE
   5
27D
 100
AcDbEntity
   8
LEVEL001
 100
AcDbLine
   6
CONTINUOUS
  62
7
  10
 217.94055427577
  20
 99.585052595639
  30
0.0
  11
 218.97975661537
  21
 99.219717673939
  31
0.0
   0
LINE
   5
27E
 100
AcDbEntity
   8
LEVEL001
 100
AcDbLine
   6
CONTINUOUS
  62
7
  10
 218.97975661537
  20
 99.219717673939
  30
0.0
  11
 219.95134253248
  21
 98.772402196739
  31
0.0
   0
LINE
   5
27F
 100
AcDbEntity
   8
LEVEL001
 100
AcDbLine
   6
CONTINUOUS
  62
7
  10
 219.95134253248
  20
 98.772402196739
  30
0.0
  11
 220.84217299407
  21
 98.249155338539
  31
0.0
   0
LINE
   5
280
 100
AcDbEntity
   8
LEVEL001
 100
AcDbLine
   6
CONTINUOUS
  62
7
  10
 220.84217299407
  20
 98.249155338539
  30
0.0
  11
 221.64020104658
  21
 97.657053115339
  31
0.0
   0
LINE
   5
281
 100
AcDbEntity
   8
LEVEL001
 100
AcDbLine
   6
CONTINUOUS
  62
7
  10
 221.64020104658
  20
 97.657053115339
  30
0.0
  11
 222.33463472957
  21
 97.004102693939
  31
0.0
   0
LINE
   5
282
 100
AcDbEntity
   8
LEVEL001
 100
AcDbLine
   6
CONTINUOUS
  62
7
  10
 222.33463472957
  20
 97.004102693939
  30
0.0
  11
 222.91608301867
  21
 96.299134108939
  31
0.0
   0
LINE
   5
283
 100
AcDbEntity
   8
LEVEL001
 100
AcDbLine
   6
CONTINUOUS
  62
7
  10
 222.91608301867
  20
 96.299134108939
  30
0.0
  11
 223.37668282327
  21
 95.551680850739
  31
0.0
   0
LINE
   5
284
 100
AcDbEntity
   8
LEVEL001
 100
AcDbLine
   6
CONTINUOUS
  62
7
  10
 223.37668282327
  20
 95.551680850739
  30
0.0
  11
 223.71020532118
  21
 94.771850942739
  31
0.0
   0
LINE
   5
285
 100
AcDbEntity
   8
LEVEL001
 100
AcDbLine
   6
CONTINUOUS
  62
7
  10
 223.71020532118
  20
 94.771850942739
  30
0.0
  11
 223.91214019288
  21
 93.970190246339
  31
0.0
   0
LINE
   5
286
 100
AcDbEntity
   8
LEVEL001
 100
AcDbLine
   6
CONTINUOUS
  62
7
  10
 223.91214019288
  20
 93.970190246339
  30
0.0
  11
 223.97975661537
  21
 93.157539847539
  31
0.0
   0
CIRCLE
   5
287
 100
AcDbEntity
   8
LEVEL001
 100
AcDbCircle
   6
CONTINUOUS
  62
7
  10
 212.97975661537
  20
 93.157539847539
  30
0.0
  40
 2.0000000000000
   0
CIRCLE
   5
288
 100
AcDbEntity
   8
LEVEL001
 100
AcDbCircle
   6
CONTINUOUS
  62
7
  10
 212.97975661537
  20
 93.157539847539
  30
0.0
  40
 1.6500000000000
   0
CIRCLE
   5
289
 100
AcDbEntity
   8
LEVEL001
 100
AcDbCircle
   6
CONTINUOUS
  62
7
  10
 112.97975661537
  20
 93.157539847539
  30
0.0
  40
 1.6500000000000
   0
LINE
   5
28A
 100
AcDbEntity
   8
LEVEL001
 100
AcDbLine
   6
DASHDOT
  62
2
  10
 212.97975661537
  20
 82.503862301603
  30
0.0
  11
 212.97975661537
  21
 104.03869110916
  31
0.0
   0
LINE
   5
28B
 100
AcDbEntity
   8
LEVEL001
 100
AcDbLine
   6
DASHDOT
  62
2
  10
 227.92491126948
  20
 93.157539847539
  30
0.0
  11
 97.826069465156
  21
 93.157539847539
  31
0.0
   0
LINE
   5
28C
 100
AcDbEntity
   8
LEVEL001
 100
AcDbLine
   6
DASHDOT
  62
2
  10
 112.97975661537
  20
 104.03869110916
  30
0.0
  11
 112.97975661537
  21
 82.503862301603
  31
0.0
   0
LINE
   5
28D
 100
AcDbEntity
   8
LEVEL001
 100
AcDbLine
   6
DASHDOT
  62
2
  10
 227.92491126948
  20
 231.34662017994
  30
0.0
  11
 97.826069465156
  21
 231.34662017994
  31
0.0
   0
LINE
   5
28E
 100
AcDbEntity
   8
LEVEL001
 100
AcDbLine
   6
DASHDOT
  62
2
  10
 212.97975661537
  20
 235.64051327783
  30
0.0
  11
 212.97975661537
  21
 226.43036955228
  31
0.0
   0
CIRCLE
   5
28F
 100
AcDbEntity
   8
LEVEL001
 100
AcDbCircle
   6
DOT
  62
2
  10
 212.97975661537
  20
 231.34662017994
  30
0.0
  40
 2.0000000000000
   0
CIRCLE
   5
290
 100
AcDbEntity
   8
LEVEL001
 100
AcDbCircle
   6
DOT
  62
2
  10
 212.97975661537
  20
 231.34662017994
  30
0.0
  40
 1.6500000000000
   0
CIRCLE
   5
291
 100
AcDbEntity
   8
LEVEL001
 100
AcDbCircle
   6
DOT
  62
2
  10
 112.97975661537
  20
 231.34662017994
  30
0.0
  40
 2.0000000000000
   0
CIRCLE
   5
292
 100
AcDbEntity
   8
LEVEL001
 100
AcDbCircle
   6
DOT
  62
2
  10
 112.97975661537
  20
 231.34662017994
  30
0.0
  40
 1.6500000000000
   0
LINE
   5
293
 100
AcDbEntity
   8
LEVEL001
 100
AcDbLine
   6
DASHDOT
  62
2
  10
 112.97975661537
  20
 235.64051327783
  30
0.0
  11
 112.97975661537
  21
 226.43036955228
  31
0.0
   0
LINE
   5
294
 100
AcDbEntity
   8
LEVEL001
 100
AcDbLine
   6
DASHDOT
  62
2
  10
 162.97975661537
  20
 108.65020281308
  30
0.0
  11
 162.97975661537
  21
 76.418797854405
  31
0.0
   0
LINE
   5
295
 100
AcDbEntity
   8
LEVEL001
 100
AcDbLine
   6
DASHDOT
  62
2
  10
 162.97975661537
  20
 247.49317801969
  30
0.0
  11
 162.97975661537
  21
 213.77416975523
  31
0.0
   0
CIRCLE
   5
296
 100
AcDbEntity
   8
LEVEL001
 100
AcDbCircle
   6
CONTINUOUS
  62
2
  10
 212.97975661537
  20
 93.157539847539
  30
0.0
  40
 3.0000000000000
   0
CIRCLE
   5
297
 100
AcDbEntity
   8
LEVEL001
 100
AcDbCircle
   6
CONTINUOUS
  62
2
  10
 112.97975661537
  20
 93.157539847539
  30
0.0
  40
 3.0000000000000
   0
LINE
   5
298
 100
AcDbEntity
   8
LEVEL001
 100
AcDbLine
   6
CONTINUOUS
  62
7
  10
 223.97975661537
  20
 161.76499604807
  30
0.0
  11
 220.40628129117
  21
 166.06809450147
  31
0.0
   0
LINE
   5
299
 100
AcDbEntity
   8
LEVEL001
 100
AcDbLine
   6
CONTINUOUS
  62
7
  10
 220.40628129117
  20
 166.06809450147
  30
0.0
  11
 216.55790664567
  21
 170.07293750127
  31
0.0
   0
LINE
   5
29A
 100
AcDbEntity
   8
LEVEL001
 100
AcDbLine
   6
CONTINUOUS
  62
7
  10
 216.55790664567
  20
 170.07293750127
  30
0.0
  11
 212.45509479537
  21
 173.77012422477
  31
0.0
   0
LINE
   5
29B
 100
AcDbEntity
   8
LEVEL001
 100
AcDbLine
   6
CONTINUOUS
  62
7
  10
 212.45509479537
  20
 173.77012422477
  30
0.0
  11
 208.11830785687
  21
 177.15025384917
  31
0.0
   0
LINE
   5
29C
 100
AcDbEntity
   8
LEVEL001
 100
AcDbLine
   6
CONTINUOUS
  62
7
  10
 208.11830785687
  20
 177.15025384917
  30
0.0
  11
 203.56763164337
  21
 180.20392555167
  31
0.0
   0
LINE
   5
29D
 100
AcDbEntity
   8
LEVEL001
 100
AcDbLine
   6
CONTINUOUS
  62
7
  10
 203.56763164337
  20
 180.20392555167
  30
0.0
  11
 198.81985808747
  21
 182.92173850957
  31
0.0
   0
LINE
   5
29E
 100
AcDbEntity
   8
LEVEL001
 100
AcDbLine
   6
CONTINUOUS
  62
7
  10
 198.81985808747
  20
 182.92173850957
  30
0.0
  11
 193.89007518567
  21
 185.29429189997
  31
0.0
   0
LINE
   5
29F
 100
AcDbEntity
   8
LEVEL001
 100
AcDbLine
   6
CONTINUOUS
  62
7
  10
 193.89007518567
  20
 185.29429189997
  30
0.0
  11
 188.79335661407
  21
 187.31218490017
  31
0.0
   0
LINE
   5
2A0
 100
AcDbEntity
   8
LEVEL001
 100
AcDbLine
   6
CONTINUOUS
  62
7
  10
 188.79335661407
  20
 187.31218490017
  30
0.0
  11
 183.29181896427
  21
 189.03552964297
  31
0.0
   0
LINE
   5
2A1
 100
AcDbEntity
   8
LEVEL001
 100
AcDbLine
   6
CONTINUOUS
  62
7
  10
 183.29181896427
  20
 189.03552964297
  30
0.0
  11
 177.65260858817
  21
 190.34850637677
  31
0.0
   0
LINE
   5
2A2
 100
AcDbEntity
   8
LEVEL001
 100
AcDbLine
   6
CONTINUOUS
  62
7
  10
 177.65260858817
  20
 190.34850637677
  30
0.0
  11
 171.91433982817
  21
 191.24030633807
  31
0.0
   0
LINE
   5
2A3
 100
AcDbEntity
   8
LEVEL001
 100
AcDbLine
   6
CONTINUOUS
  62
7
  10
 171.91433982817
  20
 191.24030633807
  30
0.0
  11
 166.11602800687
  21
 191.70012076297
  31
0.0
   0
LINE
   5
2A4
 100
AcDbEntity
   8
LEVEL001
 100
AcDbLine
   6
CONTINUOUS
  62
7
  10
 166.11602800687
  20
 191.70012076297
  30
0.0
  11
 160.29668844667
  21
 191.71749396337
  31
0.0
   0
LINE
   5
2A5
 100
AcDbEntity
   8
LEVEL001
 100
AcDbLine
   6
CONTINUOUS
  62
7
  10
 160.29668844667
  20
 191.71749396337
  30
0.0
  11
 154.49533647027
  21
 191.29179468437
  31
0.0
   0
LINE
   5
2A6
 100
AcDbEntity
   8
LEVEL001
 100
AcDbLine
   6
CONTINUOUS
  62
7
  10
 154.49533647027
  20
 191.29179468437
  30
0.0
  11
 148.75098740027
  21
 190.43326762767
  31
0.0
   0
LINE
   5
2A7
 100
AcDbEntity
   8
LEVEL001
 100
AcDbLine
   6
CONTINUOUS
  62
7
  10
 148.75098740027
  20
 190.43326762767
  30
0.0
  11
 143.10265655917
  21
 189.15272155697
  31
0.0
   0
LINE
   5
2A8
 100
AcDbEntity
   8
LEVEL001
 100
AcDbLine
   6
CONTINUOUS
  62
7
  10
 143.10265655917
  20
 189.15272155697
  30
0.0
  11
 137.58912343757
  21
 187.46096523617
  31
0.0
   0
LINE
   5
2A9
 100
AcDbEntity
   8
LEVEL001
 100
AcDbLine
   6
CONTINUOUS
  62
7
  10
 137.58912343757
  20
 187.46096523617
  30
0.0
  11
 132.24013869658
  21
 185.36880742877
  31
0.0
   0
LINE
   5
2AA
 100
AcDbEntity
   8
LEVEL001
 100
AcDbLine
   6
CONTINUOUS
  62
7
  10
 132.24013869658
  20
 185.36880742877
  30
0.0
  11
 127.07380409737
  21
 182.88705689877
  31
0.0
   0
LINE
   5
2AB
 100
AcDbEntity
   8
LEVEL001
 100
AcDbLine
   6
CONTINUOUS
  62
7
  10
 127.07380409737
  20
 182.88705689877
  30
0.0
  11
 122.10745086777
  21
 180.02652240977
  31
0.0
   0
LINE
   5
2AC
 100
AcDbEntity
   8
LEVEL001
 100
AcDbLine
   6
CONTINUOUS
  62
7
  10
 122.10745086777
  20
 180.02652240977
  30
0.0
  11
 117.62365190257
  21
 176.99222322407
  31
0.0
   0
LINE
   5
2AD
 100
AcDbEntity
   8
LEVEL001
 100
AcDbLine
   6
CONTINUOUS
  62
7
  10
 117.62365190257
  20
 176.99222322407
  30
0.0
  11
 113.34943815458
  21
 173.63986129717
  31
0.0
   0
LINE
   5
2AE
 100
AcDbEntity
   8
LEVEL001
 100
AcDbLine
   6
CONTINUOUS
  62
7
  10
 113.34943815458
  20
 173.63986129717
  30
0.0
  11
 109.30423794847
  21
 169.97849632707
  31
0.0
   0
LINE
   5
2AF
 100
AcDbEntity
   8
LEVEL001
 100
AcDbLine
   6
CONTINUOUS
  62
7
  10
 109.30423794847
  20
 169.97849632707
  30
0.0
  11
 105.50777089757
  21
 166.01718801147
  31
0.0
   0
LINE
   5
2B0
 100
AcDbEntity
   8
LEVEL001
 100
AcDbLine
   6
CONTINUOUS
  62
7
  10
 105.50777089757
  20
 166.01718801147
  30
0.0
  11
 101.97975661537
  21
 161.76499604807
  31
0.0
   0
LINE
   5
2B1
 100
AcDbEntity
   8
LEVEL001
 100
AcDbLine
   6
CONTINUOUS
  62
7
  10
 121.97975661537
  20
 161.76499604807
  30
0.0
  11
 124.30041302297
  21
 165.21823915377
  31
0.0
   0
LINE
   5
2B2
 100
AcDbEntity
   8
LEVEL001
 100
AcDbLine
   6
CONTINUOUS
  62
7
  10
 124.30041302297
  20
 165.21823915377
  30
0.0
  11
 126.88588727947
  21
 168.42852918877
  31
0.0
   0
LINE
   5
2B3
 100
AcDbEntity
   8
LEVEL001
 100
AcDbLine
   6
CONTINUOUS
  62
7
  10
 126.88588727947
  20
 168.42852918877
  30
0.0
  11
 129.71525601577
  21
 171.38493881407
  31
0.0
   0
LINE
   5
2B4
 100
AcDbEntity
   8
LEVEL001
 100
AcDbLine
   6
CONTINUOUS
  62
7
  10
 129.71525601577
  20
 171.38493881407
  30
0.0
  11
 132.76759586267
  21
 174.07654069037
  31
0.0
   0
LINE
   5
2B5
 100
AcDbEntity
   8
LEVEL001
 100
AcDbLine
   6
CONTINUOUS
  62
7
  10
 132.76759586267
  20
 174.07654069037
  30
0.0
  11
 136.02294625067
  21
 176.49240747877
  31
0.0
   0
LINE
   5
2B6
 100
AcDbEntity
   8
LEVEL001
 100
AcDbLine
   6
CONTINUOUS
  62
7
  10
 136.02294625067
  20
 176.49240747877
  30
0.0
  11
 139.46519780867
  21
 178.62161184007
  31
0.0
   0
LINE
   5
2B7
 100
AcDbEntity
   8
LEVEL001
 100
AcDbLine
   6
CONTINUOUS
  62
7
  10
 139.46519780867
  20
 178.62161184007
  30
0.0
  11
 143.07920396557
  21
 180.45322643507
  31
0.0
   0
LINE
   5
2B8
 100
AcDbEntity
   8
LEVEL001
 100
AcDbLine
   6
CONTINUOUS
  62
7
  10
 143.07920396557
  20
 180.45322643507
  30
0.0
  11
 146.84981815018
  21
 181.97632392487
  31
0.0
   0
LINE
   5
2B9
 100
AcDbEntity
   8
LEVEL001
 100
AcDbLine
   6
CONTINUOUS
  62
7
  10
 146.84981815018
  20
 181.97632392487
  30
0.0
  11
 150.75852399217
  21
 183.17997697007
  31
0.0
   0
LINE
   5
2BA
 100
AcDbEntity
   8
LEVEL001
 100
AcDbLine
   6
CONTINUOUS
  62
7
  10
 150.75852399217
  20
 183.17997697007
  30
0.0
  11
 154.77332592647
  21
 184.05325823177
  31
0.0
   0
LINE
   5
2BB
 100
AcDbEntity
   8
LEVEL001
 100
AcDbLine
   6
CONTINUOUS
  62
7
  10
 154.77332592647
  20
 184.05325823177
  30
0.0
  11
 158.85885858887
  21
 184.58524037087
  31
0.0
   0
LINE
   5
2BC
 100
AcDbEntity
   8
LEVEL001
 100
AcDbLine
   6
CONTINUOUS
  62
7
  10
 158.85885858887
  20
 184.58524037087
  30
0.0
  11
 162.97975661537
  21
 184.76499604807
  31
0.0
   0
LINE
   5
2BD
 100
AcDbEntity
   8
LEVEL001
 100
AcDbLine
   6
CONTINUOUS
  62
7
  10
 162.97975661537
  20
 184.76499604807
  30
0.0
  11
 167.10065464197
  21
 184.58524037087
  31
0.0
   0
LINE
   5
2BE
 100
AcDbEntity
   8
LEVEL001
 100
AcDbLine
   6
CONTINUOUS
  62
7
  10
 167.10065464197
  20
 184.58524037087
  30
0.0
  11
 171.18618730437
  21
 184.05325823177
  31
0.0
   0
LINE
   5
2BF
 100
AcDbEntity
   8
LEVEL001
 100
AcDbLine
   6
CONTINUOUS
  62
7
  10
 171.18618730437
  20
 184.05325823177
  30
0.0
  11
 175.20098923867
  21
 183.17997697007
  31
0.0
   0
LINE
   5
2C0
 100
AcDbEntity
   8
LEVEL001
 100
AcDbLine
   6
CONTINUOUS
  62
7
  10
 175.20098923867
  20
 183.17997697007
  30
0.0
  11
 179.10969508067
  21
 181.97632392487
  31
0.0
   0
LINE
   5
2C1
 100
AcDbEntity
   8
LEVEL001
 100
AcDbLine
   6
CONTINUOUS
  62
7
  10
 179.10969508067
  20
 181.97632392487
  30
0.0
  11
 182.88030926517
  21
 180.45322643507
  31
0.0
   0
LINE
   5
2C2
 100
AcDbEntity
   8
LEVEL001
 100
AcDbLine
   6
CONTINUOUS
  62
7
  10
 182.88030926517
  20
 180.45322643507
  30
0.0
  11
 186.49431542207
  21
 178.62161184007
  31
0.0
   0
LINE
   5
2C3
 100
AcDbEntity
   8
LEVEL001
 100
AcDbLine
   6
CONTINUOUS
  62
7
  10
 186.49431542207
  20
 178.62161184007
  30
0.0
  11
 189.93656698017
  21
 176.49240747877
  31
0.0
   0
LINE
   5
2C4
 100
AcDbEntity
   8
LEVEL001
 100
AcDbLine
   6
CONTINUOUS
  62
7
  10
 189.93656698017
  20
 176.49240747877
  30
0.0
  11
 193.19191736807
  21
 174.07654069037
  31
0.0
   0
LINE
   5
2C5
 100
AcDbEntity
   8
LEVEL001
 100
AcDbLine
   6
CONTINUOUS
  62
7
  10
 193.19191736807
  20
 174.07654069037
  30
0.0
  11
 196.24425721497
  21
 171.38493881407
  31
0.0
   0
LINE
   5
2C6
 100
AcDbEntity
   8
LEVEL001
 100
AcDbLine
   6
CONTINUOUS
  62
7
  10
 196.24425721497
  20
 171.38493881407
  30
0.0
  11
 199.07362595137
  21
 168.42852918877
  31
0.0
   0
LINE
   5
2C7
 100
AcDbEntity
   8
LEVEL001
 100
AcDbLine
   6
CONTINUOUS
  62
7
  10
 199.07362595137
  20
 168.42852918877
  30
0.0
  11
 201.65910020788
  21
 165.21823915377
  31
0.0
   0
LINE
   5
2C8
 100
AcDbEntity
   8
LEVEL001
 100
AcDbLine
   6
CONTINUOUS
  62
7
  10
 201.65910020788
  20
 165.21823915377
  30
0.0
  11
 203.97975661537
  21
 161.76499604807
  31
0.0
   0
LINE
   5
2C9
 100
AcDbEntity
   8
LEVEL001
 100
AcDbLine
   6
CONTINUOUS
  62
7
  10
 294.50800592287
  20
 161.76499604807
  30
0.0
  11
 294.15638299207
  21
 165.01847404447
  31
0.0
   0
LINE
   5
2CA
 100
AcDbEntity
   8
LEVEL001
 100
AcDbLine
   6
CONTINUOUS
  62
7
  10
 294.15638299207
  20
 165.01847404447
  30
0.0
  11
 293.80773831007
  21
 168.09042240937
  31
0.0
   0
LINE
   5
2CB
 100
AcDbEntity
   8
LEVEL001
 100
AcDbLine
   6
CONTINUOUS
  62
7
  10
 293.80773831007
  20
 168.09042240937
  30
0.0
  11
 293.44744173917
  21
 171.12131328667
  31
0.0
   0
LINE
   5
2CC
 100
AcDbEntity
   8
LEVEL001
 100
AcDbLine
   6
CONTINUOUS
  62
7
  10
 293.44744173917
  20
 171.12131328667
  30
0.0
  11
 293.07842773587
  21
 174.08869734957
  31
0.0
   0
LINE
   5
2CD
 100
AcDbEntity
   8
LEVEL001
 100
AcDbLine
   6
CONTINUOUS
  62
7
  10
 293.07842773587
  20
 174.08869734957
  30
0.0
  11
 292.71655212627
  21
 176.87563721467
  31
0.0
   0
LINE
   5
2CE
 100
AcDbEntity
   8
LEVEL001
 100
AcDbLine
   6
CONTINUOUS
  62
7
  10
 292.71655212627
  20
 176.87563721467
  30
0.0
  11
 292.38954856057
  21
 179.29676363987
  31
0.0
   0
LINE
   5
2CF
 100
AcDbEntity
   8
LEVEL001
 100
AcDbLine
   6
CONTINUOUS
  62
7
  10
 292.38954856057
  20
 179.29676363987
  30
0.0
  11
 292.23995169177
  21
 180.37503324357
  31
0.0
   0
LINE
   5
2D0
 100
AcDbEntity
   8
LEVEL001
 100
AcDbLine
   6
CONTINUOUS
  62
7
  10
 292.23995169177
  20
 180.37503324357
  30
0.0
  11
 292.09971849857
  21
 181.36950615877
  31
0.0
   0
LINE
   5
2D1
 100
AcDbEntity
   8
LEVEL001
 100
AcDbLine
   6
CONTINUOUS
  62
7
  10
 292.09971849857
  20
 181.36950615877
  30
0.0
  11
 291.96884343157
  21
 182.28353558557
  31
0.0
   0
LINE
   5
2D2
 100
AcDbEntity
   8
LEVEL001
 100
AcDbLine
   6
CONTINUOUS
  62
7
  10
 291.96884343157
  20
 182.28353558557
  30
0.0
  11
 291.84657115657
  21
 183.12525165407
  31
0.0
   0
LINE
   5
2D3
 100
AcDbEntity
   8
LEVEL001
 100
AcDbLine
   6
CONTINUOUS
  62
7
  10
 291.84657115657
  20
 183.12525165407
  30
0.0
  11
 291.71772662377
  21
 183.99931895037
  31
0.0
   0
LINE
   5
2D4
 100
AcDbEntity
   8
LEVEL001
 100
AcDbLine
   6
CONTINUOUS
  62
7
  10
 291.71772662377
  20
 183.99931895037
  30
0.0
  11
 291.57914953747
  21
 184.92443479497
  31
0.0
   0
LINE
   5
2D5
 100
AcDbEntity
   8
LEVEL001
 100
AcDbLine
   6
CONTINUOUS
  62
7
  10
 291.57914953747
  20
 184.92443479497
  30
0.0
  11
 291.45622837857
  21
 185.73153736937
  31
0.0
   0
LINE
   5
2D6
 100
AcDbEntity
   8
LEVEL001
 100
AcDbLine
   6
CONTINUOUS
  62
7
  10
 291.45622837857
  20
 185.73153736937
  30
0.0
  11
 291.33333844807
  21
 186.52482378837
  31
0.0
   0
LINE
   5
2D7
 100
AcDbEntity
   8
LEVEL001
 100
AcDbLine
   6
CONTINUOUS
  62
7
  10
 291.33333844807
  20
 186.52482378837
  30
0.0
  11
 291.21485094447
  21
 187.27521077127
  31
0.0
   0
LINE
   5
2D8
 100
AcDbEntity
   8
LEVEL001
 100
AcDbLine
   6
CONTINUOUS
  62
7
  10
 291.21485094447
  20
 187.27521077127
  30
0.0
  11
 291.10590992077
  21
 187.94982786337
  31
0.0
   0
LINE
   5
2D9
 100
AcDbEntity
   8
LEVEL001
 100
AcDbLine
   6
CONTINUOUS
  62
7
  10
 291.10590992077
  20
 187.94982786337
  30
0.0
  11
 291.01249907057
  21
 188.51169159117
  31
0.0
   0
LINE
   5
2DA
 100
AcDbEntity
   8
LEVEL001
 100
AcDbLine
   6
CONTINUOUS
  62
7
  10
 291.01249907057
  20
 188.51169159117
  30
0.0
  11
 290.94149003737
  21
 188.91935491517
  31
0.0
   0
LINE
   5
2DB
 100
AcDbEntity
   8
LEVEL001
 100
AcDbLine
   6
CONTINUOUS
  62
7
  10
 290.94149003737
  20
 188.91935491517
  30
0.0
  11
 290.90066352127
  21
 189.12653450957
  31
0.0
   0
LINE
   5
2DC
 100
AcDbEntity
   8
LEVEL001
 100
AcDbLine
   6
CONTINUOUS
  62
7
  10
 290.90066352127
  20
 189.12653450957
  30
0.0
  11
 290.64383038157
  21
 189.82019160467
  31
0.0
   0
LINE
   5
2DD
 100
AcDbEntity
   8
LEVEL001
 100
AcDbLine
   6
CONTINUOUS
  62
7
  10
 290.64383038157
  20
 189.82019160467
  30
0.0
  11
 290.26855264407
  21
 190.41696111357
  31
0.0
   0
LINE
   5
2DE
 100
AcDbEntity
   8
LEVEL001
 100
AcDbLine
   6
CONTINUOUS
  62
7
  10
 290.26855264407
  20
 190.41696111357
  30
0.0
  11
 289.32570081147
  21
 191.25609397087
  31
0.0
   0
LINE
   5
2DF
 100
AcDbEntity
   8
LEVEL001
 100
AcDbLine
   6
CONTINUOUS
  62
7
  10
 289.32570081147
  20
 191.25609397087
  30
0.0
  11
 288.35497017067
  21
 191.66099362237
  31
0.0
   0
LINE
   5
2E0
 100
AcDbEntity
   8
LEVEL001
 100
AcDbLine
   6
CONTINUOUS
  62
7
  10
 288.35497017067
  20
 191.66099362237
  30
0.0
  11
 287.50800592287
  21
 191.76499604807
  31
0.0
   0
LINE
   5
2E1
 100
AcDbEntity
   8
LEVEL001
 100
AcDbLine
   6
CONTINUOUS
  62
7
  10
 287.50800592287
  20
 191.76499604807
  30
0.0
  11
 286.66104167497
  21
 191.66099362237
  31
0.0
   0
LINE
   5
2E2
 100
AcDbEntity
   8
LEVEL001
 100
AcDbLine
   6
CONTINUOUS
  62
7
  10
 286.66104167497
  20
 191.66099362237
  30
0.0
  11
 285.69031103417
  21
 191.25609397087
  31
0.0
   0
LINE
   5
2E3
 100
AcDbEntity
   8
LEVEL001
 100
AcDbLine
   6
CONTINUOUS
  62
7
  10
 285.69031103417
  20
 191.25609397087
  30
0.0
  11
 284.74745920157
  21
 190.41696111357
  31
0.0
   0
LINE
   5
2E4
 100
AcDbEntity
   8
LEVEL001
 100
AcDbLine
   6
CONTINUOUS
  62
7
  10
 284.74745920157
  20
 190.41696111357
  30
0.0
  11
 284.37218146417
  21
 189.82019160467
  31
0.0
   0
LINE
   5
2E5
 100
AcDbEntity
   8
LEVEL001
 100
AcDbLine
   6
CONTINUOUS
  62
7
  10
 284.37218146417
  20
 189.82019160467
  30
0.0
  11
 284.11534832447
  21
 189.12653450957
  31
0.0
   0
LINE
   5
2E6
 100
AcDbEntity
   8
LEVEL001
 100
AcDbLine
   6
CONTINUOUS
  62
7
  10
 284.11534832447
  20
 189.12653450957
  30
0.0
  11
 284.08168811017
  21
 188.95904869957
  31
0.0
   0
LINE
   5
2E7
 100
AcDbEntity
   8
LEVEL001
 100
AcDbLine
   6
CONTINUOUS
  62
7
  10
 284.08168811017
  20
 188.95904869957
  30
0.0
  11
 284.02654855587
  21
 188.64777056507
  31
0.0
   0
LINE
   5
2E8
 100
AcDbEntity
   8
LEVEL001
 100
AcDbLine
   6
CONTINUOUS
  62
7
  10
 284.02654855587
  20
 188.64777056507
  30
0.0
  11
 283.95676577837
  21
 188.23452809547
  31
0.0
   0
LINE
   5
2E9
 100
AcDbEntity
   8
LEVEL001
 100
AcDbLine
   6
CONTINUOUS
  62
7
  10
 283.95676577837
  20
 188.23452809547
  30
0.0
  11
 283.87826019557
  21
 187.75622652687
  31
0.0
   0
LINE
   5
2EA
 100
AcDbEntity
   8
LEVEL001
 100
AcDbLine
   6
CONTINUOUS
  62
7
  10
 283.87826019557
  20
 187.75622652687
  30
0.0
  11
 283.79609043097
  21
 187.24521108297
  31
0.0
   0
LINE
   5
2EB
 100
AcDbEntity
   8
LEVEL001
 100
AcDbLine
   6
CONTINUOUS
  62
7
  10
 283.79609043097
  20
 187.24521108297
  30
0.0
  11
 283.69465324117
  21
 186.60289420437
  31
0.0
   0
LINE
   5
2EC
 100
AcDbEntity
   8
LEVEL001
 100
AcDbLine
   6
CONTINUOUS
  62
7
  10
 283.69465324117
  20
 186.60289420437
  30
0.0
  11
 283.60087453367
  21
 185.99946278617
  31
0.0
   0
LINE
   5
2ED
 100
AcDbEntity
   8
LEVEL001
 100
AcDbLine
   6
CONTINUOUS
  62
7
  10
 283.60087453367
  20
 185.99946278617
  30
0.0
  11
 283.52000617857
  21
 185.47246774397
  31
0.0
   0
LINE
   5
2EE
 100
AcDbEntity
   8
LEVEL001
 100
AcDbLine
   6
CONTINUOUS
  62
7
  10
 283.52000617857
  20
 185.47246774397
  30
0.0
  11
 283.45599814447
  21
 185.05131861507
  31
0.0
   0
LINE
   5
2EF
 100
AcDbEntity
   8
LEVEL001
 100
AcDbLine
   6
CONTINUOUS
  62
7
  10
 283.45599814447
  20
 185.05131861507
  30
0.0
  11
 283.37089251117
  21
 184.48617578237
  31
0.0
   0
LINE
   5
2F0
 100
AcDbEntity
   8
LEVEL001
 100
AcDbLine
   6
CONTINUOUS
  62
7
  10
 283.37089251117
  20
 184.48617578237
  30
0.0
  11
 283.26412565317
  21
 183.76896723907
  31
0.0
   0
LINE
   5
2F1
 100
AcDbEntity
   8
LEVEL001
 100
AcDbLine
   6
CONTINUOUS
  62
7
  10
 283.26412565317
  20
 183.76896723907
  30
0.0
  11
 283.13142529047
  21
 182.86493536867
  31
0.0
   0
LINE
   5
2F2
 100
AcDbEntity
   8
LEVEL001
 100
AcDbLine
   6
CONTINUOUS
  62
7
  10
 283.13142529047
  20
 182.86493536867
  30
0.0
  11
 282.96979317037
  21
 181.74501555247
  31
0.0
   0
LINE
   5
2F3
 100
AcDbEntity
   8
LEVEL001
 100
AcDbLine
   6
CONTINUOUS
  62
7
  10
 282.96979317037
  20
 181.74501555247
  30
0.0
  11
 282.77627318077
  21
 180.37690536187
  31
0.0
   0
LINE
   5
2F4
 100
AcDbEntity
   8
LEVEL001
 100
AcDbLine
   6
CONTINUOUS
  62
7
  10
 282.77627318077
  20
 180.37690536187
  30
0.0
  11
 282.58867969847
  21
 179.02196192707
  31
0.0
   0
LINE
   5
2F5
 100
AcDbEntity
   8
LEVEL001
 100
AcDbLine
   6
CONTINUOUS
  62
7
  10
 282.58867969847
  20
 179.02196192707
  30
0.0
  11
 282.37572480668
  21
 177.44873162837
  31
0.0
   0
LINE
   5
2F6
 100
AcDbEntity
   8
LEVEL001
 100
AcDbLine
   6
CONTINUOUS
  62
7
  10
 282.37572480668
  20
 177.44873162837
  30
0.0
  11
 282.14995489237
  21
 175.73867201517
  31
0.0
   0
LINE
   5
2F7
 100
AcDbEntity
   8
LEVEL001
 100
AcDbLine
   6
CONTINUOUS
  62
7
  10
 282.14995489237
  20
 175.73867201517
  30
0.0
  11
 281.93087603648
  21
 174.03605345517
  31
0.0
   0
LINE
   5
2F8
 100
AcDbEntity
   8
LEVEL001
 100
AcDbLine
   6
CONTINUOUS
  62
7
  10
 281.93087603648
  20
 174.03605345517
  30
0.0
  11
 281.72080023088
  21
 172.36153762007
  31
0.0
   0
LINE
   5
2F9
 100
AcDbEntity
   8
LEVEL001
 100
AcDbLine
   6
CONTINUOUS
  62
7
  10
 281.72080023088
  20
 172.36153762007
  30
0.0
  11
 281.52150431777
  21
 170.73315151427
  31
0.0
   0
LINE
   5
2FA
 100
AcDbEntity
   8
LEVEL001
 100
AcDbLine
   6
CONTINUOUS
  62
7
  10
 281.52150431777
  20
 170.73315151427
  30
0.0
  11
 281.24573574027
  21
 168.41209462947
  31
0.0
   0
LINE
   5
2FB
 100
AcDbEntity
   8
LEVEL001
 100
AcDbLine
   6
CONTINUOUS
  62
7
  10
 281.24573574027
  20
 168.41209462947
  30
0.0
  11
 281.00067989167
  21
 166.27874079397
  31
0.0
   0
LINE
   5
2FC
 100
AcDbEntity
   8
LEVEL001
 100
AcDbLine
   6
CONTINUOUS
  62
7
  10
 281.00067989167
  20
 166.27874079397
  30
0.0
  11
 280.76871984907
  21
 164.19302871357
  31
0.0
   0
LINE
   5
2FD
 100
AcDbEntity
   8
LEVEL001
 100
AcDbLine
   6
CONTINUOUS
  62
7
  10
 280.76871984907
  20
 164.19302871357
  30
0.0
  11
 280.50800592287
  21
 161.76499604807
  31
0.0
   0
LINE
   5
2FE
 100
AcDbEntity
   8
LEVEL001
 100
AcDbLine
   6
CONTINUOUS
  62
7
  10
 287.50800592287
  20
 161.76499604807
  30
0.0
  11
 294.50800592017
  21
 161.76499604807
  31
0.0
   0
LINE
   5
2FF
 100
AcDbEntity
   8
LEVEL001
 100
AcDbLine
   6
CONTINUOUS
  62
7
  10
 280.50800592437
  20
 161.76499604807
  30
0.0
  11
 287.50800592287
  21
 161.76499604807
  31
0.0
   0
LINE
   5
300
 100
AcDbEntity
   8
LEVEL001
 100
AcDbLine
   6
DASHDOT
  62
2
  10
 287.50800592287
  20
 154.55924493550
  30
0.0
  11
 287.50800592287
  21
 196.35615576321
  31
0.0
   0
LINE
   5
301
 100
AcDbEntity
   8
LEVEL001
 100
AcDbLine
   6
DASHDOT
  62
2
  10
 212.97975661537
  20
 174.60822675758
  30
0.0
  11
 212.97975661537
  21
 155.92097861879
  31
0.0
   0
LINE
   5
302
 100
AcDbEntity
   8
LEVEL001
 100
AcDbLine
   6
DASHDOT
  62
2
  10
 162.97975661537
  20
 201.87334330895
  30
0.0
  11
 162.97975661537
  21
 152.78243421804
  31
0.0
   0
INSERT
   5
303
 100
AcDbEntity
   8
LEVEL001
 100
AcDbBlockReference
   2
*D1
  10
0.0
  20
0.0
  30
0.0
   0
INSERT
   5
304
 100
AcDbEntity
   8
LEVEL001
 100
AcDbBlockReference
   2
*D2
  10
0.0
  20
0.0
  30
0.0
   0
POINT
   5
305
 100
AcDbEntity
   8
LEVEL001
 100
AcDbPoint
  62
7
  10
 210.97975661537
  20
 161.76499604807
  30
0.0
   0
POINT
   5
306
 100
AcDbEntity
   8
LEVEL001
 100
AcDbPoint
  62
7
  10
 214.97975661537
  20
 161.76499604807
  30
0.0
   0
POINT
   5
307
 100
AcDbEntity
   8
LEVEL001
 100
AcDbPoint
  62
7
  10
 110.97975661537
  20
 161.76499604807
  30
0.0
   0
POINT
   5
308
 100
AcDbEntity
   8
LEVEL001
 100
AcDbPoint
  62
7
  10
 114.97975661537
  20
 161.76499604807
  30
0.0
   0
LINE
   5
309
 100
AcDbEntity
   8
LEVEL001
 100
AcDbLine
   6
CONTINUOUS
  62
7
  10
 212.97975661537
  20
 161.76499604807
  30
0.0
  11
 223.97975661537
  21
 161.76499604807
  31
0.0
   0
LINE
   5
30A
 100
AcDbEntity
   8
LEVEL001
 100
AcDbLine
   6
CONTINUOUS
  62
7
  10
 203.97975661537
  20
 161.76499604807
  30
0.0
  11
 212.97975661537
  21
 161.76499604807
  31
0.0
   0
LINE
   5
30B
 100
AcDbEntity
   8
LEVEL001
 100
AcDbLine
   6
CONTINUOUS
  62
7
  10
 112.97975661537
  20
 161.76499604807
  30
0.0
  11
 121.97975661537
  21
 161.76499604807
  31
0.0
   0
LINE
   5
30C
 100
AcDbEntity
   8
LEVEL001
 100
AcDbLine
   6
CONTINUOUS
  62
7
  10
 101.97975661537
  20
 161.76499604807
  30
0.0
  11
 112.97975661537
  21
 161.76499604807
  31
0.0
   0
INSERT
   5
30D
 100
AcDbEntity
   8
LEVEL001
 100
AcDbBlockReference
   2
*D3
  10
0.0
  20
0.0
  30
0.0
   0
LINE
   5
30E
 100
AcDbEntity
   8
LEVEL001
 100
AcDbLine
   6
DASHDOT
  62
2
  10
 112.97975661538
  20
 174.60822675758
  30
0.0
  11
 112.97975661538
  21
 155.92097861879
  31
0.0
   0
LINE
   5
30F
 100
AcDbEntity
   8
LEVEL001
 100
AcDbLine
   6
CONTINUOUS
  62
7
  10
 104.31931218417
  20
 97.657053115339
  30
0.0
  11
 105.20609994886
  21
 98.249155338539
  31
0.0
   0
LINE
   5
310
 100
AcDbEntity
   8
LEVEL001
 100
AcDbLine
   6
CONTINUOUS
  62
7
  10
 105.20609994886
  20
 98.249155338539
  30
0.0
  11
 106.00817069837
  21
 98.772402196739
  31
0.0
   0
DIMENSION
   5
311
 100
AcDbEntity
   8
LEVEL001
   6
CONTINUOUS
  62
2
 100
AcDbDimension
   2
*D4
  10
 212.97975661537
  20
 114.76240600784
  30
0.0
  11
 162.97975661537
  21
 114.76240600784
  31
0.0
  70
0
   3
GMM001
 100
AcDbAlignedDimension
  13
 112.97975661537
  23
 104.03869110916
  33
0.0
  14
 212.97975661537
  24
 104.03869110916
  34
0.0
 100
AcDbRotatedDimension
   0
DIMENSION
   5
312
 100
AcDbEntity
   8
LEVEL001
   6
CONTINUOUS
  62
2
 100
AcDbDimension
   2
*D5
  10
 242.90468962216
  20
 100.15753984754
  30
0.0
  11
 242.90468962216
  21
 93.157539847539
  31
0.0
  70
0
   3
GMM001
 100
AcDbAlignedDimension
  13
 218.67072713373
  23
 86.157539847539
  33
0.0
  14
 218.13047956233
  24
 100.15753984754
  34
0.0
  50
 90.000000000000
 100
AcDbRotatedDimension
   0
DIMENSION
   5
313
 100
AcDbEntity
   8
LEVEL001
   6
CONTINUOUS
  62
2
 100
AcDbDimension
   2
*D6
  10
 244.68541156747
  20
 191.76499604807
  30
0.0
  11
 244.68541156747
  21
 176.76499604807
  31
0.0
  70
0
   3
GMM001
 100
AcDbAlignedDimension
  13
 223.97975661537
  23
 161.76499604807
  33
0.0
  14
 174.02261259642
  24
 191.76499604807
  34
0.0
  50
 90.000000000000
 100
AcDbRotatedDimension
   0
INSERT
   5
314
 100
AcDbEntity
   8
LEVEL001
 100
AcDbBlockReference
   2
*D7
  10
0.0
  20
0.0
  30
0.0
   0
DIMENSION
   5
315
 100
AcDbEntity
   8
LEVEL001
   6
CONTINUOUS
  62
2
 100
AcDbDimension
   2
*D8
  10
 223.97975661537
  20
 139.39688025057
  30
0.0
  11
 162.97975661537
  21
 139.39688025057
  31
0.0
  70
0
   3
GMM001
 100
AcDbAlignedDimension
  13
 101.97975661537
  23
 161.76499604807
  33
0.0
  14
 223.97975661537
  24
 161.76499604807
  34
0.0
 100
AcDbRotatedDimension
   0
DIMENSION
   5
316
 100
AcDbEntity
   8
LEVEL001
   6
CONTINUOUS
  62
2
 100
AcDbDimension
   2
*D9
  10
 223.97975661537
  20
 147.54057772097
  30
0.0
  11
 213.97975661537
  21
 147.54057772097
  31
0.0
  70
0
   3
GMM001
 100
AcDbAlignedDimension
  13
 203.97975661537
  23
 161.76499604807
  33
0.0
  14
 223.97975661537
  24
 161.76499604807
  34
0.0
 100
AcDbRotatedDimension
   0
DIMENSION
   5
317
 100
AcDbEntity
   8
LEVEL001
   6
CONTINUOUS
  62
2
 100
AcDbDimension
   2
*D10
  10
 179.45271698010
  20
 87.148375532210
  30
0.0
  11
 179.45271698010
  21
 76.887241437832
  31
0.0
  52
 240.00000000000
  70
128
   1
\A1;7
   3
GMM002
 100
AcDbAlignedDimension
  13
 162.97975661537
  23
 89.656036061845
  33
0.0
  14
 162.97975661537
  24
 96.659043633133
  34
0.0
  50
 90.000000000000
 100
AcDbRotatedDimension
   0
LINE
   5
318
 100
AcDbEntity
   8
LEVEL001
 100
AcDbLine
   6
DOT
  62
1
  10
 209.97975661537
  20
 161.76499604807
  30
0.0
  11
 210.97975661537
  21
 162.76499604807
  31
0.0
   0
LINE
   5
319
 100
AcDbEntity
   8
LEVEL001
 100
AcDbLine
   6
DOT
  62
1
  10
 210.97975661537
  20
 162.76499604807
  30
0.0
  11
 214.97975661537
  21
 162.76499604807
  31
0.0
   0
LINE
   5
31A
 100
AcDbEntity
   8
LEVEL001
 100
AcDbLine
   6
DOT
  62
1
  10
 210.97975661537
  20
 169.76499604807
  30
0.0
  11
 211.32975661537
  21
 169.76499604807
  31
0.0
   0
LINE
   5
31B
 100
AcDbEntity
   8
LEVEL001
 100
AcDbLine
   6
DOT
  62
1
  10
 211.32975661537
  20
 169.76499604807
  30
0.0
  11
 214.62975661537
  21
 169.76499604807
  31
0.0
   0
LINE
   5
31C
 100
AcDbEntity
   8
LEVEL001
 100
AcDbLine
   6
DOT
  62
1
  10
 210.97975661537
  20
 162.76499604807
  30
0.0
  11
 210.97975661537
  21
 169.76499604807
  31
0.0
   0
LINE
   5
31D
 100
AcDbEntity
   8
LEVEL001
 100
AcDbLine
   6
DOT
  62
1
  10
 211.32975661537
  20
 169.77357602667
  30
0.0
  11
 212.97975661537
  21
 170.76499604807
  31
0.0
   0
LINE
   5
31E
 100
AcDbEntity
   8
LEVEL001
 100
AcDbLine
   6
DOT
  62
1
  10
 211.32975661537
  20
 169.77357602667
  30
0.0
  11
 214.62975661537
  21
 169.77357602667
  31
0.0
   0
LINE
   5
31F
 100
AcDbEntity
   8
LEVEL001
 100
AcDbLine
   6
DOT
  62
1
  10
 211.32975661537
  20
 162.76499604807
  30
0.0
  11
 211.32975661537
  21
 169.77357602667
  31
0.0
   0
LINE
   5
320
 100
AcDbEntity
   8
LEVEL001
 100
AcDbLine
   6
DOT
  62
1
  10
 215.97975661537
  20
 161.76499604807
  30
0.0
  11
 214.97975661537
  21
 162.76499604807
  31
0.0
   0
LINE
   5
321
 100
AcDbEntity
   8
LEVEL001
 100
AcDbLine
   6
DOT
  62
1
  10
 214.62975661537
  20
 169.76499604807
  30
0.0
  11
 214.97975661537
  21
 169.76499604807
  31
0.0
   0
LINE
   5
322
 100
AcDbEntity
   8
LEVEL001
 100
AcDbLine
   6
DOT
  62
1
  10
 214.97975661537
  20
 169.76499604807
  30
0.0
  11
 214.97975661537
  21
 162.76499604807
  31
0.0
   0
LINE
   5
323
 100
AcDbEntity
   8
LEVEL001
 100
AcDbLine
   6
DOT
  62
1
  10
 212.97975661537
  20
 170.76499604807
  30
0.0
  11
 214.62975661537
  21
 169.77357602667
  31
0.0
   0
LINE
   5
324
 100
AcDbEntity
   8
LEVEL001
 100
AcDbLine
   6
DOT
  62
1
  10
 214.62975661537
  20
 169.77357602667
  30
0.0
  11
 214.62975661537
  21
 162.76499604807
  31
0.0
   0
LINE
   5
325
 100
AcDbEntity
   8
LEVEL001
 100
AcDbLine
   6
DOT
  62
1
  10
 115.97975661538
  20
 161.76499604807
  30
0.0
  11
 114.97975661538
  21
 162.76499604807
  31
0.0
   0
LINE
   5
326
 100
AcDbEntity
   8
LEVEL001
 100
AcDbLine
   6
DOT
  62
1
  10
 114.97975661538
  20
 162.76499604807
  30
0.0
  11
 110.97975661538
  21
 162.76499604807
  31
0.0
   0
LINE
   5
327
 100
AcDbEntity
   8
LEVEL001
 100
AcDbLine
   6
DOT
  62
1
  10
 114.97975661538
  20
 169.76499604807
  30
0.0
  11
 114.62975661538
  21
 169.76499604807
  31
0.0
   0
LINE
   5
328
 100
AcDbEntity
   8
LEVEL001
 100
AcDbLine
   6
DOT
  62
1
  10
 114.62975661538
  20
 169.76499604807
  30
0.0
  11
 111.32975661538
  21
 169.76499604807
  31
0.0
   0
LINE
   5
329
 100
AcDbEntity
   8
LEVEL001
 100
AcDbLine
   6
DOT
  62
1
  10
 114.97975661538
  20
 162.76499604807
  30
0.0
  11
 114.97975661538
  21
 169.76499604807
  31
0.0
   0
LINE
   5
32A
 100
AcDbEntity
   8
LEVEL001
 100
AcDbLine
   6
DOT
  62
1
  10
 114.62975661538
  20
 169.77357602667
  30
0.0
  11
 112.97975661538
  21
 170.76499604807
  31
0.0
   0
LINE
   5
32B
 100
AcDbEntity
   8
LEVEL001
 100
AcDbLine
   6
DOT
  62
1
  10
 114.62975661538
  20
 169.77357602667
  30
0.0
  11
 111.32975661538
  21
 169.77357602667
  31
0.0
   0
LINE
   5
32C
 100
AcDbEntity
   8
LEVEL001
 100
AcDbLine
   6
DOT
  62
1
  10
 114.62975661538
  20
 162.76499604807
  30
0.0
  11
 114.62975661538
  21
 169.77357602667
  31
0.0
   0
LINE
   5
32D
 100
AcDbEntity
   8
LEVEL001
 100
AcDbLine
   6
DOT
  62
1
  10
 109.97975661538
  20
 161.76499604807
  30
0.0
  11
 110.97975661538
  21
 162.76499604807
  31
0.0
   0
LINE
   5
32E
 100
AcDbEntity
   8
LEVEL001
 100
AcDbLine
   6
DOT
  62
1
  10
 111.32975661538
  20
 169.76499604807
  30
0.0
  11
 110.97975661538
  21
 169.76499604807
  31
0.0
   0
LINE
   5
32F
 100
AcDbEntity
   8
LEVEL001
 100
AcDbLine
   6
DOT
  62
1
  10
 110.97975661538
  20
 169.76499604807
  30
0.0
  11
 110.97975661538
  21
 162.76499604807
  31
0.0
   0
LINE
   5
330
 100
AcDbEntity
   8
LEVEL001
 100
AcDbLine
   6
DOT
  62
1
  10
 112.97975661538
  20
 170.76499604807
  30
0.0
  11
 111.32975661538
  21
 169.77357602667
  31
0.0
   0
LINE
   5
331
 100
AcDbEntity
   8
LEVEL001
 100
AcDbLine
   6
DOT
  62
1
  10
 111.32975661538
  20
 169.77357602667
  30
0.0
  11
 111.32975661538
  21
 162.76499604807
  31
0.0
   0
ENDSEC
  0
SECTION
  2
OBJECTS
  0
DICTIONARY
  5
C
100
AcDbDictionary
  3
ACAD_GROUP
350
D
  3
ACAD_MLINESTYLE
350
1B
  0
DICTIONARY
  5
D
102
{ACAD_REACTORS
330
C
102
}
100
AcDbDictionary
  0
DICTIONARY
  5
1B
102
{ACAD_REACTORS
330
C
102
}
100
AcDbDictionary
  3
STANDARD
350
1C
  0
MLINESTYLE
  5
1C
102
{ACAD_REACTORS
330
1B
102
}
100
AcDbMlineStyle
  2
STANDARD
 70
     0
  3

 62
   256
 51
90.0
 52
90.0
 71
     2
 49
0.5
 62
   256
  6
BYLAYER
 49
-0.5
 62
   256
  6
BYLAYER
  0
ENDSEC
   0
EOF
