   0
SECTION
   2
HEADER
   9
$ACADVER
   1
AC1015
   9
$LIMMIN
  10
0.0
  20
0.0
   9
$LIMMAX
  10
 420.00000000000
  20
 297.00000000000
   9
$EXTMIN
  10
0.0
  20
0.0
  30
0.0
   9
$EXTMAX
  10
 420.00000000000
  20
 297.00000000000
  30
0.0
   9
$LTSCALE
  40
 8.4000000000000
   9
$HANDSEED
   5
424
   0
ENDSEC
   0
SECTION
   2
TABLES
  0
TABLE
  2
VPORT
  5
8
100
AcDbSymbolTable
 70
     1
  0
VPORT
  5
423
100
AcDbSymbolTableRecord
100
AcDbViewportTableRecord
  2
*ACTIVE
 70
     0
 10
0.0
 20
0.0
 11
1.0
 21
1.0
  12
 210.00000000000
  22
 148.50000000000
 13
0.0
 23
0.0
 14
1.0
 24
1.0
 15
0.0
 25
0.0
 16
0.0
 26
0.0
 36
1.0
 17
0.0
 27
0.0
 37
0.0
  40
 420.00000000000
  41
 1.4787878787879
 42
50.0
 43
0.0
 44
0.0
 50
0.0
 51
0.0
 71
     0
 72
   100
 73
     1
 74
     1
 75
     0
 76
     0
 77
     0
 78
     0
  0
ENDTAB
  0
TABLE
  2
LTYPE
  5
5
100
AcDbSymbolTable
 70
    25
  0
LTYPE
  5
12
100
AcDbSymbolTableRecord
100
AcDbLinetypeTableRecord
  2
BYBLOCK
 70
     0
  3

 72
    65
 73
     0
 40
0.0
  0
LTYPE
  5
13
100
AcDbSymbolTableRecord
100
AcDbLinetypeTableRecord
  2
BYLAYER
 70
     0
  3

 72
    65
 73
     0
 40
0.0
  0
LTYPE
  5
14
100
AcDbSymbolTableRecord
100
AcDbLinetypeTableRecord
  2
CONTINUOUS
 70
     0
  3
Solid line
 72
    65
 73
     0
 40
0.0
  0
LTYPE
  5
20
100
AcDbSymbolTableRecord
100
AcDbLinetypeTableRecord
  2
BORDER
 70
     0
  3
__ __ . __ __ . __ __ . __ __ . __ __ . __ __ .
 72
    65
 73
     6
 40
1.75
 49
0.5
 74
     0
 49
-0.25
 74
     0
 49
0.5
 74
     0
 49
-0.25
 74
     0
 49
0.0
 74
     0
 49
-0.25
 74
     0
  0
LTYPE
  5
21
100
AcDbSymbolTableRecord
100
AcDbLinetypeTableRecord
  2
BORDER2
 70
     0
  3
__.__.__.__.__.__.__.__.__.__.__.__.__.__.__.__
 72
    65
 73
     6
 40
0.875
 49
0.25
 74
     0
 49
-0.125
 74
     0
 49
0.25
 74
     0
 49
-0.125
 74
     0
 49
0.0
 74
     0
 49
-0.125
 74
     0
  0
LTYPE
  5
22
100
AcDbSymbolTableRecord
100
AcDbLinetypeTableRecord
  2
BORDERX2
 70
     0
  3
____  ____  .  ____  ____  .  ____  ____  .  __
 72
    65
 73
     6
 40
3.5
 49
1.0
 74
     0
 49
-0.5
 74
     0
 49
1.0
 74
     0
 49
-0.5
 74
     0
 49
0.0
 74
     0
 49
-0.5
 74
     0
  0
LTYPE
  5
23
100
AcDbSymbolTableRecord
100
AcDbLinetypeTableRecord
  2
CENTER
 70
     0
  3
____ _ ____ _ ____ _ ____ _ ____ _ ____ _ ____ 
 72
    65
 73
     4
 40
2.0
 49
1.25
 74
     0
 49
-0.25
 74
     0
 49
0.25
 74
     0
 49
-0.25
 74
     0
  0
LTYPE
  5
24
100
AcDbSymbolTableRecord
100
AcDbLinetypeTableRecord
  2
CENTER2
 70
     0
  3
___ _ ___ _ ___ _ ___ _ ___ _ ___ _ ___ _ ___ _
 72
    65
 73
     4
 40
1.125
 49
0.75
 74
     0
 49
-0.125
 74
     0
 49
0.125
 74
     0
 49
-0.125
 74
     0
  0
LTYPE
  5
25
100
AcDbSymbolTableRecord
100
AcDbLinetypeTableRecord
  2
CENTERX2
 70
     0
  3
________  __  ________  __  ________  __  _____
 72
    65
 73
     4
 40
4.0
 49
2.5
 74
     0
 49
-0.5
 74
     0
 49
0.5
 74
     0
 49
-0.5
 74
     0
  0
LTYPE
  5
26
100
AcDbSymbolTableRecord
100
AcDbLinetypeTableRecord
  2
DASHDOT
 70
     0
  3
__ . __ . __ . __ . __ . __ . __ . __ . __ . __
 72
    65
 73
     4
 40
1.0
 49
0.5
 74
     0
 49
-0.25
 74
     0
 49
0.0
 74
     0
 49
-0.25
 74
     0
  0
LTYPE
  5
27
100
AcDbSymbolTableRecord
100
AcDbLinetypeTableRecord
  2
DASHDOT2
 70
     0
  3
_._._._._._._._._._._._._._._._._._._._._._._._
 72
    65
 73
     4
 40
0.5
 49
0.25
 74
     0
 49
-0.125
 74
     0
 49
0.0
 74
     0
 49
-0.125
 74
     0
  0
LTYPE
  5
28
100
AcDbSymbolTableRecord
100
AcDbLinetypeTableRecord
  2
DASHDOTX2
 70
     0
  3
____  .  ____  .  ____  .  ____  .  ____  .  __
 72
    65
 73
     4
 40
2.0
 49
1.0
 74
     0
 49
-0.5
 74
     0
 49
0.0
 74
     0
 49
-0.5
 74
     0
  0
LTYPE
  5
29
100
AcDbSymbolTableRecord
100
AcDbLinetypeTableRecord
  2
DASHED
 70
     0
  3
__ __ __ __ __ __ __ __ __ __ __ __ __ __ __ __
 72
    65
 73
     2
 40
0.75
 49
0.5
 74
     0
 49
-0.25
 74
     0
  0
LTYPE
  5
2A
100
AcDbSymbolTableRecord
100
AcDbLinetypeTableRecord
  2
DASHED2
 70
     0
  3
_ _ _ _ _ _ _ _ _ _ _ _ _ _ _ _ _ _ _ _ _ _ _ _
 72
    65
 73
     2
 40
0.375
 49
0.25
 74
     0
 49
-0.125
 74
     0
  0
LTYPE
  5
2B
100
AcDbSymbolTableRecord
100
AcDbLinetypeTableRecord
  2
DASHEDX2
 70
     0
  3
____  ____  ____  ____  ____  ____  ____  ____ 
 72
    65
 73
     2
 40
1.5
 49
1.0
 74
     0
 49
-0.5
 74
     0
  0
LTYPE
  5
2C
100
AcDbSymbolTableRecord
100
AcDbLinetypeTableRecord
  2
DIVIDE
 70
     0
  3
____ . . ____ . . ____ . . ____ . . ____ . . __
 72
    65
 73
     6
 40
1.25
 49
0.5
 74
     0
 49
-0.25
 74
     0
 49
0.0
 74
     0
 49
-0.25
 74
     0
 49
0.0
 74
     0
 49
-0.25
 74
     0
  0
LTYPE
  5
2D
100
AcDbSymbolTableRecord
100
AcDbLinetypeTableRecord
  2
DIVIDE2
 70
     0
  3
__..__..__..__..__..__..__..__..__..__..__..__.
 72
    65
 73
     6
 40
0.625
 49
0.25
 74
     0
 49
-0.125
 74
     0
 49
0.0
 74
     0
 49
-0.125
 74
     0
 49
0.0
 74
     0
 49
-0.125
 74
     0
  0
LTYPE
  5
2E
100
AcDbSymbolTableRecord
100
AcDbLinetypeTableRecord
  2
DIVIDEX2
 70
     0
  3
________  .  .  ________  .  .  ________  .  . 
 72
    65
 73
     6
 40
2.5
 49
1.0
 74
     0
 49
-0.5
 74
     0
 49
0.0
 74
     0
 49
-0.5
 74
     0
 49
0.0
 74
     0
 49
-0.5
 74
     0
  0
LTYPE
  5
2F
100
AcDbSymbolTableRecord
100
AcDbLinetypeTableRecord
  2
DOT
 70
     0
  3
. . . . . . . . . . . . . . . . . . . . . . . .
 72
    65
 73
     2
 40
0.25
 49
0.0
 74
     0
 49
-0.25
 74
     0
  0
LTYPE
  5
30
100
AcDbSymbolTableRecord
100
AcDbLinetypeTableRecord
  2
DOT2
 70
     0
  3
...............................................
 72
    65
 73
     2
 40
0.125
 49
0.0
 74
     0
 49
-0.125
 74
     0
  0
LTYPE
  5
31
100
AcDbSymbolTableRecord
100
AcDbLinetypeTableRecord
  2
DOTX2
 70
     0
  3
.  .  .  .  .  .  .  .  .  .  .  .  .  .  .  . 
 72
    65
 73
     2
 40
0.5
 49
0.0
 74
     0
 49
-0.5
 74
     0
  0
LTYPE
  5
32
100
AcDbSymbolTableRecord
100
AcDbLinetypeTableRecord
  2
HIDDEN
 70
     0
  3
__ __ __ __ __ __ __ __ __ __ __ __ __ __ __ __
 72
    65
 73
     2
 40
0.375
 49
0.25
 74
     0
 49
-0.125
 74
     0
  0
LTYPE
  5
33
100
AcDbSymbolTableRecord
100
AcDbLinetypeTableRecord
  2
HIDDEN2
 70
     0
  3
_ _ _ _ _ _ _ _ _ _ _ _ _ _ _ _ _ _ _ _ _ _ _ _
 72
    65
 73
     2
 40
0.1875
 49
0.125
 74
     0
 49
-0.0625
 74
     0
  0
LTYPE
  5
34
100
AcDbSymbolTableRecord
100
AcDbLinetypeTableRecord
  2
HIDDENX2
 70
     0
  3
____ ____ ____ ____ ____ ____ ____ ____ ____ __
 72
    65
 73
     2
 40
0.75
 49
0.5
 74
     0
 49
-0.25
 74
     0
  0
LTYPE
  5
35
100
AcDbSymbolTableRecord
100
AcDbLinetypeTableRecord
  2
PHANTOM
 70
     0
  3
______  __  __  ______  __  __  ______  __  __ 
 72
    65
 73
     6
 40
2.5
 49
1.25
 74
     0
 49
-0.25
 74
     0
 49
0.25
 74
     0
 49
-0.25
 74
     0
 49
0.25
 74
     0
 49
-0.25
 74
     0
  0
LTYPE
  5
36
100
AcDbSymbolTableRecord
100
AcDbLinetypeTableRecord
  2
PHANTOM2
 70
     0
  3
___ _ _ ___ _ _ ___ _ _ ___ _ _ ___ _ _ ___ _ _
 72
    65
 73
     6
 40
1.25
 49
0.625
 74
     0
 49
-0.125
 74
     0
 49
0.125
 74
     0
 49
-0.125
 74
     0
 49
0.125
 74
     0
 49
-0.125
 74
     0
  0
LTYPE
  5
37
100
AcDbSymbolTableRecord
100
AcDbLinetypeTableRecord
  2
PHANTOMX2
 70
     0
  3
____________    ____    ____    ____________   
 72
    65
 73
     6
 40
5.0
 49
2.5
 74
     0
 49
-0.5
 74
     0
 49
0.5
 74
     0
 49
-0.5
 74
     0
 49
0.5
 74
     0
 49
-0.5
 74
     0
  0
ENDTAB
   0
TABLE
   2
LAYER
   5
2
 100
AcDbSymbolTable
  70
2
   0
LAYER
   5
E
 100
AcDbSymbolTableRecord
 100
AcDbLayerTableRecord
   2
0
  70
0
  62
7
   6
CONTINUOUS
 390
30
   0
LAYER
   5
39
 100
AcDbSymbolTableRecord
 100
AcDbLayerTableRecord
   2
LEVEL001
  70
0
  62
7
   6
CONTINUOUS
 390
30
   0
ENDTAB
  0
TABLE
  2
STYLE
  5
3
100
AcDbSymbolTable
  70
3
  0
STYLE
  5
F
100
AcDbSymbolTableRecord
100
AcDbTextStyleTableRecord
  2
STANDARD
 70
     0
 40
0.0
 41
1.0
 50
0.0
 71
     0
 42
0.2
  3
TXT
  4
BIGFONT
  0
STYLE
  5
38
100
AcDbSymbolTableRecord
100
AcDbTextStyleTableRecord
  2
STANDARD1
 70
     4
 40
0.0
 41
1.0
 50
0.0
 71
     0
 42
0.2
  3
TXT
  4
BIGFONT
   0
STYLE
   5
3A
 100
AcDbSymbolTableRecord
 100
AcDbTextStyleTableRecord
   2
GMM001
  70
0
  40
0.0
  41
 0.95000000000000
  50
0.0
  71
     0
  42
1.0
   3
txt.shx
   4
bigfont.shx
   0
ENDTAB
  0
TABLE
  2
VIEW
  5
6
100
AcDbSymbolTable
 70
     0
  0
ENDTAB
  0
TABLE
  2
UCS
  5
7
100
AcDbSymbolTable
 70
     0
  0
ENDTAB
  0
TABLE
  2
APPID
  5
9
100
AcDbSymbolTable
 70
     1
  0
APPID
  5
10
100
AcDbSymbolTableRecord
100
AcDbRegAppTableRecord
  2
ACAD
 70
     0
  0
ENDTAB
   0
TABLE
   2
DIMSTYLE
   5
A
 100
AcDbSymbolTable
  70
11
 100
AcDbDimStyleTable
  0
DIMSTYLE
105
1D
100
AcDbSymbolTableRecord
100
AcDbDimStyleTableRecord
  2
STANDARD
 70
     0
  3

  4

  5

  6

  7

 40
1.0
 41
0.18
 42
0.0625
 43
0.38
 44
0.18
 45
0.0
 46
0.0
 47
0.0
 48
0.0
140
0.18
141
0.09
142
0.0
143
25.4
144
1.0
145
0.0
146
1.0
147
0.09
 71
     0
 72
     0
 73
     1
 74
     1
 75
     0
 76
     0
 77
     0
 78
     0
170
     0
171
     2
172
     0
173
     0
174
     0
175
     0
176
     0
177
     0
178
     0
270
     2
271
     4
272
     4
273
     2
274
     2
340
F
275
     0
280
     0
281
     0
282
     0
283
     1
284
     0
285
     0
286
     0
287
     3
288
     0
   0
DIMSTYLE
 105
3B
 100
AcDbSymbolTableRecord
 100
AcDbDimStyleTableRecord
   2
GMM001
  70
0
   3

   4

   5

   6
_OPEN30
   7
_OPEN30
  40
 1.0000000000000
  41
 3.0000000000000
  42
 0.50000000000000
  43
 8.0000000000000
  44
 1.0000000000000
  45
0.0
  46
0.0
  47
0.0
  48
0.0
 140
 4.0000000000000
 141
 1.0000000000000
 142
0.0
 143
 0.39400000000000E-1
 144
 1.0000000000000
 145
0.0
 146
 0.62500000000000
 147
 1.7142857142857
  71
0
  72
0
  73
0
  74
0
  75
0
  76
0
  77
3
  78
8
 170
0
 171
2
 172
1
 173
1
 174
0
 175
0
 176
3
 177
3
 178
3
 270
2
 271
6
 272
0
 273
2
 274
2
 340
3A
 275
0
 280
0
 281
0
 282
0
 283
1
 284
0
 285
0
 286
0
 287
3
 288
0
   0
DIMSTYLE
 105
3C
 100
AcDbSymbolTableRecord
 100
AcDbDimStyleTableRecord
   2
GMM002
  70
0
   3

   4

   5

   6
_OPEN30
   7
_OPEN30
  40
 1.0000000000000
  41
 3.0000000000000
  42
 0.50000000000000
  43
 8.0000000000000
  44
 1.0000000000000
  45
0.0
  46
0.0
  47
0.0
  48
0.0
 140
 4.0000000000000
 141
 1.0000000000000
 142
0.0
 143
 0.39400000000000E-1
 144
 1.0000000000000
 145
0.0
 146
 0.62500000000000
 147
 1.7142857142857
  71
0
  72
0
  73
0
  74
0
  75
0
  76
0
  77
3
  78
8
 170
0
 171
2
 172
1
 173
1
 174
0
 175
0
 176
3
 177
3
 178
3
 270
2
 271
6
 272
0
 273
2
 274
2
 340
3A
 275
0
 280
0
 281
0
 282
0
 283
1
 284
0
 285
0
 286
0
 287
3
 288
1
   0
DIMSTYLE
 105
3D
 100
AcDbSymbolTableRecord
 100
AcDbDimStyleTableRecord
   2
GMM003
  70
0
   3

   4

   5

   6
_OPEN30
   7
_OPEN30
  40
 1.0000000000000
  41
 3.0000000000000
  42
 0.50000000000000
  43
 8.0000000000000
  44
 1.0000000000000
  45
0.0
  46
0.0
  47
0.0
  48
0.0
 140
 4.0000000000000
 141
 1.0000000000000
 142
0.0
 143
 0.39400000000000E-1
 144
 1.0000000000000
 145
0.0
 146
 0.62500000000000
 147
 1.7142860000000
  71
0
  72
0
  73
0
  74
0
  75
0
  76
0
  77
3
  78
8
 170
0
 171
2
 172
1
 173
1
 174
0
 175
0
 176
3
 177
3
 178
3
 270
2
 271
6
 272
0
 273
2
 274
2
 340
3A
 275
0
 280
0
 281
0
 282
0
 283
1
 284
0
 285
0
 286
0
 287
3
 288
1
   0
DIMSTYLE
 105
3E
 100
AcDbSymbolTableRecord
 100
AcDbDimStyleTableRecord
   2
GMM004
  70
0
   3
R<>
   4

   5

   6
_NONE
   7
_OPEN30
  40
 1.0000000000000
  41
 3.0000000000000
  42
 0.50000000000000
  43
 8.0000000000000
  44
 1.0000000000000
  45
0.0
  46
0.0
  47
0.0
  48
0.0
 140
 4.0000000000000
 141
 1.0000000000000
 142
0.0
 143
 0.39400000000000E-1
 144
 1.0000000000000
 145
0.0
 146
 0.62500000000000
 147
 1.7142857142857
  71
0
  72
0
  73
0
  74
0
  75
0
  76
0
  77
3
  78
8
 170
0
 171
2
 172
1
 173
1
 174
0
 175
0
 176
3
 177
3
 178
3
 270
2
 271
6
 272
0
 273
2
 274
2
 340
3A
 275
0
 280
0
 281
0
 282
0
 283
1
 284
0
 285
0
 286
0
 287
3
 288
1
   0
DIMSTYLE
 105
3F
 100
AcDbSymbolTableRecord
 100
AcDbDimStyleTableRecord
   2
GMM005
  70
0
   3

   4

   5

   6
_OPEN30
   7
_OPEN30
  40
 1.0000000000000
  41
 3.0000000000000
  42
 0.50000000000000
  43
 8.0000000000000
  44
 1.0000000000000
  45
0.0
  46
0.0
  47
0.0
  48
0.0
 140
 4.0000000000000
 141
 1.0000000000000
 142
0.0
 143
 0.39400000000000E-1
 144
 1.0000000000000
 145
0.0
 146
 0.62500000000000
 147
 1.7142857142857
  71
0
  72
0
  73
0
  74
0
  75
0
  76
0
  77
3
  78
8
 170
0
 171
2
 172
1
 173
1
 174
0
 175
0
 176
3
 177
3
 178
3
 270
2
 271
6
 272
0
 273
2
 274
2
 340
3A
 275
0
 280
0
 281
0
 282
0
 283
1
 284
0
 285
0
 286
0
 287
3
 288
1
   0
DIMSTYLE
 105
40
 100
AcDbSymbolTableRecord
 100
AcDbDimStyleTableRecord
   2
GMM006
  70
0
   3

   4

   5

   6
_OPEN30
   7
_OPEN30
  40
 1.0000000000000
  41
 3.0000000000000
  42
 0.50000000000000
  43
 8.0000000000000
  44
 1.0000000000000
  45
0.0
  46
0.0
  47
0.0
  48
0.0
 140
 4.0000000000000
 141
 1.0000000000000
 142
0.0
 143
 0.39400000000000E-1
 144
 1.0000000000000
 145
0.0
 146
 0.62500000000000
 147
 1.7142860000000
  71
0
  72
0
  73
0
  74
0
  75
0
  76
0
  77
3
  78
8
 170
0
 171
2
 172
1
 173
1
 174
0
 175
0
 176
3
 177
3
 178
3
 270
2
 271
6
 272
0
 273
2
 274
2
 340
3A
 275
0
 280
0
 281
0
 282
0
 283
1
 284
0
 285
0
 286
0
 287
3
 288
1
   0
DIMSTYLE
 105
41
 100
AcDbSymbolTableRecord
 100
AcDbDimStyleTableRecord
   2
GMM007
  70
0
   3

   4

   5

   6
_OPEN30
   7
_OPEN30
  40
 1.0000000000000
  41
 3.0000000000000
  42
 0.50000000000000
  43
 8.0000000000000
  44
 1.0000000000000
  45
0.0
  46
0.0
  47
0.0
  48
0.0
 140
 4.0000000000000
 141
 1.0000000000000
 142
0.0
 143
 0.39400000000000E-1
 144
 1.0000000000000
 145
0.0
 146
 0.62500000000000
 147
 1.7142857142857
  71
0
  72
0
  73
0
  74
0
  75
0
  76
0
  77
3
  78
8
 170
0
 171
2
 172
1
 173
1
 174
0
 175
0
 176
3
 177
3
 178
3
 270
2
 271
6
 272
0
 273
2
 274
2
 340
3A
 275
0
 280
0
 281
0
 282
0
 283
1
 284
0
 285
0
 286
0
 287
3
 288
0
   0
DIMSTYLE
 105
42
 100
AcDbSymbolTableRecord
 100
AcDbDimStyleTableRecord
   2
GMM008
  70
0
   3
40<>
   4

   5

   6
_OPEN30
   7
_OPEN30
  40
 1.0000000000000
  41
 3.0000000000000
  42
 0.50000000000000
  43
 8.0000000000000
  44
 1.0000000000000
  45
0.0
  46
0.0
  47
0.0
  48
0.0
 140
 4.0000000000000
 141
 1.0000000000000
 142
0.0
 143
 0.39400000000000E-1
 144
 1.0000000000000
 145
0.0
 146
 0.62500000000000
 147
 1.7142857142857
  71
0
  72
0
  73
0
  74
0
  75
0
  76
0
  77
3
  78
8
 170
0
 171
2
 172
1
 173
1
 174
0
 175
0
 176
3
 177
3
 178
3
 270
2
 271
6
 272
0
 273
2
 274
2
 340
3A
 275
0
 280
0
 281
0
 282
0
 283
1
 284
0
 285
0
 286
0
 287
3
 288
0
   0
DIMSTYLE
 105
43
 100
AcDbSymbolTableRecord
 100
AcDbDimStyleTableRecord
   2
GMM009
  70
0
   3
4-R<>
   4

   5

   6
_NONE
   7
_OPEN30
  40
 1.0000000000000
  41
 3.0000000000000
  42
 0.50000000000000
  43
 8.0000000000000
  44
 1.0000000000000
  45
0.0
  46
0.0
  47
0.0
  48
0.0
 140
 4.0000000000000
 141
 1.0000000000000
 142
0.0
 143
 0.39400000000000E-1
 144
 1.0000000000000
 145
0.0
 146
 0.62500000000000
 147
 1.7142857142857
  71
0
  72
0
  73
0
  74
0
  75
0
  76
0
  77
3
  78
8
 170
0
 171
2
 172
1
 173
1
 174
0
 175
0
 176
3
 177
3
 178
3
 270
2
 271
6
 272
0
 273
2
 274
2
 340
3A
 275
0
 280
0
 281
0
 282
0
 283
1
 284
0
 285
0
 286
0
 287
3
 288
1
   0
ENDTAB
  0
TABLE
  2
BLOCK_RECORD
  5
1
100
AcDbSymbolTable
 70
     0
  0
BLOCK_RECORD
  5
18
100
AcDbSymbolTableRecord
100
AcDbBlockTableRecord
  2
*MODEL_SPACE
  0
BLOCK_RECORD
  5
15
100
AcDbSymbolTableRecord
100
AcDbBlockTableRecord
  2
*PAPER_SPACE
   0
BLOCK_RECORD
   5
44
 100
AcDbSymbolTableRecord
 100
AcDbBlockTableRecord
   2
*D1
   0
BLOCK_RECORD
   5
45
 100
AcDbSymbolTableRecord
 100
AcDbBlockTableRecord
   2
*D2
   0
BLOCK_RECORD
   5
46
 100
AcDbSymbolTableRecord
 100
AcDbBlockTableRecord
   2
*D3
   0
BLOCK_RECORD
   5
47
 100
AcDbSymbolTableRecord
 100
AcDbBlockTableRecord
   2
*D4
   0
BLOCK_RECORD
   5
48
 100
AcDbSymbolTableRecord
 100
AcDbBlockTableRecord
   2
*D5
   0
BLOCK_RECORD
   5
49
 100
AcDbSymbolTableRecord
 100
AcDbBlockTableRecord
   2
*D6
   0
BLOCK_RECORD
   5
4A
 100
AcDbSymbolTableRecord
 100
AcDbBlockTableRecord
   2
*D7
   0
BLOCK_RECORD
   5
4B
 100
AcDbSymbolTableRecord
 100
AcDbBlockTableRecord
   2
*D8
   0
BLOCK_RECORD
   5
4C
 100
AcDbSymbolTableRecord
 100
AcDbBlockTableRecord
   2
*D9
   0
BLOCK_RECORD
   5
4D
 100
AcDbSymbolTableRecord
 100
AcDbBlockTableRecord
   2
*D10
   0
BLOCK_RECORD
   5
4E
 100
AcDbSymbolTableRecord
 100
AcDbBlockTableRecord
   2
*D11
   0
BLOCK_RECORD
   5
4F
 100
AcDbSymbolTableRecord
 100
AcDbBlockTableRecord
   2
*D12
   0
BLOCK_RECORD
   5
50
 100
AcDbSymbolTableRecord
 100
AcDbBlockTableRecord
   2
*D13
   0
BLOCK_RECORD
   5
51
 100
AcDbSymbolTableRecord
 100
AcDbBlockTableRecord
   2
*D14
   0
BLOCK_RECORD
   5
52
 100
AcDbSymbolTableRecord
 100
AcDbBlockTableRecord
   2
*D15
   0
BLOCK_RECORD
   5
53
 100
AcDbSymbolTableRecord
 100
AcDbBlockTableRecord
   2
*D16
   0
BLOCK_RECORD
   5
54
 100
AcDbSymbolTableRecord
 100
AcDbBlockTableRecord
   2
*D17
   0
BLOCK_RECORD
   5
55
 100
AcDbSymbolTableRecord
 100
AcDbBlockTableRecord
   2
*D18
   0
BLOCK_RECORD
   5
56
 100
AcDbSymbolTableRecord
 100
AcDbBlockTableRecord
   2
*D19
   0
BLOCK_RECORD
   5
57
 100
AcDbSymbolTableRecord
 100
AcDbBlockTableRecord
   2
*D20
   0
BLOCK_RECORD
   5
58
 100
AcDbSymbolTableRecord
 100
AcDbBlockTableRecord
   2
*D21
   0
BLOCK_RECORD
   5
59
 100
AcDbSymbolTableRecord
 100
AcDbBlockTableRecord
   2
*D22
   0
BLOCK_RECORD
   5
5A
 100
AcDbSymbolTableRecord
 100
AcDbBlockTableRecord
   2
*D23
   0
BLOCK_RECORD
   5
5B
 100
AcDbSymbolTableRecord
 100
AcDbBlockTableRecord
   2
*D24
   0
BLOCK_RECORD
   5
5C
 100
AcDbSymbolTableRecord
 100
AcDbBlockTableRecord
   2
*D25
   0
BLOCK_RECORD
   5
5D
 100
AcDbSymbolTableRecord
 100
AcDbBlockTableRecord
   2
BLOCK001
   0
BLOCK_RECORD
   5
5E
 100
AcDbSymbolTableRecord
 100
AcDbBlockTableRecord
   2
*D26
   0
BLOCK_RECORD
   5
5F
 100
AcDbSymbolTableRecord
 100
AcDbBlockTableRecord
   2
*D27
   0
BLOCK_RECORD
   5
60
 100
AcDbSymbolTableRecord
 100
AcDbBlockTableRecord
   2
*D28
   0
BLOCK_RECORD
   5
61
 100
AcDbSymbolTableRecord
 100
AcDbBlockTableRecord
   2
_ARCHTICK
   0
BLOCK_RECORD
   5
62
 100
AcDbSymbolTableRecord
 100
AcDbBlockTableRecord
   2
_BOXBLANK
   0
BLOCK_RECORD
   5
63
 100
AcDbSymbolTableRecord
 100
AcDbBlockTableRecord
   2
_BOXFILLED
   0
BLOCK_RECORD
   5
64
 100
AcDbSymbolTableRecord
 100
AcDbBlockTableRecord
   2
_CLOSED
   0
BLOCK_RECORD
   5
65
 100
AcDbSymbolTableRecord
 100
AcDbBlockTableRecord
   2
_CLOSEDBLANK
   0
BLOCK_RECORD
   5
66
 100
AcDbSymbolTableRecord
 100
AcDbBlockTableRecord
   2
_DATUMBLANK
   0
BLOCK_RECORD
   5
67
 100
AcDbSymbolTableRecord
 100
AcDbBlockTableRecord
   2
_DATUMFILLED
   0
BLOCK_RECORD
   5
68
 100
AcDbSymbolTableRecord
 100
AcDbBlockTableRecord
   2
_DOT
   0
BLOCK_RECORD
   5
69
 100
AcDbSymbolTableRecord
 100
AcDbBlockTableRecord
   2
_DOTBLANK
   0
BLOCK_RECORD
   5
6A
 100
AcDbSymbolTableRecord
 100
AcDbBlockTableRecord
   2
_DOTSMALL
   0
BLOCK_RECORD
   5
6B
 100
AcDbSymbolTableRecord
 100
AcDbBlockTableRecord
   2
_INTEGRAL
   0
BLOCK_RECORD
   5
6C
 100
AcDbSymbolTableRecord
 100
AcDbBlockTableRecord
   2
_NONE
   0
BLOCK_RECORD
   5
6D
 100
AcDbSymbolTableRecord
 100
AcDbBlockTableRecord
   2
_OBLIQUE
   0
BLOCK_RECORD
   5
6E
 100
AcDbSymbolTableRecord
 100
AcDbBlockTableRecord
   2
_OPEN
   0
BLOCK_RECORD
   5
6F
 100
AcDbSymbolTableRecord
 100
AcDbBlockTableRecord
   2
_OPEN30
   0
BLOCK_RECORD
   5
70
 100
AcDbSymbolTableRecord
 100
AcDbBlockTableRecord
   2
_OPEN90
   0
BLOCK_RECORD
   5
71
 100
AcDbSymbolTableRecord
 100
AcDbBlockTableRecord
   2
_ORIGIN
   0
ENDTAB
   0
ENDSEC
  0
SECTION
  2
BLOCKS
  0
BLOCK
  5
19
100
AcDbEntity
  8
0
100
AcDbBlockBegin
  2
*MODEL_SPACE
 70
     0
 10
0.0
 20
0.0
 30
0.0
  3
*MODEL_SPACE
  1

  0
ENDBLK
  5
1A
100
AcDbEntity
  8
0
100
AcDbBlockEnd
  0
BLOCK
  5
16
100
AcDbEntity
 67
     1
  8
0
100
AcDbBlockBegin
  2
*PAPER_SPACE
 70
     0
 10
0.0
 20
0.0
 30
0.0
  3
*PAPER_SPACE
  1

  0
ENDBLK
  5
17
100
AcDbEntity
 67
     1
  8
0
100
AcDbBlockEnd
   0
BLOCK
   5
72
 100
AcDbEntity
   8
0
 100
AcDbBlockBegin
   2
_ARCHTICK
  70
0
  10
0.0
  20
0.0
  30
0.0
   3
_ARCHTICK
   0
POLYLINE
   5
73
 100
AcDbEntity
   8
0
   6
BYBLOCK
  62
0
 100
AcDb2dPolyline
  66
1
  10
0.0
  20
0.0
  30
0.0
  70
1
  40
 0.15000000000000
  41
 0.15000000000000
   0
VERTEX
   5
74
 100
AcDbEntity
   8
0
   6
BYBLOCK
  62
0
 100
AcDbVertex
 100
AcDb2dVertex
  10
-0.50000000000000
  20
-0.50000000000000
  30
0.0
  40
 0.15000000000000
  41
 0.15000000000000
   0
VERTEX
   5
75
 100
AcDbEntity
   8
0
   6
BYBLOCK
  62
0
 100
AcDbVertex
 100
AcDb2dVertex
  10
 0.50000000000000
  20
 0.50000000000000
  30
0.0
  40
 0.15000000000000
  41
 0.15000000000000
   0
SEQEND
   5
76
 100
AcDbEntity
   8
0
   6
BYBLOCK
  62
0
   0
ENDBLK
   5
77
 100
AcDbEntity
   8
0
 100
AcDbBlockEnd
   0
BLOCK
   5
78
 100
AcDbEntity
   8
0
 100
AcDbBlockBegin
   2
_OBLIQUE
  70
0
  10
0.0
  20
0.0
  30
0.0
   3
_OBLIQUE
   0
LINE
   5
79
 100
AcDbEntity
   8
0
 100
AcDbLine
   6
BYBLOCK
  62
0
  10
-0.50000000000000
  20
-0.50000000000000
  30
0.0
  11
 0.50000000000000
  21
 0.50000000000000
  31
0.0
   0
ENDBLK
   5
7A
 100
AcDbEntity
   8
0
 100
AcDbBlockEnd
   0
BLOCK
   5
7B
 100
AcDbEntity
   8
0
 100
AcDbBlockBegin
   2
_BOXBLANK
  70
0
  10
0.0
  20
0.0
  30
0.0
   3
_BOXBLANK
   0
LINE
   5
7C
 100
AcDbEntity
   8
0
 100
AcDbLine
   6
BYBLOCK
  62
0
  10
-0.50000000000000
  20
-0.50000000000000
  30
0.0
  11
 0.50000000000000
  21
-0.50000000000000
  31
0.0
   0
LINE
   5
7D
 100
AcDbEntity
   8
0
 100
AcDbLine
   6
BYBLOCK
  62
0
  10
 0.50000000000000
  20
-0.50000000000000
  30
0.0
  11
 0.50000000000000
  21
 0.50000000000000
  31
0.0
   0
LINE
   5
7E
 100
AcDbEntity
   8
0
 100
AcDbLine
   6
BYBLOCK
  62
0
  10
 0.50000000000000
  20
 0.50000000000000
  30
0.0
  11
-0.50000000000000
  21
 0.50000000000000
  31
0.0
   0
LINE
   5
7F
 100
AcDbEntity
   8
0
 100
AcDbLine
   6
BYBLOCK
  62
0
  10
-0.50000000000000
  20
 0.50000000000000
  30
0.0
  11
-0.50000000000000
  21
-0.50000000000000
  31
0.0
   0
LINE
   5
80
 100
AcDbEntity
   8
0
 100
AcDbLine
   6
BYBLOCK
  62
0
  10
-0.50000000000000
  20
0.0
  30
0.0
  11
-1.0000000000000
  21
0.0
  31
0.0
   0
ENDBLK
   5
81
 100
AcDbEntity
   8
0
 100
AcDbBlockEnd
   0
BLOCK
   5
82
 100
AcDbEntity
   8
0
 100
AcDbBlockBegin
   2
_BOXFILLED
  70
0
  10
0.0
  20
0.0
  30
0.0
   3
_BOXFILLED
   0
SOLID
   5
83
 100
AcDbEntity
   8
0
 100
AcDbTrace
   6
BYBLOCK
  62
0
  10
-0.50000000000000
  20
 0.50000000000000
  30
0.0
  11
 0.50000000000000
  21
 0.50000000000000
  31
0.0
  12
-0.50000000000000
  22
-0.50000000000000
  32
0.0
  13
 0.50000000000000
  23
-0.50000000000000
  33
0.0
   0
LINE
   5
84
 100
AcDbEntity
   8
0
 100
AcDbLine
   6
BYBLOCK
  62
0
  10
-0.50000000000000
  20
0.0
  30
0.0
  11
-1.0000000000000
  21
0.0
  31
0.0
   0
ENDBLK
   5
85
 100
AcDbEntity
   8
0
 100
AcDbBlockEnd
   0
BLOCK
   5
86
 100
AcDbEntity
   8
0
 100
AcDbBlockBegin
   2
_CLOSED
  70
0
  10
0.0
  20
0.0
  30
0.0
   3
_CLOSED
   0
LINE
   5
87
 100
AcDbEntity
   8
0
 100
AcDbLine
   6
BYBLOCK
  62
0
  10
-1.0000000000000
  20
 0.16666666666667
  30
0.0
  11
0.0
  21
0.0
  31
0.0
   0
LINE
   5
88
 100
AcDbEntity
   8
0
 100
AcDbLine
   6
BYBLOCK
  62
0
  10
0.0
  20
0.0
  30
0.0
  11
-1.0000000000000
  21
-0.16666666666667
  31
0.0
   0
LINE
   5
89
 100
AcDbEntity
   8
0
 100
AcDbLine
   6
BYBLOCK
  62
0
  10
-1.0000000000000
  20
 0.16666666666667
  30
0.0
  11
-1.0000000000000
  21
-0.16666666666667
  31
0.0
   0
LINE
   5
8A
 100
AcDbEntity
   8
0
 100
AcDbLine
   6
BYBLOCK
  62
0
  10
0.0
  20
0.0
  30
0.0
  11
-1.0000000000000
  21
0.0
  31
0.0
   0
ENDBLK
   5
8B
 100
AcDbEntity
   8
0
 100
AcDbBlockEnd
   0
BLOCK
   5
8C
 100
AcDbEntity
   8
0
 100
AcDbBlockBegin
   2
_OPEN
  70
0
  10
0.0
  20
0.0
  30
0.0
   3
_OPEN
   0
LINE
   5
8D
 100
AcDbEntity
   8
0
 100
AcDbLine
   6
BYBLOCK
  62
0
  10
-1.0000000000000
  20
 0.16666666666667
  30
0.0
  11
0.0
  21
0.0
  31
0.0
   0
LINE
   5
8E
 100
AcDbEntity
   8
0
 100
AcDbLine
   6
BYBLOCK
  62
0
  10
0.0
  20
0.0
  30
0.0
  11
-1.0000000000000
  21
-0.16666666666667
  31
0.0
   0
LINE
   5
8F
 100
AcDbEntity
   8
0
 100
AcDbLine
   6
BYBLOCK
  62
0
  10
0.0
  20
0.0
  30
0.0
  11
-1.0000000000000
  21
0.0
  31
0.0
   0
ENDBLK
   5
90
 100
AcDbEntity
   8
0
 100
AcDbBlockEnd
   0
BLOCK
   5
91
 100
AcDbEntity
   8
0
 100
AcDbBlockBegin
   2
_OPEN30
  70
0
  10
0.0
  20
0.0
  30
0.0
   3
_OPEN30
   0
LINE
   5
92
 100
AcDbEntity
   8
0
 100
AcDbLine
   6
BYBLOCK
  62
0
  10
-1.0000000000000
  20
 0.26794919243110
  30
0.0
  11
0.0
  21
0.0
  31
0.0
   0
LINE
   5
93
 100
AcDbEntity
   8
0
 100
AcDbLine
   6
BYBLOCK
  62
0
  10
0.0
  20
0.0
  30
0.0
  11
-1.0000000000000
  21
-0.26794919243110
  31
0.0
   0
LINE
   5
94
 100
AcDbEntity
   8
0
 100
AcDbLine
   6
BYBLOCK
  62
0
  10
0.0
  20
0.0
  30
0.0
  11
-1.0000000000000
  21
0.0
  31
0.0
   0
ENDBLK
   5
95
 100
AcDbEntity
   8
0
 100
AcDbBlockEnd
   0
BLOCK
   5
96
 100
AcDbEntity
   8
0
 100
AcDbBlockBegin
   2
_OPEN90
  70
0
  10
0.0
  20
0.0
  30
0.0
   3
_OPEN90
   0
LINE
   5
97
 100
AcDbEntity
   8
0
 100
AcDbLine
   6
BYBLOCK
  62
0
  10
-0.50000000000000
  20
 0.50000000000000
  30
0.0
  11
0.0
  21
0.0
  31
0.0
   0
LINE
   5
98
 100
AcDbEntity
   8
0
 100
AcDbLine
   6
BYBLOCK
  62
0
  10
0.0
  20
0.0
  30
0.0
  11
-0.50000000000000
  21
-0.50000000000000
  31
0.0
   0
LINE
   5
99
 100
AcDbEntity
   8
0
 100
AcDbLine
   6
BYBLOCK
  62
0
  10
0.0
  20
0.0
  30
0.0
  11
-1.0000000000000
  21
0.0
  31
0.0
   0
ENDBLK
   5
9A
 100
AcDbEntity
   8
0
 100
AcDbBlockEnd
   0
BLOCK
   5
9B
 100
AcDbEntity
   8
0
 100
AcDbBlockBegin
   2
_CLOSEDBLANK
  70
0
  10
0.0
  20
0.0
  30
0.0
   3
_CLOSEDBLANK
   0
LINE
   5
9C
 100
AcDbEntity
   8
0
 100
AcDbLine
   6
BYBLOCK
  62
0
  10
-1.0000000000000
  20
 0.16666666666667
  30
0.0
  11
0.0
  21
0.0
  31
0.0
   0
LINE
   5
9D
 100
AcDbEntity
   8
0
 100
AcDbLine
   6
BYBLOCK
  62
0
  10
0.0
  20
0.0
  30
0.0
  11
-1.0000000000000
  21
-0.16666666666667
  31
0.0
   0
LINE
   5
9E
 100
AcDbEntity
   8
0
 100
AcDbLine
   6
BYBLOCK
  62
0
  10
-1.0000000000000
  20
 0.16666666666667
  30
0.0
  11
-1.0000000000000
  21
-0.16666666666667
  31
0.0
   0
ENDBLK
   5
9F
 100
AcDbEntity
   8
0
 100
AcDbBlockEnd
   0
BLOCK
   5
A0
 100
AcDbEntity
   8
0
 100
AcDbBlockBegin
   2
_DOT
  70
0
  10
0.0
  20
0.0
  30
0.0
   3
_DOT
   0
POLYLINE
   5
A1
 100
AcDbEntity
   8
0
   6
BYBLOCK
  62
0
 100
AcDb2dPolyline
  66
1
  10
0.0
  20
0.0
  30
0.0
  70
1
  40
 0.50000000000000
  41
 0.50000000000000
   0
VERTEX
   5
A2
 100
AcDbEntity
   8
0
   6
BYBLOCK
  62
0
 100
AcDbVertex
 100
AcDb2dVertex
  10
-0.25000000000000
  20
0.0
  30
0.0
  42
 1.0000000000000
  40
 0.50000000000000
  41
 0.50000000000000
   0
VERTEX
   5
A3
 100
AcDbEntity
   8
0
   6
BYBLOCK
  62
0
 100
AcDbVertex
 100
AcDb2dVertex
  10
 0.25000000000000
  20
0.0
  30
0.0
  42
 1.0000000000000
  40
 0.50000000000000
  41
 0.50000000000000
   0
SEQEND
   5
A4
 100
AcDbEntity
   8
0
   6
BYBLOCK
  62
0
   0
LINE
   5
A5
 100
AcDbEntity
   8
0
 100
AcDbLine
   6
BYBLOCK
  62
0
  10
-0.50000000000000
  20
0.0
  30
0.0
  11
-1.0000000000000
  21
0.0
  31
0.0
   0
ENDBLK
   5
A6
 100
AcDbEntity
   8
0
 100
AcDbBlockEnd
   0
BLOCK
   5
A7
 100
AcDbEntity
   8
0
 100
AcDbBlockBegin
   2
_DOTSMALL
  70
0
  10
0.0
  20
0.0
  30
0.0
   3
_DOTSMALL
   0
POLYLINE
   5
A8
 100
AcDbEntity
   8
0
   6
BYBLOCK
  62
0
 100
AcDb2dPolyline
  66
1
  10
0.0
  20
0.0
  30
0.0
  70
1
  40
 0.50000000000000
  41
 0.50000000000000
   0
VERTEX
   5
A9
 100
AcDbEntity
   8
0
   6
BYBLOCK
  62
0
 100
AcDbVertex
 100
AcDb2dVertex
  10
-0.62500000000000E-1
  20
0.0
  30
0.0
  42
 1.0000000000000
  40
 0.50000000000000
  41
 0.50000000000000
   0
VERTEX
   5
AA
 100
AcDbEntity
   8
0
   6
BYBLOCK
  62
0
 100
AcDbVertex
 100
AcDb2dVertex
  10
 0.62500000000000E-1
  20
0.0
  30
0.0
  42
 1.0000000000000
  40
 0.50000000000000
  41
 0.50000000000000
   0
SEQEND
   5
AB
 100
AcDbEntity
   8
0
   6
BYBLOCK
  62
0
   0
ENDBLK
   5
AC
 100
AcDbEntity
   8
0
 100
AcDbBlockEnd
   0
BLOCK
   5
AD
 100
AcDbEntity
   8
0
 100
AcDbBlockBegin
   2
_DATUMBLANK
  70
0
  10
0.0
  20
0.0
  30
0.0
   3
_DATUMBLANK
   0
LINE
   5
AE
 100
AcDbEntity
   8
0
 100
AcDbLine
   6
BYBLOCK
  62
0
  10
0.0
  20
 0.57735027000000
  30
0.0
  11
-1.0000000000000
  21
0.0
  31
0.0
   0
LINE
   5
AF
 100
AcDbEntity
   8
0
 100
AcDbLine
   6
BYBLOCK
  62
0
  10
-1.0000000000000
  20
0.0
  30
0.0
  11
0.0
  21
-0.57735027000000
  31
0.0
   0
LINE
   5
B0
 100
AcDbEntity
   8
0
 100
AcDbLine
   6
BYBLOCK
  62
0
  10
0.0
  20
-0.57735027000000
  30
0.0
  11
0.0
  21
 0.57735027000000
  31
0.0
   0
ENDBLK
   5
B1
 100
AcDbEntity
   8
0
 100
AcDbBlockEnd
   0
BLOCK
   5
B2
 100
AcDbEntity
   8
0
 100
AcDbBlockBegin
   2
_DATUMFILLED
  70
0
  10
0.0
  20
0.0
  30
0.0
   3
_DATUMFILLED
   0
SOLID
   5
B3
 100
AcDbEntity
   8
0
 100
AcDbTrace
   6
BYBLOCK
  62
0
  10
0.0
  20
 0.57735027000000
  30
0.0
  11
-1.0000000000000
  21
0.0
  31
0.0
  12
0.0
  22
-0.57735027000000
  32
0.0
  13
0.0
  23
-0.57735027000000
  33
0.0
   0
ENDBLK
   5
B4
 100
AcDbEntity
   8
0
 100
AcDbBlockEnd
   0
BLOCK
   5
B5
 100
AcDbEntity
   8
0
 100
AcDbBlockBegin
   2
_ORIGIN
  70
0
  10
0.0
  20
0.0
  30
0.0
   3
_ORIGIN
   0
CIRCLE
   5
B6
 100
AcDbEntity
   8
0
 100
AcDbCircle
   6
BYBLOCK
  62
0
  10
0.0
  20
0.0
  30
0.0
  40
 0.50000000000000
   0
LINE
   5
B7
 100
AcDbEntity
   8
0
 100
AcDbLine
   6
BYBLOCK
  62
0
  10
0.0
  20
0.0
  30
0.0
  11
-1.0000000000000
  21
0.0
  31
0.0
   0
ENDBLK
   5
B8
 100
AcDbEntity
   8
0
 100
AcDbBlockEnd
   0
BLOCK
   5
B9
 100
AcDbEntity
   8
0
 100
AcDbBlockBegin
   2
_NONE
  70
0
  10
0.0
  20
0.0
  30
0.0
   3
_NONE
   0
CIRCLE
   5
BA
 100
AcDbEntity
   8
0
 100
AcDbCircle
   6
BYBLOCK
  62
0
  10
0.0
  20
0.0
  30
0.0
  40
 0.25000000000000
   0
ENDBLK
   5
BB
 100
AcDbEntity
   8
0
 100
AcDbBlockEnd
   0
BLOCK
   5
BC
 100
AcDbEntity
   8
0
 100
AcDbBlockBegin
   2
_DOTBLANK
  70
0
  10
0.0
  20
0.0
  30
0.0
   3
_DOTBLANK
   0
CIRCLE
   5
BD
 100
AcDbEntity
   8
0
 100
AcDbCircle
   6
BYBLOCK
  62
0
  10
0.0
  20
0.0
  30
0.0
  40
 0.50000000000000
   0
LINE
   5
BE
 100
AcDbEntity
   8
0
 100
AcDbLine
   6
BYBLOCK
  62
0
  10
-0.50000000000000
  20
0.0
  30
0.0
  11
-1.0000000000000
  21
0.0
  31
0.0
   0
ENDBLK
   5
BF
 100
AcDbEntity
   8
0
 100
AcDbBlockEnd
   0
BLOCK
   5
C0
 100
AcDbEntity
   8
0
 100
AcDbBlockBegin
   2
_INTEGRAL
  70
0
  10
0.0
  20
0.0
  30
0.0
   3
_INTEGRAL
   0
ARC
   5
C1
 100
AcDbEntity
   8
0
   6
BYBLOCK
  62
0
 100
AcDbCircle
  10
 0.44488800000000
  20
-0.91335000000000E-1
  30
0.0
  40
 0.45416700000000
 100
AcDbArc
  50
 102.00000000000
  51
 168.00000000000
   0
ARC
   5
C2
 100
AcDbEntity
   8
0
   6
BYBLOCK
  62
0
 100
AcDbCircle
  10
-0.44488800000000
  20
 0.91335000000000E-1
  30
0.0
  40
 0.45416700000000
 100
AcDbArc
  50
 282.00000000000
  51
 348.00000000000
   0
ENDBLK
   5
C3
 100
AcDbEntity
   8
0
 100
AcDbBlockEnd
   0
BLOCK
   5
C4
 100
AcDbEntity
   8
0
 100
AcDbBlockBegin
   2
*D1
  70
65
  10
0.0
  20
0.0
  30
0.0
   3
*D1
   0
LINE
   5
C5
 100
AcDbEntity
   8
LEVEL001
 100
AcDbLine
   6
CONTINUOUS
  62
3
  10
 102.69346891851
  20
 122.83986774452
  30
0.0
  11
 110.66264185084
  21
 122.83986774452
  31
0.0
   0
LINE
   5
C6
 100
AcDbEntity
   8
LEVEL001
 100
AcDbLine
   6
CONTINUOUS
  62
3
  10
 102.69346891851
  20
 138.83986774452
  30
0.0
  11
 110.66264185084
  21
 138.83986774452
  31
0.0
   0
LINE
   5
C7
 100
AcDbEntity
   8
LEVEL001
 100
AcDbLine
   6
CONTINUOUS
  62
3
  10
 109.66264185084
  20
 122.83986774452
  30
0.0
  11
 109.66264185084
  21
 130.83986774452
  31
0.0
   0
LINE
   5
C8
 100
AcDbEntity
   8
LEVEL001
 100
AcDbLine
   6
CONTINUOUS
  62
3
  10
 109.66264185084
  20
 138.83986774452
  30
0.0
  11
 109.66264185084
  21
 130.83986774452
  31
0.0
   0
INSERT
   5
C9
 100
AcDbEntity
   8
LEVEL001
   6
CONTINUOUS
  62
3
 100
AcDbBlockReference
   2
_OPEN30
  10
 109.66264185084
  20
 122.83986774452
  30
0.0
  41
 3.0000000000000
  42
 3.0000000000000
  43
 3.0000000000000
  50
 270.00000000000
   0
INSERT
   5
CA
 100
AcDbEntity
   8
LEVEL001
   6
CONTINUOUS
  62
3
 100
AcDbBlockReference
   2
_OPEN30
  10
 109.66264185084
  20
 138.83986774452
  30
0.0
  41
 3.0000000000000
  42
 3.0000000000000
  43
 3.0000000000000
  50
 90.000000000000
   0
MTEXT
   5
CB
 100
AcDbEntity
   8
LEVEL001
  62
3
 100
AcDbMText
  10
 107.94835613656
  20
 130.83986774452
  30
0.0
  40
 4.0000000000000
  41
0.0
  71
8
  72
1
   1
\A1;16
   7
GMM001
  11
0.0
  21
 1.0000000000000
  31
0.0
   0
ENDBLK
   5
CC
 100
AcDbEntity
   8
0
 100
AcDbBlockEnd
   0
BLOCK
   5
CD
 100
AcDbEntity
   8
0
 100
AcDbBlockBegin
   2
*D2
  70
65
  10
0.0
  20
0.0
  30
0.0
   3
*D2
   0
LINE
   5
CE
 100
AcDbEntity
   8
LEVEL001
 100
AcDbLine
   6
CONTINUOUS
  62
3
  10
 50.515629923216
  20
 180.64512986186
  30
0.0
  11
 50.515629923216
  21
 161.37112320420
  31
0.0
   0
LINE
   5
CF
 100
AcDbEntity
   8
LEVEL001
 100
AcDbLine
   6
CONTINUOUS
  62
3
  10
 78.515629923216
  20
 180.64512986186
  30
0.0
  11
 78.515629923216
  21
 161.37112320420
  31
0.0
   0
LINE
   5
D0
 100
AcDbEntity
   8
LEVEL001
 100
AcDbLine
   6
CONTINUOUS
  62
3
  10
 50.515629923216
  20
 162.37112320420
  30
0.0
  11
 64.515629923216
  21
 162.37112320420
  31
0.0
   0
LINE
   5
D1
 100
AcDbEntity
   8
LEVEL001
 100
AcDbLine
   6
CONTINUOUS
  62
3
  10
 78.515629923216
  20
 162.37112320420
  30
0.0
  11
 64.515629923216
  21
 162.37112320420
  31
0.0
   0
INSERT
   5
D2
 100
AcDbEntity
   8
LEVEL001
   6
CONTINUOUS
  62
3
 100
AcDbBlockReference
   2
_OPEN30
  10
 50.515629923216
  20
 162.37112320420
  30
0.0
  41
 3.0000000000000
  42
 3.0000000000000
  43
 3.0000000000000
  50
 180.00000000000
   0
INSERT
   5
D3
 100
AcDbEntity
   8
LEVEL001
   6
CONTINUOUS
  62
3
 100
AcDbBlockReference
   2
_OPEN30
  10
 78.515629923216
  20
 162.37112320420
  30
0.0
  41
 3.0000000000000
  42
 3.0000000000000
  43
 3.0000000000000
  50
0.0
   0
MTEXT
   5
D4
 100
AcDbEntity
   8
LEVEL001
  62
3
 100
AcDbMText
  10
 64.515629923216
  20
 164.08540891848
  30
0.0
  40
 4.0000000000000
  41
0.0
  71
8
  72
1
   1
\A1;28
   7
GMM001
   0
ENDBLK
   5
D5
 100
AcDbEntity
   8
0
 100
AcDbBlockEnd
   0
BLOCK
   5
D6
 100
AcDbEntity
   8
0
 100
AcDbBlockBegin
   2
*D3
  70
65
  10
0.0
  20
0.0
  30
0.0
   3
*D3
   0
LINE
   5
D7
 100
AcDbEntity
   8
LEVEL001
 100
AcDbLine
   6
CONTINUOUS
  62
3
  10
 48.265629923216
  20
 122.33986774452
  30
0.0
  11
 48.265629923216
  21
 106.18053830634
  31
0.0
   0
LINE
   5
D8
 100
AcDbEntity
   8
LEVEL001
 100
AcDbLine
   6
CONTINUOUS
  62
3
  10
 80.765629923216
  20
 122.33986774452
  30
0.0
  11
 80.765629923216
  21
 106.18053830634
  31
0.0
   0
LINE
   5
D9
 100
AcDbEntity
   8
LEVEL001
 100
AcDbLine
   6
CONTINUOUS
  62
3
  10
 48.265629923216
  20
 107.18053830634
  30
0.0
  11
 64.515629923216
  21
 107.18053830634
  31
0.0
   0
LINE
   5
DA
 100
AcDbEntity
   8
LEVEL001
 100
AcDbLine
   6
CONTINUOUS
  62
3
  10
 80.765629923216
  20
 107.18053830634
  30
0.0
  11
 64.515629923216
  21
 107.18053830634
  31
0.0
   0
INSERT
   5
DB
 100
AcDbEntity
   8
LEVEL001
   6
CONTINUOUS
  62
3
 100
AcDbBlockReference
   2
_OPEN30
  10
 48.265629923216
  20
 107.18053830634
  30
0.0
  41
 3.0000000000000
  42
 3.0000000000000
  43
 3.0000000000000
  50
 180.00000000000
   0
INSERT
   5
DC
 100
AcDbEntity
   8
LEVEL001
   6
CONTINUOUS
  62
3
 100
AcDbBlockReference
   2
_OPEN30
  10
 80.765629923216
  20
 107.18053830634
  30
0.0
  41
 3.0000000000000
  42
 3.0000000000000
  43
 3.0000000000000
  50
0.0
   0
MTEXT
   5
DD
 100
AcDbEntity
   8
LEVEL001
  62
3
 100
AcDbMText
  10
 64.515629923216
  20
 108.89482402063
  30
0.0
  40
 4.0000000000000
  41
0.0
  71
8
  72
1
   1
\A1;32.5
   7
GMM001
   0
ENDBLK
   5
DE
 100
AcDbEntity
   8
0
 100
AcDbBlockEnd
   0
BLOCK
   5
DF
 100
AcDbEntity
   8
0
 100
AcDbBlockBegin
   2
*D4
  70
65
  10
0.0
  20
0.0
  30
0.0
   3
*D4
   0
LINE
   5
E0
 100
AcDbEntity
   8
LEVEL001
 100
AcDbLine
   6
CONTINUOUS
  62
3
  10
 84.515629923216
  20
 136.33986774452
  30
0.0
  11
 102.19346891851
  21
 136.33986774452
  31
0.0
   0
LINE
   5
E1
 100
AcDbEntity
   8
LEVEL001
 100
AcDbLine
   6
CONTINUOUS
  62
3
  10
 81.165629923216
  20
 138.83986774452
  30
0.0
  11
 102.19346891851
  21
 138.83986774452
  31
0.0
   0
LINE
   5
E2
 100
AcDbEntity
   8
LEVEL001
 100
AcDbLine
   6
CONTINUOUS
  62
3
  10
 101.19346891851
  20
 132.58986774452
  30
0.0
  11
 101.19346891851
  21
 137.58986774452
  31
0.0
   0
LINE
   5
E3
 100
AcDbEntity
   8
LEVEL001
 100
AcDbLine
   6
CONTINUOUS
  62
3
  10
 101.19346891851
  20
 152.01758656221
  30
0.0
  11
 101.19346891851
  21
 137.58986774452
  31
0.0
   0
INSERT
   5
E4
 100
AcDbEntity
   8
LEVEL001
   6
CONTINUOUS
  62
3
 100
AcDbBlockReference
   2
_OPEN30
  10
 101.19346891851
  20
 136.33986774452
  30
0.0
  41
 3.0000000000000
  42
 3.0000000000000
  43
 3.0000000000000
  50
 90.000000000000
   0
INSERT
   5
E5
 100
AcDbEntity
   8
LEVEL001
   6
CONTINUOUS
  62
3
 100
AcDbBlockReference
   2
_OPEN30
  10
 101.19346891851
  20
 138.83986774452
  30
0.0
  41
 3.0000000000000
  42
 3.0000000000000
  43
 3.0000000000000
  50
 270.00000000000
   0
MTEXT
   5
E6
 100
AcDbEntity
   8
LEVEL001
  62
3
 100
AcDbMText
  10
 99.479183204227
  20
 147.64258656221
  30
0.0
  40
 4.0000000000000
  41
0.0
  71
8
  72
1
   1
\A1;2.5
   7
GMM001
  11
0.0
  21
 1.0000000000000
  31
0.0
   0
ENDBLK
   5
E7
 100
AcDbEntity
   8
0
 100
AcDbBlockEnd
   0
BLOCK
   5
E8
 100
AcDbEntity
   8
0
 100
AcDbBlockBegin
   2
*D5
  70
65
  10
0.0
  20
0.0
  30
0.0
   3
*D5
   0
LINE
   5
E9
 100
AcDbEntity
   8
LEVEL001
 100
AcDbLine
   6
CONTINUOUS
  62
3
  10
 81.265629923216
  20
 122.83986774452
  30
0.0
  11
 102.19346891851
  21
 122.83986774452
  31
0.0
   0
LINE
   5
EA
 100
AcDbEntity
   8
LEVEL001
 100
AcDbLine
   6
CONTINUOUS
  62
3
  10
 101.19346891851
  20
 136.33986774452
  30
0.0
  11
 101.19346891851
  21
 129.58986774452
  31
0.0
   0
LINE
   5
EB
 100
AcDbEntity
   8
LEVEL001
 100
AcDbLine
   6
CONTINUOUS
  62
3
  10
 101.19346891851
  20
 122.83986774452
  30
0.0
  11
 101.19346891851
  21
 129.58986774452
  31
0.0
   0
INSERT
   5
EC
 100
AcDbEntity
   8
LEVEL001
   6
CONTINUOUS
  62
3
 100
AcDbBlockReference
   2
_OPEN30
  10
 101.19346891851
  20
 136.33986774452
  30
0.0
  41
 3.0000000000000
  42
 3.0000000000000
  43
 3.0000000000000
  50
 90.000000000000
   0
INSERT
   5
ED
 100
AcDbEntity
   8
LEVEL001
   6
CONTINUOUS
  62
3
 100
AcDbBlockReference
   2
_OPEN30
  10
 101.19346891851
  20
 122.83986774452
  30
0.0
  41
 3.0000000000000
  42
 3.0000000000000
  43
 3.0000000000000
  50
 270.00000000000
   0
MTEXT
   5
EE
 100
AcDbEntity
   8
LEVEL001
  62
3
 100
AcDbMText
  10
 99.479182918513
  20
 129.53521784543
  30
0.0
  40
 4.0000000000000
  41
0.0
  71
8
  72
1
   1
\A1;13.5
   7
GMM001
  11
0.0
  21
 1.0000000000000
  31
0.0
   0
ENDBLK
   5
EF
 100
AcDbEntity
   8
0
 100
AcDbBlockEnd
   0
BLOCK
   5
F0
 100
AcDbEntity
   8
0
 100
AcDbBlockBegin
   2
*D6
  70
65
  10
0.0
  20
0.0
  30
0.0
   3
*D6
   0
LINE
   5
F1
 100
AcDbEntity
   8
LEVEL001
 100
AcDbLine
   6
CONTINUOUS
  62
3
  10
 45.015629923216
  20
 174.64512986186
  30
0.0
  11
 45.015629923216
  21
 152.47327698705
  31
0.0
   0
LINE
   5
F2
 100
AcDbEntity
   8
LEVEL001
 100
AcDbLine
   6
CONTINUOUS
  62
3
  10
 84.015629923216
  20
 174.64512986186
  30
0.0
  11
 84.015629923216
  21
 152.47327698705
  31
0.0
   0
LINE
   5
F3
 100
AcDbEntity
   8
LEVEL001
 100
AcDbLine
   6
CONTINUOUS
  62
3
  10
 45.015629923216
  20
 153.47327698705
  30
0.0
  11
 64.515629923216
  21
 153.47327698705
  31
0.0
   0
LINE
   5
F4
 100
AcDbEntity
   8
LEVEL001
 100
AcDbLine
   6
CONTINUOUS
  62
3
  10
 84.015629923216
  20
 153.47327698705
  30
0.0
  11
 64.515629923216
  21
 153.47327698705
  31
0.0
   0
INSERT
   5
F5
 100
AcDbEntity
   8
LEVEL001
   6
CONTINUOUS
  62
3
 100
AcDbBlockReference
   2
_OPEN30
  10
 45.015629923216
  20
 153.47327698705
  30
0.0
  41
 3.0000000000000
  42
 3.0000000000000
  43
 3.0000000000000
  50
 180.00000000000
   0
INSERT
   5
F6
 100
AcDbEntity
   8
LEVEL001
   6
CONTINUOUS
  62
3
 100
AcDbBlockReference
   2
_OPEN30
  10
 84.015629923216
  20
 153.47327698705
  30
0.0
  41
 3.0000000000000
  42
 3.0000000000000
  43
 3.0000000000000
  50
0.0
   0
MTEXT
   5
F7
 100
AcDbEntity
   8
LEVEL001
  62
3
 100
AcDbMText
  10
 64.515629923216
  20
 155.18756270134
  30
0.0
  40
 4.0000000000000
  41
0.0
  71
8
  72
1
   1
\A1;39
   7
GMM001
   0
ENDBLK
   5
F8
 100
AcDbEntity
   8
0
 100
AcDbBlockEnd
   0
BLOCK
   5
F9
 100
AcDbEntity
   8
0
 100
AcDbBlockBegin
   2
*D7
  70
65
  10
0.0
  20
0.0
  30
0.0
   3
*D7
   0
LINE
   5
FA
 100
AcDbEntity
   8
LEVEL001
 100
AcDbLine
   6
CONTINUOUS
  62
3
  10
 48.015629923216
  20
 232.14512986186
  30
0.0
  11
 46.928926869985
  21
 233.17909140568
  31
0.0
   0
LINE
   5
FB
 100
AcDbEntity
   8
LEVEL001
 100
AcDbLine
   6
CONTINUOUS
  62
3
  10
 46.928926869985
  20
 233.17909140568
  30
0.0
  11
 38.266745628655
  21
 241.42086661972
  31
0.0
   0
INSERT
   5
FC
 100
AcDbEntity
   8
LEVEL001
   6
CONTINUOUS
  62
3
 100
AcDbBlockReference
   2
_OPEN30
  10
 45.842223816754
  20
 234.21305294950
  30
0.0
  41
 3.0000000000000
  42
 3.0000000000000
  43
 3.0000000000000
  50
 316.42466804553
   0
MTEXT
   5
FD
 100
AcDbEntity
   8
LEVEL001
  62
3
 100
AcDbMText
  10
 44.592143749741
  20
 237.76872832552
  30
0.0
  40
 4.0000000000000
  41
0.0
  71
9
  72
1
   1
\A1;R3
   7
GMM001
  11
 0.72446870215374
  21
-0.68930769588021
  31
0.0
   0
ENDBLK
   5
FE
 100
AcDbEntity
   8
0
 100
AcDbBlockEnd
   0
BLOCK
   5
FF
 100
AcDbEntity
   8
0
 100
AcDbBlockBegin
   2
*D8
  70
65
  10
0.0
  20
0.0
  30
0.0
   3
*D8
   0
LINE
   5
100
 100
AcDbEntity
   8
LEVEL001
 100
AcDbLine
   6
CONTINUOUS
  62
3
  10
 84.515629923216
  20
 175.14512986186
  30
0.0
  11
 102.19346891851
  21
 175.14512986186
  31
0.0
   0
LINE
   5
101
 100
AcDbEntity
   8
LEVEL001
 100
AcDbLine
   6
CONTINUOUS
  62
3
  10
 84.515629923216
  20
 235.14512986186
  30
0.0
  11
 102.19346891851
  21
 235.14512986186
  31
0.0
   0
LINE
   5
102
 100
AcDbEntity
   8
LEVEL001
 100
AcDbLine
   6
CONTINUOUS
  62
3
  10
 101.19346891851
  20
 175.14512986186
  30
0.0
  11
 101.19346891851
  21
 205.14512986186
  31
0.0
   0
LINE
   5
103
 100
AcDbEntity
   8
LEVEL001
 100
AcDbLine
   6
CONTINUOUS
  62
3
  10
 101.19346891851
  20
 235.14512986186
  30
0.0
  11
 101.19346891851
  21
 205.14512986186
  31
0.0
   0
INSERT
   5
104
 100
AcDbEntity
   8
LEVEL001
   6
CONTINUOUS
  62
3
 100
AcDbBlockReference
   2
_OPEN30
  10
 101.19346891851
  20
 175.14512986186
  30
0.0
  41
 3.0000000000000
  42
 3.0000000000000
  43
 3.0000000000000
  50
 270.00000000000
   0
INSERT
   5
105
 100
AcDbEntity
   8
LEVEL001
   6
CONTINUOUS
  62
3
 100
AcDbBlockReference
   2
_OPEN30
  10
 101.19346891851
  20
 235.14512986186
  30
0.0
  41
 3.0000000000000
  42
 3.0000000000000
  43
 3.0000000000000
  50
 90.000000000000
   0
MTEXT
   5
106
 100
AcDbEntity
   8
LEVEL001
  62
3
 100
AcDbMText
  10
 99.479183204227
  20
 205.14512986186
  30
0.0
  40
 4.0000000000000
  41
0.0
  71
8
  72
1
   1
\A1;60
   7
GMM001
  11
0.0
  21
 1.0000000000000
  31
0.0
   0
ENDBLK
   5
107
 100
AcDbEntity
   8
0
 100
AcDbBlockEnd
   0
BLOCK
   5
108
 100
AcDbEntity
   8
0
 100
AcDbBlockBegin
   2
*D9
  70
65
  10
0.0
  20
0.0
  30
0.0
   3
*D9
   0
LINE
   5
109
 100
AcDbEntity
   8
LEVEL001
 100
AcDbLine
   6
CONTINUOUS
  62
3
  10
 124.32867578014
  20
 177.99512986186
  30
0.0
  11
 124.32867578014
  21
 161.37112320420
  31
0.0
   0
LINE
   5
10A
 100
AcDbEntity
   8
LEVEL001
 100
AcDbLine
   6
CONTINUOUS
  62
3
  10
 126.82867578014
  20
 174.64512986186
  30
0.0
  11
 126.82867578014
  21
 161.37112320420
  31
0.0
   0
LINE
   5
10B
 100
AcDbEntity
   8
LEVEL001
 100
AcDbLine
   6
CONTINUOUS
  62
3
  10
 112.54028672737
  20
 162.37112320420
  30
0.0
  11
 125.57867578014
  21
 162.37112320420
  31
0.0
   0
LINE
   5
10C
 100
AcDbEntity
   8
LEVEL001
 100
AcDbLine
   6
CONTINUOUS
  62
3
  10
 130.57867578014
  20
 162.37112320420
  30
0.0
  11
 125.57867578014
  21
 162.37112320420
  31
0.0
   0
INSERT
   5
10D
 100
AcDbEntity
   8
LEVEL001
   6
CONTINUOUS
  62
3
 100
AcDbBlockReference
   2
_OPEN30
  10
 124.32867578014
  20
 162.37112320420
  30
0.0
  41
 3.0000000000000
  42
 3.0000000000000
  43
 3.0000000000000
  50
0.0
   0
INSERT
   5
10E
 100
AcDbEntity
   8
LEVEL001
   6
CONTINUOUS
  62
3
 100
AcDbBlockReference
   2
_OPEN30
  10
 126.82867578014
  20
 162.37112320420
  30
0.0
  41
 3.0000000000000
  42
 3.0000000000000
  43
 3.0000000000000
  50
 180.00000000000
   0
MTEXT
   5
10F
 100
AcDbEntity
   8
LEVEL001
  62
3
 100
AcDbMText
  10
 116.91528672737
  20
 164.08540891848
  30
0.0
  40
 4.0000000000000
  41
0.0
  71
8
  72
1
   1
\A1;2.5
   7
GMM001
   0
ENDBLK
   5
110
 100
AcDbEntity
   8
0
 100
AcDbBlockEnd
   0
BLOCK
   5
111
 100
AcDbEntity
   8
0
 100
AcDbBlockBegin
   2
*D10
  70
65
  10
0.0
  20
0.0
  30
0.0
   3
*D10
   0
LINE
   5
112
 100
AcDbEntity
   8
LEVEL001
 100
AcDbLine
   6
CONTINUOUS
  62
3
  10
 139.32867578014
  20
 230.89512986186
  30
0.0
  11
 139.68911624500
  21
 231.24165932855
  31
0.0
   0
LINE
   5
113
 100
AcDbEntity
   8
LEVEL001
 100
AcDbLine
   6
CONTINUOUS
  62
3
  10
 139.68911624500
  20
 231.24165932855
  30
0.0
  11
 148.01997263850
  21
 239.25099097829
  31
0.0
   0
INSERT
   5
114
 100
AcDbEntity
   8
LEVEL001
   6
CONTINUOUS
  62
3
 100
AcDbBlockReference
   2
_OPEN30
  10
 140.04955670987
  20
 231.58818879524
  30
0.0
  41
 3.0000000000000
  42
 3.0000000000000
  43
 3.0000000000000
  50
 223.87274040085
   0
MTEXT
   5
115
 100
AcDbEntity
   8
LEVEL001
  62
3
 100
AcDbMText
  10
 141.71361700871
  20
 235.56606843082
  30
0.0
  40
 4.0000000000000
  41
0.0
  71
7
  72
1
   1
\A1;R1
   7
GMM001
  11
 0.72088092973703
  21
 0.69305893338264
  31
0.0
   0
ENDBLK
   5
116
 100
AcDbEntity
   8
0
 100
AcDbBlockEnd
   0
BLOCK
   5
117
 100
AcDbEntity
   8
0
 100
AcDbBlockBegin
   2
*D11
  70
65
  10
0.0
  20
0.0
  30
0.0
   3
*D11
   0
LINE
   5
118
 100
AcDbEntity
   8
LEVEL001
 100
AcDbLine
   6
CONTINUOUS
  62
3
  10
 140.82867578014
  20
 231.89512986186
  30
0.0
  11
 159.63117336927
  21
 231.89512986186
  31
0.0
   0
LINE
   5
119
 100
AcDbEntity
   8
LEVEL001
 100
AcDbLine
   6
CONTINUOUS
  62
3
  10
 140.82867578014
  20
 178.39512986186
  30
0.0
  11
 159.63117336927
  21
 178.39512986186
  31
0.0
   0
LINE
   5
11A
 100
AcDbEntity
   8
LEVEL001
 100
AcDbLine
   6
CONTINUOUS
  62
3
  10
 158.63117336927
  20
 231.89512986186
  30
0.0
  11
 158.63117336927
  21
 205.14512986186
  31
0.0
   0
LINE
   5
11B
 100
AcDbEntity
   8
LEVEL001
 100
AcDbLine
   6
CONTINUOUS
  62
3
  10
 158.63117336927
  20
 178.39512986186
  30
0.0
  11
 158.63117336927
  21
 205.14512986186
  31
0.0
   0
INSERT
   5
11C
 100
AcDbEntity
   8
LEVEL001
   6
CONTINUOUS
  62
3
 100
AcDbBlockReference
   2
_OPEN30
  10
 158.63117336927
  20
 231.89512986186
  30
0.0
  41
 3.0000000000000
  42
 3.0000000000000
  43
 3.0000000000000
  50
 90.000000000000
   0
INSERT
   5
11D
 100
AcDbEntity
   8
LEVEL001
   6
CONTINUOUS
  62
3
 100
AcDbBlockReference
   2
_OPEN30
  10
 158.63117336927
  20
 178.39512986186
  30
0.0
  41
 3.0000000000000
  42
 3.0000000000000
  43
 3.0000000000000
  50
 270.00000000000
   0
MTEXT
   5
11E
 100
AcDbEntity
   8
LEVEL001
  62
3
 100
AcDbMText
  10
 156.91688765498
  20
 205.14512986186
  30
0.0
  40
 4.0000000000000
  41
0.0
  71
8
  72
1
   1
\A1;53.5
   7
GMM001
  11
0.0
  21
 1.0000000000000
  31
0.0
   0
ENDBLK
   5
11F
 100
AcDbEntity
   8
0
 100
AcDbBlockEnd
   0
BLOCK
   5
120
 100
AcDbEntity
   8
0
 100
AcDbBlockBegin
   2
*D12
  70
65
  10
0.0
  20
0.0
  30
0.0
   3
*D12
   0
LINE
   5
121
 100
AcDbEntity
   8
LEVEL001
 100
AcDbLine
   6
CONTINUOUS
  62
3
  10
 140.32867578014
  20
 177.89512986186
  30
0.0
  11
 140.32867578014
  21
 161.37112320420
  31
0.0
   0
LINE
   5
122
 100
AcDbEntity
   8
LEVEL001
 100
AcDbLine
   6
CONTINUOUS
  62
3
  10
 126.82867578014
  20
 162.37112320420
  30
0.0
  11
 133.57867578014
  21
 162.37112320420
  31
0.0
   0
LINE
   5
123
 100
AcDbEntity
   8
LEVEL001
 100
AcDbLine
   6
CONTINUOUS
  62
3
  10
 140.32867578014
  20
 162.37112320420
  30
0.0
  11
 133.57867578014
  21
 162.37112320420
  31
0.0
   0
INSERT
   5
124
 100
AcDbEntity
   8
LEVEL001
   6
CONTINUOUS
  62
3
 100
AcDbBlockReference
   2
_OPEN30
  10
 126.82867578014
  20
 162.37112320420
  30
0.0
  41
 3.0000000000000
  42
 3.0000000000000
  43
 3.0000000000000
  50
 180.00000000000
   0
INSERT
   5
125
 100
AcDbEntity
   8
LEVEL001
   6
CONTINUOUS
  62
3
 100
AcDbBlockReference
   2
_OPEN30
  10
 140.32867578014
  20
 162.37112320420
  30
0.0
  41
 3.0000000000000
  42
 3.0000000000000
  43
 3.0000000000000
  50
0.0
   0
MTEXT
   5
126
 100
AcDbEntity
   8
LEVEL001
  62
3
 100
AcDbMText
  10
 133.57867578014
  20
 164.08540891848
  30
0.0
  40
 4.0000000000000
  41
0.0
  71
8
  72
1
   1
\A1;13.5
   7
GMM001
   0
ENDBLK
   5
127
 100
AcDbEntity
   8
0
 100
AcDbBlockEnd
   0
BLOCK
   5
128
 100
AcDbEntity
   8
0
 100
AcDbBlockBegin
   2
*D13
  70
65
  10
0.0
  20
0.0
  30
0.0
   3
*D13
   0
LINE
   5
129
 100
AcDbEntity
   8
LEVEL001
 100
AcDbLine
   6
CONTINUOUS
  62
3
  10
 140.32867578014
  20
 160.87112320420
  30
0.0
  11
 140.32867578014
  21
 152.47327698705
  31
0.0
   0
LINE
   5
12A
 100
AcDbEntity
   8
LEVEL001
 100
AcDbLine
   6
CONTINUOUS
  62
3
  10
 124.32867578014
  20
 160.87112320420
  30
0.0
  11
 124.32867578014
  21
 152.47327698705
  31
0.0
   0
LINE
   5
12B
 100
AcDbEntity
   8
LEVEL001
 100
AcDbLine
   6
CONTINUOUS
  62
3
  10
 140.32867578014
  20
 153.47327698705
  30
0.0
  11
 132.32867578014
  21
 153.47327698705
  31
0.0
   0
LINE
   5
12C
 100
AcDbEntity
   8
LEVEL001
 100
AcDbLine
   6
CONTINUOUS
  62
3
  10
 124.32867578014
  20
 153.47327698705
  30
0.0
  11
 132.32867578014
  21
 153.47327698705
  31
0.0
   0
INSERT
   5
12D
 100
AcDbEntity
   8
LEVEL001
   6
CONTINUOUS
  62
3
 100
AcDbBlockReference
   2
_OPEN30
  10
 140.32867578014
  20
 153.47327698705
  30
0.0
  41
 3.0000000000000
  42
 3.0000000000000
  43
 3.0000000000000
  50
0.0
   0
INSERT
   5
12E
 100
AcDbEntity
   8
LEVEL001
   6
CONTINUOUS
  62
3
 100
AcDbBlockReference
   2
_OPEN30
  10
 124.32867578014
  20
 153.47327698705
  30
0.0
  41
 3.0000000000000
  42
 3.0000000000000
  43
 3.0000000000000
  50
 180.00000000000
   0
MTEXT
   5
12F
 100
AcDbEntity
   8
LEVEL001
  62
3
 100
AcDbMText
  10
 132.32867578014
  20
 155.18756270134
  30
0.0
  40
 4.0000000000000
  41
0.0
  71
8
  72
1
   1
\A1;16
   7
GMM001
   0
ENDBLK
   5
130
 100
AcDbEntity
   8
0
 100
AcDbBlockEnd
   0
BLOCK
   5
131
 100
AcDbEntity
   8
0
 100
AcDbBlockBegin
   2
*D14
  70
65
  10
0.0
  20
0.0
  30
0.0
   3
*D14
   0
LINE
   5
132
 100
AcDbEntity
   8
LEVEL001
 100
AcDbLine
   6
CONTINUOUS
  62
3
  10
 386.46819566710
  20
 122.83986774452
  30
0.0
  11
 394.43736859943
  21
 122.83986774452
  31
0.0
   0
LINE
   5
133
 100
AcDbEntity
   8
LEVEL001
 100
AcDbLine
   6
CONTINUOUS
  62
3
  10
 386.46819566710
  20
 138.83986774452
  30
0.0
  11
 394.43736859943
  21
 138.83986774452
  31
0.0
   0
LINE
   5
134
 100
AcDbEntity
   8
LEVEL001
 100
AcDbLine
   6
CONTINUOUS
  62
3
  10
 393.43736859943
  20
 122.83986774452
  30
0.0
  11
 393.43736859943
  21
 130.83986774452
  31
0.0
   0
LINE
   5
135
 100
AcDbEntity
   8
LEVEL001
 100
AcDbLine
   6
CONTINUOUS
  62
3
  10
 393.43736859943
  20
 138.83986774452
  30
0.0
  11
 393.43736859943
  21
 130.83986774452
  31
0.0
   0
INSERT
   5
136
 100
AcDbEntity
   8
LEVEL001
   6
CONTINUOUS
  62
3
 100
AcDbBlockReference
   2
_OPEN30
  10
 393.43736859943
  20
 122.83986774452
  30
0.0
  41
 3.0000000000000
  42
 3.0000000000000
  43
 3.0000000000000
  50
 270.00000000000
   0
INSERT
   5
137
 100
AcDbEntity
   8
LEVEL001
   6
CONTINUOUS
  62
3
 100
AcDbBlockReference
   2
_OPEN30
  10
 393.43736859943
  20
 138.83986774452
  30
0.0
  41
 3.0000000000000
  42
 3.0000000000000
  43
 3.0000000000000
  50
 90.000000000000
   0
MTEXT
   5
138
 100
AcDbEntity
   8
LEVEL001
  62
3
 100
AcDbMText
  10
 391.72308288514
  20
 130.83986774452
  30
0.0
  40
 4.0000000000000
  41
0.0
  71
8
  72
1
   1
\A1;16
   7
GMM001
  11
0.0
  21
 1.0000000000000
  31
0.0
   0
ENDBLK
   5
139
 100
AcDbEntity
   8
0
 100
AcDbBlockEnd
   0
BLOCK
   5
13A
 100
AcDbEntity
   8
0
 100
AcDbBlockBegin
   2
*D15
  70
65
  10
0.0
  20
0.0
  30
0.0
   3
*D15
   0
LINE
   5
13B
 100
AcDbEntity
   8
LEVEL001
 100
AcDbLine
   6
CONTINUOUS
  62
3
  10
 332.04035667180
  20
 122.33986774452
  30
0.0
  11
 332.04035667180
  21
 106.18053830634
  31
0.0
   0
LINE
   5
13C
 100
AcDbEntity
   8
LEVEL001
 100
AcDbLine
   6
CONTINUOUS
  62
3
  10
 364.54035667180
  20
 122.33986774452
  30
0.0
  11
 364.54035667180
  21
 106.18053830634
  31
0.0
   0
LINE
   5
13D
 100
AcDbEntity
   8
LEVEL001
 100
AcDbLine
   6
CONTINUOUS
  62
3
  10
 332.04035667180
  20
 107.18053830634
  30
0.0
  11
 348.29035667180
  21
 107.18053830634
  31
0.0
   0
LINE
   5
13E
 100
AcDbEntity
   8
LEVEL001
 100
AcDbLine
   6
CONTINUOUS
  62
3
  10
 364.54035667180
  20
 107.18053830634
  30
0.0
  11
 348.29035667180
  21
 107.18053830634
  31
0.0
   0
INSERT
   5
13F
 100
AcDbEntity
   8
LEVEL001
   6
CONTINUOUS
  62
3
 100
AcDbBlockReference
   2
_OPEN30
  10
 332.04035667180
  20
 107.18053830634
  30
0.0
  41
 3.0000000000000
  42
 3.0000000000000
  43
 3.0000000000000
  50
 180.00000000000
   0
INSERT
   5
140
 100
AcDbEntity
   8
LEVEL001
   6
CONTINUOUS
  62
3
 100
AcDbBlockReference
   2
_OPEN30
  10
 364.54035667180
  20
 107.18053830634
  30
0.0
  41
 3.0000000000000
  42
 3.0000000000000
  43
 3.0000000000000
  50
0.0
   0
MTEXT
   5
141
 100
AcDbEntity
   8
LEVEL001
  62
3
 100
AcDbMText
  10
 348.29035667180
  20
 108.89482402063
  30
0.0
  40
 4.0000000000000
  41
0.0
  71
8
  72
1
   1
\A1;32.5
   7
GMM001
   0
ENDBLK
   5
142
 100
AcDbEntity
   8
0
 100
AcDbBlockEnd
   0
BLOCK
   5
143
 100
AcDbEntity
   8
0
 100
AcDbBlockBegin
   2
*D16
  70
65
  10
0.0
  20
0.0
  30
0.0
   3
*D16
   0
LINE
   5
144
 100
AcDbEntity
   8
LEVEL001
 100
AcDbLine
   6
CONTINUOUS
  62
3
  10
 368.29035667180
  20
 136.33986774452
  30
0.0
  11
 385.96819566710
  21
 136.33986774452
  31
0.0
   0
LINE
   5
145
 100
AcDbEntity
   8
LEVEL001
 100
AcDbLine
   6
CONTINUOUS
  62
3
  10
 364.94035667180
  20
 138.83986774452
  30
0.0
  11
 385.96819566710
  21
 138.83986774452
  31
0.0
   0
LINE
   5
146
 100
AcDbEntity
   8
LEVEL001
 100
AcDbLine
   6
CONTINUOUS
  62
3
  10
 384.96819566710
  20
 132.58986774452
  30
0.0
  11
 384.96819566710
  21
 137.58986774452
  31
0.0
   0
LINE
   5
147
 100
AcDbEntity
   8
LEVEL001
 100
AcDbLine
   6
CONTINUOUS
  62
3
  10
 384.96819566710
  20
 151.47152992769
  30
0.0
  11
 384.96819566710
  21
 137.58986774452
  31
0.0
   0
INSERT
   5
148
 100
AcDbEntity
   8
LEVEL001
   6
CONTINUOUS
  62
3
 100
AcDbBlockReference
   2
_OPEN30
  10
 384.96819566710
  20
 136.33986774452
  30
0.0
  41
 3.0000000000000
  42
 3.0000000000000
  43
 3.0000000000000
  50
 90.000000000000
   0
INSERT
   5
149
 100
AcDbEntity
   8
LEVEL001
   6
CONTINUOUS
  62
3
 100
AcDbBlockReference
   2
_OPEN30
  10
 384.96819566710
  20
 138.83986774452
  30
0.0
  41
 3.0000000000000
  42
 3.0000000000000
  43
 3.0000000000000
  50
 270.00000000000
   0
MTEXT
   5
14A
 100
AcDbEntity
   8
LEVEL001
  62
3
 100
AcDbMText
  10
 383.25390995281
  20
 147.09652992769
  30
0.0
  40
 4.0000000000000
  41
0.0
  71
8
  72
1
   1
\A1;2.5
   7
GMM001
  11
0.0
  21
 1.0000000000000
  31
0.0
   0
ENDBLK
   5
14B
 100
AcDbEntity
   8
0
 100
AcDbBlockEnd
   0
BLOCK
   5
14C
 100
AcDbEntity
   8
0
 100
AcDbBlockBegin
   2
*D17
  70
65
  10
0.0
  20
0.0
  30
0.0
   3
*D17
   0
LINE
   5
14D
 100
AcDbEntity
   8
LEVEL001
 100
AcDbLine
   6
CONTINUOUS
  62
3
  10
 365.04035667180
  20
 122.83986774452
  30
0.0
  11
 385.96819566710
  21
 122.83986774452
  31
0.0
   0
LINE
   5
14E
 100
AcDbEntity
   8
LEVEL001
 100
AcDbLine
   6
CONTINUOUS
  62
3
  10
 384.96819566710
  20
 136.33986774452
  30
0.0
  11
 384.96819566710
  21
 129.58986774452
  31
0.0
   0
LINE
   5
14F
 100
AcDbEntity
   8
LEVEL001
 100
AcDbLine
   6
CONTINUOUS
  62
3
  10
 384.96819566710
  20
 122.83986774452
  30
0.0
  11
 384.96819566710
  21
 129.58986774452
  31
0.0
   0
INSERT
   5
150
 100
AcDbEntity
   8
LEVEL001
   6
CONTINUOUS
  62
3
 100
AcDbBlockReference
   2
_OPEN30
  10
 384.96819566710
  20
 136.33986774452
  30
0.0
  41
 3.0000000000000
  42
 3.0000000000000
  43
 3.0000000000000
  50
 90.000000000000
   0
INSERT
   5
151
 100
AcDbEntity
   8
LEVEL001
   6
CONTINUOUS
  62
3
 100
AcDbBlockReference
   2
_OPEN30
  10
 384.96819566710
  20
 122.83986774452
  30
0.0
  41
 3.0000000000000
  42
 3.0000000000000
  43
 3.0000000000000
  50
 270.00000000000
   0
MTEXT
   5
152
 100
AcDbEntity
   8
LEVEL001
  62
3
 100
AcDbMText
  10
 383.25390966710
  20
 129.75457092119
  30
0.0
  40
 4.0000000000000
  41
0.0
  71
8
  72
1
   1
\A1;13.5
   7
GMM001
  11
0.0
  21
 1.0000000000000
  31
0.0
   0
ENDBLK
   5
153
 100
AcDbEntity
   8
0
 100
AcDbBlockEnd
   0
BLOCK
   5
154
 100
AcDbEntity
   8
0
 100
AcDbBlockBegin
   2
*D18
  70
65
  10
0.0
  20
0.0
  30
0.0
   3
*D18
   0
LINE
   5
155
 100
AcDbEntity
   8
LEVEL001
 100
AcDbLine
   6
CONTINUOUS
  62
3
  10
 233.33567658077
  20
 174.64512986186
  30
0.0
  11
 233.33567658077
  21
 161.37112320420
  31
0.0
   0
LINE
   5
156
 100
AcDbEntity
   8
LEVEL001
 100
AcDbLine
   6
CONTINUOUS
  62
3
  10
 263.33567658077
  20
 174.64512986186
  30
0.0
  11
 263.33567658077
  21
 161.37112320420
  31
0.0
   0
LINE
   5
157
 100
AcDbEntity
   8
LEVEL001
 100
AcDbLine
   6
CONTINUOUS
  62
3
  10
 233.33567658077
  20
 162.37112320420
  30
0.0
  11
 248.33567658077
  21
 162.37112320420
  31
0.0
   0
LINE
   5
158
 100
AcDbEntity
   8
LEVEL001
 100
AcDbLine
   6
CONTINUOUS
  62
3
  10
 263.33567658077
  20
 162.37112320420
  30
0.0
  11
 248.33567658077
  21
 162.37112320420
  31
0.0
   0
INSERT
   5
159
 100
AcDbEntity
   8
LEVEL001
   6
CONTINUOUS
  62
3
 100
AcDbBlockReference
   2
_OPEN30
  10
 233.33567658077
  20
 162.37112320420
  30
0.0
  41
 3.0000000000000
  42
 3.0000000000000
  43
 3.0000000000000
  50
 180.00000000000
   0
INSERT
   5
15A
 100
AcDbEntity
   8
LEVEL001
   6
CONTINUOUS
  62
3
 100
AcDbBlockReference
   2
_OPEN30
  10
 263.33567658077
  20
 162.37112320420
  30
0.0
  41
 3.0000000000000
  42
 3.0000000000000
  43
 3.0000000000000
  50
0.0
   0
MTEXT
   5
15B
 100
AcDbEntity
   8
LEVEL001
  62
3
 100
AcDbMText
  10
 248.33567658077
  20
 164.08540891848
  30
0.0
  40
 4.0000000000000
  41
0.0
  71
8
  72
1
   1
\A1;30～33
   7
GMM001
   0
ENDBLK
   5
15C
 100
AcDbEntity
   8
0
 100
AcDbBlockEnd
   0
BLOCK
   5
15D
 100
AcDbEntity
   8
0
 100
AcDbBlockBegin
   2
*D19
  70
65
  10
0.0
  20
0.0
  30
0.0
   3
*D19
   0
LINE
   5
15E
 100
AcDbEntity
   8
LEVEL001
 100
AcDbLine
   6
CONTINUOUS
  62
3
  10
 230.83567658077
  20
 232.29512986186
  30
0.0
  11
 230.83567658077
  21
 244.21606359529
  31
0.0
   0
LINE
   5
15F
 100
AcDbEntity
   8
LEVEL001
 100
AcDbLine
   6
CONTINUOUS
  62
3
  10
 190.83596645221
  20
 229.64831716738
  30
0.0
  11
 190.83596645221
  21
 244.21606359529
  31
0.0
   0
LINE
   5
160
 100
AcDbEntity
   8
LEVEL001
 100
AcDbLine
   6
CONTINUOUS
  62
3
  10
 230.83567658077
  20
 243.21606359529
  30
0.0
  11
 210.83582151649
  21
 243.21606359529
  31
0.0
   0
LINE
   5
161
 100
AcDbEntity
   8
LEVEL001
 100
AcDbLine
   6
CONTINUOUS
  62
3
  10
 190.83596645221
  20
 243.21606359529
  30
0.0
  11
 210.83582151649
  21
 243.21606359529
  31
0.0
   0
INSERT
   5
162
 100
AcDbEntity
   8
LEVEL001
   6
CONTINUOUS
  62
3
 100
AcDbBlockReference
   2
_OPEN30
  10
 230.83567658077
  20
 243.21606359529
  30
0.0
  41
 3.0000000000000
  42
 3.0000000000000
  43
 3.0000000000000
  50
0.0
   0
INSERT
   5
163
 100
AcDbEntity
   8
LEVEL001
   6
CONTINUOUS
  62
3
 100
AcDbBlockReference
   2
_OPEN30
  10
 190.83596645221
  20
 243.21606359529
  30
0.0
  41
 3.0000000000000
  42
 3.0000000000000
  43
 3.0000000000000
  50
 180.00000000000
   0
MTEXT
   5
164
 100
AcDbEntity
   8
LEVEL001
  62
3
 100
AcDbMText
  10
 210.83582151649
  20
 244.93034930958
  30
0.0
  40
 4.0000000000000
  41
0.0
  71
8
  72
1
   1
\A1;40
   7
GMM001
   0
ENDBLK
   5
165
 100
AcDbEntity
   8
0
 100
AcDbBlockEnd
   0
BLOCK
   5
166
 100
AcDbEntity
   8
0
 100
AcDbBlockBegin
   2
*D20
  70
65
  10
0.0
  20
0.0
  30
0.0
   3
*D20
   0
POLYLINE
   5
167
 100
AcDbEntity
   8
LEVEL001
   6
CONTINUOUS
  62
3
 100
AcDb2dPolyline
  66
1
  10
0.0
  20
0.0
  30
0.0
  70
0
   0
VERTEX
   5
168
 100
AcDbEntity
   8
LEVEL001
   6
CONTINUOUS
  62
3
 100
AcDbVertex
 100
AcDb2dVertex
  10
 255.29716436023
  20
 217.19880046595
  30
0.0
   0
VERTEX
   5
169
 100
AcDbEntity
   8
LEVEL001
   6
CONTINUOUS
  62
3
 100
AcDbVertex
 100
AcDb2dVertex
  10
 261.07275706208
  20
 210.81954412012
  30
0.0
   0
VERTEX
   5
16A
 100
AcDbEntity
   8
LEVEL001
   6
CONTINUOUS
  62
3
 100
AcDbVertex
 100
AcDb2dVertex
  10
 274.97333610720
  20
 240.18696463799
  30
0.0
   0
VERTEX
   5
16B
 100
AcDbEntity
   8
LEVEL001
   6
CONTINUOUS
  62
3
 100
AcDbVertex
 100
AcDb2dVertex
  10
 291.97333610720
  20
 240.18696463799
  30
0.0
   0
SEQEND
   5
16C
 100
AcDbEntity
   8
LEVEL001
   6
CONTINUOUS
  62
3
   0
INSERT
   5
16D
 100
AcDbEntity
   8
LEVEL001
   6
CONTINUOUS
  62
3
 100
AcDbBlockReference
   2
_OPEN30
  10
 255.29716436023
  20
 217.19880046595
  30
0.0
  41
 3.0000000000000
  42
 3.0000000000000
  43
 3.0000000000000
  50
 132.15677391875
   0
MTEXT
   5
16E
 100
AcDbEntity
   8
LEVEL001
  62
3
 100
AcDbMText
  10
 274.97333610720
  20
 241.90125035228
  30
0.0
  40
 4.0000000000000
  41
0.0
  71
7
  72
1
   1
\A1;Ｍ４タップ
   7
GMM001
   0
ENDBLK
   5
16F
 100
AcDbEntity
   8
0
 100
AcDbBlockEnd
   0
BLOCK
   5
170
 100
AcDbEntity
   8
0
 100
AcDbBlockBegin
   2
*D21
  70
65
  10
0.0
  20
0.0
  30
0.0
   3
*D21
   0
LINE
   5
171
 100
AcDbEntity
   8
LEVEL001
 100
AcDbLine
   6
CONTINUOUS
  62
3
  10
 334.29035667180
  20
 180.64512986186
  30
0.0
  11
 334.29035667180
  21
 161.37112320420
  31
0.0
   0
LINE
   5
172
 100
AcDbEntity
   8
LEVEL001
 100
AcDbLine
   6
CONTINUOUS
  62
3
  10
 362.29035667180
  20
 180.64512986186
  30
0.0
  11
 362.29035667180
  21
 161.37112320420
  31
0.0
   0
LINE
   5
173
 100
AcDbEntity
   8
LEVEL001
 100
AcDbLine
   6
CONTINUOUS
  62
3
  10
 334.29035667180
  20
 162.37112320420
  30
0.0
  11
 348.29035667180
  21
 162.37112320420
  31
0.0
   0
LINE
   5
174
 100
AcDbEntity
   8
LEVEL001
 100
AcDbLine
   6
CONTINUOUS
  62
3
  10
 362.29035667180
  20
 162.37112320420
  30
0.0
  11
 348.29035667180
  21
 162.37112320420
  31
0.0
   0
INSERT
   5
175
 100
AcDbEntity
   8
LEVEL001
   6
CONTINUOUS
  62
3
 100
AcDbBlockReference
   2
_OPEN30
  10
 334.29035667180
  20
 162.37112320420
  30
0.0
  41
 3.0000000000000
  42
 3.0000000000000
  43
 3.0000000000000
  50
 180.00000000000
   0
INSERT
   5
176
 100
AcDbEntity
   8
LEVEL001
   6
CONTINUOUS
  62
3
 100
AcDbBlockReference
   2
_OPEN30
  10
 362.29035667180
  20
 162.37112320420
  30
0.0
  41
 3.0000000000000
  42
 3.0000000000000
  43
 3.0000000000000
  50
0.0
   0
MTEXT
   5
177
 100
AcDbEntity
   8
LEVEL001
  62
3
 100
AcDbMText
  10
 348.29035667180
  20
 164.08540891848
  30
0.0
  40
 4.0000000000000
  41
0.0
  71
8
  72
1
   1
\A1;28
   7
GMM001
   0
ENDBLK
   5
178
 100
AcDbEntity
   8
0
 100
AcDbBlockEnd
   0
BLOCK
   5
179
 100
AcDbEntity
   8
0
 100
AcDbBlockBegin
   2
*D22
  70
65
  10
0.0
  20
0.0
  30
0.0
   3
*D22
   0
LINE
   5
17A
 100
AcDbEntity
   8
LEVEL001
 100
AcDbLine
   6
CONTINUOUS
  62
3
  10
 328.79035667180
  20
 174.64512986186
  30
0.0
  11
 328.79035667180
  21
 152.47327698705
  31
0.0
   0
LINE
   5
17B
 100
AcDbEntity
   8
LEVEL001
 100
AcDbLine
   6
CONTINUOUS
  62
3
  10
 367.79035667180
  20
 174.64512986186
  30
0.0
  11
 367.79035667180
  21
 152.47327698705
  31
0.0
   0
LINE
   5
17C
 100
AcDbEntity
   8
LEVEL001
 100
AcDbLine
   6
CONTINUOUS
  62
3
  10
 328.79035667180
  20
 153.47327698705
  30
0.0
  11
 348.29035667180
  21
 153.47327698705
  31
0.0
   0
LINE
   5
17D
 100
AcDbEntity
   8
LEVEL001
 100
AcDbLine
   6
CONTINUOUS
  62
3
  10
 367.79035667180
  20
 153.47327698705
  30
0.0
  11
 348.29035667180
  21
 153.47327698705
  31
0.0
   0
INSERT
   5
17E
 100
AcDbEntity
   8
LEVEL001
   6
CONTINUOUS
  62
3
 100
AcDbBlockReference
   2
_OPEN30
  10
 328.79035667180
  20
 153.47327698705
  30
0.0
  41
 3.0000000000000
  42
 3.0000000000000
  43
 3.0000000000000
  50
 180.00000000000
   0
INSERT
   5
17F
 100
AcDbEntity
   8
LEVEL001
   6
CONTINUOUS
  62
3
 100
AcDbBlockReference
   2
_OPEN30
  10
 367.79035667180
  20
 153.47327698705
  30
0.0
  41
 3.0000000000000
  42
 3.0000000000000
  43
 3.0000000000000
  50
0.0
   0
MTEXT
   5
180
 100
AcDbEntity
   8
LEVEL001
  62
3
 100
AcDbMText
  10
 348.29035667180
  20
 155.18756270134
  30
0.0
  40
 4.0000000000000
  41
0.0
  71
8
  72
1
   1
\A1;39
   7
GMM001
   0
ENDBLK
   5
181
 100
AcDbEntity
   8
0
 100
AcDbBlockEnd
   0
BLOCK
   5
182
 100
AcDbEntity
   8
0
 100
AcDbBlockBegin
   2
*D23
  70
65
  10
0.0
  20
0.0
  30
0.0
   3
*D23
   0
LINE
   5
183
 100
AcDbEntity
   8
LEVEL001
 100
AcDbLine
   6
CONTINUOUS
  62
3
  10
 331.79035667180
  20
 232.14512986186
  30
0.0
  11
 330.66804211547
  21
 233.14032332880
  31
0.0
   0
LINE
   5
184
 100
AcDbEntity
   8
LEVEL001
 100
AcDbLine
   6
CONTINUOUS
  62
3
  10
 330.66804211547
  20
 233.14032332880
  30
0.0
  11
 321.04695877536
  21
 241.67165639490
  31
0.0
   0
INSERT
   5
185
 100
AcDbEntity
   8
LEVEL001
   6
CONTINUOUS
  62
3
 100
AcDbBlockReference
   2
_OPEN30
  10
 329.54572755914
  20
 234.13551679575
  30
0.0
  41
 3.0000000000000
  42
 3.0000000000000
  43
 3.0000000000000
  50
 318.43553402476
   0
MTEXT
   5
186
 100
AcDbEntity
   8
LEVEL001
  62
3
 100
AcDbMText
  10
 327.49661163755
  20
 238.24371919193
  30
0.0
  40
 4.0000000000000
  41
0.0
  71
9
  72
1
   1
\A1;R3
   7
GMM001
  11
 0.74820970422110
  21
-0.66346231129535
  31
0.0
   0
ENDBLK
   5
187
 100
AcDbEntity
   8
0
 100
AcDbBlockEnd
   0
BLOCK
   5
188
 100
AcDbEntity
   8
0
 100
AcDbBlockBegin
   2
*D24
  70
65
  10
0.0
  20
0.0
  30
0.0
   3
*D24
   0
LINE
   5
189
 100
AcDbEntity
   8
LEVEL001
 100
AcDbLine
   6
CONTINUOUS
  62
3
  10
 368.29035667180
  20
 235.14512986186
  30
0.0
  11
 385.96819566710
  21
 235.14512986186
  31
0.0
   0
LINE
   5
18A
 100
AcDbEntity
   8
LEVEL001
 100
AcDbLine
   6
CONTINUOUS
  62
3
  10
 368.29035667180
  20
 175.14512986186
  30
0.0
  11
 385.96819566710
  21
 175.14512986186
  31
0.0
   0
LINE
   5
18B
 100
AcDbEntity
   8
LEVEL001
 100
AcDbLine
   6
CONTINUOUS
  62
3
  10
 384.96819566710
  20
 235.14512986186
  30
0.0
  11
 384.96819566710
  21
 205.14512986186
  31
0.0
   0
LINE
   5
18C
 100
AcDbEntity
   8
LEVEL001
 100
AcDbLine
   6
CONTINUOUS
  62
3
  10
 384.96819566710
  20
 175.14512986186
  30
0.0
  11
 384.96819566710
  21
 205.14512986186
  31
0.0
   0
INSERT
   5
18D
 100
AcDbEntity
   8
LEVEL001
   6
CONTINUOUS
  62
3
 100
AcDbBlockReference
   2
_OPEN30
  10
 384.96819566710
  20
 235.14512986186
  30
0.0
  41
 3.0000000000000
  42
 3.0000000000000
  43
 3.0000000000000
  50
 90.000000000000
   0
INSERT
   5
18E
 100
AcDbEntity
   8
LEVEL001
   6
CONTINUOUS
  62
3
 100
AcDbBlockReference
   2
_OPEN30
  10
 384.96819566710
  20
 175.14512986186
  30
0.0
  41
 3.0000000000000
  42
 3.0000000000000
  43
 3.0000000000000
  50
 270.00000000000
   0
MTEXT
   5
18F
 100
AcDbEntity
   8
LEVEL001
  62
3
 100
AcDbMText
  10
 383.25390995281
  20
 205.14512986186
  30
0.0
  40
 4.0000000000000
  41
0.0
  71
8
  72
1
   1
\A1;60
   7
GMM001
  11
0.0
  21
 1.0000000000000
  31
0.0
   0
ENDBLK
   5
190
 100
AcDbEntity
   8
0
 100
AcDbBlockEnd
   0
BLOCK
   5
191
 100
AcDbEntity
   8
0
 100
AcDbBlockBegin
   2
*D25
  70
65
  10
0.0
  20
0.0
  30
0.0
   3
*D25
   0
LINE
   5
192
 100
AcDbEntity
   8
LEVEL001
 100
AcDbLine
   6
CONTINUOUS
  62
3
  10
 159.78114175795
  20
 88.459556417882
  30
0.0
  11
 157.36835659973
  21
 90.242382203057
  31
0.0
   0
LINE
   5
193
 100
AcDbEntity
   8
LEVEL001
 100
AcDbLine
   6
CONTINUOUS
  62
3
  10
 157.36835659973
  20
 90.242382203057
  30
0.0
  11
 138.77752355398
  21
 103.97929384186
  31
0.0
   0
INSERT
   5
194
 100
AcDbEntity
   8
LEVEL001
   6
CONTINUOUS
  62
3
 100
AcDbBlockReference
   2
_OPEN30
  10
 154.95557144151
  20
 92.025207988233
  30
0.0
  41
 3.0000000000000
  42
 3.0000000000000
  43
 3.0000000000000
  50
 323.53901562031
   0
MTEXT
   5
195
 100
AcDbEntity
   8
LEVEL001
  62
3
 100
AcDbMText
  10
 150.81466670137
  20
 97.216457132353
  30
0.0
  40
 4.0000000000000
  41
0.0
  71
9
  72
1
   1
\A1;4-R6
   7
GMM001
  11
 0.80426171940571
  21
-0.59427526172521
  31
0.0
   0
ENDBLK
   5
196
 100
AcDbEntity
   8
0
 100
AcDbBlockEnd
   0
BLOCK
   5
197
 100
AcDbEntity
   8
0
 100
AcDbBlockBegin
   2
BLOCK001
  70
64
  10
0.0
  20
0.0
  30
0.0
   3
BLOCK001
   0
LINE
   5
198
 100
AcDbEntity
   8
LEVEL001
 100
AcDbLine
   6
DASHDOT
  62
3
  10
 160.38114175795
  20
 42.642970707209
  30
0.0
  11
 160.38114175795
  21
 37.879060932773
  31
0.0
   0
LINE
   5
199
 100
AcDbEntity
   8
LEVEL001
 100
AcDbLine
   6
DASHDOT
  62
3
  10
 180.38114175795
  20
 42.642970707209
  30
0.0
  11
 180.38114175795
  21
 37.879060932773
  31
0.0
   0
LINE
   5
19A
 100
AcDbEntity
   8
LEVEL001
 100
AcDbLine
   6
DASHDOT
  62
3
  10
 180.38114175795
  20
 92.176142128555
  30
0.0
  11
 180.38114175795
  21
 96.940051902991
  31
0.0
   0
LINE
   5
19B
 100
AcDbEntity
   8
LEVEL001
 100
AcDbLine
   6
DASHDOT
  62
3
  10
 160.38114175795
  20
 92.176142128555
  30
0.0
  11
 160.38114175795
  21
 96.940051902991
  31
0.0
   0
LINE
   5
19C
 100
AcDbEntity
   8
LEVEL001
 100
AcDbLine
   6
DASHDOT
  62
3
  10
 156.86351340873
  20
 82.409556417882
  30
0.0
  11
 151.33502552235
  21
 82.409556417882
  31
0.0
   0
LINE
   5
19D
 100
AcDbEntity
   8
LEVEL001
 100
AcDbLine
   6
DASHDOT
  62
3
  10
 156.86351340873
  20
 52.409556417882
  30
0.0
  11
 151.33502552235
  21
 52.409556417882
  31
0.0
   0
LINE
   5
19E
 100
AcDbEntity
   8
LEVEL001
 100
AcDbLine
   6
DASHDOT
  62
3
  10
 183.89877010717
  20
 52.409556417882
  30
0.0
  11
 189.42725799355
  21
 52.409556417882
  31
0.0
   0
LINE
   5
19F
 100
AcDbEntity
   8
LEVEL001
 100
AcDbLine
   6
DASHDOT
  62
3
  10
 183.89877010717
  20
 82.409556417882
  30
0.0
  11
 189.42725799355
  21
 82.409556417882
  31
0.0
   0
ARC
   5
1A0
 100
AcDbEntity
   8
LEVEL001
   6
DIVIDE
  62
3
 100
AcDbCircle
  10
 160.13114175795
  20
 46.659556417882
  30
0.0
  40
 6.0000000000000
 100
AcDbArc
  50
 180.00000000000
  51
 270.00000000000
   0
LINE
   5
1A1
 100
AcDbEntity
   8
LEVEL001
 100
AcDbLine
   6
DIVIDE
  62
3
  10
 154.13114175795
  20
 51.659556417882
  30
0.0
  11
 154.13114175795
  21
 46.659556417882
  31
0.0
   0
LINE
   5
1A2
 100
AcDbEntity
   8
LEVEL001
 100
AcDbLine
   6
DIVIDE
  62
3
  10
 154.13114175795
  20
 53.159556417882
  30
0.0
  11
 153.77314175795
  21
 52.409556417882
  31
0.0
   0
LINE
   5
1A3
 100
AcDbEntity
   8
LEVEL001
 100
AcDbLine
   6
DIVIDE
  62
3
  10
 154.13114175795
  20
 51.659556417882
  30
0.0
  11
 153.77314175795
  21
 52.409556417882
  31
0.0
   0
LINE
   5
1A4
 100
AcDbEntity
   8
LEVEL001
 100
AcDbLine
   6
DIVIDE
  62
3
  10
 154.13114175795
  20
 81.659556417882
  30
0.0
  11
 154.13114175795
  21
 53.159556417882
  31
0.0
   0
LINE
   5
1A5
 100
AcDbEntity
   8
LEVEL001
 100
AcDbLine
   6
DIVIDE
  62
3
  10
 154.13114175795
  20
 83.159556417882
  30
0.0
  11
 153.77314175795
  21
 82.409556417882
  31
0.0
   0
LINE
   5
1A6
 100
AcDbEntity
   8
LEVEL001
 100
AcDbLine
   6
DIVIDE
  62
3
  10
 154.13114175795
  20
 81.659556417882
  30
0.0
  11
 153.77314175795
  21
 82.409556417882
  31
0.0
   0
LINE
   5
1A7
 100
AcDbEntity
   8
LEVEL001
 100
AcDbLine
   6
DIVIDE
  62
3
  10
 154.13114175795
  20
 88.159556417882
  30
0.0
  11
 154.13114175795
  21
 83.159556417882
  31
0.0
   0
ARC
   5
1A8
 100
AcDbEntity
   8
LEVEL001
   6
DIVIDE
  62
3
 100
AcDbCircle
  10
 160.13114175795
  20
 88.159556417882
  30
0.0
  40
 6.0000000000000
 100
AcDbArc
  50
 90.000000000000
  51
 180.00000000000
   0
LINE
   5
1A9
 100
AcDbEntity
   8
LEVEL001
 100
AcDbLine
   6
DIVIDE
  62
3
  10
 160.13114175795
  20
 94.159556417882
  30
0.0
  11
 180.63114175795
  21
 94.159556417882
  31
0.0
   0
ARC
   5
1AA
 100
AcDbEntity
   8
LEVEL001
   6
DIVIDE
  62
3
 100
AcDbCircle
  10
 180.63114175795
  20
 88.159556417882
  30
0.0
  40
 6.0000000000000
 100
AcDbArc
  50
0.0
  51
 90.000000000000
   0
LINE
   5
1AB
 100
AcDbEntity
   8
LEVEL001
 100
AcDbLine
   6
DIVIDE
  62
3
  10
 186.63114175795
  20
 83.159556417882
  30
0.0
  11
 186.98914175795
  21
 82.409556417882
  31
0.0
   0
LINE
   5
1AC
 100
AcDbEntity
   8
LEVEL001
 100
AcDbLine
   6
DIVIDE
  62
3
  10
 186.63114175795
  20
 81.659556417882
  30
0.0
  11
 186.98914175795
  21
 82.409556417882
  31
0.0
   0
LINE
   5
1AD
 100
AcDbEntity
   8
LEVEL001
 100
AcDbLine
   6
DIVIDE
  62
3
  10
 186.63114175795
  20
 88.159556417882
  30
0.0
  11
 186.63114175795
  21
 83.159556417882
  31
0.0
   0
LINE
   5
1AE
 100
AcDbEntity
   8
LEVEL001
 100
AcDbLine
   6
DIVIDE
  62
3
  10
 186.63114175795
  20
 81.659556417882
  30
0.0
  11
 186.63114175795
  21
 53.159556417882
  31
0.0
   0
ARC
   5
1AF
 100
AcDbEntity
   8
LEVEL001
   6
DIVIDE
  62
3
 100
AcDbCircle
  10
 180.63114175795
  20
 46.659556417882
  30
0.0
  40
 6.0000000000000
 100
AcDbArc
  50
 270.00000000000
  51
0.0
   0
LINE
   5
1B0
 100
AcDbEntity
   8
LEVEL001
 100
AcDbLine
   6
DIVIDE
  62
3
  10
 186.63114175795
  20
 53.159556417882
  30
0.0
  11
 186.98914175795
  21
 52.409556417882
  31
0.0
   0
LINE
   5
1B1
 100
AcDbEntity
   8
LEVEL001
 100
AcDbLine
   6
DIVIDE
  62
3
  10
 186.63114175795
  20
 51.659556417882
  30
0.0
  11
 186.98914175795
  21
 52.409556417882
  31
0.0
   0
LINE
   5
1B2
 100
AcDbEntity
   8
LEVEL001
 100
AcDbLine
   6
DIVIDE
  62
3
  10
 173.38114175795
  20
 40.659556417882
  30
0.0
  11
 180.63114175795
  21
 40.659556417882
  31
0.0
   0
LINE
   5
1B3
 100
AcDbEntity
   8
LEVEL001
 100
AcDbLine
   6
DIVIDE
  62
3
  10
 186.63114175795
  20
 51.659556417882
  30
0.0
  11
 186.63114175795
  21
 46.659556417882
  31
0.0
   0
ARC
   5
1B4
 100
AcDbEntity
   8
LEVEL001
   6
DIVIDE
  62
3
 100
AcDbCircle
  10
 170.38114175795
  20
 44.659556417882
  30
0.0
  40
 5.0000000000000
 100
AcDbArc
  50
 270.00000000000
  51
 306.86989764584
   0
ARC
   5
1B5
 100
AcDbEntity
   8
LEVEL001
   6
DIVIDE
  62
3
 100
AcDbCircle
  10
 170.38114175795
  20
 44.659556417882
  30
0.0
  40
 5.0000000000000
 100
AcDbArc
  50
 233.13010235416
  51
 270.00000000000
   0
LINE
   5
1B6
 100
AcDbEntity
   8
LEVEL001
 100
AcDbLine
   6
DIVIDE
  62
3
  10
 160.13114175795
  20
 40.659556417882
  30
0.0
  11
 167.38114175795
  21
 40.659556417882
  31
0.0
   0
LINE
   5
1B7
 100
AcDbEntity
   8
LEVEL001
 100
AcDbLine
   6
DASHDOT
  62
3
  10
 154.77258748818
  20
 90.858796336442
  30
0.0
  11
 157.43190183939
  21
 93.518110687650
  31
0.0
   0
LINE
   5
1B8
 100
AcDbEntity
   8
LEVEL001
 100
AcDbLine
   6
DASHDOT
  62
3
  10
 154.17008845789
  20
 88.842083746149
  30
0.0
  11
 159.44861442968
  21
 94.120609717943
  31
0.0
   0
LINE
   5
1B9
 100
AcDbEntity
   8
LEVEL001
 100
AcDbLine
   6
DASHDOT
  62
3
  10
 154.13114175795
  20
 87.388923486210
  30
0.0
  11
 160.90177468962
  21
 94.159556417882
  31
0.0
   0
LINE
   5
1BA
 100
AcDbEntity
   8
LEVEL001
 100
AcDbLine
   6
DASHDOT
  62
3
  10
 154.13114175795
  20
 85.974709926210
  30
0.0
  11
 162.31598824962
  21
 94.159556417882
  31
0.0
   0
LINE
   5
1BB
 100
AcDbEntity
   8
LEVEL001
 100
AcDbLine
   6
DASHDOT
  62
3
  10
 154.13114175795
  20
 84.560496366210
  30
0.0
  11
 163.73020180962
  21
 94.159556417882
  31
0.0
   0
LINE
   5
1BC
 100
AcDbEntity
   8
LEVEL001
 100
AcDbLine
   6
DASHDOT
  62
3
  10
 154.11901942892
  20
 83.134160477184
  30
0.0
  11
 165.14441536962
  21
 94.159556417882
  31
0.0
   0
LINE
   5
1BD
 100
AcDbEntity
   8
LEVEL001
 100
AcDbLine
   6
DASHDOT
  62
3
  10
 154.10771252280
  20
 81.708640011065
  30
0.0
  11
 166.55862892962
  21
 94.159556417882
  31
0.0
   0
LINE
   5
1BE
 100
AcDbEntity
   8
LEVEL001
 100
AcDbLine
   6
DASHDOT
  62
3
  10
 154.13114175795
  20
 80.317855686210
  30
0.0
  11
 167.97284248962
  21
 94.159556417882
  31
0.0
   0
LINE
   5
1BF
 100
AcDbEntity
   8
LEVEL001
 100
AcDbLine
   6
DASHDOT
  62
3
  10
 154.13114175795
  20
 78.903642126210
  30
0.0
  11
 169.38705604962
  21
 94.159556417882
  31
0.0
   0
LINE
   5
1C0
 100
AcDbEntity
   8
LEVEL001
 100
AcDbLine
   6
DASHDOT
  62
3
  10
 154.13114175795
  20
 77.489428566210
  30
0.0
  11
 170.80126960962
  21
 94.159556417882
  31
0.0
   0
LINE
   5
1C1
 100
AcDbEntity
   8
LEVEL001
 100
AcDbLine
   6
DASHDOT
  62
3
  10
 154.13114175795
  20
 76.075215006210
  30
0.0
  11
 172.21548316962
  21
 94.159556417882
  31
0.0
   0
LINE
   5
1C2
 100
AcDbEntity
   8
LEVEL001
 100
AcDbLine
   6
DASHDOT
  62
3
  10
 154.13114175795
  20
 74.661001446210
  30
0.0
  11
 173.62969672962
  21
 94.159556417882
  31
0.0
   0
LINE
   5
1C3
 100
AcDbEntity
   8
LEVEL001
 100
AcDbLine
   6
DASHDOT
  62
3
  10
 154.13114175795
  20
 73.246787886210
  30
0.0
  11
 175.04391028962
  21
 94.159556417882
  31
0.0
   0
LINE
   5
1C4
 100
AcDbEntity
   8
LEVEL001
 100
AcDbLine
   6
DASHDOT
  62
3
  10
 154.13114175795
  20
 71.832574326210
  30
0.0
  11
 176.45812384962
  21
 94.159556417882
  31
0.0
   0
LINE
   5
1C5
 100
AcDbEntity
   8
LEVEL001
 100
AcDbLine
   6
DASHDOT
  62
3
  10
 154.13114175795
  20
 70.418360766210
  30
0.0
  11
 177.87233740962
  21
 94.159556417882
  31
0.0
   0
LINE
   5
1C6
 100
AcDbEntity
   8
LEVEL001
 100
AcDbLine
   6
DASHDOT
  62
3
  10
 154.13114175795
  20
 69.004147206210
  30
0.0
  11
 179.28655096962
  21
 94.159556417882
  31
0.0
   0
LINE
   5
1C7
 100
AcDbEntity
   8
LEVEL001
 100
AcDbLine
   6
DASHDOT
  62
3
  10
 154.13114175795
  20
 67.589933646210
  30
0.0
  11
 180.70036519267
  21
 94.159157080933
  31
0.0
   0
LINE
   5
1C8
 100
AcDbEntity
   8
LEVEL001
 100
AcDbLine
   6
DASHDOT
  62
3
  10
 154.13114175795
  20
 66.175720086210
  30
0.0
  11
 181.96486537929
  21
 94.009443707554
  31
0.0
   0
LINE
   5
1C9
 100
AcDbEntity
   8
LEVEL001
 100
AcDbLine
   6
DASHDOT
  62
3
  10
 154.13114175795
  20
 64.761506526210
  30
0.0
  11
 183.02915092525
  21
 93.659515693509
  31
0.0
   0
LINE
   5
1CA
 100
AcDbEntity
   8
LEVEL001
 100
AcDbLine
   6
DASHDOT
  62
3
  10
 154.13114175795
  20
 63.347292966210
  30
0.0
  11
 183.94514389252
  21
 93.161295100784
  31
0.0
   0
LINE
   5
1CB
 100
AcDbEntity
   8
LEVEL001
 100
AcDbLine
   6
DASHDOT
  62
3
  10
 154.13114175795
  20
 61.933079406210
  30
0.0
  11
 184.73481612507
  21
 92.536753773336
  31
0.0
   0
LINE
   5
1CC
 100
AcDbEntity
   8
LEVEL001
 100
AcDbLine
   6
DASHDOT
  62
3
  10
 154.13114175795
  20
 60.518865846210
  30
0.0
  11
 185.40561671054
  21
 91.793340798806
  31
0.0
   0
LINE
   5
1CD
 100
AcDbEntity
   8
LEVEL001
 100
AcDbLine
   6
DASHDOT
  62
3
  10
 154.13114175795
  20
 59.104652286210
  30
0.0
  11
 185.95434668567
  21
 90.927857213936
  31
0.0
   0
LINE
   5
1CE
 100
AcDbEntity
   8
LEVEL001
 100
AcDbLine
   6
DASHDOT
  62
3
  10
 154.13114175795
  20
 57.690438726210
  30
0.0
  11
 186.36557075986
  21
 89.924867728120
  31
0.0
   0
LINE
   5
1CF
 100
AcDbEntity
   8
LEVEL001
 100
AcDbLine
   6
DASHDOT
  62
3
  10
 154.13114175795
  20
 56.276225166210
  30
0.0
  11
 186.60227931669
  21
 88.747362724949
  31
0.0
   0
LINE
   5
1D0
 100
AcDbEntity
   8
LEVEL001
 100
AcDbLine
   6
DASHDOT
  62
3
  10
 154.13114175795
  20
 54.862011606210
  30
0.0
  11
 186.63114175795
  21
 87.362011606210
  31
0.0
   0
LINE
   5
1D1
 100
AcDbEntity
   8
LEVEL001
 100
AcDbLine
   6
DASHDOT
  62
3
  10
 154.13114175795
  20
 53.447798046210
  30
0.0
  11
 186.63114175795
  21
 85.947798046210
  31
0.0
   0
LINE
   5
1D2
 100
AcDbEntity
   8
LEVEL001
 100
AcDbLine
   6
DASHDOT
  62
3
  10
 154.01029153371
  20
 51.912734261967
  30
0.0
  11
 186.63114175795
  21
 84.533584486210
  31
0.0
   0
LINE
   5
1D3
 100
AcDbEntity
   8
LEVEL001
 100
AcDbLine
   6
DASHDOT
  62
3
  10
 154.13114175795
  20
 50.619370926210
  30
0.0
  11
 186.64412587890
  21
 83.132355047166
  31
0.0
   0
LINE
   5
1D4
 100
AcDbEntity
   8
LEVEL001
 100
AcDbLine
   6
DASHDOT
  62
3
  10
 154.13114175795
  20
 49.205157366210
  30
0.0
  11
 186.67278752198
  21
 81.746803130245
  31
0.0
   0
LINE
   5
1D5
 100
AcDbEntity
   8
LEVEL001
 100
AcDbLine
   6
DASHDOT
  62
3
  10
 154.13114175795
  20
 47.790943806210
  30
0.0
  11
 186.63114175795
  21
 80.290943806210
  31
0.0
   0
LINE
   5
1D6
 100
AcDbEntity
   8
LEVEL001
 100
AcDbLine
   6
DASHDOT
  62
3
  10
 154.13751403796
  20
 46.383102526224
  30
0.0
  11
 186.63114175795
  21
 78.876730246210
  31
0.0
   0
LINE
   5
1D7
 100
AcDbEntity
   8
LEVEL001
 100
AcDbLine
   6
DASHDOT
  62
3
  10
 154.32300560601
  20
 45.154380534276
  30
0.0
  11
 186.63114175795
  21
 77.462516686210
  31
0.0
   0
LINE
   5
1D8
 100
AcDbEntity
   8
LEVEL001
 100
AcDbLine
   6
DASHDOT
  62
3
  10
 154.69755975873
  20
 44.114721126991
  30
0.0
  11
 186.63114175795
  21
 76.048303126210
  31
0.0
   0
LINE
   5
1D9
 100
AcDbEntity
   8
LEVEL001
 100
AcDbLine
   6
DASHDOT
  62
3
  10
 155.21578495036
  20
 43.218732758624
  30
0.0
  11
 186.63114175795
  21
 74.634089566210
  31
0.0
   0
LINE
   5
1DA
 100
AcDbEntity
   8
LEVEL001
 100
AcDbLine
   6
DASHDOT
  62
3
  10
 155.85844847696
  20
 42.447182725223
  30
0.0
  11
 186.63114175795
  21
 73.219876006210
  31
0.0
   0
LINE
   5
1DB
 100
AcDbEntity
   8
LEVEL001
 100
AcDbLine
   6
DASHDOT
  62
3
  10
 156.61980236647
  20
 41.794323054735
  30
0.0
  11
 186.63114175795
  21
 71.805662446210
  31
0.0
   0
LINE
   5
1DC
 100
AcDbEntity
   8
LEVEL001
 100
AcDbLine
   6
DASHDOT
  62
3
  10
 157.50466000178
  20
 41.264967130040
  30
0.0
  11
 186.63114175795
  21
 70.391448886210
  31
0.0
   0
LINE
   5
1DD
 100
AcDbEntity
   8
LEVEL001
 100
AcDbLine
   6
DASHDOT
  62
3
  10
 158.53081919106
  20
 40.876912759320
  30
0.0
  11
 186.63114175795
  21
 68.977235326210
  31
0.0
   0
LINE
   5
1DE
 100
AcDbEntity
   8
LEVEL001
 100
AcDbLine
   6
DASHDOT
  62
3
  10
 159.74041238056
  20
 40.672292388824
  30
0.0
  11
 186.63114175795
  21
 67.563021766210
  31
0.0
   0
LINE
   5
1DF
 100
AcDbEntity
   8
LEVEL001
 100
AcDbLine
   6
DASHDOT
  62
3
  10
 161.14188996962
  20
 40.659556417882
  30
0.0
  11
 186.63114175795
  21
 66.148808206210
  31
0.0
   0
LINE
   5
1E0
 100
AcDbEntity
   8
LEVEL001
 100
AcDbLine
   6
DASHDOT
  62
3
  10
 162.55610352962
  20
 40.659556417882
  30
0.0
  11
 186.63114175795
  21
 64.734594646210
  31
0.0
   0
LINE
   5
1E1
 100
AcDbEntity
   8
LEVEL001
 100
AcDbLine
   6
DASHDOT
  62
3
  10
 163.97031708962
  20
 40.659556417882
  30
0.0
  11
 186.63114175795
  21
 63.320381086210
  31
0.0
   0
LINE
   5
1E2
 100
AcDbEntity
   8
LEVEL001
 100
AcDbLine
   6
DASHDOT
  62
3
  10
 165.38453064962
  20
 40.659556417882
  30
0.0
  11
 186.63114175795
  21
 61.906167526210
  31
0.0
   0
LINE
   5
1E3
 100
AcDbEntity
   8
LEVEL001
 100
AcDbLine
   6
DASHDOT
  62
3
  10
 166.79874420962
  20
 40.659556417882
  30
0.0
  11
 186.63114175795
  21
 60.491953966210
  31
0.0
   0
LINE
   5
1E4
 100
AcDbEntity
   8
LEVEL001
 100
AcDbLine
   6
DASHDOT
  62
3
  10
 167.88221264837
  20
 40.328811296627
  30
0.0
  11
 186.63114175795
  21
 59.077740406210
  31
0.0
   0
LINE
   5
1E5
 100
AcDbEntity
   8
LEVEL001
 100
AcDbLine
   6
DASHDOT
  62
3
  10
 168.86316577574
  20
 39.895550863999
  30
0.0
  11
 186.63114175795
  21
 57.663526846210
  31
0.0
   0
LINE
   5
1E6
 100
AcDbEntity
   8
LEVEL001
 100
AcDbLine
   6
DASHDOT
  62
3
  10
 170.05221584613
  20
 39.670387374390
  30
0.0
  11
 186.63114175795
  21
 56.249313286210
  31
0.0
   0
LINE
   5
1E7
 100
AcDbEntity
   8
LEVEL001
 100
AcDbLine
   6
DASHDOT
  62
3
  10
 171.60860659016
  20
 39.812564558420
  30
0.0
  11
 186.63114175795
  21
 54.835099726210
  31
0.0
   0
LINE
   5
1E8
 100
AcDbEntity
   8
LEVEL001
 100
AcDbLine
   6
DASHDOT
  62
3
  10
 173.86981200962
  20
 40.659556417882
  30
0.0
  11
 186.63114175795
  21
 53.420886166210
  31
0.0
   0
LINE
   5
1E9
 100
AcDbEntity
   8
LEVEL001
 100
AcDbLine
   6
DASHDOT
  62
3
  10
 175.28402556962
  20
 40.659556417882
  30
0.0
  11
 186.94815092994
  21
 52.323681778204
  31
0.0
   0
LINE
   5
1EA
 100
AcDbEntity
   8
LEVEL001
 100
AcDbLine
   6
DASHDOT
  62
3
  10
 176.69823912962
  20
 40.659556417882
  30
0.0
  11
 186.63114175795
  21
 50.592459046210
  31
0.0
   0
LINE
   5
1EB
 100
AcDbEntity
   8
LEVEL001
 100
AcDbLine
   6
DASHDOT
  62
3
  10
 178.11245268962
  20
 40.659556417882
  30
0.0
  11
 186.63114175795
  21
 49.178245486210
  31
0.0
   0
LINE
   5
1EC
 100
AcDbEntity
   8
LEVEL001
 100
AcDbLine
   6
DASHDOT
  62
3
  10
 179.52666624962
  20
 40.659556417882
  30
0.0
  11
 186.63114175795
  21
 47.764031926210
  31
0.0
   0
LINE
   5
1ED
 100
AcDbEntity
   8
LEVEL001
 100
AcDbLine
   6
DASHDOT
  62
3
  10
 180.94932232189
  20
 40.667998930156
  30
0.0
  11
 186.62269924567
  21
 46.341375853936
  31
0.0
   0
LINE
   5
1EE
 100
AcDbEntity
   8
LEVEL001
 100
AcDbLine
   6
DASHDOT
  62
3
  10
 182.73666008490
  20
 41.041123133159
  30
0.0
  11
 186.24957504267
  21
 44.554038090933
  31
0.0
   0
ENDBLK
   5
1EF
 100
AcDbEntity
   8
0
 100
AcDbBlockEnd
   0
BLOCK
   5
1F0
 100
AcDbEntity
   8
0
 100
AcDbBlockBegin
   2
*D26
  70
65
  10
0.0
  20
0.0
  30
0.0
   3
*D26
   0
LINE
   5
1F1
 100
AcDbEntity
   8
LEVEL001
 100
AcDbLine
   6
CONTINUOUS
  62
3
  10
 187.48114175795
  20
 94.459556417882
  30
0.0
  11
 205.41450778436
  21
 94.459556417882
  31
0.0
   0
LINE
   5
1F2
 100
AcDbEntity
   8
LEVEL001
 100
AcDbLine
   6
CONTINUOUS
  62
3
  10
 187.48114175795
  20
 39.659556417882
  30
0.0
  11
 205.41450778436
  21
 39.659556417882
  31
0.0
   0
LINE
   5
1F3
 100
AcDbEntity
   8
LEVEL001
 100
AcDbLine
   6
CONTINUOUS
  62
3
  10
 204.41450778436
  20
 94.459556417882
  30
0.0
  11
 204.41450778436
  21
 67.059556417882
  31
0.0
   0
LINE
   5
1F4
 100
AcDbEntity
   8
LEVEL001
 100
AcDbLine
   6
CONTINUOUS
  62
3
  10
 204.41450778436
  20
 39.659556417882
  30
0.0
  11
 204.41450778436
  21
 67.059556417882
  31
0.0
   0
INSERT
   5
1F5
 100
AcDbEntity
   8
LEVEL001
   6
CONTINUOUS
  62
3
 100
AcDbBlockReference
   2
_OPEN30
  10
 204.41450778436
  20
 94.459556417882
  30
0.0
  41
 3.0000000000000
  42
 3.0000000000000
  43
 3.0000000000000
  50
 90.000000000000
   0
INSERT
   5
1F6
 100
AcDbEntity
   8
LEVEL001
   6
CONTINUOUS
  62
3
 100
AcDbBlockReference
   2
_OPEN30
  10
 204.41450778436
  20
 39.659556417882
  30
0.0
  41
 3.0000000000000
  42
 3.0000000000000
  43
 3.0000000000000
  50
 270.00000000000
   0
MTEXT
   5
1F7
 100
AcDbEntity
   8
LEVEL001
  62
3
 100
AcDbMText
  10
 202.70022207007
  20
 67.059556417882
  30
0.0
  40
 4.0000000000000
  41
0.0
  71
8
  72
1
   1
\A1;54.8
   7
GMM001
  11
0.0
  21
 1.0000000000000
  31
0.0
   0
ENDBLK
   5
1F8
 100
AcDbEntity
   8
0
 100
AcDbBlockEnd
   0
BLOCK
   5
1F9
 100
AcDbEntity
   8
0
 100
AcDbBlockBegin
   2
*D27
  70
65
  10
0.0
  20
0.0
  30
0.0
   3
*D27
   0
LINE
   5
1FA
 100
AcDbEntity
   8
LEVEL001
 100
AcDbLine
   6
CONTINUOUS
  62
3
  10
 186.98114175795
  20
 94.959556417882
  30
0.0
  11
 186.98114175795
  21
 107.57308947085
  31
0.0
   0
LINE
   5
1FB
 100
AcDbEntity
   8
LEVEL001
 100
AcDbLine
   6
CONTINUOUS
  62
3
  10
 153.78114175795
  20
 94.959556417882
  30
0.0
  11
 153.78114175795
  21
 107.57308947085
  31
0.0
   0
LINE
   5
1FC
 100
AcDbEntity
   8
LEVEL001
 100
AcDbLine
   6
CONTINUOUS
  62
3
  10
 186.98114175795
  20
 106.57308947085
  30
0.0
  11
 170.38114175795
  21
 106.57308947085
  31
0.0
   0
LINE
   5
1FD
 100
AcDbEntity
   8
LEVEL001
 100
AcDbLine
   6
CONTINUOUS
  62
3
  10
 153.78114175795
  20
 106.57308947085
  30
0.0
  11
 170.38114175795
  21
 106.57308947085
  31
0.0
   0
INSERT
   5
1FE
 100
AcDbEntity
   8
LEVEL001
   6
CONTINUOUS
  62
3
 100
AcDbBlockReference
   2
_OPEN30
  10
 186.98114175795
  20
 106.57308947085
  30
0.0
  41
 3.0000000000000
  42
 3.0000000000000
  43
 3.0000000000000
  50
0.0
   0
INSERT
   5
1FF
 100
AcDbEntity
   8
LEVEL001
   6
CONTINUOUS
  62
3
 100
AcDbBlockReference
   2
_OPEN30
  10
 153.78114175795
  20
 106.57308947085
  30
0.0
  41
 3.0000000000000
  42
 3.0000000000000
  43
 3.0000000000000
  50
 180.00000000000
   0
MTEXT
   5
200
 100
AcDbEntity
   8
LEVEL001
  62
3
 100
AcDbMText
  10
 170.38114175795
  20
 108.28737518514
  30
0.0
  40
 4.0000000000000
  41
0.0
  71
8
  72
1
   1
\A1;33.2
   7
GMM001
   0
ENDBLK
   5
201
 100
AcDbEntity
   8
0
 100
AcDbBlockEnd
   0
BLOCK
   5
202
 100
AcDbEntity
   8
0
 100
AcDbBlockBegin
   2
*D28
  70
65
  10
0.0
  20
0.0
  30
0.0
   3
*D28
   0
POLYLINE
   5
203
 100
AcDbEntity
   8
LEVEL001
   6
CONTINUOUS
  62
3
 100
AcDb2dPolyline
  66
1
  10
0.0
  20
0.0
  30
0.0
  70
0
   0
VERTEX
   5
204
 100
AcDbEntity
   8
LEVEL001
   6
CONTINUOUS
  62
3
 100
AcDbVertex
 100
AcDb2dVertex
  10
 237.18725504088
  20
 217.08459383060
  30
0.0
   0
VERTEX
   5
205
 100
AcDbEntity
   8
LEVEL001
   6
CONTINUOUS
  62
3
 100
AcDbVertex
 100
AcDb2dVertex
  10
 228.54018122173
  20
 210.41166327960
  30
0.0
   0
VERTEX
   5
206
 100
AcDbEntity
   8
LEVEL001
   6
CONTINUOUS
  62
3
 100
AcDbVertex
 100
AcDb2dVertex
  10
 218.39785030991
  20
 251.76072422527
  30
0.0
   0
VERTEX
   5
207
 100
AcDbEntity
   8
LEVEL001
   6
CONTINUOUS
  62
3
 100
AcDbVertex
 100
AcDb2dVertex
  10
 188.19785030991
  20
 251.76072422527
  30
0.0
   0
SEQEND
   5
208
 100
AcDbEntity
   8
LEVEL001
   6
CONTINUOUS
  62
3
   0
INSERT
   5
209
 100
AcDbEntity
   8
LEVEL001
   6
CONTINUOUS
  62
3
 100
AcDbBlockReference
   2
_OPEN30
  10
 237.18725504088
  20
 217.08459383060
  30
0.0
  41
 3.0000000000000
  42
 3.0000000000000
  43
 3.0000000000000
  50
 37.657301270488
   0
MTEXT
   5
20A
 100
AcDbEntity
   8
LEVEL001
  62
3
 100
AcDbMText
  10
 188.19785030991
  20
 253.47500993956
  30
0.0
  40
 4.0000000000000
  41
0.0
  71
7
  72
1
   1
\A1;%%c４.５穴%%c７.２皿
   7
GMM001
   0
ENDBLK
   5
20B
 100
AcDbEntity
   8
0
 100
AcDbBlockEnd
   0
ENDSEC
   0
SECTION
   2
ENTITIES
   0
TEXT
   5
20C
 100
AcDbEntity
   8
LEVEL001
  62
14
 100
AcDbText
  10
 344.71176946949
  20
 63.545479920601
  30
0.0
  40
 3.8000000000000
   1
品　　番
   7
STANDARD
 100
AcDbText
   0
TEXT
   5
20D
 100
AcDbEntity
   8
LEVEL001
  62
14
 100
AcDbText
  10
 338.67174953758
  20
 70.647234306567
  30
0.0
  40
 3.8000000000000
   1
表１
   7
STANDARD
 100
AcDbText
   0
TEXT
   5
20E
 100
AcDbEntity
   8
LEVEL001
  62
14
 100
AcDbText
  10
 372.13133632062
  20
 63.545479920601
  30
0.0
  40
 3.8000000000000
   1
仕上げ／色調
   7
STANDARD
 100
AcDbText
   0
TEXT
   5
20F
 100
AcDbEntity
   8
LEVEL001
  62
14
 100
AcDbText
  10
 370.31076696323
  20
 56.986582677494
  30
0.0
  40
 3.8000000000000
   1
サテンシルバー
   7
STANDARD
 100
AcDbText
   0
TEXT
   5
210
 100
AcDbEntity
   8
LEVEL001
  62
14
 100
AcDbText
  10
 370.31076696323
  20
 50.986582677494
  30
0.0
  40
 3.8000000000000
   1
サテンゴールド
   7
STANDARD
 100
AcDbText
   0
LINE
   5
211
 100
AcDbEntity
   8
LEVEL001
 100
AcDbLine
   6
CONTINUOUS
  62
3
  10
 337.48647207202
  20
 50.402189997270
  30
0.0
  11
 337.48647207202
  21
 69.402189997270
  31
0.0
   0
LINE
   5
212
 100
AcDbEntity
   8
LEVEL001
 100
AcDbLine
   6
CONTINUOUS
  62
3
  10
 367.48647207202
  20
 69.402189997270
  30
0.0
  11
 367.48647207202
  21
 50.402189997270
  31
0.0
   0
LINE
   5
213
 100
AcDbEntity
   8
LEVEL001
 100
AcDbLine
   6
CONTINUOUS
  62
3
  10
 400.32466751280
  20
 69.402189997270
  30
0.0
  11
 400.32466751280
  21
 50.402189997270
  31
0.0
   0
LINE
   5
214
 100
AcDbEntity
   8
LEVEL001
 100
AcDbLine
   6
CONTINUOUS
  62
3
  10
 337.48647207202
  20
 50.402189997270
  30
0.0
  11
 400.32466751280
  21
 50.402189997270
  31
0.0
   0
LINE
   5
215
 100
AcDbEntity
   8
LEVEL001
 100
AcDbLine
   6
CONTINUOUS
  62
3
  10
 337.48647207202
  20
 56.402189997270
  30
0.0
  11
 400.32466751280
  21
 56.402189997270
  31
0.0
   0
LINE
   5
216
 100
AcDbEntity
   8
LEVEL001
 100
AcDbLine
   6
CONTINUOUS
  62
3
  10
 337.48647207202
  20
 62.402189997270
  30
0.0
  11
 400.32466751280
  21
 62.402189997270
  31
0.0
   0
LINE
   5
217
 100
AcDbEntity
   8
LEVEL001
 100
AcDbLine
   6
CONTINUOUS
  62
3
  10
 337.48647207202
  20
 69.402189997270
  30
0.0
  11
 400.32466751280
  21
 69.402189997270
  31
0.0
   0
TEXT
   5
218
 100
AcDbEntity
   8
LEVEL001
  62
14
 100
AcDbText
  10
 339.09611663354
  20
 56.986582677494
  30
0.0
  40
 3.8000000000000
   1
２２２－７７２
   7
STANDARD
 100
AcDbText
   0
TEXT
   5
219
 100
AcDbEntity
   8
LEVEL001
  62
14
 100
AcDbText
  10
 339.09611663354
  20
 50.986582677494
  30
0.0
  40
 3.8000000000000
   1
２２２－７２３
   7
STANDARD
 100
AcDbText
   0
LINE
   5
21A
 100
AcDbEntity
   8
LEVEL001
 100
AcDbLine
   6
CONTINUOUS
  62
7
  10
 64.515629923216
  20
 138.83986774452
  30
0.0
  11
 67.279366186952
  21
 138.83986774452
  31
0.0
   0
LINE
   5
21B
 100
AcDbEntity
   8
LEVEL001
 100
AcDbLine
   6
CONTINUOUS
  62
7
  10
 64.515629923216
  20
 136.33986774452
  30
0.0
  11
 84.015629923216
  21
 136.33986774452
  31
0.0
   0
LINE
   5
21C
 100
AcDbEntity
   8
LEVEL001
 100
AcDbLine
   6
CONTINUOUS
  62
7
  10
 64.515629923216
  20
 136.33986774452
  30
0.0
  11
 45.015629923216
  21
 136.33986774452
  31
0.0
   0
LINE
   5
21D
 100
AcDbEntity
   8
LEVEL001
 100
AcDbLine
   6
CONTINUOUS
  62
7
  10
 84.015629923216
  20
 136.33986774452
  30
0.0
  11
 84.015629923216
  21
 137.33986774452
  31
0.0
   0
LINE
   5
21E
 100
AcDbEntity
   8
LEVEL001
 100
AcDbLine
   6
CONTINUOUS
  62
7
  10
 64.515629923216
  20
 138.83986774452
  30
0.0
  11
 48.365629923216
  21
 138.83986774452
  31
0.0
   0
LINE
   5
21F
 100
AcDbEntity
   8
LEVEL001
 100
AcDbLine
   6
CONTINUOUS
  62
7
  10
 45.015629923216
  20
 136.33986774452
  30
0.0
  11
 45.015629923216
  21
 137.40359928907
  31
0.0
   0
ARC
   5
220
 100
AcDbEntity
   8
LEVEL001
   6
CONTINUOUS
  62
7
 100
AcDbCircle
  10
 45.515629923215
  20
 137.40359928907
  30
0.0
  40
 0.50000000000000
 100
AcDbArc
  50
 98.993113353711
  51
 179.99999999999
   0
ARC
   5
221
 100
AcDbEntity
   8
LEVEL001
   6
CONTINUOUS
  62
7
 100
AcDbCircle
  10
 43.874314558127
  20
 147.77452421756
  30
0.0
  40
 10.000000000000
 100
AcDbArc
  50
 278.99311335383
  51
 296.68797787677
   0
ARC
   5
222
 100
AcDbEntity
   8
LEVEL001
   6
CONTINUOUS
  62
7
 100
AcDbCircle
  10
 85.156945288304
  20
 147.77452421756
  30
0.0
  40
 10.000000000000
 100
AcDbArc
  50
 243.31202212323
  51
 261.00688664617
   0
ARC
   5
223
 100
AcDbEntity
   8
LEVEL001
   6
CONTINUOUS
  62
7
 100
AcDbCircle
  10
 83.515629923216
  20
 137.40359928907
  30
0.0
  40
 0.50000000000000
 100
AcDbArc
  50
 0.97706639814743E-11
  51
 81.006886646279
   0
LINE
   5
224
 100
AcDbEntity
   8
LEVEL001
 100
AcDbLine
   6
CONTINUOUS
  62
7
  10
 64.515629923216
  20
 138.83986774452
  30
0.0
  11
 80.665629923216
  21
 138.83986774452
  31
0.0
   0
ARC
   5
225
 100
AcDbEntity
   8
LEVEL001
   6
CONTINUOUS
  62
7
 100
AcDbCircle
  10
 82.515629923216
  20
 137.33986774452
  30
0.0
  40
 1.5000000000000
 100
AcDbArc
  50
0.0
  51
 5.7496181299215
   0
LINE
   5
226
 100
AcDbEntity
   8
LEVEL001
 100
AcDbLine
   6
CONTINUOUS
  62
7
  10
 80.665629923216
  20
 137.83986774452
  30
0.0
  11
 83.759904020872
  21
 137.83986774452
  31
0.0
   0
LINE
   5
227
 100
AcDbEntity
   8
LEVEL001
 100
AcDbLine
   6
CONTINUOUS
  62
7
  10
 78.665629923216
  20
 137.83986774452
  30
0.0
  11
 80.665629923216
  21
 137.83986774452
  31
0.0
   0
LINE
   5
228
 100
AcDbEntity
   8
LEVEL001
 100
AcDbLine
   6
CONTINUOUS
  62
7
  10
 69.015629923216
  20
 137.83986774452
  30
0.0
  11
 78.665629923216
  21
 137.83986774452
  31
0.0
   0
LINE
   5
229
 100
AcDbEntity
   8
LEVEL001
 100
AcDbLine
   6
CONTINUOUS
  62
7
  10
 67.015629923216
  20
 137.83986774452
  30
0.0
  11
 69.015629923216
  21
 137.83986774452
  31
0.0
   0
LINE
   5
22A
 100
AcDbEntity
   8
LEVEL001
 100
AcDbLine
   6
CONTINUOUS
  62
7
  10
 64.515629923216
  20
 137.83986774452
  30
0.0
  11
 67.015629923216
  21
 137.83986774452
  31
0.0
   0
LINE
   5
22B
 100
AcDbEntity
   8
LEVEL001
 100
AcDbLine
   6
CONTINUOUS
  62
7
  10
 62.015629923216
  20
 137.83986774452
  30
0.0
  11
 64.515629923216
  21
 137.83986774452
  31
0.0
   0
LINE
   5
22C
 100
AcDbEntity
   8
LEVEL001
 100
AcDbLine
   6
CONTINUOUS
  62
7
  10
 60.015629923216
  20
 137.83986774452
  30
0.0
  11
 62.015629923216
  21
 137.83986774452
  31
0.0
   0
LINE
   5
22D
 100
AcDbEntity
   8
LEVEL001
 100
AcDbLine
   6
CONTINUOUS
  62
7
  10
 50.365629923216
  20
 137.83986774452
  30
0.0
  11
 60.015629923216
  21
 137.83986774452
  31
0.0
   0
LINE
   5
22E
 100
AcDbEntity
   8
LEVEL001
 100
AcDbLine
   6
CONTINUOUS
  62
7
  10
 49.365629923216
  20
 137.83986774452
  30
0.0
  11
 50.365629923216
  21
 137.83986774452
  31
0.0
   0
LINE
   5
22F
 100
AcDbEntity
   8
LEVEL001
 100
AcDbLine
   6
CONTINUOUS
  62
7
  10
 48.365629923216
  20
 137.83986774452
  30
0.0
  11
 49.365629923216
  21
 137.83986774452
  31
0.0
   0
LINE
   5
230
 100
AcDbEntity
   8
LEVEL001
 100
AcDbLine
   6
CONTINUOUS
  62
7
  10
 45.271355825560
  20
 137.83986774452
  30
0.0
  11
 48.365629923216
  21
 137.83986774452
  31
0.0
   0
LINE
   5
231
 100
AcDbEntity
   8
LEVEL001
 100
AcDbLine
   6
CONTINUOUS
  62
7
  10
 73.765629923216
  20
 134.83986774452
  30
0.0
  11
 73.765629923216
  21
 136.33986774452
  31
0.0
   0
LINE
   5
232
 100
AcDbEntity
   8
LEVEL001
 100
AcDbLine
   6
CONTINUOUS
  62
7
  10
 75.265629923216
  20
 134.83986774452
  30
0.0
  11
 75.265629923216
  21
 136.33986774452
  31
0.0
   0
LINE
   5
233
 100
AcDbEntity
   8
LEVEL001
 100
AcDbLine
   6
CONTINUOUS
  62
7
  10
 53.765629923216
  20
 134.83986774452
  30
0.0
  11
 53.765629923216
  21
 136.33986774452
  31
0.0
   0
LINE
   5
234
 100
AcDbEntity
   8
LEVEL001
 100
AcDbLine
   6
CONTINUOUS
  62
7
  10
 55.265629923216
  20
 134.83986774452
  30
0.0
  11
 55.265629923216
  21
 136.33986774452
  31
0.0
   0
LINE
   5
235
 100
AcDbEntity
   8
LEVEL001
 100
AcDbLine
   6
CONTINUOUS
  62
7
  10
 54.515629923216
  20
 124.83986774472
  30
0.0
  11
 53.765629923216
  21
 125.58986774472
  31
0.0
   0
LINE
   5
236
 100
AcDbEntity
   8
LEVEL001
 100
AcDbLine
   6
CONTINUOUS
  62
7
  10
 54.515629923216
  20
 124.83986774472
  30
0.0
  11
 55.265629923216
  21
 125.58986774472
  31
0.0
   0
LINE
   5
237
 100
AcDbEntity
   8
LEVEL001
 100
AcDbLine
   6
CONTINUOUS
  62
7
  10
 74.515629923216
  20
 124.83986774472
  30
0.0
  11
 73.765629923216
  21
 125.58986774472
  31
0.0
   0
LINE
   5
238
 100
AcDbEntity
   8
LEVEL001
 100
AcDbLine
   6
CONTINUOUS
  62
7
  10
 74.515629923216
  20
 124.83986774472
  30
0.0
  11
 75.265629923216
  21
 125.58986774472
  31
0.0
   0
LINE
   5
239
 100
AcDbEntity
   8
LEVEL001
 100
AcDbLine
   6
CONTINUOUS
  62
7
  10
 75.265629923216
  20
 125.58986774472
  30
0.0
  11
 75.265629923216
  21
 134.83986774452
  31
0.0
   0
LINE
   5
23A
 100
AcDbEntity
   8
LEVEL001
 100
AcDbLine
   6
CONTINUOUS
  62
7
  10
 73.765629923216
  20
 125.58986774472
  30
0.0
  11
 73.765629923216
  21
 134.83986774452
  31
0.0
   0
LINE
   5
23B
 100
AcDbEntity
   8
LEVEL001
 100
AcDbLine
   6
CONTINUOUS
  62
7
  10
 55.265629923216
  20
 125.58986774472
  30
0.0
  11
 55.265629923216
  21
 134.83986774452
  31
0.0
   0
LINE
   5
23C
 100
AcDbEntity
   8
LEVEL001
 100
AcDbLine
   6
CONTINUOUS
  62
7
  10
 53.765629923216
  20
 125.58986774472
  30
0.0
  11
 53.765629923216
  21
 134.83986774452
  31
0.0
   0
LINE
   5
23D
 100
AcDbEntity
   8
LEVEL001
 100
AcDbLine
   6
CONTINUOUS
  62
7
  10
 61.515629923216
  20
 136.33986774452
  30
0.0
  11
 61.515629923216
  21
 127.83986774452
  31
0.0
   0
LINE
   5
23E
 100
AcDbEntity
   8
LEVEL001
 100
AcDbLine
   6
CONTINUOUS
  62
7
  10
 67.515629923216
  20
 136.33986774452
  30
0.0
  11
 67.515629923216
  21
 127.83986774452
  31
0.0
   0
LINE
   5
23F
 100
AcDbEntity
   8
LEVEL001
 100
AcDbLine
   6
CONTINUOUS
  62
7
  10
 61.515629923216
  20
 127.83986774452
  30
0.0
  11
 67.515629923216
  21
 127.83986774452
  31
0.0
   0
LINE
   5
240
 100
AcDbEntity
   8
LEVEL001
 100
AcDbLine
   6
CONTINUOUS
  62
7
  10
 80.665629923216
  20
 205.14512986186
  30
0.0
  11
 80.665629923216
  21
 179.99512986186
  31
0.0
   0
ARC
   5
241
 100
AcDbEntity
   8
LEVEL001
   6
CONTINUOUS
  62
7
 100
AcDbCircle
  10
 79.165629923215
  20
 179.99512986186
  30
0.0
  40
 1.5000000000000
 100
AcDbArc
  50
 270.00000000001
  51
0.0
   0
LINE
   5
242
 100
AcDbEntity
   8
LEVEL001
 100
AcDbLine
   6
CONTINUOUS
  62
7
  10
 64.515629923216
  20
 178.49512986186
  30
0.0
  11
 79.165629923216
  21
 178.49512986186
  31
0.0
   0
ARC
   5
243
 100
AcDbEntity
   8
LEVEL001
   6
CONTINUOUS
  62
7
 100
AcDbCircle
  10
 49.865629923215
  20
 179.99512986186
  30
0.0
  40
 1.5000000000000
 100
AcDbArc
  50
 180.00000000000
  51
 270.00000000000
   0
LINE
   5
244
 100
AcDbEntity
   8
LEVEL001
 100
AcDbLine
   6
CONTINUOUS
  62
7
  10
 64.515629923216
  20
 178.49512986186
  30
0.0
  11
 49.865629923216
  21
 178.49512986186
  31
0.0
   0
LINE
   5
245
 100
AcDbEntity
   8
LEVEL001
 100
AcDbLine
   6
CONTINUOUS
  62
7
  10
 48.365629923216
  20
 205.14512986186
  30
0.0
  11
 48.365629923216
  21
 179.99512986186
  31
0.0
   0
ARC
   5
246
 100
AcDbEntity
   8
LEVEL001
   6
CONTINUOUS
  62
7
 100
AcDbCircle
  10
 49.865629923216
  20
 230.29512986186
  30
0.0
  40
 1.5000000000000
 100
AcDbArc
  50
 90.000000000036
  51
 180.00000000000
   0
LINE
   5
247
 100
AcDbEntity
   8
LEVEL001
 100
AcDbLine
   6
CONTINUOUS
  62
7
  10
 48.365629923216
  20
 205.14512986186
  30
0.0
  11
 48.365629923216
  21
 230.29512986186
  31
0.0
   0
LINE
   5
248
 100
AcDbEntity
   8
LEVEL001
 100
AcDbLine
   6
CONTINUOUS
  62
7
  10
 64.515629923216
  20
 231.79512986186
  30
0.0
  11
 49.865629923216
  21
 231.79512986186
  31
0.0
   0
ARC
   5
249
 100
AcDbEntity
   8
LEVEL001
   6
CONTINUOUS
  62
7
 100
AcDbCircle
  10
 79.165629923214
  20
 230.29512986186
  30
0.0
  40
 1.5000000000000
 100
AcDbArc
  50
0.0
  51
 89.999999999950
   0
LINE
   5
24A
 100
AcDbEntity
   8
LEVEL001
 100
AcDbLine
   6
CONTINUOUS
  62
7
  10
 64.515629923216
  20
 231.79512986186
  30
0.0
  11
 79.165629923216
  21
 231.79512986186
  31
0.0
   0
LINE
   5
24B
 100
AcDbEntity
   8
LEVEL001
 100
AcDbLine
   6
CONTINUOUS
  62
7
  10
 80.665629923216
  20
 205.14512986186
  30
0.0
  11
 80.665629923216
  21
 230.29512986186
  31
0.0
   0
LINE
   5
24C
 100
AcDbEntity
   8
LEVEL001
 100
AcDbLine
   6
DASHDOT
  62
3
  10
 41.789601059920
  20
 205.14512986186
  30
0.0
  11
 88.180862940879
  21
 205.14512986186
  31
0.0
   0
LINE
   5
24D
 100
AcDbEntity
   8
LEVEL001
 100
AcDbLine
   6
DASHDOT
  62
3
  10
 43.327083238234
  20
 225.14512986186
  30
0.0
  11
 85.688975260514
  21
 225.14512986186
  31
0.0
   0
LINE
   5
24E
 100
AcDbEntity
   8
LEVEL001
 100
AcDbLine
   6
CONTINUOUS
  62
7
  10
 45.015629923216
  20
 178.14512986186
  30
0.0
  11
 45.015629923216
  21
 205.14512986186
  31
0.0
   0
ARC
   5
24F
 100
AcDbEntity
   8
LEVEL001
   6
CONTINUOUS
  62
7
 100
AcDbCircle
  10
 48.015629923215
  20
 178.14512986186
  30
0.0
  40
 3.0000000000000
 100
AcDbArc
  50
 180.00000000000
  51
 270.00000000000
   0
POINT
   5
250
 100
AcDbEntity
   8
LEVEL001
 100
AcDbPoint
  62
7
  10
 45.015629923216
  20
 175.14512986186
  30
0.0
   0
LINE
   5
251
 100
AcDbEntity
   8
LEVEL001
 100
AcDbLine
   6
CONTINUOUS
  62
7
  10
 48.015629923216
  20
 175.14512986186
  30
0.0
  11
 64.515629923216
  21
 175.14512986186
  31
0.0
   0
LINE
   5
252
 100
AcDbEntity
   8
LEVEL001
 100
AcDbLine
   6
CONTINUOUS
  62
7
  10
 64.515629923216
  20
 175.14512986186
  30
0.0
  11
 81.015629923216
  21
 175.14512986186
  31
0.0
   0
ARC
   5
253
 100
AcDbEntity
   8
LEVEL001
   6
CONTINUOUS
  62
7
 100
AcDbCircle
  10
 81.015629923216
  20
 178.14512986186
  30
0.0
  40
 3.0000000000000
 100
AcDbArc
  50
 270.00000000000
  51
 0.54281466563644E-11
   0
POINT
   5
254
 100
AcDbEntity
   8
LEVEL001
 100
AcDbPoint
  62
7
  10
 84.015629923216
  20
 175.14512986186
  30
0.0
   0
LINE
   5
255
 100
AcDbEntity
   8
LEVEL001
 100
AcDbLine
   6
CONTINUOUS
  62
7
  10
 84.015629923216
  20
 178.14512986186
  30
0.0
  11
 84.015629923216
  21
 205.14512986186
  31
0.0
   0
LINE
   5
256
 100
AcDbEntity
   8
LEVEL001
 100
AcDbLine
   6
CONTINUOUS
  62
7
  10
 64.515629923216
  20
 235.14512986186
  30
0.0
  11
 81.015629923216
  21
 235.14512986186
  31
0.0
   0
ARC
   5
257
 100
AcDbEntity
   8
LEVEL001
   6
CONTINUOUS
  62
7
 100
AcDbCircle
  10
 81.015629923216
  20
 232.14512986186
  30
0.0
  40
 3.0000000000000
 100
AcDbArc
  50
0.0
  51
 90.000000000000
   0
POINT
   5
258
 100
AcDbEntity
   8
LEVEL001
 100
AcDbPoint
  62
7
  10
 84.015629923216
  20
 235.14512986186
  30
0.0
   0
LINE
   5
259
 100
AcDbEntity
   8
LEVEL001
 100
AcDbLine
   6
CONTINUOUS
  62
7
  10
 84.015629923216
  20
 205.14512986186
  30
0.0
  11
 84.015629923216
  21
 232.14512986186
  31
0.0
   0
LINE
   5
25A
 100
AcDbEntity
   8
LEVEL001
 100
AcDbLine
   6
CONTINUOUS
  62
7
  10
 48.015629923216
  20
 235.14512986186
  30
0.0
  11
 64.515629923216
  21
 235.14512986186
  31
0.0
   0
ARC
   5
25B
 100
AcDbEntity
   8
LEVEL001
   6
CONTINUOUS
  62
7
 100
AcDbCircle
  10
 48.015629923216
  20
 232.14512986186
  30
0.0
  40
 3.0000000000000
 100
AcDbArc
  50
 90.000000000000
  51
 179.99999999999
   0
POINT
   5
25C
 100
AcDbEntity
   8
LEVEL001
 100
AcDbPoint
  62
7
  10
 45.015629923216
  20
 235.14512986186
  30
0.0
   0
LINE
   5
25D
 100
AcDbEntity
   8
LEVEL001
 100
AcDbLine
   6
CONTINUOUS
  62
7
  10
 45.015629923216
  20
 205.14512986186
  30
0.0
  11
 45.015629923216
  21
 232.14512986186
  31
0.0
   0
LINE
   5
25E
 100
AcDbEntity
   8
LEVEL001
 100
AcDbLine
   6
CONTINUOUS
  62
7
  10
 50.365629923216
  20
 183.19512986186
  30
0.0
  11
 50.365629923216
  21
 205.14512986186
  31
0.0
   0
ARC
   5
25F
 100
AcDbEntity
   8
LEVEL001
   6
CONTINUOUS
  62
7
 100
AcDbCircle
  10
 53.065629923215
  20
 183.19512986186
  30
0.0
  40
 2.7000000000000
 100
AcDbArc
  50
 180.00000000000
  51
 270.00000000001
   0
POINT
   5
260
 100
AcDbEntity
   8
LEVEL001
 100
AcDbPoint
  62
7
  10
 50.365629923216
  20
 180.49512986186
  30
0.0
   0
LINE
   5
261
 100
AcDbEntity
   8
LEVEL001
 100
AcDbLine
   6
CONTINUOUS
  62
7
  10
 53.065629923216
  20
 180.49512986186
  30
0.0
  11
 64.515629923216
  21
 180.49512986186
  31
0.0
   0
LINE
   5
262
 100
AcDbEntity
   8
LEVEL001
 100
AcDbLine
   6
CONTINUOUS
  62
7
  10
 64.515629923216
  20
 180.49512986186
  30
0.0
  11
 75.965629923216
  21
 180.49512986186
  31
0.0
   0
ARC
   5
263
 100
AcDbEntity
   8
LEVEL001
   6
CONTINUOUS
  62
7
 100
AcDbCircle
  10
 75.965629923216
  20
 183.19512986186
  30
0.0
  40
 2.7000000000000
 100
AcDbArc
  50
 270.00000000000
  51
0.0
   0
POINT
   5
264
 100
AcDbEntity
   8
LEVEL001
 100
AcDbPoint
  62
7
  10
 78.665629923216
  20
 180.49512986186
  30
0.0
   0
LINE
   5
265
 100
AcDbEntity
   8
LEVEL001
 100
AcDbLine
   6
CONTINUOUS
  62
7
  10
 78.665629923216
  20
 183.19512986186
  30
0.0
  11
 78.665629923216
  21
 205.14512986186
  31
0.0
   0
LINE
   5
266
 100
AcDbEntity
   8
LEVEL001
 100
AcDbLine
   6
CONTINUOUS
  62
7
  10
 64.515629923216
  20
 229.79512986186
  30
0.0
  11
 75.965629923216
  21
 229.79512986186
  31
0.0
   0
ARC
   5
267
 100
AcDbEntity
   8
LEVEL001
   6
CONTINUOUS
  62
7
 100
AcDbCircle
  10
 75.965629923216
  20
 227.09512986186
  30
0.0
  40
 2.7000000000000
 100
AcDbArc
  50
 0.33775134750712E-10
  51
 90.000000000000
   0
POINT
   5
268
 100
AcDbEntity
   8
LEVEL001
 100
AcDbPoint
  62
7
  10
 78.665629923216
  20
 229.79512986186
  30
0.0
   0
LINE
   5
269
 100
AcDbEntity
   8
LEVEL001
 100
AcDbLine
   6
CONTINUOUS
  62
7
  10
 78.665629923216
  20
 205.14512986186
  30
0.0
  11
 78.665629923216
  21
 227.09512986186
  31
0.0
   0
LINE
   5
26A
 100
AcDbEntity
   8
LEVEL001
 100
AcDbLine
   6
CONTINUOUS
  62
7
  10
 53.065629923216
  20
 229.79512986186
  30
0.0
  11
 64.515629923216
  21
 229.79512986186
  31
0.0
   0
ARC
   5
26B
 100
AcDbEntity
   8
LEVEL001
   6
CONTINUOUS
  62
7
 100
AcDbCircle
  10
 53.065629923216
  20
 227.09512986186
  30
0.0
  40
 2.7000000000000
 100
AcDbArc
  50
 90.000000000000
  51
 179.99999999997
   0
POINT
   5
26C
 100
AcDbEntity
   8
LEVEL001
 100
AcDbPoint
  62
7
  10
 50.365629923216
  20
 229.79512986186
  30
0.0
   0
LINE
   5
26D
 100
AcDbEntity
   8
LEVEL001
 100
AcDbLine
   6
CONTINUOUS
  62
7
  10
 50.365629923216
  20
 205.14512986186
  30
0.0
  11
 50.365629923216
  21
 227.09512986186
  31
0.0
   0
LINE
   5
26E
 100
AcDbEntity
   8
LEVEL001
 100
AcDbLine
   6
CONTINUOUS
  62
15
  10
 47.915629923216
  20
 136.33986774452
  30
0.0
  11
 48.265629923216
  21
 124.83986774452
  31
0.0
   0
LINE
   5
26F
 100
AcDbEntity
   8
LEVEL001
 100
AcDbLine
   6
CONTINUOUS
  62
15
  10
 81.115629923216
  20
 136.33986774452
  30
0.0
  11
 80.765629923216
  21
 124.83986774452
  31
0.0
   0
LINE
   5
270
 100
AcDbEntity
   8
LEVEL001
 100
AcDbLine
   6
CONTINUOUS
  62
7
  10
 48.265629923216
  20
 136.33986774452
  30
0.0
  11
 48.265629923216
  21
 123.83986774452
  31
0.0
   0
ARC
   5
271
 100
AcDbEntity
   8
LEVEL001
   6
CONTINUOUS
  62
7
 100
AcDbCircle
  10
 49.265629923216
  20
 123.83986774452
  30
0.0
  40
 1.0000000000000
 100
AcDbArc
  50
 180.00000000000
  51
 269.99999999996
   0
POINT
   5
272
 100
AcDbEntity
   8
LEVEL001
 100
AcDbPoint
  62
7
  10
 48.265629923216
  20
 122.83986774452
  30
0.0
   0
LINE
   5
273
 100
AcDbEntity
   8
LEVEL001
 100
AcDbLine
   6
CONTINUOUS
  62
7
  10
 64.515629923216
  20
 122.83986774452
  30
0.0
  11
 49.265629923216
  21
 122.83986774452
  31
0.0
   0
LINE
   5
274
 100
AcDbEntity
   8
LEVEL001
 100
AcDbLine
   6
CONTINUOUS
  62
7
  10
 64.515629923216
  20
 122.83986774452
  30
0.0
  11
 79.765629923216
  21
 122.83986774452
  31
0.0
   0
ARC
   5
275
 100
AcDbEntity
   8
LEVEL001
   6
CONTINUOUS
  62
7
 100
AcDbCircle
  10
 79.765629923216
  20
 123.83986774452
  30
0.0
  40
 1.0000000000000
 100
AcDbArc
  50
 270.00000000000
  51
 0.27683547947458E-10
   0
POINT
   5
276
 100
AcDbEntity
   8
LEVEL001
 100
AcDbPoint
  62
7
  10
 80.765629923216
  20
 122.83986774452
  30
0.0
   0
LINE
   5
277
 100
AcDbEntity
   8
LEVEL001
 100
AcDbLine
   6
CONTINUOUS
  62
7
  10
 80.765629923216
  20
 136.33986774452
  30
0.0
  11
 80.765629923216
  21
 123.83986774452
  31
0.0
   0
DIMENSION
   5
278
 100
AcDbEntity
   8
LEVEL001
   6
CONTINUOUS
  62
3
 100
AcDbDimension
   2
*D1
  10
 109.66264185084
  20
 138.83986774452
  30
0.0
  11
 109.66264185084
  21
 130.83986774452
  31
0.0
  70
0
   3
GMM001
 100
AcDbAlignedDimension
  13
 102.19346891851
  23
 122.83986774452
  33
0.0
  14
 102.19346891851
  24
 138.83986774452
  34
0.0
  50
 90.000000000000
 100
AcDbRotatedDimension
   0
LINE
   5
279
 100
AcDbEntity
   8
LEVEL001
 100
AcDbLine
   6
DASHDOT
  62
3
  10
 64.515629923216
  20
 142.52946344827
  30
0.0
  11
 64.515629923216
  21
 118.88635567883
  31
0.0
   0
DIMENSION
   5
27A
 100
AcDbEntity
   8
LEVEL001
   6
CONTINUOUS
  62
3
 100
AcDbDimension
   2
*D2
  10
 78.515629923216
  20
 162.37112320420
  30
0.0
  11
 64.515629923216
  21
 162.37112320420
  31
0.0
  70
0
   3
GMM001
 100
AcDbAlignedDimension
  13
 50.515629923216
  23
 181.14512986186
  33
0.0
  14
 78.515629923216
  24
 181.14512986186
  34
0.0
 100
AcDbRotatedDimension
   0
LINE
   5
27B
 100
AcDbEntity
   8
LEVEL001
 100
AcDbLine
   6
CONTINUOUS
  62
15
  10
 60.015629923216
  20
 181.14512986186
  30
0.0
  11
 60.015629923216
  21
 180.49512986186
  31
0.0
   0
LINE
   5
27C
 100
AcDbEntity
   8
LEVEL001
 100
AcDbLine
   6
CONTINUOUS
  62
15
  10
 69.015629923216
  20
 181.14512986186
  30
0.0
  11
 69.015629923216
  21
 180.49512986186
  31
0.0
   0
DIMENSION
   5
27D
 100
AcDbEntity
   8
LEVEL001
   6
CONTINUOUS
  62
3
 100
AcDbDimension
   2
*D3
  10
 80.765629923216
  20
 107.18053830634
  30
0.0
  11
 64.515629923216
  21
 107.18053830634
  31
0.0
  70
0
   3
GMM001
 100
AcDbAlignedDimension
  13
 48.265629923216
  23
 122.83986774452
  33
0.0
  14
 80.765629923216
  24
 122.83986774452
  34
0.0
 100
AcDbRotatedDimension
   0
DIMENSION
   5
27E
 100
AcDbEntity
   8
LEVEL001
   6
CONTINUOUS
  62
3
 100
AcDbDimension
   2
*D4
  10
 101.19346891851
  20
 138.83986774452
  30
0.0
  11
 101.19346891851
  21
 147.64258656221
  31
0.0
  70
128
   3
GMM002
 100
AcDbAlignedDimension
  13
 84.015629923216
  23
 136.33986774452
  33
0.0
  14
 80.665629923216
  24
 138.83986774452
  34
0.0
  50
 90.000000000000
 100
AcDbRotatedDimension
   0
DIMENSION
   5
27F
 100
AcDbEntity
   8
LEVEL001
   6
CONTINUOUS
  62
3
 100
AcDbDimension
   2
*D5
  10
 101.19346891851
  20
 122.83986774452
  30
0.0
  11
 101.19346891851
  21
 129.53521784543
  31
0.0
  70
128
  53
 90.000000000000
   3
GMM003
 100
AcDbAlignedDimension
  13
 101.19346891851
  23
 136.33986774452
  33
0.0
  14
 80.765629923216
  24
 122.83986774452
  34
0.0
  50
 270.00000000000
 100
AcDbRotatedDimension
   0
DIMENSION
   5
280
 100
AcDbEntity
   8
LEVEL001
   6
CONTINUOUS
  62
3
 100
AcDbDimension
   2
*D6
  10
 84.015629923216
  20
 153.47327698705
  30
0.0
  11
 64.515629923216
  21
 153.47327698705
  31
0.0
  70
0
   3
GMM001
 100
AcDbAlignedDimension
  13
 45.015629923216
  23
 175.14512986186
  33
0.0
  14
 84.015629923216
  24
 175.14512986186
  34
0.0
 100
AcDbRotatedDimension
   0
DIMENSION
   5
281
 100
AcDbEntity
   8
LEVEL001
   6
CONTINUOUS
  62
3
 100
AcDbDimension
   2
*D7
  10
 48.015629923216
  20
 232.14512986186
  30
0.0
  11
 43.410473413946
  21
 236.52678197897
  31
0.0
  70
132
   3
GMM004
 100
AcDbRadialDimension
  15
 45.842223816754
  25
 234.21305294950
  35
0.0
  40
 3.7690220951294
   0
DIMENSION
   5
282
 100
AcDbEntity
   8
LEVEL001
   6
CONTINUOUS
  62
3
 100
AcDbDimension
   2
*D8
  10
 101.19346891851
  20
 235.14512986186
  30
0.0
  11
 101.19346891851
  21
 205.14512986186
  31
0.0
  70
0
   3
GMM001
 100
AcDbAlignedDimension
  13
 84.015629923216
  23
 175.14512986186
  33
0.0
  14
 84.015629923216
  24
 235.14512986186
  34
0.0
  50
 90.000000000000
 100
AcDbRotatedDimension
   0
LINE
   5
283
 100
AcDbEntity
   8
LEVEL001
 100
AcDbLine
   6
CONTINUOUS
  62
7
  10
 54.515629923216
  20
 197.14512986186
  30
0.0
  11
 54.515629923216
  21
 205.14512986186
  31
0.0
   0
ARC
   5
284
 100
AcDbEntity
   8
LEVEL001
   6
CONTINUOUS
  62
7
 100
AcDbCircle
  10
 62.515629923216
  20
 197.14512986186
  30
0.0
  40
 8.0000000000000
 100
AcDbArc
  50
 180.00000000000
  51
 270.00000000000
   0
POINT
   5
285
 100
AcDbEntity
   8
LEVEL001
 100
AcDbPoint
  62
7
  10
 54.515629923216
  20
 189.14512986186
  30
0.0
   0
ARC
   5
286
 100
AcDbEntity
   8
LEVEL001
   6
CONTINUOUS
  62
7
 100
AcDbCircle
  10
 66.515629923216
  20
 197.14512986186
  30
0.0
  40
 8.0000000000000
 100
AcDbArc
  50
 270.00000000000
  51
0.0
   0
POINT
   5
287
 100
AcDbEntity
   8
LEVEL001
 100
AcDbPoint
  62
7
  10
 74.515629923216
  20
 189.14512986186
  30
0.0
   0
LINE
   5
288
 100
AcDbEntity
   8
LEVEL001
 100
AcDbLine
   6
CONTINUOUS
  62
7
  10
 74.515629923216
  20
 197.14512986186
  30
0.0
  11
 74.515629923216
  21
 205.14512986186
  31
0.0
   0
LINE
   5
289
 100
AcDbEntity
   8
LEVEL001
 100
AcDbLine
   6
CONTINUOUS
  62
7
  10
 64.515629923216
  20
 189.14512986186
  30
0.0
  11
 66.515629923216
  21
 189.14512986186
  31
0.0
   0
LINE
   5
28A
 100
AcDbEntity
   8
LEVEL001
 100
AcDbLine
   6
CONTINUOUS
  62
7
  10
 62.515629923216
  20
 189.14512986186
  30
0.0
  11
 64.515629923216
  21
 189.14512986186
  31
0.0
   0
POINT
   5
28B
 100
AcDbEntity
   8
LEVEL001
 100
AcDbPoint
  62
7
  10
 50.515629923216
  20
 181.14512986186
  30
0.0
   0
ARC
   5
28C
 100
AcDbEntity
   8
LEVEL001
   6
CONTINUOUS
  62
7
 100
AcDbCircle
  10
 53.415629923216
  20
 184.04512986186
  30
0.0
  40
 2.9000000000000
 100
AcDbArc
  50
 180.00000000000
  51
 269.99999999998
   0
LINE
   5
28D
 100
AcDbEntity
   8
LEVEL001
 100
AcDbLine
   6
CONTINUOUS
  62
7
  10
 53.415629923216
  20
 181.14512986186
  30
0.0
  11
 64.515629923216
  21
 181.14512986186
  31
0.0
   0
LINE
   5
28E
 100
AcDbEntity
   8
LEVEL001
 100
AcDbLine
   6
CONTINUOUS
  62
7
  10
 50.515629923216
  20
 184.04512986186
  30
0.0
  11
 50.515629923216
  21
 205.14512986186
  31
0.0
   0
LINE
   5
28F
 100
AcDbEntity
   8
LEVEL001
 100
AcDbLine
   6
CONTINUOUS
  62
7
  10
 64.515629923216
  20
 181.14512986186
  30
0.0
  11
 75.615629923216
  21
 181.14512986186
  31
0.0
   0
POINT
   5
290
 100
AcDbEntity
   8
LEVEL001
 100
AcDbPoint
  62
7
  10
 78.515629923216
  20
 181.14512986186
  30
0.0
   0
ARC
   5
291
 100
AcDbEntity
   8
LEVEL001
   6
CONTINUOUS
  62
7
 100
AcDbCircle
  10
 75.615629923216
  20
 184.04512986186
  30
0.0
  40
 2.9000000000000
 100
AcDbArc
  50
 270.00000000000
  51
 0.72999213654556E-11
   0
LINE
   5
292
 100
AcDbEntity
   8
LEVEL001
 100
AcDbLine
   6
CONTINUOUS
  62
7
  10
 78.515629923216
  20
 184.04512986186
  30
0.0
  11
 78.515629923216
  21
 205.14512986186
  31
0.0
   0
ARC
   5
293
 100
AcDbEntity
   8
LEVEL001
   6
CONTINUOUS
  62
7
 100
AcDbCircle
  10
 53.415629923216
  20
 226.24512986186
  30
0.0
  40
 2.9000000000000
 100
AcDbArc
  50
 90.000000000000
  51
 180.00000000001
   0
POINT
   5
294
 100
AcDbEntity
   8
LEVEL001
 100
AcDbPoint
  62
7
  10
 50.515629923216
  20
 229.14512986186
  30
0.0
   0
LINE
   5
295
 100
AcDbEntity
   8
LEVEL001
 100
AcDbLine
   6
CONTINUOUS
  62
7
  10
 53.415629923216
  20
 229.14512986186
  30
0.0
  11
 64.515629923216
  21
 229.14512986186
  31
0.0
   0
LINE
   5
296
 100
AcDbEntity
   8
LEVEL001
 100
AcDbLine
   6
CONTINUOUS
  62
7
  10
 50.515629923216
  20
 205.14512986186
  30
0.0
  11
 50.515629923216
  21
 226.24512986186
  31
0.0
   0
ARC
   5
297
 100
AcDbEntity
   8
LEVEL001
   6
CONTINUOUS
  62
7
 100
AcDbCircle
  10
 75.615629923216
  20
 226.24512986186
  30
0.0
  40
 2.9000000000000
 100
AcDbArc
  50
 0.95460510163650E-11
  51
 90.000000000000
   0
LINE
   5
298
 100
AcDbEntity
   8
LEVEL001
 100
AcDbLine
   6
CONTINUOUS
  62
7
  10
 64.515629923216
  20
 229.14512986186
  30
0.0
  11
 75.615629923216
  21
 229.14512986186
  31
0.0
   0
POINT
   5
299
 100
AcDbEntity
   8
LEVEL001
 100
AcDbPoint
  62
7
  10
 78.515629923216
  20
 229.14512986186
  30
0.0
   0
LINE
   5
29A
 100
AcDbEntity
   8
LEVEL001
 100
AcDbLine
   6
CONTINUOUS
  62
7
  10
 78.515629923216
  20
 205.14512986186
  30
0.0
  11
 78.515629923216
  21
 226.24512986186
  31
0.0
   0
POINT
   5
29B
 100
AcDbEntity
   8
LEVEL001
 100
AcDbPoint
  62
7
  10
 54.515629923216
  20
 214.54512986186
  30
0.0
   0
ARC
   5
29C
 100
AcDbEntity
   8
LEVEL001
   6
CONTINUOUS
  62
7
 100
AcDbCircle
  10
 57.515629923216
  20
 211.54512986186
  30
0.0
  40
 3.0000000000000
 100
AcDbArc
  50
 90.000000000000
  51
 180.00000000000
   0
LINE
   5
29D
 100
AcDbEntity
   8
LEVEL001
 100
AcDbLine
   6
CONTINUOUS
  62
7
  10
 57.515629923216
  20
 214.54512986186
  30
0.0
  11
 64.515629923216
  21
 214.54512986186
  31
0.0
   0
LINE
   5
29E
 100
AcDbEntity
   8
LEVEL001
 100
AcDbLine
   6
CONTINUOUS
  62
7
  10
 54.515629923216
  20
 205.14512986186
  30
0.0
  11
 54.515629923216
  21
 211.54512986186
  31
0.0
   0
LINE
   5
29F
 100
AcDbEntity
   8
LEVEL001
 100
AcDbLine
   6
CONTINUOUS
  62
7
  10
 64.515629923216
  20
 214.54512986186
  30
0.0
  11
 71.515629923216
  21
 214.54512986186
  31
0.0
   0
POINT
   5
2A0
 100
AcDbEntity
   8
LEVEL001
 100
AcDbPoint
  62
7
  10
 74.515629923216
  20
 214.54512986186
  30
0.0
   0
ARC
   5
2A1
 100
AcDbEntity
   8
LEVEL001
   6
CONTINUOUS
  62
7
 100
AcDbCircle
  10
 71.515629923216
  20
 211.54512986186
  30
0.0
  40
 3.0000000000000
 100
AcDbArc
  50
0.0
  51
 90.000000000000
   0
LINE
   5
2A2
 100
AcDbEntity
   8
LEVEL001
 100
AcDbLine
   6
CONTINUOUS
  62
7
  10
 74.515629923216
  20
 205.14512986186
  30
0.0
  11
 74.515629923216
  21
 211.54512986186
  31
0.0
   0
LINE
   5
2A3
 100
AcDbEntity
   8
LEVEL001
 100
AcDbLine
   6
CONTINUOUS
  62
15
  10
 60.015629923216
  20
 229.79512986186
  30
0.0
  11
 60.015629923216
  21
 229.14512986186
  31
0.0
   0
LINE
   5
2A4
 100
AcDbEntity
   8
LEVEL001
 100
AcDbLine
   6
CONTINUOUS
  62
15
  10
 69.015629923216
  20
 229.79512986186
  30
0.0
  11
 69.015629923216
  21
 229.14512986186
  31
0.0
   0
DIMENSION
   5
2A5
 100
AcDbEntity
   8
LEVEL001
   6
CONTINUOUS
  62
3
 100
AcDbDimension
   2
*D9
  10
 126.82867578014
  20
 162.37112320420
  30
0.0
  11
 116.91528672737
  21
 162.37112320420
  31
0.0
  70
128
   3
GMM005
 100
AcDbAlignedDimension
  13
 124.32867578014
  23
 178.49512986186
  33
0.0
  14
 126.82867578014
  24
 175.14512986186
  34
0.0
 100
AcDbRotatedDimension
   0
LINE
   5
2A6
 100
AcDbEntity
   8
LEVEL001
 100
AcDbLine
   6
CONTINUOUS
  62
7
  10
 126.82867578014
  20
 235.14512986186
  30
0.0
  11
 126.82867578014
  21
 175.14512986186
  31
0.0
   0
LINE
   5
2A7
 100
AcDbEntity
   8
LEVEL001
 100
AcDbLine
   6
CONTINUOUS
  62
7
  10
 125.82867578014
  20
 235.14512986186
  30
0.0
  11
 126.82867578014
  21
 235.14512986186
  31
0.0
   0
LINE
   5
2A8
 100
AcDbEntity
   8
LEVEL001
 100
AcDbLine
   6
CONTINUOUS
  62
7
  10
 125.82867578014
  20
 175.14512986186
  30
0.0
  11
 126.82867578014
  21
 175.14512986186
  31
0.0
   0
LINE
   5
2A9
 100
AcDbEntity
   8
LEVEL001
 100
AcDbLine
   6
CONTINUOUS
  62
7
  10
 125.76494423558
  20
 175.14512986186
  30
0.0
  11
 126.11212483249
  21
 175.14512986186
  31
0.0
   0
ARC
   5
2AA
 100
AcDbEntity
   8
LEVEL001
   6
CONTINUOUS
  62
7
 100
AcDbCircle
  10
 125.76494423558
  20
 175.64512986186
  30
0.0
  40
 0.50000000000000
 100
AcDbArc
  50
 188.99311335410
  51
 270.00000000004
   0
ARC
   5
2AB
 100
AcDbEntity
   8
LEVEL001
   6
CONTINUOUS
  62
7
 100
AcDbCircle
  10
 115.39401930709
  20
 174.00381449677
  30
0.0
  40
 10.000000000000
 100
AcDbArc
  50
 8.9931133538291
  51
 26.687977876773
   0
ARC
   5
2AC
 100
AcDbEntity
   8
LEVEL001
   6
CONTINUOUS
  62
7
 100
AcDbCircle
  10
 125.76494423558
  20
 234.64512986186
  30
0.0
  40
 0.50000000000000
 100
AcDbArc
  50
 89.999999999977
  51
 171.00688664599
   0
ARC
   5
2AD
 100
AcDbEntity
   8
LEVEL001
   6
CONTINUOUS
  62
7
 100
AcDbCircle
  10
 115.39401930709
  20
 236.28644522695
  30
0.0
  40
 10.000000000000
 100
AcDbArc
  50
 333.31202212322
  51
 351.00688664616
   0
ARC
   5
2AE
 100
AcDbEntity
   8
LEVEL001
   6
CONTINUOUS
  62
7
 100
AcDbCircle
  10
 125.82867578015
  20
 233.64512986186
  30
0.0
  40
 1.5000000000000
 100
AcDbArc
  50
 90.000000000405
  51
 95.749618131353
   0
LINE
   5
2AF
 100
AcDbEntity
   8
LEVEL001
 100
AcDbLine
   6
CONTINUOUS
  62
7
  10
 124.32867578014
  20
 231.79512986186
  30
0.0
  11
 124.32867578014
  21
 178.49512986186
  31
0.0
   0
LINE
   5
2B0
 100
AcDbEntity
   8
LEVEL001
 100
AcDbLine
   6
CONTINUOUS
  62
7
  10
 125.32867578014
  20
 230.29512986186
  30
0.0
  11
 125.32867578014
  21
 234.88940395951
  31
0.0
   0
LINE
   5
2B1
 100
AcDbEntity
   8
LEVEL001
 100
AcDbLine
   6
CONTINUOUS
  62
7
  10
 125.32867578014
  20
 175.40085576420
  30
0.0
  11
 125.32867578014
  21
 178.49512986186
  31
0.0
   0
LINE
   5
2B2
 100
AcDbEntity
   8
LEVEL001
 100
AcDbLine
   6
CONTINUOUS
  62
7
  10
 125.32867578014
  20
 230.29512986186
  30
0.0
  11
 125.32867578014
  21
 178.49512986186
  31
0.0
   0
CIRCLE
   5
2B3
 100
AcDbEntity
   8
LEVEL001
 100
AcDbCircle
   6
CONTINUOUS
  62
7
  10
 128.32867578014
  20
 225.14512986186
  30
0.0
  40
 1.0000000000000
   0
LINE
   5
2B4
 100
AcDbEntity
   8
LEVEL001
 100
AcDbLine
   6
CONTINUOUS
  62
7
  10
 126.82867578014
  20
 220.89512986186
  30
0.0
  11
 134.49853751758
  21
 220.89512986186
  31
0.0
   0
LINE
   5
2B5
 100
AcDbEntity
   8
LEVEL001
 100
AcDbLine
   6
CONTINUOUS
  62
7
  10
 126.82867578014
  20
 219.39512986186
  30
0.0
  11
 134.49853751758
  21
 219.39512986186
  31
0.0
   0
LINE
   5
2B6
 100
AcDbEntity
   8
LEVEL001
 100
AcDbLine
   6
CONTINUOUS
  62
7
  10
 126.82867578014
  20
 190.89512986186
  30
0.0
  11
 134.49853751758
  21
 190.89512986186
  31
0.0
   0
LINE
   5
2B7
 100
AcDbEntity
   8
LEVEL001
 100
AcDbLine
   6
CONTINUOUS
  62
7
  10
 126.82867578014
  20
 189.39512986186
  30
0.0
  11
 134.49853751758
  21
 189.39512986186
  31
0.0
   0
LINE
   5
2B8
 100
AcDbEntity
   8
LEVEL001
 100
AcDbLine
   6
CONTINUOUS
  62
7
  10
 137.58357482001
  20
 220.89512986186
  30
0.0
  11
 138.32867578014
  21
 220.15002890172
  31
0.0
   0
LINE
   5
2B9
 100
AcDbEntity
   8
LEVEL001
 100
AcDbLine
   6
CONTINUOUS
  62
7
  10
 137.58357482001
  20
 219.39512986186
  30
0.0
  11
 138.32867578014
  21
 220.14023082199
  31
0.0
   0
LINE
   5
2BA
 100
AcDbEntity
   8
LEVEL001
 100
AcDbLine
   6
CONTINUOUS
  62
7
  10
 137.58357482000
  20
 190.89512986186
  30
0.0
  11
 138.32867578014
  21
 190.15002890172
  31
0.0
   0
LINE
   5
2BB
 100
AcDbEntity
   8
LEVEL001
 100
AcDbLine
   6
CONTINUOUS
  62
7
  10
 137.58357482000
  20
 189.39512986186
  30
0.0
  11
 138.32867578014
  21
 190.14023082199
  31
0.0
   0
LINE
   5
2BC
 100
AcDbEntity
   8
LEVEL001
 100
AcDbLine
   6
CONTINUOUS
  62
7
  10
 134.49853751758
  20
 220.89512986186
  30
0.0
  11
 137.58357482001
  21
 220.89512986186
  31
0.0
   0
LINE
   5
2BD
 100
AcDbEntity
   8
LEVEL001
 100
AcDbLine
   6
CONTINUOUS
  62
7
  10
 134.49853751758
  20
 219.39512986186
  30
0.0
  11
 137.58357482001
  21
 219.39512986186
  31
0.0
   0
LINE
   5
2BE
 100
AcDbEntity
   8
LEVEL001
 100
AcDbLine
   6
CONTINUOUS
  62
7
  10
 134.49853751758
  20
 190.89512986186
  30
0.0
  11
 137.58357482000
  21
 190.89512986186
  31
0.0
   0
LINE
   5
2BF
 100
AcDbEntity
   8
LEVEL001
 100
AcDbLine
   6
CONTINUOUS
  62
7
  10
 134.49853751758
  20
 189.39512986186
  30
0.0
  11
 137.58357482000
  21
 189.39512986186
  31
0.0
   0
LINE
   5
2C0
 100
AcDbEntity
   8
LEVEL001
 100
AcDbLine
   6
CONTINUOUS
  62
15
  10
 126.82867578014
  20
 178.04512986186
  30
0.0
  11
 139.33357482011
  21
 178.39512986186
  31
0.0
   0
LINE
   5
2C1
 100
AcDbEntity
   8
LEVEL001
 100
AcDbLine
   6
DOT
  62
1
  10
 135.32867578014
  20
 178.28303662068
  30
0.0
  11
 135.32867578014
  21
 178.39512986186
  31
0.0
   0
LINE
   5
2C2
 100
AcDbEntity
   8
LEVEL001
 100
AcDbLine
   6
DASHDOT
  62
3
  10
 123.38264800648
  20
 190.14512986186
  30
0.0
  11
 139.69364772801
  21
 190.14512986186
  31
0.0
   0
LINE
   5
2C3
 100
AcDbEntity
   8
LEVEL001
 100
AcDbLine
   6
DASHDOT
  62
3
  10
 123.51630865909
  20
 220.14512986186
  30
0.0
  11
 139.74889011273
  21
 220.14512986186
  31
0.0
   0
LINE
   5
2C4
 100
AcDbEntity
   8
LEVEL001
 100
AcDbLine
   6
DASHDOT
  62
3
  10
 126.05303816184
  20
 225.14512986186
  30
0.0
  11
 130.41832174116
  21
 225.14512986186
  31
0.0
   0
LINE
   5
2C5
 100
AcDbEntity
   8
LEVEL001
 100
AcDbLine
   6
DASHDOT
  62
3
  10
 128.32867578014
  20
 227.28741006857
  30
0.0
  11
 128.32867578014
  21
 222.48332957482
  31
0.0
   0
LINE
   5
2C6
 100
AcDbEntity
   8
LEVEL001
 100
AcDbLine
   6
DASHDOT
  62
3
  10
 120.89252978906
  20
 205.14512986186
  30
0.0
  11
 144.65326496032
  21
 205.14512986186
  31
0.0
   0
ARC
   5
2C7
 100
AcDbEntity
   8
LEVEL001
   6
CONTINUOUS
  62
7
 100
AcDbCircle
  10
 139.32867578014
  20
 179.39512986186
  30
0.0
  40
 1.0000000000000
 100
AcDbArc
  50
 269.99999999993
  51
0.0
   0
POINT
   5
2C8
 100
AcDbEntity
   8
LEVEL001
 100
AcDbPoint
  62
7
  10
 140.32867578014
  20
 178.39512986186
  30
0.0
   0
LINE
   5
2C9
 100
AcDbEntity
   8
LEVEL001
 100
AcDbLine
   6
CONTINUOUS
  62
7
  10
 126.82867578014
  20
 178.39512986186
  30
0.0
  11
 139.32867578014
  21
 178.39512986186
  31
0.0
   0
LINE
   5
2CA
 100
AcDbEntity
   8
LEVEL001
 100
AcDbLine
   6
CONTINUOUS
  62
7
  10
 126.82867578014
  20
 231.89512986186
  30
0.0
  11
 139.32867578014
  21
 231.89512986186
  31
0.0
   0
ARC
   5
2CB
 100
AcDbEntity
   8
LEVEL001
   6
CONTINUOUS
  62
7
 100
AcDbCircle
  10
 139.32867578014
  20
 230.89512986186
  30
0.0
  40
 1.0000000000000
 100
AcDbArc
  50
 0.19541327962912E-10
  51
 90.000000000000
   0
POINT
   5
2CC
 100
AcDbEntity
   8
LEVEL001
 100
AcDbPoint
  62
7
  10
 140.32867578014
  20
 231.89512986186
  30
0.0
   0
LINE
   5
2CD
 100
AcDbEntity
   8
LEVEL001
 100
AcDbLine
   6
CONTINUOUS
  62
7
  10
 140.32867578014
  20
 230.89512986186
  30
0.0
  11
 140.32867578014
  21
 179.39512986186
  31
0.0
   0
LINE
   5
2CE
 100
AcDbEntity
   8
LEVEL001
 100
AcDbLine
   6
CONTINUOUS
  62
15
  10
 126.82867578014
  20
 177.39512986186
  30
0.0
  11
 134.82867578014
  21
 177.39512986186
  31
0.0
   0
ARC
   5
2CF
 100
AcDbEntity
   8
LEVEL001
   6
CONTINUOUS
  62
15
 100
AcDbCircle
  10
 134.82867578014
  20
 177.89512986185
  30
0.0
  40
 0.50000000000000
 100
AcDbArc
  50
 270.00000000000
  51
 0.26055103950549E-9
   0
POINT
   5
2D0
 100
AcDbEntity
   8
LEVEL001
 100
AcDbPoint
  62
15
  10
 135.32867578014
  20
 177.39512986186
  30
0.0
   0
LINE
   5
2D1
 100
AcDbEntity
   8
LEVEL001
 100
AcDbLine
   6
CONTINUOUS
  62
15
  10
 135.32867578014
  20
 177.89512986186
  30
0.0
  11
 135.32867578014
  21
 178.28303662068
  31
0.0
   0
LINE
   5
2D2
 100
AcDbEntity
   8
LEVEL001
 100
AcDbLine
   6
CONTINUOUS
  62
15
  10
 126.82867578014
  20
 232.19512986186
  30
0.0
  11
 139.33357482012
  21
 231.89512986186
  31
0.0
   0
DIMENSION
   5
2D3
 100
AcDbEntity
   8
LEVEL001
   6
CONTINUOUS
  62
3
 100
AcDbDimension
   2
*D10
  10
 139.32867578014
  20
 230.89512986186
  30
0.0
  11
 142.90171803737
  21
 234.33027255128
  31
0.0
  70
132
   3
GMM004
 100
AcDbRadialDimension
  15
 140.04955670987
  25
 231.58818879524
  35
0.0
  40
 4.3119164038003
   0
DIMENSION
   5
2D4
 100
AcDbEntity
   8
LEVEL001
   6
CONTINUOUS
  62
3
 100
AcDbDimension
   2
*D11
  10
 158.63117336927
  20
 178.39512986186
  30
0.0
  11
 158.63117336927
  21
 205.14512986186
  31
0.0
  70
0
   3
GMM001
 100
AcDbAlignedDimension
  13
 140.32867578014
  23
 231.89512986186
  33
0.0
  14
 140.32867578014
  24
 178.39512986186
  34
0.0
  50
 270.00000000000
 100
AcDbRotatedDimension
   0
DIMENSION
   5
2D5
 100
AcDbEntity
   8
LEVEL001
   6
CONTINUOUS
  62
3
 100
AcDbDimension
   2
*D12
  10
 140.32867578014
  20
 162.37112320420
  30
0.0
  11
 133.57867578014
  21
 162.37112320420
  31
0.0
  70
0
   3
GMM001
 100
AcDbAlignedDimension
  13
 126.82867578014
  23
 162.37112320420
  33
0.0
  14
 140.32867578014
  24
 178.39512986186
  34
0.0
 100
AcDbRotatedDimension
   0
DIMENSION
   5
2D6
 100
AcDbEntity
   8
LEVEL001
   6
CONTINUOUS
  62
3
 100
AcDbDimension
   2
*D13
  10
 124.32867578014
  20
 153.47327698705
  30
0.0
  11
 132.32867578014
  21
 153.47327698705
  31
0.0
  70
0
   3
GMM001
 100
AcDbAlignedDimension
  13
 140.32867578014
  23
 161.37112320420
  33
0.0
  14
 124.32867578014
  24
 161.37112320420
  34
0.0
  50
 180.00000000000
 100
AcDbRotatedDimension
   0
LINE
   5
2D7
 100
AcDbEntity
   8
LEVEL001
 100
AcDbLine
   6
CONTINUOUS
  62
7
  10
 364.44035667180
  20
 205.14512986186
  30
0.0
  11
 364.44035667180
  21
 179.99512986186
  31
0.0
   0
ARC
   5
2D8
 100
AcDbEntity
   8
LEVEL001
   6
CONTINUOUS
  62
7
 100
AcDbCircle
  10
 362.94035667180
  20
 179.99512986186
  30
0.0
  40
 1.5000000000000
 100
AcDbArc
  50
 269.99999999982
  51
0.0
   0
LINE
   5
2D9
 100
AcDbEntity
   8
LEVEL001
 100
AcDbLine
   6
CONTINUOUS
  62
7
  10
 348.29035667180
  20
 178.49512986186
  30
0.0
  11
 362.94035667180
  21
 178.49512986186
  31
0.0
   0
ARC
   5
2DA
 100
AcDbEntity
   8
LEVEL001
   6
CONTINUOUS
  62
7
 100
AcDbCircle
  10
 333.64035667180
  20
 179.99512986186
  30
0.0
  40
 1.5000000000000
 100
AcDbArc
  50
 180.00000000000
  51
 270.00000000005
   0
LINE
   5
2DB
 100
AcDbEntity
   8
LEVEL001
 100
AcDbLine
   6
CONTINUOUS
  62
7
  10
 348.29035667180
  20
 178.49512986186
  30
0.0
  11
 333.64035667180
  21
 178.49512986186
  31
0.0
   0
LINE
   5
2DC
 100
AcDbEntity
   8
LEVEL001
 100
AcDbLine
   6
CONTINUOUS
  62
7
  10
 332.14035667180
  20
 205.14512986186
  30
0.0
  11
 332.14035667180
  21
 179.99512986186
  31
0.0
   0
ARC
   5
2DD
 100
AcDbEntity
   8
LEVEL001
   6
CONTINUOUS
  62
7
 100
AcDbCircle
  10
 333.64035667180
  20
 230.29512986186
  30
0.0
  40
 1.5000000000000
 100
AcDbArc
  50
 89.999999999991
  51
 180.00000000000
   0
LINE
   5
2DE
 100
AcDbEntity
   8
LEVEL001
 100
AcDbLine
   6
CONTINUOUS
  62
7
  10
 332.14035667180
  20
 205.14512986186
  30
0.0
  11
 332.14035667180
  21
 230.29512986186
  31
0.0
   0
LINE
   5
2DF
 100
AcDbEntity
   8
LEVEL001
 100
AcDbLine
   6
CONTINUOUS
  62
7
  10
 348.29035667180
  20
 231.79512986186
  30
0.0
  11
 333.64035667180
  21
 231.79512986186
  31
0.0
   0
ARC
   5
2E0
 100
AcDbEntity
   8
LEVEL001
   6
CONTINUOUS
  62
7
 100
AcDbCircle
  10
 362.94035667180
  20
 230.29512986186
  30
0.0
  40
 1.5000000000000
 100
AcDbArc
  50
0.0
  51
 90.000000000091
   0
LINE
   5
2E1
 100
AcDbEntity
   8
LEVEL001
 100
AcDbLine
   6
CONTINUOUS
  62
7
  10
 348.29035667180
  20
 231.79512986186
  30
0.0
  11
 362.94035667180
  21
 231.79512986186
  31
0.0
   0
LINE
   5
2E2
 100
AcDbEntity
   8
LEVEL001
 100
AcDbLine
   6
CONTINUOUS
  62
7
  10
 364.44035667180
  20
 205.14512986186
  30
0.0
  11
 364.44035667180
  21
 230.29512986186
  31
0.0
   0
LINE
   5
2E3
 100
AcDbEntity
   8
LEVEL001
 100
AcDbLine
   6
DASHDOT
  62
3
  10
 327.19523393892
  20
 205.14512986186
  30
0.0
  11
 369.48331340912
  21
 205.14512986186
  31
0.0
   0
LINE
   5
2E4
 100
AcDbEntity
   8
LEVEL001
 100
AcDbLine
   6
CONTINUOUS
  62
7
  10
 331.79035667180
  20
 235.14512986186
  30
0.0
  11
 348.29035667180
  21
 235.14512986186
  31
0.0
   0
ARC
   5
2E5
 100
AcDbEntity
   8
LEVEL001
   6
CONTINUOUS
  62
7
 100
AcDbCircle
  10
 331.79035667180
  20
 232.14512986186
  30
0.0
  40
 3.0000000000000
 100
AcDbArc
  50
 90.000000000000
  51
 180.00000000004
   0
POINT
   5
2E6
 100
AcDbEntity
   8
LEVEL001
 100
AcDbPoint
  62
7
  10
 328.79035667180
  20
 235.14512986186
  30
0.0
   0
LINE
   5
2E7
 100
AcDbEntity
   8
LEVEL001
 100
AcDbLine
   6
CONTINUOUS
  62
7
  10
 328.79035667180
  20
 205.14512986186
  30
0.0
  11
 328.79035667180
  21
 232.14512986186
  31
0.0
   0
LINE
   5
2E8
 100
AcDbEntity
   8
LEVEL001
 100
AcDbLine
   6
CONTINUOUS
  62
7
  10
 348.29035667180
  20
 235.14512986186
  30
0.0
  11
 364.79035667180
  21
 235.14512986186
  31
0.0
   0
ARC
   5
2E9
 100
AcDbEntity
   8
LEVEL001
   6
CONTINUOUS
  62
7
 100
AcDbCircle
  10
 364.79035667180
  20
 232.14512986186
  30
0.0
  40
 3.0000000000000
 100
AcDbArc
  50
0.0
  51
 90.000000000000
   0
POINT
   5
2EA
 100
AcDbEntity
   8
LEVEL001
 100
AcDbPoint
  62
7
  10
 367.79035667180
  20
 235.14512986186
  30
0.0
   0
LINE
   5
2EB
 100
AcDbEntity
   8
LEVEL001
 100
AcDbLine
   6
CONTINUOUS
  62
7
  10
 367.79035667180
  20
 205.14512986186
  30
0.0
  11
 367.79035667180
  21
 232.14512986186
  31
0.0
   0
LINE
   5
2EC
 100
AcDbEntity
   8
LEVEL001
 100
AcDbLine
   6
CONTINUOUS
  62
7
  10
 328.79035667180
  20
 178.14512986186
  30
0.0
  11
 328.79035667180
  21
 205.14512986186
  31
0.0
   0
ARC
   5
2ED
 100
AcDbEntity
   8
LEVEL001
   6
CONTINUOUS
  62
7
 100
AcDbCircle
  10
 331.79035667180
  20
 178.14512986186
  30
0.0
  40
 3.0000000000000
 100
AcDbArc
  50
 180.00000000000
  51
 269.99999999998
   0
POINT
   5
2EE
 100
AcDbEntity
   8
LEVEL001
 100
AcDbPoint
  62
7
  10
 328.79035667180
  20
 175.14512986186
  30
0.0
   0
LINE
   5
2EF
 100
AcDbEntity
   8
LEVEL001
 100
AcDbLine
   6
CONTINUOUS
  62
7
  10
 331.79035667180
  20
 175.14512986186
  30
0.0
  11
 348.29035667180
  21
 175.14512986186
  31
0.0
   0
LINE
   5
2F0
 100
AcDbEntity
   8
LEVEL001
 100
AcDbLine
   6
CONTINUOUS
  62
7
  10
 348.29035667180
  20
 175.14512986186
  30
0.0
  11
 364.79035667180
  21
 175.14512986186
  31
0.0
   0
ARC
   5
2F1
 100
AcDbEntity
   8
LEVEL001
   6
CONTINUOUS
  62
7
 100
AcDbCircle
  10
 364.79035667180
  20
 178.14512986186
  30
0.0
  40
 3.0000000000000
 100
AcDbArc
  50
 270.00000000000
  51
 0.24969474619276E-10
   0
POINT
   5
2F2
 100
AcDbEntity
   8
LEVEL001
 100
AcDbPoint
  62
7
  10
 367.79035667180
  20
 175.14512986186
  30
0.0
   0
LINE
   5
2F3
 100
AcDbEntity
   8
LEVEL001
 100
AcDbLine
   6
CONTINUOUS
  62
7
  10
 367.79035667180
  20
 178.14512986186
  30
0.0
  11
 367.79035667180
  21
 205.14512986186
  31
0.0
   0
LINE
   5
2F4
 100
AcDbEntity
   8
LEVEL001
 100
AcDbLine
   6
CONTINUOUS
  62
7
  10
 334.14035667180
  20
 205.14512986186
  30
0.0
  11
 334.14035667180
  21
 226.79512986186
  31
0.0
   0
ARC
   5
2F5
 100
AcDbEntity
   8
LEVEL001
   6
CONTINUOUS
  62
7
 100
AcDbCircle
  10
 337.14035667180
  20
 226.79512986186
  30
0.0
  40
 3.0000000000000
 100
AcDbArc
  50
 89.999999999996
  51
 180.00000000000
   0
POINT
   5
2F6
 100
AcDbEntity
   8
LEVEL001
 100
AcDbPoint
  62
7
  10
 334.14035667180
  20
 229.79512986186
  30
0.0
   0
LINE
   5
2F7
 100
AcDbEntity
   8
LEVEL001
 100
AcDbLine
   6
CONTINUOUS
  62
7
  10
 337.14035667180
  20
 229.79512986186
  30
0.0
  11
 348.29035667180
  21
 229.79512986186
  31
0.0
   0
LINE
   5
2F8
 100
AcDbEntity
   8
LEVEL001
 100
AcDbLine
   6
CONTINUOUS
  62
7
  10
 348.29035667180
  20
 229.79512986186
  30
0.0
  11
 359.44035667180
  21
 229.79512986186
  31
0.0
   0
ARC
   5
2F9
 100
AcDbEntity
   8
LEVEL001
   6
CONTINUOUS
  62
7
 100
AcDbCircle
  10
 359.44035667180
  20
 226.79512986186
  30
0.0
  40
 3.0000000000000
 100
AcDbArc
  50
0.0
  51
 90.000000000000
   0
POINT
   5
2FA
 100
AcDbEntity
   8
LEVEL001
 100
AcDbPoint
  62
7
  10
 362.44035667180
  20
 229.79512986186
  30
0.0
   0
LINE
   5
2FB
 100
AcDbEntity
   8
LEVEL001
 100
AcDbLine
   6
CONTINUOUS
  62
7
  10
 362.44035667180
  20
 205.14512986186
  30
0.0
  11
 362.44035667180
  21
 226.79512986186
  31
0.0
   0
LINE
   5
2FC
 100
AcDbEntity
   8
LEVEL001
 100
AcDbLine
   6
CONTINUOUS
  62
7
  10
 362.44035667180
  20
 183.49512986186
  30
0.0
  11
 362.44035667180
  21
 205.14512986186
  31
0.0
   0
ARC
   5
2FD
 100
AcDbEntity
   8
LEVEL001
   6
CONTINUOUS
  62
7
 100
AcDbCircle
  10
 359.44035667180
  20
 183.49512986186
  30
0.0
  40
 3.0000000000000
 100
AcDbArc
  50
 270.00000000004
  51
0.0
   0
POINT
   5
2FE
 100
AcDbEntity
   8
LEVEL001
 100
AcDbPoint
  62
7
  10
 362.44035667180
  20
 180.49512986186
  30
0.0
   0
LINE
   5
2FF
 100
AcDbEntity
   8
LEVEL001
 100
AcDbLine
   6
CONTINUOUS
  62
7
  10
 348.29035667180
  20
 180.49512986186
  30
0.0
  11
 359.44035667180
  21
 180.49512986186
  31
0.0
   0
LINE
   5
300
 100
AcDbEntity
   8
LEVEL001
 100
AcDbLine
   6
CONTINUOUS
  62
7
  10
 334.14035667180
  20
 183.49512986186
  30
0.0
  11
 334.14035667180
  21
 205.14512986186
  31
0.0
   0
ARC
   5
301
 100
AcDbEntity
   8
LEVEL001
   6
CONTINUOUS
  62
7
 100
AcDbCircle
  10
 337.14035667180
  20
 183.49512986186
  30
0.0
  40
 3.0000000000000
 100
AcDbArc
  50
 180.00000000000
  51
 270.00000000001
   0
POINT
   5
302
 100
AcDbEntity
   8
LEVEL001
 100
AcDbPoint
  62
7
  10
 334.14035667180
  20
 180.49512986186
  30
0.0
   0
LINE
   5
303
 100
AcDbEntity
   8
LEVEL001
 100
AcDbLine
   6
CONTINUOUS
  62
7
  10
 337.14035667180
  20
 180.49512986186
  30
0.0
  11
 348.29035667180
  21
 180.49512986186
  31
0.0
   0
LINE
   5
304
 100
AcDbEntity
   8
LEVEL001
 100
AcDbLine
   6
CONTINUOUS
  62
7
  10
 348.29035667180
  20
 138.83986774452
  30
0.0
  11
 351.05409293554
  21
 138.83986774452
  31
0.0
   0
LINE
   5
305
 100
AcDbEntity
   8
LEVEL001
 100
AcDbLine
   6
CONTINUOUS
  62
7
  10
 348.29035667180
  20
 136.33986774452
  30
0.0
  11
 367.79035667180
  21
 136.33986774452
  31
0.0
   0
LINE
   5
306
 100
AcDbEntity
   8
LEVEL001
 100
AcDbLine
   6
CONTINUOUS
  62
7
  10
 348.29035667180
  20
 136.33986774452
  30
0.0
  11
 328.79035667180
  21
 136.33986774452
  31
0.0
   0
LINE
   5
307
 100
AcDbEntity
   8
LEVEL001
 100
AcDbLine
   6
CONTINUOUS
  62
7
  10
 367.79035667180
  20
 136.33986774452
  30
0.0
  11
 367.79035667180
  21
 137.33986774452
  31
0.0
   0
LINE
   5
308
 100
AcDbEntity
   8
LEVEL001
 100
AcDbLine
   6
CONTINUOUS
  62
7
  10
 348.29035667180
  20
 138.83986774452
  30
0.0
  11
 332.14035667180
  21
 138.83986774452
  31
0.0
   0
LINE
   5
309
 100
AcDbEntity
   8
LEVEL001
 100
AcDbLine
   6
CONTINUOUS
  62
7
  10
 328.79035667180
  20
 136.33986774452
  30
0.0
  11
 328.79035667180
  21
 137.40359928907
  31
0.0
   0
ARC
   5
30A
 100
AcDbEntity
   8
LEVEL001
   6
CONTINUOUS
  62
7
 100
AcDbCircle
  10
 329.29035667180
  20
 137.40359928908
  30
0.0
  40
 0.50000000000000
 100
AcDbArc
  50
 98.993113354443
  51
 180.00000000009
   0
ARC
   5
30B
 100
AcDbEntity
   8
LEVEL001
   6
CONTINUOUS
  62
7
 100
AcDbCircle
  10
 327.64904130671
  20
 147.77452421756
  30
0.0
  40
 10.000000000000
 100
AcDbArc
  50
 278.99311335383
  51
 296.68797787678
   0
ARC
   5
30C
 100
AcDbEntity
   8
LEVEL001
   6
CONTINUOUS
  62
7
 100
AcDbCircle
  10
 368.93167203689
  20
 147.77452421756
  30
0.0
  40
 10.000000000000
 100
AcDbArc
  50
 243.31202212323
  51
 261.00688664617
   0
ARC
   5
30D
 100
AcDbEntity
   8
LEVEL001
   6
CONTINUOUS
  62
7
 100
AcDbCircle
  10
 367.29035667180
  20
 137.40359928907
  30
0.0
  40
 0.50000000000000
 100
AcDbArc
  50
0.0
  51
 81.006886645861
   0
LINE
   5
30E
 100
AcDbEntity
   8
LEVEL001
 100
AcDbLine
   6
CONTINUOUS
  62
7
  10
 348.29035667180
  20
 138.83986774452
  30
0.0
  11
 364.44035667180
  21
 138.83986774452
  31
0.0
   0
ARC
   5
30F
 100
AcDbEntity
   8
LEVEL001
   6
CONTINUOUS
  62
7
 100
AcDbCircle
  10
 366.29035667180
  20
 137.33986774453
  30
0.0
  40
 1.5000000000000
 100
AcDbArc
  50
0.0
  51
 5.7496181294222
   0
LINE
   5
310
 100
AcDbEntity
   8
LEVEL001
 100
AcDbLine
   6
CONTINUOUS
  62
7
  10
 364.44035667180
  20
 137.83986774452
  30
0.0
  11
 367.53463076945
  21
 137.83986774452
  31
0.0
   0
LINE
   5
311
 100
AcDbEntity
   8
LEVEL001
 100
AcDbLine
   6
CONTINUOUS
  62
7
  10
 362.44035667180
  20
 137.83986774452
  30
0.0
  11
 364.44035667180
  21
 137.83986774452
  31
0.0
   0
LINE
   5
312
 100
AcDbEntity
   8
LEVEL001
 100
AcDbLine
   6
CONTINUOUS
  62
7
  10
 352.79035667180
  20
 137.83986774452
  30
0.0
  11
 362.44035667180
  21
 137.83986774452
  31
0.0
   0
LINE
   5
313
 100
AcDbEntity
   8
LEVEL001
 100
AcDbLine
   6
CONTINUOUS
  62
7
  10
 350.79035667180
  20
 137.83986774452
  30
0.0
  11
 352.79035667180
  21
 137.83986774452
  31
0.0
   0
LINE
   5
314
 100
AcDbEntity
   8
LEVEL001
 100
AcDbLine
   6
CONTINUOUS
  62
7
  10
 348.29035667180
  20
 137.83986774452
  30
0.0
  11
 350.79035667180
  21
 137.83986774452
  31
0.0
   0
LINE
   5
315
 100
AcDbEntity
   8
LEVEL001
 100
AcDbLine
   6
CONTINUOUS
  62
7
  10
 345.79035667180
  20
 137.83986774452
  30
0.0
  11
 348.29035667180
  21
 137.83986774452
  31
0.0
   0
LINE
   5
316
 100
AcDbEntity
   8
LEVEL001
 100
AcDbLine
   6
CONTINUOUS
  62
7
  10
 343.79035667180
  20
 137.83986774452
  30
0.0
  11
 345.79035667180
  21
 137.83986774452
  31
0.0
   0
LINE
   5
317
 100
AcDbEntity
   8
LEVEL001
 100
AcDbLine
   6
CONTINUOUS
  62
7
  10
 334.14035667180
  20
 137.83986774452
  30
0.0
  11
 343.79035667180
  21
 137.83986774452
  31
0.0
   0
LINE
   5
318
 100
AcDbEntity
   8
LEVEL001
 100
AcDbLine
   6
CONTINUOUS
  62
7
  10
 333.14035667180
  20
 137.83986774452
  30
0.0
  11
 334.14035667180
  21
 137.83986774452
  31
0.0
   0
LINE
   5
319
 100
AcDbEntity
   8
LEVEL001
 100
AcDbLine
   6
CONTINUOUS
  62
7
  10
 332.14035667180
  20
 137.83986774452
  30
0.0
  11
 333.14035667180
  21
 137.83986774452
  31
0.0
   0
LINE
   5
31A
 100
AcDbEntity
   8
LEVEL001
 100
AcDbLine
   6
CONTINUOUS
  62
7
  10
 329.04608257414
  20
 137.83986774452
  30
0.0
  11
 332.14035667180
  21
 137.83986774452
  31
0.0
   0
LINE
   5
31B
 100
AcDbEntity
   8
LEVEL001
 100
AcDbLine
   6
CONTINUOUS
  62
7
  10
 337.54035667180
  20
 134.83986774452
  30
0.0
  11
 337.54035667180
  21
 136.33986774452
  31
0.0
   0
LINE
   5
31C
 100
AcDbEntity
   8
LEVEL001
 100
AcDbLine
   6
CONTINUOUS
  62
7
  10
 339.04035667180
  20
 134.83986774452
  30
0.0
  11
 339.04035667180
  21
 136.33986774452
  31
0.0
   0
LINE
   5
31D
 100
AcDbEntity
   8
LEVEL001
 100
AcDbLine
   6
CONTINUOUS
  62
7
  10
 357.54035667180
  20
 134.83986774452
  30
0.0
  11
 357.54035667180
  21
 136.33986774452
  31
0.0
   0
LINE
   5
31E
 100
AcDbEntity
   8
LEVEL001
 100
AcDbLine
   6
CONTINUOUS
  62
7
  10
 359.04035667180
  20
 134.83986774452
  30
0.0
  11
 359.04035667180
  21
 136.33986774452
  31
0.0
   0
LINE
   5
31F
 100
AcDbEntity
   8
LEVEL001
 100
AcDbLine
   6
CONTINUOUS
  62
7
  10
 338.29035667180
  20
 124.83986774472
  30
0.0
  11
 337.54035667180
  21
 125.58986774472
  31
0.0
   0
LINE
   5
320
 100
AcDbEntity
   8
LEVEL001
 100
AcDbLine
   6
CONTINUOUS
  62
7
  10
 338.29035667180
  20
 124.83986774472
  30
0.0
  11
 339.04035667180
  21
 125.58986774472
  31
0.0
   0
LINE
   5
321
 100
AcDbEntity
   8
LEVEL001
 100
AcDbLine
   6
CONTINUOUS
  62
7
  10
 358.29035667180
  20
 124.83986774472
  30
0.0
  11
 357.54035667180
  21
 125.58986774472
  31
0.0
   0
LINE
   5
322
 100
AcDbEntity
   8
LEVEL001
 100
AcDbLine
   6
CONTINUOUS
  62
7
  10
 358.29035667180
  20
 124.83986774472
  30
0.0
  11
 359.04035667180
  21
 125.58986774472
  31
0.0
   0
LINE
   5
323
 100
AcDbEntity
   8
LEVEL001
 100
AcDbLine
   6
CONTINUOUS
  62
7
  10
 359.04035667180
  20
 125.58986774472
  30
0.0
  11
 359.04035667180
  21
 134.83986774452
  31
0.0
   0
LINE
   5
324
 100
AcDbEntity
   8
LEVEL001
 100
AcDbLine
   6
CONTINUOUS
  62
7
  10
 357.54035667180
  20
 125.58986774472
  30
0.0
  11
 357.54035667180
  21
 134.83986774452
  31
0.0
   0
LINE
   5
325
 100
AcDbEntity
   8
LEVEL001
 100
AcDbLine
   6
CONTINUOUS
  62
7
  10
 339.04035667180
  20
 125.58986774472
  30
0.0
  11
 339.04035667180
  21
 134.83986774452
  31
0.0
   0
LINE
   5
326
 100
AcDbEntity
   8
LEVEL001
 100
AcDbLine
   6
CONTINUOUS
  62
7
  10
 337.54035667180
  20
 125.58986774472
  30
0.0
  11
 337.54035667180
  21
 134.83986774452
  31
0.0
   0
LINE
   5
327
 100
AcDbEntity
   8
LEVEL001
 100
AcDbLine
   6
CONTINUOUS
  62
7
  10
 345.29035667180
  20
 136.33986774452
  30
0.0
  11
 345.29035667180
  21
 127.83986774452
  31
0.0
   0
LINE
   5
328
 100
AcDbEntity
   8
LEVEL001
 100
AcDbLine
   6
CONTINUOUS
  62
7
  10
 351.29035667180
  20
 136.33986774452
  30
0.0
  11
 351.29035667180
  21
 127.83986774452
  31
0.0
   0
LINE
   5
329
 100
AcDbEntity
   8
LEVEL001
 100
AcDbLine
   6
CONTINUOUS
  62
7
  10
 345.29035667180
  20
 127.83986774452
  30
0.0
  11
 351.29035667180
  21
 127.83986774452
  31
0.0
   0
LINE
   5
32A
 100
AcDbEntity
   8
LEVEL001
 100
AcDbLine
   6
CONTINUOUS
  62
15
  10
 331.69035667180
  20
 136.33986774452
  30
0.0
  11
 332.04035667180
  21
 124.83986774452
  31
0.0
   0
LINE
   5
32B
 100
AcDbEntity
   8
LEVEL001
 100
AcDbLine
   6
CONTINUOUS
  62
15
  10
 364.89035667180
  20
 136.33986774452
  30
0.0
  11
 364.54035667180
  21
 124.83986774452
  31
0.0
   0
LINE
   5
32C
 100
AcDbEntity
   8
LEVEL001
 100
AcDbLine
   6
CONTINUOUS
  62
7
  10
 332.04035667180
  20
 136.33986774452
  30
0.0
  11
 332.04035667180
  21
 123.83986774452
  31
0.0
   0
ARC
   5
32D
 100
AcDbEntity
   8
LEVEL001
   6
CONTINUOUS
  62
7
 100
AcDbCircle
  10
 333.04035667180
  20
 123.83986774452
  30
0.0
  40
 1.0000000000000
 100
AcDbArc
  50
 180.00000000000
  51
 269.99999999990
   0
POINT
   5
32E
 100
AcDbEntity
   8
LEVEL001
 100
AcDbPoint
  62
7
  10
 332.04035667180
  20
 122.83986774452
  30
0.0
   0
LINE
   5
32F
 100
AcDbEntity
   8
LEVEL001
 100
AcDbLine
   6
CONTINUOUS
  62
7
  10
 348.29035667180
  20
 122.83986774452
  30
0.0
  11
 333.04035667180
  21
 122.83986774452
  31
0.0
   0
LINE
   5
330
 100
AcDbEntity
   8
LEVEL001
 100
AcDbLine
   6
CONTINUOUS
  62
7
  10
 348.29035667180
  20
 122.83986774452
  30
0.0
  11
 363.54035667180
  21
 122.83986774452
  31
0.0
   0
ARC
   5
331
 100
AcDbEntity
   8
LEVEL001
   6
CONTINUOUS
  62
7
 100
AcDbCircle
  10
 363.54035667180
  20
 123.83986774451
  30
0.0
  40
 1.0000000000000
 100
AcDbArc
  50
 270.00000000000
  51
 0.38756967126442E-9
   0
POINT
   5
332
 100
AcDbEntity
   8
LEVEL001
 100
AcDbPoint
  62
7
  10
 364.54035667180
  20
 122.83986774452
  30
0.0
   0
LINE
   5
333
 100
AcDbEntity
   8
LEVEL001
 100
AcDbLine
   6
CONTINUOUS
  62
7
  10
 364.54035667180
  20
 136.33986774452
  30
0.0
  11
 364.54035667180
  21
 123.83986774452
  31
0.0
   0
LINE
   5
334
 100
AcDbEntity
   8
LEVEL001
 100
AcDbLine
   6
DASHDOT
  62
3
  10
 348.29035667180
  20
 142.31264480562
  30
0.0
  11
 348.29035667180
  21
 119.21050055610
  31
0.0
   0
DIMENSION
   5
335
 100
AcDbEntity
   8
LEVEL001
   6
CONTINUOUS
  62
3
 100
AcDbDimension
   2
*D14
  10
 393.43736859943
  20
 138.83986774452
  30
0.0
  11
 393.43736859943
  21
 130.83986774452
  31
0.0
  70
0
   3
GMM001
 100
AcDbAlignedDimension
  13
 385.96819566710
  23
 122.83986774452
  33
0.0
  14
 385.96819566710
  24
 138.83986774452
  34
0.0
  50
 90.000000000000
 100
AcDbRotatedDimension
   0
LINE
   5
336
 100
AcDbEntity
   8
LEVEL001
 100
AcDbLine
   6
CONTINUOUS
  62
15
  10
 343.79035667180
  20
 181.14512986186
  30
0.0
  11
 343.79035667180
  21
 180.49512986186
  31
0.0
   0
LINE
   5
337
 100
AcDbEntity
   8
LEVEL001
 100
AcDbLine
   6
CONTINUOUS
  62
15
  10
 352.79035667180
  20
 181.14512986186
  30
0.0
  11
 352.79035667180
  21
 180.49512986186
  31
0.0
   0
DIMENSION
   5
338
 100
AcDbEntity
   8
LEVEL001
   6
CONTINUOUS
  62
3
 100
AcDbDimension
   2
*D15
  10
 364.54035667180
  20
 107.18053830634
  30
0.0
  11
 348.29035667180
  21
 107.18053830634
  31
0.0
  70
0
   3
GMM001
 100
AcDbAlignedDimension
  13
 332.04035667180
  23
 122.83986774452
  33
0.0
  14
 364.54035667180
  24
 122.83986774452
  34
0.0
 100
AcDbRotatedDimension
   0
DIMENSION
   5
339
 100
AcDbEntity
   8
LEVEL001
   6
CONTINUOUS
  62
3
 100
AcDbDimension
   2
*D16
  10
 384.96819566710
  20
 138.83986774452
  30
0.0
  11
 384.96819566710
  21
 147.09652992769
  31
0.0
  70
128
   3
GMM005
 100
AcDbAlignedDimension
  13
 367.79035667180
  23
 136.33986774452
  33
0.0
  14
 364.44035667180
  24
 138.83986774452
  34
0.0
  50
 90.000000000000
 100
AcDbRotatedDimension
   0
DIMENSION
   5
33A
 100
AcDbEntity
   8
LEVEL001
   6
CONTINUOUS
  62
3
 100
AcDbDimension
   2
*D17
  10
 384.96819566710
  20
 122.83986774452
  30
0.0
  11
 384.96819566710
  21
 129.75457092119
  31
0.0
  70
128
  53
 90.000000000000
   3
GMM006
 100
AcDbAlignedDimension
  13
 384.96819566710
  23
 136.33986774452
  33
0.0
  14
 364.54035667180
  24
 122.83986774452
  34
0.0
  50
 270.00000000000
 100
AcDbRotatedDimension
   0
LINE
   5
33B
 100
AcDbEntity
   8
LEVEL001
 100
AcDbLine
   6
CONTINUOUS
  62
7
  10
 264.33567658077
  20
 235.14512986186
  30
0.0
  11
 263.33567658077
  21
 235.14512986186
  31
0.0
   0
LINE
   5
33C
 100
AcDbEntity
   8
LEVEL001
 100
AcDbLine
   6
CONTINUOUS
  62
7
  10
 264.33567658077
  20
 175.14512986186
  30
0.0
  11
 263.33567658077
  21
 175.14512986186
  31
0.0
   0
LINE
   5
33D
 100
AcDbEntity
   8
LEVEL001
 100
AcDbLine
   6
CONTINUOUS
  62
7
  10
 264.39940812532
  20
 175.14512986186
  30
0.0
  11
 264.05222752841
  21
 175.14512986186
  31
0.0
   0
ARC
   5
33E
 100
AcDbEntity
   8
LEVEL001
   6
CONTINUOUS
  62
7
 100
AcDbCircle
  10
 264.39940812532
  20
 175.64512986185
  30
0.0
  40
 0.50000000000000
 100
AcDbArc
  50
 270.00000000005
  51
 351.00688664643
   0
ARC
   5
33F
 100
AcDbEntity
   8
LEVEL001
   6
CONTINUOUS
  62
7
 100
AcDbCircle
  10
 274.77033305381
  20
 174.00381449677
  30
0.0
  40
 10.000000000000
 100
AcDbArc
  50
 153.31202212323
  51
 171.00688664617
   0
ARC
   5
340
 100
AcDbEntity
   8
LEVEL001
   6
CONTINUOUS
  62
7
 100
AcDbCircle
  10
 264.39940812532
  20
 234.64512986186
  30
0.0
  40
 0.50000000000000
 100
AcDbArc
  50
 8.9931133532965
  51
 89.999999999922
   0
ARC
   5
341
 100
AcDbEntity
   8
LEVEL001
   6
CONTINUOUS
  62
7
 100
AcDbCircle
  10
 274.77033305381
  20
 236.28644522694
  30
0.0
  40
 10.000000000000
 100
AcDbArc
  50
 188.99311335382
  51
 206.68797787677
   0
ARC
   5
342
 100
AcDbEntity
   8
LEVEL001
   6
CONTINUOUS
  62
7
 100
AcDbCircle
  10
 264.33567658075
  20
 233.64512986186
  30
0.0
  40
 1.5000000000000
 100
AcDbArc
  50
 84.250381868452
  51
 89.999999999401
   0
LINE
   5
343
 100
AcDbEntity
   8
LEVEL001
 100
AcDbLine
   6
CONTINUOUS
  62
7
  10
 265.83567658077
  20
 231.79512986186
  30
0.0
  11
 265.83567658077
  21
 178.49512986186
  31
0.0
   0
LINE
   5
344
 100
AcDbEntity
   8
LEVEL001
 100
AcDbLine
   6
CONTINUOUS
  62
7
  10
 264.83567658077
  20
 230.29512986186
  30
0.0
  11
 264.83567658077
  21
 234.88940395951
  31
0.0
   0
LINE
   5
345
 100
AcDbEntity
   8
LEVEL001
 100
AcDbLine
   6
CONTINUOUS
  62
7
  10
 264.83567658077
  20
 175.40085576420
  30
0.0
  11
 264.83567658077
  21
 178.49512986186
  31
0.0
   0
LINE
   5
346
 100
AcDbEntity
   8
LEVEL001
 100
AcDbLine
   6
CONTINUOUS
  62
7
  10
 264.83567658077
  20
 230.29512986186
  30
0.0
  11
 264.83567658077
  21
 178.49512986186
  31
0.0
   0
CIRCLE
   5
347
 100
AcDbEntity
   8
LEVEL001
 100
AcDbCircle
   6
CONTINUOUS
  62
7
  10
 261.83567658077
  20
 225.14512986186
  30
0.0
  40
 1.0000000000000
   0
LINE
   5
348
 100
AcDbEntity
   8
LEVEL001
 100
AcDbLine
   6
CONTINUOUS
  62
7
  10
 263.33567658076
  20
 220.89512986186
  30
0.0
  11
 255.66581484332
  21
 220.89512986186
  31
0.0
   0
LINE
   5
349
 100
AcDbEntity
   8
LEVEL001
 100
AcDbLine
   6
CONTINUOUS
  62
7
  10
 263.33567658076
  20
 219.39512986186
  30
0.0
  11
 255.66581484332
  21
 219.39512986186
  31
0.0
   0
LINE
   5
34A
 100
AcDbEntity
   8
LEVEL001
 100
AcDbLine
   6
CONTINUOUS
  62
7
  10
 263.33567658077
  20
 190.89512986186
  30
0.0
  11
 255.66581484332
  21
 190.89512986186
  31
0.0
   0
LINE
   5
34B
 100
AcDbEntity
   8
LEVEL001
 100
AcDbLine
   6
CONTINUOUS
  62
7
  10
 263.33567658077
  20
 189.39512986186
  30
0.0
  11
 255.66581484332
  21
 189.39512986186
  31
0.0
   0
LINE
   5
34C
 100
AcDbEntity
   8
LEVEL001
 100
AcDbLine
   6
CONTINUOUS
  62
7
  10
 255.66581484332
  20
 220.89512986186
  30
0.0
  11
 252.58077754090
  21
 220.89512986186
  31
0.0
   0
LINE
   5
34D
 100
AcDbEntity
   8
LEVEL001
 100
AcDbLine
   6
CONTINUOUS
  62
7
  10
 255.66581484332
  20
 219.39512986186
  30
0.0
  11
 252.58077754090
  21
 219.39512986186
  31
0.0
   0
LINE
   5
34E
 100
AcDbEntity
   8
LEVEL001
 100
AcDbLine
   6
CONTINUOUS
  62
7
  10
 255.66581484332
  20
 190.89512986186
  30
0.0
  11
 252.58077754090
  21
 190.89512986186
  31
0.0
   0
LINE
   5
34F
 100
AcDbEntity
   8
LEVEL001
 100
AcDbLine
   6
CONTINUOUS
  62
7
  10
 255.66581484332
  20
 189.39512986186
  30
0.0
  11
 252.58077754090
  21
 189.39512986186
  31
0.0
   0
LINE
   5
350
 100
AcDbEntity
   8
LEVEL001
 100
AcDbLine
   6
CONTINUOUS
  62
7
  10
 263.33567658077
  20
 178.39512986186
  30
0.0
  11
 250.83567658077
  21
 178.39512986186
  31
0.0
   0
LINE
   5
351
 100
AcDbEntity
   8
LEVEL001
 100
AcDbLine
   6
CONTINUOUS
  62
7
  10
 252.58077754090
  20
 220.89512986186
  30
0.0
  11
 251.83567658076
  21
 220.15002890172
  31
0.0
   0
LINE
   5
352
 100
AcDbEntity
   8
LEVEL001
 100
AcDbLine
   6
CONTINUOUS
  62
7
  10
 252.58077754090
  20
 219.39512986186
  30
0.0
  11
 251.83567658076
  21
 220.14023082199
  31
0.0
   0
LINE
   5
353
 100
AcDbEntity
   8
LEVEL001
 100
AcDbLine
   6
CONTINUOUS
  62
7
  10
 252.58077754090
  20
 190.89512986186
  30
0.0
  11
 251.83567658077
  21
 190.15002890172
  31
0.0
   0
LINE
   5
354
 100
AcDbEntity
   8
LEVEL001
 100
AcDbLine
   6
CONTINUOUS
  62
7
  10
 252.58077754090
  20
 189.39512986186
  30
0.0
  11
 251.83567658077
  21
 190.14023082199
  31
0.0
   0
ARC
   5
355
 100
AcDbEntity
   8
LEVEL001
   6
CONTINUOUS
  62
7
 100
AcDbCircle
  10
 250.83567658077
  20
 179.39512986186
  30
0.0
  40
 1.0000000000000
 100
AcDbArc
  50
 180.00000000020
  51
 270.00000000000
   0
LINE
   5
356
 100
AcDbEntity
   8
LEVEL001
 100
AcDbLine
   6
DOT
  62
3
  10
 254.83567658077
  20
 178.39512986186
  30
0.0
  11
 254.83567658077
  21
 178.28303662068
  31
0.0
   0
LINE
   5
357
 100
AcDbEntity
   8
LEVEL001
 100
AcDbLine
   6
DASHDOT
  62
3
  10
 264.11131419906
  20
 225.14512986186
  30
0.0
  11
 259.74603061974
  21
 225.14512986186
  31
0.0
   0
LINE
   5
358
 100
AcDbEntity
   8
LEVEL001
 100
AcDbLine
   6
DASHDOT
  62
3
  10
 261.83567658077
  20
 227.28741006857
  30
0.0
  11
 261.83567658077
  21
 222.48332957482
  31
0.0
   0
ARC
   5
359
 100
AcDbEntity
   8
LEVEL001
   6
DOT
  62
1
 100
AcDbCircle
  10
 259.13567658077
  20
 215.04512986186
  30
0.0
  40
 0.50000000000000
 100
AcDbArc
  50
 270.00000000000
  51
0.0
   0
LINE
   5
35A
 100
AcDbEntity
   8
LEVEL001
 100
AcDbLine
   6
DOT
  62
1
  10
 259.13567658077
  20
 214.54512986186
  30
0.0
  11
 249.83567658077
  21
 214.54512986186
  31
0.0
   0
ARC
   5
35B
 100
AcDbEntity
   8
LEVEL001
   6
DOT
  62
1
 100
AcDbCircle
  10
 259.13567658077
  20
 222.14512986186
  30
0.0
  40
 0.50000000000000
 100
AcDbArc
  50
 0.14330307172802E-9
  51
 90.000000000000
   0
LINE
   5
35C
 100
AcDbEntity
   8
LEVEL001
 100
AcDbLine
   6
DOT
  62
1
  10
 259.13567658077
  20
 222.64512986186
  30
0.0
  11
 257.33567658077
  21
 222.64512986186
  31
0.0
   0
LINE
   5
35D
 100
AcDbEntity
   8
LEVEL001
 100
AcDbLine
   6
DOT
  62
1
  10
 257.33567658077
  20
 229.79512986186
  30
0.0
  11
 257.33567658077
  21
 222.64512986186
  31
0.0
   0
ARC
   5
35E
 100
AcDbEntity
   8
LEVEL001
   6
DOT
  62
1
 100
AcDbCircle
  10
 265.33567658076
  20
 230.29512986186
  30
0.0
  40
 0.50000000000000
 100
AcDbArc
  50
 270.00000000116
  51
0.0
   0
LINE
   5
35F
 100
AcDbEntity
   8
LEVEL001
 100
AcDbLine
   6
DOT
  62
1
  10
 251.33567658077
  20
 205.14512986186
  30
0.0
  11
 251.33567658077
  21
 229.79512986186
  31
0.0
   0
LINE
   5
360
 100
AcDbEntity
   8
LEVEL001
 100
AcDbLine
   6
DOT
  62
1
  10
 258.33567658077
  20
 221.04512986186
  30
0.0
  11
 251.33567658077
  21
 221.04512986186
  31
0.0
   0
LINE
   5
361
 100
AcDbEntity
   8
LEVEL001
 100
AcDbLine
   6
DOT
  62
1
  10
 258.33567658077
  20
 217.04512986186
  30
0.0
  11
 251.33567658077
  21
 217.04512986186
  31
0.0
   0
LINE
   5
362
 100
AcDbEntity
   8
LEVEL001
 100
AcDbLine
   6
DOT
  62
1
  10
 259.63567658077
  20
 214.94669217288
  30
0.0
  11
 259.63567658077
  21
 222.14512986186
  31
0.0
   0
LINE
   5
363
 100
AcDbEntity
   8
LEVEL001
 100
AcDbLine
   6
DOT
  62
1
  10
 258.83567658077
  20
 217.39512986186
  30
0.0
  11
 251.33567658077
  21
 217.39512986186
  31
0.0
   0
LINE
   5
364
 100
AcDbEntity
   8
LEVEL001
 100
AcDbLine
   6
DOT
  62
1
  10
 258.83567658077
  20
 217.39512986186
  30
0.0
  11
 258.83567658077
  21
 220.69512986186
  31
0.0
   0
LINE
   5
365
 100
AcDbEntity
   8
LEVEL001
 100
AcDbLine
   6
DOT
  62
1
  10
 258.83567658077
  20
 220.69512986186
  30
0.0
  11
 251.33567658077
  21
 220.69512986186
  31
0.0
   0
LINE
   5
366
 100
AcDbEntity
   8
LEVEL001
 100
AcDbLine
   6
DOT
  62
1
  10
 258.33567658077
  20
 221.04512986186
  30
0.0
  11
 258.33567658077
  21
 217.04512986186
  31
0.0
   0
LINE
   5
367
 100
AcDbEntity
   8
LEVEL001
 100
AcDbLine
   6
DOT
  62
1
  10
 265.33567658077
  20
 229.79512986186
  30
0.0
  11
 251.33567658077
  21
 229.79512986186
  31
0.0
   0
LINE
   5
368
 100
AcDbEntity
   8
LEVEL001
 100
AcDbLine
   6
DASHDOT
  62
3
  10
 269.38871503416
  20
 205.14512986186
  30
0.0
  11
 245.62797986290
  21
 205.14512986186
  31
0.0
   0
LINE
   5
369
 100
AcDbEntity
   8
LEVEL001
 100
AcDbLine
   6
DASHDOT
  62
3
  10
 266.77468225062
  20
 220.14512986186
  30
0.0
  11
 250.33298541593
  21
 220.14512986186
  31
0.0
   0
ARC
   5
36A
 100
AcDbEntity
   8
LEVEL001
   6
CONTINUOUS
  62
15
 100
AcDbCircle
  10
 255.33567658077
  20
 177.89512986186
  30
0.0
  40
 0.50000000000000
 100
AcDbArc
  50
 180.00000000020
  51
 270.00000000000
   0
LINE
   5
36B
 100
AcDbEntity
   8
LEVEL001
 100
AcDbLine
   6
CONTINUOUS
  62
15
  10
 254.83567658077
  20
 178.28303662068
  30
0.0
  11
 254.83567658077
  21
 177.89512986186
  31
0.0
   0
LINE
   5
36C
 100
AcDbEntity
   8
LEVEL001
 100
AcDbLine
   6
CONTINUOUS
  62
15
  10
 263.33567658077
  20
 178.04512986186
  30
0.0
  11
 250.83077754079
  21
 178.39512986186
  31
0.0
   0
LINE
   5
36D
 100
AcDbEntity
   8
LEVEL001
 100
AcDbLine
   6
CONTINUOUS
  62
15
  10
 263.33567658077
  20
 177.39512986186
  30
0.0
  11
 255.33567658077
  21
 177.39512986186
  31
0.0
   0
ARC
   5
36E
 100
AcDbEntity
   8
LEVEL001
   6
DOT
  62
1
 100
AcDbCircle
  10
 265.33567658077
  20
 179.99512986186
  30
0.0
  40
 0.50000000000000
 100
AcDbArc
  50
0.0
  51
 90.000000000000
   0
LINE
   5
36F
 100
AcDbEntity
   8
LEVEL001
 100
AcDbLine
   6
DOT
  62
1
  10
 258.33567658077
  20
 186.99512986186
  30
0.0
  11
 251.33567658077
  21
 186.99512986186
  31
0.0
   0
ARC
   5
370
 100
AcDbEntity
   8
LEVEL001
   6
DOT
  62
1
 100
AcDbCircle
  10
 258.33567658076
  20
 186.49512986186
  30
0.0
  40
 0.50000000000000
 100
AcDbArc
  50
0.0
  51
 89.999999999140
   0
LINE
   5
371
 100
AcDbEntity
   8
LEVEL001
 100
AcDbLine
   6
DOT
  62
1
  10
 251.33567658077
  20
 180.49512986186
  30
0.0
  11
 251.33567658077
  21
 205.14512986186
  31
0.0
   0
LINE
   5
372
 100
AcDbEntity
   8
LEVEL001
 100
AcDbLine
   6
DOT
  62
1
  10
 253.33567658077
  20
 182.99512986186
  30
0.0
  11
 253.33567658077
  21
 185.99512986186
  31
0.0
   0
LINE
   5
373
 100
AcDbEntity
   8
LEVEL001
 100
AcDbLine
   6
DOT
  62
1
  10
 258.83567658077
  20
 180.49512986186
  30
0.0
  11
 258.83567658077
  21
 186.49512986186
  31
0.0
   0
LINE
   5
374
 100
AcDbEntity
   8
LEVEL001
 100
AcDbLine
   6
DOT
  62
1
  10
 265.33567658077
  20
 180.49512986186
  30
0.0
  11
 251.33567658077
  21
 180.49512986186
  31
0.0
   0
LINE
   5
375
 100
AcDbEntity
   8
LEVEL001
 100
AcDbLine
   6
DASHDOT
  62
3
  10
 267.36229436172
  20
 190.14512986186
  30
0.0
  11
 250.48276219797
  21
 190.14512986186
  31
0.0
   0
LINE
   5
376
 100
AcDbEntity
   8
LEVEL001
 100
AcDbLine
   6
DASHDOT
  62
3
  10
 260.42470996568
  20
 184.49512986186
  30
0.0
  11
 252.08574404075
  21
 184.49512986186
  31
0.0
   0
LINE
   5
377
 100
AcDbEntity
   8
LEVEL001
 100
AcDbLine
   6
DASHDOT
  62
3
  10
 248.33567658077
  20
 238.65307042111
  30
0.0
  11
 248.33567658077
  21
 170.06132679775
  31
0.0
   0
LINE
   5
378
 100
AcDbEntity
   8
LEVEL001
 100
AcDbLine
   6
CONTINUOUS
  62
7
  10
 233.33567658077
  20
 235.14512986186
  30
0.0
  11
 233.33567658077
  21
 175.14512986186
  31
0.0
   0
LINE
   5
379
 100
AcDbEntity
   8
LEVEL001
 100
AcDbLine
   6
CONTINUOUS
  62
7
  10
 232.33567658077
  20
 235.14512986186
  30
0.0
  11
 233.33567658077
  21
 235.14512986186
  31
0.0
   0
LINE
   5
37A
 100
AcDbEntity
   8
LEVEL001
 100
AcDbLine
   6
CONTINUOUS
  62
7
  10
 232.33567658077
  20
 175.14512986186
  30
0.0
  11
 233.33567658077
  21
 175.14512986186
  31
0.0
   0
LINE
   5
37B
 100
AcDbEntity
   8
LEVEL001
 100
AcDbLine
   6
CONTINUOUS
  62
7
  10
 232.27194503621
  20
 175.14512986186
  30
0.0
  11
 232.61912563312
  21
 175.14512986186
  31
0.0
   0
ARC
   5
37C
 100
AcDbEntity
   8
LEVEL001
   6
CONTINUOUS
  62
7
 100
AcDbCircle
  10
 232.27194503621
  20
 175.64512986186
  30
0.0
  40
 0.50000000000000
 100
AcDbArc
  50
 188.99311335390
  51
 270.00000000000
   0
ARC
   5
37D
 100
AcDbEntity
   8
LEVEL001
   6
CONTINUOUS
  62
7
 100
AcDbCircle
  10
 221.90102010772
  20
 174.00381449677
  30
0.0
  40
 10.000000000000
 100
AcDbArc
  50
 8.9931133538289
  51
 26.687977876773
   0
ARC
   5
37E
 100
AcDbEntity
   8
LEVEL001
   6
CONTINUOUS
  62
7
 100
AcDbCircle
  10
 232.27194503621
  20
 234.64512986185
  30
0.0
  40
 0.50000000000000
 100
AcDbArc
  50
 89.999999999945
  51
 171.00688664577
   0
ARC
   5
37F
 100
AcDbEntity
   8
LEVEL001
   6
CONTINUOUS
  62
7
 100
AcDbCircle
  10
 221.90102010772
  20
 236.28644522695
  30
0.0
  40
 10.000000000000
 100
AcDbArc
  50
 333.31202212322
  51
 351.00688664617
   0
ARC
   5
380
 100
AcDbEntity
   8
LEVEL001
   6
CONTINUOUS
  62
7
 100
AcDbCircle
  10
 232.33567658078
  20
 233.64512986186
  30
0.0
  40
 1.5000000000000
 100
AcDbArc
  50
 90.000000000347
  51
 95.749618131295
   0
LINE
   5
381
 100
AcDbEntity
   8
LEVEL001
 100
AcDbLine
   6
CONTINUOUS
  62
7
  10
 230.83567658077
  20
 231.79512986186
  30
0.0
  11
 230.83567658077
  21
 178.49512986186
  31
0.0
   0
LINE
   5
382
 100
AcDbEntity
   8
LEVEL001
 100
AcDbLine
   6
CONTINUOUS
  62
7
  10
 231.83567658077
  20
 230.29512986186
  30
0.0
  11
 231.83567658077
  21
 234.88940395951
  31
0.0
   0
LINE
   5
383
 100
AcDbEntity
   8
LEVEL001
 100
AcDbLine
   6
CONTINUOUS
  62
7
  10
 231.83567658077
  20
 175.40085576420
  30
0.0
  11
 231.83567658077
  21
 178.49512986186
  31
0.0
   0
LINE
   5
384
 100
AcDbEntity
   8
LEVEL001
 100
AcDbLine
   6
CONTINUOUS
  62
7
  10
 231.83567658077
  20
 230.29512986186
  30
0.0
  11
 231.83567658077
  21
 178.49512986186
  31
0.0
   0
CIRCLE
   5
385
 100
AcDbEntity
   8
LEVEL001
 100
AcDbCircle
   6
CONTINUOUS
  62
7
  10
 234.83567658077
  20
 225.14512986186
  30
0.0
  40
 1.0000000000000
   0
LINE
   5
386
 100
AcDbEntity
   8
LEVEL001
 100
AcDbLine
   6
CONTINUOUS
  62
7
  10
 233.33567658077
  20
 220.89512986186
  30
0.0
  11
 241.00553831821
  21
 220.89512986186
  31
0.0
   0
LINE
   5
387
 100
AcDbEntity
   8
LEVEL001
 100
AcDbLine
   6
CONTINUOUS
  62
7
  10
 233.33567658077
  20
 219.39512986186
  30
0.0
  11
 241.00553831821
  21
 219.39512986186
  31
0.0
   0
LINE
   5
388
 100
AcDbEntity
   8
LEVEL001
 100
AcDbLine
   6
CONTINUOUS
  62
7
  10
 233.33567658077
  20
 190.89512986186
  30
0.0
  11
 241.00553831821
  21
 190.89512986186
  31
0.0
   0
LINE
   5
389
 100
AcDbEntity
   8
LEVEL001
 100
AcDbLine
   6
CONTINUOUS
  62
7
  10
 233.33567658077
  20
 189.39512986186
  30
0.0
  11
 241.00553831821
  21
 189.39512986186
  31
0.0
   0
LINE
   5
38A
 100
AcDbEntity
   8
LEVEL001
 100
AcDbLine
   6
CONTINUOUS
  62
7
  10
 244.09057562064
  20
 220.89512986186
  30
0.0
  11
 244.83567658077
  21
 220.15002890172
  31
0.0
   0
LINE
   5
38B
 100
AcDbEntity
   8
LEVEL001
 100
AcDbLine
   6
CONTINUOUS
  62
7
  10
 244.09057562064
  20
 219.39512986186
  30
0.0
  11
 244.83567658077
  21
 220.14023082199
  31
0.0
   0
LINE
   5
38C
 100
AcDbEntity
   8
LEVEL001
 100
AcDbLine
   6
CONTINUOUS
  62
7
  10
 244.09057562063
  20
 190.89512986186
  30
0.0
  11
 244.83567658077
  21
 190.15002890172
  31
0.0
   0
LINE
   5
38D
 100
AcDbEntity
   8
LEVEL001
 100
AcDbLine
   6
CONTINUOUS
  62
7
  10
 244.09057562063
  20
 189.39512986186
  30
0.0
  11
 244.83567658077
  21
 190.14023082199
  31
0.0
   0
LINE
   5
38E
 100
AcDbEntity
   8
LEVEL001
 100
AcDbLine
   6
CONTINUOUS
  62
7
  10
 241.00553831821
  20
 220.89512986186
  30
0.0
  11
 244.09057562064
  21
 220.89512986186
  31
0.0
   0
LINE
   5
38F
 100
AcDbEntity
   8
LEVEL001
 100
AcDbLine
   6
CONTINUOUS
  62
7
  10
 241.00553831821
  20
 219.39512986186
  30
0.0
  11
 244.09057562064
  21
 219.39512986186
  31
0.0
   0
LINE
   5
390
 100
AcDbEntity
   8
LEVEL001
 100
AcDbLine
   6
CONTINUOUS
  62
7
  10
 241.00553831821
  20
 190.89512986186
  30
0.0
  11
 244.09057562063
  21
 190.89512986186
  31
0.0
   0
LINE
   5
391
 100
AcDbEntity
   8
LEVEL001
 100
AcDbLine
   6
CONTINUOUS
  62
7
  10
 241.00553831821
  20
 189.39512986186
  30
0.0
  11
 244.09057562063
  21
 189.39512986186
  31
0.0
   0
LINE
   5
392
 100
AcDbEntity
   8
LEVEL001
 100
AcDbLine
   6
CONTINUOUS
  62
15
  10
 233.33567658077
  20
 178.04512986186
  30
0.0
  11
 245.84057562074
  21
 178.39512986186
  31
0.0
   0
LINE
   5
393
 100
AcDbEntity
   8
LEVEL001
 100
AcDbLine
   6
DOT
  62
1
  10
 241.83567658077
  20
 178.28303662068
  30
0.0
  11
 241.83567658077
  21
 178.39512986186
  31
0.0
   0
ARC
   5
394
 100
AcDbEntity
   8
LEVEL001
   6
DOT
  62
1
 100
AcDbCircle
  10
 231.33567658077
  20
 179.99512986185
  30
0.0
  40
 0.50000000000000
 100
AcDbArc
  50
 90.000000000000
  51
 179.99999999975
   0
LINE
   5
395
 100
AcDbEntity
   8
LEVEL001
 100
AcDbLine
   6
DOT
  62
1
  10
 238.33567658077
  20
 186.99512986186
  30
0.0
  11
 245.33567658077
  21
 186.99512986186
  31
0.0
   0
ARC
   5
396
 100
AcDbEntity
   8
LEVEL001
   6
DOT
  62
1
 100
AcDbCircle
  10
 238.33567658076
  20
 186.49512986186
  30
0.0
  40
 0.50000000000000
 100
AcDbArc
  50
 89.999999999336
  51
 180.00000000000
   0
LINE
   5
397
 100
AcDbEntity
   8
LEVEL001
 100
AcDbLine
   6
DOT
  62
1
  10
 245.33567658077
  20
 180.49512986186
  30
0.0
  11
 245.33567658077
  21
 205.14512986186
  31
0.0
   0
LINE
   5
398
 100
AcDbEntity
   8
LEVEL001
 100
AcDbLine
   6
DOT
  62
1
  10
 231.33567658077
  20
 180.49512986186
  30
0.0
  11
 245.33567658077
  21
 180.49512986186
  31
0.0
   0
LINE
   5
399
 100
AcDbEntity
   8
LEVEL001
 100
AcDbLine
   6
DOT
  62
1
  10
 237.83567658077
  20
 180.49512986186
  30
0.0
  11
 237.83567658077
  21
 186.49512986186
  31
0.0
   0
LINE
   5
39A
 100
AcDbEntity
   8
LEVEL001
 100
AcDbLine
   6
DOT
  62
1
  10
 243.33567658077
  20
 182.99512986186
  30
0.0
  11
 243.33567658077
  21
 185.99512986186
  31
0.0
   0
LINE
   5
39B
 100
AcDbEntity
   8
LEVEL001
 100
AcDbLine
   6
DASHDOT
  62
3
  10
 236.24664319585
  20
 184.49512986186
  30
0.0
  11
 246.17450910601
  21
 184.49512986186
  31
0.0
   0
LINE
   5
39C
 100
AcDbEntity
   8
LEVEL001
 100
AcDbLine
   6
DASHDOT
  62
3
  10
 229.88964880711
  20
 190.14512986186
  30
0.0
  11
 246.20064852864
  21
 190.14512986186
  31
0.0
   0
LINE
   5
39D
 100
AcDbEntity
   8
LEVEL001
 100
AcDbLine
   6
DASHDOT
  62
3
  10
 230.02330945972
  20
 220.14512986186
  30
0.0
  11
 246.25589091336
  21
 220.14512986186
  31
0.0
   0
LINE
   5
39E
 100
AcDbEntity
   8
LEVEL001
 100
AcDbLine
   6
DASHDOT
  62
3
  10
 232.56003896247
  20
 225.14512986186
  30
0.0
  11
 236.92532254179
  21
 225.14512986186
  31
0.0
   0
LINE
   5
39F
 100
AcDbEntity
   8
LEVEL001
 100
AcDbLine
   6
DASHDOT
  62
3
  10
 234.83567658077
  20
 227.28741006857
  30
0.0
  11
 234.83567658077
  21
 222.48332957482
  31
0.0
   0
LINE
   5
3A0
 100
AcDbEntity
   8
LEVEL001
 100
AcDbLine
   6
DASHDOT
  62
3
  10
 227.39953058969
  20
 205.14512986186
  30
0.0
  11
 251.16026576096
  21
 205.14512986186
  31
0.0
   0
LINE
   5
3A1
 100
AcDbEntity
   8
LEVEL001
 100
AcDbLine
   6
DOT
  62
1
  10
 245.33567658077
  20
 205.14512986186
  30
0.0
  11
 245.33567658077
  21
 229.79512986186
  31
0.0
   0
LINE
   5
3A2
 100
AcDbEntity
   8
LEVEL001
 100
AcDbLine
   6
DOT
  62
1
  10
 238.58567658078
  20
 216.79512986186
  30
0.0
  11
 246.83567658077
  21
 216.79512986186
  31
0.0
   0
LINE
   5
3A3
 100
AcDbEntity
   8
LEVEL001
 100
AcDbLine
   6
DOT
  62
1
  10
 238.58567658078
  20
 216.79512986186
  30
0.0
  11
 238.58567658078
  21
 221.29512986186
  31
0.0
   0
LINE
   5
3A4
 100
AcDbEntity
   8
LEVEL001
 100
AcDbLine
   6
DOT
  62
1
  10
 237.23567658078
  20
 215.44512986186
  30
0.0
  11
 238.58567658078
  21
 216.79512986186
  31
0.0
   0
LINE
   5
3A5
 100
AcDbEntity
   8
LEVEL001
 100
AcDbLine
   6
DOT
  62
1
  10
 237.53567658077
  20
 214.54512986186
  30
0.0
  11
 246.83567658077
  21
 214.54512986186
  31
0.0
   0
ARC
   5
3A6
 100
AcDbEntity
   8
LEVEL001
   6
DOT
  62
1
 100
AcDbCircle
  10
 237.53567658077
  20
 215.04512986186
  30
0.0
  40
 0.50000000000000
 100
AcDbArc
  50
 179.99999999987
  51
 270.00000000000
   0
LINE
   5
3A7
 100
AcDbEntity
   8
LEVEL001
 100
AcDbLine
   6
DOT
  62
1
  10
 238.58567658078
  20
 221.29512986186
  30
0.0
  11
 246.83567658077
  21
 221.29512986186
  31
0.0
   0
LINE
   5
3A8
 100
AcDbEntity
   8
LEVEL001
 100
AcDbLine
   6
DOT
  62
1
  10
 237.53567658077
  20
 222.64512986186
  30
0.0
  11
 239.33567658077
  21
 222.64512986186
  31
0.0
   0
LINE
   5
3A9
 100
AcDbEntity
   8
LEVEL001
 100
AcDbLine
   6
DOT
  62
1
  10
 239.33567658077
  20
 229.79512986186
  30
0.0
  11
 239.33567658077
  21
 222.64512986186
  31
0.0
   0
ARC
   5
3AA
 100
AcDbEntity
   8
LEVEL001
   6
DOT
  62
1
 100
AcDbCircle
  10
 231.33567658076
  20
 230.29512986186
  30
0.0
  40
 0.50000000000000
 100
AcDbArc
  50
 180.00000000000
  51
 270.00000000036
   0
ARC
   5
3AB
 100
AcDbEntity
   8
LEVEL001
   6
DOT
  62
1
 100
AcDbCircle
  10
 237.53567658077
  20
 222.14512986186
  30
0.0
  40
 0.50000000000000
 100
AcDbArc
  50
 90.000000000000
  51
 180.00000000083
   0
LINE
   5
3AC
 100
AcDbEntity
   8
LEVEL001
 100
AcDbLine
   6
DOT
  62
1
  10
 231.33567658077
  20
 229.79512986186
  30
0.0
  11
 245.33567658077
  21
 229.79512986186
  31
0.0
   0
LINE
   5
3AD
 100
AcDbEntity
   8
LEVEL001
 100
AcDbLine
   6
DOT
  62
1
  10
 237.23567658077
  20
 215.44512986186
  30
0.0
  11
 237.23567658077
  21
 222.54512986185
  31
0.0
   0
LINE
   5
3AE
 100
AcDbEntity
   8
LEVEL001
 100
AcDbLine
   6
DOT
  62
1
  10
 237.29656008143
  20
 222.58424636091
  30
0.0
  11
 238.58567658048
  21
 221.29512986186
  31
0.0
   0
LINE
   5
3AF
 100
AcDbEntity
   8
LEVEL001
 100
AcDbLine
   6
DOT
  62
1
  10
 237.03567658077
  20
 215.44512986186
  30
0.0
  11
 237.23567658078
  21
 215.44512986186
  31
0.0
   0
LINE
   5
3B0
 100
AcDbEntity
   8
LEVEL001
 100
AcDbLine
   6
DOT
  62
1
  10
 237.03567658077
  20
 215.04512986186
  30
0.0
  11
 237.03567658077
  21
 222.14512986186
  31
0.0
   0
ARC
   5
3B1
 100
AcDbEntity
   8
LEVEL001
   6
CONTINUOUS
  62
7
 100
AcDbCircle
  10
 245.83567658077
  20
 179.39512986186
  30
0.0
  40
 1.0000000000000
 100
AcDbArc
  50
 269.99999999993
  51
0.0
   0
POINT
   5
3B2
 100
AcDbEntity
   8
LEVEL001
 100
AcDbPoint
  62
7
  10
 246.83567658077
  20
 178.39512986186
  30
0.0
   0
LINE
   5
3B3
 100
AcDbEntity
   8
LEVEL001
 100
AcDbLine
   6
CONTINUOUS
  62
7
  10
 233.33567658077
  20
 178.39512986186
  30
0.0
  11
 245.83567658077
  21
 178.39512986186
  31
0.0
   0
LINE
   5
3B4
 100
AcDbEntity
   8
LEVEL001
 100
AcDbLine
   6
CONTINUOUS
  62
7
  10
 233.33567658077
  20
 231.89512986186
  30
0.0
  11
 245.83567658077
  21
 231.89512986186
  31
0.0
   0
ARC
   5
3B5
 100
AcDbEntity
   8
LEVEL001
   6
CONTINUOUS
  62
7
 100
AcDbCircle
  10
 245.83567658077
  20
 230.89512986186
  30
0.0
  40
 1.0000000000000
 100
AcDbArc
  50
 0.11399107978365E-9
  51
 90.000000000000
   0
POINT
   5
3B6
 100
AcDbEntity
   8
LEVEL001
 100
AcDbPoint
  62
7
  10
 246.83567658077
  20
 231.89512986186
  30
0.0
   0
LINE
   5
3B7
 100
AcDbEntity
   8
LEVEL001
 100
AcDbLine
   6
CONTINUOUS
  62
7
  10
 246.83567658077
  20
 230.89512986186
  30
0.0
  11
 246.83567658077
  21
 179.39512986186
  31
0.0
   0
LINE
   5
3B8
 100
AcDbEntity
   8
LEVEL001
 100
AcDbLine
   6
CONTINUOUS
  62
15
  10
 233.33567658077
  20
 177.39512986186
  30
0.0
  11
 241.33567658077
  21
 177.39512986186
  31
0.0
   0
ARC
   5
3B9
 100
AcDbEntity
   8
LEVEL001
   6
CONTINUOUS
  62
15
 100
AcDbCircle
  10
 241.33567658077
  20
 177.89512986186
  30
0.0
  40
 0.50000000000000
 100
AcDbArc
  50
 270.00000000000
  51
0.0
   0
POINT
   5
3BA
 100
AcDbEntity
   8
LEVEL001
 100
AcDbPoint
  62
15
  10
 241.83567658077
  20
 177.39512986186
  30
0.0
   0
LINE
   5
3BB
 100
AcDbEntity
   8
LEVEL001
 100
AcDbLine
   6
CONTINUOUS
  62
15
  10
 241.83567658077
  20
 177.89512986186
  30
0.0
  11
 241.83567658077
  21
 178.28303662068
  31
0.0
   0
LINE
   5
3BC
 100
AcDbEntity
   8
LEVEL001
 100
AcDbLine
   6
CONTINUOUS
  62
15
  10
 233.33567658077
  20
 232.19512986186
  30
0.0
  11
 245.84057562075
  21
 231.89512986186
  31
0.0
   0
LINE
   5
3BD
 100
AcDbEntity
   8
LEVEL001
 100
AcDbLine
   6
CONTINUOUS
  62
15
  10
 263.33567658076
  20
 232.24512986186
  30
0.0
  11
 250.83077754079
  21
 231.89512986186
  31
0.0
   0
LINE
   5
3BE
 100
AcDbEntity
   8
LEVEL001
 100
AcDbLine
   6
CONTINUOUS
  62
7
  10
 263.33567658077
  20
 231.89512986186
  30
0.0
  11
 250.83567658077
  21
 231.89512986186
  31
0.0
   0
ARC
   5
3BF
 100
AcDbEntity
   8
LEVEL001
   6
CONTINUOUS
  62
7
 100
AcDbCircle
  10
 250.83567658077
  20
 230.89512986185
  30
0.0
  40
 1.0000000000000
 100
AcDbArc
  50
 90.000000000000
  51
 179.99999999976
   0
POINT
   5
3C0
 100
AcDbEntity
   8
LEVEL001
 100
AcDbPoint
  62
7
  10
 249.83567658077
  20
 231.89512986186
  30
0.0
   0
LINE
   5
3C1
 100
AcDbEntity
   8
LEVEL001
 100
AcDbLine
   6
CONTINUOUS
  62
7
  10
 249.83567658077
  20
 230.89512986186
  30
0.0
  11
 249.83567658077
  21
 179.39512986186
  31
0.0
   0
LINE
   5
3C2
 100
AcDbEntity
   8
LEVEL001
 100
AcDbLine
   6
DASHDOT
  62
3
  10
 235.95007906953
  20
 219.04512986186
  30
0.0
  11
 261.20742808689
  21
 219.04512986186
  31
0.0
   0
TEXT
   5
3C3
 100
AcDbEntity
   8
LEVEL001
  62
3
 100
AcDbText
  10
 241.04668326414
  20
 156.94961117243
  30
0.0
  40
 4.0000000000000
   1
（扉厚）
  41
 0.95000000000000
   7
STANDARD
 100
AcDbText
   0
POINT
   5
3C4
 100
AcDbEntity
   8
LEVEL001
 100
AcDbPoint
  62
7
  10
 278.47896735075
  20
 184.36522215787
  30
0.0
   0
POINT
   5
3C5
 100
AcDbEntity
   8
LEVEL001
 100
AcDbPoint
  62
7
  10
 283.92544989952
  20
 186.88232919690
  30
0.0
   0
ARC
   5
3C6
 100
AcDbEntity
   8
LEVEL001
   6
CONTINUOUS
  62
7
 100
AcDbCircle
  10
 279.94365510562
  20
 188.34701695177
  30
0.0
  40
 3.0000000000000
 100
AcDbArc
  50
 294.80415044899
  51
 24.804150448993
   0
POINT
   5
3C7
 100
AcDbEntity
   8
LEVEL001
 100
AcDbPoint
  62
7
  10
 283.92544989952
  20
 186.88232919690
  30
0.0
   0
ARC
   5
3C8
 100
AcDbEntity
   8
LEVEL001
   6
CONTINUOUS
  62
7
 100
AcDbCircle
  10
 279.94365510562
  20
 188.34701695177
  30
0.0
  40
 3.0000000000000
 100
AcDbArc
  50
 204.80415044897
  51
 294.80415044899
   0
POINT
   5
3C9
 100
AcDbEntity
   8
LEVEL001
 100
AcDbPoint
  62
7
  10
 278.47896735075
  20
 184.36522215787
  30
0.0
   0
LINE
   5
3CA
 100
AcDbEntity
   8
LEVEL001
 100
AcDbLine
   6
CONTINUOUS
  62
7
  10
 265.83567658077
  20
 226.02473878217
  30
0.0
  11
 282.66689638000
  21
 189.60557047129
  31
0.0
   0
LINE
   5
3CB
 100
AcDbEntity
   8
LEVEL001
 100
AcDbLine
   6
CONTINUOUS
  62
7
  10
 265.83567658077
  20
 211.72260564212
  30
0.0
  11
 277.22041383123
  21
 187.08846343225
  31
0.0
   0
ARC
   5
3CC
 100
AcDbEntity
   8
LEVEL001
   6
DIVIDE
  62
3
 100
AcDbCircle
  10
 261.83567658077
  20
 225.14512986186
  30
0.0
  40
 45.029818076494
 100
AcDbArc
  50
 276.92377768872
  51
 314.27723937093
   0
LINE
   5
3CD
 100
AcDbEntity
   8
LEVEL001
 100
AcDbLine
   6
DIVIDE
  62
3
  10
 291.58533202729
  20
 188.71537293075
  30
0.0
  11
 288.59117998051
  21
 190.76692155539
  31
0.0
   0
LINE
   5
3CE
 100
AcDbEntity
   8
LEVEL001
 100
AcDbLine
   6
DOT
  62
1
  10
 236.83567658077
  20
 185.99512986186
  30
0.0
  11
 243.33567658077
  21
 185.99512986186
  31
0.0
   0
LINE
   5
3CF
 100
AcDbEntity
   8
LEVEL001
 100
AcDbLine
   6
DOT
  62
1
  10
 236.83567658077
  20
 182.99512986186
  30
0.0
  11
 243.33567658077
  21
 182.99512986186
  31
0.0
   0
LINE
   5
3D0
 100
AcDbEntity
   8
LEVEL001
 100
AcDbLine
   6
DOT
  62
1
  10
 259.83567658077
  20
 185.99512986186
  30
0.0
  11
 253.33567658077
  21
 185.99512986186
  31
0.0
   0
LINE
   5
3D1
 100
AcDbEntity
   8
LEVEL001
 100
AcDbLine
   6
DOT
  62
1
  10
 259.83567658077
  20
 182.99512986186
  30
0.0
  11
 253.33567658077
  21
 182.99512986186
  31
0.0
   0
LINE
   5
3D2
 100
AcDbEntity
   8
LEVEL001
 100
AcDbLine
   6
CONTINUOUS
  62
7
  10
 263.33567658077
  20
 235.14512986186
  30
0.0
  11
 263.33567658077
  21
 175.14512986186
  31
0.0
   0
LINE
   5
3D3
 100
AcDbEntity
   8
LEVEL001
 100
AcDbLine
   6
DOT
  62
1
  10
 236.83567658077
  20
 185.99512986186
  30
0.0
  11
 236.83567658077
  21
 182.99512986186
  31
0.0
   0
LINE
   5
3D4
 100
AcDbEntity
   8
LEVEL001
 100
AcDbLine
   6
DOT
  62
1
  10
 259.83567658077
  20
 185.99512986186
  30
0.0
  11
 259.83567658077
  21
 182.99512986186
  31
0.0
   0
LINE
   5
3D5
 100
AcDbEntity
   8
LEVEL001
 100
AcDbLine
   6
DIVIDE
  62
3
  10
 293.27238503179
  20
 192.90512555405
  30
0.0
  11
 291.58533202729
  21
 188.71537293075
  31
0.0
   0
DIMENSION
   5
3D6
 100
AcDbEntity
   8
LEVEL001
   6
CONTINUOUS
  62
3
 100
AcDbDimension
   2
*D18
  10
 263.33567658077
  20
 162.37112320420
  30
0.0
  11
 248.33567658077
  21
 162.37112320420
  31
0.0
  70
0
   1
\A1;30～33
   3
GMM007
 100
AcDbAlignedDimension
  13
 233.33567658077
  23
 175.14512986186
  33
0.0
  14
 263.33567658077
  24
 175.14512986186
  34
0.0
 100
AcDbRotatedDimension
   0
POINT
   5
3D7
 100
AcDbEntity
   8
LEVEL001
 100
AcDbPoint
  62
7
  10
 190.83553181821
  20
 223.14831718312
  30
0.0
   0
POINT
   5
3D8
 100
AcDbEntity
   8
LEVEL001
 100
AcDbPoint
  62
7
  10
 190.83596645221
  20
 229.14831716738
  30
0.0
   0
ARC
   5
3D9
 100
AcDbEntity
   8
LEVEL001
   6
CONTINUOUS
  62
7
 100
AcDbCircle
  10
 193.83574912734
  20
 226.14809985825
  30
0.0
  40
 3.0000000000000
 100
AcDbArc
  50
 89.995849551008
  51
 179.99584955102
   0
POINT
   5
3DA
 100
AcDbEntity
   8
LEVEL001
 100
AcDbPoint
  62
7
  10
 190.83596645221
  20
 229.14831716738
  30
0.0
   0
ARC
   5
3DB
 100
AcDbEntity
   8
LEVEL001
   6
CONTINUOUS
  62
7
 100
AcDbCircle
  10
 193.83574912734
  20
 226.14809985825
  30
0.0
  40
 3.0000000000000
 100
AcDbArc
  50
 179.99584955101
  51
 269.99584955100
   0
POINT
   5
3DC
 100
AcDbEntity
   8
LEVEL001
 100
AcDbPoint
  62
7
  10
 190.83553181821
  20
 223.14831718312
  30
0.0
   0
LINE
   5
3DD
 100
AcDbEntity
   8
LEVEL001
 100
AcDbLine
   6
CONTINUOUS
  62
7
  10
 230.59843331003
  20
 229.14543681402
  30
0.0
  11
 193.83596644434
  21
 229.14809985038
  31
0.0
   0
LINE
   5
3DE
 100
AcDbEntity
   8
LEVEL001
 100
AcDbLine
   6
CONTINUOUS
  62
7
  10
 230.59799867603
  20
 223.14543682976
  30
0.0
  11
 193.83553181034
  21
 223.14809986612
  31
0.0
   0
ARC
   5
3DF
 100
AcDbEntity
   8
LEVEL001
   6
DIVIDE
  62
3
 100
AcDbCircle
  10
 234.83567658077
  20
 225.14512986186
  30
0.0
  40
 45.029818076494
 100
AcDbArc
  50
 188.49666857205
  51
 263.07622231128
   0
LINE
   5
3E0
 100
AcDbEntity
   8
LEVEL001
 100
AcDbLine
   6
DIVIDE
  62
3
  10
 190.30008525489
  20
 218.49188845209
  30
0.0
  11
 189.35610860931
  21
 214.07497969402
  31
0.0
   0
LINE
   5
3E1
 100
AcDbEntity
   8
LEVEL001
 100
AcDbLine
   6
DIVIDE
  62
3
  10
 189.35610860931
  20
 214.07497969402
  30
0.0
  11
 192.98558294130
  21
 214.10170630913
  31
0.0
   0
DIMENSION
   5
3E2
 100
AcDbEntity
   8
LEVEL001
   6
CONTINUOUS
  62
3
 100
AcDbDimension
   2
*D19
  10
 190.83596645221
  20
 243.21606359529
  30
0.0
  11
 210.83582151649
  21
 243.21606359529
  31
0.0
  70
0
   1
\A1;40
   3
GMM008
 100
AcDbAlignedDimension
  13
 230.83567658077
  23
 231.79512986186
  33
0.0
  14
 190.83596645221
  24
 229.14831716738
  34
0.0
  50
 180.00000000000
 100
AcDbRotatedDimension
   0
INSERT
   5
3E3
 100
AcDbEntity
   8
LEVEL001
 100
AcDbBlockReference
   2
*D20
  10
0.0
  20
0.0
  30
0.0
   0
DIMENSION
   5
3E4
 100
AcDbEntity
   8
LEVEL001
   6
CONTINUOUS
  62
3
 100
AcDbDimension
   2
*D21
  10
 362.29035667180
  20
 162.37112320420
  30
0.0
  11
 348.29035667180
  21
 162.37112320420
  31
0.0
  70
0
   3
GMM001
 100
AcDbAlignedDimension
  13
 334.29035667180
  23
 181.14512986186
  33
0.0
  14
 362.29035667180
  24
 181.14512986186
  34
0.0
 100
AcDbRotatedDimension
   0
DIMENSION
   5
3E5
 100
AcDbEntity
   8
LEVEL001
   6
CONTINUOUS
  62
3
 100
AcDbDimension
   2
*D22
  10
 367.79035667180
  20
 153.47327698705
  30
0.0
  11
 348.29035667180
  21
 153.47327698705
  31
0.0
  70
0
   3
GMM001
 100
AcDbAlignedDimension
  13
 328.79035667180
  23
 175.14512986186
  33
0.0
  14
 367.79035667180
  24
 175.14512986186
  34
0.0
 100
AcDbRotatedDimension
   0
DIMENSION
   5
3E6
 100
AcDbEntity
   8
LEVEL001
   6
CONTINUOUS
  62
3
 100
AcDbDimension
   2
*D23
  10
 331.79035667180
  20
 232.14512986186
  30
0.0
  11
 326.35924767533
  21
 236.96107398470
  31
0.0
  70
132
   3
GMM004
 100
AcDbRadialDimension
  15
 329.54572755914
  25
 234.13551679575
  35
0.0
  40
 4.5908825935929
   0
DIMENSION
   5
3E7
 100
AcDbEntity
   8
LEVEL001
   6
CONTINUOUS
  62
3
 100
AcDbDimension
   2
*D24
  10
 384.96819566710
  20
 175.14512986186
  30
0.0
  11
 384.96819566710
  21
 205.14512986186
  31
0.0
  70
0
   3
GMM001
 100
AcDbAlignedDimension
  13
 367.79035667180
  23
 235.14512986186
  33
0.0
  14
 367.79035667180
  24
 175.14512986186
  34
0.0
  50
 270.00000000000
 100
AcDbRotatedDimension
   0
LINE
   5
3E8
 100
AcDbEntity
   8
LEVEL001
 100
AcDbLine
   6
CONTINUOUS
  62
7
  10
 338.29035667180
  20
 197.14512986186
  30
0.0
  11
 338.29035667180
  21
 205.14512986186
  31
0.0
   0
ARC
   5
3E9
 100
AcDbEntity
   8
LEVEL001
   6
CONTINUOUS
  62
7
 100
AcDbCircle
  10
 346.29035667180
  20
 197.14512986186
  30
0.0
  40
 8.0000000000000
 100
AcDbArc
  50
 180.00000000000
  51
 270.00000000000
   0
POINT
   5
3EA
 100
AcDbEntity
   8
LEVEL001
 100
AcDbPoint
  62
7
  10
 338.29035667180
  20
 189.14512986186
  30
0.0
   0
ARC
   5
3EB
 100
AcDbEntity
   8
LEVEL001
   6
CONTINUOUS
  62
7
 100
AcDbCircle
  10
 350.29035667180
  20
 197.14512986186
  30
0.0
  40
 8.0000000000000
 100
AcDbArc
  50
 270.00000000000
  51
0.0
   0
POINT
   5
3EC
 100
AcDbEntity
   8
LEVEL001
 100
AcDbPoint
  62
7
  10
 358.29035667180
  20
 189.14512986186
  30
0.0
   0
LINE
   5
3ED
 100
AcDbEntity
   8
LEVEL001
 100
AcDbLine
   6
CONTINUOUS
  62
7
  10
 358.29035667180
  20
 197.14512986186
  30
0.0
  11
 358.29035667180
  21
 205.14512986186
  31
0.0
   0
LINE
   5
3EE
 100
AcDbEntity
   8
LEVEL001
 100
AcDbLine
   6
CONTINUOUS
  62
7
  10
 348.29035667180
  20
 189.14512986186
  30
0.0
  11
 350.29035667180
  21
 189.14512986186
  31
0.0
   0
LINE
   5
3EF
 100
AcDbEntity
   8
LEVEL001
 100
AcDbLine
   6
CONTINUOUS
  62
7
  10
 346.29035667180
  20
 189.14512986186
  30
0.0
  11
 348.29035667180
  21
 189.14512986186
  31
0.0
   0
POINT
   5
3F0
 100
AcDbEntity
   8
LEVEL001
 100
AcDbPoint
  62
7
  10
 334.29035667180
  20
 181.14512986186
  30
0.0
   0
ARC
   5
3F1
 100
AcDbEntity
   8
LEVEL001
   6
CONTINUOUS
  62
7
 100
AcDbCircle
  10
 337.19035667180
  20
 184.04512986186
  30
0.0
  40
 2.9000000000000
 100
AcDbArc
  50
 180.00000000000
  51
 270.00000000001
   0
LINE
   5
3F2
 100
AcDbEntity
   8
LEVEL001
 100
AcDbLine
   6
CONTINUOUS
  62
7
  10
 337.19035667180
  20
 181.14512986186
  30
0.0
  11
 348.29035667180
  21
 181.14512986186
  31
0.0
   0
LINE
   5
3F3
 100
AcDbEntity
   8
LEVEL001
 100
AcDbLine
   6
CONTINUOUS
  62
7
  10
 334.29035667180
  20
 184.04512986186
  30
0.0
  11
 334.29035667180
  21
 205.14512986186
  31
0.0
   0
LINE
   5
3F4
 100
AcDbEntity
   8
LEVEL001
 100
AcDbLine
   6
CONTINUOUS
  62
7
  10
 348.29035667180
  20
 181.14512986186
  30
0.0
  11
 359.39035667180
  21
 181.14512986186
  31
0.0
   0
POINT
   5
3F5
 100
AcDbEntity
   8
LEVEL001
 100
AcDbPoint
  62
7
  10
 362.29035667180
  20
 181.14512986186
  30
0.0
   0
ARC
   5
3F6
 100
AcDbEntity
   8
LEVEL001
   6
CONTINUOUS
  62
7
 100
AcDbCircle
  10
 359.39035667180
  20
 184.04512986186
  30
0.0
  40
 2.9000000000000
 100
AcDbArc
  50
 270.00000000000
  51
0.0
   0
LINE
   5
3F7
 100
AcDbEntity
   8
LEVEL001
 100
AcDbLine
   6
CONTINUOUS
  62
7
  10
 362.29035667180
  20
 184.04512986186
  30
0.0
  11
 362.29035667180
  21
 205.14512986186
  31
0.0
   0
ARC
   5
3F8
 100
AcDbEntity
   8
LEVEL001
   6
CONTINUOUS
  62
7
 100
AcDbCircle
  10
 337.19035667180
  20
 226.24512986186
  30
0.0
  40
 2.9000000000000
 100
AcDbArc
  50
 90.000000000000
  51
 179.99999999999
   0
POINT
   5
3F9
 100
AcDbEntity
   8
LEVEL001
 100
AcDbPoint
  62
7
  10
 334.29035667180
  20
 229.14512986186
  30
0.0
   0
LINE
   5
3FA
 100
AcDbEntity
   8
LEVEL001
 100
AcDbLine
   6
CONTINUOUS
  62
7
  10
 337.19035667180
  20
 229.14512986186
  30
0.0
  11
 348.29035667180
  21
 229.14512986186
  31
0.0
   0
LINE
   5
3FB
 100
AcDbEntity
   8
LEVEL001
 100
AcDbLine
   6
CONTINUOUS
  62
7
  10
 334.29035667180
  20
 205.14512986186
  30
0.0
  11
 334.29035667180
  21
 226.24512986186
  31
0.0
   0
ARC
   5
3FC
 100
AcDbEntity
   8
LEVEL001
   6
CONTINUOUS
  62
7
 100
AcDbCircle
  10
 359.39035667180
  20
 226.24512986186
  30
0.0
  40
 2.9000000000000
 100
AcDbArc
  50
 0.35376542001823E-10
  51
 89.999999999999
   0
LINE
   5
3FD
 100
AcDbEntity
   8
LEVEL001
 100
AcDbLine
   6
CONTINUOUS
  62
7
  10
 348.29035667180
  20
 229.14512986186
  30
0.0
  11
 359.39035667180
  21
 229.14512986186
  31
0.0
   0
POINT
   5
3FE
 100
AcDbEntity
   8
LEVEL001
 100
AcDbPoint
  62
7
  10
 362.29035667180
  20
 229.14512986186
  30
0.0
   0
LINE
   5
3FF
 100
AcDbEntity
   8
LEVEL001
 100
AcDbLine
   6
CONTINUOUS
  62
7
  10
 362.29035667180
  20
 205.14512986186
  30
0.0
  11
 362.29035667180
  21
 226.24512986186
  31
0.0
   0
POINT
   5
400
 100
AcDbEntity
   8
LEVEL001
 100
AcDbPoint
  62
7
  10
 338.29035667180
  20
 214.54512986186
  30
0.0
   0
ARC
   5
401
 100
AcDbEntity
   8
LEVEL001
   6
CONTINUOUS
  62
7
 100
AcDbCircle
  10
 341.29035667180
  20
 211.54512986186
  30
0.0
  40
 3.0000000000000
 100
AcDbArc
  50
 90.000000000000
  51
 180.00000000002
   0
LINE
   5
402
 100
AcDbEntity
   8
LEVEL001
 100
AcDbLine
   6
CONTINUOUS
  62
7
  10
 341.29035667180
  20
 214.54512986186
  30
0.0
  11
 348.29035667180
  21
 214.54512986186
  31
0.0
   0
LINE
   5
403
 100
AcDbEntity
   8
LEVEL001
 100
AcDbLine
   6
CONTINUOUS
  62
7
  10
 338.29035667180
  20
 205.14512986186
  30
0.0
  11
 338.29035667180
  21
 211.54512986186
  31
0.0
   0
LINE
   5
404
 100
AcDbEntity
   8
LEVEL001
 100
AcDbLine
   6
CONTINUOUS
  62
7
  10
 348.29035667180
  20
 214.54512986186
  30
0.0
  11
 355.29035667180
  21
 214.54512986186
  31
0.0
   0
POINT
   5
405
 100
AcDbEntity
   8
LEVEL001
 100
AcDbPoint
  62
7
  10
 358.29035667180
  20
 214.54512986186
  30
0.0
   0
ARC
   5
406
 100
AcDbEntity
   8
LEVEL001
   6
CONTINUOUS
  62
7
 100
AcDbCircle
  10
 355.29035667180
  20
 211.54512986186
  30
0.0
  40
 3.0000000000000
 100
AcDbArc
  50
0.0
  51
 90.000000000000
   0
LINE
   5
407
 100
AcDbEntity
   8
LEVEL001
 100
AcDbLine
   6
CONTINUOUS
  62
7
  10
 358.29035667180
  20
 205.14512986186
  30
0.0
  11
 358.29035667180
  21
 211.54512986186
  31
0.0
   0
LINE
   5
408
 100
AcDbEntity
   8
LEVEL001
 100
AcDbLine
   6
DASHDOT
  62
3
  10
 348.29035667180
  20
 241.88616987915
  30
0.0
  11
 348.29035667180
  21
 169.83826315174
  31
0.0
   0
LINE
   5
409
 100
AcDbEntity
   8
LEVEL001
 100
AcDbLine
   6
DASHDOT
  62
3
  10
 64.515629923216
  20
 241.88616987915
  30
0.0
  11
 64.515629923216
  21
 169.83826315174
  31
0.0
   0
TEXT
   5
40A
 100
AcDbEntity
   8
LEVEL001
  62
7
 100
AcDbText
  10
 342.13396415096
  20
 254.05648405844
  30
0.0
  40
 4.0000000000000
   1
外部側
   7
STANDARD
 100
AcDbText
   0
LINE
   5
40B
 100
AcDbEntity
   8
LEVEL001
 100
AcDbLine
   6
CONTINUOUS
  62
7
  10
 341.44731425938
  20
 253.05513429777
  30
0.0
  11
 354.99414484513
  21
 253.05513429777
  31
0.0
   0
LINE
   5
40C
 100
AcDbEntity
   8
LEVEL001
 100
AcDbLine
   6
CONTINUOUS
  62
7
  10
 57.482712489415
  20
 253.05513429777
  30
0.0
  11
 71.029543075171
  21
 253.05513429777
  31
0.0
   0
TEXT
   5
40D
 100
AcDbEntity
   8
LEVEL001
  62
7
 100
AcDbText
  10
 58.169362380996
  20
 254.05648405844
  30
0.0
  40
 4.0000000000000
   1
内部側
   7
STANDARD
 100
AcDbText
   0
LINE
   5
40E
 100
AcDbEntity
   8
LEVEL001
 100
AcDbLine
   6
DASHDOT
  62
3
  10
 170.38114175795
  20
 101.03566501517
  30
0.0
  11
 170.38114175795
  21
 32.017051831848
  31
0.0
   0
ARC
   5
40F
 100
AcDbEntity
   8
LEVEL001
   6
CONTINUOUS
  62
7
 100
AcDbCircle
  10
 159.78114175795
  20
 88.459556417882
  30
0.0
  40
 6.0000000000000
 100
AcDbArc
  50
 90.000000000001
  51
 180.00000000000
   0
POINT
   5
410
 100
AcDbEntity
   8
LEVEL001
 100
AcDbPoint
  62
7
  10
 153.78114175795
  20
 94.459556417882
  30
0.0
   0
LINE
   5
411
 100
AcDbEntity
   8
LEVEL001
 100
AcDbLine
   6
CONTINUOUS
  62
7
  10
 159.78114175795
  20
 94.459556417882
  30
0.0
  11
 180.98114175795
  21
 94.459556417882
  31
0.0
   0
ARC
   5
412
 100
AcDbEntity
   8
LEVEL001
   6
CONTINUOUS
  62
7
 100
AcDbCircle
  10
 180.98114175795
  20
 88.459556417882
  30
0.0
  40
 6.0000000000000
 100
AcDbArc
  50
 0.81422199845466E-12
  51
 90.000000000000
   0
POINT
   5
413
 100
AcDbEntity
   8
LEVEL001
 100
AcDbPoint
  62
7
  10
 186.98114175795
  20
 94.459556417882
  30
0.0
   0
LINE
   5
414
 100
AcDbEntity
   8
LEVEL001
 100
AcDbLine
   6
CONTINUOUS
  62
7
  10
 186.98114175795
  20
 88.459556417882
  30
0.0
  11
 186.98114175795
  21
 45.659556417882
  31
0.0
   0
ARC
   5
415
 100
AcDbEntity
   8
LEVEL001
   6
CONTINUOUS
  62
7
 100
AcDbCircle
  10
 180.98114175795
  20
 45.659556417882
  30
0.0
  40
 6.0000000000000
 100
AcDbArc
  50
 270.00000000000
  51
0.0
   0
POINT
   5
416
 100
AcDbEntity
   8
LEVEL001
 100
AcDbPoint
  62
7
  10
 186.98114175795
  20
 39.659556417882
  30
0.0
   0
LINE
   5
417
 100
AcDbEntity
   8
LEVEL001
 100
AcDbLine
   6
CONTINUOUS
  62
7
  10
 180.98114175795
  20
 39.659556417882
  30
0.0
  11
 159.78114175795
  21
 39.659556417882
  31
0.0
   0
ARC
   5
418
 100
AcDbEntity
   8
LEVEL001
   6
CONTINUOUS
  62
7
 100
AcDbCircle
  10
 159.78114175795
  20
 45.659556417882
  30
0.0
  40
 6.0000000000000
 100
AcDbArc
  50
 180.00000000000
  51
 270.00000000000
   0
POINT
   5
419
 100
AcDbEntity
   8
LEVEL001
 100
AcDbPoint
  62
7
  10
 153.78114175795
  20
 39.659556417882
  30
0.0
   0
LINE
   5
41A
 100
AcDbEntity
   8
LEVEL001
 100
AcDbLine
   6
CONTINUOUS
  62
7
  10
 153.78114175795
  20
 45.659556417882
  30
0.0
  11
 153.78114175795
  21
 88.459556417882
  31
0.0
   0
DIMENSION
   5
41B
 100
AcDbEntity
   8
LEVEL001
   6
CONTINUOUS
  62
3
 100
AcDbDimension
   2
*D25
  10
 159.78114175795
  20
 88.459556417882
  30
0.0
  11
 149.79590910984
  21
 95.837722756229
  31
0.0
  70
132
   3
GMM009
 100
AcDbRadialDimension
  15
 154.95557144151
  25
 92.025207988233
  35
0.0
  40
 6.6404939381996
   0
LINE
   5
41C
 100
AcDbEntity
   8
LEVEL001
 100
AcDbLine
   6
DASHDOT
  62
3
  10
 148.92699385975
  20
 67.059556417882
  30
0.0
  11
 193.24167161443
  21
 67.059556417882
  31
0.0
   0
INSERT
   5
41D
 100
AcDbEntity
   8
0
 100
AcDbBlockReference
   2
BLOCK001
  10
0.0
  20
0.0
  30
0.0
   0
DIMENSION
   5
41E
 100
AcDbEntity
   8
LEVEL001
   6
CONTINUOUS
  62
3
 100
AcDbDimension
   2
*D26
  10
 204.41450778436
  20
 39.659556417882
  30
0.0
  11
 204.41450778436
  21
 67.059556417882
  31
0.0
  70
0
   3
GMM001
 100
AcDbAlignedDimension
  13
 186.98114175795
  23
 94.459556417882
  33
0.0
  14
 186.98114175795
  24
 39.659556417882
  34
0.0
  50
 270.00000000000
 100
AcDbRotatedDimension
   0
DIMENSION
   5
41F
 100
AcDbEntity
   8
LEVEL001
   6
CONTINUOUS
  62
3
 100
AcDbDimension
   2
*D27
  10
 153.78114175795
  20
 106.57308947085
  30
0.0
  11
 170.38114175795
  21
 106.57308947085
  31
0.0
  70
0
   3
GMM001
 100
AcDbAlignedDimension
  13
 186.98114175795
  23
 94.459556417882
  33
0.0
  14
 153.78114175795
  24
 94.459556417882
  34
0.0
  50
 180.00000000000
 100
AcDbRotatedDimension
   0
TEXT
   5
420
 100
AcDbEntity
   8
LEVEL001
  62
7
 100
AcDbText
  10
 160.32811088983
  20
 23.913274336283
  30
0.0
  40
 4.0000000000000
   1
参考掘込図
   7
STANDARD
 100
AcDbText
   0
LINE
   5
421
 100
AcDbEntity
   8
LEVEL001
 100
AcDbLine
   6
CONTINUOUS
  62
7
  10
 159.64146099825
  20
 22.911924575609
  30
0.0
  11
 181.98213782180
  21
 22.911924575609
  31
0.0
   0
INSERT
   5
422
 100
AcDbEntity
   8
LEVEL001
 100
AcDbBlockReference
   2
*D28
  10
0.0
  20
0.0
  30
0.0
   0
ENDSEC
  0
SECTION
  2
OBJECTS
  0
DICTIONARY
  5
C
100
AcDbDictionary
  3
ACAD_GROUP
350
D
  3
ACAD_MLINESTYLE
350
1B
  0
DICTIONARY
  5
D
102
{ACAD_REACTORS
330
C
102
}
100
AcDbDictionary
  0
DICTIONARY
  5
1B
102
{ACAD_REACTORS
330
C
102
}
100
AcDbDictionary
  3
STANDARD
350
1C
  0
MLINESTYLE
  5
1C
102
{ACAD_REACTORS
330
1B
102
}
100
AcDbMlineStyle
  2
STANDARD
 70
     0
  3

 62
   256
 51
90.0
 52
90.0
 71
     2
 49
0.5
 62
   256
  6
BYLAYER
 49
-0.5
 62
   256
  6
BYLAYER
  0
ENDSEC
   0
EOF
