   0
SECTION
   2
HEADER
   9
$ACADVER
   1
AC1015
   9
$LIMMIN
  10
0.0
  20
0.0
   9
$LIMMAX
  10
 420.00000000000
  20
 297.00000000000
   9
$EXTMIN
  10
0.0
  20
0.0
  30
0.0
   9
$EXTMAX
  10
 420.00000000000
  20
 297.00000000000
  30
0.0
   9
$LTSCALE
  40
 8.4000000000000
   9
$HANDSEED
   5
72C
   0
ENDSEC
   0
SECTION
   2
TABLES
  0
TABLE
  2
VPORT
  5
8
100
AcDbSymbolTable
 70
     1
  0
VPORT
  5
72B
100
AcDbSymbolTableRecord
100
AcDbViewportTableRecord
  2
*ACTIVE
 70
     0
 10
0.0
 20
0.0
 11
1.0
 21
1.0
  12
 210.00000000000
  22
 148.50000000000
 13
0.0
 23
0.0
 14
1.0
 24
1.0
 15
0.0
 25
0.0
 16
0.0
 26
0.0
 36
1.0
 17
0.0
 27
0.0
 37
0.0
  40
 420.00000000000
  41
 1.4787878787879
 42
50.0
 43
0.0
 44
0.0
 50
0.0
 51
0.0
 71
     0
 72
   100
 73
     1
 74
     1
 75
     0
 76
     0
 77
     0
 78
     0
  0
ENDTAB
  0
TABLE
  2
LTYPE
  5
5
100
AcDbSymbolTable
 70
    25
  0
LTYPE
  5
12
100
AcDbSymbolTableRecord
100
AcDbLinetypeTableRecord
  2
BYBLOCK
 70
     0
  3

 72
    65
 73
     0
 40
0.0
  0
LTYPE
  5
13
100
AcDbSymbolTableRecord
100
AcDbLinetypeTableRecord
  2
BYLAYER
 70
     0
  3

 72
    65
 73
     0
 40
0.0
  0
LTYPE
  5
14
100
AcDbSymbolTableRecord
100
AcDbLinetypeTableRecord
  2
CONTINUOUS
 70
     0
  3
Solid line
 72
    65
 73
     0
 40
0.0
  0
LTYPE
  5
20
100
AcDbSymbolTableRecord
100
AcDbLinetypeTableRecord
  2
BORDER
 70
     0
  3
__ __ . __ __ . __ __ . __ __ . __ __ . __ __ .
 72
    65
 73
     6
 40
1.75
 49
0.5
 74
     0
 49
-0.25
 74
     0
 49
0.5
 74
     0
 49
-0.25
 74
     0
 49
0.0
 74
     0
 49
-0.25
 74
     0
  0
LTYPE
  5
21
100
AcDbSymbolTableRecord
100
AcDbLinetypeTableRecord
  2
BORDER2
 70
     0
  3
__.__.__.__.__.__.__.__.__.__.__.__.__.__.__.__
 72
    65
 73
     6
 40
0.875
 49
0.25
 74
     0
 49
-0.125
 74
     0
 49
0.25
 74
     0
 49
-0.125
 74
     0
 49
0.0
 74
     0
 49
-0.125
 74
     0
  0
LTYPE
  5
22
100
AcDbSymbolTableRecord
100
AcDbLinetypeTableRecord
  2
BORDERX2
 70
     0
  3
____  ____  .  ____  ____  .  ____  ____  .  __
 72
    65
 73
     6
 40
3.5
 49
1.0
 74
     0
 49
-0.5
 74
     0
 49
1.0
 74
     0
 49
-0.5
 74
     0
 49
0.0
 74
     0
 49
-0.5
 74
     0
  0
LTYPE
  5
23
100
AcDbSymbolTableRecord
100
AcDbLinetypeTableRecord
  2
CENTER
 70
     0
  3
____ _ ____ _ ____ _ ____ _ ____ _ ____ _ ____ 
 72
    65
 73
     4
 40
2.0
 49
1.25
 74
     0
 49
-0.25
 74
     0
 49
0.25
 74
     0
 49
-0.25
 74
     0
  0
LTYPE
  5
24
100
AcDbSymbolTableRecord
100
AcDbLinetypeTableRecord
  2
CENTER2
 70
     0
  3
___ _ ___ _ ___ _ ___ _ ___ _ ___ _ ___ _ ___ _
 72
    65
 73
     4
 40
1.125
 49
0.75
 74
     0
 49
-0.125
 74
     0
 49
0.125
 74
     0
 49
-0.125
 74
     0
  0
LTYPE
  5
25
100
AcDbSymbolTableRecord
100
AcDbLinetypeTableRecord
  2
CENTERX2
 70
     0
  3
________  __  ________  __  ________  __  _____
 72
    65
 73
     4
 40
4.0
 49
2.5
 74
     0
 49
-0.5
 74
     0
 49
0.5
 74
     0
 49
-0.5
 74
     0
  0
LTYPE
  5
26
100
AcDbSymbolTableRecord
100
AcDbLinetypeTableRecord
  2
DASHDOT
 70
     0
  3
__ . __ . __ . __ . __ . __ . __ . __ . __ . __
 72
    65
 73
     4
 40
1.0
 49
0.5
 74
     0
 49
-0.25
 74
     0
 49
0.0
 74
     0
 49
-0.25
 74
     0
  0
LTYPE
  5
27
100
AcDbSymbolTableRecord
100
AcDbLinetypeTableRecord
  2
DASHDOT2
 70
     0
  3
_._._._._._._._._._._._._._._._._._._._._._._._
 72
    65
 73
     4
 40
0.5
 49
0.25
 74
     0
 49
-0.125
 74
     0
 49
0.0
 74
     0
 49
-0.125
 74
     0
  0
LTYPE
  5
28
100
AcDbSymbolTableRecord
100
AcDbLinetypeTableRecord
  2
DASHDOTX2
 70
     0
  3
____  .  ____  .  ____  .  ____  .  ____  .  __
 72
    65
 73
     4
 40
2.0
 49
1.0
 74
     0
 49
-0.5
 74
     0
 49
0.0
 74
     0
 49
-0.5
 74
     0
  0
LTYPE
  5
29
100
AcDbSymbolTableRecord
100
AcDbLinetypeTableRecord
  2
DASHED
 70
     0
  3
__ __ __ __ __ __ __ __ __ __ __ __ __ __ __ __
 72
    65
 73
     2
 40
0.75
 49
0.5
 74
     0
 49
-0.25
 74
     0
  0
LTYPE
  5
2A
100
AcDbSymbolTableRecord
100
AcDbLinetypeTableRecord
  2
DASHED2
 70
     0
  3
_ _ _ _ _ _ _ _ _ _ _ _ _ _ _ _ _ _ _ _ _ _ _ _
 72
    65
 73
     2
 40
0.375
 49
0.25
 74
     0
 49
-0.125
 74
     0
  0
LTYPE
  5
2B
100
AcDbSymbolTableRecord
100
AcDbLinetypeTableRecord
  2
DASHEDX2
 70
     0
  3
____  ____  ____  ____  ____  ____  ____  ____ 
 72
    65
 73
     2
 40
1.5
 49
1.0
 74
     0
 49
-0.5
 74
     0
  0
LTYPE
  5
2C
100
AcDbSymbolTableRecord
100
AcDbLinetypeTableRecord
  2
DIVIDE
 70
     0
  3
____ . . ____ . . ____ . . ____ . . ____ . . __
 72
    65
 73
     6
 40
1.25
 49
0.5
 74
     0
 49
-0.25
 74
     0
 49
0.0
 74
     0
 49
-0.25
 74
     0
 49
0.0
 74
     0
 49
-0.25
 74
     0
  0
LTYPE
  5
2D
100
AcDbSymbolTableRecord
100
AcDbLinetypeTableRecord
  2
DIVIDE2
 70
     0
  3
__..__..__..__..__..__..__..__..__..__..__..__.
 72
    65
 73
     6
 40
0.625
 49
0.25
 74
     0
 49
-0.125
 74
     0
 49
0.0
 74
     0
 49
-0.125
 74
     0
 49
0.0
 74
     0
 49
-0.125
 74
     0
  0
LTYPE
  5
2E
100
AcDbSymbolTableRecord
100
AcDbLinetypeTableRecord
  2
DIVIDEX2
 70
     0
  3
________  .  .  ________  .  .  ________  .  . 
 72
    65
 73
     6
 40
2.5
 49
1.0
 74
     0
 49
-0.5
 74
     0
 49
0.0
 74
     0
 49
-0.5
 74
     0
 49
0.0
 74
     0
 49
-0.5
 74
     0
  0
LTYPE
  5
2F
100
AcDbSymbolTableRecord
100
AcDbLinetypeTableRecord
  2
DOT
 70
     0
  3
. . . . . . . . . . . . . . . . . . . . . . . .
 72
    65
 73
     2
 40
0.25
 49
0.0
 74
     0
 49
-0.25
 74
     0
  0
LTYPE
  5
30
100
AcDbSymbolTableRecord
100
AcDbLinetypeTableRecord
  2
DOT2
 70
     0
  3
...............................................
 72
    65
 73
     2
 40
0.125
 49
0.0
 74
     0
 49
-0.125
 74
     0
  0
LTYPE
  5
31
100
AcDbSymbolTableRecord
100
AcDbLinetypeTableRecord
  2
DOTX2
 70
     0
  3
.  .  .  .  .  .  .  .  .  .  .  .  .  .  .  . 
 72
    65
 73
     2
 40
0.5
 49
0.0
 74
     0
 49
-0.5
 74
     0
  0
LTYPE
  5
32
100
AcDbSymbolTableRecord
100
AcDbLinetypeTableRecord
  2
HIDDEN
 70
     0
  3
__ __ __ __ __ __ __ __ __ __ __ __ __ __ __ __
 72
    65
 73
     2
 40
0.375
 49
0.25
 74
     0
 49
-0.125
 74
     0
  0
LTYPE
  5
33
100
AcDbSymbolTableRecord
100
AcDbLinetypeTableRecord
  2
HIDDEN2
 70
     0
  3
_ _ _ _ _ _ _ _ _ _ _ _ _ _ _ _ _ _ _ _ _ _ _ _
 72
    65
 73
     2
 40
0.1875
 49
0.125
 74
     0
 49
-0.0625
 74
     0
  0
LTYPE
  5
34
100
AcDbSymbolTableRecord
100
AcDbLinetypeTableRecord
  2
HIDDENX2
 70
     0
  3
____ ____ ____ ____ ____ ____ ____ ____ ____ __
 72
    65
 73
     2
 40
0.75
 49
0.5
 74
     0
 49
-0.25
 74
     0
  0
LTYPE
  5
35
100
AcDbSymbolTableRecord
100
AcDbLinetypeTableRecord
  2
PHANTOM
 70
     0
  3
______  __  __  ______  __  __  ______  __  __ 
 72
    65
 73
     6
 40
2.5
 49
1.25
 74
     0
 49
-0.25
 74
     0
 49
0.25
 74
     0
 49
-0.25
 74
     0
 49
0.25
 74
     0
 49
-0.25
 74
     0
  0
LTYPE
  5
36
100
AcDbSymbolTableRecord
100
AcDbLinetypeTableRecord
  2
PHANTOM2
 70
     0
  3
___ _ _ ___ _ _ ___ _ _ ___ _ _ ___ _ _ ___ _ _
 72
    65
 73
     6
 40
1.25
 49
0.625
 74
     0
 49
-0.125
 74
     0
 49
0.125
 74
     0
 49
-0.125
 74
     0
 49
0.125
 74
     0
 49
-0.125
 74
     0
  0
LTYPE
  5
37
100
AcDbSymbolTableRecord
100
AcDbLinetypeTableRecord
  2
PHANTOMX2
 70
     0
  3
____________    ____    ____    ____________   
 72
    65
 73
     6
 40
5.0
 49
2.5
 74
     0
 49
-0.5
 74
     0
 49
0.5
 74
     0
 49
-0.5
 74
     0
 49
0.5
 74
     0
 49
-0.5
 74
     0
  0
ENDTAB
   0
TABLE
   2
LAYER
   5
2
 100
AcDbSymbolTable
  70
2
   0
LAYER
   5
E
 100
AcDbSymbolTableRecord
 100
AcDbLayerTableRecord
   2
0
  70
0
  62
7
   6
CONTINUOUS
 390
30
   0
LAYER
   5
39
 100
AcDbSymbolTableRecord
 100
AcDbLayerTableRecord
   2
LEVEL001
  70
0
  62
7
   6
CONTINUOUS
 390
30
   0
ENDTAB
  0
TABLE
  2
STYLE
  5
3
100
AcDbSymbolTable
  70
4
  0
STYLE
  5
F
100
AcDbSymbolTableRecord
100
AcDbTextStyleTableRecord
  2
STANDARD
 70
     0
 40
0.0
 41
1.0
 50
0.0
 71
     0
 42
0.2
  3
TXT
  4
BIGFONT
  0
STYLE
  5
38
100
AcDbSymbolTableRecord
100
AcDbTextStyleTableRecord
  2
STANDARD1
 70
     4
 40
0.0
 41
1.0
 50
0.0
 71
     0
 42
0.2
  3
TXT
  4
BIGFONT
   0
STYLE
   5
3A
 100
AcDbSymbolTableRecord
 100
AcDbTextStyleTableRecord
   2
GMM001
  70
0
  40
0.0
  41
 0.84210526315789
  50
0.0
  71
     0
  42
1.0
   3
txt.shx
   4
bigfont.shx
   0
STYLE
   5
3B
 100
AcDbSymbolTableRecord
 100
AcDbTextStyleTableRecord
   2
GMM002
  70
0
  40
0.0
  41
 0.75000000000000
  50
0.0
  71
     0
  42
1.0
   3
txt.shx
   4
bigfont.shx
   0
ENDTAB
  0
TABLE
  2
VIEW
  5
6
100
AcDbSymbolTable
 70
     0
  0
ENDTAB
  0
TABLE
  2
UCS
  5
7
100
AcDbSymbolTable
 70
     0
  0
ENDTAB
  0
TABLE
  2
APPID
  5
9
100
AcDbSymbolTable
 70
     1
  0
APPID
  5
10
100
AcDbSymbolTableRecord
100
AcDbRegAppTableRecord
  2
ACAD
 70
     0
  0
ENDTAB
   0
TABLE
   2
DIMSTYLE
   5
A
 100
AcDbSymbolTable
  70
10
 100
AcDbDimStyleTable
  0
DIMSTYLE
105
1D
100
AcDbSymbolTableRecord
100
AcDbDimStyleTableRecord
  2
STANDARD
 70
     0
  3

  4

  5

  6

  7

 40
1.0
 41
0.18
 42
0.0625
 43
0.38
 44
0.18
 45
0.0
 46
0.0
 47
0.0
 48
0.0
140
0.18
141
0.09
142
0.0
143
25.4
144
1.0
145
0.0
146
1.0
147
0.09
 71
     0
 72
     0
 73
     1
 74
     1
 75
     0
 76
     0
 77
     0
 78
     0
170
     0
171
     2
172
     0
173
     0
174
     0
175
     0
176
     0
177
     0
178
     0
270
     2
271
     4
272
     4
273
     2
274
     2
340
F
275
     0
280
     0
281
     0
282
     0
283
     1
284
     0
285
     0
286
     0
287
     3
288
     0
   0
DIMSTYLE
 105
3C
 100
AcDbSymbolTableRecord
 100
AcDbDimStyleTableRecord
   2
GMM001
  70
0
   3

   4

   5

   6
_OPEN30
   7
_OPEN30
  40
 1.0000000000000
  41
 3.0000000000000
  42
0.0
  43
 8.0000000000000
  44
 2.0000000000000
  45
0.0
  46
0.0
  47
0.0
  48
0.0
 140
 3.8000000000000
 141
 1.0000000000000
 142
0.0
 143
 0.39400000000000E-1
 144
 1.0000000000000
 145
0.0
 146
 0.65789473684211
 147
 1.6285714285714
  71
0
  72
0
  73
0
  74
0
  75
0
  76
0
  77
3
  78
8
 170
0
 171
2
 172
1
 173
1
 174
0
 175
0
 176
2
 177
2
 178
2
 270
2
 271
6
 272
0
 273
2
 274
2
 340
3A
 275
1
 280
0
 281
0
 282
0
 283
1
 284
0
 285
0
 286
0
 287
3
 288
0
   0
DIMSTYLE
 105
3D
 100
AcDbSymbolTableRecord
 100
AcDbDimStyleTableRecord
   2
GMM002
  70
0
   3
R<>
   4

   5

   6
_NONE
   7
_OPEN30
  40
 1.0000000000000
  41
 3.0000000000000
  42
0.0
  43
 8.0000000000000
  44
 2.0000000000000
  45
0.0
  46
0.0
  47
0.0
  48
0.0
 140
 3.8000000000000
 141
 1.0000000000000
 142
0.0
 143
 0.39400000000000E-1
 144
 1.0000000000000
 145
0.0
 146
 0.65789473684211
 147
 1.6285714285714
  71
0
  72
0
  73
0
  74
0
  75
0
  76
0
  77
3
  78
8
 170
0
 171
2
 172
1
 173
1
 174
0
 175
0
 176
2
 177
2
 178
2
 270
2
 271
6
 272
0
 273
2
 274
2
 340
3A
 275
1
 280
0
 281
0
 282
0
 283
1
 284
0
 285
0
 286
0
 287
3
 288
1
   0
DIMSTYLE
 105
3E
 100
AcDbSymbolTableRecord
 100
AcDbDimStyleTableRecord
   2
GMM003
  70
0
   3

   4

   5

   6
_OPEN30
   7
_NONE
  40
 1.0000000000000
  41
 3.0000000000000
  42
0.0
  43
 8.0000000000000
  44
 2.0000000000000
  45
0.0
  46
0.0
  47
0.0
  48
0.0
 140
 3.8000000000000
 141
 1.0000000000000
 142
0.0
 143
 0.39400000000000E-1
 144
 1.0000000000000
 145
0.0
 146
 0.65789473684211
 147
 1.6285714285714
  71
0
  72
0
  73
0
  74
0
  75
0
  76
0
  77
3
  78
8
 170
0
 171
2
 172
1
 173
1
 174
0
 175
0
 176
2
 177
2
 178
2
 270
2
 271
6
 272
0
 273
2
 274
2
 340
3A
 275
1
 280
0
 281
0
 282
0
 283
1
 284
0
 285
0
 286
0
 287
3
 288
0
   0
DIMSTYLE
 105
3F
 100
AcDbSymbolTableRecord
 100
AcDbDimStyleTableRecord
   2
GMM004
  70
0
   3

   4

   5

   6
_NONE
   7
_OPEN30
  40
 1.0000000000000
  41
 3.0000000000000
  42
0.0
  43
 8.0000000000000
  44
 2.0000000000000
  45
0.0
  46
0.0
  47
0.0
  48
0.0
 140
 3.8000000000000
 141
 1.0000000000000
 142
0.0
 143
 0.39400000000000E-1
 144
 1.0000000000000
 145
0.0
 146
 0.65789473684211
 147
 1.6285714285714
  71
0
  72
0
  73
0
  74
0
  75
0
  76
0
  77
3
  78
8
 170
0
 171
2
 172
1
 173
1
 174
0
 175
0
 176
2
 177
2
 178
2
 270
2
 271
6
 272
0
 273
2
 274
2
 340
3A
 275
1
 280
0
 281
0
 282
0
 283
1
 284
0
 285
0
 286
0
 287
3
 288
0
   0
DIMSTYLE
 105
40
 100
AcDbSymbolTableRecord
 100
AcDbDimStyleTableRecord
   2
GMM005
  70
0
   3
4-R<>
   4

   5

   6
_NONE
   7
_OPEN30
  40
 1.0000000000000
  41
 3.0000000000000
  42
0.0
  43
 8.0000000000000
  44
 2.0000000000000
  45
0.0
  46
0.0
  47
0.0
  48
0.0
 140
 3.8000000000000
 141
 1.0000000000000
 142
0.0
 143
 0.39400000000000E-1
 144
 1.0000000000000
 145
0.0
 146
 0.65789473684211
 147
 1.6285714285714
  71
0
  72
0
  73
0
  74
0
  75
0
  76
0
  77
3
  78
8
 170
0
 171
2
 172
1
 173
1
 174
0
 175
0
 176
2
 177
2
 178
2
 270
2
 271
6
 272
0
 273
2
 274
2
 340
3A
 275
1
 280
0
 281
0
 282
0
 283
1
 284
0
 285
0
 286
0
 287
3
 288
1
   0
DIMSTYLE
 105
41
 100
AcDbSymbolTableRecord
 100
AcDbDimStyleTableRecord
   2
GMM006
  70
0
   3

   4

   5

   6
_OPEN30
   7
_OPEN30
  40
 1.0000000000000
  41
 3.0000000000000
  42
0.0
  43
 8.0000000000000
  44
 2.0000000000000
  45
0.0
  46
0.0
  47
0.0
  48
0.0
 140
 3.8000000000000
 141
 1.0000000000000
 142
0.0
 143
 0.39400000000000E-1
 144
 1.0000000000000
 145
0.0
 146
 0.65789473684211
 147
 1.6285714285714
  71
0
  72
0
  73
0
  74
0
  75
0
  76
0
  77
3
  78
8
 170
0
 171
2
 172
1
 173
1
 174
0
 175
0
 176
2
 177
2
 178
2
 270
2
 271
6
 272
0
 273
2
 274
2
 340
3A
 275
1
 280
0
 281
0
 282
0
 283
1
 284
0
 285
0
 286
0
 287
3
 288
1
   0
DIMSTYLE
 105
42
 100
AcDbSymbolTableRecord
 100
AcDbDimStyleTableRecord
   2
GMM007
  70
0
   3
R<>
   4

   5

   6
_NONE
   7
_OPEN30
  40
 1.0000000000000
  41
 3.0000000000000
  42
0.0
  43
 8.0000000000000
  44
 2.0000000000000
  45
0.0
  46
0.0
  47
0.0
  48
0.0
 140
 3.8000000000000
 141
 1.0000000000000
 142
0.0
 143
 0.39400000000000E-1
 144
 1.0000000000000
 145
0.0
 146
 0.65789473684211
 147
 1.4621532387945
  71
0
  72
0
  73
0
  74
0
  75
0
  76
0
  77
3
  78
8
 170
0
 171
2
 172
1
 173
1
 174
0
 175
0
 176
2
 177
2
 178
2
 270
2
 271
6
 272
0
 273
2
 274
2
 340
3A
 275
1
 280
0
 281
0
 282
0
 283
1
 284
0
 285
0
 286
0
 287
3
 288
1
   0
DIMSTYLE
 105
43
 100
AcDbSymbolTableRecord
 100
AcDbDimStyleTableRecord
   2
GMM008
  70
0
   3
R<>
   4

   5

   6
_NONE
   7
_OPEN30
  40
 1.0000000000000
  41
 3.0000000000000
  42
0.0
  43
 8.0000000000000
  44
 2.0000000000000
  45
0.0
  46
0.0
  47
0.0
  48
0.0
 140
 3.8000000000000
 141
 1.0000000000000
 142
0.0
 143
 0.39400000000000E-1
 144
 1.0000000000000
 145
0.0
 146
 0.65789473684211
 147
 1.0406761855455
  71
0
  72
0
  73
0
  74
0
  75
0
  76
0
  77
3
  78
8
 170
0
 171
2
 172
1
 173
1
 174
0
 175
0
 176
2
 177
2
 178
2
 270
2
 271
6
 272
0
 273
2
 274
2
 340
3A
 275
1
 280
0
 281
0
 282
0
 283
1
 284
0
 285
0
 286
0
 287
0
 288
1
   0
ENDTAB
  0
TABLE
  2
BLOCK_RECORD
  5
1
100
AcDbSymbolTable
 70
     0
  0
BLOCK_RECORD
  5
18
100
AcDbSymbolTableRecord
100
AcDbBlockTableRecord
  2
*MODEL_SPACE
  0
BLOCK_RECORD
  5
15
100
AcDbSymbolTableRecord
100
AcDbBlockTableRecord
  2
*PAPER_SPACE
   0
BLOCK_RECORD
   5
44
 100
AcDbSymbolTableRecord
 100
AcDbBlockTableRecord
   2
BLOCK001
   0
BLOCK_RECORD
   5
45
 100
AcDbSymbolTableRecord
 100
AcDbBlockTableRecord
   2
BLOCK002
   0
BLOCK_RECORD
   5
46
 100
AcDbSymbolTableRecord
 100
AcDbBlockTableRecord
   2
*D1
   0
BLOCK_RECORD
   5
47
 100
AcDbSymbolTableRecord
 100
AcDbBlockTableRecord
   2
*D2
   0
BLOCK_RECORD
   5
48
 100
AcDbSymbolTableRecord
 100
AcDbBlockTableRecord
   2
*D3
   0
BLOCK_RECORD
   5
49
 100
AcDbSymbolTableRecord
 100
AcDbBlockTableRecord
   2
*D4
   0
BLOCK_RECORD
   5
4A
 100
AcDbSymbolTableRecord
 100
AcDbBlockTableRecord
   2
*D5
   0
BLOCK_RECORD
   5
4B
 100
AcDbSymbolTableRecord
 100
AcDbBlockTableRecord
   2
*D6
   0
BLOCK_RECORD
   5
4C
 100
AcDbSymbolTableRecord
 100
AcDbBlockTableRecord
   2
*D7
   0
BLOCK_RECORD
   5
4D
 100
AcDbSymbolTableRecord
 100
AcDbBlockTableRecord
   2
*D8
   0
BLOCK_RECORD
   5
4E
 100
AcDbSymbolTableRecord
 100
AcDbBlockTableRecord
   2
*D9
   0
BLOCK_RECORD
   5
4F
 100
AcDbSymbolTableRecord
 100
AcDbBlockTableRecord
   2
*D10
   0
BLOCK_RECORD
   5
50
 100
AcDbSymbolTableRecord
 100
AcDbBlockTableRecord
   2
*D11
   0
BLOCK_RECORD
   5
51
 100
AcDbSymbolTableRecord
 100
AcDbBlockTableRecord
   2
*D12
   0
BLOCK_RECORD
   5
52
 100
AcDbSymbolTableRecord
 100
AcDbBlockTableRecord
   2
*D13
   0
BLOCK_RECORD
   5
53
 100
AcDbSymbolTableRecord
 100
AcDbBlockTableRecord
   2
*D14
   0
BLOCK_RECORD
   5
54
 100
AcDbSymbolTableRecord
 100
AcDbBlockTableRecord
   2
BLOCK003
   0
BLOCK_RECORD
   5
55
 100
AcDbSymbolTableRecord
 100
AcDbBlockTableRecord
   2
*D15
   0
BLOCK_RECORD
   5
56
 100
AcDbSymbolTableRecord
 100
AcDbBlockTableRecord
   2
*D16
   0
BLOCK_RECORD
   5
57
 100
AcDbSymbolTableRecord
 100
AcDbBlockTableRecord
   2
*D17
   0
BLOCK_RECORD
   5
58
 100
AcDbSymbolTableRecord
 100
AcDbBlockTableRecord
   2
*D18
   0
BLOCK_RECORD
   5
59
 100
AcDbSymbolTableRecord
 100
AcDbBlockTableRecord
   2
*D19
   0
BLOCK_RECORD
   5
5A
 100
AcDbSymbolTableRecord
 100
AcDbBlockTableRecord
   2
*D20
   0
BLOCK_RECORD
   5
5B
 100
AcDbSymbolTableRecord
 100
AcDbBlockTableRecord
   2
BLOCK004
   0
BLOCK_RECORD
   5
5C
 100
AcDbSymbolTableRecord
 100
AcDbBlockTableRecord
   2
*D21
   0
BLOCK_RECORD
   5
5D
 100
AcDbSymbolTableRecord
 100
AcDbBlockTableRecord
   2
*D22
   0
BLOCK_RECORD
   5
5E
 100
AcDbSymbolTableRecord
 100
AcDbBlockTableRecord
   2
*D23
   0
BLOCK_RECORD
   5
5F
 100
AcDbSymbolTableRecord
 100
AcDbBlockTableRecord
   2
*D24
   0
BLOCK_RECORD
   5
60
 100
AcDbSymbolTableRecord
 100
AcDbBlockTableRecord
   2
*D25
   0
BLOCK_RECORD
   5
61
 100
AcDbSymbolTableRecord
 100
AcDbBlockTableRecord
   2
*D26
   0
BLOCK_RECORD
   5
62
 100
AcDbSymbolTableRecord
 100
AcDbBlockTableRecord
   2
HATCH001
   0
BLOCK_RECORD
   5
63
 100
AcDbSymbolTableRecord
 100
AcDbBlockTableRecord
   2
*D27
   0
BLOCK_RECORD
   5
64
 100
AcDbSymbolTableRecord
 100
AcDbBlockTableRecord
   2
*D28
   0
BLOCK_RECORD
   5
65
 100
AcDbSymbolTableRecord
 100
AcDbBlockTableRecord
   2
*D29
   0
BLOCK_RECORD
   5
66
 100
AcDbSymbolTableRecord
 100
AcDbBlockTableRecord
   2
*D30
   0
BLOCK_RECORD
   5
67
 100
AcDbSymbolTableRecord
 100
AcDbBlockTableRecord
   2
*D31
   0
BLOCK_RECORD
   5
68
 100
AcDbSymbolTableRecord
 100
AcDbBlockTableRecord
   2
*D32
   0
BLOCK_RECORD
   5
69
 100
AcDbSymbolTableRecord
 100
AcDbBlockTableRecord
   2
*D33
   0
BLOCK_RECORD
   5
6A
 100
AcDbSymbolTableRecord
 100
AcDbBlockTableRecord
   2
*D34
   0
BLOCK_RECORD
   5
6B
 100
AcDbSymbolTableRecord
 100
AcDbBlockTableRecord
   2
*D35
   0
BLOCK_RECORD
   5
6C
 100
AcDbSymbolTableRecord
 100
AcDbBlockTableRecord
   2
*D36
   0
BLOCK_RECORD
   5
6D
 100
AcDbSymbolTableRecord
 100
AcDbBlockTableRecord
   2
*D37
   0
BLOCK_RECORD
   5
6E
 100
AcDbSymbolTableRecord
 100
AcDbBlockTableRecord
   2
*D38
   0
BLOCK_RECORD
   5
6F
 100
AcDbSymbolTableRecord
 100
AcDbBlockTableRecord
   2
*D39
   0
BLOCK_RECORD
   5
70
 100
AcDbSymbolTableRecord
 100
AcDbBlockTableRecord
   2
_ARCHTICK
   0
BLOCK_RECORD
   5
71
 100
AcDbSymbolTableRecord
 100
AcDbBlockTableRecord
   2
_BOXBLANK
   0
BLOCK_RECORD
   5
72
 100
AcDbSymbolTableRecord
 100
AcDbBlockTableRecord
   2
_BOXFILLED
   0
BLOCK_RECORD
   5
73
 100
AcDbSymbolTableRecord
 100
AcDbBlockTableRecord
   2
_CLOSED
   0
BLOCK_RECORD
   5
74
 100
AcDbSymbolTableRecord
 100
AcDbBlockTableRecord
   2
_CLOSEDBLANK
   0
BLOCK_RECORD
   5
75
 100
AcDbSymbolTableRecord
 100
AcDbBlockTableRecord
   2
_DATUMBLANK
   0
BLOCK_RECORD
   5
76
 100
AcDbSymbolTableRecord
 100
AcDbBlockTableRecord
   2
_DATUMFILLED
   0
BLOCK_RECORD
   5
77
 100
AcDbSymbolTableRecord
 100
AcDbBlockTableRecord
   2
_DOT
   0
BLOCK_RECORD
   5
78
 100
AcDbSymbolTableRecord
 100
AcDbBlockTableRecord
   2
_DOTBLANK
   0
BLOCK_RECORD
   5
79
 100
AcDbSymbolTableRecord
 100
AcDbBlockTableRecord
   2
_DOTSMALL
   0
BLOCK_RECORD
   5
7A
 100
AcDbSymbolTableRecord
 100
AcDbBlockTableRecord
   2
_INTEGRAL
   0
BLOCK_RECORD
   5
7B
 100
AcDbSymbolTableRecord
 100
AcDbBlockTableRecord
   2
_NONE
   0
BLOCK_RECORD
   5
7C
 100
AcDbSymbolTableRecord
 100
AcDbBlockTableRecord
   2
_OBLIQUE
   0
BLOCK_RECORD
   5
7D
 100
AcDbSymbolTableRecord
 100
AcDbBlockTableRecord
   2
_OPEN
   0
BLOCK_RECORD
   5
7E
 100
AcDbSymbolTableRecord
 100
AcDbBlockTableRecord
   2
_OPEN30
   0
BLOCK_RECORD
   5
7F
 100
AcDbSymbolTableRecord
 100
AcDbBlockTableRecord
   2
_OPEN90
   0
BLOCK_RECORD
   5
80
 100
AcDbSymbolTableRecord
 100
AcDbBlockTableRecord
   2
_ORIGIN
   0
ENDTAB
   0
ENDSEC
  0
SECTION
  2
BLOCKS
  0
BLOCK
  5
19
100
AcDbEntity
  8
0
100
AcDbBlockBegin
  2
*MODEL_SPACE
 70
     0
 10
0.0
 20
0.0
 30
0.0
  3
*MODEL_SPACE
  1

  0
ENDBLK
  5
1A
100
AcDbEntity
  8
0
100
AcDbBlockEnd
  0
BLOCK
  5
16
100
AcDbEntity
 67
     1
  8
0
100
AcDbBlockBegin
  2
*PAPER_SPACE
 70
     0
 10
0.0
 20
0.0
 30
0.0
  3
*PAPER_SPACE
  1

  0
ENDBLK
  5
17
100
AcDbEntity
 67
     1
  8
0
100
AcDbBlockEnd
   0
BLOCK
   5
81
 100
AcDbEntity
   8
0
 100
AcDbBlockBegin
   2
_ARCHTICK
  70
0
  10
0.0
  20
0.0
  30
0.0
   3
_ARCHTICK
   0
POLYLINE
   5
82
 100
AcDbEntity
   8
0
   6
BYBLOCK
  62
0
 100
AcDb2dPolyline
  66
1
  10
0.0
  20
0.0
  30
0.0
  70
1
  40
 0.15000000000000
  41
 0.15000000000000
   0
VERTEX
   5
83
 100
AcDbEntity
   8
0
   6
BYBLOCK
  62
0
 100
AcDbVertex
 100
AcDb2dVertex
  10
-0.50000000000000
  20
-0.50000000000000
  30
0.0
  40
 0.15000000000000
  41
 0.15000000000000
   0
VERTEX
   5
84
 100
AcDbEntity
   8
0
   6
BYBLOCK
  62
0
 100
AcDbVertex
 100
AcDb2dVertex
  10
 0.50000000000000
  20
 0.50000000000000
  30
0.0
  40
 0.15000000000000
  41
 0.15000000000000
   0
SEQEND
   5
85
 100
AcDbEntity
   8
0
   6
BYBLOCK
  62
0
   0
ENDBLK
   5
86
 100
AcDbEntity
   8
0
 100
AcDbBlockEnd
   0
BLOCK
   5
87
 100
AcDbEntity
   8
0
 100
AcDbBlockBegin
   2
_OBLIQUE
  70
0
  10
0.0
  20
0.0
  30
0.0
   3
_OBLIQUE
   0
LINE
   5
88
 100
AcDbEntity
   8
0
 100
AcDbLine
   6
BYBLOCK
  62
0
  10
-0.50000000000000
  20
-0.50000000000000
  30
0.0
  11
 0.50000000000000
  21
 0.50000000000000
  31
0.0
   0
ENDBLK
   5
89
 100
AcDbEntity
   8
0
 100
AcDbBlockEnd
   0
BLOCK
   5
8A
 100
AcDbEntity
   8
0
 100
AcDbBlockBegin
   2
_BOXBLANK
  70
0
  10
0.0
  20
0.0
  30
0.0
   3
_BOXBLANK
   0
LINE
   5
8B
 100
AcDbEntity
   8
0
 100
AcDbLine
   6
BYBLOCK
  62
0
  10
-0.50000000000000
  20
-0.50000000000000
  30
0.0
  11
 0.50000000000000
  21
-0.50000000000000
  31
0.0
   0
LINE
   5
8C
 100
AcDbEntity
   8
0
 100
AcDbLine
   6
BYBLOCK
  62
0
  10
 0.50000000000000
  20
-0.50000000000000
  30
0.0
  11
 0.50000000000000
  21
 0.50000000000000
  31
0.0
   0
LINE
   5
8D
 100
AcDbEntity
   8
0
 100
AcDbLine
   6
BYBLOCK
  62
0
  10
 0.50000000000000
  20
 0.50000000000000
  30
0.0
  11
-0.50000000000000
  21
 0.50000000000000
  31
0.0
   0
LINE
   5
8E
 100
AcDbEntity
   8
0
 100
AcDbLine
   6
BYBLOCK
  62
0
  10
-0.50000000000000
  20
 0.50000000000000
  30
0.0
  11
-0.50000000000000
  21
-0.50000000000000
  31
0.0
   0
LINE
   5
8F
 100
AcDbEntity
   8
0
 100
AcDbLine
   6
BYBLOCK
  62
0
  10
-0.50000000000000
  20
0.0
  30
0.0
  11
-1.0000000000000
  21
0.0
  31
0.0
   0
ENDBLK
   5
90
 100
AcDbEntity
   8
0
 100
AcDbBlockEnd
   0
BLOCK
   5
91
 100
AcDbEntity
   8
0
 100
AcDbBlockBegin
   2
_BOXFILLED
  70
0
  10
0.0
  20
0.0
  30
0.0
   3
_BOXFILLED
   0
SOLID
   5
92
 100
AcDbEntity
   8
0
 100
AcDbTrace
   6
BYBLOCK
  62
0
  10
-0.50000000000000
  20
 0.50000000000000
  30
0.0
  11
 0.50000000000000
  21
 0.50000000000000
  31
0.0
  12
-0.50000000000000
  22
-0.50000000000000
  32
0.0
  13
 0.50000000000000
  23
-0.50000000000000
  33
0.0
   0
LINE
   5
93
 100
AcDbEntity
   8
0
 100
AcDbLine
   6
BYBLOCK
  62
0
  10
-0.50000000000000
  20
0.0
  30
0.0
  11
-1.0000000000000
  21
0.0
  31
0.0
   0
ENDBLK
   5
94
 100
AcDbEntity
   8
0
 100
AcDbBlockEnd
   0
BLOCK
   5
95
 100
AcDbEntity
   8
0
 100
AcDbBlockBegin
   2
_CLOSED
  70
0
  10
0.0
  20
0.0
  30
0.0
   3
_CLOSED
   0
LINE
   5
96
 100
AcDbEntity
   8
0
 100
AcDbLine
   6
BYBLOCK
  62
0
  10
-1.0000000000000
  20
 0.16666666666667
  30
0.0
  11
0.0
  21
0.0
  31
0.0
   0
LINE
   5
97
 100
AcDbEntity
   8
0
 100
AcDbLine
   6
BYBLOCK
  62
0
  10
0.0
  20
0.0
  30
0.0
  11
-1.0000000000000
  21
-0.16666666666667
  31
0.0
   0
LINE
   5
98
 100
AcDbEntity
   8
0
 100
AcDbLine
   6
BYBLOCK
  62
0
  10
-1.0000000000000
  20
 0.16666666666667
  30
0.0
  11
-1.0000000000000
  21
-0.16666666666667
  31
0.0
   0
LINE
   5
99
 100
AcDbEntity
   8
0
 100
AcDbLine
   6
BYBLOCK
  62
0
  10
0.0
  20
0.0
  30
0.0
  11
-1.0000000000000
  21
0.0
  31
0.0
   0
ENDBLK
   5
9A
 100
AcDbEntity
   8
0
 100
AcDbBlockEnd
   0
BLOCK
   5
9B
 100
AcDbEntity
   8
0
 100
AcDbBlockBegin
   2
_OPEN
  70
0
  10
0.0
  20
0.0
  30
0.0
   3
_OPEN
   0
LINE
   5
9C
 100
AcDbEntity
   8
0
 100
AcDbLine
   6
BYBLOCK
  62
0
  10
-1.0000000000000
  20
 0.16666666666667
  30
0.0
  11
0.0
  21
0.0
  31
0.0
   0
LINE
   5
9D
 100
AcDbEntity
   8
0
 100
AcDbLine
   6
BYBLOCK
  62
0
  10
0.0
  20
0.0
  30
0.0
  11
-1.0000000000000
  21
-0.16666666666667
  31
0.0
   0
LINE
   5
9E
 100
AcDbEntity
   8
0
 100
AcDbLine
   6
BYBLOCK
  62
0
  10
0.0
  20
0.0
  30
0.0
  11
-1.0000000000000
  21
0.0
  31
0.0
   0
ENDBLK
   5
9F
 100
AcDbEntity
   8
0
 100
AcDbBlockEnd
   0
BLOCK
   5
A0
 100
AcDbEntity
   8
0
 100
AcDbBlockBegin
   2
_OPEN30
  70
0
  10
0.0
  20
0.0
  30
0.0
   3
_OPEN30
   0
LINE
   5
A1
 100
AcDbEntity
   8
0
 100
AcDbLine
   6
BYBLOCK
  62
0
  10
-1.0000000000000
  20
 0.26794919243110
  30
0.0
  11
0.0
  21
0.0
  31
0.0
   0
LINE
   5
A2
 100
AcDbEntity
   8
0
 100
AcDbLine
   6
BYBLOCK
  62
0
  10
0.0
  20
0.0
  30
0.0
  11
-1.0000000000000
  21
-0.26794919243110
  31
0.0
   0
LINE
   5
A3
 100
AcDbEntity
   8
0
 100
AcDbLine
   6
BYBLOCK
  62
0
  10
0.0
  20
0.0
  30
0.0
  11
-1.0000000000000
  21
0.0
  31
0.0
   0
ENDBLK
   5
A4
 100
AcDbEntity
   8
0
 100
AcDbBlockEnd
   0
BLOCK
   5
A5
 100
AcDbEntity
   8
0
 100
AcDbBlockBegin
   2
_OPEN90
  70
0
  10
0.0
  20
0.0
  30
0.0
   3
_OPEN90
   0
LINE
   5
A6
 100
AcDbEntity
   8
0
 100
AcDbLine
   6
BYBLOCK
  62
0
  10
-0.50000000000000
  20
 0.50000000000000
  30
0.0
  11
0.0
  21
0.0
  31
0.0
   0
LINE
   5
A7
 100
AcDbEntity
   8
0
 100
AcDbLine
   6
BYBLOCK
  62
0
  10
0.0
  20
0.0
  30
0.0
  11
-0.50000000000000
  21
-0.50000000000000
  31
0.0
   0
LINE
   5
A8
 100
AcDbEntity
   8
0
 100
AcDbLine
   6
BYBLOCK
  62
0
  10
0.0
  20
0.0
  30
0.0
  11
-1.0000000000000
  21
0.0
  31
0.0
   0
ENDBLK
   5
A9
 100
AcDbEntity
   8
0
 100
AcDbBlockEnd
   0
BLOCK
   5
AA
 100
AcDbEntity
   8
0
 100
AcDbBlockBegin
   2
_CLOSEDBLANK
  70
0
  10
0.0
  20
0.0
  30
0.0
   3
_CLOSEDBLANK
   0
LINE
   5
AB
 100
AcDbEntity
   8
0
 100
AcDbLine
   6
BYBLOCK
  62
0
  10
-1.0000000000000
  20
 0.16666666666667
  30
0.0
  11
0.0
  21
0.0
  31
0.0
   0
LINE
   5
AC
 100
AcDbEntity
   8
0
 100
AcDbLine
   6
BYBLOCK
  62
0
  10
0.0
  20
0.0
  30
0.0
  11
-1.0000000000000
  21
-0.16666666666667
  31
0.0
   0
LINE
   5
AD
 100
AcDbEntity
   8
0
 100
AcDbLine
   6
BYBLOCK
  62
0
  10
-1.0000000000000
  20
 0.16666666666667
  30
0.0
  11
-1.0000000000000
  21
-0.16666666666667
  31
0.0
   0
ENDBLK
   5
AE
 100
AcDbEntity
   8
0
 100
AcDbBlockEnd
   0
BLOCK
   5
AF
 100
AcDbEntity
   8
0
 100
AcDbBlockBegin
   2
_DOT
  70
0
  10
0.0
  20
0.0
  30
0.0
   3
_DOT
   0
POLYLINE
   5
B0
 100
AcDbEntity
   8
0
   6
BYBLOCK
  62
0
 100
AcDb2dPolyline
  66
1
  10
0.0
  20
0.0
  30
0.0
  70
1
  40
 0.50000000000000
  41
 0.50000000000000
   0
VERTEX
   5
B1
 100
AcDbEntity
   8
0
   6
BYBLOCK
  62
0
 100
AcDbVertex
 100
AcDb2dVertex
  10
-0.25000000000000
  20
0.0
  30
0.0
  42
 1.0000000000000
  40
 0.50000000000000
  41
 0.50000000000000
   0
VERTEX
   5
B2
 100
AcDbEntity
   8
0
   6
BYBLOCK
  62
0
 100
AcDbVertex
 100
AcDb2dVertex
  10
 0.25000000000000
  20
0.0
  30
0.0
  42
 1.0000000000000
  40
 0.50000000000000
  41
 0.50000000000000
   0
SEQEND
   5
B3
 100
AcDbEntity
   8
0
   6
BYBLOCK
  62
0
   0
LINE
   5
B4
 100
AcDbEntity
   8
0
 100
AcDbLine
   6
BYBLOCK
  62
0
  10
-0.50000000000000
  20
0.0
  30
0.0
  11
-1.0000000000000
  21
0.0
  31
0.0
   0
ENDBLK
   5
B5
 100
AcDbEntity
   8
0
 100
AcDbBlockEnd
   0
BLOCK
   5
B6
 100
AcDbEntity
   8
0
 100
AcDbBlockBegin
   2
_DOTSMALL
  70
0
  10
0.0
  20
0.0
  30
0.0
   3
_DOTSMALL
   0
POLYLINE
   5
B7
 100
AcDbEntity
   8
0
   6
BYBLOCK
  62
0
 100
AcDb2dPolyline
  66
1
  10
0.0
  20
0.0
  30
0.0
  70
1
  40
 0.50000000000000
  41
 0.50000000000000
   0
VERTEX
   5
B8
 100
AcDbEntity
   8
0
   6
BYBLOCK
  62
0
 100
AcDbVertex
 100
AcDb2dVertex
  10
-0.62500000000000E-1
  20
0.0
  30
0.0
  42
 1.0000000000000
  40
 0.50000000000000
  41
 0.50000000000000
   0
VERTEX
   5
B9
 100
AcDbEntity
   8
0
   6
BYBLOCK
  62
0
 100
AcDbVertex
 100
AcDb2dVertex
  10
 0.62500000000000E-1
  20
0.0
  30
0.0
  42
 1.0000000000000
  40
 0.50000000000000
  41
 0.50000000000000
   0
SEQEND
   5
BA
 100
AcDbEntity
   8
0
   6
BYBLOCK
  62
0
   0
ENDBLK
   5
BB
 100
AcDbEntity
   8
0
 100
AcDbBlockEnd
   0
BLOCK
   5
BC
 100
AcDbEntity
   8
0
 100
AcDbBlockBegin
   2
_DATUMBLANK
  70
0
  10
0.0
  20
0.0
  30
0.0
   3
_DATUMBLANK
   0
LINE
   5
BD
 100
AcDbEntity
   8
0
 100
AcDbLine
   6
BYBLOCK
  62
0
  10
0.0
  20
 0.57735027000000
  30
0.0
  11
-1.0000000000000
  21
0.0
  31
0.0
   0
LINE
   5
BE
 100
AcDbEntity
   8
0
 100
AcDbLine
   6
BYBLOCK
  62
0
  10
-1.0000000000000
  20
0.0
  30
0.0
  11
0.0
  21
-0.57735027000000
  31
0.0
   0
LINE
   5
BF
 100
AcDbEntity
   8
0
 100
AcDbLine
   6
BYBLOCK
  62
0
  10
0.0
  20
-0.57735027000000
  30
0.0
  11
0.0
  21
 0.57735027000000
  31
0.0
   0
ENDBLK
   5
C0
 100
AcDbEntity
   8
0
 100
AcDbBlockEnd
   0
BLOCK
   5
C1
 100
AcDbEntity
   8
0
 100
AcDbBlockBegin
   2
_DATUMFILLED
  70
0
  10
0.0
  20
0.0
  30
0.0
   3
_DATUMFILLED
   0
SOLID
   5
C2
 100
AcDbEntity
   8
0
 100
AcDbTrace
   6
BYBLOCK
  62
0
  10
0.0
  20
 0.57735027000000
  30
0.0
  11
-1.0000000000000
  21
0.0
  31
0.0
  12
0.0
  22
-0.57735027000000
  32
0.0
  13
0.0
  23
-0.57735027000000
  33
0.0
   0
ENDBLK
   5
C3
 100
AcDbEntity
   8
0
 100
AcDbBlockEnd
   0
BLOCK
   5
C4
 100
AcDbEntity
   8
0
 100
AcDbBlockBegin
   2
_ORIGIN
  70
0
  10
0.0
  20
0.0
  30
0.0
   3
_ORIGIN
   0
CIRCLE
   5
C5
 100
AcDbEntity
   8
0
 100
AcDbCircle
   6
BYBLOCK
  62
0
  10
0.0
  20
0.0
  30
0.0
  40
 0.50000000000000
   0
LINE
   5
C6
 100
AcDbEntity
   8
0
 100
AcDbLine
   6
BYBLOCK
  62
0
  10
0.0
  20
0.0
  30
0.0
  11
-1.0000000000000
  21
0.0
  31
0.0
   0
ENDBLK
   5
C7
 100
AcDbEntity
   8
0
 100
AcDbBlockEnd
   0
BLOCK
   5
C8
 100
AcDbEntity
   8
0
 100
AcDbBlockBegin
   2
_NONE
  70
0
  10
0.0
  20
0.0
  30
0.0
   3
_NONE
   0
CIRCLE
   5
C9
 100
AcDbEntity
   8
0
 100
AcDbCircle
   6
BYBLOCK
  62
0
  10
0.0
  20
0.0
  30
0.0
  40
 0.25000000000000
   0
ENDBLK
   5
CA
 100
AcDbEntity
   8
0
 100
AcDbBlockEnd
   0
BLOCK
   5
CB
 100
AcDbEntity
   8
0
 100
AcDbBlockBegin
   2
_DOTBLANK
  70
0
  10
0.0
  20
0.0
  30
0.0
   3
_DOTBLANK
   0
CIRCLE
   5
CC
 100
AcDbEntity
   8
0
 100
AcDbCircle
   6
BYBLOCK
  62
0
  10
0.0
  20
0.0
  30
0.0
  40
 0.50000000000000
   0
LINE
   5
CD
 100
AcDbEntity
   8
0
 100
AcDbLine
   6
BYBLOCK
  62
0
  10
-0.50000000000000
  20
0.0
  30
0.0
  11
-1.0000000000000
  21
0.0
  31
0.0
   0
ENDBLK
   5
CE
 100
AcDbEntity
   8
0
 100
AcDbBlockEnd
   0
BLOCK
   5
CF
 100
AcDbEntity
   8
0
 100
AcDbBlockBegin
   2
_INTEGRAL
  70
0
  10
0.0
  20
0.0
  30
0.0
   3
_INTEGRAL
   0
ARC
   5
D0
 100
AcDbEntity
   8
0
   6
BYBLOCK
  62
0
 100
AcDbCircle
  10
 0.44488800000000
  20
-0.91335000000000E-1
  30
0.0
  40
 0.45416700000000
 100
AcDbArc
  50
 102.00000000000
  51
 168.00000000000
   0
ARC
   5
D1
 100
AcDbEntity
   8
0
   6
BYBLOCK
  62
0
 100
AcDbCircle
  10
-0.44488800000000
  20
 0.91335000000000E-1
  30
0.0
  40
 0.45416700000000
 100
AcDbArc
  50
 282.00000000000
  51
 348.00000000000
   0
ENDBLK
   5
D2
 100
AcDbEntity
   8
0
 100
AcDbBlockEnd
   0
BLOCK
   5
D3
 100
AcDbEntity
   8
0
 100
AcDbBlockBegin
   2
BLOCK001
  70
64
  10
0.0
  20
0.0
  30
0.0
   3
BLOCK001
   0
POLYLINE
   5
D4
 100
AcDbEntity
   8
LEVEL001
   6
CONTINUOUS
  62
8
 100
AcDb2dPolyline
  66
1
  10
0.0
  20
0.0
  30
0.0
  70
0
   0
VERTEX
   5
D5
 100
AcDbEntity
   8
LEVEL001
   6
CONTINUOUS
  62
8
 100
AcDbVertex
 100
AcDb2dVertex
  10
 306.92709168481
  20
 16.564345500109
  30
0.0
   0
VERTEX
   5
D6
 100
AcDbEntity
   8
LEVEL001
   6
CONTINUOUS
  62
8
 100
AcDbVertex
 100
AcDb2dVertex
  10
 308.41479249229
  20
 22.116520500108
  30
0.0
   0
VERTEX
   5
D7
 100
AcDbEntity
   8
LEVEL001
   6
CONTINUOUS
  62
8
 100
AcDbVertex
 100
AcDb2dVertex
  10
 310.74931749229
  20
 22.116520500108
  30
0.0
   0
VERTEX
   5
D8
 100
AcDbEntity
   8
LEVEL001
   6
CONTINUOUS
  62
8
 100
AcDbVertex
 100
AcDb2dVertex
  10
 309.26161668481
  20
 16.564345500109
  30
0.0
   0
VERTEX
   5
D9
 100
AcDbEntity
   8
LEVEL001
   6
CONTINUOUS
  62
8
 100
AcDbVertex
 100
AcDb2dVertex
  10
 310.08907466027
  20
 16.564345500109
  30
0.0
   0
VERTEX
   5
DA
 100
AcDbEntity
   8
LEVEL001
   6
CONTINUOUS
  62
8
 100
AcDbVertex
 100
AcDb2dVertex
  10
 309.77789984904
  20
 18.491140500108
  30
0.0
   0
VERTEX
   5
DB
 100
AcDbEntity
   8
LEVEL001
   6
CONTINUOUS
  62
8
 100
AcDbVertex
 100
AcDb2dVertex
  10
 312.80919249229
  20
 22.116520500108
  30
0.0
   0
VERTEX
   5
DC
 100
AcDbEntity
   8
LEVEL001
   6
CONTINUOUS
  62
8
 100
AcDbVertex
 100
AcDb2dVertex
  10
 315.28104249229
  20
 22.116520500108
  30
0.0
   0
VERTEX
   5
DD
 100
AcDbEntity
   8
LEVEL001
   6
CONTINUOUS
  62
8
 100
AcDbVertex
 100
AcDb2dVertex
  10
 312.24974984904
  20
 18.491140500108
  30
0.0
   0
VERTEX
   5
DE
 100
AcDbEntity
   8
LEVEL001
   6
CONTINUOUS
  62
8
 100
AcDbVertex
 100
AcDb2dVertex
  10
 312.62002880137
  20
 16.564345500109
  30
0.0
   0
VERTEX
   5
DF
 100
AcDbEntity
   8
LEVEL001
   6
CONTINUOUS
  62
8
 100
AcDbVertex
 100
AcDb2dVertex
  10
 315.38839231485
  20
 16.564345500109
  30
0.0
   0
SEQEND
   5
E0
 100
AcDbEntity
   8
LEVEL001
   6
CONTINUOUS
  62
8
   0
ARC
   5
E1
 100
AcDbEntity
   8
LEVEL001
   6
CONTINUOUS
  62
8
 100
AcDbCircle
  10
 315.42805261129
  20
 18.412651232139
  30
0.0
  40
 1.8487311914286
 100
AcDbArc
  50
 268.77075588685
  51
 271.22924411052
   0
POLYLINE
   5
E2
 100
AcDbEntity
   8
LEVEL001
   6
CONTINUOUS
  62
8
 100
AcDb2dPolyline
  66
1
  10
0.0
  20
0.0
  30
0.0
  70
0
   0
VERTEX
   5
E3
 100
AcDbEntity
   8
LEVEL001
   6
CONTINUOUS
  62
8
 100
AcDbVertex
 100
AcDb2dVertex
  10
 315.46771290764
  20
 16.564345500109
  30
0.0
   0
VERTEX
   5
E4
 100
AcDbEntity
   8
LEVEL001
   6
CONTINUOUS
  62
8
 100
AcDbVertex
 100
AcDb2dVertex
  10
 329.94382124411
  20
 16.564345500109
  30
0.0
   0
VERTEX
   5
E5
 100
AcDbEntity
   8
LEVEL001
   6
CONTINUOUS
  62
8
 100
AcDbVertex
 100
AcDb2dVertex
  10
 329.94382124411
  20
 16.339345500109
  30
0.0
   0
VERTEX
   5
E6
 100
AcDbEntity
   8
LEVEL001
   6
CONTINUOUS
  62
8
 100
AcDbVertex
 100
AcDb2dVertex
  10
 312.66326784044
  20
 16.339345500109
  30
0.0
   0
VERTEX
   5
E7
 100
AcDbEntity
   8
LEVEL001
   6
CONTINUOUS
  62
8
 100
AcDbVertex
 100
AcDb2dVertex
  10
 313.11007124411
  20
 14.014345500108
  30
0.0
   0
VERTEX
   5
E8
 100
AcDbEntity
   8
LEVEL001
   6
CONTINUOUS
  62
8
 100
AcDbVertex
 100
AcDb2dVertex
  10
 310.50089624411
  20
 14.014345500108
  30
0.0
   0
VERTEX
   5
E9
 100
AcDbEntity
   8
LEVEL001
   6
CONTINUOUS
  62
8
 100
AcDbVertex
 100
AcDb2dVertex
  10
 310.12541185884
  20
 16.339345500109
  30
0.0
   0
VERTEX
   5
EA
 100
AcDbEntity
   8
LEVEL001
   6
CONTINUOUS
  62
8
 100
AcDbVertex
 100
AcDb2dVertex
  10
 309.20132811651
  20
 16.339345500109
  30
0.0
   0
VERTEX
   5
EB
 100
AcDbEntity
   8
LEVEL001
   6
CONTINUOUS
  62
8
 100
AcDbVertex
 100
AcDb2dVertex
  10
 308.57834624411
  20
 14.014345500109
  30
0.0
   0
VERTEX
   5
EC
 100
AcDbEntity
   8
LEVEL001
   6
CONTINUOUS
  62
8
 100
AcDbVertex
 100
AcDb2dVertex
  10
 306.24382124411
  20
 14.014345500109
  30
0.0
   0
VERTEX
   5
ED
 100
AcDbEntity
   8
LEVEL001
   6
CONTINUOUS
  62
8
 100
AcDbVertex
 100
AcDb2dVertex
  10
 306.86680311651
  20
 16.339345500109
  30
0.0
   0
VERTEX
   5
EE
 100
AcDbEntity
   8
LEVEL001
   6
CONTINUOUS
  62
8
 100
AcDbVertex
 100
AcDb2dVertex
  10
 305.71882124411
  20
 16.339345500109
  30
0.0
   0
VERTEX
   5
EF
 100
AcDbEntity
   8
LEVEL001
   6
CONTINUOUS
  62
8
 100
AcDbVertex
 100
AcDb2dVertex
  10
 305.71882124411
  20
 16.564345500109
  30
0.0
   0
VERTEX
   5
F0
 100
AcDbEntity
   8
LEVEL001
   6
CONTINUOUS
  62
8
 100
AcDbVertex
 100
AcDb2dVertex
  10
 306.92709168481
  20
 16.564345500109
  30
0.0
   0
SEQEND
   5
F1
 100
AcDbEntity
   8
LEVEL001
   6
CONTINUOUS
  62
8
   0
ENDBLK
   5
F2
 100
AcDbEntity
   8
0
 100
AcDbBlockEnd
   0
BLOCK
   5
F3
 100
AcDbEntity
   8
0
 100
AcDbBlockBegin
   2
BLOCK002
  70
64
  10
0.0
  20
0.0
  30
0.0
   3
BLOCK002
   0
POLYLINE
   5
F4
 100
AcDbEntity
   8
LEVEL001
   6
CONTINUOUS
  62
8
 100
AcDb2dPolyline
  66
1
  10
0.0
  20
0.0
  30
0.0
  70
0
   0
VERTEX
   5
F5
 100
AcDbEntity
   8
LEVEL001
   6
CONTINUOUS
  62
8
 100
AcDbVertex
 100
AcDb2dVertex
  10
 309.77789984904
  20
 18.491140500108
  30
0.0
   0
VERTEX
   5
F6
 100
AcDbEntity
   8
LEVEL001
   6
CONTINUOUS
  62
8
 100
AcDbVertex
 100
AcDb2dVertex
  10
 312.80919249229
  20
 22.116520500108
  30
0.0
   0
VERTEX
   5
F7
 100
AcDbEntity
   8
LEVEL001
   6
CONTINUOUS
  62
8
 100
AcDbVertex
 100
AcDb2dVertex
  10
 315.28104249229
  20
 22.116520500108
  30
0.0
   0
VERTEX
   5
F8
 100
AcDbEntity
   8
LEVEL001
   6
CONTINUOUS
  62
8
 100
AcDbVertex
 100
AcDb2dVertex
  10
 312.24974984904
  20
 18.491140500108
  30
0.0
   0
VERTEX
   5
F9
 100
AcDbEntity
   8
LEVEL001
   6
CONTINUOUS
  62
8
 100
AcDbVertex
 100
AcDb2dVertex
  10
 312.62002880137
  20
 16.564345500109
  30
0.0
   0
VERTEX
   5
FA
 100
AcDbEntity
   8
LEVEL001
   6
CONTINUOUS
  62
8
 100
AcDbVertex
 100
AcDb2dVertex
  10
 315.38839231485
  20
 16.564345500109
  30
0.0
   0
SEQEND
   5
FB
 100
AcDbEntity
   8
LEVEL001
   6
CONTINUOUS
  62
8
   0
ARC
   5
FC
 100
AcDbEntity
   8
LEVEL001
   6
CONTINUOUS
  62
8
 100
AcDbCircle
  10
 315.42805261129
  20
 18.412651232139
  30
0.0
  40
 1.8487311914286
 100
AcDbArc
  50
 268.77075588685
  51
 271.22924411052
   0
POLYLINE
   5
FD
 100
AcDbEntity
   8
LEVEL001
   6
CONTINUOUS
  62
8
 100
AcDb2dPolyline
  66
1
  10
0.0
  20
0.0
  30
0.0
  70
0
   0
VERTEX
   5
FE
 100
AcDbEntity
   8
LEVEL001
   6
CONTINUOUS
  62
8
 100
AcDbVertex
 100
AcDb2dVertex
  10
 315.46771290764
  20
 16.564345500109
  30
0.0
   0
VERTEX
   5
FF
 100
AcDbEntity
   8
LEVEL001
   6
CONTINUOUS
  62
8
 100
AcDbVertex
 100
AcDb2dVertex
  10
 329.94382124411
  20
 16.564345500109
  30
0.0
   0
VERTEX
   5
100
 100
AcDbEntity
   8
LEVEL001
   6
CONTINUOUS
  62
8
 100
AcDbVertex
 100
AcDb2dVertex
  10
 329.94382124411
  20
 16.339345500109
  30
0.0
   0
VERTEX
   5
101
 100
AcDbEntity
   8
LEVEL001
   6
CONTINUOUS
  62
8
 100
AcDbVertex
 100
AcDb2dVertex
  10
 312.66326784044
  20
 16.339345500109
  30
0.0
   0
VERTEX
   5
102
 100
AcDbEntity
   8
LEVEL001
   6
CONTINUOUS
  62
8
 100
AcDbVertex
 100
AcDb2dVertex
  10
 313.11007124411
  20
 14.014345500108
  30
0.0
   0
VERTEX
   5
103
 100
AcDbEntity
   8
LEVEL001
   6
CONTINUOUS
  62
8
 100
AcDbVertex
 100
AcDb2dVertex
  10
 310.50089624411
  20
 14.014345500108
  30
0.0
   0
VERTEX
   5
104
 100
AcDbEntity
   8
LEVEL001
   6
CONTINUOUS
  62
8
 100
AcDbVertex
 100
AcDb2dVertex
  10
 310.12541185884
  20
 16.339345500109
  30
0.0
   0
VERTEX
   5
105
 100
AcDbEntity
   8
LEVEL001
   6
CONTINUOUS
  62
8
 100
AcDbVertex
 100
AcDb2dVertex
  10
 309.20132811651
  20
 16.339345500109
  30
0.0
   0
VERTEX
   5
106
 100
AcDbEntity
   8
LEVEL001
   6
CONTINUOUS
  62
8
 100
AcDbVertex
 100
AcDb2dVertex
  10
 308.57834624411
  20
 14.014345500109
  30
0.0
   0
VERTEX
   5
107
 100
AcDbEntity
   8
LEVEL001
   6
CONTINUOUS
  62
8
 100
AcDbVertex
 100
AcDb2dVertex
  10
 306.24382124411
  20
 14.014345500109
  30
0.0
   0
VERTEX
   5
108
 100
AcDbEntity
   8
LEVEL001
   6
CONTINUOUS
  62
8
 100
AcDbVertex
 100
AcDb2dVertex
  10
 306.86680311651
  20
 16.339345500109
  30
0.0
   0
VERTEX
   5
109
 100
AcDbEntity
   8
LEVEL001
   6
CONTINUOUS
  62
8
 100
AcDbVertex
 100
AcDb2dVertex
  10
 305.71882124411
  20
 16.339345500109
  30
0.0
   0
VERTEX
   5
10A
 100
AcDbEntity
   8
LEVEL001
   6
CONTINUOUS
  62
8
 100
AcDbVertex
 100
AcDb2dVertex
  10
 305.71882124411
  20
 16.564345500109
  30
0.0
   0
VERTEX
   5
10B
 100
AcDbEntity
   8
LEVEL001
   6
CONTINUOUS
  62
8
 100
AcDbVertex
 100
AcDb2dVertex
  10
 306.92709168481
  20
 16.564345500109
  30
0.0
   0
VERTEX
   5
10C
 100
AcDbEntity
   8
LEVEL001
   6
CONTINUOUS
  62
8
 100
AcDbVertex
 100
AcDb2dVertex
  10
 308.41479249229
  20
 22.116520500108
  30
0.0
   0
VERTEX
   5
10D
 100
AcDbEntity
   8
LEVEL001
   6
CONTINUOUS
  62
8
 100
AcDbVertex
 100
AcDb2dVertex
  10
 310.74931749229
  20
 22.116520500108
  30
0.0
   0
VERTEX
   5
10E
 100
AcDbEntity
   8
LEVEL001
   6
CONTINUOUS
  62
8
 100
AcDbVertex
 100
AcDb2dVertex
  10
 309.26161668481
  20
 16.564345500109
  30
0.0
   0
VERTEX
   5
10F
 100
AcDbEntity
   8
LEVEL001
   6
CONTINUOUS
  62
8
 100
AcDbVertex
 100
AcDb2dVertex
  10
 310.08907466027
  20
 16.564345500109
  30
0.0
   0
VERTEX
   5
110
 100
AcDbEntity
   8
LEVEL001
   6
CONTINUOUS
  62
8
 100
AcDbVertex
 100
AcDb2dVertex
  10
 309.77789984904
  20
 18.491140500108
  30
0.0
   0
SEQEND
   5
111
 100
AcDbEntity
   8
LEVEL001
   6
CONTINUOUS
  62
8
   0
ENDBLK
   5
112
 100
AcDbEntity
   8
0
 100
AcDbBlockEnd
   0
BLOCK
   5
113
 100
AcDbEntity
   8
0
 100
AcDbBlockBegin
   2
*D1
  70
65
  10
0.0
  20
0.0
  30
0.0
   3
*D1
   0
LINE
   5
114
 100
AcDbEntity
   8
LEVEL001
 100
AcDbLine
   6
CONTINUOUS
  62
2
  10
 137.86143931262
  20
 131.94061539931
  30
0.0
  11
 127.54599334143
  21
 131.94061539931
  31
0.0
   0
LINE
   5
115
 100
AcDbEntity
   8
LEVEL001
 100
AcDbLine
   6
CONTINUOUS
  62
2
  10
 139.86143931262
  20
 142.94061539931
  30
0.0
  11
 127.54599334143
  21
 142.94061539931
  31
0.0
   0
LINE
   5
116
 100
AcDbEntity
   8
LEVEL001
 100
AcDbLine
   6
CONTINUOUS
  62
2
  10
 129.54599334143
  20
 131.94061539931
  30
0.0
  11
 129.54599334143
  21
 137.44061539931
  31
0.0
   0
LINE
   5
117
 100
AcDbEntity
   8
LEVEL001
 100
AcDbLine
   6
CONTINUOUS
  62
2
  10
 129.54599334143
  20
 142.94061539931
  30
0.0
  11
 129.54599334143
  21
 137.44061539931
  31
0.0
   0
INSERT
   5
118
 100
AcDbEntity
   8
LEVEL001
   6
CONTINUOUS
  62
2
 100
AcDbBlockReference
   2
_OPEN30
  10
 129.54599334143
  20
 131.94061539931
  30
0.0
  41
 3.0000000000000
  42
 3.0000000000000
  43
 3.0000000000000
  50
 270.00000000000
   0
INSERT
   5
119
 100
AcDbEntity
   8
LEVEL001
   6
CONTINUOUS
  62
2
 100
AcDbBlockReference
   2
_OPEN30
  10
 129.54599334143
  20
 142.94061539931
  30
0.0
  41
 3.0000000000000
  42
 3.0000000000000
  43
 3.0000000000000
  50
 90.000000000000
   0
MTEXT
   5
11A
 100
AcDbEntity
   8
LEVEL001
  62
2
 100
AcDbMText
  10
 127.91742191285
  20
 137.44061539931
  30
0.0
  40
 3.8000000000000
  41
0.0
  71
8
  72
1
   1
\A1;11
   7
GMM001
  11
0.0
  21
 1.0000000000000
  31
0.0
   0
ENDBLK
   5
11B
 100
AcDbEntity
   8
0
 100
AcDbBlockEnd
   0
BLOCK
   5
11C
 100
AcDbEntity
   8
0
 100
AcDbBlockBegin
   2
*D2
  70
65
  10
0.0
  20
0.0
  30
0.0
   3
*D2
   0
LINE
   5
11D
 100
AcDbEntity
   8
LEVEL001
 100
AcDbLine
   6
CONTINUOUS
  62
2
  10
 151.28566816307
  20
 143.94061539931
  30
0.0
  11
 161.05356156456
  21
 143.94061539931
  31
0.0
   0
LINE
   5
11E
 100
AcDbEntity
   8
LEVEL001
 100
AcDbLine
   6
CONTINUOUS
  62
2
  10
 150.36143931262
  20
 146.94061539931
  30
0.0
  11
 161.05356156456
  21
 146.94061539931
  31
0.0
   0
LINE
   5
11F
 100
AcDbEntity
   8
LEVEL001
 100
AcDbLine
   6
CONTINUOUS
  62
2
  10
 159.05356156456
  20
 140.19061539931
  30
0.0
  11
 159.05356156456
  21
 145.44061539931
  31
0.0
   0
LINE
   5
120
 100
AcDbEntity
   8
LEVEL001
 100
AcDbLine
   6
CONTINUOUS
  62
2
  10
 159.05356156456
  20
 150.69061539931
  30
0.0
  11
 159.05356156456
  21
 145.44061539931
  31
0.0
   0
INSERT
   5
121
 100
AcDbEntity
   8
LEVEL001
   6
CONTINUOUS
  62
2
 100
AcDbBlockReference
   2
_OPEN30
  10
 159.05356156456
  20
 143.94061539931
  30
0.0
  41
 3.0000000000000
  42
 3.0000000000000
  43
 3.0000000000000
  50
 90.000000000000
   0
INSERT
   5
122
 100
AcDbEntity
   8
LEVEL001
   6
CONTINUOUS
  62
2
 100
AcDbBlockReference
   2
_OPEN30
  10
 159.05356156456
  20
 146.94061539931
  30
0.0
  41
 3.0000000000000
  42
 3.0000000000000
  43
 3.0000000000000
  50
 270.00000000000
   0
MTEXT
   5
123
 100
AcDbEntity
   8
LEVEL001
  62
2
 100
AcDbMText
  10
 157.42499013599
  20
 145.44061539931
  30
0.0
  40
 3.8000000000000
  41
0.0
  71
8
  72
1
   1
\A1;3
   7
GMM001
  11
0.0
  21
 1.0000000000000
  31
0.0
   0
ENDBLK
   5
124
 100
AcDbEntity
   8
0
 100
AcDbBlockEnd
   0
BLOCK
   5
125
 100
AcDbEntity
   8
0
 100
AcDbBlockBegin
   2
*D3
  70
65
  10
0.0
  20
0.0
  30
0.0
   3
*D3
   0
LINE
   5
126
 100
AcDbEntity
   8
LEVEL001
 100
AcDbLine
   6
CONTINUOUS
  62
2
  10
 137.86143931262
  20
 144.44061539931
  30
0.0
  11
 136.87036416725
  21
 145.20236998986
  31
0.0
   0
LINE
   5
127
 100
AcDbEntity
   8
LEVEL001
 100
AcDbLine
   6
CONTINUOUS
  62
2
  10
 136.87036416725
  20
 145.20236998986
  30
0.0
  11
 120.95138509469
  21
 157.43792593336
  31
0.0
   0
INSERT
   5
128
 100
AcDbEntity
   8
LEVEL001
   6
CONTINUOUS
  62
2
 100
AcDbBlockReference
   2
_OPEN30
  10
 135.87928902188
  20
 145.96412458041
  30
0.0
  41
 3.0000000000000
  42
 3.0000000000000
  43
 3.0000000000000
  50
 322.45360292029
   0
MTEXT
   5
129
 100
AcDbEntity
   8
LEVEL001
  62
2
 100
AcDbMText
  10
 130.82387580663
  20
 151.90383413428
  30
0.0
  40
 3.8000000000000
  41
0.0
  71
9
  72
1
   1
\A1;R2.5
   7
GMM001
  11
 0.79286011629745
  21
-0.60940367244118
  31
0.0
   0
ENDBLK
   5
12A
 100
AcDbEntity
   8
0
 100
AcDbBlockEnd
   0
BLOCK
   5
12B
 100
AcDbEntity
   8
0
 100
AcDbBlockBegin
   2
*D4
  70
65
  10
0.0
  20
0.0
  30
0.0
   3
*D4
   0
LINE
   5
12C
 100
AcDbEntity
   8
LEVEL001
 100
AcDbLine
   6
CONTINUOUS
  62
2
  10
 137.86143931262
  20
 134.44061539931
  30
0.0
  11
 136.94699053260
  21
 133.58839275896
  31
0.0
   0
LINE
   5
12D
 100
AcDbEntity
   8
LEVEL001
 100
AcDbLine
   6
CONTINUOUS
  62
2
  10
 136.94699053260
  20
 133.58839275896
  30
0.0
  11
 120.65509464967
  21
 118.40512298061
  31
0.0
   0
INSERT
   5
12E
 100
AcDbEntity
   8
LEVEL001
   6
CONTINUOUS
  62
2
 100
AcDbBlockReference
   2
_OPEN30
  10
 136.03254175258
  20
 132.73617011862
  30
0.0
  41
 3.0000000000000
  42
 3.0000000000000
  43
 3.0000000000000
  50
 42.982747749296
   0
MTEXT
   5
12F
 100
AcDbEntity
   8
LEVEL001
  62
2
 100
AcDbMText
  10
 127.73823136439
  20
 127.23243396292
  30
0.0
  40
 3.8000000000000
  41
0.0
  71
9
  72
1
   1
\A1;R2.5
   7
GMM001
  11
 0.73155902401798
  21
 0.68177811227543
  31
0.0
   0
ENDBLK
   5
130
 100
AcDbEntity
   8
0
 100
AcDbBlockEnd
   0
BLOCK
   5
131
 100
AcDbEntity
   8
0
 100
AcDbBlockBegin
   2
*D5
  70
65
  10
0.0
  20
0.0
  30
0.0
   3
*D5
   0
LINE
   5
132
 100
AcDbEntity
   8
LEVEL001
 100
AcDbLine
   6
CONTINUOUS
  62
2
  10
 150.36143931262
  20
 115.94061539931
  30
0.0
  11
 172.12878821807
  21
 115.94061539931
  31
0.0
   0
LINE
   5
133
 100
AcDbEntity
   8
LEVEL001
 100
AcDbLine
   6
CONTINUOUS
  62
2
  10
 150.36143931262
  20
 146.94061539931
  30
0.0
  11
 172.12878821807
  21
 146.94061539931
  31
0.0
   0
LINE
   5
134
 100
AcDbEntity
   8
LEVEL001
 100
AcDbLine
   6
CONTINUOUS
  62
2
  10
 170.12878821807
  20
 115.94061539931
  30
0.0
  11
 170.12878821807
  21
 131.44061539931
  31
0.0
   0
LINE
   5
135
 100
AcDbEntity
   8
LEVEL001
 100
AcDbLine
   6
CONTINUOUS
  62
2
  10
 170.12878821807
  20
 146.94061539931
  30
0.0
  11
 170.12878821807
  21
 131.44061539931
  31
0.0
   0
INSERT
   5
136
 100
AcDbEntity
   8
LEVEL001
   6
CONTINUOUS
  62
2
 100
AcDbBlockReference
   2
_OPEN30
  10
 170.12878821807
  20
 115.94061539931
  30
0.0
  41
 3.0000000000000
  42
 3.0000000000000
  43
 3.0000000000000
  50
 270.00000000000
   0
INSERT
   5
137
 100
AcDbEntity
   8
LEVEL001
   6
CONTINUOUS
  62
2
 100
AcDbBlockReference
   2
_OPEN30
  10
 170.12878821807
  20
 146.94061539931
  30
0.0
  41
 3.0000000000000
  42
 3.0000000000000
  43
 3.0000000000000
  50
 90.000000000000
   0
MTEXT
   5
138
 100
AcDbEntity
   8
LEVEL001
  62
2
 100
AcDbMText
  10
 168.50021678949
  20
 131.44061539931
  30
0.0
  40
 3.8000000000000
  41
0.0
  71
8
  72
1
   1
\A1;31
   7
GMM001
  11
0.0
  21
 1.0000000000000
  31
0.0
   0
ENDBLK
   5
139
 100
AcDbEntity
   8
0
 100
AcDbBlockEnd
   0
BLOCK
   5
13A
 100
AcDbEntity
   8
0
 100
AcDbBlockBegin
   2
*D6
  70
65
  10
0.0
  20
0.0
  30
0.0
   3
*D6
   0
LINE
   5
13B
 100
AcDbEntity
   8
LEVEL001
 100
AcDbLine
   6
CONTINUOUS
  62
2
  10
 150.36143931262
  20
 115.94061539931
  30
0.0
  11
 166.55923303958
  21
 115.94061539931
  31
0.0
   0
LINE
   5
13C
 100
AcDbEntity
   8
LEVEL001
 100
AcDbLine
   6
CONTINUOUS
  62
2
  10
 151.78201821833
  20
 118.94061539931
  30
0.0
  11
 166.55923303958
  21
 118.94061539931
  31
0.0
   0
LINE
   5
13D
 100
AcDbEntity
   8
LEVEL001
 100
AcDbLine
   6
CONTINUOUS
  62
2
  10
 164.55923303958
  20
 112.19061539931
  30
0.0
  11
 164.55923303958
  21
 117.44061539931
  31
0.0
   0
LINE
   5
13E
 100
AcDbEntity
   8
LEVEL001
 100
AcDbLine
   6
CONTINUOUS
  62
2
  10
 164.55923303958
  20
 122.69061539931
  30
0.0
  11
 164.55923303958
  21
 117.44061539931
  31
0.0
   0
INSERT
   5
13F
 100
AcDbEntity
   8
LEVEL001
   6
CONTINUOUS
  62
2
 100
AcDbBlockReference
   2
_OPEN30
  10
 164.55923303958
  20
 115.94061539931
  30
0.0
  41
 3.0000000000000
  42
 3.0000000000000
  43
 3.0000000000000
  50
 90.000000000000
   0
INSERT
   5
140
 100
AcDbEntity
   8
LEVEL001
   6
CONTINUOUS
  62
2
 100
AcDbBlockReference
   2
_OPEN30
  10
 164.55923303958
  20
 118.94061539931
  30
0.0
  41
 3.0000000000000
  42
 3.0000000000000
  43
 3.0000000000000
  50
 270.00000000000
   0
MTEXT
   5
141
 100
AcDbEntity
   8
LEVEL001
  62
2
 100
AcDbMText
  10
 162.93066161100
  20
 117.44061539931
  30
0.0
  40
 3.8000000000000
  41
0.0
  71
8
  72
1
   1
\A1;3
   7
GMM001
  11
0.0
  21
 1.0000000000000
  31
0.0
   0
ENDBLK
   5
142
 100
AcDbEntity
   8
0
 100
AcDbBlockEnd
   0
BLOCK
   5
143
 100
AcDbEntity
   8
0
 100
AcDbBlockBegin
   2
*D7
  70
65
  10
0.0
  20
0.0
  30
0.0
   3
*D7
   0
LINE
   5
144
 100
AcDbEntity
   8
LEVEL001
 100
AcDbLine
   6
CONTINUOUS
  62
2
  10
 148.36143931262
  20
 107.00261469365
  30
0.0
  11
 148.36143931262
  21
 109.29185713905
  31
0.0
   0
LINE
   5
145
 100
AcDbEntity
   8
LEVEL001
 100
AcDbLine
   6
CONTINUOUS
  62
2
  10
 150.36143931262
  20
 115.94061539931
  30
0.0
  11
 150.36143931262
  21
 105.29185713905
  31
0.0
   0
LINE
   5
146
 100
AcDbEntity
   8
LEVEL001
 100
AcDbLine
   6
CONTINUOUS
  62
2
  10
 144.61143931262
  20
 107.29185713905
  30
0.0
  11
 149.36143931262
  21
 107.29185713905
  31
0.0
   0
LINE
   5
147
 100
AcDbEntity
   8
LEVEL001
 100
AcDbLine
   6
CONTINUOUS
  62
2
  10
 154.11143931262
  20
 107.29185713905
  30
0.0
  11
 149.36143931262
  21
 107.29185713905
  31
0.0
   0
INSERT
   5
148
 100
AcDbEntity
   8
LEVEL001
   6
CONTINUOUS
  62
2
 100
AcDbBlockReference
   2
_OPEN30
  10
 148.36143931262
  20
 107.29185713905
  30
0.0
  41
 3.0000000000000
  42
 3.0000000000000
  43
 3.0000000000000
  50
0.0
   0
INSERT
   5
149
 100
AcDbEntity
   8
LEVEL001
   6
CONTINUOUS
  62
2
 100
AcDbBlockReference
   2
_OPEN30
  10
 150.36143931262
  20
 107.29185713905
  30
0.0
  41
 3.0000000000000
  42
 3.0000000000000
  43
 3.0000000000000
  50
 180.00000000000
   0
MTEXT
   5
14A
 100
AcDbEntity
   8
LEVEL001
  62
2
 100
AcDbMText
  10
 149.36143931262
  20
 108.92042856762
  30
0.0
  40
 3.8000000000000
  41
0.0
  71
8
  72
1
   1
\A1;2
   7
GMM001
   0
ENDBLK
   5
14B
 100
AcDbEntity
   8
0
 100
AcDbBlockEnd
   0
BLOCK
   5
14C
 100
AcDbEntity
   8
0
 100
AcDbBlockBegin
   2
*D8
  70
65
  10
0.0
  20
0.0
  30
0.0
   3
*D8
   0
LINE
   5
14D
 100
AcDbEntity
   8
LEVEL001
 100
AcDbLine
   6
CONTINUOUS
  62
2
  10
 135.36143931262
  20
 134.44061539931
  30
0.0
  11
 135.36143931262
  21
 73.347431957559
  31
0.0
   0
LINE
   5
14E
 100
AcDbEntity
   8
LEVEL001
 100
AcDbLine
   6
CONTINUOUS
  62
2
  10
 148.36143931262
  20
 99.940615399307
  30
0.0
  11
 148.36143931262
  21
 73.347431957559
  31
0.0
   0
LINE
   5
14F
 100
AcDbEntity
   8
LEVEL001
 100
AcDbLine
   6
CONTINUOUS
  62
2
  10
 135.36143931262
  20
 75.347431957559
  30
0.0
  11
 141.86143931262
  21
 75.347431957559
  31
0.0
   0
LINE
   5
150
 100
AcDbEntity
   8
LEVEL001
 100
AcDbLine
   6
CONTINUOUS
  62
2
  10
 148.36143931262
  20
 75.347431957559
  30
0.0
  11
 141.86143931262
  21
 75.347431957559
  31
0.0
   0
INSERT
   5
151
 100
AcDbEntity
   8
LEVEL001
   6
CONTINUOUS
  62
2
 100
AcDbBlockReference
   2
_OPEN30
  10
 135.36143931262
  20
 75.347431957559
  30
0.0
  41
 3.0000000000000
  42
 3.0000000000000
  43
 3.0000000000000
  50
 180.00000000000
   0
INSERT
   5
152
 100
AcDbEntity
   8
LEVEL001
   6
CONTINUOUS
  62
2
 100
AcDbBlockReference
   2
_OPEN30
  10
 148.36143931262
  20
 75.347431957559
  30
0.0
  41
 3.0000000000000
  42
 3.0000000000000
  43
 3.0000000000000
  50
0.0
   0
MTEXT
   5
153
 100
AcDbEntity
   8
LEVEL001
  62
2
 100
AcDbMText
  10
 141.86143931262
  20
 76.976003386131
  30
0.0
  40
 3.8000000000000
  41
0.0
  71
8
  72
1
   1
\A1;13
   7
GMM001
   0
ENDBLK
   5
154
 100
AcDbEntity
   8
0
 100
AcDbBlockEnd
   0
BLOCK
   5
155
 100
AcDbEntity
   8
0
 100
AcDbBlockBegin
   2
*D9
  70
65
  10
0.0
  20
0.0
  30
0.0
   3
*D9
   0
LINE
   5
156
 100
AcDbEntity
   8
LEVEL001
 100
AcDbLine
   6
CONTINUOUS
  62
2
  10
 137.86143931262
  20
 131.94061539931
  30
0.0
  11
 119.76851421111
  21
 131.94061539931
  31
0.0
   0
LINE
   5
157
 100
AcDbEntity
   8
LEVEL001
 100
AcDbLine
   6
CONTINUOUS
  62
2
  10
 137.86143931262
  20
 146.94061539931
  30
0.0
  11
 119.76851421111
  21
 146.94061539931
  31
0.0
   0
LINE
   5
158
 100
AcDbEntity
   8
LEVEL001
 100
AcDbLine
   6
CONTINUOUS
  62
2
  10
 121.76851421111
  20
 131.94061539931
  30
0.0
  11
 121.76851421111
  21
 139.44061539931
  31
0.0
   0
LINE
   5
159
 100
AcDbEntity
   8
LEVEL001
 100
AcDbLine
   6
CONTINUOUS
  62
2
  10
 121.76851421111
  20
 146.94061539931
  30
0.0
  11
 121.76851421111
  21
 139.44061539931
  31
0.0
   0
INSERT
   5
15A
 100
AcDbEntity
   8
LEVEL001
   6
CONTINUOUS
  62
2
 100
AcDbBlockReference
   2
_OPEN30
  10
 121.76851421111
  20
 131.94061539931
  30
0.0
  41
 3.0000000000000
  42
 3.0000000000000
  43
 3.0000000000000
  50
 270.00000000000
   0
INSERT
   5
15B
 100
AcDbEntity
   8
LEVEL001
   6
CONTINUOUS
  62
2
 100
AcDbBlockReference
   2
_OPEN30
  10
 121.76851421111
  20
 146.94061539931
  30
0.0
  41
 3.0000000000000
  42
 3.0000000000000
  43
 3.0000000000000
  50
 90.000000000000
   0
MTEXT
   5
15C
 100
AcDbEntity
   8
LEVEL001
  62
2
 100
AcDbMText
  10
 120.13994278253
  20
 139.44061539931
  30
0.0
  40
 3.8000000000000
  41
0.0
  71
8
  72
1
   1
\A1;15
   7
GMM001
  11
0.0
  21
 1.0000000000000
  31
0.0
   0
ENDBLK
   5
15D
 100
AcDbEntity
   8
0
 100
AcDbBlockEnd
   0
BLOCK
   5
15E
 100
AcDbEntity
   8
0
 100
AcDbBlockBegin
   2
*D10
  70
65
  10
0.0
  20
0.0
  30
0.0
   3
*D10
   0
LINE
   5
15F
 100
AcDbEntity
   8
LEVEL001
 100
AcDbLine
   6
CONTINUOUS
  62
2
  10
 146.36143931262
  20
 89.940615399307
  30
0.0
  11
 145.75023336597
  21
 89.149143801093
  31
0.0
   0
LINE
   5
160
 100
AcDbEntity
   8
LEVEL001
 100
AcDbLine
   6
CONTINUOUS
  62
2
  10
 145.75023336597
  20
 89.149143801093
  30
0.0
  11
 139.98384322595
  21
 81.682046916540
  31
0.0
   0
INSERT
   5
161
 100
AcDbEntity
   8
LEVEL001
   6
CONTINUOUS
  62
2
 100
AcDbBlockReference
   2
_OPEN30
  10
 145.13902741932
  20
 88.357672202879
  30
0.0
  41
 3.0000000000000
  42
 3.0000000000000
  43
 3.0000000000000
  50
 52.323248070730
   0
MTEXT
   5
162
 100
AcDbEntity
   8
LEVEL001
  62
2
 100
AcDbMText
  10
 142.60659325313
  20
 87.742857686797
  30
0.0
  40
 3.8000000000000
  41
0.0
  71
9
  72
1
   1
\A1;R2
   7
GMM001
  11
 0.61120594665004
  21
 0.79147159821413
  31
0.0
   0
ENDBLK
   5
163
 100
AcDbEntity
   8
0
 100
AcDbBlockEnd
   0
BLOCK
   5
164
 100
AcDbEntity
   8
0
 100
AcDbBlockBegin
   2
*D11
  70
65
  10
0.0
  20
0.0
  30
0.0
   3
*D11
   0
LINE
   5
165
 100
AcDbEntity
   8
LEVEL001
 100
AcDbLine
   6
CONTINUOUS
  62
2
  10
 64.104527731022
  20
 88.940615399307
  30
0.0
  11
 64.104527731022
  21
 72.664267806667
  31
0.0
   0
LINE
   5
166
 100
AcDbEntity
   8
LEVEL001
 100
AcDbLine
   6
CONTINUOUS
  62
2
  10
 60.354527731022
  20
 74.664267806667
  30
0.0
  11
 66.104527731022
  21
 74.664267806667
  31
0.0
   0
LINE
   5
167
 100
AcDbEntity
   8
LEVEL001
 100
AcDbLine
   6
CONTINUOUS
  62
2
  10
 68.104527731022
  20
 74.664267806667
  30
0.0
  11
 66.104527731022
  21
 74.664267806667
  31
0.0
   0
INSERT
   5
168
 100
AcDbEntity
   8
LEVEL001
   6
CONTINUOUS
  62
2
 100
AcDbBlockReference
   2
_OPEN30
  10
 64.104527731022
  20
 74.664267806667
  30
0.0
  41
 3.0000000000000
  42
 3.0000000000000
  43
 3.0000000000000
  50
0.0
   0
MTEXT
   5
169
 100
AcDbEntity
   8
LEVEL001
  62
2
 100
AcDbMText
  10
 66.104527731022
  20
 76.292839235238
  30
0.0
  40
 3.8000000000000
  41
0.0
  71
8
  72
1
   1
\A1;4
   7
GMM001
   0
ENDBLK
   5
16A
 100
AcDbEntity
   8
0
 100
AcDbBlockEnd
   0
BLOCK
   5
16B
 100
AcDbEntity
   8
0
 100
AcDbBlockBegin
   2
*D12
  70
65
  10
0.0
  20
0.0
  30
0.0
   3
*D12
   0
LINE
   5
16C
 100
AcDbEntity
   8
LEVEL001
 100
AcDbLine
   6
CONTINUOUS
  62
2
  10
 68.104527731022
  20
 88.940615399307
  30
0.0
  11
 68.104527731022
  21
 72.664267806667
  31
0.0
   0
LINE
   5
16D
 100
AcDbEntity
   8
LEVEL001
 100
AcDbLine
   6
CONTINUOUS
  62
2
  10
 68.104527731022
  20
 74.664267806667
  30
0.0
  11
 81.104527731022
  21
 74.664267806667
  31
0.0
   0
LINE
   5
16E
 100
AcDbEntity
   8
LEVEL001
 100
AcDbLine
   6
CONTINUOUS
  62
2
  10
 94.104527731022
  20
 74.664267806667
  30
0.0
  11
 81.104527731022
  21
 74.664267806667
  31
0.0
   0
INSERT
   5
16F
 100
AcDbEntity
   8
LEVEL001
   6
CONTINUOUS
  62
2
 100
AcDbBlockReference
   2
_OPEN30
  10
 68.104527731022
  20
 74.664267806667
  30
0.0
  41
 3.0000000000000
  42
 3.0000000000000
  43
 3.0000000000000
  50
 180.00000000000
   0
INSERT
   5
170
 100
AcDbEntity
   8
LEVEL001
   6
CONTINUOUS
  62
2
 100
AcDbBlockReference
   2
_OPEN30
  10
 94.104527731022
  20
 74.664267806667
  30
0.0
  41
 3.0000000000000
  42
 3.0000000000000
  43
 3.0000000000000
  50
0.0
   0
MTEXT
   5
171
 100
AcDbEntity
   8
LEVEL001
  62
2
 100
AcDbMText
  10
 81.104527731022
  20
 76.292839235238
  30
0.0
  40
 3.8000000000000
  41
0.0
  71
8
  72
1
   1
\A1;26
   7
GMM001
   0
ENDBLK
   5
172
 100
AcDbEntity
   8
0
 100
AcDbBlockEnd
   0
BLOCK
   5
173
 100
AcDbEntity
   8
0
 100
AcDbBlockBegin
   2
*D13
  70
65
  10
0.0
  20
0.0
  30
0.0
   3
*D13
   0
LINE
   5
174
 100
AcDbEntity
   8
LEVEL001
 100
AcDbLine
   6
CONTINUOUS
  62
2
  10
 94.104527731022
  20
 88.940615399307
  30
0.0
  11
 94.104527731022
  21
 72.664267806667
  31
0.0
   0
LINE
   5
175
 100
AcDbEntity
   8
LEVEL001
 100
AcDbLine
   6
CONTINUOUS
  62
2
  10
 98.104527731022
  20
 88.940615399307
  30
0.0
  11
 98.104527731022
  21
 72.664267806667
  31
0.0
   0
LINE
   5
176
 100
AcDbEntity
   8
LEVEL001
 100
AcDbLine
   6
CONTINUOUS
  62
2
  10
 94.104527731022
  20
 74.664267806667
  30
0.0
  11
 96.104527731022
  21
 74.664267806667
  31
0.0
   0
LINE
   5
177
 100
AcDbEntity
   8
LEVEL001
 100
AcDbLine
   6
CONTINUOUS
  62
2
  10
 101.85452773102
  20
 74.664267806667
  30
0.0
  11
 96.104527731022
  21
 74.664267806667
  31
0.0
   0
INSERT
   5
178
 100
AcDbEntity
   8
LEVEL001
   6
CONTINUOUS
  62
2
 100
AcDbBlockReference
   2
_OPEN30
  10
 98.104527731022
  20
 74.664267806667
  30
0.0
  41
 3.0000000000000
  42
 3.0000000000000
  43
 3.0000000000000
  50
 180.00000000000
   0
MTEXT
   5
179
 100
AcDbEntity
   8
LEVEL001
  62
2
 100
AcDbMText
  10
 96.104527731022
  20
 76.292839235238
  30
0.0
  40
 3.8000000000000
  41
0.0
  71
8
  72
1
   1
\A1;4
   7
GMM001
   0
ENDBLK
   5
17A
 100
AcDbEntity
   8
0
 100
AcDbBlockEnd
   0
BLOCK
   5
17B
 100
AcDbEntity
   8
0
 100
AcDbBlockBegin
   2
*D14
  70
65
  10
0.0
  20
0.0
  30
0.0
   3
*D14
   0
LINE
   5
17C
 100
AcDbEntity
   8
LEVEL001
 100
AcDbLine
   6
CONTINUOUS
  62
2
  10
 330.68173819182
  20
 99.940615399307
  30
0.0
  11
 335.16663749857
  21
 96.756957407573
  31
0.0
   0
LINE
   5
17D
 100
AcDbEntity
   8
LEVEL001
 100
AcDbLine
   6
CONTINUOUS
  62
2
  10
 335.16663749857
  20
 96.756957407573
  30
0.0
  11
 355.16711704278
  21
 82.559384132374
  31
0.0
   0
INSERT
   5
17E
 100
AcDbEntity
   8
LEVEL001
   6
CONTINUOUS
  62
2
 100
AcDbBlockReference
   2
_OPEN30
  10
 339.65153680532
  20
 93.573299415839
  30
0.0
  41
 3.0000000000000
  42
 3.0000000000000
  43
 3.0000000000000
  50
 144.63051893276
   0
MTEXT
   5
17F
 100
AcDbEntity
   8
LEVEL001
  62
2
 100
AcDbMText
  10
 348.28162269713
  20
 89.444310603581
  30
0.0
  40
 3.8000000000000
  41
0.0
  71
7
  72
1
   1
\A1;R11
   7
GMM001
  11
 0.81543623759052
  21
-0.57884690758803
  31
0.0
   0
ENDBLK
   5
180
 100
AcDbEntity
   8
0
 100
AcDbBlockEnd
   0
BLOCK
   5
181
 100
AcDbEntity
   8
0
 100
AcDbBlockBegin
   2
BLOCK003
  70
64
  10
0.0
  20
0.0
  30
0.0
   3
BLOCK003
   0
POLYLINE
   5
182
 100
AcDbEntity
   8
LEVEL001
   6
CONTINUOUS
  62
7
 100
AcDb2dPolyline
  66
1
  10
0.0
  20
0.0
  30
0.0
  70
0
   0
VERTEX
   5
183
 100
AcDbEntity
   8
LEVEL001
   6
CONTINUOUS
  62
7
 100
AcDbVertex
 100
AcDb2dVertex
  10
 256.23269545933
  20
 70.358672684507
  30
0.0
   0
VERTEX
   5
184
 100
AcDbEntity
   8
LEVEL001
   6
CONTINUOUS
  62
7
 100
AcDbVertex
 100
AcDb2dVertex
  10
 262.23269545933
  20
 68.858672684507
  30
0.0
   0
VERTEX
   5
185
 100
AcDbEntity
   8
LEVEL001
   6
CONTINUOUS
  62
7
 100
AcDbVertex
 100
AcDb2dVertex
  10
 262.23269545933
  20
 71.858672684507
  30
0.0
   0
VERTEX
   5
186
 100
AcDbEntity
   8
LEVEL001
   6
CONTINUOUS
  62
7
 100
AcDbVertex
 100
AcDb2dVertex
  10
 256.23269545933
  20
 70.358672684507
  30
0.0
   0
SEQEND
   5
187
 100
AcDbEntity
   8
LEVEL001
   6
CONTINUOUS
  62
7
   0
ENDBLK
   5
188
 100
AcDbEntity
   8
0
 100
AcDbBlockEnd
   0
BLOCK
   5
189
 100
AcDbEntity
   8
0
 100
AcDbBlockBegin
   2
*D15
  70
65
  10
0.0
  20
0.0
  30
0.0
   3
*D15
   0
LINE
   5
18A
 100
AcDbEntity
   8
LEVEL001
 100
AcDbLine
   6
CONTINUOUS
  62
2
  10
 240.23269475613
  20
 145.94061517861
  30
0.0
  11
 239.79748943376
  21
 146.18677861565
  31
0.0
   0
LINE
   5
18B
 100
AcDbEntity
   8
LEVEL001
 100
AcDbLine
   6
CONTINUOUS
  62
2
  10
 239.79748943376
  20
 146.18677861565
  30
0.0
  11
 231.31612210869
  21
 150.98406032221
  31
0.0
   0
INSERT
   5
18C
 100
AcDbEntity
   8
LEVEL001
   6
CONTINUOUS
  62
2
 100
AcDbBlockReference
   2
_OPEN30
  10
 239.36228411140
  20
 146.43294205269
  30
0.0
  41
 3.0000000000000
  42
 3.0000000000000
  43
 3.0000000000000
  50
 330.50637182223
   0
MTEXT
   5
18D
 100
AcDbEntity
   8
LEVEL001
  62
2
 100
AcDbMText
  10
 237.68853830920
  20
 149.25069461773
  30
0.0
  40
 3.8000000000000
  41
0.0
  71
9
  72
1
   1
\A1;R1
   7
GMM001
  11
 0.87041045262591
  21
-0.49232676543081
  31
0.0
   0
ENDBLK
   5
18E
 100
AcDbEntity
   8
0
 100
AcDbBlockEnd
   0
BLOCK
   5
18F
 100
AcDbEntity
   8
0
 100
AcDbBlockBegin
   2
*D16
  70
65
  10
0.0
  20
0.0
  30
0.0
   3
*D16
   0
LINE
   5
190
 100
AcDbEntity
   8
LEVEL001
 100
AcDbLine
   6
CONTINUOUS
  62
2
  10
 239.23269545933
  20
 233.74185165374
  30
0.0
  11
 239.23269545933
  21
 250.40054645965
  31
0.0
   0
LINE
   5
191
 100
AcDbEntity
   8
LEVEL001
 100
AcDbLine
   6
CONTINUOUS
  62
2
  10
 273.23269545933
  20
 233.23637941905
  30
0.0
  11
 273.23269545933
  21
 250.40054645965
  31
0.0
   0
LINE
   5
192
 100
AcDbEntity
   8
LEVEL001
 100
AcDbLine
   6
CONTINUOUS
  62
2
  10
 239.23269545933
  20
 248.40054645965
  30
0.0
  11
 256.23269545933
  21
 248.40054645965
  31
0.0
   0
LINE
   5
193
 100
AcDbEntity
   8
LEVEL001
 100
AcDbLine
   6
CONTINUOUS
  62
2
  10
 273.23269545933
  20
 248.40054645965
  30
0.0
  11
 256.23269545933
  21
 248.40054645965
  31
0.0
   0
INSERT
   5
194
 100
AcDbEntity
   8
LEVEL001
   6
CONTINUOUS
  62
2
 100
AcDbBlockReference
   2
_OPEN30
  10
 239.23269545933
  20
 248.40054645965
  30
0.0
  41
 3.0000000000000
  42
 3.0000000000000
  43
 3.0000000000000
  50
 180.00000000000
   0
INSERT
   5
195
 100
AcDbEntity
   8
LEVEL001
   6
CONTINUOUS
  62
2
 100
AcDbBlockReference
   2
_OPEN30
  10
 273.23269545933
  20
 248.40054645965
  30
0.0
  41
 3.0000000000000
  42
 3.0000000000000
  43
 3.0000000000000
  50
0.0
   0
MTEXT
   5
196
 100
AcDbEntity
   8
LEVEL001
  62
2
 100
AcDbMText
  10
 256.23269545933
  20
 250.02911788822
  30
0.0
  40
 3.8000000000000
  41
0.0
  71
8
  72
1
   1
\A1;34
   7
GMM001
   0
ENDBLK
   5
197
 100
AcDbEntity
   8
0
 100
AcDbBlockEnd
   0
BLOCK
   5
198
 100
AcDbEntity
   8
0
 100
AcDbBlockBegin
   2
*D17
  70
65
  10
0.0
  20
0.0
  30
0.0
   3
*D17
   0
LINE
   5
199
 100
AcDbEntity
   8
LEVEL001
 100
AcDbLine
   6
CONTINUOUS
  62
2
  10
 242.23269545933
  20
 214.20148362891
  30
0.0
  11
 242.23269545933
  21
 243.52612406791
  31
0.0
   0
LINE
   5
19A
 100
AcDbEntity
   8
LEVEL001
 100
AcDbLine
   6
CONTINUOUS
  62
2
  10
 270.23269545933
  20
 214.20148362891
  30
0.0
  11
 270.23269545933
  21
 243.52612406791
  31
0.0
   0
LINE
   5
19B
 100
AcDbEntity
   8
LEVEL001
 100
AcDbLine
   6
CONTINUOUS
  62
2
  10
 242.23269545933
  20
 241.52612406791
  30
0.0
  11
 256.23269545933
  21
 241.52612406791
  31
0.0
   0
LINE
   5
19C
 100
AcDbEntity
   8
LEVEL001
 100
AcDbLine
   6
CONTINUOUS
  62
2
  10
 270.23269545933
  20
 241.52612406791
  30
0.0
  11
 256.23269545933
  21
 241.52612406791
  31
0.0
   0
INSERT
   5
19D
 100
AcDbEntity
   8
LEVEL001
   6
CONTINUOUS
  62
2
 100
AcDbBlockReference
   2
_OPEN30
  10
 242.23269545933
  20
 241.52612406791
  30
0.0
  41
 3.0000000000000
  42
 3.0000000000000
  43
 3.0000000000000
  50
 180.00000000000
   0
INSERT
   5
19E
 100
AcDbEntity
   8
LEVEL001
   6
CONTINUOUS
  62
2
 100
AcDbBlockReference
   2
_OPEN30
  10
 270.23269545933
  20
 241.52612406791
  30
0.0
  41
 3.0000000000000
  42
 3.0000000000000
  43
 3.0000000000000
  50
0.0
   0
MTEXT
   5
19F
 100
AcDbEntity
   8
LEVEL001
  62
2
 100
AcDbMText
  10
 256.23269545933
  20
 243.15469549648
  30
0.0
  40
 3.8000000000000
  41
0.0
  71
8
  72
1
   1
\A1;28
   7
GMM001
   0
ENDBLK
   5
1A0
 100
AcDbEntity
   8
0
 100
AcDbBlockEnd
   0
BLOCK
   5
1A1
 100
AcDbEntity
   8
0
 100
AcDbBlockBegin
   2
*D18
  70
65
  10
0.0
  20
0.0
  30
0.0
   3
*D18
   0
LINE
   5
1A2
 100
AcDbEntity
   8
LEVEL001
 100
AcDbLine
   6
CONTINUOUS
  62
2
  10
 236.23269545933
  20
 214.20148362891
  30
0.0
  11
 236.23269545933
  21
 257.22430540140
  31
0.0
   0
LINE
   5
1A3
 100
AcDbEntity
   8
LEVEL001
 100
AcDbLine
   6
CONTINUOUS
  62
2
  10
 276.23269545933
  20
 214.20148362891
  30
0.0
  11
 276.23269545933
  21
 257.22430540140
  31
0.0
   0
LINE
   5
1A4
 100
AcDbEntity
   8
LEVEL001
 100
AcDbLine
   6
CONTINUOUS
  62
2
  10
 236.23269545933
  20
 255.22430540140
  30
0.0
  11
 256.23269545933
  21
 255.22430540140
  31
0.0
   0
LINE
   5
1A5
 100
AcDbEntity
   8
LEVEL001
 100
AcDbLine
   6
CONTINUOUS
  62
2
  10
 276.23269545933
  20
 255.22430540140
  30
0.0
  11
 256.23269545933
  21
 255.22430540140
  31
0.0
   0
INSERT
   5
1A6
 100
AcDbEntity
   8
LEVEL001
   6
CONTINUOUS
  62
2
 100
AcDbBlockReference
   2
_OPEN30
  10
 236.23269545933
  20
 255.22430540140
  30
0.0
  41
 3.0000000000000
  42
 3.0000000000000
  43
 3.0000000000000
  50
 180.00000000000
   0
INSERT
   5
1A7
 100
AcDbEntity
   8
LEVEL001
   6
CONTINUOUS
  62
2
 100
AcDbBlockReference
   2
_OPEN30
  10
 276.23269545933
  20
 255.22430540140
  30
0.0
  41
 3.0000000000000
  42
 3.0000000000000
  43
 3.0000000000000
  50
0.0
   0
MTEXT
   5
1A8
 100
AcDbEntity
   8
LEVEL001
  62
2
 100
AcDbMText
  10
 256.23269545933
  20
 256.85287682997
  30
0.0
  40
 3.8000000000000
  41
0.0
  71
8
  72
1
   1
\A1;40
   7
GMM001
   0
ENDBLK
   5
1A9
 100
AcDbEntity
   8
0
 100
AcDbBlockEnd
   0
BLOCK
   5
1AA
 100
AcDbEntity
   8
0
 100
AcDbBlockBegin
   2
*D19
  70
65
  10
0.0
  20
0.0
  30
0.0
   3
*D19
   0
LINE
   5
1AB
 100
AcDbEntity
   8
LEVEL001
 100
AcDbLine
   6
CONTINUOUS
  62
2
  10
 262.73352608143
  20
 208.20148362891
  30
0.0
  11
 265.62043354479
  21
 209.01742804981
  31
0.0
   0
LINE
   5
1AC
 100
AcDbEntity
   8
LEVEL001
 100
AcDbLine
   6
CONTINUOUS
  62
2
  10
 265.62043354479
  20
 209.01742804981
  30
0.0
  11
 287.54102693471
  21
 215.21298024754
  31
0.0
   0
INSERT
   5
1AD
 100
AcDbEntity
   8
LEVEL001
   6
CONTINUOUS
  62
2
 100
AcDbBlockReference
   2
_OPEN30
  10
 268.50734100815
  20
 209.83337247071
  30
0.0
  41
 3.0000000000000
  42
 3.0000000000000
  43
 3.0000000000000
  50
 195.78221016055
   0
MTEXT
   5
1AE
 100
AcDbEntity
   8
LEVEL001
  62
2
 100
AcDbMText
  10
 280.93934975581
  20
 215.03947715354
  30
0.0
  40
 3.8000000000000
  41
0.0
  71
7
  72
1
   1
\A1;R6
   7
GMM001
  11
 0.96230248778687
  21
 0.27198147363231
  31
0.0
   0
ENDBLK
   5
1AF
 100
AcDbEntity
   8
0
 100
AcDbBlockEnd
   0
BLOCK
   5
1B0
 100
AcDbEntity
   8
0
 100
AcDbBlockBegin
   2
*D20
  70
65
  10
0.0
  20
0.0
  30
0.0
   3
*D20
   0
LINE
   5
1B1
 100
AcDbEntity
   8
LEVEL001
 100
AcDbLine
   6
CONTINUOUS
  62
2
  10
 272.23269545933
  20
 231.20148362891
  30
0.0
  11
 272.69294380776
  21
 231.39685880074
  31
0.0
   0
LINE
   5
1B2
 100
AcDbEntity
   8
LEVEL001
 100
AcDbLine
   6
CONTINUOUS
  62
2
  10
 272.69294380776
  20
 231.39685880074
  30
0.0
  11
 290.07434286678
  21
 238.77525318113
  31
0.0
   0
INSERT
   5
1B3
 100
AcDbEntity
   8
LEVEL001
   6
CONTINUOUS
  62
2
 100
AcDbBlockReference
   2
_OPEN30
  10
 273.15319215619
  20
 231.59223397256
  30
0.0
  41
 3.0000000000000
  42
 3.0000000000000
  43
 3.0000000000000
  50
 203.00119603079
   0
MTEXT
   5
1B4
 100
AcDbEntity
   8
LEVEL001
  62
2
 100
AcDbMText
  10
 279.12841501651
  20
 235.89794395292
  30
0.0
  40
 3.8000000000000
  41
0.0
  71
7
  72
1
   1
\A1;4-R1
   7
GMM001
  11
 0.92049669686646
  21
 0.39075034364405
  31
0.0
   0
ENDBLK
   5
1B5
 100
AcDbEntity
   8
0
 100
AcDbBlockEnd
   0
BLOCK
   5
1B6
 100
AcDbEntity
   8
0
 100
AcDbBlockBegin
   2
BLOCK004
  70
64
  10
0.0
  20
0.0
  30
0.0
   3
BLOCK004
   0
POLYLINE
   5
1B7
 100
AcDbEntity
   8
LEVEL001
   6
CONTINUOUS
  62
7
 100
AcDb2dPolyline
  66
1
  10
0.0
  20
0.0
  30
0.0
  70
0
   0
VERTEX
   5
1B8
 100
AcDbEntity
   8
LEVEL001
   6
CONTINUOUS
  62
7
 100
AcDbVertex
 100
AcDb2dVertex
  10
 256.23269545933
  20
 158.89545906812
  30
0.0
   0
VERTEX
   5
1B9
 100
AcDbEntity
   8
LEVEL001
   6
CONTINUOUS
  62
7
 100
AcDbVertex
 100
AcDb2dVertex
  10
 262.23269545933
  20
 157.39545906812
  30
0.0
   0
VERTEX
   5
1BA
 100
AcDbEntity
   8
LEVEL001
   6
CONTINUOUS
  62
7
 100
AcDbVertex
 100
AcDb2dVertex
  10
 262.23269545933
  20
 160.39545906812
  30
0.0
   0
VERTEX
   5
1BB
 100
AcDbEntity
   8
LEVEL001
   6
CONTINUOUS
  62
7
 100
AcDbVertex
 100
AcDb2dVertex
  10
 256.23269545933
  20
 158.89545906812
  30
0.0
   0
SEQEND
   5
1BC
 100
AcDbEntity
   8
LEVEL001
   6
CONTINUOUS
  62
7
   0
ENDBLK
   5
1BD
 100
AcDbEntity
   8
0
 100
AcDbBlockEnd
   0
BLOCK
   5
1BE
 100
AcDbEntity
   8
0
 100
AcDbBlockBegin
   2
*D21
  70
65
  10
0.0
  20
0.0
  30
0.0
   3
*D21
   0
LINE
   5
1BF
 100
AcDbEntity
   8
LEVEL001
 100
AcDbLine
   6
CONTINUOUS
  62
2
  10
 246.23269545933
  20
 206.12478679831
  30
0.0
  11
 261.23095205532
  21
 206.35347672134
  31
0.0
   0
LINE
   5
1C0
 100
AcDbEntity
   8
LEVEL001
 100
AcDbLine
   6
CONTINUOUS
  62
2
  10
 261.23095205532
  20
 206.35347672134
  30
0.0
  11
 295.26364833373
  21
 206.87239934693
  31
0.0
   0
INSERT
   5
1C1
 100
AcDbEntity
   8
LEVEL001
   6
CONTINUOUS
  62
2
 100
AcDbBlockReference
   2
_OPEN30
  10
 276.22920865130
  20
 206.58216664436
  30
0.0
  41
 3.0000000000000
  42
 3.0000000000000
  43
 3.0000000000000
  50
 180.87356500461
   0
MTEXT
   5
1C2
 100
AcDbEntity
   8
LEVEL001
  62
2
 100
AcDbMText
  10
 285.63993492066
  20
 208.35441994090
  30
0.0
  40
 3.8000000000000
  41
0.0
  71
7
  72
1
   1
\A1;R30
   7
GMM001
  11
 0.99988377306589
  21
 0.15245994868053E-1
  31
0.0
   0
ENDBLK
   5
1C3
 100
AcDbEntity
   8
0
 100
AcDbBlockEnd
   0
BLOCK
   5
1C4
 100
AcDbEntity
   8
0
 100
AcDbBlockBegin
   2
*D22
  70
65
  10
0.0
  20
0.0
  30
0.0
   3
*D22
   0
LINE
   5
1C5
 100
AcDbEntity
   8
LEVEL001
 100
AcDbLine
   6
CONTINUOUS
  62
2
  10
 164.69899414992
  20
 87.940615041707
  30
0.0
  11
 203.83846780208
  21
 87.940615041707
  31
0.0
   0
LINE
   5
1C6
 100
AcDbEntity
   8
LEVEL001
 100
AcDbLine
   6
CONTINUOUS
  62
2
  10
 148.09384732212
  20
 146.94061539931
  30
0.0
  11
 203.83846780208
  21
 146.94061539931
  31
0.0
   0
LINE
   5
1C7
 100
AcDbEntity
   8
LEVEL001
 100
AcDbLine
   6
CONTINUOUS
  62
2
  10
 201.83846780208
  20
 87.940615041707
  30
0.0
  11
 201.83846780208
  21
 117.44061522051
  31
0.0
   0
LINE
   5
1C8
 100
AcDbEntity
   8
LEVEL001
 100
AcDbLine
   6
CONTINUOUS
  62
2
  10
 201.83846780208
  20
 146.94061539931
  30
0.0
  11
 201.83846780208
  21
 117.44061522051
  31
0.0
   0
INSERT
   5
1C9
 100
AcDbEntity
   8
LEVEL001
   6
CONTINUOUS
  62
2
 100
AcDbBlockReference
   2
_OPEN30
  10
 201.83846780208
  20
 87.940615041707
  30
0.0
  41
 3.0000000000000
  42
 3.0000000000000
  43
 3.0000000000000
  50
 270.00000000000
   0
INSERT
   5
1CA
 100
AcDbEntity
   8
LEVEL001
   6
CONTINUOUS
  62
2
 100
AcDbBlockReference
   2
_OPEN30
  10
 201.83846780208
  20
 146.94061539931
  30
0.0
  41
 3.0000000000000
  42
 3.0000000000000
  43
 3.0000000000000
  50
 90.000000000000
   0
MTEXT
   5
1CB
 100
AcDbEntity
   8
LEVEL001
  62
2
 100
AcDbMText
  10
 200.20989637351
  20
 117.44061522051
  30
0.0
  40
 3.8000000000000
  41
0.0
  71
8
  72
1
   1
\A1;59
   7
GMM001
  11
0.0
  21
 1.0000000000000
  31
0.0
   0
ENDBLK
   5
1CC
 100
AcDbEntity
   8
0
 100
AcDbBlockEnd
   0
BLOCK
   5
1CD
 100
AcDbEntity
   8
0
 100
AcDbBlockBegin
   2
*D23
  70
65
  10
0.0
  20
0.0
  30
0.0
   3
*D23
   0
LINE
   5
1CE
 100
AcDbEntity
   8
LEVEL001
 100
AcDbLine
   6
CONTINUOUS
  62
2
  10
 164.69899414992
  20
 87.940615041707
  30
0.0
  11
 192.55829103665
  21
 87.940615041707
  31
0.0
   0
LINE
   5
1CF
 100
AcDbEntity
   8
LEVEL001
 100
AcDbLine
   6
CONTINUOUS
  62
2
  10
 177.86143931262
  20
 95.940614075207
  30
0.0
  11
 192.55829103665
  21
 95.940614075207
  31
0.0
   0
LINE
   5
1D0
 100
AcDbEntity
   8
LEVEL001
 100
AcDbLine
   6
CONTINUOUS
  62
2
  10
 190.55829103665
  20
 87.940615041707
  30
0.0
  11
 190.55829103665
  21
 91.940614558457
  31
0.0
   0
LINE
   5
1D1
 100
AcDbEntity
   8
LEVEL001
 100
AcDbLine
   6
CONTINUOUS
  62
2
  10
 190.55829103665
  20
 95.940614075207
  30
0.0
  11
 190.55829103665
  21
 91.940614558457
  31
0.0
   0
INSERT
   5
1D2
 100
AcDbEntity
   8
LEVEL001
   6
CONTINUOUS
  62
2
 100
AcDbBlockReference
   2
_OPEN30
  10
 190.55829103665
  20
 87.940615041707
  30
0.0
  41
 3.0000000000000
  42
 3.0000000000000
  43
 3.0000000000000
  50
 270.00000000000
   0
INSERT
   5
1D3
 100
AcDbEntity
   8
LEVEL001
   6
CONTINUOUS
  62
2
 100
AcDbBlockReference
   2
_OPEN30
  10
 190.55829103665
  20
 95.940614075207
  30
0.0
  41
 3.0000000000000
  42
 3.0000000000000
  43
 3.0000000000000
  50
 90.000000000000
   0
MTEXT
   5
1D4
 100
AcDbEntity
   8
LEVEL001
  62
2
 100
AcDbMText
  10
 188.92971960807
  20
 91.940614558457
  30
0.0
  40
 3.8000000000000
  41
0.0
  71
8
  72
1
   1
\A1;8
   7
GMM001
  11
0.0
  21
 1.0000000000000
  31
0.0
   0
ENDBLK
   5
1D5
 100
AcDbEntity
   8
0
 100
AcDbBlockEnd
   0
BLOCK
   5
1D6
 100
AcDbEntity
   8
0
 100
AcDbBlockBegin
   2
*D24
  70
65
  10
0.0
  20
0.0
  30
0.0
   3
*D24
   0
LINE
   5
1D7
 100
AcDbEntity
   8
LEVEL001
 100
AcDbLine
   6
CONTINUOUS
  62
2
  10
 330.68173819182
  20
 92.524416912207
  30
0.0
  11
 330.21614880718
  21
 92.706698356425
  31
0.0
   0
LINE
   5
1D8
 100
AcDbEntity
   8
LEVEL001
 100
AcDbLine
   6
CONTINUOUS
  62
2
  10
 330.21614880718
  20
 92.706698356425
  30
0.0
  11
 318.50870985712
  21
 97.290241173968
  31
0.0
   0
INSERT
   5
1D9
 100
AcDbEntity
   8
LEVEL001
   6
CONTINUOUS
  62
2
 100
AcDbBlockReference
   2
_OPEN30
  10
 329.75055942253
  20
 92.888979800644
  30
0.0
  41
 3.0000000000000
  42
 3.0000000000000
  43
 3.0000000000000
  50
 338.61931540777
   0
MTEXT
   5
1DA
 100
AcDbEntity
   8
LEVEL001
  62
2
 100
AcDbMText
  10
 325.06197068459
  20
 96.473529826534
  30
0.0
  40
 3.8000000000000
  41
0.0
  71
9
  72
1
   1
\A1;R1
   7
GMM001
  11
 0.93117876928927
  21
-0.36456288843617
  31
0.0
   0
ENDBLK
   5
1DB
 100
AcDbEntity
   8
0
 100
AcDbBlockEnd
   0
BLOCK
   5
1DC
 100
AcDbEntity
   8
0
 100
AcDbBlockBegin
   2
*D25
  70
65
  10
0.0
  20
0.0
  30
0.0
   3
*D25
   0
LINE
   5
1DD
 100
AcDbEntity
   8
LEVEL001
 100
AcDbLine
   6
CONTINUOUS
  62
2
  10
 330.68173819182
  20
 88.940615399307
  30
0.0
  11
 330.37483154031
  21
 88.545889789224
  31
0.0
   0
LINE
   5
1DE
 100
AcDbEntity
   8
LEVEL001
 100
AcDbLine
   6
CONTINUOUS
  62
2
  10
 330.37483154031
  20
 88.545889789224
  30
0.0
  11
 322.06000978401
  21
 77.851846260715
  31
0.0
   0
INSERT
   5
1DF
 100
AcDbEntity
   8
LEVEL001
   6
CONTINUOUS
  62
2
 100
AcDbBlockReference
   2
_OPEN30
  10
 330.06792488879
  20
 88.151164179140
  30
0.0
  41
 3.0000000000000
  42
 3.0000000000000
  43
 3.0000000000000
  50
 52.134256705599
   0
MTEXT
   5
1E0
 100
AcDbEntity
   8
LEVEL001
  62
2
 100
AcDbMText
  10
 324.70273722199
  20
 83.903972877577
  30
0.0
  40
 3.8000000000000
  41
0.0
  71
9
  72
1
   1
\A1;R1
   7
GMM001
  11
 0.61381330302998
  21
 0.78945122016716
  31
0.0
   0
ENDBLK
   5
1E1
 100
AcDbEntity
   8
0
 100
AcDbBlockEnd
   0
BLOCK
   5
1E2
 100
AcDbEntity
   8
0
 100
AcDbBlockBegin
   2
*D26
  70
65
  10
0.0
  20
0.0
  30
0.0
   3
*D26
   0
LINE
   5
1E3
 100
AcDbEntity
   8
LEVEL001
 100
AcDbLine
   6
CONTINUOUS
  62
2
  10
 329.68173819182
  20
 88.940615399307
  30
0.0
  11
 329.68173819182
  21
 67.657217282223
  31
0.0
   0
LINE
   5
1E4
 100
AcDbEntity
   8
LEVEL001
 100
AcDbLine
   6
CONTINUOUS
  62
2
  10
 341.68173819182
  20
 102.98059268525
  30
0.0
  11
 341.68173819182
  21
 67.657217282223
  31
0.0
   0
LINE
   5
1E5
 100
AcDbEntity
   8
LEVEL001
 100
AcDbLine
   6
CONTINUOUS
  62
2
  10
 329.68173819182
  20
 69.657217282223
  30
0.0
  11
 335.68173819182
  21
 69.657217282223
  31
0.0
   0
LINE
   5
1E6
 100
AcDbEntity
   8
LEVEL001
 100
AcDbLine
   6
CONTINUOUS
  62
2
  10
 341.68173819182
  20
 69.657217282223
  30
0.0
  11
 335.68173819182
  21
 69.657217282223
  31
0.0
   0
INSERT
   5
1E7
 100
AcDbEntity
   8
LEVEL001
   6
CONTINUOUS
  62
2
 100
AcDbBlockReference
   2
_OPEN30
  10
 329.68173819182
  20
 69.657217282223
  30
0.0
  41
 3.0000000000000
  42
 3.0000000000000
  43
 3.0000000000000
  50
 180.00000000000
   0
INSERT
   5
1E8
 100
AcDbEntity
   8
LEVEL001
   6
CONTINUOUS
  62
2
 100
AcDbBlockReference
   2
_OPEN30
  10
 341.68173819182
  20
 69.657217282223
  30
0.0
  41
 3.0000000000000
  42
 3.0000000000000
  43
 3.0000000000000
  50
0.0
   0
MTEXT
   5
1E9
 100
AcDbEntity
   8
LEVEL001
  62
2
 100
AcDbMText
  10
 335.68173819182
  20
 71.285788710794
  30
0.0
  40
 3.8000000000000
  41
0.0
  71
8
  72
1
   1
\A1;12
   7
GMM001
   0
ENDBLK
   5
1EA
 100
AcDbEntity
   8
0
 100
AcDbBlockEnd
   0
BLOCK
   5
1EB
 100
AcDbEntity
   8
0
 100
AcDbBlockBegin
   2
HATCH001
  70
64
  10
0.0
  20
0.0
  30
0.0
   3
HATCH001
   0
LINE
   5
1EC
 100
AcDbEntity
   8
LEVEL001
 100
AcDbLine
   6
DASHDOT
  62
1
  10
 335.68173819182
  20
 143.49801781377
  30
0.0
  11
 339.12433577736
  21
 146.94061539931
  31
0.0
   0
LINE
   5
1ED
 100
AcDbEntity
   8
LEVEL001
 100
AcDbLine
   6
DASHDOT
  62
1
  10
 335.68173819182
  20
 142.08380425377
  30
0.0
  11
 340.53854933736
  21
 146.94061539931
  31
0.0
   0
LINE
   5
1EE
 100
AcDbEntity
   8
LEVEL001
 100
AcDbLine
   6
DASHDOT
  62
1
  10
 335.68173819182
  20
 140.66959069377
  30
0.0
  11
 341.95276289736
  21
 146.94061539931
  31
0.0
   0
LINE
   5
1EF
 100
AcDbEntity
   8
LEVEL001
 100
AcDbLine
   6
DASHDOT
  62
1
  10
 335.68173819182
  20
 139.25537713377
  30
0.0
  11
 343.36697645736
  21
 146.94061539931
  31
0.0
   0
LINE
   5
1F0
 100
AcDbEntity
   8
LEVEL001
 100
AcDbLine
   6
DASHDOT
  62
1
  10
 335.68173819182
  20
 137.84116357377
  30
0.0
  11
 339.68173819182
  21
 141.84116357377
  31
0.0
   0
LINE
   5
1F1
 100
AcDbEntity
   8
LEVEL001
 100
AcDbLine
   6
DASHDOT
  62
1
  10
 340.78119001736
  20
 142.94061539931
  30
0.0
  11
 344.78119001736
  21
 146.94061539931
  31
0.0
   0
LINE
   5
1F2
 100
AcDbEntity
   8
LEVEL001
 100
AcDbLine
   6
DASHDOT
  62
1
  10
 335.68173819182
  20
 136.42695001377
  30
0.0
  11
 339.68173819182
  21
 140.42695001377
  31
0.0
   0
LINE
   5
1F3
 100
AcDbEntity
   8
LEVEL001
 100
AcDbLine
   6
DASHDOT
  62
1
  10
 342.19540357736
  20
 142.94061539931
  30
0.0
  11
 346.19540357736
  21
 146.94061539931
  31
0.0
   0
LINE
   5
1F4
 100
AcDbEntity
   8
LEVEL001
 100
AcDbLine
   6
DASHDOT
  62
1
  10
 335.68173819182
  20
 135.01273645377
  30
0.0
  11
 339.68173819182
  21
 139.01273645377
  31
0.0
   0
LINE
   5
1F5
 100
AcDbEntity
   8
LEVEL001
 100
AcDbLine
   6
DASHDOT
  62
1
  10
 343.60961713736
  20
 142.94061539931
  30
0.0
  11
 347.60961713736
  21
 146.94061539931
  31
0.0
   0
LINE
   5
1F6
 100
AcDbEntity
   8
LEVEL001
 100
AcDbLine
   6
DASHDOT
  62
1
  10
 335.68173819182
  20
 133.59852289377
  30
0.0
  11
 339.68173819182
  21
 137.59852289377
  31
0.0
   0
LINE
   5
1F7
 100
AcDbEntity
   8
LEVEL001
 100
AcDbLine
   6
DASHDOT
  62
1
  10
 345.02383069736
  20
 142.94061539931
  30
0.0
  11
 348.91414144571
  21
 146.83092614766
  31
0.0
   0
LINE
   5
1F8
 100
AcDbEntity
   8
LEVEL001
 100
AcDbLine
   6
DASHDOT
  62
1
  10
 335.68173819182
  20
 132.18430933377
  30
0.0
  11
 339.68173819182
  21
 136.18430933377
  31
0.0
   0
LINE
   5
1F9
 100
AcDbEntity
   8
LEVEL001
 100
AcDbLine
   6
DASHDOT
  62
1
  10
 346.39178475658
  20
 142.89435589853
  30
0.0
  11
 349.82345390184
  21
 146.32602504379
  31
0.0
   0
LINE
   5
1FA
 100
AcDbEntity
   8
LEVEL001
 100
AcDbLine
   6
DASHDOT
  62
1
  10
 335.68173819182
  20
 130.77009577377
  30
0.0
  11
 339.68173819182
  21
 134.77009577377
  31
0.0
   0
LINE
   5
1FB
 100
AcDbEntity
   8
LEVEL001
 100
AcDbLine
   6
DASHDOT
  62
1
  10
 346.68173819182
  20
 141.77009577377
  30
0.0
  11
 350.43507202920
  21
 145.52342961114
  31
0.0
   0
LINE
   5
1FC
 100
AcDbEntity
   8
LEVEL001
 100
AcDbLine
   6
DASHDOT
  62
1
  10
 335.68173819182
  20
 129.35588221377
  30
0.0
  11
 339.68173819182
  21
 133.35588221377
  31
0.0
   0
LINE
   5
1FD
 100
AcDbEntity
   8
LEVEL001
 100
AcDbLine
   6
DASHDOT
  62
1
  10
 346.68173819182
  20
 140.35588221377
  30
0.0
  11
 350.68173819182
  21
 144.35588221377
  31
0.0
   0
LINE
   5
1FE
 100
AcDbEntity
   8
LEVEL001
 100
AcDbLine
   6
DASHDOT
  62
1
  10
 335.68173819182
  20
 127.94166865377
  30
0.0
  11
 339.68173819182
  21
 131.94166865377
  31
0.0
   0
LINE
   5
1FF
 100
AcDbEntity
   8
LEVEL001
 100
AcDbLine
   6
DASHDOT
  62
1
  10
 346.68173819182
  20
 138.94166865377
  30
0.0
  11
 350.68173819182
  21
 142.94166865377
  31
0.0
   0
LINE
   5
200
 100
AcDbEntity
   8
LEVEL001
 100
AcDbLine
   6
DASHDOT
  62
1
  10
 335.68173819182
  20
 126.52745509377
  30
0.0
  11
 339.68173819182
  21
 130.52745509377
  31
0.0
   0
LINE
   5
201
 100
AcDbEntity
   8
LEVEL001
 100
AcDbLine
   6
DASHDOT
  62
1
  10
 346.68173819182
  20
 137.52745509377
  30
0.0
  11
 350.68173819182
  21
 141.52745509377
  31
0.0
   0
LINE
   5
202
 100
AcDbEntity
   8
LEVEL001
 100
AcDbLine
   6
DASHDOT
  62
1
  10
 335.68173819182
  20
 125.11324153377
  30
0.0
  11
 339.68173819182
  21
 129.11324153377
  31
0.0
   0
LINE
   5
203
 100
AcDbEntity
   8
LEVEL001
 100
AcDbLine
   6
DASHDOT
  62
1
  10
 346.68173819182
  20
 136.11324153377
  30
0.0
  11
 350.68173819182
  21
 140.11324153377
  31
0.0
   0
LINE
   5
204
 100
AcDbEntity
   8
LEVEL001
 100
AcDbLine
   6
DASHDOT
  62
1
  10
 335.68173819182
  20
 123.69902797377
  30
0.0
  11
 339.68173819182
  21
 127.69902797377
  31
0.0
   0
LINE
   5
205
 100
AcDbEntity
   8
LEVEL001
 100
AcDbLine
   6
DASHDOT
  62
1
  10
 346.68173819182
  20
 134.69902797377
  30
0.0
  11
 350.68173819182
  21
 138.69902797377
  31
0.0
   0
LINE
   5
206
 100
AcDbEntity
   8
LEVEL001
 100
AcDbLine
   6
DASHDOT
  62
1
  10
 335.68173819182
  20
 122.28481441377
  30
0.0
  11
 339.68173819182
  21
 126.28481441377
  31
0.0
   0
LINE
   5
207
 100
AcDbEntity
   8
LEVEL001
 100
AcDbLine
   6
DASHDOT
  62
1
  10
 346.68173819182
  20
 133.28481441377
  30
0.0
  11
 350.68173819182
  21
 137.28481441377
  31
0.0
   0
LINE
   5
208
 100
AcDbEntity
   8
LEVEL001
 100
AcDbLine
   6
DASHDOT
  62
1
  10
 335.68173819182
  20
 120.87060085377
  30
0.0
  11
 339.68173819182
  21
 124.87060085377
  31
0.0
   0
LINE
   5
209
 100
AcDbEntity
   8
LEVEL001
 100
AcDbLine
   6
DASHDOT
  62
1
  10
 346.86492947454
  20
 132.05379213649
  30
0.0
  11
 350.68173819182
  21
 135.87060085377
  31
0.0
   0
LINE
   5
20A
 100
AcDbEntity
   8
LEVEL001
 100
AcDbLine
   6
DASHDOT
  62
1
  10
 335.68173819182
  20
 119.45638729377
  30
0.0
  11
 339.68173819182
  21
 123.45638729377
  31
0.0
   0
LINE
   5
20B
 100
AcDbEntity
   8
LEVEL001
 100
AcDbLine
   6
DASHDOT
  62
1
  10
 348.16596629736
  20
 131.94061539931
  30
0.0
  11
 350.68173819182
  21
 134.45638729377
  31
0.0
   0
LINE
   5
20C
 100
AcDbEntity
   8
LEVEL001
 100
AcDbLine
   6
DASHDOT
  62
1
  10
 336.04111485804
  20
 118.40155039999
  30
0.0
  11
 339.68173819182
  21
 122.04217373377
  31
0.0
   0
LINE
   5
20D
 100
AcDbEntity
   8
LEVEL001
 100
AcDbLine
   6
DASHDOT
  62
1
  10
 336.60680028206
  20
 117.55302226400
  30
0.0
  11
 339.68173819182
  21
 120.62796017377
  31
0.0
   0
LINE
   5
20E
 100
AcDbEntity
   8
LEVEL001
 100
AcDbLine
   6
DASHDOT
  62
1
  10
 337.17248570607
  20
 116.70449412801
  30
0.0
  11
 340.05692672640
  21
 119.58893514835
  31
0.0
   0
LINE
   5
20F
 100
AcDbEntity
   8
LEVEL001
 100
AcDbLine
   6
DASHDOT
  62
1
  10
 337.68163411255
  20
 115.79942897450
  30
0.0
  11
 340.62261215042
  21
 118.74040701236
  31
0.0
   0
LINE
   5
210
 100
AcDbEntity
   8
LEVEL001
 100
AcDbLine
   6
DASHDOT
  62
1
  10
 337.68173819182
  20
 114.38531949377
  30
0.0
  11
 341.18829757443
  21
 117.89187887638
  31
0.0
   0
LINE
   5
211
 100
AcDbEntity
   8
LEVEL001
 100
AcDbLine
   6
DASHDOT
  62
1
  10
 337.68173819182
  20
 112.97110593377
  30
0.0
  11
 341.68173819182
  21
 116.97110593377
  31
0.0
   0
LINE
   5
212
 100
AcDbEntity
   8
LEVEL001
 100
AcDbLine
   6
DASHDOT
  62
1
  10
 337.68173819182
  20
 111.55689237377
  30
0.0
  11
 341.68173819182
  21
 115.55689237377
  31
0.0
   0
LINE
   5
213
 100
AcDbEntity
   8
LEVEL001
 100
AcDbLine
   6
DASHDOT
  62
1
  10
 337.68173819182
  20
 110.14267881377
  30
0.0
  11
 341.68173819182
  21
 114.14267881377
  31
0.0
   0
LINE
   5
214
 100
AcDbEntity
   8
LEVEL001
 100
AcDbLine
   6
DASHDOT
  62
1
  10
 337.68173819182
  20
 108.72846525377
  30
0.0
  11
 341.68173819182
  21
 112.72846525377
  31
0.0
   0
LINE
   5
215
 100
AcDbEntity
   8
LEVEL001
 100
AcDbLine
   6
DASHDOT
  62
1
  10
 337.68173819182
  20
 107.31425169377
  30
0.0
  11
 341.68173819182
  21
 111.31425169377
  31
0.0
   0
LINE
   5
216
 100
AcDbEntity
   8
LEVEL001
 100
AcDbLine
   6
DASHDOT
  62
1
  10
 337.68173819182
  20
 105.90003813377
  30
0.0
  11
 341.68173819182
  21
 109.90003813377
  31
0.0
   0
LINE
   5
217
 100
AcDbEntity
   8
LEVEL001
 100
AcDbLine
   6
DASHDOT
  62
1
  10
 337.68173819182
  20
 104.48582457377
  30
0.0
  11
 341.68173819182
  21
 108.48582457377
  31
0.0
   0
LINE
   5
218
 100
AcDbEntity
   8
LEVEL001
 100
AcDbLine
   6
DASHDOT
  62
1
  10
 337.68173819182
  20
 103.07161101377
  30
0.0
  11
 341.68173819182
  21
 107.07161101377
  31
0.0
   0
LINE
   5
219
 100
AcDbEntity
   8
LEVEL001
 100
AcDbLine
   6
DASHDOT
  62
1
  10
 337.68173819182
  20
 101.65739745377
  30
0.0
  11
 341.68173819182
  21
 105.65739745377
  31
0.0
   0
LINE
   5
21A
 100
AcDbEntity
   8
LEVEL001
 100
AcDbLine
   6
DASHDOT
  62
1
  10
 329.75508359522
  20
 92.316529297169
  30
0.0
  11
 330.30582429396
  21
 92.867269995904
  31
0.0
   0
LINE
   5
21B
 100
AcDbEntity
   8
LEVEL001
 100
AcDbLine
   6
DASHDOT
  62
1
  10
 337.68173819182
  20
 100.24318389377
  30
0.0
  11
 341.68173819182
  21
 104.24318389377
  31
0.0
   0
LINE
   5
21C
 100
AcDbEntity
   8
LEVEL001
 100
AcDbLine
   6
DASHDOT
  62
1
  10
 329.68173819182
  20
 90.828970333769
  30
0.0
  11
 331.90025503386
  21
 93.047487175803
  31
0.0
   0
LINE
   5
21D
 100
AcDbEntity
   8
LEVEL001
 100
AcDbLine
   6
DASHDOT
  62
1
  10
 337.57486641533
  20
 98.722098557274
  30
0.0
  11
 341.68173819182
  21
 102.82897033377
  31
0.0
   0
LINE
   5
21E
 100
AcDbEntity
   8
LEVEL001
 100
AcDbLine
   6
DASHDOT
  62
1
  10
 329.68173819182
  20
 89.414756773769
  30
0.0
  11
 334.09763210730
  21
 93.830650689245
  31
0.0
   0
LINE
   5
21F
 100
AcDbEntity
   8
LEVEL001
 100
AcDbLine
   6
DASHDOT
  62
1
  10
 336.79170290188
  20
 96.524721483831
  30
0.0
  11
 341.68173819182
  21
 101.41475677377
  31
0.0
   0
LINE
   5
220
 100
AcDbEntity
   8
LEVEL001
 100
AcDbLine
   6
DASHDOT
  62
1
  10
 329.94530265440
  20
 88.264107676349
  30
0.0
  11
 341.68173819182
  21
 100.00054321377
  31
0.0
   0
LINE
   5
221
 100
AcDbEntity
   8
LEVEL001
 100
AcDbLine
   6
DASHDOT
  62
1
  10
 331.04192246007
  20
 87.946513922019
  30
0.0
  11
 341.67583966911
  21
 98.580431131056
  31
0.0
   0
LINE
   5
222
 100
AcDbEntity
   8
LEVEL001
 100
AcDbLine
   6
DASHDOT
  62
1
  10
 332.62286322659
  20
 88.113241128534
  30
0.0
  11
 341.50911246260
  21
 96.999490364542
  31
0.0
   0
LINE
   5
223
 100
AcDbEntity
   8
LEVEL001
 100
AcDbLine
   6
DASHDOT
  62
1
  10
 334.57736873781
  20
 88.653533079760
  30
0.0
  11
 340.96882051137
  21
 95.044984853315
  31
0.0
   0
ENDBLK
   5
224
 100
AcDbEntity
   8
0
 100
AcDbBlockEnd
   0
BLOCK
   5
225
 100
AcDbEntity
   8
0
 100
AcDbBlockBegin
   2
*D27
  70
65
  10
0.0
  20
0.0
  30
0.0
   3
*D27
   0
LINE
   5
226
 100
AcDbEntity
   8
LEVEL001
 100
AcDbLine
   6
CONTINUOUS
  62
2
  10
 135.36143931262
  20
 134.44061539931
  30
0.0
  11
 135.36143931262
  21
 65.252930928488
  31
0.0
   0
LINE
   5
227
 100
AcDbEntity
   8
LEVEL001
 100
AcDbLine
   6
CONTINUOUS
  62
2
  10
 177.86143931262
  20
 95.940614075207
  30
0.0
  11
 177.86143931262
  21
 65.252930928488
  31
0.0
   0
LINE
   5
228
 100
AcDbEntity
   8
LEVEL001
 100
AcDbLine
   6
CONTINUOUS
  62
2
  10
 135.36143931262
  20
 67.252930928488
  30
0.0
  11
 156.61143931262
  21
 67.252930928488
  31
0.0
   0
LINE
   5
229
 100
AcDbEntity
   8
LEVEL001
 100
AcDbLine
   6
CONTINUOUS
  62
2
  10
 177.86143931262
  20
 67.252930928488
  30
0.0
  11
 156.61143931262
  21
 67.252930928488
  31
0.0
   0
INSERT
   5
22A
 100
AcDbEntity
   8
LEVEL001
   6
CONTINUOUS
  62
2
 100
AcDbBlockReference
   2
_OPEN30
  10
 135.36143931262
  20
 67.252930928488
  30
0.0
  41
 3.0000000000000
  42
 3.0000000000000
  43
 3.0000000000000
  50
 180.00000000000
   0
INSERT
   5
22B
 100
AcDbEntity
   8
LEVEL001
   6
CONTINUOUS
  62
2
 100
AcDbBlockReference
   2
_OPEN30
  10
 177.86143931262
  20
 67.252930928488
  30
0.0
  41
 3.0000000000000
  42
 3.0000000000000
  43
 3.0000000000000
  50
0.0
   0
MTEXT
   5
22C
 100
AcDbEntity
   8
LEVEL001
  62
2
 100
AcDbMText
  10
 156.61143931262
  20
 68.881502357060
  30
0.0
  40
 3.8000000000000
  41
0.0
  71
8
  72
1
   1
\A1;42.5
   7
GMM001
   0
ENDBLK
   5
22D
 100
AcDbEntity
   8
0
 100
AcDbBlockEnd
   0
BLOCK
   5
22E
 100
AcDbEntity
   8
0
 100
AcDbBlockBegin
   2
*D28
  70
65
  10
0.0
  20
0.0
  30
0.0
   3
*D28
   0
LINE
   5
22F
 100
AcDbEntity
   8
LEVEL001
 100
AcDbLine
   6
CONTINUOUS
  62
2
  10
 273.35778548923
  20
 188.22543790934
  30
0.0
  11
 273.71165117304
  21
 187.87219708806
  31
0.0
   0
LINE
   5
230
 100
AcDbEntity
   8
LEVEL001
 100
AcDbLine
   6
CONTINUOUS
  62
2
  10
 273.71165117304
  20
 187.87219708806
  30
0.0
  11
 282.47456056982
  21
 179.12476139786
  31
0.0
   0
INSERT
   5
231
 100
AcDbEntity
   8
LEVEL001
   6
CONTINUOUS
  62
2
 100
AcDbBlockReference
   2
_OPEN30
  10
 274.06551685685
  20
 187.51895626678
  30
0.0
  41
 3.0000000000000
  42
 3.0000000000000
  43
 3.0000000000000
  50
 135.05063166061
   0
MTEXT
   5
232
 100
AcDbEntity
   8
LEVEL001
  62
2
 100
AcDbMText
  10
 279.09563563489
  20
 184.79883499468
  30
0.0
  40
 3.8000000000000
  41
0.0
  71
7
  72
1
   1
\A1;R1
   7
GMM001
  11
 0.70773136762712
  21
-0.70648164256168
  31
0.0
   0
ENDBLK
   5
233
 100
AcDbEntity
   8
0
 100
AcDbBlockEnd
   0
BLOCK
   5
234
 100
AcDbEntity
   8
0
 100
AcDbBlockBegin
   2
*D29
  70
65
  10
0.0
  20
0.0
  30
0.0
   3
*D29
   0
LINE
   5
235
 100
AcDbEntity
   8
LEVEL001
 100
AcDbLine
   6
CONTINUOUS
  62
2
  10
 268.31589035563
  20
 188.22543790934
  30
0.0
  11
 267.97816663715
  21
 187.85673384105
  31
0.0
   0
LINE
   5
236
 100
AcDbEntity
   8
LEVEL001
 100
AcDbLine
   6
CONTINUOUS
  62
2
  10
 267.97816663715
  20
 187.85673384105
  30
0.0
  11
 261.18759924719
  21
 180.44324854015
  31
0.0
   0
INSERT
   5
237
 100
AcDbEntity
   8
LEVEL001
   6
CONTINUOUS
  62
2
 100
AcDbBlockReference
   2
_OPEN30
  10
 267.64044291867
  20
 187.48802977275
  30
0.0
  41
 3.0000000000000
  42
 3.0000000000000
  43
 3.0000000000000
  50
 47.511094102841
   0
MTEXT
   5
238
 100
AcDbEntity
   8
LEVEL001
  62
2
 100
AcDbMText
  10
 264.30954102127
  20
 186.26267501165
  30
0.0
  40
 3.8000000000000
  41
0.0
  71
9
  72
1
   1
\A1;R1
   7
GMM001
  11
 0.67544743695707
  21
 0.73740813658931
  31
0.0
   0
ENDBLK
   5
239
 100
AcDbEntity
   8
0
 100
AcDbBlockEnd
   0
BLOCK
   5
23A
 100
AcDbEntity
   8
0
 100
AcDbBlockBegin
   2
*D30
  70
65
  10
0.0
  20
0.0
  30
0.0
   3
*D30
   0
LINE
   5
23B
 100
AcDbEntity
   8
LEVEL001
 100
AcDbLine
   6
CONTINUOUS
  62
2
  10
 238.23269545933
  20
 186.53433297708
  30
0.0
  11
 238.23269545933
  21
 170.30990732608
  31
0.0
   0
LINE
   5
23C
 100
AcDbEntity
   8
LEVEL001
 100
AcDbLine
   6
CONTINUOUS
  62
2
  10
 238.23269545933
  20
 172.30990732608
  30
0.0
  11
 241.73269545933
  21
 172.30990732608
  31
0.0
   0
LINE
   5
23D
 100
AcDbEntity
   8
LEVEL001
 100
AcDbLine
   6
CONTINUOUS
  62
2
  10
 245.23269545933
  20
 172.30990732608
  30
0.0
  11
 241.73269545933
  21
 172.30990732608
  31
0.0
   0
INSERT
   5
23E
 100
AcDbEntity
   8
LEVEL001
   6
CONTINUOUS
  62
2
 100
AcDbBlockReference
   2
_OPEN30
  10
 238.23269545933
  20
 172.30990732608
  30
0.0
  41
 3.0000000000000
  42
 3.0000000000000
  43
 3.0000000000000
  50
 180.00000000000
   0
INSERT
   5
23F
 100
AcDbEntity
   8
LEVEL001
   6
CONTINUOUS
  62
2
 100
AcDbBlockReference
   2
_OPEN30
  10
 245.23269545933
  20
 172.30990732608
  30
0.0
  41
 3.0000000000000
  42
 3.0000000000000
  43
 3.0000000000000
  50
0.0
   0
MTEXT
   5
240
 100
AcDbEntity
   8
LEVEL001
  62
2
 100
AcDbMText
  10
 241.73269545933
  20
 173.93847875465
  30
0.0
  40
 3.8000000000000
  41
0.0
  71
8
  72
1
   1
\A1;7
   7
GMM001
   0
ENDBLK
   5
241
 100
AcDbEntity
   8
0
 100
AcDbBlockEnd
   0
BLOCK
   5
242
 100
AcDbEntity
   8
0
 100
AcDbBlockBegin
   2
*D31
  70
65
  10
0.0
  20
0.0
  30
0.0
   3
*D31
   0
LINE
   5
243
 100
AcDbEntity
   8
LEVEL001
 100
AcDbLine
   6
CONTINUOUS
  62
2
  10
 245.23269545933
  20
 186.63542742402
  30
0.0
  11
 245.23269545933
  21
 170.30990732608
  31
0.0
   0
LINE
   5
244
 100
AcDbEntity
   8
LEVEL001
 100
AcDbLine
   6
CONTINUOUS
  62
2
  10
 245.23269545933
  20
 172.30990732608
  30
0.0
  11
 256.23269545933
  21
 172.30990732608
  31
0.0
   0
LINE
   5
245
 100
AcDbEntity
   8
LEVEL001
 100
AcDbLine
   6
CONTINUOUS
  62
2
  10
 267.23269545933
  20
 172.30990732608
  30
0.0
  11
 256.23269545933
  21
 172.30990732608
  31
0.0
   0
INSERT
   5
246
 100
AcDbEntity
   8
LEVEL001
   6
CONTINUOUS
  62
2
 100
AcDbBlockReference
   2
_OPEN30
  10
 245.23269545933
  20
 172.30990732608
  30
0.0
  41
 3.0000000000000
  42
 3.0000000000000
  43
 3.0000000000000
  50
 180.00000000000
   0
INSERT
   5
247
 100
AcDbEntity
   8
LEVEL001
   6
CONTINUOUS
  62
2
 100
AcDbBlockReference
   2
_OPEN30
  10
 267.23269545933
  20
 172.30990732608
  30
0.0
  41
 3.0000000000000
  42
 3.0000000000000
  43
 3.0000000000000
  50
0.0
   0
MTEXT
   5
248
 100
AcDbEntity
   8
LEVEL001
  62
2
 100
AcDbMText
  10
 256.23269545933
  20
 173.93847875465
  30
0.0
  40
 3.8000000000000
  41
0.0
  71
8
  72
1
   1
\A1;22
   7
GMM001
   0
ENDBLK
   5
249
 100
AcDbEntity
   8
0
 100
AcDbBlockEnd
   0
BLOCK
   5
24A
 100
AcDbEntity
   8
0
 100
AcDbBlockBegin
   2
*D32
  70
65
  10
0.0
  20
0.0
  30
0.0
   3
*D32
   0
LINE
   5
24B
 100
AcDbEntity
   8
LEVEL001
 100
AcDbLine
   6
CONTINUOUS
  62
2
  10
 267.23269545933
  20
 186.12995518933
  30
0.0
  11
 267.23269545933
  21
 170.30990732608
  31
0.0
   0
LINE
   5
24C
 100
AcDbEntity
   8
LEVEL001
 100
AcDbLine
   6
CONTINUOUS
  62
2
  10
 274.23269545933
  20
 186.23104963627
  30
0.0
  11
 274.23269545933
  21
 170.30990732608
  31
0.0
   0
LINE
   5
24D
 100
AcDbEntity
   8
LEVEL001
 100
AcDbLine
   6
CONTINUOUS
  62
2
  10
 267.23269545933
  20
 172.30990732608
  30
0.0
  11
 270.73269545933
  21
 172.30990732608
  31
0.0
   0
LINE
   5
24E
 100
AcDbEntity
   8
LEVEL001
 100
AcDbLine
   6
CONTINUOUS
  62
2
  10
 274.23269545933
  20
 172.30990732608
  30
0.0
  11
 270.73269545933
  21
 172.30990732608
  31
0.0
   0
INSERT
   5
24F
 100
AcDbEntity
   8
LEVEL001
   6
CONTINUOUS
  62
2
 100
AcDbBlockReference
   2
_OPEN30
  10
 267.23269545933
  20
 172.30990732608
  30
0.0
  41
 3.0000000000000
  42
 3.0000000000000
  43
 3.0000000000000
  50
 180.00000000000
   0
INSERT
   5
250
 100
AcDbEntity
   8
LEVEL001
   6
CONTINUOUS
  62
2
 100
AcDbBlockReference
   2
_OPEN30
  10
 274.23269545933
  20
 172.30990732608
  30
0.0
  41
 3.0000000000000
  42
 3.0000000000000
  43
 3.0000000000000
  50
0.0
   0
MTEXT
   5
251
 100
AcDbEntity
   8
LEVEL001
  62
2
 100
AcDbMText
  10
 270.73269545933
  20
 173.93847875465
  30
0.0
  40
 3.8000000000000
  41
0.0
  71
8
  72
1
   1
\A1;7
   7
GMM001
   0
ENDBLK
   5
252
 100
AcDbEntity
   8
0
 100
AcDbBlockEnd
   0
BLOCK
   5
253
 100
AcDbEntity
   8
0
 100
AcDbBlockBegin
   2
*D33
  70
65
  10
0.0
  20
0.0
  30
0.0
   3
*D33
   0
LINE
   5
254
 100
AcDbEntity
   8
LEVEL001
 100
AcDbLine
   6
CONTINUOUS
  62
2
  10
 135.36143931262
  20
 144.44061539931
  30
0.0
  11
 135.36143931262
  21
 178.75715063745
  31
0.0
   0
LINE
   5
255
 100
AcDbEntity
   8
LEVEL001
 100
AcDbLine
   6
CONTINUOUS
  62
2
  10
 180.36143931262
  20
 95.940614075207
  30
0.0
  11
 180.36143931262
  21
 178.75715063745
  31
0.0
   0
LINE
   5
256
 100
AcDbEntity
   8
LEVEL001
 100
AcDbLine
   6
CONTINUOUS
  62
2
  10
 135.36143931262
  20
 176.75715063745
  30
0.0
  11
 157.86143931262
  21
 176.75715063745
  31
0.0
   0
LINE
   5
257
 100
AcDbEntity
   8
LEVEL001
 100
AcDbLine
   6
CONTINUOUS
  62
2
  10
 180.36143931262
  20
 176.75715063745
  30
0.0
  11
 157.86143931262
  21
 176.75715063745
  31
0.0
   0
INSERT
   5
258
 100
AcDbEntity
   8
LEVEL001
   6
CONTINUOUS
  62
2
 100
AcDbBlockReference
   2
_OPEN30
  10
 135.36143931262
  20
 176.75715063745
  30
0.0
  41
 3.0000000000000
  42
 3.0000000000000
  43
 3.0000000000000
  50
 180.00000000000
   0
INSERT
   5
259
 100
AcDbEntity
   8
LEVEL001
   6
CONTINUOUS
  62
2
 100
AcDbBlockReference
   2
_OPEN30
  10
 180.36143931262
  20
 176.75715063745
  30
0.0
  41
 3.0000000000000
  42
 3.0000000000000
  43
 3.0000000000000
  50
0.0
   0
MTEXT
   5
25A
 100
AcDbEntity
   8
LEVEL001
  62
2
 100
AcDbMText
  10
 157.86143931262
  20
 178.38572206602
  30
0.0
  40
 3.8000000000000
  41
0.0
  71
8
  72
1
   1
\A1;45
   7
GMM001
   0
ENDBLK
   5
25B
 100
AcDbEntity
   8
0
 100
AcDbBlockEnd
   0
BLOCK
   5
25C
 100
AcDbEntity
   8
0
 100
AcDbBlockBegin
   2
*D34
  70
65
  10
0.0
  20
0.0
  30
0.0
   3
*D34
   0
LINE
   5
25D
 100
AcDbEntity
   8
LEVEL001
 100
AcDbLine
   6
CONTINUOUS
  62
2
  10
 148.36143931262
  20
 147.95265365207
  30
0.0
  11
 148.36143931262
  21
 160.08088762547
  31
0.0
   0
LINE
   5
25E
 100
AcDbEntity
   8
LEVEL001
 100
AcDbLine
   6
CONTINUOUS
  62
2
  10
 150.36143931262
  20
 146.94061539931
  30
0.0
  11
 150.36143931262
  21
 160.08088762547
  31
0.0
   0
LINE
   5
25F
 100
AcDbEntity
   8
LEVEL001
 100
AcDbLine
   6
CONTINUOUS
  62
2
  10
 144.61143931262
  20
 158.08088762547
  30
0.0
  11
 149.36143931262
  21
 158.08088762547
  31
0.0
   0
LINE
   5
260
 100
AcDbEntity
   8
LEVEL001
 100
AcDbLine
   6
CONTINUOUS
  62
2
  10
 154.11143931262
  20
 158.08088762547
  30
0.0
  11
 149.36143931262
  21
 158.08088762547
  31
0.0
   0
INSERT
   5
261
 100
AcDbEntity
   8
LEVEL001
   6
CONTINUOUS
  62
2
 100
AcDbBlockReference
   2
_OPEN30
  10
 148.36143931262
  20
 158.08088762547
  30
0.0
  41
 3.0000000000000
  42
 3.0000000000000
  43
 3.0000000000000
  50
0.0
   0
INSERT
   5
262
 100
AcDbEntity
   8
LEVEL001
   6
CONTINUOUS
  62
2
 100
AcDbBlockReference
   2
_OPEN30
  10
 150.36143931262
  20
 158.08088762547
  30
0.0
  41
 3.0000000000000
  42
 3.0000000000000
  43
 3.0000000000000
  50
 180.00000000000
   0
MTEXT
   5
263
 100
AcDbEntity
   8
LEVEL001
  62
2
 100
AcDbMText
  10
 149.36143931262
  20
 159.70945905405
  30
0.0
  40
 3.8000000000000
  41
0.0
  71
8
  72
1
   1
\A1;2
   7
GMM001
   0
ENDBLK
   5
264
 100
AcDbEntity
   8
0
 100
AcDbBlockEnd
   0
BLOCK
   5
265
 100
AcDbEntity
   8
0
 100
AcDbBlockBegin
   2
*D35
  70
65
  10
0.0
  20
0.0
  30
0.0
   3
*D35
   0
LINE
   5
266
 100
AcDbEntity
   8
LEVEL001
 100
AcDbLine
   6
CONTINUOUS
  62
2
  10
 135.36143931262
  20
 144.44061539931
  30
0.0
  11
 135.36143931262
  21
 171.93145658906
  31
0.0
   0
LINE
   5
267
 100
AcDbEntity
   8
LEVEL001
 100
AcDbLine
   6
CONTINUOUS
  62
2
  10
 131.61143931262
  20
 169.93145658906
  30
0.0
  11
 137.36143931262
  21
 169.93145658906
  31
0.0
   0
LINE
   5
268
 100
AcDbEntity
   8
LEVEL001
 100
AcDbLine
   6
CONTINUOUS
  62
2
  10
 139.36143931262
  20
 169.93145658906
  30
0.0
  11
 137.36143931262
  21
 169.93145658906
  31
0.0
   0
INSERT
   5
269
 100
AcDbEntity
   8
LEVEL001
   6
CONTINUOUS
  62
2
 100
AcDbBlockReference
   2
_OPEN30
  10
 135.36143931262
  20
 169.93145658906
  30
0.0
  41
 3.0000000000000
  42
 3.0000000000000
  43
 3.0000000000000
  50
0.0
   0
MTEXT
   5
26A
 100
AcDbEntity
   8
LEVEL001
  62
2
 100
AcDbMText
  10
 137.36143931262
  20
 171.56002801763
  30
0.0
  40
 3.8000000000000
  41
0.0
  71
8
  72
1
   1
\A1;4
   7
GMM001
   0
ENDBLK
   5
26B
 100
AcDbEntity
   8
0
 100
AcDbBlockEnd
   0
BLOCK
   5
26C
 100
AcDbEntity
   8
0
 100
AcDbBlockBegin
   2
*D36
  70
65
  10
0.0
  20
0.0
  30
0.0
   3
*D36
   0
LINE
   5
26D
 100
AcDbEntity
   8
LEVEL001
 100
AcDbLine
   6
CONTINUOUS
  62
2
  10
 139.36143931262
  20
 142.44061539931
  30
0.0
  11
 139.36143931262
  21
 171.93145658906
  31
0.0
   0
LINE
   5
26E
 100
AcDbEntity
   8
LEVEL001
 100
AcDbLine
   6
CONTINUOUS
  62
2
  10
 139.36143931262
  20
 169.93145658906
  30
0.0
  11
 142.86143931262
  21
 169.93145658906
  31
0.0
   0
LINE
   5
26F
 100
AcDbEntity
   8
LEVEL001
 100
AcDbLine
   6
CONTINUOUS
  62
2
  10
 146.36143931262
  20
 169.93145658906
  30
0.0
  11
 142.86143931262
  21
 169.93145658906
  31
0.0
   0
INSERT
   5
270
 100
AcDbEntity
   8
LEVEL001
   6
CONTINUOUS
  62
2
 100
AcDbBlockReference
   2
_OPEN30
  10
 139.36143931262
  20
 169.93145658906
  30
0.0
  41
 3.0000000000000
  42
 3.0000000000000
  43
 3.0000000000000
  50
 180.00000000000
   0
INSERT
   5
271
 100
AcDbEntity
   8
LEVEL001
   6
CONTINUOUS
  62
2
 100
AcDbBlockReference
   2
_OPEN30
  10
 146.36143931262
  20
 169.93145658906
  30
0.0
  41
 3.0000000000000
  42
 3.0000000000000
  43
 3.0000000000000
  50
0.0
   0
MTEXT
   5
272
 100
AcDbEntity
   8
LEVEL001
  62
2
 100
AcDbMText
  10
 142.86143931262
  20
 171.56002801763
  30
0.0
  40
 3.8000000000000
  41
0.0
  71
8
  72
1
   1
\A1;7
   7
GMM001
   0
ENDBLK
   5
273
 100
AcDbEntity
   8
0
 100
AcDbBlockEnd
   0
BLOCK
   5
274
 100
AcDbEntity
   8
0
 100
AcDbBlockBegin
   2
*D37
  70
65
  10
0.0
  20
0.0
  30
0.0
   3
*D37
   0
LINE
   5
275
 100
AcDbEntity
   8
LEVEL001
 100
AcDbLine
   6
CONTINUOUS
  62
2
  10
 146.36143931262
  20
 142.44061539931
  30
0.0
  11
 146.36143931262
  21
 171.93145658906
  31
0.0
   0
LINE
   5
276
 100
AcDbEntity
   8
LEVEL001
 100
AcDbLine
   6
CONTINUOUS
  62
2
  10
 150.36143931262
  20
 143.31277101627
  30
0.0
  11
 150.36143931262
  21
 171.93145658906
  31
0.0
   0
LINE
   5
277
 100
AcDbEntity
   8
LEVEL001
 100
AcDbLine
   6
CONTINUOUS
  62
2
  10
 146.36143931262
  20
 169.93145658906
  30
0.0
  11
 148.36143931262
  21
 169.93145658906
  31
0.0
   0
LINE
   5
278
 100
AcDbEntity
   8
LEVEL001
 100
AcDbLine
   6
CONTINUOUS
  62
2
  10
 154.11143931262
  20
 169.93145658906
  30
0.0
  11
 148.36143931262
  21
 169.93145658906
  31
0.0
   0
INSERT
   5
279
 100
AcDbEntity
   8
LEVEL001
   6
CONTINUOUS
  62
2
 100
AcDbBlockReference
   2
_OPEN30
  10
 150.36143931262
  20
 169.93145658906
  30
0.0
  41
 3.0000000000000
  42
 3.0000000000000
  43
 3.0000000000000
  50
 180.00000000000
   0
MTEXT
   5
27A
 100
AcDbEntity
   8
LEVEL001
  62
2
 100
AcDbMText
  10
 148.36143931262
  20
 171.56002801763
  30
0.0
  40
 3.8000000000000
  41
0.0
  71
8
  72
1
   1
\A1;4
   7
GMM001
   0
ENDBLK
   5
27B
 100
AcDbEntity
   8
0
 100
AcDbBlockEnd
   0
BLOCK
   5
27C
 100
AcDbEntity
   8
0
 100
AcDbBlockBegin
   2
*D38
  70
65
  10
0.0
  20
0.0
  30
0.0
   3
*D38
   0
LINE
   5
27D
 100
AcDbEntity
   8
LEVEL001
 100
AcDbLine
   6
CONTINUOUS
  62
2
  10
 177.86143931262
  20
 95.940614075207
  30
0.0
  11
 178.77581330877
  21
 96.792918045950
  31
0.0
   0
LINE
   5
27E
 100
AcDbEntity
   8
LEVEL001
 100
AcDbLine
   6
CONTINUOUS
  62
2
  10
 178.77581330877
  20
 96.792918045950
  30
0.0
  11
 192.54327381788
  21
 109.62580842605
  31
0.0
   0
INSERT
   5
27F
 100
AcDbEntity
   8
LEVEL001
   6
CONTINUOUS
  62
2
 100
AcDbBlockReference
   2
_OPEN30
  10
 179.69018730492
  20
 97.645222016694
  30
0.0
  41
 3.0000000000000
  42
 3.0000000000000
  43
 3.0000000000000
  50
 222.98781195966
   0
MTEXT
   5
280
 100
AcDbEntity
   8
LEVEL001
  62
2
 100
AcDbMText
  10
 183.35352908305
  20
 103.05873268395
  30
0.0
  40
 3.8000000000000
  41
0.0
  71
7
  72
1
   1
\A1;R2.5
   7
GMM001
  11
 0.73149876073970
  21
 0.68184277002567
  31
0.0
   0
ENDBLK
   5
281
 100
AcDbEntity
   8
0
 100
AcDbBlockEnd
   0
BLOCK
   5
282
 100
AcDbEntity
   8
0
 100
AcDbBlockBegin
   2
*D39
  70
65
  10
0.0
  20
0.0
  30
0.0
   3
*D39
   0
LINE
   5
283
 100
AcDbEntity
   8
LEVEL001
 100
AcDbLine
   6
CONTINUOUS
  62
2
  10
 157.87911349854
  20
 101.72454689541
  30
0.0
  11
 152.50566686833
  21
 97.917106370208
  31
0.0
   0
LINE
   5
284
 100
AcDbEntity
   8
LEVEL001
 100
AcDbLine
   6
CONTINUOUS
  62
2
  10
 152.50566686833
  20
 97.917106370208
  30
0.0
  11
 149.64989715835
  21
 95.893605613110
  31
0.0
   0
INSERT
   5
285
 100
AcDbEntity
   8
LEVEL001
   6
CONTINUOUS
  62
2
 100
AcDbBlockReference
   2
_OPEN30
  10
 149.64989715835
  20
 95.893605613110
  30
0.0
  41
 3.0000000000000
  42
 3.0000000000000
  43
 3.0000000000000
  50
 215.32008188021
   0
MTEXT
   5
286
 100
AcDbEntity
   8
LEVEL001
  62
2
 100
AcDbMText
  10
 154.66646116744
  20
 100.72361137170
  30
0.0
  40
 3.8000000000000
  41
0.0
  71
8
  72
1
   1
\A1;R7
   7
GMM001
  11
 0.81593500378702
  21
 0.57814364097089
  31
0.0
   0
ENDBLK
   5
287
 100
AcDbEntity
   8
0
 100
AcDbBlockEnd
   0
ENDSEC
   0
SECTION
   2
ENTITIES
   0
LINE
   5
288
 100
AcDbEntity
   8
LEVEL001
 100
AcDbLine
   6
CONTINUOUS
  62
8
  10
 392.00000000000
  20
 23.307964601770
  30
0.0
  11
 402.00000000000
  21
 23.307964601770
  31
0.0
   0
LINE
   5
289
 100
AcDbEntity
   8
LEVEL001
 100
AcDbLine
   6
CONTINUOUS
  62
8
  10
 392.00000000000
  20
 18.307964601770
  30
0.0
  11
 402.00000000000
  21
 18.307964601770
  31
0.0
   0
LINE
   5
28A
 100
AcDbEntity
   8
LEVEL001
 100
AcDbLine
   6
CONTINUOUS
  62
8
  10
 397.00000000000
  20
 23.307964601770
  30
0.0
  11
 397.00000000000
  21
 13.307964601770
  31
0.0
   0
LINE
   5
28B
 100
AcDbEntity
   8
LEVEL001
 100
AcDbLine
   6
CONTINUOUS
  62
8
  10
 341.00000000000
  20
 13.307964601770
  30
0.0
  11
 341.00000000000
  21
 28.307964601770
  31
0.0
   0
LINE
   5
28C
 100
AcDbEntity
   8
LEVEL001
 100
AcDbLine
   6
CONTINUOUS
  62
8
  10
 295.69695514066
  20
 28.307964601770
  30
0.0
  11
 295.69695514066
  21
 13.307964601770
  31
0.0
   0
LINE
   5
28D
 100
AcDbEntity
   8
LEVEL001
 100
AcDbLine
   6
CONTINUOUS
  62
8
  10
 279.41198317335
  20
 28.307964601770
  30
0.0
  11
 279.41198317335
  21
 13.307964601770
  31
0.0
   0
POLYLINE
   5
28E
 100
AcDbEntity
   8
LEVEL001
   6
CONTINUOUS
  62
8
 100
AcDb2dPolyline
  66
1
  10
0.0
  20
0.0
  30
0.0
  70
0
   0
VERTEX
   5
28F
 100
AcDbEntity
   8
LEVEL001
   6
CONTINUOUS
  62
8
 100
AcDbVertex
 100
AcDb2dVertex
  10
 287.41014305184
  20
 19.676383244391
  30
0.0
   0
VERTEX
   5
290
 100
AcDbEntity
   8
LEVEL001
   6
CONTINUOUS
  62
8
 100
AcDbVertex
 100
AcDb2dVertex
  10
 287.41014305184
  20
 16.685784844269
  30
0.0
   0
VERTEX
   5
291
 100
AcDbEntity
   8
LEVEL001
   6
CONTINUOUS
  62
8
 100
AcDbVertex
 100
AcDb2dVertex
  10
 293.43848405007
  20
 15.888386879483
  30
0.0
   0
VERTEX
   5
292
 100
AcDbEntity
   8
LEVEL001
   6
CONTINUOUS
  62
8
 100
AcDbVertex
 100
AcDb2dVertex
  10
 293.43848405007
  20
 20.473781209176
  30
0.0
   0
VERTEX
   5
293
 100
AcDbEntity
   8
LEVEL001
   6
CONTINUOUS
  62
8
 100
AcDbVertex
 100
AcDb2dVertex
  10
 287.41014305184
  20
 19.676383244391
  30
0.0
   0
SEQEND
   5
294
 100
AcDbEntity
   8
LEVEL001
   6
CONTINUOUS
  62
8
   0
CIRCLE
   5
295
 100
AcDbEntity
   8
LEVEL001
 100
AcDbCircle
   6
CONTINUOUS
  62
8
  10
 283.85876904087
  20
 18.181084044330
  30
0.0
  40
 1.4952992000607
   0
CIRCLE
   5
296
 100
AcDbEntity
   8
LEVEL001
 100
AcDbCircle
   6
CONTINUOUS
  62
8
  10
 283.85876904087
  20
 18.181084044330
  30
0.0
  40
 2.2926971648466
   0
LINE
   5
297
 100
AcDbEntity
   8
LEVEL001
 100
AcDbLine
   6
DASHDOT
  62
8
  10
 283.85876904087
  20
 20.961301735564
  30
0.0
  11
 283.85876904087
  21
 15.423568576857
  31
0.0
   0
LINE
   5
298
 100
AcDbEntity
   8
LEVEL001
 100
AcDbLine
   6
DASHDOT
  62
8
  10
 281.06714872566
  20
 18.181084044330
  30
0.0
  11
 294.11171244742
  21
 18.181084044330
  31
0.0
   0
LINE
   5
299
 100
AcDbEntity
   8
LEVEL001
 100
AcDbLine
   6
CONTINUOUS
  62
8
  10
 227.41198317335
  20
 43.307964601770
  30
0.0
  11
 402.00000000000
  21
 43.307964601770
  31
0.0
   0
LINE
   5
29A
 100
AcDbEntity
   8
LEVEL001
 100
AcDbLine
   6
CONTINUOUS
  62
8
  10
 279.41198317335
  20
 28.307964601770
  30
0.0
  11
 279.41198317335
  21
 43.307964601770
  31
0.0
   0
LINE
   5
29B
 100
AcDbEntity
   8
LEVEL001
 100
AcDbLine
   6
CONTINUOUS
  62
8
  10
 392.00000000000
  20
 43.307964601770
  30
0.0
  11
 392.00000000000
  21
 13.307964601770
  31
0.0
   0
LINE
   5
29C
 100
AcDbEntity
   8
LEVEL001
 100
AcDbLine
   6
CONTINUOUS
  62
8
  10
 341.00000000000
  20
 43.307964601770
  30
0.0
  11
 341.00000000000
  21
 28.307964601770
  31
0.0
   0
LINE
   5
29D
 100
AcDbEntity
   8
LEVEL001
 100
AcDbLine
   6
CONTINUOUS
  62
8
  10
 341.00000000000
  20
 35.807964601770
  30
0.0
  11
 391.82654662566
  21
 35.807964601770
  31
0.0
   0
LINE
   5
29E
 100
AcDbEntity
   8
LEVEL001
 100
AcDbLine
   6
CONTINUOUS
  62
8
  10
 399.58032447968
  20
 37.531649053107
  30
0.0
  11
 394.37930700766
  21
 30.516943436998
  31
0.0
   0
LINE
   5
29F
 100
AcDbEntity
   8
LEVEL001
 100
AcDbLine
   6
CONTINUOUS
  62
8
  10
 279.41198317335
  20
 28.307964601770
  30
0.0
  11
 402.00000000000
  21
 28.307964601770
  31
0.0
   0
LINE
   5
2A0
 100
AcDbEntity
   8
LEVEL001
 100
AcDbLine
   6
CONTINUOUS
  62
8
  10
 262.07864984001
  20
 35.307964601770
  30
0.0
  11
 262.07864984001
  21
 13.307964601770
  31
0.0
   0
LINE
   5
2A1
 100
AcDbEntity
   8
LEVEL001
 100
AcDbLine
   6
CONTINUOUS
  62
8
  10
 279.41198317335
  20
 35.307964601770
  30
0.0
  11
 227.41198317335
  21
 35.307964601770
  31
0.0
   0
LINE
   5
2A2
 100
AcDbEntity
   8
LEVEL001
 100
AcDbLine
   6
CONTINUOUS
  62
8
  10
 244.74531650668
  20
 35.307964601770
  30
0.0
  11
 244.74531650668
  21
 13.307964601770
  31
0.0
   0
TEXT
   5
2A3
 100
AcDbEntity
   8
LEVEL001
  62
2
 100
AcDbText
  10
 392.91826757962
  20
 23.906683872324
  30
0.0
  40
 2.5000000000000
   1
ＲＥＶ.
   7
STANDARD
  72
1
  11
 397.29326757962
  21
 25.573350538991
  31
0.0
 100
AcDbText
  73
2
   0
TEXT
   5
2A4
 100
AcDbEntity
   8
LEVEL001
  62
2
 100
AcDbText
  10
 277.93991800322
  20
 24.739644867331
  30
0.0
  40
 2.5000000000000
   1
ＰＲＯＪＥＣＴＩＯＮ
  41
 0.76000000000000
   7
STANDARD
  72
1
  11
 287.43991800322
  21
 26.406311533998
  31
0.0
 100
AcDbText
  73
2
   0
TEXT
   5
2A5
 100
AcDbEntity
   8
LEVEL001
  62
2
 100
AcDbText
  10
 280.72327826531
  20
 40.257924734459
  30
0.0
  40
 2.5000000000000
   1
ＴＩＴＬＥ
  41
 0.76000000000000
   7
STANDARD
 100
AcDbText
   0
TEXT
   5
2A6
 100
AcDbEntity
   8
LEVEL001
  62
2
 100
AcDbText
  10
 391.55881737529
  20
 39.464467938624
  30
0.0
  40
 2.5000000000000
   1
ＳＣＡＬＥ
  41
 0.88000000000000
   7
STANDARD
  72
1
  11
 397.05881737529
  21
 41.131134605291
  31
0.0
 100
AcDbText
  73
2
   0
TEXT
   5
2A7
 100
AcDbEntity
   8
LEVEL001
  62
2
 100
AcDbText
  10
 341.59989527462
  20
 40.257924734459
  30
0.0
  40
 2.5000000000000
   1
ＰＴ.ＮＯ
  41
 0.76000000000000
   7
STANDARD
 100
AcDbText
   0
TEXT
   5
2A8
 100
AcDbEntity
   8
LEVEL001
  62
2
 100
AcDbText
  10
 341.59989527462
  20
 32.448306148617
  30
0.0
  40
 2.5000000000000
   1
ＰＴ.ＮＡＭＥ
  41
 0.76000000000000
   7
STANDARD
 100
AcDbText
   0
TEXT
   5
2A9
 100
AcDbEntity
   8
LEVEL001
  62
2
 100
AcDbText
  10
 392.73996445112
  20
 33.851189886246
  30
0.0
  40
 4.0000000000000
   1
１ 　
   7
STANDARD
 100
AcDbText
   0
TEXT
   5
2AA
 100
AcDbEntity
   8
LEVEL001
  62
2
 100
AcDbText
  10
 265.61640595996
  20
 31.291831144399
  30
0.0
  40
 3.0000000000000
   1
ＤＷＮ．
   7
STANDARD
  72
1
  11
 271.61640595996
  21
 33.291831144399
  31
0.0
 100
AcDbText
  73
2
   0
TEXT
   5
2AB
 100
AcDbEntity
   8
LEVEL001
  62
2
 100
AcDbText
  10
 246.53332187543
  20
 31.291831144399
  30
0.0
  40
 3.0000000000000
   1
ＣＨＫＤ．
   7
STANDARD
  72
1
  11
 254.03332187543
  21
 33.291831144399
  31
0.0
 100
AcDbText
  73
2
   0
TEXT
   5
2AC
 100
AcDbEntity
   8
LEVEL001
  62
2
 100
AcDbText
  10
 229.47773031344
  20
 31.291831144399
  30
0.0
  40
 3.0000000000000
   1
ＡＰＰＤ．
   7
STANDARD
  72
1
  11
 236.97773031344
  21
 33.291831144399
  31
0.0
 100
AcDbText
  73
2
   0
POLYLINE
   5
2AD
 100
AcDbEntity
   8
LEVEL001
   6
CONTINUOUS
  62
8
 100
AcDb2dPolyline
  66
1
  10
0.0
  20
0.0
  30
0.0
  70
0
   0
VERTEX
   5
2AE
 100
AcDbEntity
   8
LEVEL001
   6
CONTINUOUS
  62
8
 100
AcDbVertex
 100
AcDb2dVertex
  10
 25.500000000000
  20
 13.307964601770
  30
0.0
   0
VERTEX
   5
2AF
 100
AcDbEntity
   8
LEVEL001
   6
CONTINUOUS
  62
8
 100
AcDbVertex
 100
AcDb2dVertex
  10
 25.500000000000
  20
 283.30796460177
  30
0.0
   0
VERTEX
   5
2B0
 100
AcDbEntity
   8
LEVEL001
   6
CONTINUOUS
  62
8
 100
AcDbVertex
 100
AcDb2dVertex
  10
 402.00000000000
  20
 283.30796460177
  30
0.0
   0
VERTEX
   5
2B1
 100
AcDbEntity
   8
LEVEL001
   6
CONTINUOUS
  62
8
 100
AcDbVertex
 100
AcDb2dVertex
  10
 402.00000000000
  20
 13.307964601770
  30
0.0
   0
VERTEX
   5
2B2
 100
AcDbEntity
   8
LEVEL001
   6
CONTINUOUS
  62
8
 100
AcDbVertex
 100
AcDb2dVertex
  10
 25.500000000000
  20
 13.307964601770
  30
0.0
   0
SEQEND
   5
2B3
 100
AcDbEntity
   8
LEVEL001
   6
CONTINUOUS
  62
8
   0
TEXT
   5
2B4
 100
AcDbEntity
   8
LEVEL001
  62
2
 100
AcDbText
  10
 228.44990547429
  20
 39.694651926558
  30
0.0
  40
 2.5000000000000
   1
ＤＡＴＥ．
   7
STANDARD
  72
1
  11
 234.69990547429
  21
 41.361318593224
  31
0.0
 100
AcDbText
  73
2
   0
TEXT
   5
2B5
 100
AcDbEntity
   8
LEVEL001
  62
2
 100
AcDbText
  10
 255.74099535138
  20
 36.231680189441
  30
0.0
  40
 3.8000000000000
   1
／
  41
 0.78947368421053
   7
STANDARD
 100
AcDbText
   0
TEXT
   5
2B6
 100
AcDbEntity
   8
LEVEL001
  62
2
 100
AcDbText
  10
 268.02853963722
  20
 36.231680189441
  30
0.0
  40
 3.8000000000000
   1
／
  41
 0.78947368421053
   7
STANDARD
 100
AcDbText
   0
TEXT
   5
2B7
 100
AcDbEntity
   8
LEVEL001
  62
2
 100
AcDbText
  10
 341.91273375713
  20
 25.071550073615
  30
0.0
  40
 2.5000000000000
   1
ＫＵＲＩＫＩ　ＷＯＲＫＳ　ＤＷＧ．ＮＯ．
  41
 0.80000000000000
   7
STANDARD
 100
AcDbText
   0
TEXT
   5
2B8
 100
AcDbEntity
   8
LEVEL001
  62
2
 100
AcDbText
  10
 297.51668114298
  20
 23.608784054237
  30
0.0
  40
 3.7000000000000
   1
Kuriki Manufacturer Co.,Ltd.
  41
 0.54054054054054
   7
STANDARD
 100
AcDbText
   0
LINE
   5
2B9
 100
AcDbEntity
   8
LEVEL001
 100
AcDbLine
   6
CONTINUOUS
  62
8
  10
 310.50089624411
  20
 14.014345500108
  30
0.0
  11
 313.11007124411
  21
 14.014345500108
  31
0.0
   0
POLYLINE
   5
2BA
 100
AcDbEntity
   8
LEVEL001
   6
CONTINUOUS
  62
8
 100
AcDb2dPolyline
  66
1
  10
0.0
  20
0.0
  30
0.0
  70
0
   0
VERTEX
   5
2BB
 100
AcDbEntity
   8
LEVEL001
   6
CONTINUOUS
  62
8
 100
AcDbVertex
 100
AcDb2dVertex
  10
 306.01882124411
  20
 16.564345500109
  30
0.0
   0
VERTEX
   5
2BC
 100
AcDbEntity
   8
LEVEL001
   6
CONTINUOUS
  62
8
 100
AcDbVertex
 100
AcDb2dVertex
  10
 305.71882124411
  20
 16.564345500109
  30
0.0
   0
VERTEX
   5
2BD
 100
AcDbEntity
   8
LEVEL001
   6
CONTINUOUS
  62
8
 100
AcDbVertex
 100
AcDb2dVertex
  10
 305.71882124411
  20
 16.339345500109
  30
0.0
   0
VERTEX
   5
2BE
 100
AcDbEntity
   8
LEVEL001
   6
CONTINUOUS
  62
8
 100
AcDbVertex
 100
AcDb2dVertex
  10
 306.01882124411
  20
 16.339345500109
  30
0.0
   0
SEQEND
   5
2BF
 100
AcDbEntity
   8
LEVEL001
   6
CONTINUOUS
  62
8
   0
LINE
   5
2C0
 100
AcDbEntity
   8
LEVEL001
 100
AcDbLine
   6
CONTINUOUS
  62
8
  10
 318.58882124411
  20
 20.989345500109
  30
0.0
  11
 317.40314606760
  21
 16.564345500110
  31
0.0
   0
LINE
   5
2C1
 100
AcDbEntity
   8
LEVEL001
 100
AcDbLine
   6
CONTINUOUS
  62
8
  10
 322.36882124411
  20
 20.989345500109
  30
0.0
  11
 321.18314606760
  21
 16.564345500110
  31
0.0
   0
LINE
   5
2C2
 100
AcDbEntity
   8
LEVEL001
 100
AcDbLine
   6
CONTINUOUS
  62
8
  10
 323.64382124411
  20
 20.989345500109
  30
0.0
  11
 322.45814606760
  21
 16.564345500110
  31
0.0
   0
LINE
   5
2C3
 100
AcDbEntity
   8
LEVEL001
 100
AcDbLine
   6
CONTINUOUS
  62
8
  10
 324.24382124411
  20
 20.989345500109
  30
0.0
  11
 323.05814606760
  21
 16.564345500110
  31
0.0
   0
LINE
   5
2C4
 100
AcDbEntity
   8
LEVEL001
 100
AcDbLine
   6
CONTINUOUS
  62
8
  10
 325.51882124411
  20
 20.989345500109
  30
0.0
  11
 324.33314606760
  21
 16.564345500110
  31
0.0
   0
LINE
   5
2C5
 100
AcDbEntity
   8
LEVEL001
 100
AcDbLine
   6
CONTINUOUS
  62
8
  10
 328.14382124411
  20
 20.989345500109
  30
0.0
  11
 326.95814606760
  21
 16.564345500110
  31
0.0
   0
LINE
   5
2C6
 100
AcDbEntity
   8
LEVEL001
 100
AcDbLine
   6
CONTINUOUS
  62
8
  10
 329.41882124411
  20
 20.989345500109
  30
0.0
  11
 328.23314606760
  21
 16.564345500110
  31
0.0
   0
LINE
   5
2C7
 100
AcDbEntity
   8
LEVEL001
 100
AcDbLine
   6
CONTINUOUS
  62
8
  10
 314.94382124411
  20
 20.989345500109
  30
0.0
  11
 316.21882124411
  21
 20.989345500109
  31
0.0
   0
LINE
   5
2C8
 100
AcDbEntity
   8
LEVEL001
 100
AcDbLine
   6
CONTINUOUS
  62
8
  10
 316.74382124411
  20
 20.989345500109
  30
0.0
  11
 318.01882124411
  21
 20.989345500109
  31
0.0
   0
LINE
   5
2C9
 100
AcDbEntity
   8
LEVEL001
 100
AcDbLine
   6
CONTINUOUS
  62
8
  10
 322.36882124411
  20
 20.989345500109
  30
0.0
  11
 323.64382124411
  21
 20.989345500109
  31
0.0
   0
LINE
   5
2CA
 100
AcDbEntity
   8
LEVEL001
 100
AcDbLine
   6
CONTINUOUS
  62
8
  10
 324.24382124411
  20
 20.989345500109
  30
0.0
  11
 325.51882124411
  21
 20.989345500109
  31
0.0
   0
LINE
   5
2CB
 100
AcDbEntity
   8
LEVEL001
 100
AcDbLine
   6
CONTINUOUS
  62
8
  10
 328.14382124411
  20
 20.989345500109
  30
0.0
  11
 329.41882124411
  21
 20.989345500109
  31
0.0
   0
LINE
   5
2CC
 100
AcDbEntity
   8
LEVEL001
 100
AcDbLine
   6
CONTINUOUS
  62
8
  10
 317.40314606760
  20
 16.564345500110
  30
0.0
  11
 318.67814606760
  21
 16.564345500110
  31
0.0
   0
LINE
   5
2CD
 100
AcDbEntity
   8
LEVEL001
 100
AcDbLine
   6
CONTINUOUS
  62
8
  10
 321.18314606760
  20
 16.564345500110
  30
0.0
  11
 322.45814606760
  21
 16.564345500110
  31
0.0
   0
LINE
   5
2CE
 100
AcDbEntity
   8
LEVEL001
 100
AcDbLine
   6
CONTINUOUS
  62
8
  10
 323.05814606760
  20
 16.564345500110
  30
0.0
  11
 324.37312893857
  21
 16.564345500110
  31
0.0
   0
LINE
   5
2CF
 100
AcDbEntity
   8
LEVEL001
 100
AcDbLine
   6
CONTINUOUS
  62
8
  10
 326.95814606760
  20
 16.564345500110
  30
0.0
  11
 328.23314606760
  21
 16.564345500110
  31
0.0
   0
LINE
   5
2D0
 100
AcDbEntity
   8
LEVEL001
 100
AcDbLine
   6
CONTINUOUS
  62
8
  10
 319.52218602376
  20
 19.714345500109
  30
0.0
  11
 318.67814606760
  21
 16.564345500110
  31
0.0
   0
LINE
   5
2D1
 100
AcDbEntity
   8
LEVEL001
 100
AcDbLine
   6
CONTINUOUS
  62
8
  10
 326.64382124411
  20
 20.989345500109
  30
0.0
  11
 324.98828184309
  21
 19.009345500109
  31
0.0
   0
LINE
   5
2D2
 100
AcDbEntity
   8
LEVEL001
 100
AcDbLine
   6
CONTINUOUS
  62
8
  10
 327.99382124411
  20
 20.989345500109
  30
0.0
  11
 326.33828184309
  21
 19.009345500109
  31
0.0
   0
LINE
   5
2D3
 100
AcDbEntity
   8
LEVEL001
 100
AcDbLine
   6
CONTINUOUS
  62
8
  10
 326.64382124411
  20
 20.989345500109
  30
0.0
  11
 327.99382124411
  21
 20.989345500109
  31
0.0
   0
LINE
   5
2D4
 100
AcDbEntity
   8
LEVEL001
 100
AcDbLine
   6
CONTINUOUS
  62
8
  10
 326.33828184309
  20
 19.009345500109
  30
0.0
  11
 326.80814606760
  21
 16.564345500109
  31
0.0
   0
LINE
   5
2D5
 100
AcDbEntity
   8
LEVEL001
 100
AcDbLine
   6
CONTINUOUS
  62
8
  10
 324.98828184309
  20
 19.009345500109
  30
0.0
  11
 325.38314606760
  21
 16.564345500109
  31
0.0
   0
LINE
   5
2D6
 100
AcDbEntity
   8
LEVEL001
 100
AcDbLine
   6
CONTINUOUS
  62
8
  10
 325.38314606760
  20
 16.564345500109
  30
0.0
  11
 326.80814606760
  21
 16.564345500109
  31
0.0
   0
LINE
   5
2D7
 100
AcDbEntity
   8
LEVEL001
 100
AcDbLine
   6
CONTINUOUS
  62
8
  10
 319.45069207987
  20
 16.564345500109
  30
0.0
  11
 320.87569207987
  21
 16.564345500109
  31
0.0
   0
LINE
   5
2D8
 100
AcDbEntity
   8
LEVEL001
 100
AcDbLine
   6
CONTINUOUS
  62
8
  10
 319.24478128795
  20
 17.839345500109
  30
0.0
  11
 319.45069207987
  21
 16.564345500109
  31
0.0
   0
LINE
   5
2D9
 100
AcDbEntity
   8
LEVEL001
 100
AcDbLine
   6
CONTINUOUS
  62
8
  10
 319.55828184309
  20
 19.009345500109
  30
0.0
  11
 319.24478128795
  21
 17.839345500109
  31
0.0
   0
LINE
   5
2DA
 100
AcDbEntity
   8
LEVEL001
 100
AcDbLine
   6
CONTINUOUS
  62
8
  10
 308.41479249229
  20
 22.116520500108
  30
0.0
  11
 310.74931749229
  21
 22.116520500108
  31
0.0
   0
LINE
   5
2DB
 100
AcDbEntity
   8
LEVEL001
 100
AcDbLine
   6
CONTINUOUS
  62
8
  10
 312.80919249229
  20
 22.116520500108
  30
0.0
  11
 309.77789984904
  21
 18.491140500108
  31
0.0
   0
LINE
   5
2DC
 100
AcDbEntity
   8
LEVEL001
 100
AcDbLine
   6
CONTINUOUS
  62
8
  10
 315.28104249229
  20
 22.116520500108
  30
0.0
  11
 312.24974984904
  21
 18.491140500108
  31
0.0
   0
LINE
   5
2DD
 100
AcDbEntity
   8
LEVEL001
 100
AcDbLine
   6
CONTINUOUS
  62
8
  10
 312.80919249229
  20
 22.116520500108
  30
0.0
  11
 315.28104249229
  21
 22.116520500108
  31
0.0
   0
LINE
   5
2DE
 100
AcDbEntity
   8
LEVEL001
 100
AcDbLine
   6
CONTINUOUS
  62
8
  10
 306.24382124411
  20
 14.014345500109
  30
0.0
  11
 308.65155488085
  21
 14.014345500109
  31
0.0
   0
LINE
   5
2DF
 100
AcDbEntity
   8
LEVEL001
 100
AcDbLine
   6
CONTINUOUS
  62
8
  10
 318.58882124411
  20
 20.989345500109
  30
0.0
  11
 320.33702066478
  21
 20.989345500109
  31
0.0
   0
LINE
   5
2E0
 100
AcDbEntity
   8
LEVEL001
 100
AcDbLine
   6
CONTINUOUS
  62
8
  10
 320.56155961373
  20
 18.198974909305
  30
0.0
  11
 320.87569207987
  21
 16.564345500109
  31
0.0
   0
ARC
   5
2E1
 100
AcDbEntity
   8
LEVEL001
   6
CONTINUOUS
  62
8
 100
AcDbCircle
  10
 320.02803350133
  20
 19.600660122813
  30
0.0
  40
 1.4997905021646
 100
AcDbArc
  50
 290.83842144364
  51
 358.29082922065
   0
ARC
   5
2E2
 100
AcDbEntity
   8
LEVEL001
   6
CONTINUOUS
  62
8
 100
AcDbCircle
  10
 320.22828247038
  20
 19.684156899468
  30
0.0
  40
 1.3051886006409
 100
AcDbArc
  50
 354.36180963061
  51
 90.000000000107
   0
LINE
   5
2E3
 100
AcDbEntity
   8
LEVEL001
 100
AcDbLine
   6
CONTINUOUS
  62
8
  10
 319.52218602376
  20
 19.714345500109
  30
0.0
  11
 319.89718602376
  21
 19.714345500109
  31
0.0
   0
ARC
   5
2E4
 100
AcDbEntity
   8
LEVEL001
   6
CONTINUOUS
  62
8
 100
AcDbCircle
  10
 319.89718602376
  20
 19.414345500114
  30
0.0
  40
 0.30000000000000
 100
AcDbArc
  50
0.0
  51
 90.000000000000
   0
LINE
   5
2E5
 100
AcDbEntity
   8
LEVEL001
 100
AcDbLine
   6
CONTINUOUS
  62
8
  10
 320.19718602376
  20
 19.414345500109
  30
0.0
  11
 320.19718602376
  21
 19.354345500109
  31
0.0
   0
ARC
   5
2E6
 100
AcDbEntity
   8
LEVEL001
   6
CONTINUOUS
  62
8
 100
AcDbCircle
  10
 319.85218602375
  20
 19.354345500109
  30
0.0
  40
 0.34500000000000
 100
AcDbArc
  50
 270.00000000146
  51
 0.41301115862584E-11
   0
LINE
   5
2E7
 100
AcDbEntity
   8
LEVEL001
 100
AcDbLine
   6
CONTINUOUS
  62
8
  10
 319.85218602376
  20
 19.009345500109
  30
0.0
  11
 319.55828184309
  21
 19.009345500109
  31
0.0
   0
LINE
   5
2E8
 100
AcDbEntity
   8
LEVEL001
 100
AcDbLine
   6
CONTINUOUS
  62
8
  10
 318.01882124411
  20
 20.989345500109
  30
0.0
  11
 317.14415527596
  21
 17.725047667345
  31
0.0
   0
ARC
   5
2E9
 100
AcDbEntity
   8
LEVEL001
   6
CONTINUOUS
  62
8
 100
AcDbCircle
  10
 315.42805261125
  20
 18.412651232140
  30
0.0
  40
 1.8487311914286
 100
AcDbArc
  50
 268.77075588814
  51
 338.16513925620
   0
LINE
   5
2EA
 100
AcDbEntity
   8
LEVEL001
 100
AcDbLine
   6
CONTINUOUS
  62
8
  10
 314.94382124411
  20
 20.989345500109
  30
0.0
  11
 314.17024713122
  21
 18.102327607372
  31
0.0
   0
ARC
   5
2EB
 100
AcDbEntity
   8
LEVEL001
   6
CONTINUOUS
  62
8
 100
AcDbCircle
  10
 315.48420722772
  20
 17.889633831594
  30
0.0
  40
 1.3310634009983
 100
AcDbArc
  50
 170.80515514276
  51
 264.66082673529
   0
LINE
   5
2EC
 100
AcDbEntity
   8
LEVEL001
 100
AcDbLine
   6
CONTINUOUS
  62
8
  10
 316.21882124411
  20
 20.989345500109
  30
0.0
  11
 315.43043571313
  21
 18.047050642551
  31
0.0
   0
ARC
   5
2ED
 100
AcDbEntity
   8
LEVEL001
   6
CONTINUOUS
  62
8
 100
AcDbCircle
  10
 315.58981347446
  20
 18.004345500109
  30
0.0
  40
 0.16500000000000
 100
AcDbArc
  50
 164.99999999880
  51
 270.00000000466
   0
LINE
   5
2EE
 100
AcDbEntity
   8
LEVEL001
 100
AcDbLine
   6
CONTINUOUS
  62
8
  10
 315.58981347447
  20
 17.839345500109
  30
0.0
  11
 315.69260300120
  21
 17.839345500109
  31
0.0
   0
ARC
   5
2EF
 100
AcDbEntity
   8
LEVEL001
   6
CONTINUOUS
  62
8
 100
AcDbCircle
  10
 315.69260300119
  20
 18.109345500101
  30
0.0
  40
 0.27000000000000
 100
AcDbArc
  50
 270.00000000046
  51
 345.00000000179
   0
LINE
   5
2F0
 100
AcDbEntity
   8
LEVEL001
 100
AcDbLine
   6
CONTINUOUS
  62
8
  10
 316.74382124411
  20
 20.989345500109
  30
0.0
  11
 315.95340297429
  21
 18.039464357932
  31
0.0
   0
LINE
   5
2F1
 100
AcDbEntity
   8
LEVEL001
 100
AcDbLine
   6
CONTINUOUS
  62
8
  10
 309.77789984904
  20
 18.491140500108
  30
0.0
  11
 310.08907466027
  21
 16.564345500109
  31
0.0
   0
LINE
   5
2F2
 100
AcDbEntity
   8
LEVEL001
 100
AcDbLine
   6
CONTINUOUS
  62
8
  10
 310.12541185884
  20
 16.339345500109
  30
0.0
  11
 310.50089624411
  21
 14.014345500108
  31
0.0
   0
POLYLINE
   5
2F3
 100
AcDbEntity
   8
LEVEL001
   6
CONTINUOUS
  62
8
 100
AcDb2dPolyline
  66
1
  10
0.0
  20
0.0
  30
0.0
  70
0
   0
VERTEX
   5
2F4
 100
AcDbEntity
   8
LEVEL001
   6
CONTINUOUS
  62
8
 100
AcDbVertex
 100
AcDb2dVertex
  10
 312.66326784044
  20
 16.339345500109
  30
0.0
   0
VERTEX
   5
2F5
 100
AcDbEntity
   8
LEVEL001
   6
CONTINUOUS
  62
8
 100
AcDbVertex
 100
AcDb2dVertex
  10
 329.94382124411
  20
 16.339345500109
  30
0.0
   0
VERTEX
   5
2F6
 100
AcDbEntity
   8
LEVEL001
   6
CONTINUOUS
  62
8
 100
AcDbVertex
 100
AcDb2dVertex
  10
 329.94382124411
  20
 16.564345500109
  30
0.0
   0
VERTEX
   5
2F7
 100
AcDbEntity
   8
LEVEL001
   6
CONTINUOUS
  62
8
 100
AcDbVertex
 100
AcDb2dVertex
  10
 312.62002880137
  20
 16.564345500109
  30
0.0
   0
SEQEND
   5
2F8
 100
AcDbEntity
   8
LEVEL001
   6
CONTINUOUS
  62
8
   0
LINE
   5
2F9
 100
AcDbEntity
   8
LEVEL001
 100
AcDbLine
   6
CONTINUOUS
  62
8
  10
 312.24974984904
  20
 18.491140500108
  30
0.0
  11
 312.62002880137
  21
 16.564345500109
  31
0.0
   0
LINE
   5
2FA
 100
AcDbEntity
   8
LEVEL001
 100
AcDbLine
   6
CONTINUOUS
  62
8
  10
 312.66326784044
  20
 16.339345500109
  30
0.0
  11
 313.11007124411
  21
 14.014345500108
  31
0.0
   0
LINE
   5
2FB
 100
AcDbEntity
   8
LEVEL001
 100
AcDbLine
   6
CONTINUOUS
  62
8
  10
 310.74931749229
  20
 22.116520500108
  30
0.0
  11
 309.26161668481
  21
 16.564345500109
  31
0.0
   0
LINE
   5
2FC
 100
AcDbEntity
   8
LEVEL001
 100
AcDbLine
   6
CONTINUOUS
  62
8
  10
 309.20132811651
  20
 16.339345500109
  30
0.0
  11
 308.57834624411
  21
 14.014345500109
  31
0.0
   0
LINE
   5
2FD
 100
AcDbEntity
   8
LEVEL001
 100
AcDbLine
   6
CONTINUOUS
  62
8
  10
 308.41479249229
  20
 22.116520500108
  30
0.0
  11
 306.92709168481
  21
 16.564345500109
  31
0.0
   0
LINE
   5
2FE
 100
AcDbEntity
   8
LEVEL001
 100
AcDbLine
   6
CONTINUOUS
  62
8
  10
 306.86680311651
  20
 16.339345500109
  30
0.0
  11
 306.24382124411
  21
 14.014345500109
  31
0.0
   0
LINE
   5
2FF
 100
AcDbEntity
   8
LEVEL001
 100
AcDbLine
   6
CONTINUOUS
  62
8
  10
 310.08907466027
  20
 16.564345500109
  30
0.0
  11
 309.26161668481
  21
 16.564345500109
  31
0.0
   0
LINE
   5
300
 100
AcDbEntity
   8
LEVEL001
 100
AcDbLine
   6
CONTINUOUS
  62
8
  10
 306.92709168481
  20
 16.564345500109
  30
0.0
  11
 306.01882124411
  21
 16.564345500109
  31
0.0
   0
LINE
   5
301
 100
AcDbEntity
   8
LEVEL001
 100
AcDbLine
   6
CONTINUOUS
  62
8
  10
 306.01882124411
  20
 16.339345500109
  30
0.0
  11
 306.86680311651
  21
 16.339345500109
  31
0.0
   0
LINE
   5
302
 100
AcDbEntity
   8
LEVEL001
 100
AcDbLine
   6
CONTINUOUS
  62
8
  10
 309.20132811651
  20
 16.339345500109
  30
0.0
  11
 310.12541185884
  21
 16.339345500109
  31
0.0
   0
INSERT
   5
303
 100
AcDbEntity
   8
LEVEL001
 100
AcDbBlockReference
   2
BLOCK001
  10
0.0
  20
0.0
  30
0.0
   0
INSERT
   5
304
 100
AcDbEntity
   8
LEVEL001
 100
AcDbBlockReference
   2
BLOCK002
  10
0.0
  20
0.0
  30
0.0
   0
TEXT
   5
305
 100
AcDbEntity
   8
LEVEL001
  62
2
 100
AcDbText
  10
 247.28828967161
  20
 35.482003833926
  30
0.0
  40
 5.0000000000000
   1
０６
  41
 0.80000000000000
   7
STANDARD
 100
AcDbText
   0
TEXT
   5
306
 100
AcDbEntity
   8
LEVEL001
  62
2
 100
AcDbText
  10
 397.35511870750
  20
 29.843132383199
  30
0.0
  40
 4.0000000000000
   1
１　
   7
STANDARD
 100
AcDbText
   0
TEXT
   5
307
 100
AcDbEntity
   8
LEVEL001
  62
7
 100
AcDbText
  10
 343.01329241905
  20
 13.028811401076
  30
0.0
  40
 11.000000000000
   1
Ｋ３-１００５４９
  41
 0.50000000000000
   7
STANDARD
 100
AcDbText
   0
TEXT
   5
308
 100
AcDbEntity
   8
LEVEL001
  62
2
 100
AcDbText
  10
 232.07864984001
  20
 23.812952980100
  30
0.0
  40
 4.0000000000000
   1
久力
   7
STANDARD
 100
AcDbText
   0
TEXT
   5
309
 100
AcDbEntity
   8
LEVEL001
  62
2
 100
AcDbText
  10
 230.13513320222
  20
 13.818960489487
  30
0.0
  40
 3.8000000000000
   1
06,08,17
  41
 0.42105263157895
   7
STANDARD
 100
AcDbText
   0
TEXT
   5
30A
 100
AcDbEntity
   8
LEVEL001
  62
2
 100
AcDbText
  10
 249.41198317335
  20
 23.864875025514
  30
0.0
  40
 4.0000000000000
   1
田口
   7
STANDARD
 100
AcDbText
   0
TEXT
   5
30B
 100
AcDbEntity
   8
LEVEL001
  62
2
 100
AcDbText
  10
 247.46846653555
  20
 13.818960489487
  30
0.0
  40
 3.8000000000000
   1
06,08,17
  41
 0.42105263157895
   7
STANDARD
 100
AcDbText
   0
TEXT
   5
30C
 100
AcDbEntity
   8
LEVEL001
  62
2
 100
AcDbText
  10
 266.74531650668
  20
 23.916797070928
  30
0.0
  40
 4.0000000000000
   1
堀内
   7
STANDARD
 100
AcDbText
   0
TEXT
   5
30D
 100
AcDbEntity
   8
LEVEL001
  62
2
 100
AcDbText
  10
 264.80179986888
  20
 13.818960489487
  30
0.0
  40
 3.8000000000000
   1
06,08,17
  41
 0.42105263157895
   7
STANDARD
 100
AcDbText
   0
TEXT
   5
30E
 100
AcDbEntity
   8
LEVEL001
  62
2
 100
AcDbText
  10
 260.03514397648
  20
 36.093864083221
  30
0.0
  40
 5.0000000000000
   1
０８
  41
 0.80000000000000
   7
STANDARD
 100
AcDbText
   0
TEXT
   5
30F
 100
AcDbEntity
   8
LEVEL001
  62
2
 100
AcDbText
  10
 271.00421740600
  20
 36.093864083221
  30
0.0
  40
 5.0000000000000
   1
１７
  41
 0.80000000000000
   7
STANDARD
 100
AcDbText
   0
TEXT
   5
310
 100
AcDbEntity
   8
LEVEL001
  62
7
 100
AcDbText
  10
 284.85449681501
  20
 32.348365653710
  30
0.0
  40
 6.0000000000000
   1
収納棚用トレーフック
  41
 0.83333333333333
   7
STANDARD
 100
AcDbText
   0
TEXT
   5
311
 100
AcDbEntity
   8
LEVEL001
  62
7
 100
AcDbText
  10
 353.33990467471
  20
 36.093864083221
  30
0.0
  40
 5.0000000000000
   1
６１０－００１
  41
 0.80000000000000
   7
STANDARD
 100
AcDbText
   0
LINE
   5
312
 100
AcDbEntity
   8
LEVEL001
 100
AcDbLine
   6
CONTINUOUS
  62
8
  10
 227.41198317335
  20
 43.307964601770
  30
0.0
  11
 227.41198317335
  21
 13.307964601770
  31
0.0
   0
DIMENSION
   5
313
 100
AcDbEntity
   8
LEVEL001
   6
CONTINUOUS
  62
2
 100
AcDbDimension
   2
*D1
  10
 129.54599334143
  20
 142.94061539931
  30
0.0
  11
 129.54599334143
  21
 137.44061539931
  31
0.0
  70
0
   3
GMM001
 100
AcDbAlignedDimension
  13
 137.86143931262
  23
 131.94061539931
  33
0.0
  14
 139.86143931262
  24
 142.94061539931
  34
0.0
  50
 90.000000000000
 100
AcDbRotatedDimension
   0
DIMENSION
   5
314
 100
AcDbEntity
   8
LEVEL001
   6
CONTINUOUS
  62
2
 100
AcDbDimension
   2
*D2
  10
 159.05356156456
  20
 146.94061539931
  30
0.0
  11
 159.05356156456
  21
 145.44061539931
  31
0.0
  70
0
   3
GMM001
 100
AcDbAlignedDimension
  13
 151.28566816307
  23
 143.94061539931
  33
0.0
  14
 150.36143931262
  24
 146.94061539931
  34
0.0
  50
 90.000000000000
 100
AcDbRotatedDimension
   0
DIMENSION
   5
315
 100
AcDbEntity
   8
LEVEL001
   6
CONTINUOUS
  62
2
 100
AcDbDimension
   2
*D3
  10
 137.86143931262
  20
 144.44061539931
  30
0.0
  11
 129.83141839722
  21
 150.61260480202
  31
0.0
  70
132
   3
GMM002
 100
AcDbRadialDimension
  15
 135.87928902188
  25
 145.96412458041
  35
0.0
  40
 7.7998302777189
   0
DIMENSION
   5
316
 100
AcDbEntity
   8
LEVEL001
   6
CONTINUOUS
  62
2
 100
AcDbDimension
   2
*D4
  10
 137.86143931262
  20
 134.44061539931
  30
0.0
  11
 128.84855571867
  21
 126.04103783809
  31
0.0
  70
132
   3
GMM002
 100
AcDbRadialDimension
  15
 136.03254175258
  25
 132.73617011862
  35
0.0
  40
 9.9542300800759
   0
DIMENSION
   5
317
 100
AcDbEntity
   8
LEVEL001
   6
CONTINUOUS
  62
2
 100
AcDbDimension
   2
*D5
  10
 170.12878821807
  20
 146.94061539931
  30
0.0
  11
 170.12878821807
  21
 131.44061539931
  31
0.0
  70
0
   3
GMM001
 100
AcDbAlignedDimension
  13
 150.36143931262
  23
 115.94061539931
  33
0.0
  14
 150.36143931262
  24
 146.94061539931
  34
0.0
  50
 90.000000000000
 100
AcDbRotatedDimension
   0
DIMENSION
   5
318
 100
AcDbEntity
   8
LEVEL001
   6
CONTINUOUS
  62
2
 100
AcDbDimension
   2
*D6
  10
 164.55923303958
  20
 118.94061539931
  30
0.0
  11
 164.55923303958
  21
 117.44061539931
  31
0.0
  70
0
   3
GMM001
 100
AcDbAlignedDimension
  13
 150.36143931262
  23
 115.94061539931
  33
0.0
  14
 151.78201821833
  24
 118.94061539931
  34
0.0
  50
 90.000000000000
 100
AcDbRotatedDimension
   0
DIMENSION
   5
319
 100
AcDbEntity
   8
LEVEL001
   6
CONTINUOUS
  62
2
 100
AcDbDimension
   2
*D7
  10
 150.36143931262
  20
 107.29185713905
  30
0.0
  11
 149.36143931262
  21
 107.29185713905
  31
0.0
  70
0
   3
GMM001
 100
AcDbAlignedDimension
  13
 148.36143931262
  23
 107.00261469365
  33
0.0
  14
 150.36143931262
  24
 115.94061539931
  34
0.0
 100
AcDbRotatedDimension
   0
DIMENSION
   5
31A
 100
AcDbEntity
   8
LEVEL001
   6
CONTINUOUS
  62
2
 100
AcDbDimension
   2
*D8
  10
 148.36143931262
  20
 75.347431957559
  30
0.0
  11
 141.86143931262
  21
 75.347431957559
  31
0.0
  70
0
   3
GMM001
 100
AcDbAlignedDimension
  13
 135.36143931262
  23
 134.44061539931
  33
0.0
  14
 148.36143931262
  24
 99.940615399307
  34
0.0
 100
AcDbRotatedDimension
   0
DIMENSION
   5
31B
 100
AcDbEntity
   8
LEVEL001
   6
CONTINUOUS
  62
2
 100
AcDbDimension
   2
*D9
  10
 121.76851421111
  20
 146.94061539931
  30
0.0
  11
 121.76851421111
  21
 139.44061539931
  31
0.0
  70
0
   3
GMM001
 100
AcDbAlignedDimension
  13
 137.86143931262
  23
 131.94061539931
  33
0.0
  14
 137.86143931262
  24
 146.94061539931
  34
0.0
  50
 90.000000000000
 100
AcDbRotatedDimension
   0
DIMENSION
   5
31C
 100
AcDbEntity
   8
LEVEL001
   6
CONTINUOUS
  62
2
 100
AcDbDimension
   2
*D10
  10
 146.36143931262
  20
 89.940615399307
  30
0.0
  11
 143.89556128451
  21
 86.747465145110
  31
0.0
  70
132
   3
GMM002
 100
AcDbRadialDimension
  15
 145.13902741932
  25
 88.357672202879
  35
0.0
  40
 2.6059968716935
   0
DIMENSION
   5
31D
 100
AcDbEntity
   8
LEVEL001
   6
CONTINUOUS
  62
2
 100
AcDbDimension
   2
*D11
  10
 68.104527731022
  20
 74.664267806667
  30
0.0
  11
 66.104527731022
  21
 74.664267806667
  31
0.0
  70
0
   3
GMM003
 100
AcDbAlignedDimension
  13
 64.104527731022
  23
 88.940615399307
  33
0.0
  14
 68.104527731022
  24
 88.940615399307
  34
0.0
 100
AcDbRotatedDimension
   0
DIMENSION
   5
31E
 100
AcDbEntity
   8
LEVEL001
   6
CONTINUOUS
  62
2
 100
AcDbDimension
   2
*D12
  10
 94.104527731022
  20
 74.664267806667
  30
0.0
  11
 81.104527731022
  21
 74.664267806667
  31
0.0
  70
0
   3
GMM001
 100
AcDbAlignedDimension
  13
 68.104527731022
  23
 88.940615399307
  33
0.0
  14
 94.104527731022
  24
 88.940615399307
  34
0.0
 100
AcDbRotatedDimension
   0
DIMENSION
   5
31F
 100
AcDbEntity
   8
LEVEL001
   6
CONTINUOUS
  62
2
 100
AcDbDimension
   2
*D13
  10
 98.104527731022
  20
 74.664267806667
  30
0.0
  11
 96.104527731022
  21
 74.664267806667
  31
0.0
  70
0
   3
GMM004
 100
AcDbAlignedDimension
  13
 94.104527731022
  23
 88.940615399307
  33
0.0
  14
 98.104527731022
  24
 88.940615399307
  34
0.0
 100
AcDbRotatedDimension
   0
DIMENSION
   5
320
 100
AcDbEntity
   8
LEVEL001
   6
CONTINUOUS
  62
2
 100
AcDbDimension
   2
*D14
  10
 330.68173819182
  20
 99.940615399307
  30
0.0
  11
 347.33892916191
  21
 88.116314445219
  31
0.0
  70
132
   3
GMM002
 100
AcDbRadialDimension
  15
 339.65153680532
  25
 93.573299415839
  35
0.0
  40
 9.5669708430485
   0
TEXT
   5
321
 100
AcDbEntity
   8
LEVEL001
  62
2
 100
AcDbText
  10
 329.68779415239
  20
 60.478807096606
  30
0.0
  40
 4.0000000000000
   1
Ａ－Ａ
   7
STANDARD
 100
AcDbText
   0
LINE
   5
322
 100
AcDbEntity
   8
LEVEL001
 100
AcDbLine
   6
DASHDOT
  62
7
  10
 256.23269545933
  20
 161.72106371811
  30
0.0
  11
 256.23269545933
  21
 68.358672684507
  31
0.0
   0
INSERT
   5
323
 100
AcDbEntity
   8
LEVEL001
 100
AcDbBlockReference
   2
BLOCK003
  10
0.0
  20
0.0
  30
0.0
   0
LINE
   5
324
 100
AcDbEntity
   8
LEVEL001
 100
AcDbLine
   6
CONTINUOUS
  62
7
  10
 268.23269545933
  20
 70.358672684507
  30
0.0
  11
 256.23269545933
  21
 70.358672684507
  31
0.0
   0
MTEXT
   5
325
 100
AcDbEntity
   8
LEVEL001
  62
7
 100
AcDbMText
  10
 261.96941276943
  20
 80.441810916107
  30
0.0
  40
 6.3500000000000
  41
0.0
  71
1
  72
1
   1
A
   7
GMM002
   0
DIMENSION
   5
326
 100
AcDbEntity
   8
LEVEL001
   6
CONTINUOUS
  62
2
 100
AcDbDimension
   2
*D15
  10
 240.23269475613
  20
 145.94061517861
  30
0.0
  11
 236.88674900550
  21
 147.83316902346
  31
0.0
  70
132
   3
GMM002
 100
AcDbRadialDimension
  15
 239.36228411140
  25
 146.43294205269
  35
0.0
  40
 3.2773700627450
   0
DIMENSION
   5
327
 100
AcDbEntity
   8
LEVEL001
   6
CONTINUOUS
  62
2
 100
AcDbDimension
   2
*D16
  10
 273.23269545933
  20
 248.40054645965
  30
0.0
  11
 256.23269545933
  21
 248.40054645965
  31
0.0
  70
0
   3
GMM001
 100
AcDbAlignedDimension
  13
 239.23269545933
  23
 233.74185165374
  33
0.0
  14
 273.23269545933
  24
 233.23637941905
  34
0.0
 100
AcDbRotatedDimension
   0
DIMENSION
   5
328
 100
AcDbEntity
   8
LEVEL001
   6
CONTINUOUS
  62
2
 100
AcDbDimension
   2
*D17
  10
 270.23269545933
  20
 241.52612406791
  30
0.0
  11
 256.23269545933
  21
 241.52612406791
  31
0.0
  70
0
   3
GMM001
 100
AcDbAlignedDimension
  13
 242.23269545933
  23
 214.20148362891
  33
0.0
  14
 270.23269545933
  24
 214.20148362891
  34
0.0
 100
AcDbRotatedDimension
   0
DIMENSION
   5
329
 100
AcDbEntity
   8
LEVEL001
   6
CONTINUOUS
  62
2
 100
AcDbDimension
   2
*D18
  10
 276.23269545933
  20
 255.22430540140
  30
0.0
  11
 256.23269545933
  21
 255.22430540140
  31
0.0
  70
0
   3
GMM001
 100
AcDbAlignedDimension
  13
 236.23269545933
  23
 214.20148362891
  33
0.0
  14
 276.23269545933
  24
 214.20148362891
  34
0.0
 100
AcDbRotatedDimension
   0
DIMENSION
   5
32A
 100
AcDbEntity
   8
LEVEL001
   6
CONTINUOUS
  62
2
 100
AcDbDimension
   2
*D19
  10
 262.73352608143
  20
 208.20148362891
  30
0.0
  11
 281.38229101287
  21
 213.47229881629
  31
0.0
  70
132
   3
GMM002
 100
AcDbRadialDimension
  15
 268.50734100815
  25
 209.83337247071
  35
0.0
  40
 13.478069871858
   0
DIMENSION
   5
32B
 100
AcDbEntity
   8
LEVEL001
   6
CONTINUOUS
  62
2
 100
AcDbDimension
   2
*D20
  10
 272.23269545933
  20
 231.20148362891
  30
0.0
  11
 279.76477986188
  21
 234.39884933231
  31
0.0
  70
132
   3
GMM005
 100
AcDbRadialDimension
  15
 273.15319215619
  25
 231.59223397256
  35
0.0
  40
 7.3649458019387
   0
MTEXT
   5
32C
 100
AcDbEntity
   8
LEVEL001
  62
7
 100
AcDbMText
  10
 261.96941276943
  20
 168.97859729972
  30
0.0
  40
 6.3500000000000
  41
0.0
  71
1
  72
1
   1
A
   7
GMM002
   0
INSERT
   5
32D
 100
AcDbEntity
   8
LEVEL001
 100
AcDbBlockReference
   2
BLOCK004
  10
0.0
  20
0.0
  30
0.0
   0
LINE
   5
32E
 100
AcDbEntity
   8
LEVEL001
 100
AcDbLine
   6
CONTINUOUS
  62
7
  10
 268.23269545933
  20
 158.89545906812
  30
0.0
  11
 256.23269545933
  21
 158.89545906812
  31
0.0
   0
DIMENSION
   5
32F
 100
AcDbEntity
   8
LEVEL001
   6
CONTINUOUS
  62
2
 100
AcDbDimension
   2
*D21
  10
 246.23269545933
  20
 206.12478679831
  30
0.0
  11
 285.66476411230
  21
 206.72603779619
  31
0.0
  70
132
   3
GMM002
 100
AcDbRadialDimension
  15
 276.22920865130
  25
 206.58216664436
  35
0.0
  40
 9.5761500961411
   0
ARC
   5
330
 100
AcDbEntity
   8
LEVEL001
   6
CONTINUOUS
  62
7
 100
AcDbCircle
  10
 268.31949500763
  20
 188.20148362891
  30
0.0
  40
 1.0000000000000
 100
AcDbArc
  50
 175.23635830930
  51
 270.29406054705
   0
LINE
   5
331
 100
AcDbEntity
   8
LEVEL001
 100
AcDbLine
   6
CONTINUOUS
  62
7
  10
 268.31949500763
  20
 187.20148362891
  30
0.0
  11
 273.34233679823
  21
 187.20148362891
  31
0.0
   0
LINE
   5
332
 100
AcDbEntity
   8
LEVEL001
 100
AcDbLine
   6
CONTINUOUS
  62
7
  10
 239.12305412043
  20
 187.20148362891
  30
0.0
  11
 244.14589591113
  21
 187.20148362891
  31
0.0
   0
ARC
   5
333
 100
AcDbEntity
   8
LEVEL001
   6
CONTINUOUS
  62
7
 100
AcDbCircle
  10
 239.12305412042
  20
 188.20148362891
  30
0.0
  40
 1.0000000000000
 100
AcDbArc
  50
 186.63890511602
  51
 269.58844513452
   0
ARC
   5
334
 100
AcDbEntity
   8
LEVEL001
   6
CONTINUOUS
  62
7
 100
AcDbCircle
  10
 273.34233679823
  20
 188.20148362892
  30
0.0
  40
 1.0000000000000
 100
AcDbArc
  50
 270.10868388336
  51
 353.36109488366
   0
ARC
   5
335
 100
AcDbEntity
   8
LEVEL001
   6
CONTINUOUS
  62
7
 100
AcDbCircle
  10
 244.14589591113
  20
 188.20148362891
  30
0.0
  40
 1.0000000000000
 100
AcDbArc
  50
 269.82276330939
  51
 4.7636416907792
   0
LINE
   5
336
 100
AcDbEntity
   8
LEVEL001
 100
AcDbLine
   6
CONTINUOUS
  62
7
  10
 239.23269545933
  20
 219.73666738741
  30
0.0
  11
 239.23269545933
  21
 229.70148362891
  31
0.0
   0
LINE
   5
337
 100
AcDbEntity
   8
LEVEL001
 100
AcDbLine
   6
CONTINUOUS
  62
7
  10
 240.23269545933
  20
 232.20148362891
  30
0.0
  11
 272.23269545933
  21
 232.20148362891
  31
0.0
   0
ARC
   5
338
 100
AcDbEntity
   8
LEVEL001
   6
CONTINUOUS
  62
7
 100
AcDbCircle
  10
 272.23269545932
  20
 231.20148362891
  30
0.0
  40
 1.0000000000000
 100
AcDbArc
  50
0.0
  51
 89.999999999876
   0
LINE
   5
339
 100
AcDbEntity
   8
LEVEL001
 100
AcDbLine
   6
CONTINUOUS
  62
7
  10
 273.23269545933
  20
 231.20148362891
  30
0.0
  11
 273.23269545933
  21
 229.70148362891
  31
0.0
   0
LINE
   5
33A
 100
AcDbEntity
   8
LEVEL001
 100
AcDbLine
   6
CONTINUOUS
  62
7
  10
 239.23269545933
  20
 229.70148362891
  30
0.0
  11
 239.23269545933
  21
 231.20148362891
  31
0.0
   0
ARC
   5
33B
 100
AcDbEntity
   8
LEVEL001
   6
CONTINUOUS
  62
7
 100
AcDbCircle
  10
 240.23269545933
  20
 231.20148362892
  30
0.0
  40
 1.0000000000000
 100
AcDbArc
  50
 90.000000000000
  51
 180.00000000007
   0
LINE
   5
33C
 100
AcDbEntity
   8
LEVEL001
 100
AcDbLine
   6
CONTINUOUS
  62
7
  10
 273.23269545933
  20
 229.70148362891
  30
0.0
  11
 273.23269545933
  21
 219.73666738741
  31
0.0
   0
LINE
   5
33D
 100
AcDbEntity
   8
LEVEL001
 100
AcDbLine
   6
CONTINUOUS
  62
7
  10
 239.23269545933
  20
 218.20148362891
  30
0.0
  11
 239.23269545933
  21
 219.73666738741
  31
0.0
   0
LINE
   5
33E
 100
AcDbEntity
   8
LEVEL001
 100
AcDbLine
   6
CONTINUOUS
  62
7
  10
 273.23269545933
  20
 219.73666738741
  30
0.0
  11
 273.23269545933
  21
 218.20148362891
  31
0.0
   0
ARC
   5
33F
 100
AcDbEntity
   8
LEVEL001
   6
CONTINUOUS
  62
7
 100
AcDbCircle
  10
 272.23269545933
  20
 218.20148362891
  30
0.0
  40
 1.0000000000000
 100
AcDbArc
  50
 270.00000000040
  51
 0.13678929574038E-9
   0
ARC
   5
340
 100
AcDbEntity
   8
LEVEL001
   6
CONTINUOUS
  62
7
 100
AcDbCircle
  10
 240.23269545933
  20
 218.20148362891
  30
0.0
  40
 1.0000000000000
 100
AcDbArc
  50
 180.00000000000
  51
 269.99999999996
   0
LINE
   5
341
 100
AcDbEntity
   8
LEVEL001
 100
AcDbLine
   6
CONTINUOUS
  62
7
  10
 272.23269545933
  20
 217.20148362891
  30
0.0
  11
 240.23269545933
  21
 217.20148362891
  31
0.0
   0
LINE
   5
342
 100
AcDbEntity
   8
LEVEL001
 100
AcDbLine
   6
CONTINUOUS
  62
7
  10
 267.32294924933
  20
 188.28452910881
  30
0.0
  11
 267.53688469923
  21
 190.85175450721
  31
0.0
   0
LINE
   5
343
 100
AcDbEntity
   8
LEVEL001
 100
AcDbLine
   6
CONTINUOUS
  62
7
  10
 238.12975962873
  20
 188.08587198261
  30
0.0
  11
 237.83095483603
  21
 190.65309738111
  31
0.0
   0
LINE
   5
344
 100
AcDbEntity
   8
LEVEL001
 100
AcDbLine
   6
CONTINUOUS
  62
7
  10
 274.63443608263
  20
 190.65309738111
  30
0.0
  11
 274.33563128993
  21
 188.08587198261
  31
0.0
   0
LINE
   5
345
 100
AcDbEntity
   8
LEVEL001
 100
AcDbLine
   6
CONTINUOUS
  62
7
  10
 244.92850621953
  20
 190.85175450721
  30
0.0
  11
 245.14244166933
  21
 188.28452910881
  31
0.0
   0
LINE
   5
346
 100
AcDbEntity
   8
LEVEL001
 100
AcDbLine
   6
CONTINUOUS
  62
7
  10
 237.83095483603
  20
 190.65309738111
  30
0.0
  11
 236.43386070833
  21
 202.65643741011
  31
0.0
   0
LINE
   5
347
 100
AcDbEntity
   8
LEVEL001
 100
AcDbLine
   6
CONTINUOUS
  62
7
  10
 276.03153021043
  20
 202.65643741011
  30
0.0
  11
 274.63443608263
  21
 190.65309738111
  31
0.0
   0
LINE
   5
348
 100
AcDbEntity
   8
LEVEL001
 100
AcDbLine
   6
CONTINUOUS
  62
7
  10
 243.92057112093
  20
 202.94697568991
  30
0.0
  11
 244.92850621953
  21
 190.85175450721
  31
0.0
   0
LINE
   5
349
 100
AcDbEntity
   8
LEVEL001
 100
AcDbLine
   6
CONTINUOUS
  62
7
  10
 267.53688469923
  20
 190.85175450721
  30
0.0
  11
 268.54481979773
  21
 202.94697568991
  31
0.0
   0
ARC
   5
34A
 100
AcDbEntity
   8
LEVEL001
   6
CONTINUOUS
  62
7
 100
AcDbCircle
  10
 266.23269545933
  20
 206.12478679831
  30
0.0
  40
 30.000000000000
 100
AcDbArc
  50
 154.15806723680
  51
 167.90452914130
   0
ARC
   5
34B
 100
AcDbEntity
   8
LEVEL001
   6
CONTINUOUS
  62
7
 100
AcDbCircle
  10
 246.23269545933
  20
 206.12478679831
  30
0.0
  40
 30.000000000000
 100
AcDbArc
  50
 12.095470858700
  51
 25.841932763200
   0
LINE
   5
34C
 100
AcDbEntity
   8
LEVEL001
 100
AcDbLine
   6
CONTINUOUS
  62
7
  10
 236.43386070833
  20
 202.65643741011
  30
0.0
  11
 236.42295128643
  21
 202.75148687941
  31
0.0
   0
LINE
   5
34D
 100
AcDbEntity
   8
LEVEL001
 100
AcDbLine
   6
CONTINUOUS
  62
7
  10
 276.04243963233
  20
 202.75148687941
  30
0.0
  11
 276.03153021043
  21
 202.65643741011
  31
0.0
   0
ARC
   5
34E
 100
AcDbEntity
   8
LEVEL001
   6
CONTINUOUS
  62
7
 100
AcDbCircle
  10
 262.71189816993
  20
 205.20148362891
  30
0.0
  40
 6.0000000000000
 100
AcDbArc
  50
 355.23635830930
  51
 89.999999999998
   0
ARC
   5
34F
 100
AcDbEntity
   8
LEVEL001
   6
CONTINUOUS
  62
7
 100
AcDbCircle
  10
 249.75349274873
  20
 205.20148362891
  30
0.0
  40
 6.0000000000000
 100
AcDbArc
  50
 90.000000000001
  51
 184.76364169070
   0
LINE
   5
350
 100
AcDbEntity
   8
LEVEL001
 100
AcDbLine
   6
CONTINUOUS
  62
7
  10
 262.71189816993
  20
 211.20148362891
  30
0.0
  11
 249.75349274873
  21
 211.20148362891
  31
0.0
   0
ARC
   5
351
 100
AcDbEntity
   8
LEVEL001
   6
CONTINUOUS
  62
7
 100
AcDbCircle
  10
 266.23269545933
  20
 206.12478679831
  30
0.0
  40
 30.000000000000
 100
AcDbArc
  50
 167.90452914130
  51
 186.45618212820
   0
ARC
   5
352
 100
AcDbEntity
   8
LEVEL001
   6
CONTINUOUS
  62
7
 100
AcDbCircle
  10
 246.23269545933
  20
 206.12478679832
  30
0.0
  40
 30.000000000000
 100
AcDbArc
  50
 353.54381787180
  51
 12.095470858699
   0
LINE
   5
353
 100
AcDbEntity
   8
LEVEL001
 100
AcDbLine
   6
CONTINUOUS
  62
7
  10
 268.54481979773
  20
 202.94697568991
  30
0.0
  11
 268.69117271943
  21
 204.70321074981
  31
0.0
   0
LINE
   5
354
 100
AcDbEntity
   8
LEVEL001
 100
AcDbLine
   6
CONTINUOUS
  62
7
  10
 243.77421819923
  20
 204.70321074981
  30
0.0
  11
 243.92057112093
  21
 202.94697568991
  31
0.0
   0
LINE
   5
355
 100
AcDbEntity
   8
LEVEL001
 100
AcDbLine
   6
CONTINUOUS
  62
1
  10
 239.23269545933
  20
 229.70148362891
  30
0.0
  11
 240.23269545933
  21
 229.70148362891
  31
0.0
   0
LINE
   5
356
 100
AcDbEntity
   8
LEVEL001
 100
AcDbLine
   6
CONTINUOUS
  62
1
  10
 240.23269545933
  20
 229.70148362891
  30
0.0
  11
 240.23269545933
  21
 219.46907550821
  31
0.0
   0
ARC
   5
357
 100
AcDbEntity
   8
LEVEL001
   6
CONTINUOUS
  62
1
 100
AcDbCircle
  10
 239.97198906863
  20
 220.49711984541
  30
0.0
  40
 1.0605861500000
 100
AcDbArc
  50
 225.80829170794
  51
 284.22991397898
   0
LINE
   5
358
 100
AcDbEntity
   8
LEVEL001
 100
AcDbLine
   6
CONTINUOUS
  62
1
  10
 240.23269545933
  20
 232.20148362891
  30
0.0
  11
 240.23269545933
  21
 229.70148362891
  31
0.0
   0
LINE
   5
359
 100
AcDbEntity
   8
LEVEL001
 100
AcDbLine
   6
CONTINUOUS
  62
1
  10
 272.23269545933
  20
 229.70148362891
  30
0.0
  11
 272.23269545933
  21
 232.20148362891
  31
0.0
   0
LINE
   5
35A
 100
AcDbEntity
   8
LEVEL001
 100
AcDbLine
   6
CONTINUOUS
  62
1
  10
 272.23269545933
  20
 229.70148362891
  30
0.0
  11
 240.23269545933
  21
 229.70148362891
  31
0.0
   0
LINE
   5
35B
 100
AcDbEntity
   8
LEVEL001
 100
AcDbLine
   6
CONTINUOUS
  62
1
  10
 272.23269545933
  20
 229.70148362891
  30
0.0
  11
 273.23269545933
  21
 229.70148362891
  31
0.0
   0
LINE
   5
35C
 100
AcDbEntity
   8
LEVEL001
 100
AcDbLine
   6
CONTINUOUS
  62
1
  10
 272.23269545933
  20
 219.46907550821
  30
0.0
  11
 272.23269545933
  21
 229.70148362891
  31
0.0
   0
ARC
   5
35D
 100
AcDbEntity
   8
LEVEL001
   6
CONTINUOUS
  62
1
 100
AcDbCircle
  10
 272.46479410583
  20
 220.60402796352
  30
0.0
  40
 1.1584415642000
 100
AcDbArc
  50
 258.44232686635
  51
 311.51946744701
   0
LINE
   5
35E
 100
AcDbEntity
   8
LEVEL001
 100
AcDbLine
   6
CONTINUOUS
  62
1
  10
 240.23269545933
  20
 219.46907550821
  30
0.0
  11
 272.23269545933
  21
 219.46907550821
  31
0.0
   0
ARC
   5
35F
 100
AcDbEntity
   8
LEVEL001
   6
CONTINUOUS
  62
1
 100
AcDbCircle
  10
 240.08311478363
  20
 219.90745483181
  30
0.0
  40
 0.86739920360000
 100
AcDbArc
  50
 191.35550469760
  51
 279.93014251566
   0
LINE
   5
360
 100
AcDbEntity
   8
LEVEL001
 100
AcDbLine
   6
CONTINUOUS
  62
1
  10
 240.23269545933
  20
 219.46907550821
  30
0.0
  11
 240.23269545933
  21
 219.05305036101
  31
0.0
   0
LINE
   5
361
 100
AcDbEntity
   8
LEVEL001
 100
AcDbLine
   6
CONTINUOUS
  62
1
  10
 272.23269545933
  20
 219.05305036101
  30
0.0
  11
 272.23269545933
  21
 219.46907550821
  31
0.0
   0
ARC
   5
362
 100
AcDbEntity
   8
LEVEL001
   6
CONTINUOUS
  62
1
 100
AcDbCircle
  10
 272.34944866423
  20
 219.95547509681
  30
0.0
  40
 0.90994599550000
 100
AcDbArc
  50
 262.62818022810
  51
 346.08617255918
   0
LINE
   5
363
 100
AcDbEntity
   8
LEVEL001
 100
AcDbLine
   6
CONTINUOUS
  62
1
  10
 272.23269545933
  20
 219.05305036101
  30
0.0
  11
 240.23269545933
  21
 219.05305036101
  31
0.0
   0
LINE
   5
364
 100
AcDbEntity
   8
LEVEL001
 100
AcDbLine
   6
CONTINUOUS
  62
1
  10
 240.23269545933
  20
 219.05305036101
  30
0.0
  11
 240.23269545933
  21
 217.28545848171
  31
0.0
   0
ARC
   5
365
 100
AcDbEntity
   8
LEVEL001
   6
CONTINUOUS
  62
1
 100
AcDbCircle
  10
 240.18751303452
  20
 218.23998316161
  30
0.0
  40
 0.95559343650000
 100
AcDbArc
  50
 182.30899233660
  51
 272.71007280952
   0
ARC
   5
366
 100
AcDbEntity
   8
LEVEL001
   6
CONTINUOUS
  62
1
 100
AcDbCircle
  10
 272.26796199943
  20
 218.25080806601
  30
0.0
  40
 0.96599355520000
 100
AcDbArc
  50
 267.90777793011
  51
 357.07315692471
   0
LINE
   5
367
 100
AcDbEntity
   8
LEVEL001
 100
AcDbLine
   6
CONTINUOUS
  62
1
  10
 272.23269545933
  20
 217.28545848171
  30
0.0
  11
 272.23269545933
  21
 219.05305036101
  31
0.0
   0
LINE
   5
368
 100
AcDbEntity
   8
LEVEL001
 100
AcDbLine
   6
CONTINUOUS
  62
1
  10
 240.23269545933
  20
 217.28545848171
  30
0.0
  11
 272.23269545933
  21
 217.28545848171
  31
0.0
   0
LINE
   5
369
 100
AcDbEntity
   8
LEVEL001
 100
AcDbLine
   6
CONTINUOUS
  62
1
  10
 272.23269545933
  20
 217.20148362891
  30
0.0
  11
 272.23269545933
  21
 217.28545848171
  31
0.0
   0
LINE
   5
36A
 100
AcDbEntity
   8
LEVEL001
 100
AcDbLine
   6
CONTINUOUS
  62
1
  10
 240.23269545933
  20
 217.28545848171
  30
0.0
  11
 240.23269545933
  21
 217.20148362891
  31
0.0
   0
LINE
   5
36B
 100
AcDbEntity
   8
LEVEL001
 100
AcDbLine
   6
CONTINUOUS
  62
1
  10
 249.75349274873
  20
 212.20148362891
  30
0.0
  11
 262.71189816993
  21
 212.20148362891
  31
0.0
   0
LINE
   5
36C
 100
AcDbEntity
   8
LEVEL001
 100
AcDbLine
   6
CONTINUOUS
  62
1
  10
 237.87650115143
  20
 212.20148362891
  30
0.0
  11
 249.75349274873
  21
 212.20148362891
  31
0.0
   0
ARC
   5
36D
 100
AcDbEntity
   8
LEVEL001
   6
CONTINUOUS
  62
1
 100
AcDbCircle
  10
 260.33379326873
  20
 206.68142285302
  30
0.0
  40
 23.125765721600
 100
AcDbArc
  50
 152.62020663450
  51
 166.19032579460
   0
ARC
   5
36E
 100
AcDbEntity
   8
LEVEL001
   6
CONTINUOUS
  62
1
 100
AcDbCircle
  10
 252.17568535083
  20
 206.69592599131
  30
0.0
  40
 23.079490833100
 100
AcDbArc
  50
 13.800835640602
  51
 27.398408589502
   0
LINE
   5
36F
 100
AcDbEntity
   8
LEVEL001
 100
AcDbLine
   6
CONTINUOUS
  62
1
  10
 262.71189816993
  20
 212.20148362891
  30
0.0
  11
 274.58888976723
  21
 212.20148362891
  31
0.0
   0
LINE
   5
370
 100
AcDbEntity
   8
LEVEL001
 100
AcDbLine
   6
CONTINUOUS
  62
1
  10
 267.53688469923
  20
 190.85175450721
  30
0.0
  11
 267.56570247883
  21
 190.98322991041
  31
0.0
   0
LINE
   5
371
 100
AcDbEntity
   8
LEVEL001
 100
AcDbLine
   6
CONTINUOUS
  62
1
  10
 267.56570247883
  20
 190.98322991041
  30
0.0
  11
 267.62897098383
  21
 191.10706845661
  31
0.0
   0
LINE
   5
372
 100
AcDbEntity
   8
LEVEL001
 100
AcDbLine
   6
CONTINUOUS
  62
1
  10
 267.62897098383
  20
 191.10706845661
  30
0.0
  11
 267.72443788093
  21
 191.21886154391
  31
0.0
   0
LINE
   5
373
 100
AcDbEntity
   8
LEVEL001
 100
AcDbLine
   6
CONTINUOUS
  62
1
  10
 267.72443788093
  20
 191.21886154391
  30
0.0
  11
 267.84870458713
  21
 191.31462938321
  31
0.0
   0
LINE
   5
374
 100
AcDbEntity
   8
LEVEL001
 100
AcDbLine
   6
CONTINUOUS
  62
1
  10
 267.84870458713
  20
 191.31462938321
  30
0.0
  11
 267.99734725793
  21
 191.39096267831
  31
0.0
   0
LINE
   5
375
 100
AcDbEntity
   8
LEVEL001
 100
AcDbLine
   6
CONTINUOUS
  62
1
  10
 267.99734725793
  20
 191.39096267831
  30
0.0
  11
 268.16507427413
  21
 191.44514399471
  31
0.0
   0
LINE
   5
376
 100
AcDbEntity
   8
LEVEL001
 100
AcDbLine
   6
CONTINUOUS
  62
1
  10
 268.16507427413
  20
 191.44514399471
  30
0.0
  11
 268.34591462173
  21
 191.47524449931
  31
0.0
   0
LINE
   5
377
 100
AcDbEntity
   8
LEVEL001
 100
AcDbLine
   6
CONTINUOUS
  62
1
  10
 268.34591462173
  20
 191.47524449931
  30
0.0
  11
 268.53343045743
  21
 191.48019262641
  31
0.0
   0
LINE
   5
378
 100
AcDbEntity
   8
LEVEL001
 100
AcDbLine
   6
CONTINUOUS
  62
1
  10
 268.53343045743
  20
 191.48019262641
  30
0.0
  11
 268.31949500763
  21
 187.20148363031
  31
0.0
   0
LINE
   5
379
 100
AcDbEntity
   8
LEVEL001
 100
AcDbLine
   6
CONTINUOUS
  62
1
  10
 268.53343045743
  20
 191.48019262641
  30
0.0
  11
 273.64114159093
  21
 191.48019262641
  31
0.0
   0
LINE
   5
37A
 100
AcDbEntity
   8
LEVEL001
 100
AcDbLine
   6
CONTINUOUS
  62
1
  10
 273.34233679823
  20
 187.20148362891
  30
0.0
  11
 273.64114159093
  21
 191.48019262641
  31
0.0
   0
LINE
   5
37B
 100
AcDbEntity
   8
LEVEL001
 100
AcDbLine
   6
CONTINUOUS
  62
1
  10
 238.82424932773
  20
 191.48019262641
  30
0.0
  11
 239.12305412043
  21
 187.20148362891
  31
0.0
   0
LINE
   5
37C
 100
AcDbEntity
   8
LEVEL001
 100
AcDbLine
   6
CONTINUOUS
  62
1
  10
 238.82424932773
  20
 191.48019262641
  30
0.0
  11
 243.93196046123
  21
 191.48019262641
  31
0.0
   0
LINE
   5
37D
 100
AcDbEntity
   8
LEVEL001
 100
AcDbLine
   6
CONTINUOUS
  62
1
  10
 244.14589591113
  20
 187.20148362891
  30
0.0
  11
 243.93196046123
  21
 191.48019262641
  31
0.0
   0
LINE
   5
37E
 100
AcDbEntity
   8
LEVEL001
 100
AcDbLine
   6
CONTINUOUS
  62
1
  10
 238.82424932773
  20
 191.48019262641
  30
0.0
  11
 238.61975653653
  21
 191.45330304191
  31
0.0
   0
LINE
   5
37F
 100
AcDbEntity
   8
LEVEL001
 100
AcDbLine
   6
CONTINUOUS
  62
1
  10
 238.61975653653
  20
 191.45330304191
  30
0.0
  11
 238.42396484293
  21
 191.39728421861
  31
0.0
   0
LINE
   5
380
 100
AcDbEntity
   8
LEVEL001
 100
AcDbLine
   6
CONTINUOUS
  62
1
  10
 238.42396484293
  20
 191.39728421861
  30
0.0
  11
 238.24520511593
  21
 191.31451973791
  31
0.0
   0
LINE
   5
381
 100
AcDbEntity
   8
LEVEL001
 100
AcDbLine
   6
CONTINUOUS
  62
1
  10
 238.24520511593
  20
 191.31451973791
  30
0.0
  11
 238.09108352023
  21
 191.20853120001
  31
0.0
   0
LINE
   5
382
 100
AcDbEntity
   8
LEVEL001
 100
AcDbLine
   6
CONTINUOUS
  62
1
  10
 238.09108352023
  20
 191.20853120001
  30
0.0
  11
 237.96815787643
  21
 191.08382838051
  31
0.0
   0
LINE
   5
383
 100
AcDbEntity
   8
LEVEL001
 100
AcDbLine
   6
CONTINUOUS
  62
1
  10
 237.96815787643
  20
 191.08382838051
  30
0.0
  11
 237.88165862823
  21
 190.94571734141
  31
0.0
   0
LINE
   5
384
 100
AcDbEntity
   8
LEVEL001
 100
AcDbLine
   6
CONTINUOUS
  62
1
  10
 237.88165862823
  20
 190.94571734141
  30
0.0
  11
 237.83526628873
  21
 190.80007465971
  31
0.0
   0
LINE
   5
385
 100
AcDbEntity
   8
LEVEL001
 100
AcDbLine
   6
CONTINUOUS
  62
1
  10
 237.83526628873
  20
 190.80007465971
  30
0.0
  11
 237.83095483603
  21
 190.65309738111
  31
0.0
   0
LINE
   5
386
 100
AcDbEntity
   8
LEVEL001
 100
AcDbLine
   6
CONTINUOUS
  62
1
  10
 274.63443608263
  20
 190.65309738111
  30
0.0
  11
 274.63012462993
  21
 190.80007465971
  31
0.0
   0
LINE
   5
387
 100
AcDbEntity
   8
LEVEL001
 100
AcDbLine
   6
CONTINUOUS
  62
1
  10
 274.63012462993
  20
 190.80007465971
  30
0.0
  11
 274.58373229053
  21
 190.94571734141
  31
0.0
   0
LINE
   5
388
 100
AcDbEntity
   8
LEVEL001
 100
AcDbLine
   6
CONTINUOUS
  62
1
  10
 274.58373229053
  20
 190.94571734141
  30
0.0
  11
 274.49723304233
  21
 191.08382838051
  31
0.0
   0
LINE
   5
389
 100
AcDbEntity
   8
LEVEL001
 100
AcDbLine
   6
CONTINUOUS
  62
1
  10
 274.49723304233
  20
 191.08382838051
  30
0.0
  11
 274.37430739843
  21
 191.20853120001
  31
0.0
   0
LINE
   5
38A
 100
AcDbEntity
   8
LEVEL001
 100
AcDbLine
   6
CONTINUOUS
  62
1
  10
 274.37430739843
  20
 191.20853120001
  30
0.0
  11
 274.22018580273
  21
 191.31451973791
  31
0.0
   0
LINE
   5
38B
 100
AcDbEntity
   8
LEVEL001
 100
AcDbLine
   6
CONTINUOUS
  62
1
  10
 274.22018580273
  20
 191.31451973791
  30
0.0
  11
 274.04142607573
  21
 191.39728421861
  31
0.0
   0
LINE
   5
38C
 100
AcDbEntity
   8
LEVEL001
 100
AcDbLine
   6
CONTINUOUS
  62
1
  10
 274.04142607573
  20
 191.39728421861
  30
0.0
  11
 273.84563438213
  21
 191.45330304191
  31
0.0
   0
LINE
   5
38D
 100
AcDbEntity
   8
LEVEL001
 100
AcDbLine
   6
CONTINUOUS
  62
1
  10
 273.84563438213
  20
 191.45330304191
  30
0.0
  11
 273.64114159093
  21
 191.48019262641
  31
0.0
   0
LINE
   5
38E
 100
AcDbEntity
   8
LEVEL001
 100
AcDbLine
   6
CONTINUOUS
  62
1
  10
 243.93196046123
  20
 191.48019262641
  30
0.0
  11
 244.11947629693
  21
 191.47524449931
  31
0.0
   0
LINE
   5
38F
 100
AcDbEntity
   8
LEVEL001
 100
AcDbLine
   6
CONTINUOUS
  62
1
  10
 244.11947629693
  20
 191.47524449931
  30
0.0
  11
 244.30031664453
  21
 191.44514399471
  31
0.0
   0
LINE
   5
390
 100
AcDbEntity
   8
LEVEL001
 100
AcDbLine
   6
CONTINUOUS
  62
1
  10
 244.30031664453
  20
 191.44514399471
  30
0.0
  11
 244.46804366073
  21
 191.39096267831
  31
0.0
   0
LINE
   5
391
 100
AcDbEntity
   8
LEVEL001
 100
AcDbLine
   6
CONTINUOUS
  62
1
  10
 244.46804366073
  20
 191.39096267831
  30
0.0
  11
 244.61668633153
  21
 191.31462938321
  31
0.0
   0
LINE
   5
392
 100
AcDbEntity
   8
LEVEL001
 100
AcDbLine
   6
CONTINUOUS
  62
1
  10
 244.61668633153
  20
 191.31462938321
  30
0.0
  11
 244.74095303773
  21
 191.21886154391
  31
0.0
   0
LINE
   5
393
 100
AcDbEntity
   8
LEVEL001
 100
AcDbLine
   6
CONTINUOUS
  62
1
  10
 244.74095303773
  20
 191.21886154391
  30
0.0
  11
 244.83641993483
  21
 191.10706845661
  31
0.0
   0
LINE
   5
394
 100
AcDbEntity
   8
LEVEL001
 100
AcDbLine
   6
CONTINUOUS
  62
1
  10
 244.83641993483
  20
 191.10706845661
  30
0.0
  11
 244.89968843983
  21
 190.98322991041
  31
0.0
   0
LINE
   5
395
 100
AcDbEntity
   8
LEVEL001
 100
AcDbLine
   6
CONTINUOUS
  62
1
  10
 244.89968843983
  20
 190.98322991041
  30
0.0
  11
 244.92850621953
  21
 190.85175450721
  31
0.0
   0
LINE
   5
396
 100
AcDbEntity
   8
LEVEL001
 100
AcDbLine
   6
CONTINUOUS
  62
1
  10
 237.42715520003
  20
 202.77745383011
  30
0.0
  11
 238.82424932773
  21
 191.48019262641
  31
0.0
   0
LINE
   5
397
 100
AcDbEntity
   8
LEVEL001
 100
AcDbLine
   6
CONTINUOUS
  62
1
  10
 237.42715520003
  20
 202.77745383011
  30
0.0
  11
 237.23329692813
  21
 202.75478698151
  31
0.0
   0
LINE
   5
398
 100
AcDbEntity
   8
LEVEL001
 100
AcDbLine
   6
CONTINUOUS
  62
1
  10
 237.23329692813
  20
 202.75478698151
  30
0.0
  11
 237.04689443003
  21
 202.73278403081
  31
0.0
   0
LINE
   5
399
 100
AcDbEntity
   8
LEVEL001
 100
AcDbLine
   6
CONTINUOUS
  62
1
  10
 237.04689443003
  20
 202.73278403081
  30
0.0
  11
 236.87511673113
  21
 202.71229121001
  31
0.0
   0
LINE
   5
39A
 100
AcDbEntity
   8
LEVEL001
 100
AcDbLine
   6
CONTINUOUS
  62
1
  10
 236.87511673113
  20
 202.71229121001
  30
0.0
  11
 236.72457038813
  21
 202.69409667121
  31
0.0
   0
LINE
   5
39B
 100
AcDbEntity
   8
LEVEL001
 100
AcDbLine
   6
CONTINUOUS
  62
1
  10
 236.72457038813
  20
 202.69409667121
  30
0.0
  11
 236.60104540143
  21
 202.67890017501
  31
0.0
   0
LINE
   5
39C
 100
AcDbEntity
   8
LEVEL001
 100
AcDbLine
   6
CONTINUOUS
  62
1
  10
 236.60104540143
  20
 202.67890017501
  30
0.0
  11
 236.50929253233
  21
 202.66728617741
  31
0.0
   0
LINE
   5
39D
 100
AcDbEntity
   8
LEVEL001
 100
AcDbLine
   6
CONTINUOUS
  62
1
  10
 236.50929253233
  20
 202.66728617741
  30
0.0
  11
 236.45284058883
  21
 202.65970135181
  31
0.0
   0
LINE
   5
39E
 100
AcDbEntity
   8
LEVEL001
 100
AcDbLine
   6
CONTINUOUS
  62
1
  10
 236.45284058883
  20
 202.65970135181
  30
0.0
  11
 236.43386070833
  21
 202.65643741011
  31
0.0
   0
LINE
   5
39F
 100
AcDbEntity
   8
LEVEL001
 100
AcDbLine
   6
CONTINUOUS
  62
1
  10
 273.64114159093
  20
 191.48019262641
  30
0.0
  11
 275.03823571873
  21
 202.77745383011
  31
0.0
   0
LINE
   5
3A0
 100
AcDbEntity
   8
LEVEL001
 100
AcDbLine
   6
CONTINUOUS
  62
1
  10
 276.03153021043
  20
 202.65643741011
  30
0.0
  11
 276.01255032983
  21
 202.65970135181
  31
0.0
   0
LINE
   5
3A1
 100
AcDbEntity
   8
LEVEL001
 100
AcDbLine
   6
CONTINUOUS
  62
1
  10
 276.01255032983
  20
 202.65970135181
  30
0.0
  11
 275.95609838633
  21
 202.66728617741
  31
0.0
   0
LINE
   5
3A2
 100
AcDbEntity
   8
LEVEL001
 100
AcDbLine
   6
CONTINUOUS
  62
1
  10
 275.95609838633
  20
 202.66728617741
  30
0.0
  11
 275.86434551723
  21
 202.67890017501
  31
0.0
   0
LINE
   5
3A3
 100
AcDbEntity
   8
LEVEL001
 100
AcDbLine
   6
CONTINUOUS
  62
1
  10
 275.86434551723
  20
 202.67890017501
  30
0.0
  11
 275.74082053053
  21
 202.69409667121
  31
0.0
   0
LINE
   5
3A4
 100
AcDbEntity
   8
LEVEL001
 100
AcDbLine
   6
CONTINUOUS
  62
1
  10
 275.74082053053
  20
 202.69409667121
  30
0.0
  11
 275.59027418753
  21
 202.71229121001
  31
0.0
   0
LINE
   5
3A5
 100
AcDbEntity
   8
LEVEL001
 100
AcDbLine
   6
CONTINUOUS
  62
1
  10
 275.59027418753
  20
 202.71229121001
  30
0.0
  11
 275.41849648863
  21
 202.73278403081
  31
0.0
   0
LINE
   5
3A6
 100
AcDbEntity
   8
LEVEL001
 100
AcDbLine
   6
CONTINUOUS
  62
1
  10
 275.41849648863
  20
 202.73278403081
  30
0.0
  11
 275.23209399053
  21
 202.75478698151
  31
0.0
   0
LINE
   5
3A7
 100
AcDbEntity
   8
LEVEL001
 100
AcDbLine
   6
CONTINUOUS
  62
1
  10
 275.23209399053
  20
 202.75478698151
  30
0.0
  11
 275.03823571873
  21
 202.77745383011
  31
0.0
   0
LINE
   5
3A8
 100
AcDbEntity
   8
LEVEL001
 100
AcDbLine
   6
CONTINUOUS
  62
1
  10
 237.41660942553
  20
 202.86393021001
  30
0.0
  11
 237.42715520003
  21
 202.77745383011
  31
0.0
   0
LINE
   5
3A9
 100
AcDbEntity
   8
LEVEL001
 100
AcDbLine
   6
CONTINUOUS
  62
1
  10
 237.41660942553
  20
 202.86393021001
  30
0.0
  11
 242.92402536273
  21
 202.86393021001
  31
0.0
   0
LINE
   5
3AA
 100
AcDbEntity
   8
LEVEL001
 100
AcDbLine
   6
CONTINUOUS
  62
1
  10
 243.93196046123
  20
 191.48019262641
  30
0.0
  11
 242.92402536273
  21
 202.86393021001
  31
0.0
   0
LINE
   5
3AB
 100
AcDbEntity
   8
LEVEL001
 100
AcDbLine
   6
CONTINUOUS
  62
1
  10
 275.03823571873
  20
 202.77745383011
  30
0.0
  11
 275.04878149323
  21
 202.86393021001
  31
0.0
   0
LINE
   5
3AC
 100
AcDbEntity
   8
LEVEL001
 100
AcDbLine
   6
CONTINUOUS
  62
1
  10
 269.54136555603
  20
 202.86393021001
  30
0.0
  11
 268.53343045743
  21
 191.48019262641
  31
0.0
   0
LINE
   5
3AD
 100
AcDbEntity
   8
LEVEL001
 100
AcDbLine
   6
CONTINUOUS
  62
1
  10
 269.54136555603
  20
 202.86393021001
  30
0.0
  11
 275.04878149323
  21
 202.86393021001
  31
0.0
   0
LINE
   5
3AE
 100
AcDbEntity
   8
LEVEL001
 100
AcDbLine
   6
CONTINUOUS
  62
1
  10
 242.92402536273
  20
 202.86393021001
  30
0.0
  11
 243.92057112093
  21
 202.94697568991
  31
0.0
   0
LINE
   5
3AF
 100
AcDbEntity
   8
LEVEL001
 100
AcDbLine
   6
CONTINUOUS
  62
1
  10
 269.54136555603
  20
 202.86393021001
  30
0.0
  11
 268.54481979773
  21
 202.94697568991
  31
0.0
   0
LINE
   5
3B0
 100
AcDbEntity
   8
LEVEL001
 100
AcDbLine
   6
CONTINUOUS
  62
1
  10
 237.87650115143
  20
 212.20148362891
  30
0.0
  11
 236.89870134773
  21
 212.41102489891
  31
0.0
   0
LINE
   5
3B1
 100
AcDbEntity
   8
LEVEL001
 100
AcDbLine
   6
CONTINUOUS
  62
1
  10
 275.56668957103
  20
 212.41102489891
  30
0.0
  11
 274.58888976723
  21
 212.20148362891
  31
0.0
   0
LINE
   5
3B2
 100
AcDbEntity
   8
LEVEL001
 100
AcDbLine
   6
CONTINUOUS
  62
1
  10
 237.41660942553
  20
 202.86393021001
  30
0.0
  11
 236.42295128643
  21
 202.75148687941
  31
0.0
   0
LINE
   5
3B3
 100
AcDbEntity
   8
LEVEL001
 100
AcDbLine
   6
CONTINUOUS
  62
1
  10
 276.04243963233
  20
 202.75148687941
  30
0.0
  11
 275.04878149323
  21
 202.86393021001
  31
0.0
   0
ARC
   5
3B4
 100
AcDbEntity
   8
LEVEL001
   6
CONTINUOUS
  62
1
 100
AcDbCircle
  10
 262.71189816993
  20
 205.20148362891
  30
0.0
  40
 7.0000000000000
 100
AcDbArc
  50
 355.23635830930
  51
 89.999999999997
   0
LINE
   5
3B5
 100
AcDbEntity
   8
LEVEL001
 100
AcDbLine
   6
CONTINUOUS
  62
1
  10
 269.68771847763
  20
 204.62016526991
  30
0.0
  11
 268.69117271943
  21
 204.70321074981
  31
0.0
   0
LINE
   5
3B6
 100
AcDbEntity
   8
LEVEL001
 100
AcDbLine
   6
CONTINUOUS
  62
1
  10
 262.71189816993
  20
 212.20148362891
  30
0.0
  11
 262.71189816993
  21
 211.20148362891
  31
0.0
   0
ARC
   5
3B7
 100
AcDbEntity
   8
LEVEL001
   6
CONTINUOUS
  62
1
 100
AcDbCircle
  10
 249.75349274873
  20
 205.20148362891
  30
0.0
  40
 7.0000000000000
 100
AcDbArc
  50
 90.000000000000
  51
 184.76364169070
   0
LINE
   5
3B8
 100
AcDbEntity
   8
LEVEL001
 100
AcDbLine
   6
CONTINUOUS
  62
1
  10
 249.75349274873
  20
 212.20148362891
  30
0.0
  11
 249.75349274873
  21
 211.20148362891
  31
0.0
   0
LINE
   5
3B9
 100
AcDbEntity
   8
LEVEL001
 100
AcDbLine
   6
CONTINUOUS
  62
1
  10
 242.77767244103
  20
 204.62016526991
  30
0.0
  11
 243.77421819923
  21
 204.70321074981
  31
0.0
   0
ARC
   5
3BA
 100
AcDbEntity
   8
LEVEL001
   6
CONTINUOUS
  62
1
 100
AcDbCircle
  10
 266.23269545933
  20
 206.12478679831
  30
0.0
  40
 29.000000000000
 100
AcDbArc
  50
 167.90452914130
  51
 186.45618212820
   0
LINE
   5
3BB
 100
AcDbEntity
   8
LEVEL001
 100
AcDbLine
   6
CONTINUOUS
  62
1
  10
 242.92402536273
  20
 202.86393021001
  30
0.0
  11
 242.77767244103
  21
 204.62016526991
  31
0.0
   0
ARC
   5
3BC
 100
AcDbEntity
   8
LEVEL001
   6
CONTINUOUS
  62
1
 100
AcDbCircle
  10
 246.23269545933
  20
 206.12478679831
  30
0.0
  40
 29.000000000000
 100
AcDbArc
  50
 353.54381787180
  51
 12.095470858700
   0
LINE
   5
3BD
 100
AcDbEntity
   8
LEVEL001
 100
AcDbLine
   6
CONTINUOUS
  62
1
  10
 269.68771847763
  20
 204.62016526991
  30
0.0
  11
 269.54136555603
  21
 202.86393021001
  31
0.0
   0
ARC
   5
3BE
 100
AcDbEntity
   8
LEVEL001
   6
CONTINUOUS
  62
7
 100
AcDbCircle
  10
 62.104527731022
  20
 88.940615399307
  30
0.0
  40
 1.0000000000000
 100
AcDbArc
  50
 180.00000000000
  51
 269.99999999999
   0
ARC
   5
3BF
 100
AcDbEntity
   8
LEVEL001
   6
CONTINUOUS
  62
7
 100
AcDbCircle
  10
 100.10452773102
  20
 88.940615399307
  30
0.0
  40
 1.0000000000000
 100
AcDbArc
  50
 270.00000000000
  51
0.0
   0
ARC
   5
3C0
 100
AcDbEntity
   8
LEVEL001
   6
CONTINUOUS
  62
7
 100
AcDbCircle
  10
 57.793400180922
  20
 97.324660820307
  30
0.0
  40
 6.4876008718000
 100
AcDbArc
  50
 317.05968806280
  51
 347.10186640880
   0
LINE
   5
3C1
 100
AcDbEntity
   8
LEVEL001
 100
AcDbLine
   6
CONTINUOUS
  62
7
  10
 99.669951211022
  20
 92.901927226807
  30
0.0
  11
 99.671544542322
  21
 92.901185998307
  31
0.0
   0
LINE
   5
3C2
 100
AcDbEntity
   8
LEVEL001
 100
AcDbLine
   6
CONTINUOUS
  62
7
  10
 99.671544542322
  20
 92.901185998307
  30
0.0
  11
 99.642272229022
  21
 92.922850048007
  31
0.0
   0
LINE
   5
3C3
 100
AcDbEntity
   8
LEVEL001
 100
AcDbLine
   6
CONTINUOUS
  62
7
  10
 99.642272229022
  20
 92.922850048007
  30
0.0
  11
 99.565864970022
  21
 92.992914381307
  31
0.0
   0
LINE
   5
3C4
 100
AcDbEntity
   8
LEVEL001
 100
AcDbLine
   6
CONTINUOUS
  62
7
  10
 99.565864970022
  20
 92.992914381307
  30
0.0
  11
 99.448032344122
  21
 93.123352363907
  31
0.0
   0
LINE
   5
3C5
 100
AcDbEntity
   8
LEVEL001
 100
AcDbLine
   6
CONTINUOUS
  62
7
  10
 99.448032344122
  20
 93.123352363907
  30
0.0
  11
 99.294607034622
  21
 93.322664137907
  31
0.0
   0
LINE
   5
3C6
 100
AcDbEntity
   8
LEVEL001
 100
AcDbLine
   6
CONTINUOUS
  62
7
  10
 99.294607034622
  20
 93.322664137907
  30
0.0
  11
 99.112302515222
  21
 93.594723360307
  31
0.0
   0
LINE
   5
3C7
 100
AcDbEntity
   8
LEVEL001
 100
AcDbLine
   6
CONTINUOUS
  62
7
  10
 99.112302515222
  20
 93.594723360307
  30
0.0
  11
 98.912439224022
  21
 93.933727425207
  31
0.0
   0
LINE
   5
3C8
 100
AcDbEntity
   8
LEVEL001
 100
AcDbLine
   6
CONTINUOUS
  62
7
  10
 98.912439224022
  20
 93.933727425207
  30
0.0
  11
 98.694136409322
  21
 94.355351303107
  31
0.0
   0
LINE
   5
3C9
 100
AcDbEntity
   8
LEVEL001
 100
AcDbLine
   6
CONTINUOUS
  62
7
  10
 98.694136409322
  20
 94.355351303107
  30
0.0
  11
 98.474270177022
  21
 94.840455766607
  31
0.0
   0
LINE
   5
3CA
 100
AcDbEntity
   8
LEVEL001
 100
AcDbLine
   6
CONTINUOUS
  62
7
  10
 98.474270177022
  20
 94.840455766607
  30
0.0
  11
 98.259548811722
  21
 95.385531339307
  31
0.0
   0
LINE
   5
3CB
 100
AcDbEntity
   8
LEVEL001
 100
AcDbLine
   6
CONTINUOUS
  62
7
  10
 98.259548811722
  20
 95.385531339307
  30
0.0
  11
 98.092926410522
  21
 95.878886135007
  31
0.0
   0
LINE
   5
3CC
 100
AcDbEntity
   8
LEVEL001
 100
AcDbLine
   6
CONTINUOUS
  62
7
  10
 61.104527731022
  20
 91.940615399307
  30
0.0
  11
 61.104527731022
  21
 88.940615399307
  31
0.0
   0
LINE
   5
3CD
 100
AcDbEntity
   8
LEVEL001
 100
AcDbLine
   6
CONTINUOUS
  62
7
  10
 101.10452773102
  20
 88.940615399307
  30
0.0
  11
 101.10452773102
  21
 91.940615399307
  31
0.0
   0
ARC
   5
3CE
 100
AcDbEntity
   8
LEVEL001
   6
CONTINUOUS
  62
7
 100
AcDbCircle
  10
 62.104527731022
  20
 91.940615399308
  30
0.0
  40
 1.0000000000000
 100
AcDbArc
  50
 90.000000000000
  51
 180.00000000005
   0
ARC
   5
3CF
 100
AcDbEntity
   8
LEVEL001
   6
CONTINUOUS
  62
7
 100
AcDbCircle
  10
 100.10452773102
  20
 91.940615399307
  30
0.0
  40
 1.0000000000000
 100
AcDbArc
  50
0.0
  51
 90.000000000007
   0
ARC
   5
3D0
 100
AcDbEntity
   8
LEVEL001
   6
CONTINUOUS
  62
7
 100
AcDbCircle
  10
 46.224220134822
  20
 98.166461678307
  30
0.0
  40
 16.512307386400
 100
AcDbArc
  50
 341.37685210270
  51
 356.32777702590
   0
ARC
   5
3D1
 100
AcDbEntity
   8
LEVEL001
   6
CONTINUOUS
  62
7
 100
AcDbCircle
  10
 116.85063375502
  20
 98.338520287007
  30
0.0
  40
 17.387736870900
 100
AcDbArc
  50
 184.05529824980
  51
 198.22176517340
   0
ARC
   5
3D2
 100
AcDbEntity
   8
LEVEL001
   6
CONTINUOUS
  62
7
 100
AcDbCircle
  10
 63.926550619522
  20
 97.209655231408
  30
0.0
  40
 1.2280687600000
 100
AcDbArc
  50
 95.063259467000
  51
 184.70730868802
   0
LINE
   5
3D3
 100
AcDbEntity
   8
LEVEL001
 100
AcDbLine
   6
CONTINUOUS
  62
7
  10
 64.104527731022
  20
 98.440615399307
  30
0.0
  11
 63.820298220322
  21
 98.440615399307
  31
0.0
   0
LINE
   5
3D4
 100
AcDbEntity
   8
LEVEL001
 100
AcDbLine
   6
CONTINUOUS
  62
7
  10
 98.388757241722
  20
 98.440615399307
  30
0.0
  11
 98.104527731022
  21
 98.440615399307
  31
0.0
   0
ARC
   5
3D5
 100
AcDbEntity
   8
LEVEL001
   6
CONTINUOUS
  62
7
 100
AcDbCircle
  10
 98.326453776622
  20
 97.245927594907
  30
0.0
  40
 1.1879102544000
 100
AcDbArc
  50
 353.37477097330
  51
 86.986213536094
   0
ARC
   5
3D6
 100
AcDbEntity
   8
LEVEL001
   6
CONTINUOUS
  62
7
 100
AcDbCircle
  10
 65.104527731024
  20
 132.94061539931
  30
0.0
  40
 1.0000000000000
 100
AcDbArc
  50
 180.00000000000
  51
 269.99999999989
   0
LINE
   5
3D7
 100
AcDbEntity
   8
LEVEL001
 100
AcDbLine
   6
CONTINUOUS
  62
7
  10
 64.104527731022
  20
 132.94061539931
  30
0.0
  11
 64.104527731022
  21
 134.44061539931
  31
0.0
   0
LINE
   5
3D8
 100
AcDbEntity
   8
LEVEL001
 100
AcDbLine
   6
CONTINUOUS
  62
7
  10
 64.104527731022
  20
 144.44061539931
  30
0.0
  11
 64.104527731022
  21
 145.94061539931
  31
0.0
   0
ARC
   5
3D9
 100
AcDbEntity
   8
LEVEL001
   6
CONTINUOUS
  62
7
 100
AcDbCircle
  10
 65.104527731022
  20
 145.94061539931
  30
0.0
  40
 1.0000000000000
 100
AcDbArc
  50
 90.000000000000
  51
 180.00000000005
   0
LINE
   5
3DA
 100
AcDbEntity
   8
LEVEL001
 100
AcDbLine
   6
CONTINUOUS
  62
7
  10
 64.104527731022
  20
 134.44061539931
  30
0.0
  11
 64.104527731022
  21
 144.44061539931
  31
0.0
   0
LINE
   5
3DB
 100
AcDbEntity
   8
LEVEL001
 100
AcDbLine
   6
CONTINUOUS
  62
7
  10
 65.104527731022
  20
 146.94061539931
  30
0.0
  11
 97.104527731022
  21
 146.94061539931
  31
0.0
   0
LINE
   5
3DC
 100
AcDbEntity
   8
LEVEL001
 100
AcDbLine
   6
CONTINUOUS
  62
7
  10
 97.104527731022
  20
 131.94061539931
  30
0.0
  11
 65.104527731022
  21
 131.94061539931
  31
0.0
   0
LINE
   5
3DD
 100
AcDbEntity
   8
LEVEL001
 100
AcDbLine
   6
CONTINUOUS
  62
7
  10
 98.104527731022
  20
 134.44061539931
  30
0.0
  11
 98.104527731022
  21
 132.94061539931
  31
0.0
   0
ARC
   5
3DE
 100
AcDbEntity
   8
LEVEL001
   6
CONTINUOUS
  62
7
 100
AcDbCircle
  10
 97.104527731022
  20
 132.94061539931
  30
0.0
  40
 1.0000000000000
 100
AcDbArc
  50
 270.00000000000
  51
 0.52110207901098E-10
   0
LINE
   5
3DF
 100
AcDbEntity
   8
LEVEL001
 100
AcDbLine
   6
CONTINUOUS
  62
7
  10
 98.104527731022
  20
 144.44061539931
  30
0.0
  11
 98.104527731022
  21
 134.44061539931
  31
0.0
   0
LINE
   5
3E0
 100
AcDbEntity
   8
LEVEL001
 100
AcDbLine
   6
CONTINUOUS
  62
7
  10
 98.104527731022
  20
 145.94061539931
  30
0.0
  11
 98.104527731022
  21
 144.44061539931
  31
0.0
   0
ARC
   5
3E1
 100
AcDbEntity
   8
LEVEL001
   6
CONTINUOUS
  62
7
 100
AcDbCircle
  10
 97.104527731022
  20
 145.94061539931
  30
0.0
  40
 1.0000000000000
 100
AcDbArc
  50
0.0
  51
 90.000000000008
   0
LINE
   5
3E2
 100
AcDbEntity
   8
LEVEL001
 100
AcDbLine
   6
CONTINUOUS
  62
7
  10
 64.104527731022
  20
 89.940615399307
  30
0.0
  11
 64.104527731022
  21
 116.84894231251
  31
0.0
   0
ARC
   5
3E3
 100
AcDbEntity
   8
LEVEL001
   6
CONTINUOUS
  62
7
 100
AcDbCircle
  10
 65.104527731022
  20
 88.940615399307
  30
0.0
  40
 1.0000000000000
 100
AcDbArc
  50
 180.00000000000
  51
 269.99999999999
   0
LINE
   5
3E4
 100
AcDbEntity
   8
LEVEL001
 100
AcDbLine
   6
CONTINUOUS
  62
7
  10
 64.104527731022
  20
 88.940615399307
  30
0.0
  11
 64.104527731022
  21
 89.940615399307
  31
0.0
   0
LINE
   5
3E5
 100
AcDbEntity
   8
LEVEL001
 100
AcDbLine
   6
CONTINUOUS
  62
7
  10
 67.104527731022
  20
 87.940615399307
  30
0.0
  11
 65.104527731022
  21
 87.940615399307
  31
0.0
   0
LINE
   5
3E6
 100
AcDbEntity
   8
LEVEL001
 100
AcDbLine
   6
CONTINUOUS
  62
7
  10
 68.104527731022
  20
 94.358039704407
  30
0.0
  11
 68.104527731022
  21
 89.940615399307
  31
0.0
   0
ARC
   5
3E7
 100
AcDbEntity
   8
LEVEL001
   6
CONTINUOUS
  62
7
 100
AcDbCircle
  10
 50.984731637522
  20
 93.022590712207
  30
0.0
  40
 17.171803699500
 100
AcDbArc
  50
 4.4603894090998
  51
 20.159587919500
   0
LINE
   5
3E8
 100
AcDbEntity
   8
LEVEL001
 100
AcDbLine
   6
CONTINUOUS
  62
7
  10
 68.104527731022
  20
 89.940615399307
  30
0.0
  11
 68.104527731022
  21
 88.940615399307
  31
0.0
   0
ARC
   5
3E9
 100
AcDbEntity
   8
LEVEL001
   6
CONTINUOUS
  62
7
 100
AcDbCircle
  10
 67.104527731022
  20
 88.940615399307
  30
0.0
  40
 1.0000000000000
 100
AcDbArc
  50
 270.00000000000
  51
0.0
   0
ARC
   5
3EA
 100
AcDbEntity
   8
LEVEL001
   6
CONTINUOUS
  62
7
 100
AcDbCircle
  10
 116.51859806682
  20
 91.867285356708
  30
0.0
  40
 22.552037740200
 100
AcDbArc
  50
 161.72097720920
  51
 173.65904546210
   0
LINE
   5
3EB
 100
AcDbEntity
   8
LEVEL001
 100
AcDbLine
   6
CONTINUOUS
  62
7
  10
 95.104527731022
  20
 87.940615399307
  30
0.0
  11
 87.583730441622
  21
 87.940615399307
  31
0.0
   0
LINE
   5
3EC
 100
AcDbEntity
   8
LEVEL001
 100
AcDbLine
   6
CONTINUOUS
  62
7
  10
 74.625325020422
  20
 87.940615399307
  30
0.0
  11
 87.583730441622
  21
 87.940615399307
  31
0.0
   0
LINE
   5
3ED
 100
AcDbEntity
   8
LEVEL001
 100
AcDbLine
   6
CONTINUOUS
  62
7
  10
 74.625325020422
  20
 87.940615399307
  30
0.0
  11
 67.104527731022
  21
 87.940615399307
  31
0.0
   0
LINE
   5
3EE
 100
AcDbEntity
   8
LEVEL001
 100
AcDbLine
   6
CONTINUOUS
  62
7
  10
 94.104527731022
  20
 88.940615399307
  30
0.0
  11
 94.104527731022
  21
 89.940615399307
  31
0.0
   0
ARC
   5
3EF
 100
AcDbEntity
   8
LEVEL001
   6
CONTINUOUS
  62
7
 100
AcDbCircle
  10
 95.104527731022
  20
 88.940615399307
  30
0.0
  40
 1.0000000000000
 100
AcDbArc
  50
 180.00000000000
  51
 269.99999999999
   0
LINE
   5
3F0
 100
AcDbEntity
   8
LEVEL001
 100
AcDbLine
   6
CONTINUOUS
  62
7
  10
 94.104527731022
  20
 89.940615399307
  30
0.0
  11
 94.104527731022
  21
 94.358039704407
  31
0.0
   0
LINE
   5
3F1
 100
AcDbEntity
   8
LEVEL001
 100
AcDbLine
   6
CONTINUOUS
  62
7
  10
 98.104527731022
  20
 116.84894231251
  30
0.0
  11
 98.104527731022
  21
 89.940615399307
  31
0.0
   0
LINE
   5
3F2
 100
AcDbEntity
   8
LEVEL001
 100
AcDbLine
   6
CONTINUOUS
  62
7
  10
 97.104527731022
  20
 87.940615399307
  30
0.0
  11
 95.104527731022
  21
 87.940615399307
  31
0.0
   0
ARC
   5
3F3
 100
AcDbEntity
   8
LEVEL001
   6
CONTINUOUS
  62
7
 100
AcDbCircle
  10
 97.104527731022
  20
 88.940615399307
  30
0.0
  40
 1.0000000000000
 100
AcDbArc
  50
 270.00000000000
  51
0.0
   0
LINE
   5
3F4
 100
AcDbEntity
   8
LEVEL001
 100
AcDbLine
   6
CONTINUOUS
  62
7
  10
 98.104527731022
  20
 89.940615399307
  30
0.0
  11
 98.104527731022
  21
 88.940615399307
  31
0.0
   0
LINE
   5
3F5
 100
AcDbEntity
   8
LEVEL001
 100
AcDbLine
   6
CONTINUOUS
  62
7
  10
 64.104527731022
  20
 116.84894231251
  30
0.0
  11
 64.104527731022
  21
 119.47105547481
  31
0.0
   0
LINE
   5
3F6
 100
AcDbEntity
   8
LEVEL001
 100
AcDbLine
   6
CONTINUOUS
  62
7
  10
 98.104527731022
  20
 119.47105547481
  30
0.0
  11
 98.104527731022
  21
 116.84894231251
  31
0.0
   0
LINE
   5
3F7
 100
AcDbEntity
   8
LEVEL001
 100
AcDbLine
   6
CONTINUOUS
  62
7
  10
 64.104527731022
  20
 119.47105547481
  30
0.0
  11
 64.104527731022
  21
 120.30310576911
  31
0.0
   0
LINE
   5
3F8
 100
AcDbEntity
   8
LEVEL001
 100
AcDbLine
   6
CONTINUOUS
  62
7
  10
 98.104527731022
  20
 120.30310576911
  30
0.0
  11
 98.104527731022
  21
 119.47105547481
  31
0.0
   0
LINE
   5
3F9
 100
AcDbEntity
   8
LEVEL001
 100
AcDbLine
   6
CONTINUOUS
  62
7
  10
 64.104527731022
  20
 120.30310576911
  30
0.0
  11
 64.104527731022
  21
 132.94061539931
  31
0.0
   0
LINE
   5
3FA
 100
AcDbEntity
   8
LEVEL001
 100
AcDbLine
   6
CONTINUOUS
  62
7
  10
 98.104527731022
  20
 132.94061539931
  30
0.0
  11
 98.104527731022
  21
 120.30310576911
  31
0.0
   0
LINE
   5
3FB
 100
AcDbEntity
   8
LEVEL001
 100
AcDbLine
   6
CONTINUOUS
  62
7
  10
 65.104527731022
  20
 87.940615399307
  30
0.0
  11
 62.104527731022
  21
 87.940615399307
  31
0.0
   0
LINE
   5
3FC
 100
AcDbEntity
   8
LEVEL001
 100
AcDbLine
   6
CONTINUOUS
  62
7
  10
 100.10452773102
  20
 87.940615399307
  30
0.0
  11
 97.104527731022
  21
 87.940615399307
  31
0.0
   0
LINE
   5
3FD
 100
AcDbEntity
   8
LEVEL001
 100
AcDbLine
   6
CONTINUOUS
  62
7
  10
 62.104527731022
  20
 92.940615399307
  30
0.0
  11
 62.500099687922
  21
 92.940615399307
  31
0.0
   0
LINE
   5
3FE
 100
AcDbEntity
   8
LEVEL001
 100
AcDbLine
   6
CONTINUOUS
  62
7
  10
 99.730350673422
  20
 92.940615399307
  30
0.0
  11
 100.10452773102
  21
 92.940615399307
  31
0.0
   0
LINE
   5
3FF
 100
AcDbEntity
   8
LEVEL001
 100
AcDbLine
   6
CONTINUOUS
  62
7
  10
 62.276884879522
  20
 92.940615399307
  30
0.0
  11
 62.298987471622
  21
 92.940849093707
  31
0.0
   0
LINE
   5
400
 100
AcDbEntity
   8
LEVEL001
 100
AcDbLine
   6
CONTINUOUS
  62
7
  10
 99.910067990422
  20
 92.940849093707
  30
0.0
  11
 99.932170582622
  21
 92.940615399307
  31
0.0
   0
LINE
   5
401
 100
AcDbEntity
   8
LEVEL001
 100
AcDbLine
   6
CONTINUOUS
  62
1
  10
 65.104527731022
  20
 134.44061539931
  30
0.0
  11
 65.104527731022
  21
 131.94061539931
  31
0.0
   0
LINE
   5
402
 100
AcDbEntity
   8
LEVEL001
 100
AcDbLine
   6
CONTINUOUS
  62
1
  10
 65.104527731022
  20
 134.44061539931
  30
0.0
  11
 64.104527731022
  21
 134.44061539931
  31
0.0
   0
LINE
   5
403
 100
AcDbEntity
   8
LEVEL001
 100
AcDbLine
   6
CONTINUOUS
  62
1
  10
 65.104527731022
  20
 146.94061539931
  30
0.0
  11
 65.104527731022
  21
 144.44061539931
  31
0.0
   0
LINE
   5
404
 100
AcDbEntity
   8
LEVEL001
 100
AcDbLine
   6
CONTINUOUS
  62
1
  10
 65.104527731022
  20
 144.44061539931
  30
0.0
  11
 64.104527731022
  21
 144.44061539931
  31
0.0
   0
LINE
   5
405
 100
AcDbEntity
   8
LEVEL001
 100
AcDbLine
   6
CONTINUOUS
  62
1
  10
 65.104527731022
  20
 144.44061539931
  30
0.0
  11
 65.104527731022
  21
 134.44061539931
  31
0.0
   0
LINE
   5
406
 100
AcDbEntity
   8
LEVEL001
 100
AcDbLine
   6
CONTINUOUS
  62
1
  10
 97.104527731022
  20
 144.44061539931
  30
0.0
  11
 97.104527731022
  21
 146.94061539931
  31
0.0
   0
LINE
   5
407
 100
AcDbEntity
   8
LEVEL001
 100
AcDbLine
   6
CONTINUOUS
  62
1
  10
 97.104527731022
  20
 144.44061539931
  30
0.0
  11
 65.104527731022
  21
 144.44061539931
  31
0.0
   0
LINE
   5
408
 100
AcDbEntity
   8
LEVEL001
 100
AcDbLine
   6
CONTINUOUS
  62
1
  10
 97.104527731022
  20
 131.94061539931
  30
0.0
  11
 97.104527731022
  21
 134.44061539931
  31
0.0
   0
LINE
   5
409
 100
AcDbEntity
   8
LEVEL001
 100
AcDbLine
   6
CONTINUOUS
  62
1
  10
 65.104527731022
  20
 134.44061539931
  30
0.0
  11
 97.104527731022
  21
 134.44061539931
  31
0.0
   0
LINE
   5
40A
 100
AcDbEntity
   8
LEVEL001
 100
AcDbLine
   6
CONTINUOUS
  62
1
  10
 97.104527731022
  20
 134.44061539931
  30
0.0
  11
 97.104527731022
  21
 144.44061539931
  31
0.0
   0
LINE
   5
40B
 100
AcDbEntity
   8
LEVEL001
 100
AcDbLine
   6
CONTINUOUS
  62
1
  10
 98.104527731022
  20
 134.44061539931
  30
0.0
  11
 97.104527731022
  21
 134.44061539931
  31
0.0
   0
LINE
   5
40C
 100
AcDbEntity
   8
LEVEL001
 100
AcDbLine
   6
CONTINUOUS
  62
1
  10
 98.104527731022
  20
 144.44061539931
  30
0.0
  11
 97.104527731022
  21
 144.44061539931
  31
0.0
   0
ARC
   5
40D
 100
AcDbEntity
   8
LEVEL001
   6
CONTINUOUS
  62
1
 100
AcDbCircle
  10
 64.860257298922
  20
 115.23540144841
  30
0.0
  40
 1.7817523117000
 100
AcDbArc
  50
 82.120183236706
  51
 115.09684906751
   0
ARC
   5
40E
 100
AcDbEntity
   8
LEVEL001
   6
CONTINUOUS
  62
1
 100
AcDbCircle
  10
 64.900481781421
  20
 116.37301997961
  30
0.0
  40
 0.92738606700000
 100
AcDbArc
  50
 77.289636050380
  51
 149.12366176613
   0
LINE
   5
40F
 100
AcDbEntity
   8
LEVEL001
 100
AcDbLine
   6
CONTINUOUS
  62
1
  10
 65.104527731022
  20
 117.27768022951
  30
0.0
  11
 65.104527731022
  21
 117.00033013141
  31
0.0
   0
LINE
   5
410
 100
AcDbEntity
   8
LEVEL001
 100
AcDbLine
   6
CONTINUOUS
  62
1
  10
 65.104527731022
  20
 117.00033013141
  30
0.0
  11
 65.104527731022
  21
 89.940615399307
  31
0.0
   0
LINE
   5
411
 100
AcDbEntity
   8
LEVEL001
 100
AcDbLine
   6
CONTINUOUS
  62
1
  10
 65.104527731022
  20
 89.940615399307
  30
0.0
  11
 64.104527731022
  21
 89.940615399307
  31
0.0
   0
LINE
   5
412
 100
AcDbEntity
   8
LEVEL001
 100
AcDbLine
   6
CONTINUOUS
  62
1
  10
 65.104527731022
  20
 89.940615399307
  30
0.0
  11
 65.104527731022
  21
 87.940615399307
  31
0.0
   0
LINE
   5
413
 100
AcDbEntity
   8
LEVEL001
 100
AcDbLine
   6
CONTINUOUS
  62
1
  10
 97.104527731022
  20
 117.00033013141
  30
0.0
  11
 97.104527731022
  21
 117.27768022951
  31
0.0
   0
LINE
   5
414
 100
AcDbEntity
   8
LEVEL001
 100
AcDbLine
   6
CONTINUOUS
  62
1
  10
 97.104527731022
  20
 117.00033013141
  30
0.0
  11
 65.104527731022
  21
 117.00033013141
  31
0.0
   0
LINE
   5
415
 100
AcDbEntity
   8
LEVEL001
 100
AcDbLine
   6
CONTINUOUS
  62
1
  10
 65.104527731022
  20
 117.27768022951
  30
0.0
  11
 97.104527731022
  21
 117.27768022951
  31
0.0
   0
LINE
   5
416
 100
AcDbEntity
   8
LEVEL001
 100
AcDbLine
   6
CONTINUOUS
  62
1
  10
 67.104527731022
  20
 89.940615399307
  30
0.0
  11
 67.104527731022
  21
 98.940615399307
  31
0.0
   0
LINE
   5
417
 100
AcDbEntity
   8
LEVEL001
 100
AcDbLine
   6
CONTINUOUS
  62
1
  10
 67.104527731022
  20
 89.940615399307
  30
0.0
  11
 65.104527731022
  21
 89.940615399307
  31
0.0
   0
LINE
   5
418
 100
AcDbEntity
   8
LEVEL001
 100
AcDbLine
   6
CONTINUOUS
  62
1
  10
 97.104527731022
  20
 89.940615399307
  30
0.0
  11
 97.104527731022
  21
 117.00033013141
  31
0.0
   0
LINE
   5
419
 100
AcDbEntity
   8
LEVEL001
 100
AcDbLine
   6
CONTINUOUS
  62
1
  10
 97.104527731022
  20
 89.940615399307
  30
0.0
  11
 95.104527731022
  21
 89.940615399307
  31
0.0
   0
LINE
   5
41A
 100
AcDbEntity
   8
LEVEL001
 100
AcDbLine
   6
CONTINUOUS
  62
1
  10
 95.104527731022
  20
 98.940615399307
  30
0.0
  11
 95.104527731022
  21
 89.940615399307
  31
0.0
   0
LINE
   5
41B
 100
AcDbEntity
   8
LEVEL001
 100
AcDbLine
   6
CONTINUOUS
  62
1
  10
 95.104527731022
  20
 98.940615399307
  30
0.0
  11
 67.104527731022
  21
 98.940615399307
  31
0.0
   0
LINE
   5
41C
 100
AcDbEntity
   8
LEVEL001
 100
AcDbLine
   6
CONTINUOUS
  62
1
  10
 67.104527731022
  20
 87.940615399307
  30
0.0
  11
 67.104527731022
  21
 89.940615399307
  31
0.0
   0
LINE
   5
41D
 100
AcDbEntity
   8
LEVEL001
 100
AcDbLine
   6
CONTINUOUS
  62
1
  10
 67.104527731022
  20
 89.940615399307
  30
0.0
  11
 68.104527731022
  21
 89.940615399307
  31
0.0
   0
LINE
   5
41E
 100
AcDbEntity
   8
LEVEL001
 100
AcDbLine
   6
CONTINUOUS
  62
1
  10
 94.104527731022
  20
 89.940615399307
  30
0.0
  11
 95.104527731022
  21
 89.940615399307
  31
0.0
   0
LINE
   5
41F
 100
AcDbEntity
   8
LEVEL001
 100
AcDbLine
   6
CONTINUOUS
  62
1
  10
 95.104527731022
  20
 89.940615399307
  30
0.0
  11
 95.104527731022
  21
 87.940615399307
  31
0.0
   0
ARC
   5
420
 100
AcDbEntity
   8
LEVEL001
   6
CONTINUOUS
  62
1
 100
AcDbCircle
  10
 97.348798163122
  20
 115.23540144831
  30
0.0
  40
 1.7817523117000
 100
AcDbArc
  50
 64.903150932497
  51
 97.879816763196
   0
ARC
   5
421
 100
AcDbEntity
   8
LEVEL001
   6
CONTINUOUS
  62
1
 100
AcDbCircle
  10
 97.308573680722
  20
 116.37301997961
  30
0.0
  40
 0.92738606700000
 100
AcDbArc
  50
 30.876338233905
  51
 102.71036394952
   0
LINE
   5
422
 100
AcDbEntity
   8
LEVEL001
 100
AcDbLine
   6
CONTINUOUS
  62
1
  10
 98.104527731022
  20
 89.940615399307
  30
0.0
  11
 97.104527731022
  21
 89.940615399307
  31
0.0
   0
LINE
   5
423
 100
AcDbEntity
   8
LEVEL001
 100
AcDbLine
   6
CONTINUOUS
  62
1
  10
 97.104527731022
  20
 87.940615399307
  30
0.0
  11
 97.104527731022
  21
 89.940615399307
  31
0.0
   0
LINE
   5
424
 100
AcDbEntity
   8
LEVEL001
 100
AcDbLine
   6
CONTINUOUS
  62
1
  10
 65.104527731022
  20
 120.02575567101
  30
0.0
  11
 65.104527731022
  21
 117.27768022951
  31
0.0
   0
LINE
   5
425
 100
AcDbEntity
   8
LEVEL001
 100
AcDbLine
   6
CONTINUOUS
  62
1
  10
 65.104527731022
  20
 120.02575567101
  30
0.0
  11
 64.909437409022
  21
 120.01509726231
  31
0.0
   0
LINE
   5
426
 100
AcDbEntity
   8
LEVEL001
 100
AcDbLine
   6
CONTINUOUS
  62
1
  10
 64.909437409022
  20
 120.01509726231
  30
0.0
  11
 64.721844298622
  21
 119.98353163271
  31
0.0
   0
LINE
   5
427
 100
AcDbEntity
   8
LEVEL001
 100
AcDbLine
   6
CONTINUOUS
  62
1
  10
 64.721844298622
  20
 119.98353163271
  30
0.0
  11
 64.548957498022
  21
 119.93227183191
  31
0.0
   0
LINE
   5
428
 100
AcDbEntity
   8
LEVEL001
 100
AcDbLine
   6
CONTINUOUS
  62
1
  10
 64.548957498022
  20
 119.93227183191
  30
0.0
  11
 64.397420949822
  21
 119.86328774501
  31
0.0
   0
LINE
   5
429
 100
AcDbEntity
   8
LEVEL001
 100
AcDbLine
   6
CONTINUOUS
  62
1
  10
 64.397420949822
  20
 119.86328774501
  30
0.0
  11
 64.273058118722
  21
 119.77923039201
  31
0.0
   0
LINE
   5
42A
 100
AcDbEntity
   8
LEVEL001
 100
AcDbLine
   6
CONTINUOUS
  62
1
  10
 64.273058118722
  20
 119.77923039201
  30
0.0
  11
 64.180648198522
  21
 119.68333004981
  31
0.0
   0
LINE
   5
42B
 100
AcDbEntity
   8
LEVEL001
 100
AcDbLine
   6
CONTINUOUS
  62
1
  10
 64.180648198522
  20
 119.68333004981
  30
0.0
  11
 64.123742450622
  21
 119.57927211471
  31
0.0
   0
LINE
   5
42C
 100
AcDbEntity
   8
LEVEL001
 100
AcDbLine
   6
CONTINUOUS
  62
1
  10
 64.123742450622
  20
 119.57927211471
  30
0.0
  11
 64.104527731022
  21
 119.47105547481
  31
0.0
   0
LINE
   5
42D
 100
AcDbEntity
   8
LEVEL001
 100
AcDbLine
   6
CONTINUOUS
  62
1
  10
 97.104527731022
  20
 117.27768022951
  30
0.0
  11
 97.104527731022
  21
 120.02575567101
  31
0.0
   0
LINE
   5
42E
 100
AcDbEntity
   8
LEVEL001
 100
AcDbLine
   6
CONTINUOUS
  62
1
  10
 97.104527731022
  20
 120.02575567101
  30
0.0
  11
 65.104527731022
  21
 120.02575567101
  31
0.0
   0
LINE
   5
42F
 100
AcDbEntity
   8
LEVEL001
 100
AcDbLine
   6
CONTINUOUS
  62
1
  10
 98.104527731022
  20
 119.47105547481
  30
0.0
  11
 98.085313011422
  21
 119.57927211471
  31
0.0
   0
LINE
   5
430
 100
AcDbEntity
   8
LEVEL001
 100
AcDbLine
   6
CONTINUOUS
  62
1
  10
 98.085313011422
  20
 119.57927211471
  30
0.0
  11
 98.028407263522
  21
 119.68333004981
  31
0.0
   0
LINE
   5
431
 100
AcDbEntity
   8
LEVEL001
 100
AcDbLine
   6
CONTINUOUS
  62
1
  10
 98.028407263522
  20
 119.68333004981
  30
0.0
  11
 97.935997343322
  21
 119.77923039201
  31
0.0
   0
LINE
   5
432
 100
AcDbEntity
   8
LEVEL001
 100
AcDbLine
   6
CONTINUOUS
  62
1
  10
 97.935997343322
  20
 119.77923039201
  30
0.0
  11
 97.811634512222
  21
 119.86328774501
  31
0.0
   0
LINE
   5
433
 100
AcDbEntity
   8
LEVEL001
 100
AcDbLine
   6
CONTINUOUS
  62
1
  10
 97.811634512222
  20
 119.86328774501
  30
0.0
  11
 97.660097964022
  21
 119.93227183191
  31
0.0
   0
LINE
   5
434
 100
AcDbEntity
   8
LEVEL001
 100
AcDbLine
   6
CONTINUOUS
  62
1
  10
 97.660097964022
  20
 119.93227183191
  30
0.0
  11
 97.487211163422
  21
 119.98353163271
  31
0.0
   0
LINE
   5
435
 100
AcDbEntity
   8
LEVEL001
 100
AcDbLine
   6
CONTINUOUS
  62
1
  10
 97.487211163422
  20
 119.98353163271
  30
0.0
  11
 97.299618053022
  21
 120.01509726231
  31
0.0
   0
LINE
   5
436
 100
AcDbEntity
   8
LEVEL001
 100
AcDbLine
   6
CONTINUOUS
  62
1
  10
 97.299618053022
  20
 120.01509726231
  30
0.0
  11
 97.104527731022
  21
 120.02575567101
  31
0.0
   0
LINE
   5
437
 100
AcDbEntity
   8
LEVEL001
 100
AcDbLine
   6
CONTINUOUS
  62
1
  10
 65.104527731022
  20
 120.30310576911
  30
0.0
  11
 65.104527731022
  21
 120.02575567101
  31
0.0
   0
LINE
   5
438
 100
AcDbEntity
   8
LEVEL001
 100
AcDbLine
   6
CONTINUOUS
  62
1
  10
 65.104527731022
  20
 120.30310576911
  30
0.0
  11
 64.104527731022
  21
 120.30310576911
  31
0.0
   0
LINE
   5
439
 100
AcDbEntity
   8
LEVEL001
 100
AcDbLine
   6
CONTINUOUS
  62
1
  10
 97.104527731022
  20
 120.02575567101
  30
0.0
  11
 97.104527731022
  21
 120.30310576911
  31
0.0
   0
LINE
   5
43A
 100
AcDbEntity
   8
LEVEL001
 100
AcDbLine
   6
CONTINUOUS
  62
1
  10
 65.104527731022
  20
 120.30310576911
  30
0.0
  11
 97.104527731022
  21
 120.30310576911
  31
0.0
   0
LINE
   5
43B
 100
AcDbEntity
   8
LEVEL001
 100
AcDbLine
   6
CONTINUOUS
  62
1
  10
 98.104527731022
  20
 120.30310576911
  30
0.0
  11
 97.104527731022
  21
 120.30310576911
  31
0.0
   0
LINE
   5
43C
 100
AcDbEntity
   8
LEVEL001
 100
AcDbLine
   6
CONTINUOUS
  62
1
  10
 65.104527731022
  20
 131.94061539931
  30
0.0
  11
 65.104527731022
  21
 120.30310576911
  31
0.0
   0
LINE
   5
43D
 100
AcDbEntity
   8
LEVEL001
 100
AcDbLine
   6
CONTINUOUS
  62
1
  10
 97.104527731022
  20
 120.30310576911
  30
0.0
  11
 97.104527731022
  21
 131.94061539931
  31
0.0
   0
LINE
   5
43E
 100
AcDbEntity
   8
LEVEL001
 100
AcDbLine
   6
CONTINUOUS
  62
1
  10
 61.104527731022
  20
 88.940615399307
  30
0.0
  11
 64.104527731022
  21
 88.940615399307
  31
0.0
   0
LINE
   5
43F
 100
AcDbEntity
   8
LEVEL001
 100
AcDbLine
   6
CONTINUOUS
  62
1
  10
 98.104527731022
  20
 88.940615399307
  30
0.0
  11
 101.10452773102
  21
 88.940615399307
  31
0.0
   0
ARC
   5
440
 100
AcDbEntity
   8
LEVEL001
   6
CONTINUOUS
  62
1
 100
AcDbCircle
  10
 58.883295222022
  20
 96.415299091107
  30
0.0
  40
 5.3253112309000
 100
AcDbArc
  50
 302.83166715730
  51
 348.65365505200
   0
LINE
   5
441
 100
AcDbEntity
   8
LEVEL001
 100
AcDbLine
   6
CONTINUOUS
  62
1
  10
 61.770533619422
  20
 91.940615399307
  30
0.0
  11
 61.789321768422
  21
 92.135705721307
  31
0.0
   0
LINE
   5
442
 100
AcDbEntity
   8
LEVEL001
 100
AcDbLine
   6
CONTINUOUS
  62
1
  10
 61.789321768422
  20
 92.135705721307
  30
0.0
  11
 61.844964197522
  21
 92.323298831707
  31
0.0
   0
LINE
   5
443
 100
AcDbEntity
   8
LEVEL001
 100
AcDbLine
   6
CONTINUOUS
  62
1
  10
 61.844964197522
  20
 92.323298831707
  30
0.0
  11
 61.935322599422
  21
 92.496185632307
  31
0.0
   0
LINE
   5
444
 100
AcDbEntity
   8
LEVEL001
 100
AcDbLine
   6
CONTINUOUS
  62
1
  10
 61.935322599422
  20
 92.496185632307
  30
0.0
  11
 62.056924551222
  21
 92.647722180507
  31
0.0
   0
LINE
   5
445
 100
AcDbEntity
   8
LEVEL001
 100
AcDbLine
   6
CONTINUOUS
  62
1
  10
 62.056924551222
  20
 92.647722180507
  30
0.0
  11
 62.205096958322
  21
 92.772085011607
  31
0.0
   0
LINE
   5
446
 100
AcDbEntity
   8
LEVEL001
 100
AcDbLine
   6
CONTINUOUS
  62
1
  10
 62.205096958322
  20
 92.772085011607
  30
0.0
  11
 62.374145638022
  21
 92.864494931807
  31
0.0
   0
LINE
   5
447
 100
AcDbEntity
   8
LEVEL001
 100
AcDbLine
   6
CONTINUOUS
  62
1
  10
 62.374145638022
  20
 92.864494931807
  30
0.0
  11
 62.544745648522
  21
 92.918699528107
  31
0.0
   0
LINE
   5
448
 100
AcDbEntity
   8
LEVEL001
 100
AcDbLine
   6
CONTINUOUS
  62
1
  10
 99.673818464022
  20
 92.916578771107
  30
0.0
  11
 99.834909824022
  21
 92.864494931807
  31
0.0
   0
LINE
   5
449
 100
AcDbEntity
   8
LEVEL001
 100
AcDbLine
   6
CONTINUOUS
  62
1
  10
 99.834909824022
  20
 92.864494931807
  30
0.0
  11
 100.00395850372
  21
 92.772085011607
  31
0.0
   0
LINE
   5
44A
 100
AcDbEntity
   8
LEVEL001
 100
AcDbLine
   6
CONTINUOUS
  62
1
  10
 100.00395850372
  20
 92.772085011607
  30
0.0
  11
 100.15213091082
  21
 92.647722180507
  31
0.0
   0
LINE
   5
44B
 100
AcDbEntity
   8
LEVEL001
 100
AcDbLine
   6
CONTINUOUS
  62
1
  10
 100.15213091082
  20
 92.647722180507
  30
0.0
  11
 100.27373286262
  21
 92.496185632307
  31
0.0
   0
LINE
   5
44C
 100
AcDbEntity
   8
LEVEL001
 100
AcDbLine
   6
CONTINUOUS
  62
1
  10
 100.27373286262
  20
 92.496185632307
  30
0.0
  11
 100.36409126452
  21
 92.323298831707
  31
0.0
   0
LINE
   5
44D
 100
AcDbEntity
   8
LEVEL001
 100
AcDbLine
   6
CONTINUOUS
  62
1
  10
 100.36409126452
  20
 92.323298831707
  30
0.0
  11
 100.41973369362
  21
 92.135705721307
  31
0.0
   0
LINE
   5
44E
 100
AcDbEntity
   8
LEVEL001
 100
AcDbLine
   6
CONTINUOUS
  62
1
  10
 100.41973369362
  20
 92.135705721307
  30
0.0
  11
 100.43852184272
  21
 91.940615399307
  31
0.0
   0
LINE
   5
44F
 100
AcDbEntity
   8
LEVEL001
 100
AcDbLine
   6
CONTINUOUS
  62
1
  10
 100.43852184272
  20
 91.940615399307
  30
0.0
  11
 100.22108302672
  21
 91.992446438307
  31
0.0
   0
LINE
   5
450
 100
AcDbEntity
   8
LEVEL001
 100
AcDbLine
   6
CONTINUOUS
  62
1
  10
 100.22108302672
  20
 91.992446438307
  30
0.0
  11
 99.828569236422
  21
 92.275657502407
  31
0.0
   0
LINE
   5
451
 100
AcDbEntity
   8
LEVEL001
 100
AcDbLine
   6
CONTINUOUS
  62
1
  10
 99.828569236422
  20
 92.275657502407
  30
0.0
  11
 99.373855974322
  21
 92.811954689607
  31
0.0
   0
LINE
   5
452
 100
AcDbEntity
   8
LEVEL001
 100
AcDbLine
   6
CONTINUOUS
  62
1
  10
 99.373855974322
  20
 92.811954689607
  30
0.0
  11
 98.936504177522
  21
 93.501521106107
  31
0.0
   0
LINE
   5
453
 100
AcDbEntity
   8
LEVEL001
 100
AcDbLine
   6
CONTINUOUS
  62
1
  10
 98.936504177522
  20
 93.501521106107
  30
0.0
  11
 98.489715461322
  21
 94.393532378707
  31
0.0
   0
LINE
   5
454
 100
AcDbEntity
   8
LEVEL001
 100
AcDbLine
   6
CONTINUOUS
  62
1
  10
 98.489715461322
  20
 94.393532378707
  30
0.0
  11
 98.104527731022
  21
 95.367601237807
  31
0.0
   0
LINE
   5
455
 100
AcDbEntity
   8
LEVEL001
 100
AcDbLine
   6
CONTINUOUS
  62
1
  10
 61.770533619422
  20
 91.940615399307
  30
0.0
  11
 61.104527731022
  21
 91.940615399307
  31
0.0
   0
LINE
   5
456
 100
AcDbEntity
   8
LEVEL001
 100
AcDbLine
   6
CONTINUOUS
  62
1
  10
 101.10452773102
  20
 91.940615399307
  30
0.0
  11
 100.43852184272
  21
 91.940615399307
  31
0.0
   0
LINE
   5
457
 100
AcDbEntity
   8
LEVEL001
 100
AcDbLine
   6
CONTINUOUS
  62
1
  10
 63.696081599422
  20
 97.697372156107
  30
0.0
  11
 63.582530869822
  21
 96.838031813807
  31
0.0
   0
LINE
   5
458
 100
AcDbEntity
   8
LEVEL001
 100
AcDbLine
   6
CONTINUOUS
  62
1
  10
 63.582530869822
  20
 96.838031813807
  30
0.0
  11
 63.460984392522
  21
 96.053460742307
  31
0.0
   0
LINE
   5
459
 100
AcDbEntity
   8
LEVEL001
 100
AcDbLine
   6
CONTINUOUS
  62
1
  10
 63.460984392522
  20
 96.053460742307
  30
0.0
  11
 63.332193076722
  21
 95.348505989907
  31
0.0
   0
LINE
   5
45A
 100
AcDbEntity
   8
LEVEL001
 100
AcDbLine
   6
CONTINUOUS
  62
1
  10
 63.332193076722
  20
 95.348505989907
  30
0.0
  11
 63.196952590022
  21
 94.727522738307
  31
0.0
   0
LINE
   5
45B
 100
AcDbEntity
   8
LEVEL001
 100
AcDbLine
   6
CONTINUOUS
  62
1
  10
 63.196952590022
  20
 94.727522738307
  30
0.0
  11
 63.056098442722
  21
 94.194347397007
  31
0.0
   0
LINE
   5
45C
 100
AcDbEntity
   8
LEVEL001
 100
AcDbLine
   6
CONTINUOUS
  62
1
  10
 63.056098442722
  20
 94.194347397007
  30
0.0
  11
 62.910500825822
  21
 93.752273901607
  31
0.0
   0
LINE
   5
45D
 100
AcDbEntity
   8
LEVEL001
 100
AcDbLine
   6
CONTINUOUS
  62
1
  10
 62.910500825822
  20
 93.752273901607
  30
0.0
  11
 62.761059235622
  21
 93.404033364207
  31
0.0
   0
LINE
   5
45E
 100
AcDbEntity
   8
LEVEL001
 100
AcDbLine
   6
CONTINUOUS
  62
1
  10
 62.761059235622
  20
 93.404033364207
  30
0.0
  11
 62.608696916222
  21
 93.151777200707
  31
0.0
   0
LINE
   5
45F
 100
AcDbEntity
   8
LEVEL001
 100
AcDbLine
   6
CONTINUOUS
  62
1
  10
 62.608696916222
  20
 93.151777200707
  30
0.0
  11
 62.454355155922
  21
 92.997063839607
  31
0.0
   0
LINE
   5
460
 100
AcDbEntity
   8
LEVEL001
 100
AcDbLine
   6
CONTINUOUS
  62
1
  10
 62.454355155922
  20
 92.997063839607
  30
0.0
  11
 62.298987471622
  21
 92.940849093707
  31
0.0
   0
LINE
   5
461
 100
AcDbEntity
   8
LEVEL001
 100
AcDbLine
   6
CONTINUOUS
  62
1
  10
 64.104527731022
  20
 97.697372156107
  30
0.0
  11
 63.696081599422
  21
 97.697372156107
  31
0.0
   0
LINE
   5
462
 100
AcDbEntity
   8
LEVEL001
 100
AcDbLine
   6
CONTINUOUS
  62
1
  10
 99.910067990422
  20
 92.940849093707
  30
0.0
  11
 99.754700306222
  21
 92.997063839607
  31
0.0
   0
LINE
   5
463
 100
AcDbEntity
   8
LEVEL001
 100
AcDbLine
   6
CONTINUOUS
  62
1
  10
 99.754700306222
  20
 92.997063839607
  30
0.0
  11
 99.600358545822
  21
 93.151777200707
  31
0.0
   0
LINE
   5
464
 100
AcDbEntity
   8
LEVEL001
 100
AcDbLine
   6
CONTINUOUS
  62
1
  10
 99.600358545822
  20
 93.151777200707
  30
0.0
  11
 99.447996226422
  21
 93.404033364207
  31
0.0
   0
LINE
   5
465
 100
AcDbEntity
   8
LEVEL001
 100
AcDbLine
   6
CONTINUOUS
  62
1
  10
 99.447996226422
  20
 93.404033364207
  30
0.0
  11
 99.298554636222
  21
 93.752273901607
  31
0.0
   0
LINE
   5
466
 100
AcDbEntity
   8
LEVEL001
 100
AcDbLine
   6
CONTINUOUS
  62
1
  10
 99.298554636222
  20
 93.752273901607
  30
0.0
  11
 99.152957019422
  21
 94.194347397007
  31
0.0
   0
LINE
   5
467
 100
AcDbEntity
   8
LEVEL001
 100
AcDbLine
   6
CONTINUOUS
  62
1
  10
 99.152957019422
  20
 94.194347397007
  30
0.0
  11
 99.012102872022
  21
 94.727522738307
  31
0.0
   0
LINE
   5
468
 100
AcDbEntity
   8
LEVEL001
 100
AcDbLine
   6
CONTINUOUS
  62
1
  10
 99.012102872022
  20
 94.727522738307
  30
0.0
  11
 98.876862385322
  21
 95.348505989907
  31
0.0
   0
LINE
   5
469
 100
AcDbEntity
   8
LEVEL001
 100
AcDbLine
   6
CONTINUOUS
  62
1
  10
 98.876862385322
  20
 95.348505989907
  30
0.0
  11
 98.748071069522
  21
 96.053460742307
  31
0.0
   0
LINE
   5
46A
 100
AcDbEntity
   8
LEVEL001
 100
AcDbLine
   6
CONTINUOUS
  62
1
  10
 98.748071069522
  20
 96.053460742307
  30
0.0
  11
 98.626524592222
  21
 96.838031813807
  31
0.0
   0
LINE
   5
46B
 100
AcDbEntity
   8
LEVEL001
 100
AcDbLine
   6
CONTINUOUS
  62
1
  10
 98.626524592222
  20
 96.838031813807
  30
0.0
  11
 98.512973862622
  21
 97.697372156107
  31
0.0
   0
LINE
   5
46C
 100
AcDbEntity
   8
LEVEL001
 100
AcDbLine
   6
CONTINUOUS
  62
1
  10
 98.512973862622
  20
 97.697372156107
  30
0.0
  11
 98.104527731022
  21
 97.697372156107
  31
0.0
   0
LINE
   5
46D
 100
AcDbEntity
   8
LEVEL001
 100
AcDbLine
   6
CONTINUOUS
  62
1
  10
 62.702669294522
  20
 97.109263657707
  30
0.0
  11
 62.707098560422
  21
 97.139337161007
  31
0.0
   0
LINE
   5
46E
 100
AcDbEntity
   8
LEVEL001
 100
AcDbLine
   6
CONTINUOUS
  62
1
  10
 62.707098560422
  20
 97.139337161007
  30
0.0
  11
 62.753490899922
  21
 97.277849307607
  31
0.0
   0
LINE
   5
46F
 100
AcDbEntity
   8
LEVEL001
 100
AcDbLine
   6
CONTINUOUS
  62
1
  10
 62.753490899922
  20
 97.277849307607
  30
0.0
  11
 62.839990148122
  21
 97.404312249207
  31
0.0
   0
LINE
   5
470
 100
AcDbEntity
   8
LEVEL001
 100
AcDbLine
   6
CONTINUOUS
  62
1
  10
 62.839990148122
  20
 97.404312249207
  30
0.0
  11
 62.962915791922
  21
 97.513345031307
  31
0.0
   0
LINE
   5
471
 100
AcDbEntity
   8
LEVEL001
 100
AcDbLine
   6
CONTINUOUS
  62
1
  10
 62.962915791922
  20
 97.513345031307
  30
0.0
  11
 63.117037387622
  21
 97.600308346607
  31
0.0
   0
LINE
   5
472
 100
AcDbEntity
   8
LEVEL001
 100
AcDbLine
   6
CONTINUOUS
  62
1
  10
 63.117037387622
  20
 97.600308346607
  30
0.0
  11
 63.295797114622
  21
 97.661501936207
  31
0.0
   0
LINE
   5
473
 100
AcDbEntity
   8
LEVEL001
 100
AcDbLine
   6
CONTINUOUS
  62
1
  10
 63.295797114622
  20
 97.661501936207
  30
0.0
  11
 63.491588808222
  21
 97.694322034007
  31
0.0
   0
LINE
   5
474
 100
AcDbEntity
   8
LEVEL001
 100
AcDbLine
   6
CONTINUOUS
  62
1
  10
 63.491588808222
  20
 97.694322034007
  30
0.0
  11
 63.696081599422
  21
 97.697372156107
  31
0.0
   0
LINE
   5
475
 100
AcDbEntity
   8
LEVEL001
 100
AcDbLine
   6
CONTINUOUS
  62
1
  10
 98.512973862622
  20
 97.697372156107
  30
0.0
  11
 98.717466653822
  21
 97.694322034007
  31
0.0
   0
LINE
   5
476
 100
AcDbEntity
   8
LEVEL001
 100
AcDbLine
   6
CONTINUOUS
  62
1
  10
 98.717466653822
  20
 97.694322034007
  30
0.0
  11
 98.913258347422
  21
 97.661501936207
  31
0.0
   0
LINE
   5
477
 100
AcDbEntity
   8
LEVEL001
 100
AcDbLine
   6
CONTINUOUS
  62
1
  10
 98.913258347422
  20
 97.661501936207
  30
0.0
  11
 99.092018074422
  21
 97.600308346607
  31
0.0
   0
LINE
   5
478
 100
AcDbEntity
   8
LEVEL001
 100
AcDbLine
   6
CONTINUOUS
  62
1
  10
 99.092018074422
  20
 97.600308346607
  30
0.0
  11
 99.246139670122
  21
 97.513345031307
  31
0.0
   0
LINE
   5
479
 100
AcDbEntity
   8
LEVEL001
 100
AcDbLine
   6
CONTINUOUS
  62
1
  10
 99.246139670122
  20
 97.513345031307
  30
0.0
  11
 99.369065314022
  21
 97.404312249207
  31
0.0
   0
LINE
   5
47A
 100
AcDbEntity
   8
LEVEL001
 100
AcDbLine
   6
CONTINUOUS
  62
1
  10
 99.369065314022
  20
 97.404312249207
  30
0.0
  11
 99.455564562222
  21
 97.277849307607
  31
0.0
   0
LINE
   5
47B
 100
AcDbEntity
   8
LEVEL001
 100
AcDbLine
   6
CONTINUOUS
  62
1
  10
 99.455564562222
  20
 97.277849307607
  30
0.0
  11
 99.501956901622
  21
 97.139337161007
  31
0.0
   0
LINE
   5
47C
 100
AcDbEntity
   8
LEVEL001
 100
AcDbLine
   6
CONTINUOUS
  62
1
  10
 99.501956901622
  20
 97.139337161007
  30
0.0
  11
 99.506430539122
  21
 97.108879049507
  31
0.0
   0
ARC
   5
47D
 100
AcDbEntity
   8
LEVEL001
   6
CONTINUOUS
  62
1
 100
AcDbCircle
  10
 65.565739275722
  20
 97.766982435407
  30
0.0
  40
 1.8709530773000
 100
AcDbArc
  50
 158.89685603068
  51
 182.13222661878
   0
ARC
   5
47E
 100
AcDbEntity
   8
LEVEL001
   6
CONTINUOUS
  62
1
 100
AcDbCircle
  10
 97.589132248323
  20
 97.924974171706
  30
0.0
  40
 0.95146518900000
 100
AcDbArc
  50
 346.15995561666
  51
 32.816100687492
   0
DIMENSION
   5
47F
 100
AcDbEntity
   8
LEVEL001
   6
CONTINUOUS
  62
2
 100
AcDbDimension
   2
*D22
  10
 201.83846780208
  20
 146.94061539931
  30
0.0
  11
 201.83846780208
  21
 117.44061522051
  31
0.0
  70
0
   3
GMM001
 100
AcDbAlignedDimension
  13
 164.69899414992
  23
 87.940615041707
  33
0.0
  14
 148.09384732212
  24
 146.94061539931
  34
0.0
  50
 90.000000000000
 100
AcDbRotatedDimension
   0
DIMENSION
   5
480
 100
AcDbEntity
   8
LEVEL001
   6
CONTINUOUS
  62
2
 100
AcDbDimension
   2
*D23
  10
 190.55829103665
  20
 95.940614075207
  30
0.0
  11
 190.55829103665
  21
 91.940614558457
  31
0.0
  70
0
   1
\A1;8
   3
GMM001
 100
AcDbAlignedDimension
  13
 164.69899414992
  23
 87.940615041707
  33
0.0
  14
 177.86143931262
  24
 95.940614075207
  34
0.0
  50
 90.000000000000
 100
AcDbRotatedDimension
   0
LINE
   5
481
 100
AcDbEntity
   8
LEVEL001
 100
AcDbLine
   6
CONTINUOUS
  62
7
  10
 148.36143931262
  20
 88.940615399307
  30
0.0
  11
 148.36143931262
  21
 95.367601237807
  31
0.0
   0
LINE
   5
482
 100
AcDbEntity
   8
LEVEL001
 100
AcDbLine
   6
CONTINUOUS
  62
7
  10
 164.69899273152
  20
 87.940615399307
  30
0.0
  11
 148.59290356452
  21
 87.940615399307
  31
0.0
   0
ARC
   5
483
 100
AcDbEntity
   8
LEVEL001
   6
CONTINUOUS
  62
7
 100
AcDbCircle
  10
 149.31748477902
  20
 88.635117898108
  30
0.0
  40
 1.0036690974000
 100
AcDbArc
  50
 162.27909084703
  51
 223.78574785257
   0
LINE
   5
484
 100
AcDbEntity
   8
LEVEL001
 100
AcDbLine
   6
CONTINUOUS
  62
7
  10
 155.36143931262
  20
 92.940615399307
  30
0.0
  11
 164.69899273152
  21
 92.940615399307
  31
0.0
   0
ARC
   5
485
 100
AcDbEntity
   8
LEVEL001
   6
CONTINUOUS
  62
7
 100
AcDbCircle
  10
 149.56317010252
  20
 94.737252221309
  30
0.0
  40
 1.4770577969000
 100
AcDbArc
  50
 94.823456201066
  51
 134.70260851578
   0
ARC
   5
486
 100
AcDbEntity
   8
LEVEL001
   6
CONTINUOUS
  62
7
 100
AcDbCircle
  10
 155.36143931262
  20
 99.940615399307
  30
0.0
  40
 7.0000000000000
 100
AcDbArc
  50
 212.21356643640
  51
 270.00000000000
   0
ARC
   5
487
 100
AcDbEntity
   8
LEVEL001
   6
CONTINUOUS
  62
7
 100
AcDbCircle
  10
 148.78933012242
  20
 95.442926375505
  30
0.0
  40
 0.43447027690000
 100
AcDbArc
  50
 127.61206999963
  51
 189.98395346525
   0
LINE
   5
488
 100
AcDbEntity
   8
LEVEL001
 100
AcDbLine
   6
CONTINUOUS
  62
7
  10
 164.79546794282
  20
 87.940837006807
  30
0.0
  11
 164.69899273152
  21
 87.940615399307
  31
0.0
   0
LINE
   5
489
 100
AcDbEntity
   8
LEVEL001
 100
AcDbLine
   6
CONTINUOUS
  62
7
  10
 164.69899273152
  20
 92.940615399307
  30
0.0
  11
 164.78546911142
  21
 92.940849093707
  31
0.0
   0
ARC
   5
48A
 100
AcDbEntity
   8
LEVEL001
   6
CONTINUOUS
  62
7
 100
AcDbCircle
  10
 164.69899273152
  20
 108.94061539931
  30
0.0
  40
 16.000000000000
 100
AcDbArc
  50
 270.30967223240
  51
 315.35575357430
   0
ARC
   5
48B
 100
AcDbEntity
   8
LEVEL001
   6
CONTINUOUS
  62
7
 100
AcDbCircle
  10
 164.69899273152
  20
 108.94061539931
  30
0.0
  40
 21.000000000000
 100
AcDbArc
  50
 270.26322104190
  51
 315.35575357430
   0
ARC
   5
48C
 100
AcDbEntity
   8
LEVEL001
   6
CONTINUOUS
  62
7
 100
AcDbCircle
  10
 177.86143931262
  20
 95.940615399307
  30
0.0
  40
 2.5000000000000
 100
AcDbArc
  50
 315.35575357430
  51
 135.35575357430
   0
ARC
   5
48D
 100
AcDbEntity
   8
LEVEL001
   6
CONTINUOUS
  62
7
 100
AcDbCircle
  10
 155.36143931262
  20
 99.940615399308
  30
0.0
  40
 7.0000000000000
 100
AcDbArc
  50
 180.00000000000
  51
 212.21356643640
   0
LINE
   5
48E
 100
AcDbEntity
   8
LEVEL001
 100
AcDbLine
   6
CONTINUOUS
  62
7
  10
 148.36143931262
  20
 115.78922758041
  30
0.0
  11
 148.36143931262
  21
 99.940615399307
  31
0.0
   0
LINE
   5
48F
 100
AcDbEntity
   8
LEVEL001
 100
AcDbLine
   6
CONTINUOUS
  62
7
  10
 146.36143931262
  20
 120.30310576911
  30
0.0
  11
 146.36143931262
  21
 142.44061539931
  31
0.0
   0
LINE
   5
490
 100
AcDbEntity
   8
LEVEL001
 100
AcDbLine
   6
CONTINUOUS
  62
7
  10
 144.44541416542
  20
 117.27768022951
  30
0.0
  11
 146.27746445982
  21
 120.02575567101
  31
0.0
   0
ARC
   5
491
 100
AcDbEntity
   8
LEVEL001
   6
CONTINUOUS
  62
7
 100
AcDbCircle
  10
 145.86143931262
  20
 120.30310576911
  30
0.0
  40
 0.50000000000000
 100
AcDbArc
  50
 326.30993247417
  51
 0.20355549961367E-9
   0
LINE
   5
492
 100
AcDbEntity
   8
LEVEL001
 100
AcDbLine
   6
CONTINUOUS
  62
7
  10
 144.36143931262
  20
 89.940615399307
  30
0.0
  11
 144.36143931262
  21
 117.00033013141
  31
0.0
   0
ARC
   5
493
 100
AcDbEntity
   8
LEVEL001
   6
CONTINUOUS
  62
7
 100
AcDbCircle
  10
 146.36143931262
  20
 89.940615399307
  30
0.0
  40
 2.0000000000000
 100
AcDbArc
  50
 180.00000000000
  51
 270.00000000000
   0
LINE
   5
494
 100
AcDbEntity
   8
LEVEL001
 100
AcDbLine
   6
CONTINUOUS
  62
7
  10
 150.36143931262
  20
 143.78922758041
  30
0.0
  11
 150.36143931262
  21
 119.09200321821
  31
0.0
   0
LINE
   5
495
 100
AcDbEntity
   8
LEVEL001
 100
AcDbLine
   6
CONTINUOUS
  62
7
  10
 145.86143931262
  20
 142.94061539931
  30
0.0
  11
 139.86143931262
  21
 142.94061539931
  31
0.0
   0
ARC
   5
496
 100
AcDbEntity
   8
LEVEL001
   6
CONTINUOUS
  62
7
 100
AcDbCircle
  10
 145.86143931262
  20
 142.44061539931
  30
0.0
  40
 0.50000000000000
 100
AcDbArc
  50
0.0
  51
 90.000000000072
   0
LINE
   5
497
 100
AcDbEntity
   8
LEVEL001
 100
AcDbLine
   6
CONTINUOUS
  62
7
  10
 150.27746445982
  20
 118.81465312011
  30
0.0
  11
 148.44541416542
  21
 116.06657767861
  31
0.0
   0
ARC
   5
498
 100
AcDbEntity
   8
LEVEL001
   6
CONTINUOUS
  62
7
 100
AcDbCircle
  10
 148.09384743332
  20
 146.44061539931
  30
0.0
  40
 0.50000000000000
 100
AcDbArc
  50
 33.690067525825
  51
 89.999999999684
   0
ARC
   5
499
 100
AcDbEntity
   8
LEVEL001
   6
CONTINUOUS
  62
7
 100
AcDbCircle
  10
 149.86143931262
  20
 119.09200321821
  30
0.0
  40
 0.50000000000000
 100
AcDbArc
  50
 326.30993247407
  51
 0.78165311851647E-10
   0
LINE
   5
49A
 100
AcDbEntity
   8
LEVEL001
 100
AcDbLine
   6
CONTINUOUS
  62
7
  10
 148.50987258052
  20
 146.71796549741
  30
0.0
  11
 150.27746445982
  21
 144.06657767861
  31
0.0
   0
LINE
   5
49B
 100
AcDbEntity
   8
LEVEL001
 100
AcDbLine
   6
CONTINUOUS
  62
7
  10
 137.86143931262
  20
 146.94061539931
  30
0.0
  11
 148.09384743332
  21
 146.94061539931
  31
0.0
   0
ARC
   5
49C
 100
AcDbEntity
   8
LEVEL001
   6
CONTINUOUS
  62
7
 100
AcDbCircle
  10
 149.86143931262
  20
 143.78922758041
  30
0.0
  40
 0.50000000000000
 100
AcDbArc
  50
 0.22472527157410E-9
  51
 33.690067526271
   0
LINE
   5
49D
 100
AcDbEntity
   8
LEVEL001
 100
AcDbLine
   6
CONTINUOUS
  62
7
  10
 148.59290356452
  20
 87.940615399307
  30
0.0
  11
 146.36143931262
  21
 87.940615399307
  31
0.0
   0
ARC
   5
49E
 100
AcDbEntity
   8
LEVEL001
   6
CONTINUOUS
  62
7
 100
AcDbCircle
  10
 144.86143931262
  20
 117.00033013140
  30
0.0
  40
 0.50000000000000
 100
AcDbArc
  50
 146.30993247370
  51
 179.99999999964
   0
ARC
   5
49F
 100
AcDbEntity
   8
LEVEL001
   6
CONTINUOUS
  62
7
 100
AcDbCircle
  10
 148.86143931262
  20
 115.78922758040
  30
0.0
  40
 0.50000000000000
 100
AcDbArc
  50
 146.30993247357
  51
 179.99999999949
   0
ARC
   5
4A0
 100
AcDbEntity
   8
LEVEL001
   6
CONTINUOUS
  62
7
 100
AcDbCircle
  10
 137.86143931262
  20
 144.44061539931
  30
0.0
  40
 2.5000000000000
 100
AcDbArc
  50
 90.000000000000
  51
 180.00000000000
   0
ARC
   5
4A1
 100
AcDbEntity
   8
LEVEL001
   6
CONTINUOUS
  62
7
 100
AcDbCircle
  10
 137.86143931262
  20
 134.44061539931
  30
0.0
  40
 2.5000000000000
 100
AcDbArc
  50
 180.00000000000
  51
 269.99999999999
   0
ARC
   5
4A2
 100
AcDbEntity
   8
LEVEL001
   6
CONTINUOUS
  62
7
 100
AcDbCircle
  10
 139.86143931262
  20
 142.44061539931
  30
0.0
  40
 0.50000000000000
 100
AcDbArc
  50
 90.000000000000
  51
 180.00000000015
   0
LINE
   5
4A3
 100
AcDbEntity
   8
LEVEL001
 100
AcDbLine
   6
CONTINUOUS
  62
7
  10
 135.36143931262
  20
 134.44061539931
  30
0.0
  11
 135.36143931262
  21
 144.44061539931
  31
0.0
   0
LINE
   5
4A4
 100
AcDbEntity
   8
LEVEL001
 100
AcDbLine
   6
CONTINUOUS
  62
7
  10
 138.86143931262
  20
 131.94061539931
  30
0.0
  11
 137.86143931262
  21
 131.94061539931
  31
0.0
   0
LINE
   5
4A5
 100
AcDbEntity
   8
LEVEL001
 100
AcDbLine
   6
CONTINUOUS
  62
7
  10
 139.36143931262
  20
 142.44061539931
  30
0.0
  11
 139.36143931262
  21
 132.44061539931
  31
0.0
   0
ARC
   5
4A6
 100
AcDbEntity
   8
LEVEL001
   6
CONTINUOUS
  62
7
 100
AcDbCircle
  10
 138.86143931262
  20
 132.44061539931
  30
0.0
  40
 0.50000000000000
 100
AcDbArc
  50
 270.00000000000
  51
0.0
   0
LINE
   5
4A7
 100
AcDbEntity
   8
LEVEL001
 100
AcDbLine
   6
CONTINUOUS
  62
1
  10
 164.81143606212
  20
 88.940615399307
  30
0.0
  11
 164.90648553142
  21
 88.940826454107
  31
0.0
   0
LINE
   5
4A8
 100
AcDbEntity
   8
LEVEL001
 100
AcDbLine
   6
CONTINUOUS
  62
1
  10
 148.36143931262
  20
 88.940615399307
  30
0.0
  11
 164.81143606212
  21
 88.940615399307
  31
0.0
   0
ARC
   5
4A9
 100
AcDbEntity
   8
LEVEL001
   6
CONTINUOUS
  62
1
 100
AcDbCircle
  10
 155.11340811782
  20
 100.30537614111
  30
0.0
  40
 8.3648492958000
 100
AcDbArc
  50
 216.17833703240
  51
 270.26364109470
   0
LINE
   5
4AA
 100
AcDbEntity
   8
LEVEL001
 100
AcDbLine
   6
CONTINUOUS
  62
1
  10
 164.81143606212
  20
 91.940615399307
  30
0.0
  11
 155.15189804262
  21
 91.940615399307
  31
0.0
   0
LINE
   5
4AB
 100
AcDbEntity
   8
LEVEL001
 100
AcDbLine
   6
CONTINUOUS
  62
1
  10
 164.90648553142
  20
 91.940863699507
  30
0.0
  11
 164.81143606212
  21
 91.940615399307
  31
0.0
   0
LINE
   5
4AC
 100
AcDbEntity
   8
LEVEL001
 100
AcDbLine
   6
CONTINUOUS
  62
1
  10
 164.90648553142
  20
 88.940826454107
  30
0.0
  11
 164.90648553142
  21
 91.940863699507
  31
0.0
   0
LINE
   5
4AD
 100
AcDbEntity
   8
LEVEL001
 100
AcDbLine
   6
CONTINUOUS
  62
1
  10
 164.69899273152
  20
 87.940615399307
  30
0.0
  11
 164.72092933712
  21
 87.959830118907
  31
0.0
   0
LINE
   5
4AE
 100
AcDbEntity
   8
LEVEL001
 100
AcDbLine
   6
CONTINUOUS
  62
1
  10
 164.72092933712
  20
 87.959830118907
  30
0.0
  11
 164.74202293122
  21
 88.016735866807
  31
0.0
   0
LINE
   5
4AF
 100
AcDbEntity
   8
LEVEL001
 100
AcDbLine
   6
CONTINUOUS
  62
1
  10
 164.74202293122
  20
 88.016735866807
  30
0.0
  11
 164.76146289892
  21
 88.109145787007
  31
0.0
   0
LINE
   5
4B0
 100
AcDbEntity
   8
LEVEL001
 100
AcDbLine
   6
CONTINUOUS
  62
1
  10
 164.76146289892
  20
 88.109145787007
  30
0.0
  11
 164.77850217312
  21
 88.233508618107
  31
0.0
   0
LINE
   5
4B1
 100
AcDbEntity
   8
LEVEL001
 100
AcDbLine
   6
CONTINUOUS
  62
1
  10
 164.77850217312
  20
 88.233508618107
  30
0.0
  11
 164.79248594402
  21
 88.385045166307
  31
0.0
   0
LINE
   5
4B2
 100
AcDbEntity
   8
LEVEL001
 100
AcDbLine
   6
CONTINUOUS
  62
1
  10
 164.79248594402
  20
 88.385045166307
  30
0.0
  11
 164.80287682322
  21
 88.557931966907
  31
0.0
   0
LINE
   5
4B3
 100
AcDbEntity
   8
LEVEL001
 100
AcDbLine
   6
CONTINUOUS
  62
1
  10
 164.80287682322
  20
 88.557931966907
  30
0.0
  11
 164.80927549512
  21
 88.745525077307
  31
0.0
   0
LINE
   5
4B4
 100
AcDbEntity
   8
LEVEL001
 100
AcDbLine
   6
CONTINUOUS
  62
1
  10
 164.80927549512
  20
 88.745525077307
  30
0.0
  11
 164.81143606212
  21
 88.940615399307
  31
0.0
   0
LINE
   5
4B5
 100
AcDbEntity
   8
LEVEL001
 100
AcDbLine
   6
CONTINUOUS
  62
1
  10
 164.69899273152
  20
 92.940615399307
  30
0.0
  11
 164.72092933712
  21
 92.921400679707
  31
0.0
   0
LINE
   5
4B6
 100
AcDbEntity
   8
LEVEL001
 100
AcDbLine
   6
CONTINUOUS
  62
1
  10
 164.72092933712
  20
 92.921400679707
  30
0.0
  11
 164.74202293122
  21
 92.864494931807
  31
0.0
   0
LINE
   5
4B7
 100
AcDbEntity
   8
LEVEL001
 100
AcDbLine
   6
CONTINUOUS
  62
1
  10
 164.74202293122
  20
 92.864494931807
  30
0.0
  11
 164.76146289892
  21
 92.772085011607
  31
0.0
   0
LINE
   5
4B8
 100
AcDbEntity
   8
LEVEL001
 100
AcDbLine
   6
CONTINUOUS
  62
1
  10
 164.76146289892
  20
 92.772085011607
  30
0.0
  11
 164.77850217312
  21
 92.647722180507
  31
0.0
   0
LINE
   5
4B9
 100
AcDbEntity
   8
LEVEL001
 100
AcDbLine
   6
CONTINUOUS
  62
1
  10
 164.77850217312
  20
 92.647722180507
  30
0.0
  11
 164.79248594402
  21
 92.496185632307
  31
0.0
   0
LINE
   5
4BA
 100
AcDbEntity
   8
LEVEL001
 100
AcDbLine
   6
CONTINUOUS
  62
1
  10
 164.79248594402
  20
 92.496185632307
  30
0.0
  11
 164.80287682322
  21
 92.323298831707
  31
0.0
   0
LINE
   5
4BB
 100
AcDbEntity
   8
LEVEL001
 100
AcDbLine
   6
CONTINUOUS
  62
1
  10
 164.80287682322
  20
 92.323298831707
  30
0.0
  11
 164.80927549512
  21
 92.135705721307
  31
0.0
   0
LINE
   5
4BC
 100
AcDbEntity
   8
LEVEL001
 100
AcDbLine
   6
CONTINUOUS
  62
1
  10
 164.80927549512
  20
 92.135705721307
  30
0.0
  11
 164.81143606212
  21
 91.940615399307
  31
0.0
   0
LINE
   5
4BD
 100
AcDbEntity
   8
LEVEL001
 100
AcDbLine
   6
CONTINUOUS
  62
1
  10
 155.36143931262
  20
 92.940615399307
  30
0.0
  11
 155.32055983872
  21
 92.921400679707
  31
0.0
   0
LINE
   5
4BE
 100
AcDbEntity
   8
LEVEL001
 100
AcDbLine
   6
CONTINUOUS
  62
1
  10
 155.32055983872
  20
 92.921400679707
  30
0.0
  11
 155.28125134012
  21
 92.864494931807
  31
0.0
   0
LINE
   5
4BF
 100
AcDbEntity
   8
LEVEL001
 100
AcDbLine
   6
CONTINUOUS
  62
1
  10
 155.28125134012
  20
 92.864494931807
  30
0.0
  11
 155.24502442042
  21
 92.772085011607
  31
0.0
   0
LINE
   5
4C0
 100
AcDbEntity
   8
LEVEL001
 100
AcDbLine
   6
CONTINUOUS
  62
1
  10
 155.24502442042
  20
 92.772085011607
  30
0.0
  11
 155.21327125962
  21
 92.647722180507
  31
0.0
   0
LINE
   5
4C1
 100
AcDbEntity
   8
LEVEL001
 100
AcDbLine
   6
CONTINUOUS
  62
1
  10
 155.21327125962
  20
 92.647722180507
  30
0.0
  11
 155.18721211402
  21
 92.496185632307
  31
0.0
   0
LINE
   5
4C2
 100
AcDbEntity
   8
LEVEL001
 100
AcDbLine
   6
CONTINUOUS
  62
1
  10
 155.18721211402
  20
 92.496185632307
  30
0.0
  11
 155.16784842202
  21
 92.323298831707
  31
0.0
   0
LINE
   5
4C3
 100
AcDbEntity
   8
LEVEL001
 100
AcDbLine
   6
CONTINUOUS
  62
1
  10
 155.16784842202
  20
 92.323298831707
  30
0.0
  11
 155.15592431932
  21
 92.135705721307
  31
0.0
   0
LINE
   5
4C4
 100
AcDbEntity
   8
LEVEL001
 100
AcDbLine
   6
CONTINUOUS
  62
1
  10
 155.15592431932
  20
 92.135705721307
  30
0.0
  11
 155.15189804262
  21
 91.940615399307
  31
0.0
   0
LINE
   5
4C5
 100
AcDbEntity
   8
LEVEL001
 100
AcDbLine
   6
CONTINUOUS
  62
1
  10
 164.79546794282
  20
 87.940837006807
  30
0.0
  11
 164.81792644132
  21
 87.960142155707
  31
0.0
   0
LINE
   5
4C6
 100
AcDbEntity
   8
LEVEL001
 100
AcDbLine
   6
CONTINUOUS
  62
1
  10
 164.81792644132
  20
 87.960142155707
  30
0.0
  11
 164.83934602582
  21
 88.017109052407
  31
0.0
   0
LINE
   5
4C7
 100
AcDbEntity
   8
LEVEL001
 100
AcDbLine
   6
CONTINUOUS
  62
1
  10
 164.83934602582
  20
 88.017109052407
  30
0.0
  11
 164.85890410862
  21
 88.109549966507
  31
0.0
   0
LINE
   5
4C8
 100
AcDbEntity
   8
LEVEL001
 100
AcDbLine
   6
CONTINUOUS
  62
1
  10
 164.85890410862
  20
 88.109549966507
  30
0.0
  11
 164.87584959012
  21
 88.233914839707
  31
0.0
   0
LINE
   5
4C9
 100
AcDbEntity
   8
LEVEL001
 100
AcDbLine
   6
CONTINUOUS
  62
1
  10
 164.87584959012
  20
 88.233914839707
  30
0.0
  11
 164.88953170382
  21
 88.385427620607
  31
0.0
   0
LINE
   5
4CA
 100
AcDbEntity
   8
LEVEL001
 100
AcDbLine
   6
CONTINUOUS
  62
1
  10
 164.88953170382
  20
 88.385427620607
  30
0.0
  11
 164.89942500802
  21
 88.558269682407
  31
0.0
   0
LINE
   5
4CB
 100
AcDbEntity
   8
LEVEL001
 100
AcDbLine
   6
CONTINUOUS
  62
1
  10
 164.89942500802
  20
 88.558269682407
  30
0.0
  11
 164.90514956502
  21
 88.745803278207
  31
0.0
   0
LINE
   5
4CC
 100
AcDbEntity
   8
LEVEL001
 100
AcDbLine
   6
CONTINUOUS
  62
1
  10
 164.90514956502
  20
 88.745803278207
  30
0.0
  11
 164.90648553142
  21
 88.940826454107
  31
0.0
   0
LINE
   5
4CD
 100
AcDbEntity
   8
LEVEL001
 100
AcDbLine
   6
CONTINUOUS
  62
1
  10
 164.78546911142
  20
 92.940849093707
  30
0.0
  11
 164.80813596002
  21
 92.921741363307
  31
0.0
   0
LINE
   5
4CE
 100
AcDbEntity
   8
LEVEL001
 100
AcDbLine
   6
CONTINUOUS
  62
1
  10
 164.80813596002
  20
 92.921741363307
  30
0.0
  11
 164.83013891072
  21
 92.864909155507
  31
0.0
   0
LINE
   5
4CF
 100
AcDbEntity
   8
LEVEL001
 100
AcDbLine
   6
CONTINUOUS
  62
1
  10
 164.83013891072
  20
 92.864909155507
  30
0.0
  11
 164.85063173152
  21
 92.772538232507
  31
0.0
   0
LINE
   5
4D0
 100
AcDbEntity
   8
LEVEL001
 100
AcDbLine
   6
CONTINUOUS
  62
1
  10
 164.85063173152
  20
 92.772538232507
  30
0.0
  11
 164.86882627032
  21
 92.648181172707
  31
0.0
   0
LINE
   5
4D1
 100
AcDbEntity
   8
LEVEL001
 100
AcDbLine
   6
CONTINUOUS
  62
1
  10
 164.86882627032
  20
 92.648181172707
  30
0.0
  11
 164.88402276652
  21
 92.496620738807
  31
0.0
   0
LINE
   5
4D2
 100
AcDbEntity
   8
LEVEL001
 100
AcDbLine
   6
CONTINUOUS
  62
1
  10
 164.88402276652
  20
 92.496620738807
  30
0.0
  11
 164.89563676412
  21
 92.323685933107
  31
0.0
   0
LINE
   5
4D3
 100
AcDbEntity
   8
LEVEL001
 100
AcDbLine
   6
CONTINUOUS
  62
1
  10
 164.89563676412
  20
 92.323685933107
  30
0.0
  11
 164.90322158972
  21
 92.136027814507
  31
0.0
   0
LINE
   5
4D4
 100
AcDbEntity
   8
LEVEL001
 100
AcDbLine
   6
CONTINUOUS
  62
1
  10
 164.90322158972
  20
 92.136027814507
  30
0.0
  11
 164.90648553142
  21
 91.940863699507
  31
0.0
   0
LINE
   5
4D5
 100
AcDbEntity
   8
LEVEL001
 100
AcDbLine
   6
CONTINUOUS
  62
1
  10
 176.08273031512
  20
 97.697372156107
  30
0.0
  11
 176.10961989962
  21
 97.694322034007
  31
0.0
   0
LINE
   5
4D6
 100
AcDbEntity
   8
LEVEL001
 100
AcDbLine
   6
CONTINUOUS
  62
1
  10
 176.10961989962
  20
 97.694322034007
  30
0.0
  11
 176.16563872292
  21
 97.661501936207
  31
0.0
   0
LINE
   5
4D7
 100
AcDbEntity
   8
LEVEL001
 100
AcDbLine
   6
CONTINUOUS
  62
1
  10
 176.16563872292
  20
 97.661501936207
  30
0.0
  11
 176.24840320362
  21
 97.600308346607
  31
0.0
   0
LINE
   5
4D8
 100
AcDbEntity
   8
LEVEL001
 100
AcDbLine
   6
CONTINUOUS
  62
1
  10
 176.24840320362
  20
 97.600308346607
  30
0.0
  11
 176.35439174152
  21
 97.513345031307
  31
0.0
   0
LINE
   5
4D9
 100
AcDbEntity
   8
LEVEL001
 100
AcDbLine
   6
CONTINUOUS
  62
1
  10
 176.35439174152
  20
 97.513345031307
  30
0.0
  11
 176.47909456092
  21
 97.404312249207
  31
0.0
   0
LINE
   5
4DA
 100
AcDbEntity
   8
LEVEL001
 100
AcDbLine
   6
CONTINUOUS
  62
1
  10
 176.47909456092
  20
 97.404312249207
  30
0.0
  11
 176.61720560012
  21
 97.277849307607
  31
0.0
   0
LINE
   5
4DB
 100
AcDbEntity
   8
LEVEL001
 100
AcDbLine
   6
CONTINUOUS
  62
1
  10
 176.61720560012
  20
 97.277849307607
  30
0.0
  11
 176.76284828182
  21
 97.139337161007
  31
0.0
   0
LINE
   5
4DC
 100
AcDbEntity
   8
LEVEL001
 100
AcDbLine
   6
CONTINUOUS
  62
1
  10
 176.76284828182
  20
 97.139337161007
  30
0.0
  11
 176.90982556042
  21
 96.994669453407
  31
0.0
   0
ARC
   5
4DD
 100
AcDbEntity
   8
LEVEL001
   6
CONTINUOUS
  62
1
 100
AcDbCircle
  10
 164.81460437782
  20
 108.94061539931
  30
0.0
  40
 17.000000000000
 100
AcDbArc
  50
 270.30967223240
  51
 315.35575357430
   0
ARC
   5
4DE
 100
AcDbEntity
   8
LEVEL001
   6
CONTINUOUS
  62
1
 100
AcDbCircle
  10
 177.97705095892
  20
 95.940615399307
  30
0.0
  40
 1.5000000000000
 100
AcDbArc
  50
 315.35575357430
  51
 135.35575357430
   0
ARC
   5
4DF
 100
AcDbEntity
   8
LEVEL001
   6
CONTINUOUS
  62
1
 100
AcDbCircle
  10
 164.81460437782
  20
 108.94061539931
  30
0.0
  40
 20.000000000000
 100
AcDbArc
  50
 270.26322104190
  51
 315.35575357430
   0
LINE
   5
4E0
 100
AcDbEntity
   8
LEVEL001
 100
AcDbLine
   6
CONTINUOUS
  62
1
  10
 179.64014831002
  20
 94.183858642607
  30
0.0
  11
 179.63846544152
  21
 94.206714965507
  31
0.0
   0
LINE
   5
4E1
 100
AcDbEntity
   8
LEVEL001
 100
AcDbLine
   6
CONTINUOUS
  62
1
  10
 179.63846544152
  20
 94.206714965507
  30
0.0
  11
 179.61228233402
  21
 94.253037591207
  31
0.0
   0
LINE
   5
4E2
 100
AcDbEntity
   8
LEVEL001
 100
AcDbLine
   6
CONTINUOUS
  62
1
  10
 179.61228233402
  20
 94.253037591207
  30
0.0
  11
 179.56250275142
  21
 94.321227598507
  31
0.0
   0
LINE
   5
4E3
 100
AcDbEntity
   8
LEVEL001
 100
AcDbLine
   6
CONTINUOUS
  62
1
  10
 179.56250275142
  20
 94.321227598507
  30
0.0
  11
 179.49084493912
  21
 94.408931268307
  31
0.0
   0
LINE
   5
4E4
 100
AcDbEntity
   8
LEVEL001
 100
AcDbLine
   6
CONTINUOUS
  62
1
  10
 179.49084493912
  20
 94.408931268307
  30
0.0
  11
 179.39978231442
  21
 94.513121327207
  31
0.0
   0
LINE
   5
4E5
 100
AcDbEntity
   8
LEVEL001
 100
AcDbLine
   6
CONTINUOUS
  62
1
  10
 179.39978231442
  20
 94.513121327207
  30
0.0
  11
 179.29245809212
  21
 94.630201440107
  31
0.0
   0
LINE
   5
4E6
 100
AcDbEntity
   8
LEVEL001
 100
AcDbLine
   6
CONTINUOUS
  62
1
  10
 179.29245809212
  20
 94.630201440107
  30
0.0
  11
 179.17257678942
  21
 94.756130344907
  31
0.0
   0
LINE
   5
4E7
 100
AcDbEntity
   8
LEVEL001
 100
AcDbLine
   6
CONTINUOUS
  62
1
  10
 179.17257678942
  20
 94.756130344907
  30
0.0
  11
 179.04427635732
  21
 94.886561345307
  31
0.0
   0
LINE
   5
4E8
 100
AcDbEntity
   8
LEVEL001
 100
AcDbLine
   6
CONTINUOUS
  62
1
  10
 148.36143931262
  20
 99.940615399307
  30
0.0
  11
 147.36143931262
  21
 99.940615399307
  31
0.0
   0
ARC
   5
4E9
 100
AcDbEntity
   8
LEVEL001
   6
CONTINUOUS
  62
1
 100
AcDbCircle
  10
 155.36143931262
  20
 99.940615399307
  30
0.0
  40
 8.0000000000000
 100
AcDbArc
  50
 180.00000000000
  51
 211.27792202730
   0
LINE
   5
4EA
 100
AcDbEntity
   8
LEVEL001
 100
AcDbLine
   6
CONTINUOUS
  62
1
  10
 147.36143931262
  20
 99.940615399307
  30
0.0
  11
 147.36143931262
  21
 115.78922758041
  31
0.0
   0
LINE
   5
4EB
 100
AcDbEntity
   8
LEVEL001
 100
AcDbLine
   6
CONTINUOUS
  62
1
  10
 148.36143931262
  20
 115.78922758041
  30
0.0
  11
 147.36143931262
  21
 115.78922758041
  31
0.0
   0
LINE
   5
4EC
 100
AcDbEntity
   8
LEVEL001
 100
AcDbLine
   6
CONTINUOUS
  62
1
  10
 147.36143931262
  20
 142.44061539931
  30
0.0
  11
 147.36143931262
  21
 120.30310576911
  31
0.0
   0
LINE
   5
4ED
 100
AcDbEntity
   8
LEVEL001
 100
AcDbLine
   6
CONTINUOUS
  62
1
  10
 147.36143931262
  20
 120.30310576911
  30
0.0
  11
 146.36143931262
  21
 120.30310576911
  31
0.0
   0
LINE
   5
4EE
 100
AcDbEntity
   8
LEVEL001
 100
AcDbLine
   6
CONTINUOUS
  62
1
  10
 147.36143931262
  20
 142.44061539931
  30
0.0
  11
 146.36143931262
  21
 142.44061539931
  31
0.0
   0
LINE
   5
4EF
 100
AcDbEntity
   8
LEVEL001
 100
AcDbLine
   6
CONTINUOUS
  62
1
  10
 147.10951475412
  20
 119.47105547481
  30
0.0
  11
 145.36143931262
  21
 116.84894231251
  31
0.0
   0
LINE
   5
4F0
 100
AcDbEntity
   8
LEVEL001
 100
AcDbLine
   6
CONTINUOUS
  62
1
  10
 145.36143931262
  20
 116.84894231251
  30
0.0
  11
 144.44541416542
  21
 117.27768022951
  31
0.0
   0
LINE
   5
4F1
 100
AcDbEntity
   8
LEVEL001
 100
AcDbLine
   6
CONTINUOUS
  62
1
  10
 147.10951475412
  20
 119.47105547481
  30
0.0
  11
 146.27746445982
  21
 120.02575567101
  31
0.0
   0
ARC
   5
4F2
 100
AcDbEntity
   8
LEVEL001
   6
CONTINUOUS
  62
1
 100
AcDbCircle
  10
 145.86143931262
  20
 120.30310576911
  30
0.0
  40
 1.5000000000000
 100
AcDbArc
  50
 326.30993247403
  51
 0.32568879938186E-10
   0
LINE
   5
4F3
 100
AcDbEntity
   8
LEVEL001
 100
AcDbLine
   6
CONTINUOUS
  62
1
  10
 145.36143931262
  20
 116.84894231251
  30
0.0
  11
 145.36143931262
  21
 89.940615399307
  31
0.0
   0
LINE
   5
4F4
 100
AcDbEntity
   8
LEVEL001
 100
AcDbLine
   6
CONTINUOUS
  62
1
  10
 145.36143931262
  20
 89.940615399307
  30
0.0
  11
 144.36143931262
  21
 89.940615399307
  31
0.0
   0
LINE
   5
4F5
 100
AcDbEntity
   8
LEVEL001
 100
AcDbLine
   6
CONTINUOUS
  62
1
  10
 145.36143931262
  20
 116.84894231251
  30
0.0
  11
 144.36143931262
  21
 117.00033013141
  31
0.0
   0
ARC
   5
4F6
 100
AcDbEntity
   8
LEVEL001
   6
CONTINUOUS
  62
1
 100
AcDbCircle
  10
 146.36143931262
  20
 89.940615399307
  30
0.0
  40
 1.0000000000000
 100
AcDbArc
  50
 180.00000000000
  51
 269.99999999997
   0
LINE
   5
4F7
 100
AcDbEntity
   8
LEVEL001
 100
AcDbLine
   6
CONTINUOUS
  62
1
  10
 146.36143931262
  20
 88.940615399307
  30
0.0
  11
 146.36143931262
  21
 87.940615399307
  31
0.0
   0
LINE
   5
4F8
 100
AcDbEntity
   8
LEVEL001
 100
AcDbLine
   6
CONTINUOUS
  62
1
  10
 150.36143931262
  20
 119.09200321821
  30
0.0
  11
 149.36143931262
  21
 119.24339103701
  31
0.0
   0
LINE
   5
4F9
 100
AcDbEntity
   8
LEVEL001
 100
AcDbLine
   6
CONTINUOUS
  62
1
  10
 149.36143931262
  20
 119.24339103701
  30
0.0
  11
 149.36143931262
  21
 143.63783976161
  31
0.0
   0
LINE
   5
4FA
 100
AcDbEntity
   8
LEVEL001
 100
AcDbLine
   6
CONTINUOUS
  62
1
  10
 150.36143931262
  20
 143.78922758041
  30
0.0
  11
 149.36143931262
  21
 143.63783976161
  31
0.0
   0
LINE
   5
4FB
 100
AcDbEntity
   8
LEVEL001
 100
AcDbLine
   6
CONTINUOUS
  62
1
  10
 146.36143931262
  20
 88.940615399307
  30
0.0
  11
 148.36143931262
  21
 88.940615399307
  31
0.0
   0
ARC
   5
4FC
 100
AcDbEntity
   8
LEVEL001
   6
CONTINUOUS
  62
1
 100
AcDbCircle
  10
 145.86143931262
  20
 142.44061539931
  30
0.0
  40
 1.5000000000000
 100
AcDbArc
  50
0.0
  51
 89.999999999976
   0
LINE
   5
4FD
 100
AcDbEntity
   8
LEVEL001
 100
AcDbLine
   6
CONTINUOUS
  62
1
  10
 139.86143931262
  20
 143.94061539931
  30
0.0
  11
 145.86143931262
  21
 143.94061539931
  31
0.0
   0
ARC
   5
4FE
 100
AcDbEntity
   8
LEVEL001
   6
CONTINUOUS
  62
1
 100
AcDbCircle
  10
 139.86143931262
  20
 142.44061539931
  30
0.0
  40
 1.5000000000000
 100
AcDbArc
  50
 90.000000000000
  51
 180.00000000000
   0
LINE
   5
4FF
 100
AcDbEntity
   8
LEVEL001
 100
AcDbLine
   6
CONTINUOUS
  62
1
  10
 138.36143931262
  20
 132.94061539931
  30
0.0
  11
 138.36143931262
  21
 142.44061539931
  31
0.0
   0
LINE
   5
500
 100
AcDbEntity
   8
LEVEL001
 100
AcDbLine
   6
CONTINUOUS
  62
1
  10
 137.86143931262
  20
 132.94061539931
  30
0.0
  11
 138.36143931262
  21
 132.94061539931
  31
0.0
   0
ARC
   5
501
 100
AcDbEntity
   8
LEVEL001
   6
CONTINUOUS
  62
1
 100
AcDbCircle
  10
 137.86143931262
  20
 134.44061539931
  30
0.0
  40
 1.5000000000000
 100
AcDbArc
  50
 180.00000000000
  51
 270.00000000002
   0
LINE
   5
502
 100
AcDbEntity
   8
LEVEL001
 100
AcDbLine
   6
CONTINUOUS
  62
1
  10
 136.36143931262
  20
 144.44061539931
  30
0.0
  11
 136.36143931262
  21
 134.44061539931
  31
0.0
   0
ARC
   5
503
 100
AcDbEntity
   8
LEVEL001
   6
CONTINUOUS
  62
1
 100
AcDbCircle
  10
 137.86143931262
  20
 144.44061539931
  30
0.0
  40
 1.5000000000000
 100
AcDbArc
  50
 90.000000000000
  51
 180.00000000000
   0
LINE
   5
504
 100
AcDbEntity
   8
LEVEL001
 100
AcDbLine
   6
CONTINUOUS
  62
1
  10
 147.82625555412
  20
 145.94061539931
  30
0.0
  11
 137.86143931262
  21
 145.94061539931
  31
0.0
   0
LINE
   5
505
 100
AcDbEntity
   8
LEVEL001
 100
AcDbLine
   6
CONTINUOUS
  62
1
  10
 149.36143931262
  20
 143.63783976161
  30
0.0
  11
 147.82625555412
  21
 145.94061539931
  31
0.0
   0
LINE
   5
506
 100
AcDbEntity
   8
LEVEL001
 100
AcDbLine
   6
CONTINUOUS
  62
1
  10
 147.61336387112
  20
 116.62127787481
  30
0.0
  11
 149.36143931262
  21
 119.24339103701
  31
0.0
   0
ARC
   5
507
 100
AcDbEntity
   8
LEVEL001
   6
CONTINUOUS
  62
1
 100
AcDbCircle
  10
 148.86143931262
  20
 115.78922758041
  30
0.0
  40
 1.5000000000000
 100
AcDbArc
  50
 146.30993247399
  51
 179.99999999998
   0
LINE
   5
508
 100
AcDbEntity
   8
LEVEL001
 100
AcDbLine
   6
CONTINUOUS
  62
1
  10
 145.86143931262
  20
 143.94061539931
  30
0.0
  11
 145.86143931262
  21
 142.94061539931
  31
0.0
   0
LINE
   5
509
 100
AcDbEntity
   8
LEVEL001
 100
AcDbLine
   6
CONTINUOUS
  62
1
  10
 139.86143931262
  20
 143.94061539931
  30
0.0
  11
 139.86143931262
  21
 142.94061539931
  31
0.0
   0
LINE
   5
50A
 100
AcDbEntity
   8
LEVEL001
 100
AcDbLine
   6
CONTINUOUS
  62
1
  10
 148.44541416542
  20
 116.06657767861
  30
0.0
  11
 147.61336387112
  21
 116.62127787481
  31
0.0
   0
LINE
   5
50B
 100
AcDbEntity
   8
LEVEL001
 100
AcDbLine
   6
CONTINUOUS
  62
1
  10
 150.27746445982
  20
 118.81465312011
  30
0.0
  11
 149.36143931262
  21
 119.24339103701
  31
0.0
   0
LINE
   5
50C
 100
AcDbEntity
   8
LEVEL001
 100
AcDbLine
   6
CONTINUOUS
  62
1
  10
 148.50987258052
  20
 146.71796549741
  30
0.0
  11
 147.82625555412
  21
 145.94061539931
  31
0.0
   0
LINE
   5
50D
 100
AcDbEntity
   8
LEVEL001
 100
AcDbLine
   6
CONTINUOUS
  62
1
  10
 148.09384743332
  20
 146.94061539931
  30
0.0
  11
 147.82625555412
  21
 145.94061539931
  31
0.0
   0
LINE
   5
50E
 100
AcDbEntity
   8
LEVEL001
 100
AcDbLine
   6
CONTINUOUS
  62
1
  10
 150.27746445982
  20
 144.06657767861
  30
0.0
  11
 149.36143931262
  21
 143.63783976161
  31
0.0
   0
LINE
   5
50F
 100
AcDbEntity
   8
LEVEL001
 100
AcDbLine
   6
CONTINUOUS
  62
1
  10
 137.86143931262
  20
 145.94061539931
  30
0.0
  11
 137.86143931262
  21
 146.94061539931
  31
0.0
   0
LINE
   5
510
 100
AcDbEntity
   8
LEVEL001
 100
AcDbLine
   6
CONTINUOUS
  62
1
  10
 136.36143931262
  20
 144.44061539931
  30
0.0
  11
 135.36143931262
  21
 144.44061539931
  31
0.0
   0
LINE
   5
511
 100
AcDbEntity
   8
LEVEL001
 100
AcDbLine
   6
CONTINUOUS
  62
1
  10
 137.86143931262
  20
 132.94061539931
  30
0.0
  11
 137.86143931262
  21
 131.94061539931
  31
0.0
   0
LINE
   5
512
 100
AcDbEntity
   8
LEVEL001
 100
AcDbLine
   6
CONTINUOUS
  62
1
  10
 136.36143931262
  20
 134.44061539931
  30
0.0
  11
 135.36143931262
  21
 134.44061539931
  31
0.0
   0
LINE
   5
513
 100
AcDbEntity
   8
LEVEL001
 100
AcDbLine
   6
CONTINUOUS
  62
1
  10
 138.36143931262
  20
 142.44061539931
  30
0.0
  11
 139.36143931262
  21
 142.44061539931
  31
0.0
   0
LINE
   5
514
 100
AcDbEntity
   8
LEVEL001
 100
AcDbLine
   6
CONTINUOUS
  62
1
  10
 138.36143931262
  20
 132.94061539931
  30
0.0
  11
 138.86143931262
  21
 131.94061539931
  31
0.0
   0
LINE
   5
515
 100
AcDbEntity
   8
LEVEL001
 100
AcDbLine
   6
CONTINUOUS
  62
1
  10
 138.36143931262
  20
 132.94061539931
  30
0.0
  11
 139.36143931262
  21
 132.44061539931
  31
0.0
   0
ARC
   5
516
 100
AcDbEntity
   8
LEVEL001
   6
CONTINUOUS
  62
7
 100
AcDbCircle
  10
 239.05470248223
  20
 97.209659593007
  30
0.0
  40
 1.2280533059000
 100
AcDbArc
  50
 95.034224249300
  51
 184.70757224326
   0
LINE
   5
517
 100
AcDbEntity
   8
LEVEL001
 100
AcDbLine
   6
CONTINUOUS
  62
7
  10
 244.02089591113
  20
 98.440615399307
  30
0.0
  11
 238.94846594863
  21
 98.440615399307
  31
0.0
   0
LINE
   5
518
 100
AcDbEntity
   8
LEVEL001
 100
AcDbLine
   6
CONTINUOUS
  62
7
  10
 245.14144838423
  20
 95.560244553507
  30
0.0
  11
 245.14335924323
  21
 95.631558601407
  31
0.0
   0
LINE
   5
519
 100
AcDbEntity
   8
LEVEL001
 100
AcDbLine
   6
CONTINUOUS
  62
7
  10
 245.14335924323
  20
 95.631558601407
  30
0.0
  11
 245.14583726643
  21
 95.987817407607
  31
0.0
   0
LINE
   5
51A
 100
AcDbEntity
   8
LEVEL001
 100
AcDbLine
   6
CONTINUOUS
  62
7
  10
 245.14583726643
  20
 95.987817407607
  30
0.0
  11
 245.14161664473
  21
 96.340762029607
  31
0.0
   0
LINE
   5
51B
 100
AcDbEntity
   8
LEVEL001
 100
AcDbLine
   6
CONTINUOUS
  62
7
  10
 245.14161664473
  20
 96.340762029607
  30
0.0
  11
 245.13080940083
  21
 96.677113918907
  31
0.0
   0
LINE
   5
51C
 100
AcDbEntity
   8
LEVEL001
 100
AcDbLine
   6
CONTINUOUS
  62
7
  10
 245.13080940083
  20
 96.677113918907
  30
0.0
  11
 245.11342157783
  21
 96.985807064507
  31
0.0
   0
LINE
   5
51D
 100
AcDbEntity
   8
LEVEL001
 100
AcDbLine
   6
CONTINUOUS
  62
7
  10
 245.11342157783
  20
 96.985807064507
  30
0.0
  11
 245.08851598163
  21
 97.262301587407
  31
0.0
   0
LINE
   5
51E
 100
AcDbEntity
   8
LEVEL001
 100
AcDbLine
   6
CONTINUOUS
  62
7
  10
 245.08851598163
  20
 97.262301587407
  30
0.0
  11
 245.04867094803
  21
 97.525735127207
  31
0.0
   0
LINE
   5
51F
 100
AcDbEntity
   8
LEVEL001
 100
AcDbLine
   6
CONTINUOUS
  62
7
  10
 245.04867094803
  20
 97.525735127207
  30
0.0
  11
 244.99528393663
  21
 97.725641651307
  31
0.0
   0
LINE
   5
520
 100
AcDbEntity
   8
LEVEL001
 100
AcDbLine
   6
CONTINUOUS
  62
7
  10
 244.99528393663
  20
 97.725641651307
  30
0.0
  11
 244.92844929783
  21
 97.881997363307
  31
0.0
   0
LINE
   5
521
 100
AcDbEntity
   8
LEVEL001
 100
AcDbLine
   6
CONTINUOUS
  62
7
  10
 244.92844929783
  20
 97.881997363307
  30
0.0
  11
 244.82875188523
  21
 98.039294359307
  31
0.0
   0
LINE
   5
522
 100
AcDbEntity
   8
LEVEL001
 100
AcDbLine
   6
CONTINUOUS
  62
7
  10
 244.82875188523
  20
 98.039294359307
  30
0.0
  11
 244.67862195913
  21
 98.197745330007
  31
0.0
   0
LINE
   5
523
 100
AcDbEntity
   8
LEVEL001
 100
AcDbLine
   6
CONTINUOUS
  62
7
  10
 244.67862195913
  20
 98.197745330007
  30
0.0
  11
 244.47797518723
  21
 98.331396261507
  31
0.0
   0
LINE
   5
524
 100
AcDbEntity
   8
LEVEL001
 100
AcDbLine
   6
CONTINUOUS
  62
7
  10
 244.47797518723
  20
 98.331396261507
  30
0.0
  11
 244.23666895853
  21
 98.417310439307
  31
0.0
   0
LINE
   5
525
 100
AcDbEntity
   8
LEVEL001
 100
AcDbLine
   6
CONTINUOUS
  62
7
  10
 244.23666895853
  20
 98.417310439307
  30
0.0
  11
 244.02415977453
  21
 98.435387935307
  31
0.0
   0
ARC
   5
526
 100
AcDbEntity
   8
LEVEL001
   6
CONTINUOUS
  62
7
 100
AcDbCircle
  10
 232.81693281033
  20
 95.752164439808
  30
0.0
  40
 12.326009791200
 100
AcDbArc
  50
 355.59071721920
  51
 359.10785046970
   0
LINE
   5
527
 100
AcDbEntity
   8
LEVEL001
 100
AcDbLine
   6
CONTINUOUS
  62
7
  10
 242.92402536273
  20
 87.940615399307
  30
0.0
  11
 243.20315059493
  21
 87.975282165607
  31
0.0
   0
LINE
   5
528
 100
AcDbEntity
   8
LEVEL001
 100
AcDbLine
   6
CONTINUOUS
  62
7
  10
 243.20315059493
  20
 87.975282165607
  30
0.0
  11
 243.45221726003
  21
 88.069402834207
  31
0.0
   0
LINE
   5
529
 100
AcDbEntity
   8
LEVEL001
 100
AcDbLine
   6
CONTINUOUS
  62
7
  10
 243.45221726003
  20
 88.069402834207
  30
0.0
  11
 243.65324006433
  21
 88.198999796407
  31
0.0
   0
LINE
   5
52A
 100
AcDbEntity
   8
LEVEL001
 100
AcDbLine
   6
CONTINUOUS
  62
7
  10
 243.65324006433
  20
 88.198999796407
  30
0.0
  11
 243.81510521863
  21
 88.350345499107
  31
0.0
   0
LINE
   5
52B
 100
AcDbEntity
   8
LEVEL001
 100
AcDbLine
   6
CONTINUOUS
  62
7
  10
 243.81510521863
  20
 88.350345499107
  30
0.0
  11
 243.95130610103
  21
 88.523330007407
  31
0.0
   0
LINE
   5
52C
 100
AcDbEntity
   8
LEVEL001
 100
AcDbLine
   6
CONTINUOUS
  62
7
  10
 243.95130610103
  20
 88.523330007407
  30
0.0
  11
 244.07596577883
  21
 88.733155589807
  31
0.0
   0
LINE
   5
52D
 100
AcDbEntity
   8
LEVEL001
 100
AcDbLine
   6
CONTINUOUS
  62
7
  10
 244.07596577883
  20
 88.733155589807
  30
0.0
  11
 244.20506919973
  21
 89.021668417807
  31
0.0
   0
LINE
   5
52E
 100
AcDbEntity
   8
LEVEL001
 100
AcDbLine
   6
CONTINUOUS
  62
7
  10
 244.20506919973
  20
 89.021668417807
  30
0.0
  11
 244.35488051653
  21
 89.475244904407
  31
0.0
   0
LINE
   5
52F
 100
AcDbEntity
   8
LEVEL001
 100
AcDbLine
   6
CONTINUOUS
  62
7
  10
 244.35488051653
  20
 89.475244904407
  30
0.0
  11
 244.46930419613
  21
 89.925627956607
  31
0.0
   0
LINE
   5
530
 100
AcDbEntity
   8
LEVEL001
 100
AcDbLine
   6
CONTINUOUS
  62
7
  10
 244.46930419613
  20
 89.925627956607
  30
0.0
  11
 244.58244370323
  21
 90.472897142907
  31
0.0
   0
LINE
   5
531
 100
AcDbEntity
   8
LEVEL001
 100
AcDbLine
   6
CONTINUOUS
  62
7
  10
 244.58244370323
  20
 90.472897142907
  30
0.0
  11
 244.68515716553
  21
 91.068167891007
  31
0.0
   0
LINE
   5
532
 100
AcDbEntity
   8
LEVEL001
 100
AcDbLine
   6
CONTINUOUS
  62
7
  10
 244.68515716553
  20
 91.068167891007
  30
0.0
  11
 244.78094831363
  21
 91.717985018907
  31
0.0
   0
LINE
   5
533
 100
AcDbEntity
   8
LEVEL001
 100
AcDbLine
   6
CONTINUOUS
  62
7
  10
 244.78094831363
  20
 91.717985018907
  30
0.0
  11
 244.87121202803
  21
 92.424573591707
  31
0.0
   0
LINE
   5
534
 100
AcDbEntity
   8
LEVEL001
 100
AcDbLine
   6
CONTINUOUS
  62
7
  10
 244.87121202803
  20
 92.424573591707
  30
0.0
  11
 244.95647696623
  21
 93.187793083207
  31
0.0
   0
LINE
   5
535
 100
AcDbEntity
   8
LEVEL001
 100
AcDbLine
   6
CONTINUOUS
  62
7
  10
 244.95647696623
  20
 93.187793083207
  30
0.0
  11
 245.03690352753
  21
 94.006295774307
  31
0.0
   0
LINE
   5
536
 100
AcDbEntity
   8
LEVEL001
 100
AcDbLine
   6
CONTINUOUS
  62
7
  10
 245.03690352753
  20
 94.006295774307
  30
0.0
  11
 245.10646142743
  21
 94.804533846407
  31
0.0
   0
LINE
   5
537
 100
AcDbEntity
   8
LEVEL001
 100
AcDbLine
   6
CONTINUOUS
  62
7
  10
 237.83079195383
  20
 97.108872983007
  30
0.0
  11
 237.78206827393
  21
 96.699651425007
  31
0.0
   0
LINE
   5
538
 100
AcDbEntity
   8
LEVEL001
 100
AcDbLine
   6
CONTINUOUS
  62
7
  10
 237.78206827393
  20
 96.699651425007
  30
0.0
  11
 237.68623906083
  21
 95.972520472007
  31
0.0
   0
LINE
   5
539
 100
AcDbEntity
   8
LEVEL001
 100
AcDbLine
   6
CONTINUOUS
  62
7
  10
 237.68623906083
  20
 95.972520472007
  30
0.0
  11
 237.58593728463
  21
 95.307313730007
  31
0.0
   0
LINE
   5
53A
 100
AcDbEntity
   8
LEVEL001
 100
AcDbLine
   6
CONTINUOUS
  62
7
  10
 237.58593728463
  20
 95.307313730007
  30
0.0
  11
 237.48221951953
  21
 94.708614239007
  31
0.0
   0
LINE
   5
53B
 100
AcDbEntity
   8
LEVEL001
 100
AcDbLine
   6
CONTINUOUS
  62
7
  10
 237.48221951953
  20
 94.708614239007
  30
0.0
  11
 237.37642545883
  21
 94.180672627607
  31
0.0
   0
LINE
   5
53C
 100
AcDbEntity
   8
LEVEL001
 100
AcDbLine
   6
CONTINUOUS
  62
7
  10
 237.37642545883
  20
 94.180672627607
  30
0.0
  11
 237.27044678223
  21
 93.727931060307
  31
0.0
   0
LINE
   5
53D
 100
AcDbEntity
   8
LEVEL001
 100
AcDbLine
   6
CONTINUOUS
  62
7
  10
 237.27044678223
  20
 93.727931060307
  30
0.0
  11
 237.16712315533
  21
 93.355132106607
  31
0.0
   0
LINE
   5
53E
 100
AcDbEntity
   8
LEVEL001
 100
AcDbLine
   6
CONTINUOUS
  62
7
  10
 237.16712315533
  20
 93.355132106607
  30
0.0
  11
 237.07095391353
  21
 93.067299135707
  31
0.0
   0
LINE
   5
53F
 100
AcDbEntity
   8
LEVEL001
 100
AcDbLine
   6
CONTINUOUS
  62
7
  10
 237.07095391353
  20
 93.067299135707
  30
0.0
  11
 236.99763127723
  21
 92.887320393407
  31
0.0
   0
LINE
   5
540
 100
AcDbEntity
   8
LEVEL001
 100
AcDbLine
   6
CONTINUOUS
  62
7
  10
 236.99763127723
  20
 92.887320393407
  30
0.0
  11
 236.94479158943
  21
 92.781707947907
  31
0.0
   0
LINE
   5
541
 100
AcDbEntity
   8
LEVEL001
 100
AcDbLine
   6
CONTINUOUS
  62
7
  10
 236.94479158943
  20
 92.781707947907
  30
0.0
  11
 236.92051766573
  21
 92.742547406107
  31
0.0
   0
LINE
   5
542
 100
AcDbEntity
   8
LEVEL001
 100
AcDbLine
   6
CONTINUOUS
  62
7
  10
 236.92051766573
  20
 92.742547406107
  30
0.0
  11
 236.92307634373
  21
 92.745399857307
  31
0.0
   0
LINE
   5
543
 100
AcDbEntity
   8
LEVEL001
 100
AcDbLine
   6
CONTINUOUS
  62
7
  10
 236.23269545933
  20
 91.940615399307
  30
0.0
  11
 236.23269545933
  21
 88.940615399307
  31
0.0
   0
ARC
   5
544
 100
AcDbEntity
   8
LEVEL001
   6
CONTINUOUS
  62
7
 100
AcDbCircle
  10
 237.23269545933
  20
 91.940615399305
  30
0.0
  40
 1.0000000000000
 100
AcDbArc
  50
 103.68997856227
  51
 179.99999999988
   0
ARC
   5
545
 100
AcDbEntity
   8
LEVEL001
   6
CONTINUOUS
  62
7
 100
AcDbCircle
  10
 237.23269545933
  20
 88.940615399307
  30
0.0
  40
 1.0000000000000
 100
AcDbArc
  50
 180.00000000000
  51
 270.00000000000
   0
LINE
   5
546
 100
AcDbEntity
   8
LEVEL001
 100
AcDbLine
   6
CONTINUOUS
  62
7
  10
 237.41660942553
  20
 87.940615399307
  30
0.0
  11
 242.92402536273
  21
 87.940615399307
  31
0.0
   0
LINE
   5
547
 100
AcDbEntity
   8
LEVEL001
 100
AcDbLine
   6
CONTINUOUS
  62
7
  10
 237.41660942553
  20
 87.940615399307
  30
0.0
  11
 237.23269545933
  21
 87.940615399307
  31
0.0
   0
LINE
   5
548
 100
AcDbEntity
   8
LEVEL001
 100
AcDbLine
   6
CONTINUOUS
  62
7
  10
 244.92244339413
  20
 92.940615399307
  30
0.0
  11
 249.75349274873
  21
 92.940615399307
  31
0.0
   0
LINE
   5
549
 100
AcDbEntity
   8
LEVEL001
 100
AcDbLine
   6
CONTINUOUS
  62
7
  10
 249.75349274873
  20
 87.940615399307
  30
0.0
  11
 242.92402536273
  21
 87.940615399307
  31
0.0
   0
LINE
   5
54A
 100
AcDbEntity
   8
LEVEL001
 100
AcDbLine
   6
CONTINUOUS
  62
7
  10
 249.75349274873
  20
 92.940615399307
  30
0.0
  11
 262.71189816993
  21
 92.940615399307
  31
0.0
   0
LINE
   5
54B
 100
AcDbEntity
   8
LEVEL001
 100
AcDbLine
   6
CONTINUOUS
  62
7
  10
 262.71189816993
  20
 87.940615399307
  30
0.0
  11
 249.75349274873
  21
 87.940615399307
  31
0.0
   0
LINE
   5
54C
 100
AcDbEntity
   8
LEVEL001
 100
AcDbLine
   6
CONTINUOUS
  62
7
  10
 239.23269545933
  20
 119.24339103701
  30
0.0
  11
 239.23269545933
  21
 143.63783976161
  31
0.0
   0
LINE
   5
54D
 100
AcDbEntity
   8
LEVEL001
 100
AcDbLine
   6
CONTINUOUS
  62
7
  10
 239.23269545933
  20
 116.62127787481
  30
0.0
  11
 239.23269545933
  21
 119.24339103701
  31
0.0
   0
LINE
   5
54E
 100
AcDbEntity
   8
LEVEL001
 100
AcDbLine
   6
CONTINUOUS
  62
7
  10
 239.23269545933
  20
 143.63783976161
  30
0.0
  11
 239.23269545933
  21
 145.94061539931
  31
0.0
   0
LINE
   5
54F
 100
AcDbEntity
   8
LEVEL001
 100
AcDbLine
   6
CONTINUOUS
  62
7
  10
 239.23269545933
  20
 98.440615399307
  30
0.0
  11
 239.23269545933
  21
 99.940615399307
  31
0.0
   0
ARC
   5
550
 100
AcDbEntity
   8
LEVEL001
   6
CONTINUOUS
  62
7
 100
AcDbCircle
  10
 240.23269545933
  20
 145.94061539931
  30
0.0
  40
 1.0000000000000
 100
AcDbArc
  50
 89.999999999901
  51
 180.00000000016
   0
LINE
   5
551
 100
AcDbEntity
   8
LEVEL001
 100
AcDbLine
   6
CONTINUOUS
  62
7
  10
 240.23269545933
  20
 146.94061539931
  30
0.0
  11
 272.23269545933
  21
 146.94061539931
  31
0.0
   0
LINE
   5
552
 100
AcDbEntity
   8
LEVEL001
 100
AcDbLine
   6
CONTINUOUS
  62
7
  10
 239.23269545933
  20
 115.78922758041
  30
0.0
  11
 239.23269545933
  21
 116.62127787481
  31
0.0
   0
LINE
   5
553
 100
AcDbEntity
   8
LEVEL001
 100
AcDbLine
   6
CONTINUOUS
  62
7
  10
 239.23269545933
  20
 99.940615399307
  30
0.0
  11
 239.23269545933
  21
 115.78922758041
  31
0.0
   0
ARC
   5
554
 100
AcDbEntity
   8
LEVEL001
   6
CONTINUOUS
  62
1
 100
AcDbCircle
  10
 220.31843572053
  20
 95.766625698108
  30
0.0
  40
 18.820917257700
 100
AcDbArc
  50
 355.17594687170
  51
 8.1679594751988
   0
LINE
   5
555
 100
AcDbEntity
   8
LEVEL001
 100
AcDbLine
   6
CONTINUOUS
  62
1
  10
 239.07268256943
  20
 94.183858642607
  30
0.0
  11
 238.88831385473
  21
 94.206714965507
  31
0.0
   0
LINE
   5
556
 100
AcDbEntity
   8
LEVEL001
 100
AcDbLine
   6
CONTINUOUS
  62
1
  10
 238.88831385473
  20
 94.206714965507
  30
0.0
  11
 238.71030900713
  21
 94.253037591207
  31
0.0
   0
LINE
   5
557
 100
AcDbEntity
   8
LEVEL001
 100
AcDbLine
   6
CONTINUOUS
  62
1
  10
 238.71030900713
  20
 94.253037591207
  30
0.0
  11
 238.54481223193
  21
 94.321227598507
  31
0.0
   0
LINE
   5
558
 100
AcDbEntity
   8
LEVEL001
 100
AcDbLine
   6
CONTINUOUS
  62
1
  10
 238.54481223193
  20
 94.321227598507
  30
0.0
  11
 238.39753599223
  21
 94.408931268307
  31
0.0
   0
LINE
   5
559
 100
AcDbEntity
   8
LEVEL001
 100
AcDbLine
   6
CONTINUOUS
  62
1
  10
 238.39753599223
  20
 94.408931268307
  30
0.0
  11
 238.27356383193
  21
 94.513121327207
  31
0.0
   0
LINE
   5
55A
 100
AcDbEntity
   8
LEVEL001
 100
AcDbLine
   6
CONTINUOUS
  62
1
  10
 238.27356383193
  20
 94.513121327207
  30
0.0
  11
 238.17717490623
  21
 94.630201440107
  31
0.0
   0
LINE
   5
55B
 100
AcDbEntity
   8
LEVEL001
 100
AcDbLine
   6
CONTINUOUS
  62
1
  10
 238.17717490623
  20
 94.630201440107
  30
0.0
  11
 238.11169627813
  21
 94.756130344907
  31
0.0
   0
LINE
   5
55C
 100
AcDbEntity
   8
LEVEL001
 100
AcDbLine
   6
CONTINUOUS
  62
1
  10
 238.11169627813
  20
 94.756130344907
  30
0.0
  11
 238.07938807773
  21
 94.886561345307
  31
0.0
   0
LINE
   5
55D
 100
AcDbEntity
   8
LEVEL001
 100
AcDbLine
   6
CONTINUOUS
  62
1
  10
 238.07938807773
  20
 94.886561345307
  30
0.0
  11
 238.09880472833
  21
 95.087896540407
  31
0.0
   0
LINE
   5
55E
 100
AcDbEntity
   8
LEVEL001
 100
AcDbLine
   6
CONTINUOUS
  62
1
  10
 238.09880472833
  20
 95.087896540407
  30
0.0
  11
 238.11385715463
  21
 95.315141166607
  31
0.0
   0
LINE
   5
55F
 100
AcDbEntity
   8
LEVEL001
 100
AcDbLine
   6
CONTINUOUS
  62
1
  10
 238.11385715463
  20
 95.315141166607
  30
0.0
  11
 238.12408799623
  21
 95.561390510807
  31
0.0
   0
LINE
   5
560
 100
AcDbEntity
   8
LEVEL001
 100
AcDbLine
   6
CONTINUOUS
  62
1
  10
 238.12408799623
  20
 95.561390510807
  30
0.0
  11
 238.12918639433
  21
 95.819162411307
  31
0.0
   0
LINE
   5
561
 100
AcDbEntity
   8
LEVEL001
 100
AcDbLine
   6
CONTINUOUS
  62
1
  10
 238.12918639433
  20
 95.819162411307
  30
0.0
  11
 238.12899743663
  21
 96.080624599507
  31
0.0
   0
LINE
   5
562
 100
AcDbEntity
   8
LEVEL001
 100
AcDbLine
   6
CONTINUOUS
  62
1
  10
 238.12899743663
  20
 96.080624599507
  30
0.0
  11
 238.12352686443
  21
 96.337832678907
  31
0.0
   0
LINE
   5
563
 100
AcDbEntity
   8
LEVEL001
 100
AcDbLine
   6
CONTINUOUS
  62
1
  10
 238.12352686443
  20
 96.337832678907
  30
0.0
  11
 238.11294089843
  21
 96.582971512307
  31
0.0
   0
LINE
   5
564
 100
AcDbEntity
   8
LEVEL001
 100
AcDbLine
   6
CONTINUOUS
  62
1
  10
 238.11294089843
  20
 96.582971512307
  30
0.0
  11
 238.09756118773
  21
 96.808592680307
  31
0.0
   0
LINE
   5
565
 100
AcDbEntity
   8
LEVEL001
 100
AcDbLine
   6
CONTINUOUS
  62
1
  10
 238.09756118773
  20
 96.808592680307
  30
0.0
  11
 238.07785503713
  21
 97.007840797807
  31
0.0
   0
LINE
   5
566
 100
AcDbEntity
   8
LEVEL001
 100
AcDbLine
   6
CONTINUOUS
  62
1
  10
 238.07785503713
  20
 97.007840797807
  30
0.0
  11
 238.05442120803
  21
 97.174661811607
  31
0.0
   0
LINE
   5
567
 100
AcDbEntity
   8
LEVEL001
 100
AcDbLine
   6
CONTINUOUS
  62
1
  10
 238.05442120803
  20
 97.174661811607
  30
0.0
  11
 238.02797172543
  21
 97.303986949607
  31
0.0
   0
LINE
   5
568
 100
AcDbEntity
   8
LEVEL001
 100
AcDbLine
   6
CONTINUOUS
  62
1
  10
 238.02797172543
  20
 97.303986949607
  30
0.0
  11
 237.99931024363
  21
 97.391886733007
  31
0.0
   0
LINE
   5
569
 100
AcDbEntity
   8
LEVEL001
 100
AcDbLine
   6
CONTINUOUS
  62
1
  10
 237.99931024363
  20
 97.391886733007
  30
0.0
  11
 237.96930762703
  21
 97.435690371207
  31
0.0
   0
LINE
   5
56A
 100
AcDbEntity
   8
LEVEL001
 100
AcDbLine
   6
CONTINUOUS
  62
1
  10
 237.96930762703
  20
 97.435690371207
  30
0.0
  11
 237.93887549003
  21
 97.434066913007
  31
0.0
   0
LINE
   5
56B
 100
AcDbEntity
   8
LEVEL001
 100
AcDbLine
   6
CONTINUOUS
  62
1
  10
 237.93887549003
  20
 97.434066913007
  30
0.0
  11
 237.90893849783
  21
 97.387065686307
  31
0.0
   0
LINE
   5
56C
 100
AcDbEntity
   8
LEVEL001
 100
AcDbLine
   6
CONTINUOUS
  62
1
  10
 237.90893849783
  20
 97.387065686307
  30
0.0
  11
 237.88040627063
  21
 97.296114799607
  31
0.0
   0
LINE
   5
56D
 100
AcDbEntity
   8
LEVEL001
 100
AcDbLine
   6
CONTINUOUS
  62
1
  10
 237.88040627063
  20
 97.296114799607
  30
0.0
  11
 237.85414574583
  21
 97.163977749407
  31
0.0
   0
LINE
   5
56E
 100
AcDbEntity
   8
LEVEL001
 100
AcDbLine
   6
CONTINUOUS
  62
1
  10
 237.85414574583
  20
 97.163977749407
  30
0.0
  11
 237.83095483603
  21
 96.994669453407
  31
0.0
   0
LINE
   5
56F
 100
AcDbEntity
   8
LEVEL001
 100
AcDbLine
   6
CONTINUOUS
  62
1
  10
 237.83075439993
  20
 97.108545330407
  30
0.0
  11
 237.83095483603
  21
 96.994669453407
  31
0.0
   0
ARC
   5
570
 100
AcDbEntity
   8
LEVEL001
   6
CONTINUOUS
  62
1
 100
AcDbCircle
  10
 221.03143964903
  20
 95.830994490707
  30
0.0
  40
 23.137096198800
 100
AcDbArc
  50
 355.91764544390
  51
 6.4761416503007
   0
LINE
   5
571
 100
AcDbEntity
   8
LEVEL001
 100
AcDbLine
   6
CONTINUOUS
  62
1
  10
 239.07268256943
  20
 94.183858642607
  30
0.0
  11
 244.10983136103
  21
 94.183858642607
  31
0.0
   0
LINE
   5
572
 100
AcDbEntity
   8
LEVEL001
 100
AcDbLine
   6
CONTINUOUS
  62
1
  10
 244.10983136103
  20
 94.183858642607
  30
0.0
  11
 244.31181826383
  21
 94.189977313507
  31
0.0
   0
LINE
   5
573
 100
AcDbEntity
   8
LEVEL001
 100
AcDbLine
   6
CONTINUOUS
  62
1
  10
 244.31181826383
  20
 94.189977313507
  30
0.0
  11
 244.50544969423
  21
 94.224911162907
  31
0.0
   0
LINE
   5
574
 100
AcDbEntity
   8
LEVEL001
 100
AcDbLine
   6
CONTINUOUS
  62
1
  10
 244.50544969423
  20
 94.224911162907
  30
0.0
  11
 244.68271581573
  21
 94.287215102907
  31
0.0
   0
LINE
   5
575
 100
AcDbEntity
   8
LEVEL001
 100
AcDbLine
   6
CONTINUOUS
  62
1
  10
 244.68271581573
  20
 94.287215102907
  30
0.0
  11
 244.83628376573
  21
 94.374311843407
  31
0.0
   0
LINE
   5
576
 100
AcDbEntity
   8
LEVEL001
 100
AcDbLine
   6
CONTINUOUS
  62
1
  10
 244.83628376573
  20
 94.374311843407
  30
0.0
  11
 244.95980099003
  21
 94.482598505307
  31
0.0
   0
LINE
   5
577
 100
AcDbEntity
   8
LEVEL001
 100
AcDbLine
   6
CONTINUOUS
  62
1
  10
 244.95980099003
  20
 94.482598505307
  30
0.0
  11
 245.04815802483
  21
 94.607595658307
  31
0.0
   0
LINE
   5
578
 100
AcDbEntity
   8
LEVEL001
 100
AcDbLine
   6
CONTINUOUS
  62
1
  10
 245.04815802483
  20
 94.607595658307
  30
0.0
  11
 245.09769985713
  21
 94.744132619507
  31
0.0
   0
LINE
   5
579
 100
AcDbEntity
   8
LEVEL001
 100
AcDbLine
   6
CONTINUOUS
  62
1
  10
 245.09769985713
  20
 94.744132619507
  30
0.0
  11
 245.10649291803
  21
 94.804918297507
  31
0.0
   0
LINE
   5
57A
 100
AcDbEntity
   8
LEVEL001
 100
AcDbLine
   6
CONTINUOUS
  62
1
  10
 239.07268256943
  20
 94.183858642607
  30
0.0
  11
 238.96191700173
  21
 93.236379174007
  31
0.0
   0
LINE
   5
57B
 100
AcDbEntity
   8
LEVEL001
 100
AcDbLine
   6
CONTINUOUS
  62
1
  10
 238.96191700173
  20
 93.236379174007
  30
0.0
  11
 238.84450631923
  21
 92.356424402007
  31
0.0
   0
LINE
   5
57C
 100
AcDbEntity
   8
LEVEL001
 100
AcDbLine
   6
CONTINUOUS
  62
1
  10
 238.84450631923
  20
 92.356424402007
  30
0.0
  11
 238.72095536183
  21
 91.547777935007
  31
0.0
   0
LINE
   5
57D
 100
AcDbEntity
   8
LEVEL001
 100
AcDbLine
   6
CONTINUOUS
  62
1
  10
 238.72095536183
  20
 91.547777935007
  30
0.0
  11
 238.59179537073
  21
 90.813916771507
  31
0.0
   0
LINE
   5
57E
 100
AcDbEntity
   8
LEVEL001
 100
AcDbLine
   6
CONTINUOUS
  62
1
  10
 238.59179537073
  20
 90.813916771507
  30
0.0
  11
 238.45758170503
  21
 90.157996350007
  31
0.0
   0
LINE
   5
57F
 100
AcDbEntity
   8
LEVEL001
 100
AcDbLine
   6
CONTINUOUS
  62
1
  10
 238.45758170503
  20
 90.157996350007
  30
0.0
  11
 238.31889145353
  21
 89.582836981607
  31
0.0
   0
LINE
   5
580
 100
AcDbEntity
   8
LEVEL001
 100
AcDbLine
   6
CONTINUOUS
  62
1
  10
 238.31889145353
  20
 89.582836981607
  30
0.0
  11
 238.17632095303
  21
 89.090911722407
  31
0.0
   0
LINE
   5
581
 100
AcDbEntity
   8
LEVEL001
 100
AcDbLine
   6
CONTINUOUS
  62
1
  10
 238.17632095303
  20
 89.090911722407
  30
0.0
  11
 238.03048322483
  21
 88.684335740907
  31
0.0
   0
LINE
   5
582
 100
AcDbEntity
   8
LEVEL001
 100
AcDbLine
   6
CONTINUOUS
  62
1
  10
 238.03048322483
  20
 88.684335740907
  30
0.0
  11
 237.88200533853
  21
 88.364857222707
  31
0.0
   0
LINE
   5
583
 100
AcDbEntity
   8
LEVEL001
 100
AcDbLine
   6
CONTINUOUS
  62
1
  10
 237.88200533853
  20
 88.364857222707
  30
0.0
  11
 237.73152571563
  21
 88.133849853807
  31
0.0
   0
LINE
   5
584
 100
AcDbEntity
   8
LEVEL001
 100
AcDbLine
   6
CONTINUOUS
  62
1
  10
 237.73152571563
  20
 88.133849853807
  30
0.0
  11
 237.57969138493
  21
 87.992306914207
  31
0.0
   0
LINE
   5
585
 100
AcDbEntity
   8
LEVEL001
 100
AcDbLine
   6
CONTINUOUS
  62
1
  10
 237.57969138493
  20
 87.992306914207
  30
0.0
  11
 237.42715520003
  21
 87.940837006807
  31
0.0
   0
LINE
   5
586
 100
AcDbEntity
   8
LEVEL001
 100
AcDbLine
   6
CONTINUOUS
  62
1
  10
 237.42715520003
  20
 87.940837006807
  30
0.0
  11
 237.23343770933
  21
 87.960142155707
  31
0.0
   0
LINE
   5
587
 100
AcDbEntity
   8
LEVEL001
 100
AcDbLine
   6
CONTINUOUS
  62
1
  10
 237.23343770933
  20
 87.960142155707
  30
0.0
  11
 237.04715965593
  21
 88.017109052407
  31
0.0
   0
LINE
   5
588
 100
AcDbEntity
   8
LEVEL001
 100
AcDbLine
   6
CONTINUOUS
  62
1
  10
 237.04715965593
  20
 88.017109052407
  30
0.0
  11
 236.87547477633
  21
 88.109549966507
  31
0.0
   0
LINE
   5
589
 100
AcDbEntity
   8
LEVEL001
 100
AcDbLine
   6
CONTINUOUS
  62
1
  10
 236.87547477633
  20
 88.109549966507
  30
0.0
  11
 236.72497637733
  21
 88.233914839707
  31
0.0
   0
LINE
   5
58A
 100
AcDbEntity
   8
LEVEL001
 100
AcDbLine
   6
CONTINUOUS
  62
1
  10
 236.72497637733
  20
 88.233914839707
  30
0.0
  11
 236.60144413023
  21
 88.385427620607
  31
0.0
   0
LINE
   5
58B
 100
AcDbEntity
   8
LEVEL001
 100
AcDbLine
   6
CONTINUOUS
  62
1
  10
 236.60144413023
  20
 88.385427620607
  30
0.0
  11
 236.50962211053
  21
 88.558269682407
  31
0.0
   0
LINE
   5
58C
 100
AcDbEntity
   8
LEVEL001
 100
AcDbLine
   6
CONTINUOUS
  62
1
  10
 236.50962211053
  20
 88.558269682407
  30
0.0
  11
 236.45303660873
  21
 88.745803278207
  31
0.0
   0
LINE
   5
58D
 100
AcDbEntity
   8
LEVEL001
 100
AcDbLine
   6
CONTINUOUS
  62
1
  10
 236.45303660873
  20
 88.745803278207
  30
0.0
  11
 236.43386070833
  21
 88.940826454107
  31
0.0
   0
LINE
   5
58E
 100
AcDbEntity
   8
LEVEL001
 100
AcDbLine
   6
CONTINUOUS
  62
1
  10
 236.43386070833
  20
 88.940826454107
  30
0.0
  11
 236.58639689323
  21
 88.989845413507
  31
0.0
   0
LINE
   5
58F
 100
AcDbEntity
   8
LEVEL001
 100
AcDbLine
   6
CONTINUOUS
  62
1
  10
 236.58639689323
  20
 88.989845413507
  30
0.0
  11
 236.73823122393
  21
 89.124648213107
  31
0.0
   0
LINE
   5
590
 100
AcDbEntity
   8
LEVEL001
 100
AcDbLine
   6
CONTINUOUS
  62
1
  10
 236.73823122393
  20
 89.124648213107
  30
0.0
  11
 236.88871084673
  21
 89.344655231107
  31
0.0
   0
LINE
   5
591
 100
AcDbEntity
   8
LEVEL001
 100
AcDbLine
   6
CONTINUOUS
  62
1
  10
 236.88871084673
  20
 89.344655231107
  30
0.0
  11
 237.03718873313
  21
 89.648920486507
  31
0.0
   0
LINE
   5
592
 100
AcDbEntity
   8
LEVEL001
 100
AcDbLine
   6
CONTINUOUS
  62
1
  10
 237.03718873313
  20
 89.648920486507
  30
0.0
  11
 237.18302646133
  21
 90.036135707007
  31
0.0
   0
LINE
   5
593
 100
AcDbEntity
   8
LEVEL001
 100
AcDbLine
   6
CONTINUOUS
  62
1
  10
 237.18302646133
  20
 90.036135707007
  30
0.0
  11
 237.32559696173
  21
 90.504635953807
  31
0.0
   0
LINE
   5
594
 100
AcDbEntity
   8
LEVEL001
 100
AcDbLine
   6
CONTINUOUS
  62
1
  10
 237.32559696173
  20
 90.504635953807
  30
0.0
  11
 237.46428721333
  21
 91.052406781007
  31
0.0
   0
LINE
   5
595
 100
AcDbEntity
   8
LEVEL001
 100
AcDbLine
   6
CONTINUOUS
  62
1
  10
 237.46428721333
  20
 91.052406781007
  30
0.0
  11
 237.59850087903
  21
 91.677092896607
  31
0.0
   0
LINE
   5
596
 100
AcDbEntity
   8
LEVEL001
 100
AcDbLine
   6
CONTINUOUS
  62
1
  10
 237.59850087903
  20
 91.677092896607
  30
0.0
  11
 237.72766087013
  21
 92.376008290407
  31
0.0
   0
LINE
   5
597
 100
AcDbEntity
   8
LEVEL001
 100
AcDbLine
   6
CONTINUOUS
  62
1
  10
 237.72766087013
  20
 92.376008290407
  30
0.0
  11
 237.85121182753
  21
 93.146147782807
  31
0.0
   0
LINE
   5
598
 100
AcDbEntity
   8
LEVEL001
 100
AcDbLine
   6
CONTINUOUS
  62
1
  10
 237.85121182753
  20
 93.146147782807
  30
0.0
  11
 237.96862251003
  21
 93.984199946607
  31
0.0
   0
LINE
   5
599
 100
AcDbEntity
   8
LEVEL001
 100
AcDbLine
   6
CONTINUOUS
  62
1
  10
 237.96862251003
  20
 93.984199946607
  30
0.0
  11
 238.07938807773
  21
 94.886561345307
  31
0.0
   0
LINE
   5
59A
 100
AcDbEntity
   8
LEVEL001
 100
AcDbLine
   6
CONTINUOUS
  62
1
  10
 242.92402536273
  20
 87.940615399307
  30
0.0
  11
 243.03389108803
  21
 87.986291478607
  31
0.0
   0
LINE
   5
59B
 100
AcDbEntity
   8
LEVEL001
 100
AcDbLine
   6
CONTINUOUS
  62
1
  10
 243.03389108803
  20
 87.986291478607
  30
0.0
  11
 243.14327888623
  21
 88.123121020707
  31
0.0
   0
LINE
   5
59C
 100
AcDbEntity
   8
LEVEL001
 100
AcDbLine
   6
CONTINUOUS
  62
1
  10
 243.14327888623
  20
 88.123121020707
  30
0.0
  11
 243.25171290903
  21
 88.350508803207
  31
0.0
   0
LINE
   5
59D
 100
AcDbEntity
   8
LEVEL001
 100
AcDbLine
   6
CONTINUOUS
  62
1
  10
 243.25171290903
  20
 88.350508803207
  30
0.0
  11
 243.35872145723
  21
 88.667465665707
  31
0.0
   0
LINE
   5
59E
 100
AcDbEntity
   8
LEVEL001
 100
AcDbLine
   6
CONTINUOUS
  62
1
  10
 243.35872145723
  20
 88.667465665707
  30
0.0
  11
 243.46383903283
  21
 89.072612813507
  31
0.0
   0
LINE
   5
59F
 100
AcDbEntity
   8
LEVEL001
 100
AcDbLine
   6
CONTINUOUS
  62
1
  10
 243.46383903283
  20
 89.072612813507
  30
0.0
  11
 243.56660836353
  21
 89.564187814607
  31
0.0
   0
LINE
   5
5A0
 100
AcDbEntity
   8
LEVEL001
 100
AcDbLine
   6
CONTINUOUS
  62
1
  10
 243.56660836353
  20
 89.564187814607
  30
0.0
  11
 243.66658239203
  21
 90.140052267407
  31
0.0
   0
LINE
   5
5A1
 100
AcDbEntity
   8
LEVEL001
 100
AcDbLine
   6
CONTINUOUS
  62
1
  10
 243.66658239203
  20
 90.140052267407
  30
0.0
  11
 243.76332622113
  21
 90.797701102207
  31
0.0
   0
LINE
   5
5A2
 100
AcDbEntity
   8
LEVEL001
 100
AcDbLine
   6
CONTINUOUS
  62
1
  10
 243.76332622113
  20
 90.797701102207
  30
0.0
  11
 243.85641900533
  21
 91.534273479107
  31
0.0
   0
LINE
   5
5A3
 100
AcDbEntity
   8
LEVEL001
 100
AcDbLine
   6
CONTINUOUS
  62
1
  10
 243.85641900533
  20
 91.534273479107
  30
0.0
  11
 243.94545578123
  21
 92.346565232507
  31
0.0
   0
LINE
   5
5A4
 100
AcDbEntity
   8
LEVEL001
 100
AcDbLine
   6
CONTINUOUS
  62
1
  10
 243.94545578123
  20
 92.346565232507
  30
0.0
  11
 244.03004922983
  21
 93.231042809807
  31
0.0
   0
LINE
   5
5A5
 100
AcDbEntity
   8
LEVEL001
 100
AcDbLine
   6
CONTINUOUS
  62
1
  10
 244.03004922983
  20
 93.231042809807
  30
0.0
  11
 244.10983136103
  21
 94.183858642607
  31
0.0
   0
LINE
   5
5A6
 100
AcDbEntity
   8
LEVEL001
 100
AcDbLine
   6
CONTINUOUS
  62
1
  10
 237.42715520003
  20
 87.940837006807
  30
0.0
  11
 237.41660942553
  21
 87.940615399307
  31
0.0
   0
LINE
   5
5A7
 100
AcDbEntity
   8
LEVEL001
 100
AcDbLine
   6
CONTINUOUS
  62
1
  10
 237.83095483603
  20
 96.994669453407
  30
0.0
  11
 237.72806821173
  21
 96.161423403407
  31
0.0
   0
LINE
   5
5A8
 100
AcDbEntity
   8
LEVEL001
 100
AcDbLine
   6
CONTINUOUS
  62
1
  10
 237.72806821173
  20
 96.161423403407
  30
0.0
  11
 237.61851848743
  21
 95.393430567307
  31
0.0
   0
LINE
   5
5A9
 100
AcDbEntity
   8
LEVEL001
 100
AcDbLine
   6
CONTINUOUS
  62
1
  10
 237.61851848743
  20
 95.393430567307
  30
0.0
  11
 237.50286504693
  21
 94.694612476407
  31
0.0
   0
LINE
   5
5AA
 100
AcDbEntity
   8
LEVEL001
 100
AcDbLine
   6
CONTINUOUS
  62
1
  10
 237.50286504693
  20
 94.694612476407
  30
0.0
  11
 237.38169844083
  21
 94.068537441307
  31
0.0
   0
LINE
   5
5AB
 100
AcDbEntity
   8
LEVEL001
 100
AcDbLine
   6
CONTINUOUS
  62
1
  10
 237.38169844083
  20
 94.068537441307
  30
0.0
  11
 237.25563737093
  21
 93.518402331507
  31
0.0
   0
LINE
   5
5AC
 100
AcDbEntity
   8
LEVEL001
 100
AcDbLine
   6
CONTINUOUS
  62
1
  10
 237.25563737093
  20
 93.518402331507
  30
0.0
  11
 237.12532553133
  21
 93.047016251307
  31
0.0
   0
LINE
   5
5AD
 100
AcDbEntity
   8
LEVEL001
 100
AcDbLine
   6
CONTINUOUS
  62
1
  10
 237.12532553133
  20
 93.047016251307
  30
0.0
  11
 236.99142832143
  21
 92.656786196107
  31
0.0
   0
LINE
   5
5AE
 100
AcDbEntity
   8
LEVEL001
 100
AcDbLine
   6
CONTINUOUS
  62
1
  10
 236.99142832143
  20
 92.656786196107
  30
0.0
  11
 236.85462944823
  21
 92.349704761707
  31
0.0
   0
LINE
   5
5AF
 100
AcDbEntity
   8
LEVEL001
 100
AcDbLine
   6
CONTINUOUS
  62
1
  10
 236.85462944823
  20
 92.349704761707
  30
0.0
  11
 236.71562743533
  21
 92.127339970107
  31
0.0
   0
LINE
   5
5B0
 100
AcDbEntity
   8
LEVEL001
 100
AcDbLine
   6
CONTINUOUS
  62
1
  10
 236.71562743533
  20
 92.127339970107
  30
0.0
  11
 236.57513205573
  21
 91.990827261907
  31
0.0
   0
LINE
   5
5B1
 100
AcDbEntity
   8
LEVEL001
 100
AcDbLine
   6
CONTINUOUS
  62
1
  10
 236.57513205573
  20
 91.990827261907
  30
0.0
  11
 236.43386070833
  21
 91.940863699507
  31
0.0
   0
LINE
   5
5B2
 100
AcDbEntity
   8
LEVEL001
 100
AcDbLine
   6
CONTINUOUS
  62
1
  10
 236.43386070833
  20
 88.940826454107
  30
0.0
  11
 236.43386070833
  21
 91.940863699507
  31
0.0
   0
LINE
   5
5B3
 100
AcDbEntity
   8
LEVEL001
 100
AcDbLine
   6
CONTINUOUS
  62
1
  10
 236.94786927543
  20
 92.817036598807
  30
0.0
  11
 236.87511673113
  21
 92.772538232507
  31
0.0
   0
LINE
   5
5B4
 100
AcDbEntity
   8
LEVEL001
 100
AcDbLine
   6
CONTINUOUS
  62
1
  10
 236.87511673113
  20
 92.772538232507
  30
0.0
  11
 236.72457038813
  21
 92.648181172707
  31
0.0
   0
LINE
   5
5B5
 100
AcDbEntity
   8
LEVEL001
 100
AcDbLine
   6
CONTINUOUS
  62
1
  10
 236.72457038813
  20
 92.648181172707
  30
0.0
  11
 236.60104540143
  21
 92.496620738807
  31
0.0
   0
LINE
   5
5B6
 100
AcDbEntity
   8
LEVEL001
 100
AcDbLine
   6
CONTINUOUS
  62
1
  10
 236.60104540143
  20
 92.496620738807
  30
0.0
  11
 236.50929253233
  21
 92.323685933107
  31
0.0
   0
LINE
   5
5B7
 100
AcDbEntity
   8
LEVEL001
 100
AcDbLine
   6
CONTINUOUS
  62
1
  10
 236.50929253233
  20
 92.323685933107
  30
0.0
  11
 236.45284058883
  21
 92.136027814507
  31
0.0
   0
LINE
   5
5B8
 100
AcDbEntity
   8
LEVEL001
 100
AcDbLine
   6
CONTINUOUS
  62
1
  10
 236.45284058883
  20
 92.136027814507
  30
0.0
  11
 236.43386070833
  21
 91.940863699507
  31
0.0
   0
LINE
   5
5B9
 100
AcDbEntity
   8
LEVEL001
 100
AcDbLine
   6
CONTINUOUS
  62
1
  10
 237.41660942553
  20
 87.940615399307
  30
0.0
  11
 237.22275633913
  21
 87.959830118907
  31
0.0
   0
LINE
   5
5BA
 100
AcDbEntity
   8
LEVEL001
 100
AcDbLine
   6
CONTINUOUS
  62
1
  10
 237.22275633913
  20
 87.959830118907
  30
0.0
  11
 237.03635291823
  21
 88.016735866807
  31
0.0
   0
LINE
   5
5BB
 100
AcDbEntity
   8
LEVEL001
 100
AcDbLine
   6
CONTINUOUS
  62
1
  10
 237.03635291823
  20
 88.016735866807
  30
0.0
  11
 236.86456254163
  21
 88.109145787007
  31
0.0
   0
LINE
   5
5BC
 100
AcDbEntity
   8
LEVEL001
 100
AcDbLine
   6
CONTINUOUS
  62
1
  10
 236.86456254163
  20
 88.109145787007
  30
0.0
  11
 236.71398701713
  21
 88.233508618107
  31
0.0
   0
LINE
   5
5BD
 100
AcDbEntity
   8
LEVEL001
 100
AcDbLine
   6
CONTINUOUS
  62
1
  10
 236.71398701713
  20
 88.233508618107
  30
0.0
  11
 236.59041287783
  21
 88.385045166307
  31
0.0
   0
LINE
   5
5BE
 100
AcDbEntity
   8
LEVEL001
 100
AcDbLine
   6
CONTINUOUS
  62
1
  10
 236.59041287783
  20
 88.385045166307
  30
0.0
  11
 236.49858900843
  21
 88.557931966907
  31
0.0
   0
LINE
   5
5BF
 100
AcDbEntity
   8
LEVEL001
 100
AcDbLine
   6
CONTINUOUS
  62
1
  10
 236.49858900843
  20
 88.557931966907
  30
0.0
  11
 236.44204414893
  21
 88.745525077307
  31
0.0
   0
LINE
   5
5C0
 100
AcDbEntity
   8
LEVEL001
 100
AcDbLine
   6
CONTINUOUS
  62
1
  10
 236.44204414893
  20
 88.745525077307
  30
0.0
  11
 236.42295128643
  21
 88.940615399307
  31
0.0
   0
LINE
   5
5C1
 100
AcDbEntity
   8
LEVEL001
 100
AcDbLine
   6
CONTINUOUS
  62
1
  10
 236.42295128643
  20
 88.940615399307
  30
0.0
  11
 236.43386070833
  21
 88.940826454107
  31
0.0
   0
LINE
   5
5C2
 100
AcDbEntity
   8
LEVEL001
 100
AcDbLine
   6
CONTINUOUS
  62
1
  10
 236.23269545933
  20
 88.940615399307
  30
0.0
  11
 236.42295128643
  21
 88.940615399307
  31
0.0
   0
LINE
   5
5C3
 100
AcDbEntity
   8
LEVEL001
 100
AcDbLine
   6
CONTINUOUS
  62
1
  10
 236.42295128643
  20
 91.940615399307
  30
0.0
  11
 236.23269545933
  21
 91.940615399307
  31
0.0
   0
LINE
   5
5C4
 100
AcDbEntity
   8
LEVEL001
 100
AcDbLine
   6
CONTINUOUS
  62
1
  10
 236.43386070833
  20
 91.940863699507
  30
0.0
  11
 236.42295128643
  21
 91.940615399307
  31
0.0
   0
LINE
   5
5C5
 100
AcDbEntity
   8
LEVEL001
 100
AcDbLine
   6
CONTINUOUS
  62
1
  10
 236.95430479763
  20
 92.825791985107
  30
0.0
  11
 236.86456254163
  21
 92.772085011607
  31
0.0
   0
LINE
   5
5C6
 100
AcDbEntity
   8
LEVEL001
 100
AcDbLine
   6
CONTINUOUS
  62
1
  10
 236.86456254163
  20
 92.772085011607
  30
0.0
  11
 236.71398701713
  21
 92.647722180507
  31
0.0
   0
LINE
   5
5C7
 100
AcDbEntity
   8
LEVEL001
 100
AcDbLine
   6
CONTINUOUS
  62
1
  10
 236.71398701713
  20
 92.647722180507
  30
0.0
  11
 236.59041287783
  21
 92.496185632307
  31
0.0
   0
LINE
   5
5C8
 100
AcDbEntity
   8
LEVEL001
 100
AcDbLine
   6
CONTINUOUS
  62
1
  10
 236.59041287783
  20
 92.496185632307
  30
0.0
  11
 236.49858900843
  21
 92.323298831707
  31
0.0
   0
LINE
   5
5C9
 100
AcDbEntity
   8
LEVEL001
 100
AcDbLine
   6
CONTINUOUS
  62
1
  10
 236.49858900843
  20
 92.323298831707
  30
0.0
  11
 236.44204414893
  21
 92.135705721307
  31
0.0
   0
LINE
   5
5CA
 100
AcDbEntity
   8
LEVEL001
 100
AcDbLine
   6
CONTINUOUS
  62
1
  10
 236.44204414893
  20
 92.135705721307
  30
0.0
  11
 236.42295128643
  21
 91.940615399307
  31
0.0
   0
LINE
   5
5CB
 100
AcDbEntity
   8
LEVEL001
 100
AcDbLine
   6
CONTINUOUS
  62
1
  10
 249.75349274873
  20
 92.940615399307
  30
0.0
  11
 249.75349274873
  21
 91.940615399307
  31
0.0
   0
LINE
   5
5CC
 100
AcDbEntity
   8
LEVEL001
 100
AcDbLine
   6
CONTINUOUS
  62
1
  10
 249.75349274873
  20
 91.940615399307
  30
0.0
  11
 244.79645732653
  21
 91.940615399307
  31
0.0
   0
LINE
   5
5CD
 100
AcDbEntity
   8
LEVEL001
 100
AcDbLine
   6
CONTINUOUS
  62
1
  10
 244.15436751433
  20
 88.940615399307
  30
0.0
  11
 249.75349274873
  21
 88.940615399307
  31
0.0
   0
LINE
   5
5CE
 100
AcDbEntity
   8
LEVEL001
 100
AcDbLine
   6
CONTINUOUS
  62
1
  10
 249.75349274873
  20
 88.940615399307
  30
0.0
  11
 249.75349274873
  21
 87.940615399307
  31
0.0
   0
LINE
   5
5CF
 100
AcDbEntity
   8
LEVEL001
 100
AcDbLine
   6
CONTINUOUS
  62
1
  10
 249.75349274873
  20
 88.940615399307
  30
0.0
  11
 249.75349274873
  21
 91.940615399307
  31
0.0
   0
LINE
   5
5D0
 100
AcDbEntity
   8
LEVEL001
 100
AcDbLine
   6
CONTINUOUS
  62
1
  10
 262.71189816993
  20
 91.940615399307
  30
0.0
  11
 249.75349274873
  21
 91.940615399307
  31
0.0
   0
LINE
   5
5D1
 100
AcDbEntity
   8
LEVEL001
 100
AcDbLine
   6
CONTINUOUS
  62
1
  10
 249.75349274873
  20
 88.940615399307
  30
0.0
  11
 262.71189816993
  21
 88.940615399307
  31
0.0
   0
LINE
   5
5D2
 100
AcDbEntity
   8
LEVEL001
 100
AcDbLine
   6
CONTINUOUS
  62
1
  10
 240.23269545933
  20
 99.940615399307
  30
0.0
  11
 240.23269545933
  21
 98.440615399307
  31
0.0
   0
LINE
   5
5D3
 100
AcDbEntity
   8
LEVEL001
 100
AcDbLine
   6
CONTINUOUS
  62
1
  10
 240.23269545933
  20
 99.940615399307
  30
0.0
  11
 272.23269545933
  21
 99.940615399307
  31
0.0
   0
LINE
   5
5D4
 100
AcDbEntity
   8
LEVEL001
 100
AcDbLine
   6
CONTINUOUS
  62
1
  10
 240.23269545933
  20
 119.09200321821
  30
0.0
  11
 240.23269545933
  21
 118.81465312011
  31
0.0
   0
LINE
   5
5D5
 100
AcDbEntity
   8
LEVEL001
 100
AcDbLine
   6
CONTINUOUS
  62
1
  10
 240.23269545933
  20
 119.09200321821
  30
0.0
  11
 272.23269545933
  21
 119.09200321821
  31
0.0
   0
LINE
   5
5D6
 100
AcDbEntity
   8
LEVEL001
 100
AcDbLine
   6
CONTINUOUS
  62
1
  10
 272.23269545933
  20
 118.81465312011
  30
0.0
  11
 240.23269545933
  21
 118.81465312011
  31
0.0
   0
LINE
   5
5D7
 100
AcDbEntity
   8
LEVEL001
 100
AcDbLine
   6
CONTINUOUS
  62
1
  10
 240.23269545933
  20
 143.78922758041
  30
0.0
  11
 240.23269545933
  21
 119.09200321821
  31
0.0
   0
LINE
   5
5D8
 100
AcDbEntity
   8
LEVEL001
 100
AcDbLine
   6
CONTINUOUS
  62
1
  10
 272.23269545933
  20
 143.78922758041
  30
0.0
  11
 240.23269545933
  21
 143.78922758041
  31
0.0
   0
ARC
   5
5D9
 100
AcDbEntity
   8
LEVEL001
   6
CONTINUOUS
  62
1
 100
AcDbCircle
  10
 240.00349945213
  20
 119.66065269021
  30
0.0
  40
 0.87649648170000
 100
AcDbArc
  50
 208.42814651512
  51
 285.15855566849
   0
ARC
   5
5DA
 100
AcDbEntity
   8
LEVEL001
   6
CONTINUOUS
  62
1
 100
AcDbCircle
  10
 239.98842502722
  20
 120.85693190121
  30
0.0
  40
 1.7817523117000
 100
AcDbArc
  50
 244.90315093308
  51
 277.87981676289
   0
ARC
   5
5DB
 100
AcDbEntity
   8
LEVEL001
   6
CONTINUOUS
  62
1
 100
AcDbCircle
  10
 239.95831702733
  20
 142.22317883491
  30
0.0
  40
 1.5899032038000
 100
AcDbArc
  50
 80.062398687222
  51
 117.15463361713
   0
ARC
   5
5DC
 100
AcDbEntity
   8
LEVEL001
   6
CONTINUOUS
  62
1
 100
AcDbCircle
  10
 240.00349945213
  20
 143.22057810841
  30
0.0
  40
 0.87649648170000
 100
AcDbArc
  50
 74.841444331308
  51
 151.57185348534
   0
LINE
   5
5DD
 100
AcDbEntity
   8
LEVEL001
 100
AcDbLine
   6
CONTINUOUS
  62
1
  10
 240.23269545933
  20
 144.06657767861
  30
0.0
  11
 240.23269545933
  21
 143.78922758041
  31
0.0
   0
LINE
   5
5DE
 100
AcDbEntity
   8
LEVEL001
 100
AcDbLine
   6
CONTINUOUS
  62
1
  10
 240.23269545933
  20
 144.06657767861
  30
0.0
  11
 272.23269545933
  21
 144.06657767861
  31
0.0
   0
LINE
   5
5DF
 100
AcDbEntity
   8
LEVEL001
 100
AcDbLine
   6
CONTINUOUS
  62
1
  10
 240.23269545933
  20
 118.81465312011
  30
0.0
  11
 240.23269545933
  21
 116.06657767861
  31
0.0
   0
LINE
   5
5E0
 100
AcDbEntity
   8
LEVEL001
 100
AcDbLine
   6
CONTINUOUS
  62
1
  10
 240.23269545933
  20
 116.06657767861
  30
0.0
  11
 272.23269545933
  21
 116.06657767861
  31
0.0
   0
LINE
   5
5E1
 100
AcDbEntity
   8
LEVEL001
 100
AcDbLine
   6
CONTINUOUS
  62
1
  10
 240.23269545933
  20
 116.06657767861
  30
0.0
  11
 240.03760513733
  21
 116.07723608731
  31
0.0
   0
LINE
   5
5E2
 100
AcDbEntity
   8
LEVEL001
 100
AcDbLine
   6
CONTINUOUS
  62
1
  10
 240.03760513733
  20
 116.07723608731
  30
0.0
  11
 239.85001202703
  21
 116.10880171681
  31
0.0
   0
LINE
   5
5E3
 100
AcDbEntity
   8
LEVEL001
 100
AcDbLine
   6
CONTINUOUS
  62
1
  10
 239.85001202703
  20
 116.10880171681
  30
0.0
  11
 239.67712522633
  21
 116.16006151771
  31
0.0
   0
LINE
   5
5E4
 100
AcDbEntity
   8
LEVEL001
 100
AcDbLine
   6
CONTINUOUS
  62
1
  10
 239.67712522633
  20
 116.16006151771
  30
0.0
  11
 239.52558867813
  21
 116.22904560451
  31
0.0
   0
LINE
   5
5E5
 100
AcDbEntity
   8
LEVEL001
 100
AcDbLine
   6
CONTINUOUS
  62
1
  10
 239.52558867813
  20
 116.22904560451
  30
0.0
  11
 239.40122584703
  21
 116.31310295751
  31
0.0
   0
LINE
   5
5E6
 100
AcDbEntity
   8
LEVEL001
 100
AcDbLine
   6
CONTINUOUS
  62
1
  10
 239.40122584703
  20
 116.31310295751
  30
0.0
  11
 239.30881592683
  21
 116.40900329981
  31
0.0
   0
LINE
   5
5E7
 100
AcDbEntity
   8
LEVEL001
 100
AcDbLine
   6
CONTINUOUS
  62
1
  10
 239.30881592683
  20
 116.40900329981
  30
0.0
  11
 239.25191017893
  21
 116.51306123491
  31
0.0
   0
LINE
   5
5E8
 100
AcDbEntity
   8
LEVEL001
 100
AcDbLine
   6
CONTINUOUS
  62
1
  10
 239.25191017893
  20
 116.51306123491
  30
0.0
  11
 239.23269545933
  21
 116.62127787481
  31
0.0
   0
LINE
   5
5E9
 100
AcDbEntity
   8
LEVEL001
 100
AcDbLine
   6
CONTINUOUS
  62
1
  10
 240.23269545933
  20
 146.71796549741
  30
0.0
  11
 240.23269545933
  21
 144.06657767861
  31
0.0
   0
ARC
   5
5EA
 100
AcDbEntity
   8
LEVEL001
   6
CONTINUOUS
  62
1
 100
AcDbCircle
  10
 240.12156974423
  20
 145.82903414700
  30
0.0
  40
 0.89585036150000
 100
AcDbArc
  50
 82.874393682100
  51
 172.84503123769
   0
LINE
   5
5EB
 100
AcDbEntity
   8
LEVEL001
 100
AcDbLine
   6
CONTINUOUS
  62
1
  10
 272.23269545933
  20
 146.71796549741
  30
0.0
  11
 240.23269545933
  21
 146.71796549741
  31
0.0
   0
LINE
   5
5EC
 100
AcDbEntity
   8
LEVEL001
 100
AcDbLine
   6
CONTINUOUS
  62
1
  10
 240.23269545933
  20
 99.940615399307
  30
0.0
  11
 239.23269545933
  21
 99.940615399307
  31
0.0
   0
LINE
   5
5ED
 100
AcDbEntity
   8
LEVEL001
 100
AcDbLine
   6
CONTINUOUS
  62
1
  10
 240.23269545933
  20
 146.94061539931
  30
0.0
  11
 240.23269545933
  21
 146.71796549741
  31
0.0
   0
LINE
   5
5EE
 100
AcDbEntity
   8
LEVEL001
 100
AcDbLine
   6
CONTINUOUS
  62
1
  10
 240.23269545933
  20
 116.06657767861
  30
0.0
  11
 240.23269545933
  21
 115.78922758041
  31
0.0
   0
LINE
   5
5EF
 100
AcDbEntity
   8
LEVEL001
 100
AcDbLine
   6
CONTINUOUS
  62
1
  10
 240.23269545933
  20
 115.78922758041
  30
0.0
  11
 239.23269545933
  21
 115.78922758041
  31
0.0
   0
LINE
   5
5F0
 100
AcDbEntity
   8
LEVEL001
 100
AcDbLine
   6
CONTINUOUS
  62
1
  10
 272.23269545933
  20
 115.78922758041
  30
0.0
  11
 240.23269545933
  21
 115.78922758041
  31
0.0
   0
LINE
   5
5F1
 100
AcDbEntity
   8
LEVEL001
 100
AcDbLine
   6
CONTINUOUS
  62
1
  10
 240.23269545933
  20
 115.78922758041
  30
0.0
  11
 240.23269545933
  21
 99.940615399307
  31
0.0
   0
ARC
   5
5F2
 100
AcDbEntity
   8
LEVEL001
   6
CONTINUOUS
  62
7
 100
AcDbCircle
  10
 273.45476588512
  20
 97.245979359907
  30
0.0
  40
 1.1877728127000
 100
AcDbArc
  50
 353.37148707081
  51
 87.045644175473
   0
ARC
   5
5F3
 100
AcDbEntity
   8
LEVEL001
   6
CONTINUOUS
  62
7
 100
AcDbCircle
  10
 282.32167602933
  20
 95.897839415206
  30
0.0
  40
 15.002636469300
 100
AcDbArc
  50
 178.84028350940
  51
 184.17909030010
   0
LINE
   5
5F4
 100
AcDbEntity
   8
LEVEL001
 100
AcDbLine
   6
CONTINUOUS
  62
7
  10
 268.44366055183
  20
 98.433451759607
  30
0.0
  11
 268.22444100893
  21
 98.416365170907
  31
0.0
   0
LINE
   5
5F5
 100
AcDbEntity
   8
LEVEL001
 100
AcDbLine
   6
CONTINUOUS
  62
7
  10
 268.22444100893
  20
 98.416365170907
  30
0.0
  11
 267.99052033653
  21
 98.332961899507
  31
0.0
   0
LINE
   5
5F6
 100
AcDbEntity
   8
LEVEL001
 100
AcDbLine
   6
CONTINUOUS
  62
7
  10
 267.99052033653
  20
 98.332961899507
  30
0.0
  11
 267.80477544763
  21
 98.212747659007
  31
0.0
   0
LINE
   5
5F7
 100
AcDbEntity
   8
LEVEL001
 100
AcDbLine
   6
CONTINUOUS
  62
7
  10
 267.80477544763
  20
 98.212747659007
  30
0.0
  11
 267.66305030653
  21
 98.072411903407
  31
0.0
   0
LINE
   5
5F8
 100
AcDbEntity
   8
LEVEL001
 100
AcDbLine
   6
CONTINUOUS
  62
7
  10
 267.66305030653
  20
 98.072411903407
  30
0.0
  11
 267.56133276913
  21
 97.926476071507
  31
0.0
   0
LINE
   5
5F9
 100
AcDbEntity
   8
LEVEL001
 100
AcDbLine
   6
CONTINUOUS
  62
7
  10
 267.56133276913
  20
 97.926476071507
  30
0.0
  11
 267.49337070963
  21
 97.787527861307
  31
0.0
   0
LINE
   5
5FA
 100
AcDbEntity
   8
LEVEL001
 100
AcDbLine
   6
CONTINUOUS
  62
7
  10
 267.49337070963
  20
 97.787527861307
  30
0.0
  11
 267.44837931413
  21
 97.656762641707
  31
0.0
   0
LINE
   5
5FB
 100
AcDbEntity
   8
LEVEL001
 100
AcDbLine
   6
CONTINUOUS
  62
7
  10
 267.44837931413
  20
 97.656762641707
  30
0.0
  11
 267.41542665063
  21
 97.519287751807
  31
0.0
   0
LINE
   5
5FC
 100
AcDbEntity
   8
LEVEL001
 100
AcDbLine
   6
CONTINUOUS
  62
7
  10
 267.41542665063
  20
 97.519287751807
  30
0.0
  11
 267.38358457083
  21
 97.318334035507
  31
0.0
   0
LINE
   5
5FD
 100
AcDbEntity
   8
LEVEL001
 100
AcDbLine
   6
CONTINUOUS
  62
7
  10
 267.38358457083
  20
 97.318334035507
  30
0.0
  11
 267.35690764533
  21
 97.051629512607
  31
0.0
   0
LINE
   5
5FE
 100
AcDbEntity
   8
LEVEL001
 100
AcDbLine
   6
CONTINUOUS
  62
7
  10
 267.35690764533
  20
 97.051629512607
  30
0.0
  11
 267.33849093443
  21
 96.760992901807
  31
0.0
   0
LINE
   5
5FF
 100
AcDbEntity
   8
LEVEL001
 100
AcDbLine
   6
CONTINUOUS
  62
7
  10
 267.33849093443
  20
 96.760992901807
  30
0.0
  11
 267.32569861243
  21
 96.420717673007
  31
0.0
   0
LINE
   5
600
 100
AcDbEntity
   8
LEVEL001
 100
AcDbLine
   6
CONTINUOUS
  62
7
  10
 267.32569861243
  20
 96.420717673007
  30
0.0
  11
 267.32211269163
  21
 96.201485112407
  31
0.0
   0
LINE
   5
601
 100
AcDbEntity
   8
LEVEL001
 100
AcDbLine
   6
CONTINUOUS
  62
7
  10
 273.51692497003
  20
 98.440615399307
  30
0.0
  11
 268.44449500763
  21
 98.440615399307
  31
0.0
   0
LINE
   5
602
 100
AcDbEntity
   8
LEVEL001
 100
AcDbLine
   6
CONTINUOUS
  62
7
  10
 267.35892949123
  20
 94.804533846407
  30
0.0
  11
 267.39797397043
  21
 94.345279980207
  31
0.0
   0
LINE
   5
603
 100
AcDbEntity
   8
LEVEL001
 100
AcDbLine
   6
CONTINUOUS
  62
7
  10
 267.39797397043
  20
 94.345279980207
  30
0.0
  11
 267.47613952513
  21
 93.508915473307
  31
0.0
   0
LINE
   5
604
 100
AcDbEntity
   8
LEVEL001
 100
AcDbLine
   6
CONTINUOUS
  62
7
  10
 267.47613952513
  20
 93.508915473307
  30
0.0
  11
 267.55887808663
  21
 92.728507934607
  31
0.0
   0
LINE
   5
605
 100
AcDbEntity
   8
LEVEL001
 100
AcDbLine
   6
CONTINUOUS
  62
7
  10
 267.55887808663
  20
 92.728507934607
  30
0.0
  11
 267.64615914633
  21
 92.005811165007
  31
0.0
   0
LINE
   5
606
 100
AcDbEntity
   8
LEVEL001
 100
AcDbLine
   6
CONTINUOUS
  62
7
  10
 267.64615914633
  20
 92.005811165007
  30
0.0
  11
 267.73804720243
  21
 91.342439421207
  31
0.0
   0
LINE
   5
607
 100
AcDbEntity
   8
LEVEL001
 100
AcDbLine
   6
CONTINUOUS
  62
7
  10
 267.73804720243
  20
 91.342439421207
  30
0.0
  11
 267.83486703483
  21
 90.739206351007
  31
0.0
   0
LINE
   5
608
 100
AcDbEntity
   8
LEVEL001
 100
AcDbLine
   6
CONTINUOUS
  62
7
  10
 267.83486703483
  20
 90.739206351007
  30
0.0
  11
 267.93748595433
  21
 90.195664475907
  31
0.0
   0
LINE
   5
609
 100
AcDbEntity
   8
LEVEL001
 100
AcDbLine
   6
CONTINUOUS
  62
7
  10
 267.93748595433
  20
 90.195664475907
  30
0.0
  11
 268.04801949003
  21
 89.709098468007
  31
0.0
   0
LINE
   5
60A
 100
AcDbEntity
   8
LEVEL001
 100
AcDbLine
   6
CONTINUOUS
  62
7
  10
 268.04801949003
  20
 89.709098468007
  30
0.0
  11
 268.17193751783
  21
 89.271961589107
  31
0.0
   0
LINE
   5
60B
 100
AcDbEntity
   8
LEVEL001
 100
AcDbLine
   6
CONTINUOUS
  62
7
  10
 268.17193751783
  20
 89.271961589107
  30
0.0
  11
 268.32627679923
  21
 88.863911204807
  31
0.0
   0
LINE
   5
60C
 100
AcDbEntity
   8
LEVEL001
 100
AcDbLine
   6
CONTINUOUS
  62
7
  10
 268.32627679923
  20
 88.863911204807
  30
0.0
  11
 268.45988161273
  21
 88.607509544007
  31
0.0
   0
LINE
   5
60D
 100
AcDbEntity
   8
LEVEL001
 100
AcDbLine
   6
CONTINUOUS
  62
7
  10
 268.45988161273
  20
 88.607509544007
  30
0.0
  11
 268.59420113203
  21
 88.415628917607
  31
0.0
   0
LINE
   5
60E
 100
AcDbEntity
   8
LEVEL001
 100
AcDbLine
   6
CONTINUOUS
  62
7
  10
 268.59420113203
  20
 88.415628917607
  30
0.0
  11
 268.75437656593
  21
 88.247411811807
  31
0.0
   0
LINE
   5
60F
 100
AcDbEntity
   8
LEVEL001
 100
AcDbLine
   6
CONTINUOUS
  62
7
  10
 268.75437656593
  20
 88.247411811807
  30
0.0
  11
 268.94958512223
  21
 88.104531803007
  31
0.0
   0
LINE
   5
610
 100
AcDbEntity
   8
LEVEL001
 100
AcDbLine
   6
CONTINUOUS
  62
7
  10
 268.94958512223
  20
 88.104531803007
  30
0.0
  11
 269.18521336133
  21
 87.997545987607
  31
0.0
   0
LINE
   5
611
 100
AcDbEntity
   8
LEVEL001
 100
AcDbLine
   6
CONTINUOUS
  62
7
  10
 269.18521336133
  20
 87.997545987607
  30
0.0
  11
 269.45382147003
  21
 87.943984445807
  31
0.0
   0
LINE
   5
612
 100
AcDbEntity
   8
LEVEL001
 100
AcDbLine
   6
CONTINUOUS
  62
7
  10
 269.45382147003
  20
 87.943984445807
  30
0.0
  11
 269.54136555603
  21
 87.940615399307
  31
0.0
   0
ARC
   5
613
 100
AcDbEntity
   8
LEVEL001
   6
CONTINUOUS
  62
7
 100
AcDbCircle
  10
 288.18613656323
  20
 97.655797442507
  30
0.0
  40
 13.562569728600
 100
AcDbArc
  50
 182.31113743570
  51
 201.23704904220
   0
LINE
   5
614
 100
AcDbEntity
   8
LEVEL001
 100
AcDbLine
   6
CONTINUOUS
  62
7
  10
 276.23269545933
  20
 88.940615399307
  30
0.0
  11
 276.23269545933
  21
 91.940615399307
  31
0.0
   0
ARC
   5
615
 100
AcDbEntity
   8
LEVEL001
   6
CONTINUOUS
  62
7
 100
AcDbCircle
  10
 275.23269545933
  20
 91.940615399307
  30
0.0
  40
 1.0000000000000
 100
AcDbArc
  50
 0.30126213942891E-10
  51
 76.551455994131
   0
ARC
   5
616
 100
AcDbEntity
   8
LEVEL001
   6
CONTINUOUS
  62
7
 100
AcDbCircle
  10
 275.23269545933
  20
 88.940615399306
  30
0.0
  40
 1.0000000000000
 100
AcDbArc
  50
 270.00000000000
  51
 0.55367095894917E-10
   0
LINE
   5
617
 100
AcDbEntity
   8
LEVEL001
 100
AcDbLine
   6
CONTINUOUS
  62
7
  10
 269.54136555603
  20
 87.940615399307
  30
0.0
  11
 275.04878149323
  21
 87.940615399307
  31
0.0
   0
LINE
   5
618
 100
AcDbEntity
   8
LEVEL001
 100
AcDbLine
   6
CONTINUOUS
  62
7
  10
 275.23269545933
  20
 87.940615399307
  30
0.0
  11
 275.04878149323
  21
 87.940615399307
  31
0.0
   0
LINE
   5
619
 100
AcDbEntity
   8
LEVEL001
 100
AcDbLine
   6
CONTINUOUS
  62
7
  10
 262.71189816993
  20
 92.940615399307
  30
0.0
  11
 267.56565028403
  21
 92.940615399307
  31
0.0
   0
LINE
   5
61A
 100
AcDbEntity
   8
LEVEL001
 100
AcDbLine
   6
CONTINUOUS
  62
7
  10
 269.54136555603
  20
 87.940615399307
  30
0.0
  11
 262.71189816993
  21
 87.940615399307
  31
0.0
   0
LINE
   5
61B
 100
AcDbEntity
   8
LEVEL001
 100
AcDbLine
   6
CONTINUOUS
  62
7
  10
 273.23269545933
  20
 143.63783976161
  30
0.0
  11
 273.23269545933
  21
 119.24339103701
  31
0.0
   0
LINE
   5
61C
 100
AcDbEntity
   8
LEVEL001
 100
AcDbLine
   6
CONTINUOUS
  62
7
  10
 273.23269545933
  20
 119.24339103701
  30
0.0
  11
 273.23269545933
  21
 116.62127787481
  31
0.0
   0
LINE
   5
61D
 100
AcDbEntity
   8
LEVEL001
 100
AcDbLine
   6
CONTINUOUS
  62
7
  10
 273.23269545933
  20
 145.94061539931
  30
0.0
  11
 273.23269545933
  21
 143.63783976161
  31
0.0
   0
LINE
   5
61E
 100
AcDbEntity
   8
LEVEL001
 100
AcDbLine
   6
CONTINUOUS
  62
7
  10
 273.23269545933
  20
 99.940615399307
  30
0.0
  11
 273.23269545933
  21
 98.440615399307
  31
0.0
   0
ARC
   5
61F
 100
AcDbEntity
   8
LEVEL001
   6
CONTINUOUS
  62
7
 100
AcDbCircle
  10
 272.23269545933
  20
 145.94061539931
  30
0.0
  40
 1.0000000000000
 100
AcDbArc
  50
0.0
  51
 89.999999999538
   0
LINE
   5
620
 100
AcDbEntity
   8
LEVEL001
 100
AcDbLine
   6
CONTINUOUS
  62
7
  10
 273.23269545933
  20
 116.62127787481
  30
0.0
  11
 273.23269545933
  21
 115.78922758041
  31
0.0
   0
LINE
   5
621
 100
AcDbEntity
   8
LEVEL001
 100
AcDbLine
   6
CONTINUOUS
  62
7
  10
 273.23269545933
  20
 115.78922758041
  30
0.0
  11
 273.23269545933
  21
 99.940615399307
  31
0.0
   0
LINE
   5
622
 100
AcDbEntity
   8
LEVEL001
 100
AcDbLine
   6
CONTINUOUS
  62
1
  10
 274.63443608263
  20
 96.994669453407
  30
0.0
  11
 274.61124517293
  21
 97.163977749407
  31
0.0
   0
LINE
   5
623
 100
AcDbEntity
   8
LEVEL001
 100
AcDbLine
   6
CONTINUOUS
  62
1
  10
 274.61124517293
  20
 97.163977749407
  30
0.0
  11
 274.58498464803
  21
 97.296114799607
  31
0.0
   0
LINE
   5
624
 100
AcDbEntity
   8
LEVEL001
 100
AcDbLine
   6
CONTINUOUS
  62
1
  10
 274.58498464803
  20
 97.296114799607
  30
0.0
  11
 274.55645242093
  21
 97.387065686307
  31
0.0
   0
LINE
   5
625
 100
AcDbEntity
   8
LEVEL001
 100
AcDbLine
   6
CONTINUOUS
  62
1
  10
 274.55645242093
  20
 97.387065686307
  30
0.0
  11
 274.52651542863
  21
 97.434066913007
  31
0.0
   0
LINE
   5
626
 100
AcDbEntity
   8
LEVEL001
 100
AcDbLine
   6
CONTINUOUS
  62
1
  10
 274.52651542863
  20
 97.434066913007
  30
0.0
  11
 274.49608329173
  21
 97.435690371207
  31
0.0
   0
LINE
   5
627
 100
AcDbEntity
   8
LEVEL001
 100
AcDbLine
   6
CONTINUOUS
  62
1
  10
 274.49608329173
  20
 97.435690371207
  30
0.0
  11
 274.46608067513
  21
 97.391886733007
  31
0.0
   0
LINE
   5
628
 100
AcDbEntity
   8
LEVEL001
 100
AcDbLine
   6
CONTINUOUS
  62
1
  10
 274.46608067513
  20
 97.391886733007
  30
0.0
  11
 274.43741919323
  21
 97.303986949607
  31
0.0
   0
LINE
   5
629
 100
AcDbEntity
   8
LEVEL001
 100
AcDbLine
   6
CONTINUOUS
  62
1
  10
 274.43741919323
  20
 97.303986949607
  30
0.0
  11
 274.41096971063
  21
 97.174661811607
  31
0.0
   0
LINE
   5
62A
 100
AcDbEntity
   8
LEVEL001
 100
AcDbLine
   6
CONTINUOUS
  62
1
  10
 274.41096971063
  20
 97.174661811607
  30
0.0
  11
 274.38753588153
  21
 97.007840797807
  31
0.0
   0
LINE
   5
62B
 100
AcDbEntity
   8
LEVEL001
 100
AcDbLine
   6
CONTINUOUS
  62
1
  10
 274.38753588153
  20
 97.007840797807
  30
0.0
  11
 274.36782973093
  21
 96.808592680307
  31
0.0
   0
LINE
   5
62C
 100
AcDbEntity
   8
LEVEL001
 100
AcDbLine
   6
CONTINUOUS
  62
1
  10
 274.36782973093
  20
 96.808592680307
  30
0.0
  11
 274.35245002033
  21
 96.582971512307
  31
0.0
   0
LINE
   5
62D
 100
AcDbEntity
   8
LEVEL001
 100
AcDbLine
   6
CONTINUOUS
  62
1
  10
 274.35245002033
  20
 96.582971512307
  30
0.0
  11
 274.34186405423
  21
 96.337832678907
  31
0.0
   0
LINE
   5
62E
 100
AcDbEntity
   8
LEVEL001
 100
AcDbLine
   6
CONTINUOUS
  62
1
  10
 274.34186405423
  20
 96.337832678907
  30
0.0
  11
 274.33639348213
  21
 96.080624599507
  31
0.0
   0
LINE
   5
62F
 100
AcDbEntity
   8
LEVEL001
 100
AcDbLine
   6
CONTINUOUS
  62
1
  10
 274.33639348213
  20
 96.080624599507
  30
0.0
  11
 274.33620452433
  21
 95.819162411307
  31
0.0
   0
LINE
   5
630
 100
AcDbEntity
   8
LEVEL001
 100
AcDbLine
   6
CONTINUOUS
  62
1
  10
 274.33620452433
  20
 95.819162411307
  30
0.0
  11
 274.34130292243
  21
 95.561390510807
  31
0.0
   0
LINE
   5
631
 100
AcDbEntity
   8
LEVEL001
 100
AcDbLine
   6
CONTINUOUS
  62
1
  10
 274.34130292243
  20
 95.561390510807
  30
0.0
  11
 274.35153376413
  21
 95.315141166607
  31
0.0
   0
LINE
   5
632
 100
AcDbEntity
   8
LEVEL001
 100
AcDbLine
   6
CONTINUOUS
  62
1
  10
 274.35153376413
  20
 95.315141166607
  30
0.0
  11
 274.36658619043
  21
 95.087896540407
  31
0.0
   0
LINE
   5
633
 100
AcDbEntity
   8
LEVEL001
 100
AcDbLine
   6
CONTINUOUS
  62
1
  10
 274.36658619043
  20
 95.087896540407
  30
0.0
  11
 274.38600284093
  21
 94.886561345307
  31
0.0
   0
LINE
   5
634
 100
AcDbEntity
   8
LEVEL001
 100
AcDbLine
   6
CONTINUOUS
  62
1
  10
 274.38600284093
  20
 94.886561345307
  30
0.0
  11
 274.35369464063
  21
 94.756130344907
  31
0.0
   0
LINE
   5
635
 100
AcDbEntity
   8
LEVEL001
 100
AcDbLine
   6
CONTINUOUS
  62
1
  10
 274.35369464063
  20
 94.756130344907
  30
0.0
  11
 274.28821601253
  21
 94.630201440107
  31
0.0
   0
LINE
   5
636
 100
AcDbEntity
   8
LEVEL001
 100
AcDbLine
   6
CONTINUOUS
  62
1
  10
 274.28821601253
  20
 94.630201440107
  30
0.0
  11
 274.19182708683
  21
 94.513121327207
  31
0.0
   0
LINE
   5
637
 100
AcDbEntity
   8
LEVEL001
 100
AcDbLine
   6
CONTINUOUS
  62
1
  10
 274.19182708683
  20
 94.513121327207
  30
0.0
  11
 274.06785492643
  21
 94.408931268307
  31
0.0
   0
LINE
   5
638
 100
AcDbEntity
   8
LEVEL001
 100
AcDbLine
   6
CONTINUOUS
  62
1
  10
 274.06785492643
  20
 94.408931268307
  30
0.0
  11
 273.92057868683
  21
 94.321227598507
  31
0.0
   0
LINE
   5
639
 100
AcDbEntity
   8
LEVEL001
 100
AcDbLine
   6
CONTINUOUS
  62
1
  10
 273.92057868683
  20
 94.321227598507
  30
0.0
  11
 273.75508191163
  21
 94.253037591207
  31
0.0
   0
LINE
   5
63A
 100
AcDbEntity
   8
LEVEL001
 100
AcDbLine
   6
CONTINUOUS
  62
1
  10
 273.75508191163
  20
 94.253037591207
  30
0.0
  11
 273.57707706403
  21
 94.206714965507
  31
0.0
   0
LINE
   5
63B
 100
AcDbEntity
   8
LEVEL001
 100
AcDbLine
   6
CONTINUOUS
  62
1
  10
 273.57707706403
  20
 94.206714965507
  30
0.0
  11
 273.39270834923
  21
 94.183858642607
  31
0.0
   0
ARC
   5
63C
 100
AcDbEntity
   8
LEVEL001
   6
CONTINUOUS
  62
1
 100
AcDbCircle
  10
 290.84652539473
  20
 95.804861361009
  30
0.0
  40
 17.528929781100
 100
AcDbArc
  50
 171.35186612400
  51
 185.30605714770
   0
LINE
   5
63D
 100
AcDbEntity
   8
LEVEL001
 100
AcDbLine
   6
CONTINUOUS
  62
1
  10
 274.63443608263
  20
 96.994669453407
  30
0.0
  11
 274.63461770833
  21
 97.108709692407
  31
0.0
   0
ARC
   5
63E
 100
AcDbEntity
   8
LEVEL001
   6
CONTINUOUS
  62
1
 100
AcDbCircle
  10
 292.70471265843
  20
 95.804520586007
  30
0.0
  40
 24.403028538600
 100
AcDbArc
  50
 173.79862208290
  51
 183.80794884830
   0
LINE
   5
63F
 100
AcDbEntity
   8
LEVEL001
 100
AcDbLine
   6
CONTINUOUS
  62
1
  10
 267.35889969223
  20
 94.804897551707
  30
0.0
  11
 267.36769106163
  21
 94.744132619507
  31
0.0
   0
LINE
   5
640
 100
AcDbEntity
   8
LEVEL001
 100
AcDbLine
   6
CONTINUOUS
  62
1
  10
 267.36769106163
  20
 94.744132619507
  30
0.0
  11
 267.41723289383
  21
 94.607595658307
  31
0.0
   0
LINE
   5
641
 100
AcDbEntity
   8
LEVEL001
 100
AcDbLine
   6
CONTINUOUS
  62
1
  10
 267.41723289383
  20
 94.607595658307
  30
0.0
  11
 267.50558992863
  21
 94.482598505307
  31
0.0
   0
LINE
   5
642
 100
AcDbEntity
   8
LEVEL001
 100
AcDbLine
   6
CONTINUOUS
  62
1
  10
 267.50558992863
  20
 94.482598505307
  30
0.0
  11
 267.62910715293
  21
 94.374311843407
  31
0.0
   0
LINE
   5
643
 100
AcDbEntity
   8
LEVEL001
 100
AcDbLine
   6
CONTINUOUS
  62
1
  10
 267.62910715293
  20
 94.374311843407
  30
0.0
  11
 267.78267510303
  21
 94.287215102907
  31
0.0
   0
LINE
   5
644
 100
AcDbEntity
   8
LEVEL001
 100
AcDbLine
   6
CONTINUOUS
  62
1
  10
 267.78267510303
  20
 94.287215102907
  30
0.0
  11
 267.95994122453
  21
 94.224911162907
  31
0.0
   0
LINE
   5
645
 100
AcDbEntity
   8
LEVEL001
 100
AcDbLine
   6
CONTINUOUS
  62
1
  10
 267.95994122453
  20
 94.224911162907
  30
0.0
  11
 268.15357265493
  21
 94.189977313507
  31
0.0
   0
LINE
   5
646
 100
AcDbEntity
   8
LEVEL001
 100
AcDbLine
   6
CONTINUOUS
  62
1
  10
 268.15357265493
  20
 94.189977313507
  30
0.0
  11
 268.35555955773
  21
 94.183858642607
  31
0.0
   0
LINE
   5
647
 100
AcDbEntity
   8
LEVEL001
 100
AcDbLine
   6
CONTINUOUS
  62
1
  10
 268.35555955773
  20
 94.183858642607
  30
0.0
  11
 273.39270834923
  21
 94.183858642607
  31
0.0
   0
LINE
   5
648
 100
AcDbEntity
   8
LEVEL001
 100
AcDbLine
   6
CONTINUOUS
  62
1
  10
 274.38600284093
  20
 94.886561345307
  30
0.0
  11
 274.49676840873
  21
 93.984199946607
  31
0.0
   0
LINE
   5
649
 100
AcDbEntity
   8
LEVEL001
 100
AcDbLine
   6
CONTINUOUS
  62
1
  10
 274.49676840873
  20
 93.984199946607
  30
0.0
  11
 274.61417909113
  21
 93.146147782807
  31
0.0
   0
LINE
   5
64A
 100
AcDbEntity
   8
LEVEL001
 100
AcDbLine
   6
CONTINUOUS
  62
1
  10
 274.61417909113
  20
 93.146147782807
  30
0.0
  11
 274.73773004863
  21
 92.376008290407
  31
0.0
   0
LINE
   5
64B
 100
AcDbEntity
   8
LEVEL001
 100
AcDbLine
   6
CONTINUOUS
  62
1
  10
 274.73773004863
  20
 92.376008290407
  30
0.0
  11
 274.86689003963
  21
 91.677092896607
  31
0.0
   0
LINE
   5
64C
 100
AcDbEntity
   8
LEVEL001
 100
AcDbLine
   6
CONTINUOUS
  62
1
  10
 274.86689003963
  20
 91.677092896607
  30
0.0
  11
 275.00110370533
  21
 91.052406781007
  31
0.0
   0
LINE
   5
64D
 100
AcDbEntity
   8
LEVEL001
 100
AcDbLine
   6
CONTINUOUS
  62
1
  10
 275.00110370533
  20
 91.052406781007
  30
0.0
  11
 275.13979395693
  21
 90.504635953807
  31
0.0
   0
LINE
   5
64E
 100
AcDbEntity
   8
LEVEL001
 100
AcDbLine
   6
CONTINUOUS
  62
1
  10
 275.13979395693
  20
 90.504635953807
  30
0.0
  11
 275.28236445743
  21
 90.036135707007
  31
0.0
   0
LINE
   5
64F
 100
AcDbEntity
   8
LEVEL001
 100
AcDbLine
   6
CONTINUOUS
  62
1
  10
 275.28236445743
  20
 90.036135707007
  30
0.0
  11
 275.42820218563
  21
 89.648920486507
  31
0.0
   0
LINE
   5
650
 100
AcDbEntity
   8
LEVEL001
 100
AcDbLine
   6
CONTINUOUS
  62
1
  10
 275.42820218563
  20
 89.648920486507
  30
0.0
  11
 275.57668007193
  21
 89.344655231107
  31
0.0
   0
LINE
   5
651
 100
AcDbEntity
   8
LEVEL001
 100
AcDbLine
   6
CONTINUOUS
  62
1
  10
 275.57668007193
  20
 89.344655231107
  30
0.0
  11
 275.72715969473
  21
 89.124648213107
  31
0.0
   0
LINE
   5
652
 100
AcDbEntity
   8
LEVEL001
 100
AcDbLine
   6
CONTINUOUS
  62
1
  10
 275.72715969473
  20
 89.124648213107
  30
0.0
  11
 275.87899402543
  21
 88.989845413507
  31
0.0
   0
LINE
   5
653
 100
AcDbEntity
   8
LEVEL001
 100
AcDbLine
   6
CONTINUOUS
  62
1
  10
 275.87899402543
  20
 88.989845413507
  30
0.0
  11
 276.03153021043
  21
 88.940826454107
  31
0.0
   0
LINE
   5
654
 100
AcDbEntity
   8
LEVEL001
 100
AcDbLine
   6
CONTINUOUS
  62
1
  10
 276.03153021043
  20
 88.940826454107
  30
0.0
  11
 276.01235431003
  21
 88.745803278207
  31
0.0
   0
LINE
   5
655
 100
AcDbEntity
   8
LEVEL001
 100
AcDbLine
   6
CONTINUOUS
  62
1
  10
 276.01235431003
  20
 88.745803278207
  30
0.0
  11
 275.95576880813
  21
 88.558269682407
  31
0.0
   0
LINE
   5
656
 100
AcDbEntity
   8
LEVEL001
 100
AcDbLine
   6
CONTINUOUS
  62
1
  10
 275.95576880813
  20
 88.558269682407
  30
0.0
  11
 275.86394678843
  21
 88.385427620607
  31
0.0
   0
LINE
   5
657
 100
AcDbEntity
   8
LEVEL001
 100
AcDbLine
   6
CONTINUOUS
  62
1
  10
 275.86394678843
  20
 88.385427620607
  30
0.0
  11
 275.74041454133
  21
 88.233914839707
  31
0.0
   0
LINE
   5
658
 100
AcDbEntity
   8
LEVEL001
 100
AcDbLine
   6
CONTINUOUS
  62
1
  10
 275.74041454133
  20
 88.233914839707
  30
0.0
  11
 275.58991614243
  21
 88.109549966507
  31
0.0
   0
LINE
   5
659
 100
AcDbEntity
   8
LEVEL001
 100
AcDbLine
   6
CONTINUOUS
  62
1
  10
 275.58991614243
  20
 88.109549966507
  30
0.0
  11
 275.41823126273
  21
 88.017109052407
  31
0.0
   0
LINE
   5
65A
 100
AcDbEntity
   8
LEVEL001
 100
AcDbLine
   6
CONTINUOUS
  62
1
  10
 275.41823126273
  20
 88.017109052407
  30
0.0
  11
 275.23195320933
  21
 87.960142155707
  31
0.0
   0
LINE
   5
65B
 100
AcDbEntity
   8
LEVEL001
 100
AcDbLine
   6
CONTINUOUS
  62
1
  10
 275.23195320933
  20
 87.960142155707
  30
0.0
  11
 275.03823571873
  21
 87.940837006807
  31
0.0
   0
LINE
   5
65C
 100
AcDbEntity
   8
LEVEL001
 100
AcDbLine
   6
CONTINUOUS
  62
1
  10
 275.03823571873
  20
 87.940837006807
  30
0.0
  11
 274.88569953373
  21
 87.992306914207
  31
0.0
   0
LINE
   5
65D
 100
AcDbEntity
   8
LEVEL001
 100
AcDbLine
   6
CONTINUOUS
  62
1
  10
 274.88569953373
  20
 87.992306914207
  30
0.0
  11
 274.73386520303
  21
 88.133849853807
  31
0.0
   0
LINE
   5
65E
 100
AcDbEntity
   8
LEVEL001
 100
AcDbLine
   6
CONTINUOUS
  62
1
  10
 274.73386520303
  20
 88.133849853807
  30
0.0
  11
 274.58338558023
  21
 88.364857222707
  31
0.0
   0
LINE
   5
65F
 100
AcDbEntity
   8
LEVEL001
 100
AcDbLine
   6
CONTINUOUS
  62
1
  10
 274.58338558023
  20
 88.364857222707
  30
0.0
  11
 274.43490769393
  21
 88.684335740907
  31
0.0
   0
LINE
   5
660
 100
AcDbEntity
   8
LEVEL001
 100
AcDbLine
   6
CONTINUOUS
  62
1
  10
 274.43490769393
  20
 88.684335740907
  30
0.0
  11
 274.28906996573
  21
 89.090911722407
  31
0.0
   0
LINE
   5
661
 100
AcDbEntity
   8
LEVEL001
 100
AcDbLine
   6
CONTINUOUS
  62
1
  10
 274.28906996573
  20
 89.090911722407
  30
0.0
  11
 274.14649946523
  21
 89.582836981607
  31
0.0
   0
LINE
   5
662
 100
AcDbEntity
   8
LEVEL001
 100
AcDbLine
   6
CONTINUOUS
  62
1
  10
 274.14649946523
  20
 89.582836981607
  30
0.0
  11
 274.00780921363
  21
 90.157996350007
  31
0.0
   0
LINE
   5
663
 100
AcDbEntity
   8
LEVEL001
 100
AcDbLine
   6
CONTINUOUS
  62
1
  10
 274.00780921363
  20
 90.157996350007
  30
0.0
  11
 273.87359554793
  21
 90.813916771507
  31
0.0
   0
LINE
   5
664
 100
AcDbEntity
   8
LEVEL001
 100
AcDbLine
   6
CONTINUOUS
  62
1
  10
 273.87359554793
  20
 90.813916771507
  30
0.0
  11
 273.74443555693
  21
 91.547777935007
  31
0.0
   0
LINE
   5
665
 100
AcDbEntity
   8
LEVEL001
 100
AcDbLine
   6
CONTINUOUS
  62
1
  10
 273.74443555693
  20
 91.547777935007
  30
0.0
  11
 273.62088459943
  21
 92.356424402007
  31
0.0
   0
LINE
   5
666
 100
AcDbEntity
   8
LEVEL001
 100
AcDbLine
   6
CONTINUOUS
  62
1
  10
 273.62088459943
  20
 92.356424402007
  30
0.0
  11
 273.50347391703
  21
 93.236379174007
  31
0.0
   0
LINE
   5
667
 100
AcDbEntity
   8
LEVEL001
 100
AcDbLine
   6
CONTINUOUS
  62
1
  10
 273.50347391703
  20
 93.236379174007
  30
0.0
  11
 273.39270834923
  21
 94.183858642607
  31
0.0
   0
LINE
   5
668
 100
AcDbEntity
   8
LEVEL001
 100
AcDbLine
   6
CONTINUOUS
  62
1
  10
 275.04878149323
  20
 87.940615399307
  30
0.0
  11
 275.03823571873
  21
 87.940837006807
  31
0.0
   0
LINE
   5
669
 100
AcDbEntity
   8
LEVEL001
 100
AcDbLine
   6
CONTINUOUS
  62
1
  10
 268.35555955773
  20
 94.183858642607
  30
0.0
  11
 268.43534168883
  21
 93.231042809807
  31
0.0
   0
LINE
   5
66A
 100
AcDbEntity
   8
LEVEL001
 100
AcDbLine
   6
CONTINUOUS
  62
1
  10
 268.43534168883
  20
 93.231042809807
  30
0.0
  11
 268.51993513743
  21
 92.346565232507
  31
0.0
   0
LINE
   5
66B
 100
AcDbEntity
   8
LEVEL001
 100
AcDbLine
   6
CONTINUOUS
  62
1
  10
 268.51993513743
  20
 92.346565232507
  30
0.0
  11
 268.60897191343
  21
 91.534273479107
  31
0.0
   0
LINE
   5
66C
 100
AcDbEntity
   8
LEVEL001
 100
AcDbLine
   6
CONTINUOUS
  62
1
  10
 268.60897191343
  20
 91.534273479107
  30
0.0
  11
 268.70206469753
  21
 90.797701102207
  31
0.0
   0
LINE
   5
66D
 100
AcDbEntity
   8
LEVEL001
 100
AcDbLine
   6
CONTINUOUS
  62
1
  10
 268.70206469753
  20
 90.797701102207
  30
0.0
  11
 268.79880852663
  21
 90.140052267407
  31
0.0
   0
LINE
   5
66E
 100
AcDbEntity
   8
LEVEL001
 100
AcDbLine
   6
CONTINUOUS
  62
1
  10
 268.79880852663
  20
 90.140052267407
  30
0.0
  11
 268.89878255523
  21
 89.564187814607
  31
0.0
   0
LINE
   5
66F
 100
AcDbEntity
   8
LEVEL001
 100
AcDbLine
   6
CONTINUOUS
  62
1
  10
 268.89878255523
  20
 89.564187814607
  30
0.0
  11
 269.00155188583
  21
 89.072612813507
  31
0.0
   0
LINE
   5
670
 100
AcDbEntity
   8
LEVEL001
 100
AcDbLine
   6
CONTINUOUS
  62
1
  10
 269.00155188583
  20
 89.072612813507
  30
0.0
  11
 269.10666946143
  21
 88.667465665707
  31
0.0
   0
LINE
   5
671
 100
AcDbEntity
   8
LEVEL001
 100
AcDbLine
   6
CONTINUOUS
  62
1
  10
 269.10666946143
  20
 88.667465665707
  30
0.0
  11
 269.21367800973
  21
 88.350508803207
  31
0.0
   0
LINE
   5
672
 100
AcDbEntity
   8
LEVEL001
 100
AcDbLine
   6
CONTINUOUS
  62
1
  10
 269.21367800973
  20
 88.350508803207
  30
0.0
  11
 269.32211203253
  21
 88.123121020707
  31
0.0
   0
LINE
   5
673
 100
AcDbEntity
   8
LEVEL001
 100
AcDbLine
   6
CONTINUOUS
  62
1
  10
 269.32211203253
  20
 88.123121020707
  30
0.0
  11
 269.43149983063
  21
 87.986291478607
  31
0.0
   0
LINE
   5
674
 100
AcDbEntity
   8
LEVEL001
 100
AcDbLine
   6
CONTINUOUS
  62
1
  10
 269.43149983063
  20
 87.986291478607
  30
0.0
  11
 269.54136555603
  21
 87.940615399307
  31
0.0
   0
LINE
   5
675
 100
AcDbEntity
   8
LEVEL001
 100
AcDbLine
   6
CONTINUOUS
  62
1
  10
 276.03153021043
  20
 91.940863699507
  30
0.0
  11
 275.89025886293
  21
 91.990827261907
  31
0.0
   0
LINE
   5
676
 100
AcDbEntity
   8
LEVEL001
 100
AcDbLine
   6
CONTINUOUS
  62
1
  10
 275.89025886293
  20
 91.990827261907
  30
0.0
  11
 275.74976348343
  21
 92.127339970107
  31
0.0
   0
LINE
   5
677
 100
AcDbEntity
   8
LEVEL001
 100
AcDbLine
   6
CONTINUOUS
  62
1
  10
 275.74976348343
  20
 92.127339970107
  30
0.0
  11
 275.61076147043
  21
 92.349704761707
  31
0.0
   0
LINE
   5
678
 100
AcDbEntity
   8
LEVEL001
 100
AcDbLine
   6
CONTINUOUS
  62
1
  10
 275.61076147043
  20
 92.349704761707
  30
0.0
  11
 275.47396259723
  21
 92.656786196107
  31
0.0
   0
LINE
   5
679
 100
AcDbEntity
   8
LEVEL001
 100
AcDbLine
   6
CONTINUOUS
  62
1
  10
 275.47396259723
  20
 92.656786196107
  30
0.0
  11
 275.34006538733
  21
 93.047016251307
  31
0.0
   0
LINE
   5
67A
 100
AcDbEntity
   8
LEVEL001
 100
AcDbLine
   6
CONTINUOUS
  62
1
  10
 275.34006538733
  20
 93.047016251307
  30
0.0
  11
 275.20975354773
  21
 93.518402331507
  31
0.0
   0
LINE
   5
67B
 100
AcDbEntity
   8
LEVEL001
 100
AcDbLine
   6
CONTINUOUS
  62
1
  10
 275.20975354773
  20
 93.518402331507
  30
0.0
  11
 275.08369247793
  21
 94.068537441307
  31
0.0
   0
LINE
   5
67C
 100
AcDbEntity
   8
LEVEL001
 100
AcDbLine
   6
CONTINUOUS
  62
1
  10
 275.08369247793
  20
 94.068537441307
  30
0.0
  11
 274.96252587173
  21
 94.694612476407
  31
0.0
   0
LINE
   5
67D
 100
AcDbEntity
   8
LEVEL001
 100
AcDbLine
   6
CONTINUOUS
  62
1
  10
 274.96252587173
  20
 94.694612476407
  30
0.0
  11
 274.84687243133
  21
 95.393430567307
  31
0.0
   0
LINE
   5
67E
 100
AcDbEntity
   8
LEVEL001
 100
AcDbLine
   6
CONTINUOUS
  62
1
  10
 274.84687243133
  20
 95.393430567307
  30
0.0
  11
 274.73732270703
  21
 96.161423403407
  31
0.0
   0
LINE
   5
67F
 100
AcDbEntity
   8
LEVEL001
 100
AcDbLine
   6
CONTINUOUS
  62
1
  10
 274.73732270703
  20
 96.161423403407
  30
0.0
  11
 274.63443608263
  21
 96.994669453407
  31
0.0
   0
LINE
   5
680
 100
AcDbEntity
   8
LEVEL001
 100
AcDbLine
   6
CONTINUOUS
  62
1
  10
 276.03153021043
  20
 88.940826454107
  30
0.0
  11
 276.03153021043
  21
 91.940863699507
  31
0.0
   0
LINE
   5
681
 100
AcDbEntity
   8
LEVEL001
 100
AcDbLine
   6
CONTINUOUS
  62
1
  10
 276.03153021043
  20
 91.940863699507
  30
0.0
  11
 276.01255032983
  21
 92.136027814507
  31
0.0
   0
LINE
   5
682
 100
AcDbEntity
   8
LEVEL001
 100
AcDbLine
   6
CONTINUOUS
  62
1
  10
 276.01255032983
  20
 92.136027814507
  30
0.0
  11
 275.95609838633
  21
 92.323685933107
  31
0.0
   0
LINE
   5
683
 100
AcDbEntity
   8
LEVEL001
 100
AcDbLine
   6
CONTINUOUS
  62
1
  10
 275.95609838633
  20
 92.323685933107
  30
0.0
  11
 275.86434551723
  21
 92.496620738807
  31
0.0
   0
LINE
   5
684
 100
AcDbEntity
   8
LEVEL001
 100
AcDbLine
   6
CONTINUOUS
  62
1
  10
 275.86434551723
  20
 92.496620738807
  30
0.0
  11
 275.74082053053
  21
 92.648181172707
  31
0.0
   0
LINE
   5
685
 100
AcDbEntity
   8
LEVEL001
 100
AcDbLine
   6
CONTINUOUS
  62
1
  10
 275.74082053053
  20
 92.648181172707
  30
0.0
  11
 275.59027418753
  21
 92.772538232507
  31
0.0
   0
LINE
   5
686
 100
AcDbEntity
   8
LEVEL001
 100
AcDbLine
   6
CONTINUOUS
  62
1
  10
 275.59027418753
  20
 92.772538232507
  30
0.0
  11
 275.52136126713
  21
 92.814898385907
  31
0.0
   0
LINE
   5
687
 100
AcDbEntity
   8
LEVEL001
 100
AcDbLine
   6
CONTINUOUS
  62
1
  10
 276.03153021043
  20
 88.940826454107
  30
0.0
  11
 276.04243963233
  21
 88.940615399307
  31
0.0
   0
LINE
   5
688
 100
AcDbEntity
   8
LEVEL001
 100
AcDbLine
   6
CONTINUOUS
  62
1
  10
 276.04243963233
  20
 88.940615399307
  30
0.0
  11
 276.02334676983
  21
 88.745525077307
  31
0.0
   0
LINE
   5
689
 100
AcDbEntity
   8
LEVEL001
 100
AcDbLine
   6
CONTINUOUS
  62
1
  10
 276.02334676983
  20
 88.745525077307
  30
0.0
  11
 275.96680191023
  21
 88.557931966907
  31
0.0
   0
LINE
   5
68A
 100
AcDbEntity
   8
LEVEL001
 100
AcDbLine
   6
CONTINUOUS
  62
1
  10
 275.96680191023
  20
 88.557931966907
  30
0.0
  11
 275.87497804093
  21
 88.385045166307
  31
0.0
   0
LINE
   5
68B
 100
AcDbEntity
   8
LEVEL001
 100
AcDbLine
   6
CONTINUOUS
  62
1
  10
 275.87497804093
  20
 88.385045166307
  30
0.0
  11
 275.75140390153
  21
 88.233508618107
  31
0.0
   0
LINE
   5
68C
 100
AcDbEntity
   8
LEVEL001
 100
AcDbLine
   6
CONTINUOUS
  62
1
  10
 275.75140390153
  20
 88.233508618107
  30
0.0
  11
 275.60082837713
  21
 88.109145787007
  31
0.0
   0
LINE
   5
68D
 100
AcDbEntity
   8
LEVEL001
 100
AcDbLine
   6
CONTINUOUS
  62
1
  10
 275.60082837713
  20
 88.109145787007
  30
0.0
  11
 275.42903800043
  21
 88.016735866807
  31
0.0
   0
LINE
   5
68E
 100
AcDbEntity
   8
LEVEL001
 100
AcDbLine
   6
CONTINUOUS
  62
1
  10
 275.42903800043
  20
 88.016735866807
  30
0.0
  11
 275.24263457953
  21
 87.959830118907
  31
0.0
   0
LINE
   5
68F
 100
AcDbEntity
   8
LEVEL001
 100
AcDbLine
   6
CONTINUOUS
  62
1
  10
 275.24263457953
  20
 87.959830118907
  30
0.0
  11
 275.04878149323
  21
 87.940615399307
  31
0.0
   0
LINE
   5
690
 100
AcDbEntity
   8
LEVEL001
 100
AcDbLine
   6
CONTINUOUS
  62
1
  10
 276.04243963233
  20
 91.940615399307
  30
0.0
  11
 276.03153021043
  21
 91.940863699507
  31
0.0
   0
LINE
   5
691
 100
AcDbEntity
   8
LEVEL001
 100
AcDbLine
   6
CONTINUOUS
  62
1
  10
 276.04243963233
  20
 91.940615399307
  30
0.0
  11
 276.02334676983
  21
 92.135705721307
  31
0.0
   0
LINE
   5
692
 100
AcDbEntity
   8
LEVEL001
 100
AcDbLine
   6
CONTINUOUS
  62
1
  10
 276.02334676983
  20
 92.135705721307
  30
0.0
  11
 275.96680191023
  21
 92.323298831707
  31
0.0
   0
LINE
   5
693
 100
AcDbEntity
   8
LEVEL001
 100
AcDbLine
   6
CONTINUOUS
  62
1
  10
 275.96680191023
  20
 92.323298831707
  30
0.0
  11
 275.87497804093
  21
 92.496185632307
  31
0.0
   0
LINE
   5
694
 100
AcDbEntity
   8
LEVEL001
 100
AcDbLine
   6
CONTINUOUS
  62
1
  10
 275.87497804093
  20
 92.496185632307
  30
0.0
  11
 275.75140390153
  21
 92.647722180507
  31
0.0
   0
LINE
   5
695
 100
AcDbEntity
   8
LEVEL001
 100
AcDbLine
   6
CONTINUOUS
  62
1
  10
 275.75140390153
  20
 92.647722180507
  30
0.0
  11
 275.60082837713
  21
 92.772085011607
  31
0.0
   0
LINE
   5
696
 100
AcDbEntity
   8
LEVEL001
 100
AcDbLine
   6
CONTINUOUS
  62
1
  10
 275.60082837713
  20
 92.772085011607
  30
0.0
  11
 275.51543235903
  21
 92.823479162907
  31
0.0
   0
LINE
   5
697
 100
AcDbEntity
   8
LEVEL001
 100
AcDbLine
   6
CONTINUOUS
  62
1
  10
 276.04243963233
  20
 88.940615399307
  30
0.0
  11
 276.23269545933
  21
 88.940615399307
  31
0.0
   0
LINE
   5
698
 100
AcDbEntity
   8
LEVEL001
 100
AcDbLine
   6
CONTINUOUS
  62
1
  10
 276.23269545933
  20
 91.940615399307
  30
0.0
  11
 276.04243963233
  21
 91.940615399307
  31
0.0
   0
LINE
   5
699
 100
AcDbEntity
   8
LEVEL001
 100
AcDbLine
   6
CONTINUOUS
  62
1
  10
 267.67148755693
  20
 91.940615399307
  30
0.0
  11
 262.71189816993
  21
 91.940615399307
  31
0.0
   0
LINE
   5
69A
 100
AcDbEntity
   8
LEVEL001
 100
AcDbLine
   6
CONTINUOUS
  62
1
  10
 262.71189816993
  20
 92.940615399307
  30
0.0
  11
 262.71189816993
  21
 91.940615399307
  31
0.0
   0
LINE
   5
69B
 100
AcDbEntity
   8
LEVEL001
 100
AcDbLine
   6
CONTINUOUS
  62
1
  10
 262.71189816993
  20
 88.940615399307
  30
0.0
  11
 268.30698653033
  21
 88.940615399307
  31
0.0
   0
LINE
   5
69C
 100
AcDbEntity
   8
LEVEL001
 100
AcDbLine
   6
CONTINUOUS
  62
1
  10
 262.71189816993
  20
 88.940615399307
  30
0.0
  11
 262.71189816993
  21
 87.940615399307
  31
0.0
   0
LINE
   5
69D
 100
AcDbEntity
   8
LEVEL001
 100
AcDbLine
   6
CONTINUOUS
  62
1
  10
 262.71189816993
  20
 88.940615399307
  30
0.0
  11
 262.71189816993
  21
 91.940615399307
  31
0.0
   0
LINE
   5
69E
 100
AcDbEntity
   8
LEVEL001
 100
AcDbLine
   6
CONTINUOUS
  62
1
  10
 272.23269545933
  20
 98.440615399307
  30
0.0
  11
 272.23269545933
  21
 99.940615399307
  31
0.0
   0
ARC
   5
69F
 100
AcDbEntity
   8
LEVEL001
   6
CONTINUOUS
  62
1
 100
AcDbCircle
  10
 272.43674140893
  20
 119.71931336991
  30
0.0
  40
 0.92738606700000
 100
AcDbArc
  50
 257.28963605110
  51
 329.12366176570
   0
LINE
   5
6A0
 100
AcDbEntity
   8
LEVEL001
 100
AcDbLine
   6
CONTINUOUS
  62
1
  10
 272.23269545933
  20
 118.81465312011
  30
0.0
  11
 272.23269545933
  21
 119.09200321821
  31
0.0
   0
ARC
   5
6A1
 100
AcDbEntity
   8
LEVEL001
   6
CONTINUOUS
  62
1
 100
AcDbCircle
  10
 272.47696589143
  20
 120.85693190121
  30
0.0
  40
 1.7817523116000
 100
AcDbArc
  50
 262.12018323632
  51
 295.09684906780
   0
LINE
   5
6A2
 100
AcDbEntity
   8
LEVEL001
 100
AcDbLine
   6
CONTINUOUS
  62
1
  10
 272.23269545933
  20
 119.09200321821
  30
0.0
  11
 272.23269545933
  21
 143.78922758041
  31
0.0
   0
ARC
   5
6A3
 100
AcDbEntity
   8
LEVEL001
   6
CONTINUOUS
  62
1
 100
AcDbCircle
  10
 272.47696589143
  20
 142.02429889741
  30
0.0
  40
 1.7817523117000
 100
AcDbArc
  50
 64.903150932819
  51
 97.879816762924
   0
LINE
   5
6A4
 100
AcDbEntity
   8
LEVEL001
 100
AcDbLine
   6
CONTINUOUS
  62
1
  10
 272.23269545933
  20
 143.78922758041
  30
0.0
  11
 272.23269545933
  21
 144.06657767861
  31
0.0
   0
ARC
   5
6A5
 100
AcDbEntity
   8
LEVEL001
   6
CONTINUOUS
  62
1
 100
AcDbCircle
  10
 272.41159135133
  20
 143.10325674901
  30
0.0
  40
 0.97979128060000
 100
AcDbArc
  50
 33.066295396615
  51
 100.52040678693
   0
LINE
   5
6A6
 100
AcDbEntity
   8
LEVEL001
 100
AcDbLine
   6
CONTINUOUS
  62
1
  10
 273.23269545933
  20
 116.62127787481
  30
0.0
  11
 273.21348073973
  21
 116.51306123491
  31
0.0
   0
LINE
   5
6A7
 100
AcDbEntity
   8
LEVEL001
 100
AcDbLine
   6
CONTINUOUS
  62
1
  10
 273.21348073973
  20
 116.51306123491
  30
0.0
  11
 273.15657499183
  21
 116.40900329981
  31
0.0
   0
LINE
   5
6A8
 100
AcDbEntity
   8
LEVEL001
 100
AcDbLine
   6
CONTINUOUS
  62
1
  10
 273.15657499183
  20
 116.40900329981
  30
0.0
  11
 273.06416507163
  21
 116.31310295751
  31
0.0
   0
LINE
   5
6A9
 100
AcDbEntity
   8
LEVEL001
 100
AcDbLine
   6
CONTINUOUS
  62
1
  10
 273.06416507163
  20
 116.31310295751
  30
0.0
  11
 272.93980224053
  21
 116.22904560451
  31
0.0
   0
LINE
   5
6AA
 100
AcDbEntity
   8
LEVEL001
 100
AcDbLine
   6
CONTINUOUS
  62
1
  10
 272.93980224053
  20
 116.22904560451
  30
0.0
  11
 272.78826569233
  21
 116.16006151771
  31
0.0
   0
LINE
   5
6AB
 100
AcDbEntity
   8
LEVEL001
 100
AcDbLine
   6
CONTINUOUS
  62
1
  10
 272.78826569233
  20
 116.16006151771
  30
0.0
  11
 272.61537889173
  21
 116.10880171681
  31
0.0
   0
LINE
   5
6AC
 100
AcDbEntity
   8
LEVEL001
 100
AcDbLine
   6
CONTINUOUS
  62
1
  10
 272.61537889173
  20
 116.10880171681
  30
0.0
  11
 272.42778578133
  21
 116.07723608731
  31
0.0
   0
LINE
   5
6AD
 100
AcDbEntity
   8
LEVEL001
 100
AcDbLine
   6
CONTINUOUS
  62
1
  10
 272.42778578133
  20
 116.07723608731
  30
0.0
  11
 272.23269545933
  21
 116.06657767861
  31
0.0
   0
LINE
   5
6AE
 100
AcDbEntity
   8
LEVEL001
 100
AcDbLine
   6
CONTINUOUS
  62
1
  10
 272.23269545933
  20
 116.06657767861
  30
0.0
  11
 272.23269545933
  21
 118.81465312011
  31
0.0
   0
LINE
   5
6AF
 100
AcDbEntity
   8
LEVEL001
 100
AcDbLine
   6
CONTINUOUS
  62
1
  10
 272.23269545933
  20
 144.06657767861
  30
0.0
  11
 272.23269545933
  21
 146.71796549741
  31
0.0
   0
ARC
   5
6B0
 100
AcDbEntity
   8
LEVEL001
   6
CONTINUOUS
  62
1
 100
AcDbCircle
  10
 272.31943315672
  20
 145.79766087301
  30
0.0
  40
 0.92438305370000
 100
AcDbArc
  50
 8.8964156024798
  51
 95.384159477052
   0
LINE
   5
6B1
 100
AcDbEntity
   8
LEVEL001
 100
AcDbLine
   6
CONTINUOUS
  62
1
  10
 273.23269545933
  20
 99.940615399307
  30
0.0
  11
 272.23269545933
  21
 99.940615399307
  31
0.0
   0
LINE
   5
6B2
 100
AcDbEntity
   8
LEVEL001
 100
AcDbLine
   6
CONTINUOUS
  62
1
  10
 272.23269545933
  20
 146.71796549741
  30
0.0
  11
 272.23269545933
  21
 146.94061539931
  31
0.0
   0
LINE
   5
6B3
 100
AcDbEntity
   8
LEVEL001
 100
AcDbLine
   6
CONTINUOUS
  62
1
  10
 273.23269545933
  20
 115.78922758041
  30
0.0
  11
 272.23269545933
  21
 115.78922758041
  31
0.0
   0
LINE
   5
6B4
 100
AcDbEntity
   8
LEVEL001
 100
AcDbLine
   6
CONTINUOUS
  62
1
  10
 272.23269545933
  20
 115.78922758041
  30
0.0
  11
 272.23269545933
  21
 116.06657767861
  31
0.0
   0
LINE
   5
6B5
 100
AcDbEntity
   8
LEVEL001
 100
AcDbLine
   6
CONTINUOUS
  62
1
  10
 272.23269545933
  20
 99.940615399307
  30
0.0
  11
 272.23269545933
  21
 115.78922758041
  31
0.0
   0
LINE
   5
6B6
 100
AcDbEntity
   8
LEVEL001
 100
AcDbLine
   6
CONTINUOUS
  62
7
  10
 350.68173819182
  20
 134.44061539931
  30
0.0
  11
 350.68173819182
  21
 144.44061539931
  31
0.0
   0
ARC
   5
6B7
 100
AcDbEntity
   8
LEVEL001
   6
CONTINUOUS
  62
7
 100
AcDbCircle
  10
 348.18173819182
  20
 134.44061539931
  30
0.0
  40
 2.5000000000000
 100
AcDbArc
  50
 270.00000000000
  51
 0.35174390333241E-10
   0
LINE
   5
6B8
 100
AcDbEntity
   8
LEVEL001
 100
AcDbLine
   6
CONTINUOUS
  62
7
  10
 347.18173819182
  20
 131.94061539931
  30
0.0
  11
 348.18173819182
  21
 131.94061539931
  31
0.0
   0
ARC
   5
6B9
 100
AcDbEntity
   8
LEVEL001
   6
CONTINUOUS
  62
7
 100
AcDbCircle
  10
 347.18173819183
  20
 132.44061539931
  30
0.0
  40
 0.50000000000000
 100
AcDbArc
  50
 180.00000000000
  51
 269.99999999952
   0
LINE
   5
6BA
 100
AcDbEntity
   8
LEVEL001
 100
AcDbLine
   6
CONTINUOUS
  62
7
  10
 346.68173819182
  20
 142.44061539931
  30
0.0
  11
 346.68173819182
  21
 132.44061539931
  31
0.0
   0
ARC
   5
6BB
 100
AcDbEntity
   8
LEVEL001
   6
CONTINUOUS
  62
7
 100
AcDbCircle
  10
 346.18173819183
  20
 142.44061539931
  30
0.0
  40
 0.50000000000000
 100
AcDbArc
  50
0.0
  51
 90.000000000469
   0
LINE
   5
6BC
 100
AcDbEntity
   8
LEVEL001
 100
AcDbLine
   6
CONTINUOUS
  62
7
  10
 340.18173819182
  20
 142.94061539931
  30
0.0
  11
 346.18173819182
  21
 142.94061539931
  31
0.0
   0
ARC
   5
6BD
 100
AcDbEntity
   8
LEVEL001
   6
CONTINUOUS
  62
7
 100
AcDbCircle
  10
 340.18173819182
  20
 142.44061539931
  30
0.0
  40
 0.50000000000000
 100
AcDbArc
  50
 90.000000000000
  51
 180.00000000056
   0
LINE
   5
6BE
 100
AcDbEntity
   8
LEVEL001
 100
AcDbLine
   6
CONTINUOUS
  62
7
  10
 339.68173819182
  20
 120.30310576911
  30
0.0
  11
 339.68173819182
  21
 142.44061539931
  31
0.0
   0
ARC
   5
6BF
 100
AcDbEntity
   8
LEVEL001
   6
CONTINUOUS
  62
7
 100
AcDbCircle
  10
 340.18173819183
  20
 120.30310576910
  30
0.0
  40
 0.50000000000000
 100
AcDbArc
  50
 179.99999999866
  51
 213.69006752439
   0
LINE
   5
6C0
 100
AcDbEntity
   8
LEVEL001
 100
AcDbLine
   6
CONTINUOUS
  62
7
  10
 341.59776333902
  20
 117.27768022951
  30
0.0
  11
 339.76571304462
  21
 120.02575567101
  31
0.0
   0
ARC
   5
6C1
 100
AcDbEntity
   8
LEVEL001
   6
CONTINUOUS
  62
7
 100
AcDbCircle
  10
 341.18173819182
  20
 117.00033013141
  30
0.0
  40
 0.50000000000000
 100
AcDbArc
  50
0.0
  51
 33.690067525237
   0
LINE
   5
6C2
 100
AcDbEntity
   8
LEVEL001
 100
AcDbLine
   6
CONTINUOUS
  62
7
  10
 341.68173819182
  20
 98.940615399307
  30
0.0
  11
 341.68173819182
  21
 117.00033013141
  31
0.0
   0
ARC
   5
6C3
 100
AcDbEntity
   8
LEVEL001
   6
CONTINUOUS
  62
7
 100
AcDbCircle
  10
 330.68173819182
  20
 98.940615399307
  30
0.0
  40
 11.000000000000
 100
AcDbArc
  50
 270.00000000000
  51
 0.88824218013235E-12
   0
ARC
   5
6C4
 100
AcDbEntity
   8
LEVEL001
   6
CONTINUOUS
  62
7
 100
AcDbCircle
  10
 330.68173819182
  20
 88.940615399307
  30
0.0
  40
 1.0000000000000
 100
AcDbArc
  50
 180.00000000000
  51
 270.00000000013
   0
LINE
   5
6C5
 100
AcDbEntity
   8
LEVEL001
 100
AcDbLine
   6
CONTINUOUS
  62
7
  10
 329.68173819182
  20
 91.940615399307
  30
0.0
  11
 329.68173819182
  21
 88.940615399307
  31
0.0
   0
ARC
   5
6C6
 100
AcDbEntity
   8
LEVEL001
   6
CONTINUOUS
  62
7
 100
AcDbCircle
  10
 330.68173819182
  20
 91.940615399305
  30
0.0
  40
 1.0000000000000
 100
AcDbArc
  50
 90.000000000000
  51
 179.99999999986
   0
ARC
   5
6C7
 100
AcDbEntity
   8
LEVEL001
   6
CONTINUOUS
  62
7
 100
AcDbCircle
  10
 330.68173819182
  20
 99.940615399308
  30
0.0
  40
 7.0000000000000
 100
AcDbArc
  50
 270.00000000000
  51
0.0
   0
LINE
   5
6C8
 100
AcDbEntity
   8
LEVEL001
 100
AcDbLine
   6
CONTINUOUS
  62
7
  10
 337.68173819182
  20
 115.78922758041
  30
0.0
  11
 337.68173819182
  21
 99.940615399307
  31
0.0
   0
ARC
   5
6C9
 100
AcDbEntity
   8
LEVEL001
   6
CONTINUOUS
  62
7
 100
AcDbCircle
  10
 337.18173819182
  20
 115.78922758041
  30
0.0
  40
 0.50000000000000
 100
AcDbArc
  50
 0.11724796777762E-9
  51
 33.690067526138
   0
LINE
   5
6CA
 100
AcDbEntity
   8
LEVEL001
 100
AcDbLine
   6
CONTINUOUS
  62
7
  10
 335.76571304462
  20
 118.81465312011
  30
0.0
  11
 337.59776333902
  21
 116.06657767861
  31
0.0
   0
ARC
   5
6CB
 100
AcDbEntity
   8
LEVEL001
   6
CONTINUOUS
  62
7
 100
AcDbCircle
  10
 336.18173819182
  20
 119.09200321821
  30
0.0
  40
 0.50000000000000
 100
AcDbArc
  50
 180.00000000064
  51
 213.69006752677
   0
LINE
   5
6CC
 100
AcDbEntity
   8
LEVEL001
 100
AcDbLine
   6
CONTINUOUS
  62
7
  10
 335.68173819182
  20
 143.78922758041
  30
0.0
  11
 335.68173819182
  21
 119.09200321821
  31
0.0
   0
ARC
   5
6CD
 100
AcDbEntity
   8
LEVEL001
   6
CONTINUOUS
  62
7
 100
AcDbCircle
  10
 336.18173819182
  20
 143.78922758041
  30
0.0
  40
 0.50000000000000
 100
AcDbArc
  50
 146.30993247426
  51
 180.00000000031
   0
LINE
   5
6CE
 100
AcDbEntity
   8
LEVEL001
 100
AcDbLine
   6
CONTINUOUS
  62
7
  10
 335.76571304462
  20
 144.06657767861
  30
0.0
  11
 337.53330492392
  21
 146.71796549741
  31
0.0
   0
ARC
   5
6CF
 100
AcDbEntity
   8
LEVEL001
   6
CONTINUOUS
  62
7
 100
AcDbCircle
  10
 337.94933007103
  20
 146.44061539931
  30
0.0
  40
 0.50000000000000
 100
AcDbArc
  50
 90.000000000430
  51
 146.30993247477
   0
LINE
   5
6D0
 100
AcDbEntity
   8
LEVEL001
 100
AcDbLine
   6
CONTINUOUS
  62
7
  10
 348.18173819182
  20
 146.94061539931
  30
0.0
  11
 337.94933007102
  21
 146.94061539931
  31
0.0
   0
ARC
   5
6D1
 100
AcDbEntity
   8
LEVEL001
   6
CONTINUOUS
  62
7
 100
AcDbCircle
  10
 348.18173819182
  20
 144.44061539931
  30
0.0
  40
 2.5000000000000
 100
AcDbArc
  50
0.0
  51
 89.999999999961
   0
LINE
   5
6D2
 100
AcDbEntity
   8
LEVEL001
 100
AcDbLine
   6
CONTINUOUS
  62
7
  10
 323.10041983282
  20
 92.940615399307
  30
0.0
  11
 330.68173819182
  21
 92.940615399307
  31
0.0
   0
LINE
   5
6D3
 100
AcDbEntity
   8
LEVEL001
 100
AcDbLine
   6
CONTINUOUS
  62
7
  10
 330.68173819182
  20
 87.940615399307
  30
0.0
  11
 323.10041983282
  21
 87.940615399307
  31
0.0
   0
ARC
   5
6D4
 100
AcDbEntity
   8
LEVEL001
   6
CONTINUOUS
  62
7
 100
AcDbCircle
  10
 308.18173819182
  20
 95.940615399309
  30
0.0
  40
 2.5000000000000
 100
AcDbArc
  50
 44.644246425750
  51
 224.64424642575
   0
ARC
   5
6D5
 100
AcDbEntity
   8
LEVEL001
   6
CONTINUOUS
  62
7
 100
AcDbCircle
  10
 321.34418477292
  20
 108.94061539931
  30
0.0
  40
 21.000000000000
 100
AcDbArc
  50
 224.64424642570
  51
 270.00000000000
   0
ARC
   5
6D6
 100
AcDbEntity
   8
LEVEL001
   6
CONTINUOUS
  62
7
 100
AcDbCircle
  10
 321.34418477292
  20
 108.94061539931
  30
0.0
  40
 16.000000000000
 100
AcDbArc
  50
 224.64424642570
  51
 270.00000000000
   0
LINE
   5
6D7
 100
AcDbEntity
   8
LEVEL001
 100
AcDbLine
   6
CONTINUOUS
  62
7
  10
 323.10041983282
  20
 87.940615399307
  30
0.0
  11
 321.34418477292
  21
 87.940615399307
  31
0.0
   0
LINE
   5
6D8
 100
AcDbEntity
   8
LEVEL001
 100
AcDbLine
   6
CONTINUOUS
  62
7
  10
 321.34418477292
  20
 92.940615399307
  30
0.0
  11
 323.10041983282
  21
 92.940615399307
  31
0.0
   0
LINE
   5
6D9
 100
AcDbEntity
   8
LEVEL001
 100
AcDbLine
   6
CONTINUOUS
  62
7
  10
 341.68173819182
  20
 98.940615399307
  30
0.0
  11
 341.68173819182
  21
 89.940615399307
  31
0.0
   0
ARC
   5
6DA
 100
AcDbEntity
   8
LEVEL001
   6
CONTINUOUS
  62
7
 100
AcDbCircle
  10
 339.68173819182
  20
 89.940615399308
  30
0.0
  40
 2.0000000000000
 100
AcDbArc
  50
 270.00000000000
  51
0.0
   0
LINE
   5
6DB
 100
AcDbEntity
   8
LEVEL001
 100
AcDbLine
   6
CONTINUOUS
  62
7
  10
 339.68173819182
  20
 87.940615399307
  30
0.0
  11
 330.68173819182
  21
 87.940615399307
  31
0.0
   0
LINE
   5
6DC
 100
AcDbEntity
   8
LEVEL001
 100
AcDbLine
   6
CONTINUOUS
  62
1
  10
 329.68173819182
  20
 91.940615399307
  30
0.0
  11
 323.18346531272
  21
 91.940615399307
  31
0.0
   0
LINE
   5
6DD
 100
AcDbEntity
   8
LEVEL001
 100
AcDbLine
   6
CONTINUOUS
  62
1
  10
 323.10041983282
  20
 92.940615399307
  30
0.0
  11
 323.11662120222
  21
 92.921400679707
  31
0.0
   0
LINE
   5
6DE
 100
AcDbEntity
   8
LEVEL001
 100
AcDbLine
   6
CONTINUOUS
  62
1
  10
 323.11662120222
  20
 92.921400679707
  30
0.0
  11
 323.13219996212
  21
 92.864494931807
  31
0.0
   0
LINE
   5
6DF
 100
AcDbEntity
   8
LEVEL001
 100
AcDbLine
   6
CONTINUOUS
  62
1
  10
 323.13219996212
  20
 92.864494931807
  30
0.0
  11
 323.14655742942
  21
 92.772085011607
  31
0.0
   0
LINE
   5
6E0
 100
AcDbEntity
   8
LEVEL001
 100
AcDbLine
   6
CONTINUOUS
  62
1
  10
 323.14655742942
  20
 92.772085011607
  30
0.0
  11
 323.15914185482
  21
 92.647722180507
  31
0.0
   0
LINE
   5
6E1
 100
AcDbEntity
   8
LEVEL001
 100
AcDbLine
   6
CONTINUOUS
  62
1
  10
 323.15914185482
  20
 92.647722180507
  30
0.0
  11
 323.16946962572
  21
 92.496185632307
  31
0.0
   0
LINE
   5
6E2
 100
AcDbEntity
   8
LEVEL001
 100
AcDbLine
   6
CONTINUOUS
  62
1
  10
 323.16946962572
  20
 92.496185632307
  30
0.0
  11
 323.17714385192
  21
 92.323298831707
  31
0.0
   0
LINE
   5
6E3
 100
AcDbEntity
   8
LEVEL001
 100
AcDbLine
   6
CONTINUOUS
  62
1
  10
 323.17714385192
  20
 92.323298831707
  30
0.0
  11
 323.18186961712
  21
 92.135705721307
  31
0.0
   0
LINE
   5
6E4
 100
AcDbEntity
   8
LEVEL001
 100
AcDbLine
   6
CONTINUOUS
  62
1
  10
 323.18186961712
  20
 92.135705721307
  30
0.0
  11
 323.18346531272
  21
 91.940615399307
  31
0.0
   0
LINE
   5
6E5
 100
AcDbEntity
   8
LEVEL001
 100
AcDbLine
   6
CONTINUOUS
  62
1
  10
 323.18346531272
  20
 88.940615399307
  30
0.0
  11
 329.68173819182
  21
 88.940615399307
  31
0.0
   0
LINE
   5
6E6
 100
AcDbEntity
   8
LEVEL001
 100
AcDbLine
   6
CONTINUOUS
  62
1
  10
 323.18346531272
  20
 88.940615399307
  30
0.0
  11
 323.18186961712
  21
 88.745525077307
  31
0.0
   0
LINE
   5
6E7
 100
AcDbEntity
   8
LEVEL001
 100
AcDbLine
   6
CONTINUOUS
  62
1
  10
 323.18186961712
  20
 88.745525077307
  30
0.0
  11
 323.17714385192
  21
 88.557931966907
  31
0.0
   0
LINE
   5
6E8
 100
AcDbEntity
   8
LEVEL001
 100
AcDbLine
   6
CONTINUOUS
  62
1
  10
 323.17714385192
  20
 88.557931966907
  30
0.0
  11
 323.16946962572
  21
 88.385045166307
  31
0.0
   0
LINE
   5
6E9
 100
AcDbEntity
   8
LEVEL001
 100
AcDbLine
   6
CONTINUOUS
  62
1
  10
 323.16946962572
  20
 88.385045166307
  30
0.0
  11
 323.15914185482
  21
 88.233508618107
  31
0.0
   0
LINE
   5
6EA
 100
AcDbEntity
   8
LEVEL001
 100
AcDbLine
   6
CONTINUOUS
  62
1
  10
 323.15914185482
  20
 88.233508618107
  30
0.0
  11
 323.14655742942
  21
 88.109145787007
  31
0.0
   0
LINE
   5
6EB
 100
AcDbEntity
   8
LEVEL001
 100
AcDbLine
   6
CONTINUOUS
  62
1
  10
 323.14655742942
  20
 88.109145787007
  30
0.0
  11
 323.13219996212
  21
 88.016735866807
  31
0.0
   0
LINE
   5
6EC
 100
AcDbEntity
   8
LEVEL001
 100
AcDbLine
   6
CONTINUOUS
  62
1
  10
 323.13219996212
  20
 88.016735866807
  30
0.0
  11
 323.11662120222
  21
 87.959830118907
  31
0.0
   0
LINE
   5
6ED
 100
AcDbEntity
   8
LEVEL001
 100
AcDbLine
   6
CONTINUOUS
  62
1
  10
 323.11662120222
  20
 87.959830118907
  30
0.0
  11
 323.10041983282
  21
 87.940615399307
  31
0.0
   0
LINE
   5
6EE
 100
AcDbEntity
   8
LEVEL001
 100
AcDbLine
   6
CONTINUOUS
  62
1
  10
 323.18346531272
  20
 88.940615399307
  30
0.0
  11
 323.18346531272
  21
 91.940615399307
  31
0.0
   0
LINE
   5
6EF
 100
AcDbEntity
   8
LEVEL001
 100
AcDbLine
   6
CONTINUOUS
  62
1
  10
 309.96044718922
  20
 97.697372156107
  30
0.0
  11
 309.95549906222
  21
 97.677051632407
  31
0.0
   0
LINE
   5
6F0
 100
AcDbEntity
   8
LEVEL001
 100
AcDbLine
   6
CONTINUOUS
  62
1
  10
 309.95549906222
  20
 97.677051632407
  30
0.0
  11
 309.92539855762
  21
 97.632438578707
  31
0.0
   0
LINE
   5
6F1
 100
AcDbEntity
   8
LEVEL001
 100
AcDbLine
   6
CONTINUOUS
  62
1
  10
 309.92539855762
  20
 97.632438578707
  30
0.0
  11
 309.87121724122
  21
 97.565121201607
  31
0.0
   0
LINE
   5
6F2
 100
AcDbEntity
   8
LEVEL001
 100
AcDbLine
   6
CONTINUOUS
  62
1
  10
 309.87121724122
  20
 97.565121201607
  30
0.0
  11
 309.79488394612
  21
 97.477495972507
  31
0.0
   0
LINE
   5
6F3
 100
AcDbEntity
   8
LEVEL001
 100
AcDbLine
   6
CONTINUOUS
  62
1
  10
 309.79488394612
  20
 97.477495972507
  30
0.0
  11
 309.69911610672
  21
 97.372682314407
  31
0.0
   0
LINE
   5
6F4
 100
AcDbEntity
   8
LEVEL001
 100
AcDbLine
   6
CONTINUOUS
  62
1
  10
 309.69911610672
  20
 97.372682314407
  30
0.0
  11
 309.58732301952
  21
 97.254411550907
  31
0.0
   0
LINE
   5
6F5
 100
AcDbEntity
   8
LEVEL001
 100
AcDbLine
   6
CONTINUOUS
  62
1
  10
 309.58732301952
  20
 97.254411550907
  30
0.0
  11
 309.46348447322
  21
 97.126894073707
  31
0.0
   0
LINE
   5
6F6
 100
AcDbEntity
   8
LEVEL001
 100
AcDbLine
   6
CONTINUOUS
  62
1
  10
 309.46348447322
  20
 97.126894073707
  30
0.0
  11
 309.33200907012
  21
 96.994669453407
  31
0.0
   0
ARC
   5
6F7
 100
AcDbEntity
   8
LEVEL001
   6
CONTINUOUS
  62
1
 100
AcDbCircle
  10
 308.26478367162
  20
 95.940615399308
  30
0.0
  40
 1.5000000000000
 100
AcDbArc
  50
 44.644246425749
  51
 224.64424642575
   0
LINE
   5
6F8
 100
AcDbEntity
   8
LEVEL001
 100
AcDbLine
   6
CONTINUOUS
  62
1
  10
 306.40302919432
  20
 94.183858642607
  30
0.0
  11
 306.42605656542
  21
 94.189977313507
  31
0.0
   0
LINE
   5
6F9
 100
AcDbEntity
   8
LEVEL001
 100
AcDbLine
   6
CONTINUOUS
  62
1
  10
 306.42605656542
  20
 94.189977313507
  30
0.0
  11
 306.47756289692
  21
 94.224911162907
  31
0.0
   0
LINE
   5
6FA
 100
AcDbEntity
   8
LEVEL001
 100
AcDbLine
   6
CONTINUOUS
  62
1
  10
 306.47756289692
  20
 94.224911162907
  30
0.0
  11
 306.55541755702
  21
 94.287215102907
  31
0.0
   0
LINE
   5
6FB
 100
AcDbEntity
   8
LEVEL001
 100
AcDbLine
   6
CONTINUOUS
  62
1
  10
 306.55541755702
  20
 94.287215102907
  30
0.0
  11
 306.65639997802
  21
 94.374311843407
  31
0.0
   0
LINE
   5
6FC
 100
AcDbEntity
   8
LEVEL001
 100
AcDbLine
   6
CONTINUOUS
  62
1
  10
 306.65639997802
  20
 94.374311843407
  30
0.0
  11
 306.77633288022
  21
 94.482598505307
  31
0.0
   0
LINE
   5
6FD
 100
AcDbEntity
   8
LEVEL001
 100
AcDbLine
   6
CONTINUOUS
  62
1
  10
 306.77633288022
  20
 94.482598505307
  30
0.0
  11
 306.91025507032
  21
 94.607595658307
  31
0.0
   0
LINE
   5
6FE
 100
AcDbEntity
   8
LEVEL001
 100
AcDbLine
   6
CONTINUOUS
  62
1
  10
 306.91025507032
  20
 94.607595658307
  30
0.0
  11
 307.05262666842
  21
 94.744132619507
  31
0.0
   0
LINE
   5
6FF
 100
AcDbEntity
   8
LEVEL001
 100
AcDbLine
   6
CONTINUOUS
  62
1
  10
 307.05262666842
  20
 94.744132619507
  30
0.0
  11
 307.19755827322
  21
 94.886561345307
  31
0.0
   0
LINE
   5
700
 100
AcDbEntity
   8
LEVEL001
 100
AcDbLine
   6
CONTINUOUS
  62
1
  10
 321.42723025272
  20
 88.940615399307
  30
0.0
  11
 323.18346531272
  21
 88.940615399307
  31
0.0
   0
ARC
   5
701
 100
AcDbEntity
   8
LEVEL001
   6
CONTINUOUS
  62
1
 100
AcDbCircle
  10
 321.42723025272
  20
 108.94061539931
  30
0.0
  40
 20.000000000000
 100
AcDbArc
  50
 224.64424642570
  51
 270.00000000000
   0
ARC
   5
702
 100
AcDbEntity
   8
LEVEL001
   6
CONTINUOUS
  62
1
 100
AcDbCircle
  10
 321.42723025272
  20
 108.94061539931
  30
0.0
  40
 17.000000000000
 100
AcDbArc
  50
 224.64424642570
  51
 270.00000000000
   0
LINE
   5
703
 100
AcDbEntity
   8
LEVEL001
 100
AcDbLine
   6
CONTINUOUS
  62
1
  10
 323.18346531272
  20
 91.940615399307
  30
0.0
  11
 321.42723025272
  21
 91.940615399307
  31
0.0
   0
LINE
   5
704
 100
AcDbEntity
   8
LEVEL001
 100
AcDbLine
   6
CONTINUOUS
  62
1
  10
 321.42723025272
  20
 88.940615399307
  30
0.0
  11
 321.42563455712
  21
 88.745525077307
  31
0.0
   0
LINE
   5
705
 100
AcDbEntity
   8
LEVEL001
 100
AcDbLine
   6
CONTINUOUS
  62
1
  10
 321.42563455712
  20
 88.745525077307
  30
0.0
  11
 321.42090879202
  21
 88.557931966907
  31
0.0
   0
LINE
   5
706
 100
AcDbEntity
   8
LEVEL001
 100
AcDbLine
   6
CONTINUOUS
  62
1
  10
 321.42090879202
  20
 88.557931966907
  30
0.0
  11
 321.41323456582
  21
 88.385045166307
  31
0.0
   0
LINE
   5
707
 100
AcDbEntity
   8
LEVEL001
 100
AcDbLine
   6
CONTINUOUS
  62
1
  10
 321.41323456582
  20
 88.385045166307
  30
0.0
  11
 321.40290679482
  21
 88.233508618107
  31
0.0
   0
LINE
   5
708
 100
AcDbEntity
   8
LEVEL001
 100
AcDbLine
   6
CONTINUOUS
  62
1
  10
 321.40290679482
  20
 88.233508618107
  30
0.0
  11
 321.39032236952
  21
 88.109145787007
  31
0.0
   0
LINE
   5
709
 100
AcDbEntity
   8
LEVEL001
 100
AcDbLine
   6
CONTINUOUS
  62
1
  10
 321.39032236952
  20
 88.109145787007
  30
0.0
  11
 321.37596490212
  21
 88.016735866807
  31
0.0
   0
LINE
   5
70A
 100
AcDbEntity
   8
LEVEL001
 100
AcDbLine
   6
CONTINUOUS
  62
1
  10
 321.37596490212
  20
 88.016735866807
  30
0.0
  11
 321.36038614232
  21
 87.959830118907
  31
0.0
   0
LINE
   5
70B
 100
AcDbEntity
   8
LEVEL001
 100
AcDbLine
   6
CONTINUOUS
  62
1
  10
 321.36038614232
  20
 87.959830118907
  30
0.0
  11
 321.34418477292
  21
 87.940615399307
  31
0.0
   0
LINE
   5
70C
 100
AcDbEntity
   8
LEVEL001
 100
AcDbLine
   6
CONTINUOUS
  62
1
  10
 321.34418477292
  20
 92.940615399307
  30
0.0
  11
 321.36038614232
  21
 92.921400679707
  31
0.0
   0
LINE
   5
70D
 100
AcDbEntity
   8
LEVEL001
 100
AcDbLine
   6
CONTINUOUS
  62
1
  10
 321.36038614232
  20
 92.921400679707
  30
0.0
  11
 321.37596490212
  21
 92.864494931807
  31
0.0
   0
LINE
   5
70E
 100
AcDbEntity
   8
LEVEL001
 100
AcDbLine
   6
CONTINUOUS
  62
1
  10
 321.37596490212
  20
 92.864494931807
  30
0.0
  11
 321.39032236952
  21
 92.772085011607
  31
0.0
   0
LINE
   5
70F
 100
AcDbEntity
   8
LEVEL001
 100
AcDbLine
   6
CONTINUOUS
  62
1
  10
 321.39032236952
  20
 92.772085011607
  30
0.0
  11
 321.40290679482
  21
 92.647722180507
  31
0.0
   0
LINE
   5
710
 100
AcDbEntity
   8
LEVEL001
 100
AcDbLine
   6
CONTINUOUS
  62
1
  10
 321.40290679482
  20
 92.647722180507
  30
0.0
  11
 321.41323456582
  21
 92.496185632307
  31
0.0
   0
LINE
   5
711
 100
AcDbEntity
   8
LEVEL001
 100
AcDbLine
   6
CONTINUOUS
  62
1
  10
 321.41323456582
  20
 92.496185632307
  30
0.0
  11
 321.42090879202
  21
 92.323298831707
  31
0.0
   0
LINE
   5
712
 100
AcDbEntity
   8
LEVEL001
 100
AcDbLine
   6
CONTINUOUS
  62
1
  10
 321.42090879202
  20
 92.323298831707
  30
0.0
  11
 321.42563455712
  21
 92.135705721307
  31
0.0
   0
LINE
   5
713
 100
AcDbEntity
   8
LEVEL001
 100
AcDbLine
   6
CONTINUOUS
  62
1
  10
 321.42563455712
  20
 92.135705721307
  30
0.0
  11
 321.42723025272
  21
 91.940615399307
  31
0.0
   0
LINE
   5
714
 100
AcDbEntity
   8
LEVEL001
 100
AcDbLine
   6
CONTINUOUS
  62
1
  10
 340.68173819182
  20
 89.940615399307
  30
0.0
  11
 341.68173819182
  21
 89.940615399307
  31
0.0
   0
LINE
   5
715
 100
AcDbEntity
   8
LEVEL001
 100
AcDbLine
   6
CONTINUOUS
  62
1
  10
 340.68173819182
  20
 89.940615399307
  30
0.0
  11
 340.68173819182
  21
 94.358039704407
  31
0.0
   0
ARC
   5
716
 100
AcDbEntity
   8
LEVEL001
   6
CONTINUOUS
  62
1
 100
AcDbCircle
  10
 339.68173819182
  20
 89.940615399312
  30
0.0
  40
 1.0000000000000
 100
AcDbArc
  50
 270.00000000000
  51
0.0
   0
LINE
   5
717
 100
AcDbEntity
   8
LEVEL001
 100
AcDbLine
   6
CONTINUOUS
  62
1
  10
 339.68173819182
  20
 88.940615399307
  30
0.0
  11
 339.68173819182
  21
 87.940615399307
  31
0.0
   0
LINE
   5
718
 100
AcDbEntity
   8
LEVEL001
 100
AcDbLine
   6
CONTINUOUS
  62
1
  10
 335.26431388672
  20
 88.940615399307
  30
0.0
  11
 339.68173819182
  21
 88.940615399307
  31
0.0
   0
DIMENSION
   5
719
 100
AcDbEntity
   8
LEVEL001
   6
CONTINUOUS
  62
2
 100
AcDbDimension
   2
*D24
  10
 330.68173819182
  20
 92.524416912207
  30
0.0
  11
 324.46825398057
  21
 94.957038687977
  31
0.0
  70
132
   3
GMM002
 100
AcDbRadialDimension
  15
 329.75055942253
  25
 92.888979800644
  35
0.0
  40
 5.9018525262536
   0
DIMENSION
   5
71A
 100
AcDbEntity
   8
LEVEL001
   6
CONTINUOUS
  62
2
 100
AcDbDimension
   2
*D25
  10
 330.68173819182
  20
 88.940615399307
  30
0.0
  11
 325.98841492340
  21
 82.904334069785
  31
0.0
  70
132
   3
GMM002
 100
AcDbRadialDimension
  15
 330.06792488879
  25
 88.151164179140
  35
0.0
  40
 6.8427971365591
   0
DIMENSION
   5
71B
 100
AcDbEntity
   8
LEVEL001
   6
CONTINUOUS
  62
2
 100
AcDbDimension
   2
*D26
  10
 341.68173819182
  20
 69.657217282223
  30
0.0
  11
 335.68173819182
  21
 69.657217282223
  31
0.0
  70
0
   3
GMM001
 100
AcDbAlignedDimension
  13
 329.68173819182
  23
 88.940615399307
  33
0.0
  14
 341.68173819182
  24
 102.98059268525
  34
0.0
 100
AcDbRotatedDimension
   0
INSERT
   5
71C
 100
AcDbEntity
   8
LEVEL001
 100
AcDbBlockReference
   2
HATCH001
  10
0.0
  20
0.0
  30
0.0
   0
DIMENSION
   5
71D
 100
AcDbEntity
   8
LEVEL001
   6
CONTINUOUS
  62
2
 100
AcDbDimension
   2
*D27
  10
 177.86143931262
  20
 67.252930928488
  30
0.0
  11
 156.61143931262
  21
 67.252930928488
  31
0.0
  70
0
   1
\A1;42.5
   3
GMM001
 100
AcDbAlignedDimension
  13
 135.36143931262
  23
 134.44061539931
  33
0.0
  14
 177.86143931262
  24
 95.940614075207
  34
0.0
 100
AcDbRotatedDimension
   0
DIMENSION
   5
71E
 100
AcDbEntity
   8
LEVEL001
   6
CONTINUOUS
  62
2
 100
AcDbDimension
   2
*D28
  10
 273.35778548923
  20
 188.22543790934
  30
0.0
  11
 277.94507981700
  21
 183.64624391026
  31
0.0
  70
132
   3
GMM002
 100
AcDbRadialDimension
  15
 274.06551685685
  25
 187.51895626678
  35
0.0
  40
 5.7184923411762
   0
DIMENSION
   5
71F
 100
AcDbEntity
   8
LEVEL001
   6
CONTINUOUS
  62
2
 100
AcDbDimension
   2
*D29
  10
 268.31589035563
  20
 188.22543790934
  30
0.0
  11
 265.51046284372
  21
 185.16266061432
  31
0.0
  70
132
   3
GMM002
 100
AcDbRadialDimension
  15
 267.64044291867
  25
 187.48802977275
  35
0.0
  40
 3.5491409863039
   0
DIMENSION
   5
720
 100
AcDbEntity
   8
LEVEL001
   6
CONTINUOUS
  62
2
 100
AcDbDimension
   2
*D30
  10
 245.23269545933
  20
 172.30990732608
  30
0.0
  11
 241.73269545933
  21
 172.30990732608
  31
0.0
  70
0
   3
GMM001
 100
AcDbAlignedDimension
  13
 238.23269545933
  23
 186.53433297708
  33
0.0
  14
 245.23269545933
  24
 186.63542742402
  34
0.0
 100
AcDbRotatedDimension
   0
DIMENSION
   5
721
 100
AcDbEntity
   8
LEVEL001
   6
CONTINUOUS
  62
2
 100
AcDbDimension
   2
*D31
  10
 267.23269545933
  20
 172.30990732608
  30
0.0
  11
 256.23269545933
  21
 172.30990732608
  31
0.0
  70
0
   3
GMM001
 100
AcDbAlignedDimension
  13
 245.23269545933
  23
 186.63542742402
  33
0.0
  14
 267.23269545933
  24
 186.12995518933
  34
0.0
 100
AcDbRotatedDimension
   0
DIMENSION
   5
722
 100
AcDbEntity
   8
LEVEL001
   6
CONTINUOUS
  62
2
 100
AcDbDimension
   2
*D32
  10
 274.23269545933
  20
 172.30990732608
  30
0.0
  11
 270.73269545933
  21
 172.30990732608
  31
0.0
  70
0
   3
GMM001
 100
AcDbAlignedDimension
  13
 267.23269545933
  23
 186.12995518933
  33
0.0
  14
 274.23269545933
  24
 186.23104963627
  34
0.0
 100
AcDbRotatedDimension
   0
DIMENSION
   5
723
 100
AcDbEntity
   8
LEVEL001
   6
CONTINUOUS
  62
2
 100
AcDbDimension
   2
*D33
  10
 180.36143931262
  20
 176.75715063745
  30
0.0
  11
 157.86143931262
  21
 176.75715063745
  31
0.0
  70
0
   3
GMM001
 100
AcDbAlignedDimension
  13
 135.36143931262
  23
 144.44061539931
  33
0.0
  14
 180.36143931262
  24
 95.940614075207
  34
0.0
 100
AcDbRotatedDimension
   0
DIMENSION
   5
724
 100
AcDbEntity
   8
LEVEL001
   6
CONTINUOUS
  62
2
 100
AcDbDimension
   2
*D34
  10
 150.36143931262
  20
 158.08088762547
  30
0.0
  11
 149.36143931262
  21
 158.08088762547
  31
0.0
  70
0
   3
GMM001
 100
AcDbAlignedDimension
  13
 148.36143931262
  23
 147.95265365207
  33
0.0
  14
 150.36143931262
  24
 146.94061539931
  34
0.0
 100
AcDbRotatedDimension
   0
DIMENSION
   5
725
 100
AcDbEntity
   8
LEVEL001
   6
CONTINUOUS
  62
2
 100
AcDbDimension
   2
*D35
  10
 139.36143931262
  20
 169.93145658906
  30
0.0
  11
 137.36143931262
  21
 169.93145658906
  31
0.0
  70
0
   3
GMM003
 100
AcDbAlignedDimension
  13
 135.36143931262
  23
 144.44061539931
  33
0.0
  14
 139.36143931262
  24
 142.44061539931
  34
0.0
 100
AcDbRotatedDimension
   0
DIMENSION
   5
726
 100
AcDbEntity
   8
LEVEL001
   6
CONTINUOUS
  62
2
 100
AcDbDimension
   2
*D36
  10
 146.36143931262
  20
 169.93145658906
  30
0.0
  11
 142.86143931262
  21
 169.93145658906
  31
0.0
  70
128
   3
GMM006
 100
AcDbAlignedDimension
  13
 139.36143931262
  23
 142.44061539931
  33
0.0
  14
 146.36143931262
  24
 142.44061539931
  34
0.0
 100
AcDbRotatedDimension
   0
DIMENSION
   5
727
 100
AcDbEntity
   8
LEVEL001
   6
CONTINUOUS
  62
2
 100
AcDbDimension
   2
*D37
  10
 150.36143931262
  20
 169.93145658906
  30
0.0
  11
 148.36143931262
  21
 169.93145658906
  31
0.0
  70
0
   3
GMM004
 100
AcDbAlignedDimension
  13
 146.36143931262
  23
 142.44061539931
  33
0.0
  14
 150.36143931262
  24
 143.31277101627
  34
0.0
 100
AcDbRotatedDimension
   0
DIMENSION
   5
728
 100
AcDbEntity
   8
LEVEL001
   6
CONTINUOUS
  62
2
 100
AcDbDimension
   2
*D38
  10
 177.86143931262
  20
 95.940614075207
  30
0.0
  11
 184.35048769759
  21
 101.98916940176
  31
0.0
  70
132
   1
\A1;R2.5
   3
GMM007
 100
AcDbRadialDimension
  15
 179.69018730492
  25
 97.645222016694
  35
0.0
  40
 6.5365258913209
   0
DIMENSION
   5
729
 100
AcDbEntity
   8
LEVEL001
   6
CONTINUOUS
  62
2
 100
AcDbDimension
   2
*D39
  10
 155.36143657832
  20
 99.940607127307
  30
0.0
  11
 155.26812148642
  21
 99.874487244305
  31
0.0
  70
132
   1
\A1;R7
   3
GMM008
 100
AcDbRadialDimension
  15
 149.64989715835
  25
 95.893605613110
  35
0.0
   0
TEXT
   5
72A
 100
AcDbEntity
   8
LEVEL001
  62
7
 100
AcDbText
  10
 353.27226812741
  20
 28.602867224199
  30
0.0
  40
 5.0000000000000
   1
トレーフック
  41
 0.80000000000000
   7
STANDARD
 100
AcDbText
   0
ENDSEC
  0
SECTION
  2
OBJECTS
  0
DICTIONARY
  5
C
100
AcDbDictionary
  3
ACAD_GROUP
350
D
  3
ACAD_MLINESTYLE
350
1B
  0
DICTIONARY
  5
D
102
{ACAD_REACTORS
330
C
102
}
100
AcDbDictionary
  0
DICTIONARY
  5
1B
102
{ACAD_REACTORS
330
C
102
}
100
AcDbDictionary
  3
STANDARD
350
1C
  0
MLINESTYLE
  5
1C
102
{ACAD_REACTORS
330
1B
102
}
100
AcDbMlineStyle
  2
STANDARD
 70
     0
  3

 62
   256
 51
90.0
 52
90.0
 71
     2
 49
0.5
 62
   256
  6
BYLAYER
 49
-0.5
 62
   256
  6
BYLAYER
  0
ENDSEC
   0
EOF
