  0
SECTION
  2
HEADER
  9
$ACADVER
  1
AC1009
  9
$INSBASE
 10
0.0
 20
0.0
 30
0.0
  9
$EXTMIN
 10
16.597193652291001
 20
12.379001147883001
 30
0.0
  9
$EXTMAX
 10
405.59601102757989
 20
586.13203581967991
 30
0.0
  9
$LIMMIN
 10
0.0
 20
0.0
  9
$LIMMAX
 10
420.0
 20
297.0
  9
$ORTHOMODE
 70
     0
  9
$REGENMODE
 70
     1
  9
$FILLMODE
 70
     1
  9
$QTEXTMODE
 70
     0
  9
$MIRRTEXT
 70
     0
  9
$DRAGMODE
 70
     2
  9
$LTSCALE
 40
8.4000000000000004
  9
$OSMODE
 70
    37
  9
$ATTMODE
 70
     1
  9
$TEXTSIZE
 40
0.2
  9
$TRACEWID
 40
0.05
  9
$TEXTSTYLE
  7
STANDARD
  9
$CLAYER
  8
0
  9
$CELTYPE
  6
CONTINUOUS
  9
$CECOLOR
 62
   256
  9
$DIMSCALE
 40
1.0
  9
$DIMASZ
 40
0.18
  9
$DIMEXO
 40
0.0625
  9
$DIMDLI
 40
0.38
  9
$DIMRND
 40
0.0
  9
$DIMDLE
 40
0.0
  9
$DIMEXE
 40
0.18
  9
$DIMTP
 40
0.0
  9
$DIMTM
 40
0.0
  9
$DIMTXT
 40
0.18
  9
$DIMCEN
 40
0.09
  9
$DIMTSZ
 40
0.0
  9
$DIMTOL
 70
     0
  9
$DIMLIM
 70
     0
  9
$DIMTIH
 70
     1
  9
$DIMTOH
 70
     1
  9
$DIMSE1
 70
     0
  9
$DIMSE2
 70
     0
  9
$DIMTAD
 70
     0
  9
$DIMZIN
 70
     0
  9
$DIMBLK
  1

  9
$DIMASO
 70
     1
  9
$DIMSHO
 70
     1
  9
$DIMPOST
  1

  9
$DIMAPOST
  1

  9
$DIMALT
 70
     0
  9
$DIMALTD
 70
     2
  9
$DIMALTF
 40
25.399999999999999
  9
$DIMLFAC
 40
1.0
  9
$DIMTOFL
 70
     0
  9
$DIMTVP
 40
0.0
  9
$DIMTIX
 70
     0
  9
$DIMSOXD
 70
     0
  9
$DIMSAH
 70
     0
  9
$DIMBLK1
  1

  9
$DIMBLK2
  1

  9
$DIMSTYLE
  2
STANDARD
  9
$DIMCLRD
 70
     0
  9
$DIMCLRE
 70
     0
  9
$DIMCLRT
 70
     0
  9
$DIMTFAC
 40
1.0
  9
$DIMGAP
 40
0.09
  9
$LUNITS
 70
     2
  9
$LUPREC
 70
     4
  9
$SKETCHINC
 40
0.1
  9
$FILLETRAD
 40
0.0
  9
$AUNITS
 70
     0
  9
$AUPREC
 70
     0
  9
$MENU
  1
.
  9
$ELEVATION
 40
0.0
  9
$PELEVATION
 40
0.0
  9
$THICKNESS
 40
0.0
  9
$LIMCHECK
 70
     0
  9
$BLIPMODE
 70
     0
  9
$CHAMFERA
 40
0.0
  9
$CHAMFERB
 40
0.0
  9
$SKPOLY
 70
     0
  9
$TDCREATE
 40
2459081.596177442
  9
$TDUPDATE
 40
2459081.5965323849
  9
$TDINDWG
 40
0.0003572917
  9
$TDUSRTIMER
 40
0.0003572917
  9
$USRTIMER
 70
     1
  9
$ANGBASE
 50
0.0
  9
$ANGDIR
 70
     0
  9
$PDMODE
 70
     0
  9
$PDSIZE
 40
0.0
  9
$PLINEWID
 40
0.0
  9
$COORDS
 70
     1
  9
$SPLFRAME
 70
     0
  9
$SPLINETYPE
 70
     6
  9
$SPLINESEGS
 70
     8
  9
$ATTDIA
 70
     1
  9
$ATTREQ
 70
     1
  9
$HANDLING
 70
     1
  9
$HANDSEED
  5
AF0
  9
$SURFTAB1
 70
     6
  9
$SURFTAB2
 70
     6
  9
$SURFTYPE
 70
     6
  9
$SURFU
 70
     6
  9
$SURFV
 70
     6
  9
$UCSNAME
  2

  9
$UCSORG
 10
0.0
 20
0.0
 30
0.0
  9
$UCSXDIR
 10
1.0
 20
0.0
 30
0.0
  9
$UCSYDIR
 10
0.0
 20
1.0
 30
0.0
  9
$PUCSNAME
  2

  9
$PUCSORG
 10
0.0
 20
0.0
 30
0.0
  9
$PUCSXDIR
 10
1.0
 20
0.0
 30
0.0
  9
$PUCSYDIR
 10
0.0
 20
1.0
 30
0.0
  9
$USERI1
 70
     0
  9
$USERI2
 70
     0
  9
$USERI3
 70
     0
  9
$USERI4
 70
     0
  9
$USERI5
 70
     0
  9
$USERR1
 40
0.0
  9
$USERR2
 40
0.0
  9
$USERR3
 40
0.0
  9
$USERR4
 40
0.0
  9
$USERR5
 40
0.0
  9
$WORLDVIEW
 70
     1
  9
$SHADEDGE
 70
     3
  9
$SHADEDIF
 70
    70
  9
$TILEMODE
 70
     1
  9
$MAXACTVP
 70
    64
  9
$PLIMCHECK
 70
     0
  9
$PEXTMIN
 10
1.0000000000000000E+020
 20
1.0000000000000000E+020
 30
1.0000000000000000E+020
  9
$PEXTMAX
 10
-1.0000000000000000E+020
 20
-1.0000000000000000E+020
 30
-1.0000000000000000E+020
  9
$PLIMMIN
 10
0.0
 20
0.0
  9
$PLIMMAX
 10
12.0
 20
9.0
  9
$UNITMODE
 70
     0
  9
$VISRETAIN
 70
     1
  9
$PLINEGEN
 70
     0
  9
$PSLTSCALE
 70
     1
  0
ENDSEC
  0
SECTION
  2
TABLES
  0
TABLE
  2
VPORT
 70
     1
  0
VPORT
  2
*ACTIVE
 70
     0
 10
0.0
 20
0.0
 11
1.0
 21
1.0
 12
256.83286598114381
 22
287.46213134642937
 13
0.0
 23
0.0
 14
1.0
 24
1.0
 15
0.0
 25
0.0
 16
0.0
 26
0.0
 36
1.0
 17
0.0
 27
0.0
 37
0.0
 40
766.39719325691499
 41
1.8776077885952711
 42
50.0
 43
0.0
 44
0.0
 50
0.0
 51
0.0
 71
     0
 72
   100
 73
     1
 74
     1
 75
     0
 76
     0
 77
     0
 78
     0
  0
ENDTAB
  0
TABLE
  2
LTYPE
 70
    25
  0
LTYPE
  2
CONTINUOUS
 70
     0
  3
Solid line
 72
    65
 73
     0
 40
0.0
  0
LTYPE
  2
BORDER
 70
     0
  3
__ __ . __ __ . __ __ . __ __ . __ __ . __ __ .
 72
    65
 73
     6
 40
1.75
 49
0.5
 49
-0.25
 49
0.5
 49
-0.25
 49
0.0
 49
-0.25
  0
LTYPE
  2
BORDER2
 70
     0
  3
__.__.__.__.__.__.__.__.__.__.__.__.__.__.__.__
 72
    65
 73
     6
 40
0.875
 49
0.25
 49
-0.125
 49
0.25
 49
-0.125
 49
0.0
 49
-0.125
  0
LTYPE
  2
BORDERX2
 70
     0
  3
____  ____  .  ____  ____  .  ____  ____  .  __
 72
    65
 73
     6
 40
3.5
 49
1.0
 49
-0.5
 49
1.0
 49
-0.5
 49
0.0
 49
-0.5
  0
LTYPE
  2
CENTER
 70
     0
  3
____ _ ____ _ ____ _ ____ _ ____ _ ____ _ ____ 
 72
    65
 73
     4
 40
2.0
 49
1.25
 49
-0.25
 49
0.25
 49
-0.25
  0
LTYPE
  2
CENTER2
 70
     0
  3
___ _ ___ _ ___ _ ___ _ ___ _ ___ _ ___ _ ___ _
 72
    65
 73
     4
 40
1.125
 49
0.75
 49
-0.125
 49
0.125
 49
-0.125
  0
LTYPE
  2
CENTERX2
 70
     0
  3
________  __  ________  __  ________  __  _____
 72
    65
 73
     4
 40
4.0
 49
2.5
 49
-0.5
 49
0.5
 49
-0.5
  0
LTYPE
  2
DASHDOT
 70
     0
  3
__ . __ . __ . __ . __ . __ . __ . __ . __ . __
 72
    65
 73
     4
 40
1.0
 49
0.5
 49
-0.25
 49
0.0
 49
-0.25
  0
LTYPE
  2
DASHDOT2
 70
     0
  3
_._._._._._._._._._._._._._._._._._._._._._._._
 72
    65
 73
     4
 40
0.5
 49
0.25
 49
-0.125
 49
0.0
 49
-0.125
  0
LTYPE
  2
DASHDOTX2
 70
     0
  3
____  .  ____  .  ____  .  ____  .  ____  .  __
 72
    65
 73
     4
 40
2.0
 49
1.0
 49
-0.5
 49
0.0
 49
-0.5
  0
LTYPE
  2
DASHED
 70
     0
  3
__ __ __ __ __ __ __ __ __ __ __ __ __ __ __ __
 72
    65
 73
     2
 40
0.75
 49
0.5
 49
-0.25
  0
LTYPE
  2
DASHED2
 70
     0
  3
_ _ _ _ _ _ _ _ _ _ _ _ _ _ _ _ _ _ _ _ _ _ _ _
 72
    65
 73
     2
 40
0.375
 49
0.25
 49
-0.125
  0
LTYPE
  2
DASHEDX2
 70
     0
  3
____  ____  ____  ____  ____  ____  ____  ____ 
 72
    65
 73
     2
 40
1.5
 49
1.0
 49
-0.5
  0
LTYPE
  2
DIVIDE
 70
     0
  3
____ . . ____ . . ____ . . ____ . . ____ . . __
 72
    65
 73
     6
 40
1.25
 49
0.5
 49
-0.25
 49
0.0
 49
-0.25
 49
0.0
 49
-0.25
  0
LTYPE
  2
DIVIDE2
 70
     0
  3
__..__..__..__..__..__..__..__..__..__..__..__.
 72
    65
 73
     6
 40
0.625
 49
0.25
 49
-0.125
 49
0.0
 49
-0.125
 49
0.0
 49
-0.125
  0
LTYPE
  2
DIVIDEX2
 70
     0
  3
________  .  .  ________  .  .  ________  .  . 
 72
    65
 73
     6
 40
2.5
 49
1.0
 49
-0.5
 49
0.0
 49
-0.5
 49
0.0
 49
-0.5
  0
LTYPE
  2
DOT
 70
     0
  3
. . . . . . . . . . . . . . . . . . . . . . . .
 72
    65
 73
     2
 40
0.25
 49
0.0
 49
-0.25
  0
LTYPE
  2
DOT2
 70
     0
  3
...............................................
 72
    65
 73
     2
 40
0.125
 49
0.0
 49
-0.125
  0
LTYPE
  2
DOTX2
 70
     0
  3
.  .  .  .  .  .  .  .  .  .  .  .  .  .  .  . 
 72
    65
 73
     2
 40
0.5
 49
0.0
 49
-0.5
  0
LTYPE
  2
HIDDEN
 70
     0
  3
__ __ __ __ __ __ __ __ __ __ __ __ __ __ __ __
 72
    65
 73
     2
 40
0.375
 49
0.25
 49
-0.125
  0
LTYPE
  2
HIDDEN2
 70
     0
  3
_ _ _ _ _ _ _ _ _ _ _ _ _ _ _ _ _ _ _ _ _ _ _ _
 72
    65
 73
     2
 40
0.1875
 49
0.125
 49
-0.0625
  0
LTYPE
  2
HIDDENX2
 70
     0
  3
____ ____ ____ ____ ____ ____ ____ ____ ____ __
 72
    65
 73
     2
 40
0.75
 49
0.5
 49
-0.25
  0
LTYPE
  2
PHANTOM
 70
     0
  3
______  __  __  ______  __  __  ______  __  __ 
 72
    65
 73
     6
 40
2.5
 49
1.25
 49
-0.25
 49
0.25
 49
-0.25
 49
0.25
 49
-0.25
  0
LTYPE
  2
PHANTOM2
 70
     0
  3
___ _ _ ___ _ _ ___ _ _ ___ _ _ ___ _ _ ___ _ _
 72
    65
 73
     6
 40
1.25
 49
0.625
 49
-0.125
 49
0.125
 49
-0.125
 49
0.125
 49
-0.125
  0
LTYPE
  2
PHANTOMX2
 70
     0
  3
____________    ____    ____    ____________   
 72
    65
 73
     6
 40
5.0
 49
2.5
 49
-0.5
 49
0.5
 49
-0.5
 49
0.5
 49
-0.5
  0
ENDTAB
  0
TABLE
  2
LAYER
 70
     1
  0
LAYER
  2
0
 70
     0
 62
     7
  6
CONTINUOUS
  0
ENDTAB
  0
TABLE
  2
STYLE
 70
     4
  0
STYLE
  2
STANDARD
 70
     0
 40
0.0
 41
1.0
 50
0.0
 71
     0
 42
0.2
  3
TXT
  4
BIGFONT
  0
STYLE
  2
STANDARD1
 70
     4
 40
0.0
 41
1.0
 50
0.0
 71
     0
 42
0.2
  3
TXT
  4
BIGFONT
  0
STYLE
  2
GMM001
 70
     0
 40
0.0
 41
0.75
 50
0.0
 71
     0
 42
1.0
  3
txt.shx
  4
bigfont.shx
  0
STYLE
  2
GMM002
 70
     0
 40
0.0
 41
1.0
 50
0.0
 71
     0
 42
1.0
  3
txt.shx
  4
bigfont.shx
  0
ENDTAB
  0
TABLE
  2
VIEW
 70
     0
  0
ENDTAB
  0
TABLE
  2
UCS
 70
     0
  0
ENDTAB
  0
TABLE
  2
APPID
 70
     3
  0
APPID
  2
ACAD
 70
     0
  0
APPID
  2
ACAD_NAV_VCDISPLAY
 70
     0
  0
APPID
  2
ACAD_MLEADERVER
 70
     0
  0
ENDTAB
  0
TABLE
  2
DIMSTYLE
 70
    11
  0
DIMSTYLE
  2
STANDARD
 70
     0
  3

  4

  5

  6

  7

 40
1.0
 41
0.18
 42
0.0625
 43
0.38
 44
0.18
 45
0.0
 46
0.0
 47
0.0
 48
0.0
140
0.18
141
0.09
142
0.0
143
25.399999999999999
144
1.0
145
0.0
146
1.0
147
0.09
 71
     0
 72
     0
 73
     1
 74
     1
 75
     0
 76
     0
 77
     0
 78
     0
170
     0
171
     2
172
     0
173
     0
174
     0
175
     0
176
     0
177
     0
178
     0
  0
DIMSTYLE
  2
GMM001
 70
     0
  3
R<>
  4

  5

  6
NONE
  7
OPEN30
 40
1.0
 41
2.0
 42
1.0
 43
8.0
 44
0.5
 45
0.0
 46
0.0
 47
0.0
 48
0.0
140
4.0
141
1.0
142
0.0
143
0.0394
144
1.0
145
0.0
146
0.625
147
1.7142857142857
 71
     0
 72
     0
 73
     1
 74
     1
 75
     1
 76
     1
 77
     3
 78
     8
170
     0
171
     2
172
     0
173
     1
174
     0
175
     0
176
     6
177
     6
178
     6
  0
DIMSTYLE
  2
GMM002
 70
     0
  3
%%c<>
  4

  5

  6
NONE
  7
OPEN30
 40
1.0
 41
3.0
 42
1.0
 43
8.0
 44
1.0
 45
0.0
 46
0.0
 47
0.0
 48
0.0
140
4.0
141
1.0
142
0.0
143
0.0394
144
1.0
145
0.0
146
0.625
147
1.7142857142857
 71
     0
 72
     0
 73
     1
 74
     1
 75
     1
 76
     1
 77
     3
 78
     8
170
     0
171
     2
172
     0
173
     1
174
     0
175
     0
176
     6
177
     6
178
     6
  0
DIMSTYLE
  2
GMM003
 70
     0
  3

  4

  5

  6
OPEN30
  7
OPEN30
 40
1.0
 41
2.0
 42
1.0
 43
8.0
 44
1.0
 45
0.0
 46
0.0
 47
0.0
 48
0.0
140
4.0
141
1.0
142
0.0
143
0.0394
144
1.0
145
0.0
146
0.625
147
1.7142857142857
 71
     0
 72
     0
 73
     0
 74
     0
 75
     0
 76
     0
 77
     3
 78
     8
170
     0
171
     2
172
     1
173
     1
174
     0
175
     0
176
     6
177
     6
178
     6
  0
DIMSTYLE
  2
GMM004
 70
     0
  3
R<>
  4

  5

  6
NONE
  7
OPEN30
 40
1.0
 41
3.0
 42
1.0
 43
8.0
 44
1.0
 45
0.0
 46
0.0
 47
0.0
 48
0.0
140
4.0
141
1.0
142
0.0
143
0.0394
144
1.0
145
0.0
146
0.625
147
1.7142857142857
 71
     0
 72
     0
 73
     1
 74
     1
 75
     1
 76
     1
 77
     3
 78
     8
170
     0
171
     2
172
     0
173
     1
174
     0
175
     0
176
     6
177
     6
178
     6
  0
DIMSTYLE
  2
GMM005
 70
     0
  3
%%c<>
  4

  5

  6
OPEN30
  7
OPEN30
 40
1.0
 41
3.0
 42
1.0
 43
8.0
 44
1.0
 45
0.0
 46
0.0
 47
0.0
 48
0.0
140
4.0
141
1.0
142
0.0
143
0.0394
144
1.0
145
0.0
146
0.625
147
1.7142857142857
 71
     0
 72
     0
 73
     0
 74
     0
 75
     0
 76
     0
 77
     3
 78
     8
170
     0
171
     2
172
     1
173
     1
174
     0
175
     0
176
     6
177
     6
178
     6
  0
DIMSTYLE
  2
GMM006
 70
     0
  3
取付ピッチ<>
  4

  5

  6
OPEN30
  7
OPEN30
 40
1.0
 41
3.0
 42
1.0
 43
8.0
 44
1.0
 45
0.0
 46
0.0
 47
0.0
 48
0.0
140
4.0
141
1.0
142
0.0
143
0.0394
144
1.0
145
0.0
146
0.625
147
1.7142857142857
 71
     0
 72
     0
 73
     0
 74
     0
 75
     0
 76
     0
 77
     3
 78
     8
170
     0
171
     2
172
     1
173
     1
174
     0
175
     0
176
     6
177
     6
178
     6
  0
DIMSTYLE
  2
GMM007
 70
     0
  3
(<>
  4

  5

  6
OPEN30
  7
OPEN30
 40
1.0
 41
3.0
 42
1.0
 43
8.0
 44
1.0
 45
0.0
 46
0.0
 47
0.0
 48
0.0
140
4.0
141
1.0
142
0.0
143
0.0394
144
1.0
145
0.0
146
0.625
147
1.7142857142857
 71
     0
 72
     0
 73
     0
 74
     0
 75
     0
 76
     0
 77
     3
 78
     8
170
     0
171
     2
172
     1
173
     1
174
     0
175
     0
176
     6
177
     6
178
     6
  0
DIMSTYLE
  2
GMM008
 70
     0
  3

  4

  5

  6
OPEN30
  7
OPEN30
 40
1.0
 41
3.0
 42
1.0
 43
8.0
 44
1.0
 45
0.0
 46
0.0
 47
0.0
 48
0.0
140
4.0
141
1.0
142
0.0
143
0.0394
144
1.0
145
0.0
146
0.625
147
1.7142857142857
 71
     0
 72
     0
 73
     0
 74
     0
 75
     0
 76
     0
 77
     3
 78
     8
170
     0
171
     2
172
     1
173
     1
174
     0
175
     0
176
     6
177
     6
178
     6
  0
DIMSTYLE
  2
GMM009
 70
     0
  3

  4

  5

  6
OPEN30
  7
OPEN30
 40
1.0
 41
2.0
 42
1.0
 43
8.0
 44
0.5
 45
0.0
 46
0.0
 47
0.0
 48
0.0
140
4.0
141
1.0
142
0.0
143
0.0394
144
1.0
145
0.0
146
0.625
147
1.7142857142857
 71
     0
 72
     0
 73
     0
 74
     0
 75
     0
 76
     0
 77
     3
 78
     8
170
     0
171
     2
172
     1
173
     1
174
     0
175
     0
176
     6
177
     6
178
     6
  0
DIMSTYLE
  2
GMM010
 70
     0
  3
パイプ長さ<>
  4

  5

  6
OPEN30
  7
OPEN30
 40
1.0
 41
3.0
 42
1.0
 43
8.0
 44
1.0
 45
0.0
 46
0.0
 47
0.0
 48
0.0
140
4.0
141
1.0
142
0.0
143
0.0394
144
1.0
145
0.0
146
0.625
147
1.7142857142857
 71
     0
 72
     0
 73
     0
 74
     0
 75
     0
 76
     0
 77
     3
 78
     8
170
     0
171
     2
172
     1
173
     1
174
     0
175
     0
176
     6
177
     6
178
     6
  0
ENDTAB
  0
ENDSEC
  0
SECTION
  2
BLOCKS
  0
BLOCK
  8
0
  2
$MODEL_SPACE
 70
     0
 10
0.0
 20
0.0
 30
0.0
  3
$MODEL_SPACE
  1

  0
ENDBLK
  5
1A
  8
0
  0
BLOCK
 67
     1
  8
0
  2
$PAPER_SPACE
 70
     0
 10
0.0
 20
0.0
 30
0.0
  3
$PAPER_SPACE
  1

  0
ENDBLK
  5
17
 67
     1
  8
0
  0
BLOCK
  8
0
  2
BLOCK001
 70
     0
 10
0.0
 20
0.0
 30
0.0
  3
BLOCK001
  1

  0
POLYLINE
  5
D0
  8
0
  6
CONTINUOUS
 62
     8
 66
     1
 10
0.0
 20
0.0
 30
0.0
 70
     1
  0
VERTEX
  5
5C7
  8
0
  6
CONTINUOUS
 62
     8
 10
310.17652636585001
 20
20.257424883001999
 30
0.0
  0
VERTEX
  5
5C8
  8
0
  6
CONTINUOUS
 62
     8
 10
313.47320561113997
 20
25.482424883002
 30
0.0
  0
VERTEX
  5
5C9
  8
0
  6
CONTINUOUS
 62
     8
 10
316.81720561114003
 20
25.482424883002
 30
0.0
  0
VERTEX
  5
5CA
  8
0
  6
CONTINUOUS
 62
     8
 10
313.52052636585
 20
20.257424883001999
 30
0.0
  0
VERTEX
  5
5CB
  8
0
  6
CONTINUOUS
 62
     8
 10
314.16184712056997
 20
17.947424883002
 30
0.0
  0
VERTEX
  5
5CC
  8
0
  6
CONTINUOUS
 62
     8
 10
336.96920561114001
 20
17.947424883002
 30
0.0
  0
VERTEX
  5
5CD
  8
0
  6
CONTINUOUS
 62
     8
 10
336.96920561114001
 20
17.595424883002
 30
0.0
  0
VERTEX
  5
5CE
  8
0
  6
CONTINUOUS
 62
     8
 10
314.25957218796009
 20
17.595424883002
 30
0.0
  0
VERTEX
  5
5CF
  8
0
  6
CONTINUOUS
 62
     8
 10
315.14520561114
 20
14.405424883002
 30
0.0
  0
VERTEX
  5
5D0
  8
0
  6
CONTINUOUS
 62
     8
 10
311.38320561114
 20
14.405424883002
 30
0.0
  0
VERTEX
  5
5D1
  8
0
  6
CONTINUOUS
 62
     8
 10
310.72542933081002
 20
17.595424883002
 30
0.0
  0
VERTEX
  5
5D2
  8
0
  6
CONTINUOUS
 62
     8
 10
309.77471504509998
 20
17.595424883002
 30
0.0
  0
VERTEX
  5
5D3
  8
0
  6
CONTINUOUS
 62
     8
 10
309.29320561114002
 20
14.405424883002
 30
0.0
  0
VERTEX
  5
5D4
  8
0
  6
CONTINUOUS
 62
     8
 10
305.94920561113997
 20
14.405424883002
 30
0.0
  0
VERTEX
  5
5D5
  8
0
  6
CONTINUOUS
 62
     8
 10
306.43071504509999
 20
17.595424883002
 30
0.0
  0
VERTEX
  5
5D6
  8
0
  6
CONTINUOUS
 62
     8
 10
304.84920561114001
 20
17.595424883002
 30
0.0
  0
VERTEX
  5
5D7
  8
0
  6
CONTINUOUS
 62
     8
 10
304.84920561114001
 20
17.947424883002
 30
0.0
  0
VERTEX
  5
5D8
  8
0
  6
CONTINUOUS
 62
     8
 10
306.48384712056998
 20
17.947424883002
 30
0.0
  0
VERTEX
  5
5D9
  8
0
  6
CONTINUOUS
 62
     8
 10
307.62120561114
 20
25.482424883002
 30
0.0
  0
VERTEX
  5
5DA
  8
0
  6
CONTINUOUS
 62
     8
 10
310.96520561113999
 20
25.482424883002
 30
0.0
  0
VERTEX
  5
5DB
  8
0
  6
CONTINUOUS
 62
     8
 10
309.82784712057003
 20
17.947424883002
 30
0.0
  0
VERTEX
  5
5DC
  8
0
  6
CONTINUOUS
 62
     8
 10
310.65284712057002
 20
17.947424883002
 30
0.0
  0
SEQEND
  5
5DD
  8
0
  6
CONTINUOUS
 62
     8
  0
ENDBLK
  5
D1
  8
0
  0
BLOCK
  8
0
  2
*D1
 70
     1
 10
0.0
 20
0.0
 30
0.0
  3
*D1
  1

  0
POLYLINE
  5
D3
  8
0
  6
CONTINUOUS
 62
     6
 66
     1
 10
0.0
 20
0.0
 30
0.0
  0
VERTEX
  5
5DE
  8
0
  6
CONTINUOUS
 62
     6
 10
312.21310823568001
 20
121.76051161439
 30
0.0
  0
VERTEX
  5
5DF
  8
0
  6
CONTINUOUS
 62
     6
 10
304.63543067348002
 20
130.34455234877001
 30
0.0
  0
VERTEX
  5
5E0
  8
0
  6
CONTINUOUS
 62
     6
 10
295.63543067348002
 20
130.34455234877001
 30
0.0
  0
SEQEND
  5
5E1
  8
0
  6
CONTINUOUS
 62
     6
  0
INSERT
  5
D8
  8
0
  6
CONTINUOUS
 62
     6
  2
_OPEN30
 10
312.21310823568001
 20
121.76051161439
 30
0.0
 41
2.0
 42
2.0
 43
2.0
 50
311.43688800744002
  0
INSERT
  5
D9
  8
0
  6
CONTINUOUS
  2
*U56
 10
0.0
 20
0.0
 30
0.0
  0
ENDBLK
  5
DA
  8
0
  0
BLOCK
  8
0
  2
*D2
 70
     1
 10
0.0
 20
0.0
 30
0.0
  3
*D2
  1

  0
POLYLINE
  5
DC
  8
0
  6
CONTINUOUS
 62
     6
 66
     1
 10
0.0
 20
0.0
 30
0.0
  0
VERTEX
  5
5E6
  8
0
  6
CONTINUOUS
 62
     6
 10
63.087210598345003
 20
133.90188600678999
 30
0.0
  0
VERTEX
  5
5E7
  8
0
  6
CONTINUOUS
 62
     6
 10
50.789285988535013
 20
145.85950320959989
 30
0.0
  0
VERTEX
  5
5E8
  8
0
  6
CONTINUOUS
 62
     6
 10
31.289285988534999
 20
145.85950320959989
 30
0.0
  0
SEQEND
  5
5E9
  8
0
  6
CONTINUOUS
 62
     6
  0
INSERT
  5
E1
  8
0
  6
CONTINUOUS
 62
     6
  2
_OPEN30
 10
63.087210598345003
 20
133.90188600678999
 30
0.0
 41
3.0
 42
3.0
 43
3.0
 50
315.80381213897999
  0
INSERT
  5
E2
  8
0
  6
CONTINUOUS
  2
*U57
 10
0.0
 20
0.0
 30
0.0
  0
ENDBLK
  5
E3
  8
0
  0
BLOCK
  8
0
  2
*D3
 70
     1
 10
0.0
 20
0.0
 30
0.0
  3
*D3
  1

  0
LINE
  5
E5
  8
0
  6
CONTINUOUS
 62
     6
 10
107.73315470859001
 20
117.84061957925
 30
0.0
 11
120.82650461653
 21
134.44352719448
 31
0.0
  0
CIRCLE
  5
E6
  8
0
  6
CONTINUOUS
 62
     6
 10
123.92265579027
 20
138.36957455912
 30
0.0
 40
5.0
  0
INSERT
  5
E7
  8
0
  6
CONTINUOUS
 62
     6
  2
_OPEN30
 10
107.73315470859001
 20
117.84061957925
 30
0.0
 41
3.0
 42
3.0
 43
3.0
 50
231.74005609795
  0
INSERT
  5
E8
  8
0
  6
CONTINUOUS
  2
*U58
 10
0.0
 20
0.0
 30
0.0
  0
ENDBLK
  5
E9
  8
0
  0
BLOCK
  8
0
  2
*D4
 70
     1
 10
0.0
 20
0.0
 30
0.0
  3
*D4
  1

  0
LINE
  5
EB
  8
0
  6
CONTINUOUS
 62
     6
 10
70.013286208997002
 20
133.86321858792999
 30
0.0
 11
79.359802297390999
 21
145.21255955241
 31
0.0
  0
CIRCLE
  5
EC
  8
0
  6
CONTINUOUS
 62
     6
 10
82.538338561697003
 20
149.07221073049001
 30
0.0
 40
5.0
  0
INSERT
  5
ED
  8
0
  6
CONTINUOUS
 62
     6
  2
_OPEN30
 10
70.013286208997002
 20
133.86321858792999
 30
0.0
 41
3.0
 42
3.0
 43
3.0
 50
230.52754015165999
  0
INSERT
  5
EE
  8
0
  6
CONTINUOUS
  2
*U59
 10
0.0
 20
0.0
 30
0.0
  0
ENDBLK
  5
EF
  8
0
  0
BLOCK
  8
0
  2
*D5
 70
     1
 10
0.0
 20
0.0
 30
0.0
  3
*D5
  1

  0
LINE
  5
F1
  8
0
  6
CONTINUOUS
 62
     6
 10
374.33105486197991
 20
137.02231148032999
 30
0.0
 11
374.33105486197991
 21
145.4452675089
 31
0.0
  0
LINE
  5
F2
  8
0
  6
CONTINUOUS
 62
     6
 10
379.33105486198002
 20
141.26366011183001
 30
0.0
 11
379.33105486198002
 21
145.4452675089
 31
0.0
  0
LINE
  5
F3
  8
0
  6
CONTINUOUS
 62
     6
 10
371.83105486198002
 20
144.4452675089
 30
0.0
 11
376.83105486198002
 21
144.4452675089
 31
0.0
  0
LINE
  5
F4
  8
0
  6
CONTINUOUS
 62
     6
 10
381.83105486198002
 20
144.4452675089
 30
0.0
 11
376.83105486198002
 21
144.4452675089
 31
0.0
  0
INSERT
  5
F5
  8
0
  6
CONTINUOUS
 62
     6
  2
_OPEN30
 10
374.33105486197991
 20
144.4452675089
 30
0.0
 41
2.0
 42
2.0
 43
2.0
  0
INSERT
  5
F6
  8
0
  6
CONTINUOUS
 62
     6
  2
_OPEN30
 10
379.33105486198002
 20
144.4452675089
 30
0.0
 41
2.0
 42
2.0
 43
2.0
 50
180.0
  0
INSERT
  5
F7
  8
0
  6
CONTINUOUS
  2
*U60
 10
0.0
 20
0.0
 30
0.0
  0
ENDBLK
  5
F8
  8
0
  0
BLOCK
  8
0
  2
*D6
 70
     1
 10
0.0
 20
0.0
 30
0.0
  3
*D6
  1

  0
POLYLINE
  5
FA
  8
0
  6
CONTINUOUS
 62
     6
 66
     1
 10
0.0
 20
0.0
 30
0.0
  0
VERTEX
  5
5FA
  8
0
  6
CONTINUOUS
 62
     6
 10
71.991748622679012
 20
91.344405138799004
 30
0.0
  0
VERTEX
  5
5FB
  8
0
  6
CONTINUOUS
 62
     6
 10
84.385177243541008
 20
79.466706321314007
 30
0.0
  0
VERTEX
  5
5FC
  8
0
  6
CONTINUOUS
 62
     6
 10
93.385177243540994
 20
79.466706321314007
 30
0.0
  0
SEQEND
  5
5FD
  8
0
  6
CONTINUOUS
 62
     6
  0
INSERT
  5
FF
  8
0
  6
CONTINUOUS
 62
     6
  2
_OPEN30
 10
71.991748622679012
 20
91.344405138799004
 30
0.0
 41
3.0
 42
3.0
 43
3.0
 50
136.21727740776001
  0
INSERT
  5
100
  8
0
  6
CONTINUOUS
  2
*U61
 10
0.0
 20
0.0
 30
0.0
  0
ENDBLK
  5
101
  8
0
  0
BLOCK
  8
0
  2
*D7
 70
     1
 10
0.0
 20
0.0
 30
0.0
  3
*D7
  1

  0
LINE
  5
103
  8
0
  6
CONTINUOUS
 62
     6
 10
161.77205952838989
 20
196.54210900256001
 30
0.0
 11
150.63100067303
 21
196.54210900256001
 31
0.0
  0
LINE
  5
104
  8
0
  6
CONTINUOUS
 62
     6
 10
161.77205952838989
 20
180.54210900256001
 30
0.0
 11
150.63100067303
 21
180.54210900256001
 31
0.0
  0
LINE
  5
105
  8
0
  6
CONTINUOUS
 62
     6
 10
151.63100067303
 20
212.7259717112
 30
0.0
 11
151.63100067303
 21
188.54210900256001
 31
0.0
  0
LINE
  5
106
  8
0
  6
CONTINUOUS
 62
     6
 10
151.63100067303
 20
176.79210900256001
 30
0.0
 11
151.63100067303
 21
188.54210900256001
 31
0.0
  0
INSERT
  5
107
  8
0
  6
CONTINUOUS
 62
     6
  2
_OPEN30
 10
151.63100067303
 20
196.54210900256001
 30
0.0
 41
3.0
 42
3.0
 43
3.0
 50
270.0
  0
INSERT
  5
108
  8
0
  6
CONTINUOUS
 62
     6
  2
_OPEN30
 10
151.63100067303
 20
180.54210900256001
 30
0.0
 41
3.0
 42
3.0
 43
3.0
 50
90.0
  0
INSERT
  5
109
  8
0
  6
CONTINUOUS
  2
*U62
 10
0.0
 20
0.0
 30
0.0
  0
ENDBLK
  5
10A
  8
0
  0
BLOCK
  8
0
  2
*D8
 70
     1
 10
0.0
 20
0.0
 30
0.0
  3
*D8
  1

  0
LINE
  5
10C
  8
0
  6
CONTINUOUS
 62
     6
 10
64.772059528392006
 20
260.18226393159
 30
0.0
 11
64.772059528392006
 21
266.89298641632001
 31
0.0
  0
LINE
  5
10D
  8
0
  6
CONTINUOUS
 62
     6
 10
264.77205952839
 20
260.18226393159
 30
0.0
 11
264.77205952839
 21
266.89298641632001
 31
0.0
  0
LINE
  5
10E
  8
0
  6
CONTINUOUS
 62
     6
 10
64.772059528392006
 20
265.89298641632001
 30
0.0
 11
164.77205952839
 21
265.89298641632001
 31
0.0
  0
LINE
  5
10F
  8
0
  6
CONTINUOUS
 62
     6
 10
264.77205952839
 20
265.89298641632001
 30
0.0
 11
164.77205952839
 21
265.89298641632001
 31
0.0
  0
INSERT
  5
110
  8
0
  6
CONTINUOUS
 62
     6
  2
_OPEN30
 10
64.772059528392006
 20
265.89298641632001
 30
0.0
 41
3.0
 42
3.0
 43
3.0
 50
180.0
  0
INSERT
  5
111
  8
0
  6
CONTINUOUS
 62
     6
  2
_OPEN30
 10
264.77205952839
 20
265.89298641632001
 30
0.0
 41
3.0
 42
3.0
 43
3.0
  0
INSERT
  5
112
  8
0
  6
CONTINUOUS
  2
*U63
 10
0.0
 20
0.0
 30
0.0
  0
ENDBLK
  5
113
  8
0
  0
BLOCK
  8
0
  2
*D9
 70
     1
 10
0.0
 20
0.0
 30
0.0
  3
*D9
  1

  0
LINE
  5
115
  8
0
  6
CONTINUOUS
 62
     6
 10
75.772059528392006
 20
249.04210900256001
 30
0.0
 11
94.663686138915025
 21
249.04210900256001
 31
0.0
  0
LINE
  5
116
  8
0
  6
CONTINUOUS
 62
     6
 10
82.490016643182983
 20
196.54210900256001
 30
0.0
 11
94.663686138915025
 21
196.54210900256001
 31
0.0
  0
LINE
  5
117
  8
0
  6
CONTINUOUS
 62
     6
 10
93.663686138914997
 20
249.04210900256001
 30
0.0
 11
93.663686138914997
 21
222.79210900256001
 31
0.0
  0
LINE
  5
118
  8
0
  6
CONTINUOUS
 62
     6
 10
93.663686138914997
 20
196.54210900256001
 30
0.0
 11
93.663686138914997
 21
222.79210900256001
 31
0.0
  0
INSERT
  5
119
  8
0
  6
CONTINUOUS
 62
     6
  2
_OPEN30
 10
93.663686138914997
 20
249.04210900256001
 30
0.0
 41
3.0
 42
3.0
 43
3.0
 50
90.0
  0
INSERT
  5
11A
  8
0
  6
CONTINUOUS
 62
     6
  2
_OPEN30
 10
93.663686138914997
 20
196.54210900256001
 30
0.0
 41
3.0
 42
3.0
 43
3.0
 50
270.0
  0
INSERT
  5
11B
  8
0
  6
CONTINUOUS
  2
*U64
 10
0.0
 20
0.0
 30
0.0
  0
ENDBLK
  5
11C
  8
0
  0
BLOCK
  8
0
  2
*D10
 70
     1
 10
0.0
 20
0.0
 30
0.0
  3
*D10
  1

  0
LINE
  5
11E
  8
0
  6
CONTINUOUS
 62
     6
 10
317.77869522368002
 20
124.26352303423
 30
0.0
 11
298.32466230100999
 21
124.26352303423
 31
0.0
  0
LINE
  5
11F
  8
0
  6
CONTINUOUS
 62
     6
 10
317.77869522368002
 20
104.26379718933001
 30
0.0
 11
298.32466230100999
 21
104.26379718933001
 31
0.0
  0
LINE
  5
120
  8
0
  6
CONTINUOUS
 62
     6
 10
299.32466230100999
 20
124.26352303423
 30
0.0
 11
299.32466230100999
 21
114.26366011178
 31
0.0
  0
LINE
  5
121
  8
0
  6
CONTINUOUS
 62
     6
 10
299.32466230100999
 20
104.26379718933001
 30
0.0
 11
299.32466230100999
 21
114.26366011178
 31
0.0
  0
INSERT
  5
122
  8
0
  6
CONTINUOUS
 62
     6
  2
_OPEN30
 10
299.32466230100999
 20
124.26352303423
 30
0.0
 41
3.0
 42
3.0
 43
3.0
 50
90.0
  0
INSERT
  5
123
  8
0
  6
CONTINUOUS
 62
     6
  2
_OPEN30
 10
299.32466230100999
 20
104.26379718933001
 30
0.0
 41
3.0
 42
3.0
 43
3.0
 50
270.0
  0
INSERT
  5
124
  8
0
  6
CONTINUOUS
  2
*U65
 10
0.0
 20
0.0
 30
0.0
  0
ENDBLK
  5
125
  8
0
  0
BLOCK
  8
0
  2
*D11
 70
     1
 10
0.0
 20
0.0
 30
0.0
  3
*D11
  1

  0
LINE
  5
127
  8
0
  6
CONTINUOUS
 62
     6
 10
371.33105486198002
 20
139.72960531852999
 30
0.0
 11
371.33105486198002
 21
153.63390115915999
 31
0.0
  0
LINE
  5
128
  8
0
  6
CONTINUOUS
 62
     6
 10
379.33105486198002
 20
141.26366011183001
 30
0.0
 11
379.33105486198002
 21
153.63390115915999
 31
0.0
  0
LINE
  5
129
  8
0
  6
CONTINUOUS
 62
     6
 10
371.33105486198002
 20
153.13390115915999
 30
0.0
 11
375.33105486198002
 21
153.13390115915999
 31
0.0
  0
LINE
  5
12A
  8
0
  6
CONTINUOUS
 62
     6
 10
379.33105486198002
 20
153.13390115915999
 30
0.0
 11
375.33105486198002
 21
153.13390115915999
 31
0.0
  0
INSERT
  5
12B
  8
0
  6
CONTINUOUS
 62
     6
  2
_OPEN30
 10
371.33105486198002
 20
153.13390115915999
 30
0.0
 41
2.0
 42
2.0
 43
2.0
 50
180.0
  0
INSERT
  5
12C
  8
0
  6
CONTINUOUS
 62
     6
  2
_OPEN30
 10
379.33105486198002
 20
153.13390115915999
 30
0.0
 41
2.0
 42
2.0
 43
2.0
  0
INSERT
  5
12D
  8
0
  6
CONTINUOUS
  2
*U66
 10
0.0
 20
0.0
 30
0.0
  0
ENDBLK
  5
12E
  8
0
  0
BLOCK
  8
0
  2
*D12
 70
     1
 10
0.0
 20
0.0
 30
0.0
  3
*D12
  1

  0
LINE
  5
130
  8
0
  6
CONTINUOUS
 62
     6
 10
63.772059528391999
 20
140.26366011183001
 30
0.0
 11
31.086937573358998
 21
140.26366011183001
 31
0.0
  0
LINE
  5
131
  8
0
  6
CONTINUOUS
 62
     6
 10
63.772059528391999
 20
88.263660111830006
 30
0.0
 11
31.086937573358998
 21
88.263660111830006
 31
0.0
  0
LINE
  5
132
  8
0
  6
CONTINUOUS
 62
     6
 10
32.086937573359002
 20
140.26366011183001
 30
0.0
 11
32.086937573359002
 21
114.26366011183001
 31
0.0
  0
LINE
  5
133
  8
0
  6
CONTINUOUS
 62
     6
 10
32.086937573359002
 20
88.263660111830006
 30
0.0
 11
32.086937573359002
 21
114.26366011183001
 31
0.0
  0
INSERT
  5
134
  8
0
  6
CONTINUOUS
 62
     6
  2
_OPEN30
 10
32.086937573359002
 20
140.26366011183001
 30
0.0
 41
3.0
 42
3.0
 43
3.0
 50
90.0
  0
INSERT
  5
135
  8
0
  6
CONTINUOUS
 62
     6
  2
_OPEN30
 10
32.086937573359002
 20
88.263660111830006
 30
0.0
 41
3.0
 42
3.0
 43
3.0
 50
270.0
  0
INSERT
  5
136
  8
0
  6
CONTINUOUS
  2
*U67
 10
0.0
 20
0.0
 30
0.0
  0
ENDBLK
  5
137
  8
0
  0
BLOCK
  8
0
  2
*D13
 70
     1
 10
0.0
 20
0.0
 30
0.0
  3
*D13
  1

  0
LINE
  5
139
  8
0
  6
CONTINUOUS
 62
     6
 10
50.891613669887001
 20
132.26366011183001
 30
0.0
 11
40.817783257593
 21
132.26366011183001
 31
0.0
  0
LINE
  5
13A
  8
0
  6
CONTINUOUS
 62
     6
 10
50.891613669887001
 20
96.263660111830021
 30
0.0
 11
40.817783257593
 21
96.263660111830021
 31
0.0
  0
LINE
  5
13B
  8
0
  6
CONTINUOUS
 62
     6
 10
41.817783257592993
 20
132.26366011183001
 30
0.0
 11
41.817783257592993
 21
114.26366011183001
 31
0.0
  0
LINE
  5
13C
  8
0
  6
CONTINUOUS
 62
     6
 10
41.817783257592993
 20
96.263660111830021
 30
0.0
 11
41.817783257592993
 21
114.26366011183001
 31
0.0
  0
INSERT
  5
13D
  8
0
  6
CONTINUOUS
 62
     6
  2
_OPEN30
 10
41.817783257592993
 20
132.26366011183001
 30
0.0
 41
3.0
 42
3.0
 43
3.0
 50
90.0
  0
INSERT
  5
13E
  8
0
  6
CONTINUOUS
 62
     6
  2
_OPEN30
 10
41.817783257592993
 20
96.263660111830021
 30
0.0
 41
3.0
 42
3.0
 43
3.0
 50
270.0
  0
INSERT
  5
13F
  8
0
  6
CONTINUOUS
  2
*U68
 10
0.0
 20
0.0
 30
0.0
  0
ENDBLK
  5
140
  8
0
  0
BLOCK
  8
0
  2
*D14
 70
     1
 10
0.0
 20
0.0
 30
0.0
  3
*D14
  1

  0
LINE
  5
142
  8
0
  6
CONTINUOUS
 62
     6
 10
54.272059528391999
 20
113.26366011183001
 30
0.0
 11
54.272059528391999
 21
69.370754002244993
 31
0.0
  0
LINE
  5
143
  8
0
  6
CONTINUOUS
 62
     6
 10
74.772059528392006
 20
97.263660111830006
 30
0.0
 11
74.772059528392006
 21
69.370754002244993
 31
0.0
  0
LINE
  5
144
  8
0
  6
CONTINUOUS
 62
     6
 10
54.272059528391999
 20
70.370754002244993
 30
0.0
 11
64.522059528392006
 21
70.370754002244993
 31
0.0
  0
LINE
  5
145
  8
0
  6
CONTINUOUS
 62
     6
 10
74.772059528392006
 20
70.370754002244993
 30
0.0
 11
64.522059528392006
 21
70.370754002244993
 31
0.0
  0
INSERT
  5
146
  8
0
  6
CONTINUOUS
 62
     6
  2
_OPEN30
 10
54.272059528391999
 20
70.370754002244993
 30
0.0
 41
3.0
 42
3.0
 43
3.0
 50
180.0
  0
INSERT
  5
147
  8
0
  6
CONTINUOUS
 62
     6
  2
_OPEN30
 10
74.772059528392006
 20
70.370754002244993
 30
0.0
 41
3.0
 42
3.0
 43
3.0
  0
INSERT
  5
148
  8
0
  6
CONTINUOUS
  2
*U69
 10
0.0
 20
0.0
 30
0.0
  0
ENDBLK
  5
149
  8
0
  0
BLOCK
  8
0
  2
*D15
 70
     1
 10
0.0
 20
0.0
 30
0.0
  3
*D15
  1

  0
LINE
  5
14B
  8
0
  6
CONTINUOUS
 62
     6
 10
53.272059528391999
 20
249.04210900256001
 30
0.0
 11
31.086937573358998
 21
249.04210900256001
 31
0.0
  0
LINE
  5
14C
  8
0
  6
CONTINUOUS
 62
     6
 10
53.641200038614997
 20
178.54210900229
 30
0.0
 11
31.086937573358998
 21
178.54210900229
 31
0.0
  0
LINE
  5
14D
  8
0
  6
CONTINUOUS
 62
     6
 10
32.086937573359002
 20
249.04210900256001
 30
0.0
 11
32.086937573359002
 21
213.79210900243001
 31
0.0
  0
LINE
  5
14E
  8
0
  6
CONTINUOUS
 62
     6
 10
32.086937573359002
 20
178.54210900229
 30
0.0
 11
32.086937573359002
 21
213.79210900243001
 31
0.0
  0
INSERT
  5
14F
  8
0
  6
CONTINUOUS
 62
     6
  2
_OPEN30
 10
32.086937573359002
 20
249.04210900256001
 30
0.0
 41
3.0
 42
3.0
 43
3.0
 50
90.0
  0
INSERT
  5
150
  8
0
  6
CONTINUOUS
 62
     6
  2
_OPEN30
 10
32.086937573359002
 20
178.54210900229
 30
0.0
 41
3.0
 42
3.0
 43
3.0
 50
270.0
  0
INSERT
  5
151
  8
0
  6
CONTINUOUS
  2
*U70
 10
0.0
 20
0.0
 30
0.0
  0
ENDBLK
  5
152
  8
0
  0
BLOCK
  8
0
  2
*D16
 70
     1
 10
0.0
 20
0.0
 30
0.0
  3
*D16
  1

  0
LINE
  5
154
  8
0
  6
CONTINUOUS
 62
     6
 10
52.791571723492012
 20
249.04210900256001
 30
0.0
 11
40.817783257593
 21
249.04210900256001
 31
0.0
  0
LINE
  5
155
  8
0
  6
CONTINUOUS
 62
     6
 10
43.380041233974993
 20
188.54210900256001
 30
0.0
 11
40.817783257593
 21
188.54210900256001
 31
0.0
  0
LINE
  5
156
  8
0
  6
CONTINUOUS
 62
     6
 10
41.817783257592993
 20
249.04210900256001
 30
0.0
 11
41.817783257592993
 21
218.79210900256001
 31
0.0
  0
LINE
  5
157
  8
0
  6
CONTINUOUS
 62
     6
 10
41.817783257592993
 20
188.54210900256001
 30
0.0
 11
41.817783257592993
 21
218.79210900256001
 31
0.0
  0
INSERT
  5
158
  8
0
  6
CONTINUOUS
 62
     6
  2
_OPEN30
 10
41.817783257592993
 20
249.04210900256001
 30
0.0
 41
3.0
 42
3.0
 43
3.0
 50
90.0
  0
INSERT
  5
159
  8
0
  6
CONTINUOUS
 62
     6
  2
_OPEN30
 10
41.817783257592993
 20
188.54210900256001
 30
0.0
 41
3.0
 42
3.0
 43
3.0
 50
270.0
  0
INSERT
  5
15A
  8
0
  6
CONTINUOUS
  2
*U71
 10
0.0
 20
0.0
 30
0.0
  0
ENDBLK
  5
15B
  8
0
  0
BLOCK
  8
0
  2
*D17
 70
     1
 10
0.0
 20
0.0
 30
0.0
  3
*D17
  1

  0
LINE
  5
15D
  8
0
  6
CONTINUOUS
 62
     6
 10
64.772059528392006
 20
174.01487517065999
 30
0.0
 11
64.772059528392006
 21
164.5258694036099
 31
0.0
  0
LINE
  5
15E
  8
0
  6
CONTINUOUS
 62
     6
 10
264.77205952839
 20
174.01487517065999
 30
0.0
 11
264.77205952839
 21
164.5258694036099
 31
0.0
  0
LINE
  5
15F
  8
0
  6
CONTINUOUS
 62
     6
 10
64.772059528392006
 20
165.52586940360999
 30
0.0
 11
164.77205952839
 21
165.52586940360999
 31
0.0
  0
LINE
  5
160
  8
0
  6
CONTINUOUS
 62
     6
 10
264.77205952839
 20
165.52586940360999
 30
0.0
 11
164.77205952839
 21
165.52586940360999
 31
0.0
  0
INSERT
  5
161
  8
0
  6
CONTINUOUS
 62
     6
  2
_OPEN30
 10
64.772059528392006
 20
165.52586940360999
 30
0.0
 41
3.0
 42
3.0
 43
3.0
 50
180.0
  0
INSERT
  5
162
  8
0
  6
CONTINUOUS
 62
     6
  2
_OPEN30
 10
264.77205952839
 20
165.52586940360999
 30
0.0
 41
3.0
 42
3.0
 43
3.0
  0
INSERT
  5
163
  8
0
  6
CONTINUOUS
  2
*U72
 10
0.0
 20
0.0
 30
0.0
  0
ENDBLK
  5
164
  8
0
  0
BLOCK
  8
0
  2
BLOCK002
 70
     0
 10
0.0
 20
0.0
 30
0.0
  3
BLOCK002
  1

  0
POLYLINE
  5
166
  8
0
  6
CONTINUOUS
 62
     8
 66
     1
 10
0.0
 20
0.0
 30
0.0
 70
     1
  0
VERTEX
  5
62E
  8
0
  6
CONTINUOUS
 62
     8
 10
310.17652636585001
 20
327.13394221890002
 30
0.0
  0
VERTEX
  5
62F
  8
0
  6
CONTINUOUS
 62
     8
 10
313.47320561113997
 20
332.35894221889998
 30
0.0
  0
VERTEX
  5
630
  8
0
  6
CONTINUOUS
 62
     8
 10
316.81720561114003
 20
332.35894221889998
 30
0.0
  0
VERTEX
  5
631
  8
0
  6
CONTINUOUS
 62
     8
 10
313.52052636585
 20
327.13394221890002
 30
0.0
  0
VERTEX
  5
632
  8
0
  6
CONTINUOUS
 62
     8
 10
314.16184712056997
 20
324.82394221890002
 30
0.0
  0
VERTEX
  5
633
  8
0
  6
CONTINUOUS
 62
     8
 10
336.96920561114001
 20
324.82394221890002
 30
0.0
  0
VERTEX
  5
634
  8
0
  6
CONTINUOUS
 62
     8
 10
336.96920561114001
 20
324.47194221889998
 30
0.0
  0
VERTEX
  5
635
  8
0
  6
CONTINUOUS
 62
     8
 10
314.25957218796009
 20
324.47194221889998
 30
0.0
  0
VERTEX
  5
636
  8
0
  6
CONTINUOUS
 62
     8
 10
315.14520561114
 20
321.28194221889999
 30
0.0
  0
VERTEX
  5
637
  8
0
  6
CONTINUOUS
 62
     8
 10
311.38320561114
 20
321.28194221889999
 30
0.0
  0
VERTEX
  5
638
  8
0
  6
CONTINUOUS
 62
     8
 10
310.72542933081002
 20
324.47194221889998
 30
0.0
  0
VERTEX
  5
639
  8
0
  6
CONTINUOUS
 62
     8
 10
309.77471504509998
 20
324.47194221889998
 30
0.0
  0
VERTEX
  5
63A
  8
0
  6
CONTINUOUS
 62
     8
 10
309.29320561114002
 20
321.28194221889999
 30
0.0
  0
VERTEX
  5
63B
  8
0
  6
CONTINUOUS
 62
     8
 10
305.94920561113997
 20
321.28194221889999
 30
0.0
  0
VERTEX
  5
63C
  8
0
  6
CONTINUOUS
 62
     8
 10
306.43071504509999
 20
324.47194221889998
 30
0.0
  0
VERTEX
  5
63D
  8
0
  6
CONTINUOUS
 62
     8
 10
304.84920561114001
 20
324.47194221889998
 30
0.0
  0
VERTEX
  5
63E
  8
0
  6
CONTINUOUS
 62
     8
 10
304.84920561114001
 20
324.82394221890002
 30
0.0
  0
VERTEX
  5
63F
  8
0
  6
CONTINUOUS
 62
     8
 10
306.48384712056998
 20
324.82394221890002
 30
0.0
  0
VERTEX
  5
640
  8
0
  6
CONTINUOUS
 62
     8
 10
307.62120561114
 20
332.35894221889998
 30
0.0
  0
VERTEX
  5
641
  8
0
  6
CONTINUOUS
 62
     8
 10
310.96520561113999
 20
332.35894221889998
 30
0.0
  0
VERTEX
  5
642
  8
0
  6
CONTINUOUS
 62
     8
 10
309.82784712057003
 20
324.82394221890002
 30
0.0
  0
VERTEX
  5
643
  8
0
  6
CONTINUOUS
 62
     8
 10
310.65284712057002
 20
324.82394221890002
 30
0.0
  0
SEQEND
  5
644
  8
0
  6
CONTINUOUS
 62
     8
  0
ENDBLK
  5
167
  8
0
  0
BLOCK
  8
0
  2
*D19
 70
     1
 10
0.0
 20
0.0
 30
0.0
  3
*D19
  1

  0
POLYLINE
  5
169
  8
0
  6
CONTINUOUS
 62
     6
 66
     1
 10
0.0
 20
0.0
 30
0.0
  0
VERTEX
  5
645
  8
0
  6
CONTINUOUS
 62
     6
 10
312.21310823568001
 20
428.63702895029002
 30
0.0
  0
VERTEX
  5
646
  8
0
  6
CONTINUOUS
 62
     6
 10
304.63543067348002
 20
437.22106968467
 30
0.0
  0
VERTEX
  5
647
  8
0
  6
CONTINUOUS
 62
     6
 10
295.63543067348002
 20
437.22106968467
 30
0.0
  0
SEQEND
  5
648
  8
0
  6
CONTINUOUS
 62
     6
  0
INSERT
  5
16E
  8
0
  6
CONTINUOUS
 62
     6
  2
_OPEN30
 10
312.21310823568001
 20
428.63702895029002
 30
0.0
 41
2.0
 42
2.0
 43
2.0
 50
311.43688800744002
  0
INSERT
  5
16F
  8
0
  6
CONTINUOUS
  2
*U73
 10
0.0
 20
0.0
 30
0.0
  0
ENDBLK
  5
170
  8
0
  0
BLOCK
  8
0
  2
*D20
 70
     1
 10
0.0
 20
0.0
 30
0.0
  3
*D20
  1

  0
POLYLINE
  5
172
  8
0
  6
CONTINUOUS
 62
     6
 66
     1
 10
0.0
 20
0.0
 30
0.0
  0
VERTEX
  5
64D
  8
0
  6
CONTINUOUS
 62
     6
 10
63.087210598345003
 20
440.77840334269001
 30
0.0
  0
VERTEX
  5
64E
  8
0
  6
CONTINUOUS
 62
     6
 10
50.789285988535013
 20
452.73602054550003
 30
0.0
  0
VERTEX
  5
64F
  8
0
  6
CONTINUOUS
 62
     6
 10
31.289285988534999
 20
452.73602054550003
 30
0.0
  0
SEQEND
  5
650
  8
0
  6
CONTINUOUS
 62
     6
  0
INSERT
  5
177
  8
0
  6
CONTINUOUS
 62
     6
  2
_OPEN30
 10
63.087210598345003
 20
440.77840334269001
 30
0.0
 41
3.0
 42
3.0
 43
3.0
 50
315.80381213897999
  0
INSERT
  5
178
  8
0
  6
CONTINUOUS
  2
*U74
 10
0.0
 20
0.0
 30
0.0
  0
ENDBLK
  5
179
  8
0
  0
BLOCK
  8
0
  2
*D21
 70
     1
 10
0.0
 20
0.0
 30
0.0
  3
*D21
  1

  0
LINE
  5
17B
  8
0
  6
CONTINUOUS
 62
     6
 10
64.772059528392006
 20
391.86617235146002
 30
0.0
 11
64.772059528392006
 21
382.35505375320002
 31
0.0
  0
LINE
  5
17C
  8
0
  6
CONTINUOUS
 62
     6
 10
74.772059528392006
 20
404.14017744772991
 30
0.0
 11
74.772059528392006
 21
382.35505375320002
 31
0.0
  0
LINE
  5
17D
  8
0
  6
CONTINUOUS
 62
     6
 10
64.772059528392006
 20
383.35505375320002
 30
0.0
 11
69.772059528392006
 21
383.35505375320002
 31
0.0
  0
LINE
  5
17E
  8
0
  6
CONTINUOUS
 62
     6
 10
74.772059528392006
 20
383.35505375320002
 30
0.0
 11
69.772059528392006
 21
383.35505375320002
 31
0.0
  0
INSERT
  5
17F
  8
0
  6
CONTINUOUS
 62
     6
  2
_OPEN30
 10
64.772059528392006
 20
383.35505375320002
 30
0.0
 41
3.0
 42
3.0
 43
3.0
 50
180.0
  0
INSERT
  5
180
  8
0
  6
CONTINUOUS
 62
     6
  2
_OPEN30
 10
74.772059528392006
 20
383.35505375320002
 30
0.0
 41
3.0
 42
3.0
 43
3.0
  0
INSERT
  5
181
  8
0
  6
CONTINUOUS
  2
*U75
 10
0.0
 20
0.0
 30
0.0
  0
ENDBLK
  5
182
  8
0
  0
BLOCK
  8
0
  2
*D22
 70
     1
 10
0.0
 20
0.0
 30
0.0
  3
*D22
  1

  0
LINE
  5
184
  8
0
  6
CONTINUOUS
 62
     6
 10
64.772059528392006
 20
391.86617235146002
 30
0.0
 11
64.772059528392006
 21
382.35505375320002
 31
0.0
  0
LINE
  5
185
  8
0
  6
CONTINUOUS
 62
     6
 10
54.772059528391999
 20
404.14017744772991
 30
0.0
 11
54.772059528391999
 21
382.35505375320002
 31
0.0
  0
LINE
  5
186
  8
0
  6
CONTINUOUS
 62
     6
 10
64.772059528392006
 20
383.35505375320002
 30
0.0
 11
59.772059528391999
 21
383.35505375320002
 31
0.0
  0
LINE
  5
187
  8
0
  6
CONTINUOUS
 62
     6
 10
54.772059528391999
 20
383.35505375320002
 30
0.0
 11
59.772059528391999
 21
383.35505375320002
 31
0.0
  0
INSERT
  5
188
  8
0
  6
CONTINUOUS
 62
     6
  2
_OPEN30
 10
64.772059528392006
 20
383.35505375320002
 30
0.0
 41
3.0
 42
3.0
 43
3.0
  0
INSERT
  5
189
  8
0
  6
CONTINUOUS
 62
     6
  2
_OPEN30
 10
54.772059528391999
 20
383.35505375320002
 30
0.0
 41
3.0
 42
3.0
 43
3.0
 50
180.0
  0
INSERT
  5
18A
  8
0
  6
CONTINUOUS
  2
*U76
 10
0.0
 20
0.0
 30
0.0
  0
ENDBLK
  5
18B
  8
0
  0
BLOCK
  8
0
  2
*D23
 70
     1
 10
0.0
 20
0.0
 30
0.0
  3
*D23
  1

  0
LINE
  5
18D
  8
0
  6
CONTINUOUS
 62
     6
 10
74.772059528392006
 20
404.14017744772991
 30
0.0
 11
74.772059528392006
 21
372.00942106484001
 31
0.0
  0
LINE
  5
18E
  8
0
  6
CONTINUOUS
 62
     6
 10
54.772059528391999
 20
404.14017744772991
 30
0.0
 11
54.772059528391999
 21
372.00942106484001
 31
0.0
  0
LINE
  5
18F
  8
0
  6
CONTINUOUS
 62
     6
 10
74.772059528392006
 20
373.00942106484001
 30
0.0
 11
64.772059528392006
 21
373.00942106484001
 31
0.0
  0
LINE
  5
190
  8
0
  6
CONTINUOUS
 62
     6
 10
54.772059528391999
 20
373.00942106484001
 30
0.0
 11
64.772059528392006
 21
373.00942106484001
 31
0.0
  0
INSERT
  5
191
  8
0
  6
CONTINUOUS
 62
     6
  2
_OPEN30
 10
74.772059528392006
 20
373.00942106484001
 30
0.0
 41
3.0
 42
3.0
 43
3.0
  0
INSERT
  5
192
  8
0
  6
CONTINUOUS
 62
     6
  2
_OPEN30
 10
54.772059528391999
 20
373.00942106484001
 30
0.0
 41
3.0
 42
3.0
 43
3.0
 50
180.0
  0
INSERT
  5
193
  8
0
  6
CONTINUOUS
  2
*U77
 10
0.0
 20
0.0
 30
0.0
  0
ENDBLK
  5
194
  8
0
  0
BLOCK
  8
0
  2
*D24
 70
     1
 10
0.0
 20
0.0
 30
0.0
  3
*D24
  1

  0
LINE
  5
196
  8
0
  6
CONTINUOUS
 62
     6
 10
317.77869522368002
 20
431.1400403701299
 30
0.0
 11
298.32466230100999
 21
431.1400403701299
 31
0.0
  0
LINE
  5
197
  8
0
  6
CONTINUOUS
 62
     6
 10
317.77869522368002
 20
411.14031452522988
 30
0.0
 11
298.32466230100999
 21
411.14031452522988
 31
0.0
  0
LINE
  5
198
  8
0
  6
CONTINUOUS
 62
     6
 10
299.32466230100999
 20
431.1400403701299
 30
0.0
 11
299.32466230100999
 21
421.14017744768
 31
0.0
  0
LINE
  5
199
  8
0
  6
CONTINUOUS
 62
     6
 10
299.32466230100999
 20
411.14031452522988
 30
0.0
 11
299.32466230100999
 21
421.14017744768
 31
0.0
  0
INSERT
  5
19A
  8
0
  6
CONTINUOUS
 62
     6
  2
_OPEN30
 10
299.32466230100999
 20
431.1400403701299
 30
0.0
 41
3.0
 42
3.0
 43
3.0
 50
90.0
  0
INSERT
  5
19B
  8
0
  6
CONTINUOUS
 62
     6
  2
_OPEN30
 10
299.32466230100999
 20
411.14031452522988
 30
0.0
 41
3.0
 42
3.0
 43
3.0
 50
270.0
  0
INSERT
  5
19C
  8
0
  6
CONTINUOUS
  2
*U78
 10
0.0
 20
0.0
 30
0.0
  0
ENDBLK
  5
19D
  8
0
  0
BLOCK
  8
0
  2
*D25
 70
     1
 10
0.0
 20
0.0
 30
0.0
  3
*D25
  1

  0
LINE
  5
19F
  8
0
  6
CONTINUOUS
 62
     6
 10
107.73315470859001
 20
424.71713691514998
 30
0.0
 11
120.82650461653
 21
441.3200445303799
 31
0.0
  0
CIRCLE
  5
1A0
  8
0
  6
CONTINUOUS
 62
     6
 10
123.92265579027
 20
445.24609189502002
 30
0.0
 40
5.0
  0
INSERT
  5
1A1
  8
0
  6
CONTINUOUS
 62
     6
  2
_OPEN30
 10
107.73315470859001
 20
424.71713691514998
 30
0.0
 41
3.0
 42
3.0
 43
3.0
 50
231.74005609795
  0
INSERT
  5
1A2
  8
0
  6
CONTINUOUS
  2
*U79
 10
0.0
 20
0.0
 30
0.0
  0
ENDBLK
  5
1A3
  8
0
  0
BLOCK
  8
0
  2
*D26
 70
     1
 10
0.0
 20
0.0
 30
0.0
  3
*D26
  1

  0
LINE
  5
1A5
  8
0
  6
CONTINUOUS
 62
     6
 10
70.013286208997002
 20
440.73973592382998
 30
0.0
 11
79.359802297390999
 21
452.08907688830988
 31
0.0
  0
CIRCLE
  5
1A6
  8
0
  6
CONTINUOUS
 62
     6
 10
82.538338561697003
 20
455.94872806639
 30
0.0
 40
5.0
  0
INSERT
  5
1A7
  8
0
  6
CONTINUOUS
 62
     6
  2
_OPEN30
 10
70.013286208997002
 20
440.73973592382998
 30
0.0
 41
3.0
 42
3.0
 43
3.0
 50
230.52754015165999
  0
INSERT
  5
1A8
  8
0
  6
CONTINUOUS
  2
*U80
 10
0.0
 20
0.0
 30
0.0
  0
ENDBLK
  5
1A9
  8
0
  0
BLOCK
  8
0
  2
*D27
 70
     1
 10
0.0
 20
0.0
 30
0.0
  3
*D27
  1

  0
LINE
  5
1AB
  8
0
  6
CONTINUOUS
 62
     6
 10
380.33105486198002
 20
447.14017744772991
 30
0.0
 11
397.02056616373
 21
447.14017744772991
 31
0.0
  0
LINE
  5
1AC
  8
0
  6
CONTINUOUS
 62
     6
 10
380.33105486198002
 20
395.14017744773003
 30
0.0
 11
397.02056616373
 21
395.14017744773003
 31
0.0
  0
LINE
  5
1AD
  8
0
  6
CONTINUOUS
 62
     6
 10
396.02056616373
 20
447.14017744772991
 30
0.0
 11
396.02056616373
 21
421.14017744772991
 31
0.0
  0
LINE
  5
1AE
  8
0
  6
CONTINUOUS
 62
     6
 10
396.02056616373
 20
395.14017744773003
 30
0.0
 11
396.02056616373
 21
421.14017744772991
 31
0.0
  0
INSERT
  5
1AF
  8
0
  6
CONTINUOUS
 62
     6
  2
_OPEN30
 10
396.02056616373
 20
447.14017744772991
 30
0.0
 41
3.0
 42
3.0
 43
3.0
 50
90.0
  0
INSERT
  5
1B0
  8
0
  6
CONTINUOUS
 62
     6
  2
_OPEN30
 10
396.02056616373
 20
395.14017744773003
 30
0.0
 41
3.0
 42
3.0
 43
3.0
 50
270.0
  0
INSERT
  5
1B1
  8
0
  6
CONTINUOUS
  2
*U81
 10
0.0
 20
0.0
 30
0.0
  0
ENDBLK
  5
1B2
  8
0
  0
BLOCK
  8
0
  2
*D28
 70
     1
 10
0.0
 20
0.0
 30
0.0
  3
*D28
  1

  0
LINE
  5
1B4
  8
0
  6
CONTINUOUS
 62
     6
 10
50.891613669887001
 20
439.14017744773003
 30
0.0
 11
40.817783257593
 21
439.14017744773003
 31
0.0
  0
LINE
  5
1B5
  8
0
  6
CONTINUOUS
 62
     6
 10
50.891613669887001
 20
403.14017744772991
 30
0.0
 11
40.817783257593
 21
403.14017744772991
 31
0.0
  0
LINE
  5
1B6
  8
0
  6
CONTINUOUS
 62
     6
 10
41.817783257592993
 20
439.14017744773003
 30
0.0
 11
41.817783257592993
 21
421.14017744772991
 31
0.0
  0
LINE
  5
1B7
  8
0
  6
CONTINUOUS
 62
     6
 10
41.817783257592993
 20
403.14017744772991
 30
0.0
 11
41.817783257592993
 21
421.14017744772991
 31
0.0
  0
INSERT
  5
1B8
  8
0
  6
CONTINUOUS
 62
     6
  2
_OPEN30
 10
41.817783257592993
 20
439.14017744773003
 30
0.0
 41
3.0
 42
3.0
 43
3.0
 50
90.0
  0
INSERT
  5
1B9
  8
0
  6
CONTINUOUS
 62
     6
  2
_OPEN30
 10
41.817783257592993
 20
403.14017744772991
 30
0.0
 41
3.0
 42
3.0
 43
3.0
 50
270.0
  0
INSERT
  5
1BA
  8
0
  6
CONTINUOUS
  2
*U82
 10
0.0
 20
0.0
 30
0.0
  0
ENDBLK
  5
1BB
  8
0
  0
BLOCK
  8
0
  2
*D29
 70
     1
 10
0.0
 20
0.0
 30
0.0
  3
*D29
  1

  0
LINE
  5
1BD
  8
0
  6
CONTINUOUS
 62
     6
 10
63.772059528391999
 20
447.14017744772991
 30
0.0
 11
31.086937573358998
 21
447.14017744772991
 31
0.0
  0
LINE
  5
1BE
  8
0
  6
CONTINUOUS
 62
     6
 10
63.772059528391999
 20
395.14017744773003
 30
0.0
 11
31.086937573358998
 21
395.14017744773003
 31
0.0
  0
LINE
  5
1BF
  8
0
  6
CONTINUOUS
 62
     6
 10
32.086937573359002
 20
447.14017744772991
 30
0.0
 11
32.086937573359002
 21
421.14017744772991
 31
0.0
  0
LINE
  5
1C0
  8
0
  6
CONTINUOUS
 62
     6
 10
32.086937573359002
 20
395.14017744773003
 30
0.0
 11
32.086937573359002
 21
421.14017744772991
 31
0.0
  0
INSERT
  5
1C1
  8
0
  6
CONTINUOUS
 62
     6
  2
_OPEN30
 10
32.086937573359002
 20
447.14017744772991
 30
0.0
 41
3.0
 42
3.0
 43
3.0
 50
90.0
  0
INSERT
  5
1C2
  8
0
  6
CONTINUOUS
 62
     6
  2
_OPEN30
 10
32.086937573359002
 20
395.14017744773003
 30
0.0
 41
3.0
 42
3.0
 43
3.0
 50
270.0
  0
INSERT
  5
1C3
  8
0
  6
CONTINUOUS
  2
*U83
 10
0.0
 20
0.0
 30
0.0
  0
ENDBLK
  5
1C4
  8
0
  0
BLOCK
  8
0
  2
*D30
 70
     1
 10
0.0
 20
0.0
 30
0.0
  3
*D30
  1

  0
LINE
  5
1C6
  8
0
  6
CONTINUOUS
 62
     6
 10
52.791571723492012
 20
555.91862633845994
 30
0.0
 11
40.817783257593
 21
555.91862633845994
 31
0.0
  0
LINE
  5
1C7
  8
0
  6
CONTINUOUS
 62
     6
 10
43.380041233974993
 20
495.41862633845989
 30
0.0
 11
40.817783257593
 21
495.41862633845989
 31
0.0
  0
LINE
  5
1C8
  8
0
  6
CONTINUOUS
 62
     6
 10
41.817783257592993
 20
555.91862633845994
 30
0.0
 11
41.817783257592993
 21
525.66862633845994
 31
0.0
  0
LINE
  5
1C9
  8
0
  6
CONTINUOUS
 62
     6
 10
41.817783257592993
 20
495.41862633845989
 30
0.0
 11
41.817783257592993
 21
525.66862633845994
 31
0.0
  0
INSERT
  5
1CA
  8
0
  6
CONTINUOUS
 62
     6
  2
_OPEN30
 10
41.817783257592993
 20
555.91862633845994
 30
0.0
 41
3.0
 42
3.0
 43
3.0
 50
90.0
  0
INSERT
  5
1CB
  8
0
  6
CONTINUOUS
 62
     6
  2
_OPEN30
 10
41.817783257592993
 20
495.41862633845989
 30
0.0
 41
3.0
 42
3.0
 43
3.0
 50
270.0
  0
INSERT
  5
1CC
  8
0
  6
CONTINUOUS
  2
*U84
 10
0.0
 20
0.0
 30
0.0
  0
ENDBLK
  5
1CD
  8
0
  0
BLOCK
  8
0
  2
*D31
 70
     1
 10
0.0
 20
0.0
 30
0.0
  3
*D31
  1

  0
LINE
  5
1CF
  8
0
  6
CONTINUOUS
 62
     6
 10
53.272059528391999
 20
555.91862633845994
 30
0.0
 11
31.086937573358998
 21
555.91862633845994
 31
0.0
  0
LINE
  5
1D0
  8
0
  6
CONTINUOUS
 62
     6
 10
53.641200038614997
 20
485.41862633818988
 30
0.0
 11
31.086937573358998
 21
485.41862633818988
 31
0.0
  0
LINE
  5
1D1
  8
0
  6
CONTINUOUS
 62
     6
 10
32.086937573359002
 20
555.91862633845994
 30
0.0
 11
32.086937573359002
 21
520.66862633833
 31
0.0
  0
LINE
  5
1D2
  8
0
  6
CONTINUOUS
 62
     6
 10
32.086937573359002
 20
485.41862633818988
 30
0.0
 11
32.086937573359002
 21
520.66862633833
 31
0.0
  0
INSERT
  5
1D3
  8
0
  6
CONTINUOUS
 62
     6
  2
_OPEN30
 10
32.086937573359002
 20
555.91862633845994
 30
0.0
 41
3.0
 42
3.0
 43
3.0
 50
90.0
  0
INSERT
  5
1D4
  8
0
  6
CONTINUOUS
 62
     6
  2
_OPEN30
 10
32.086937573359002
 20
485.41862633818988
 30
0.0
 41
3.0
 42
3.0
 43
3.0
 50
270.0
  0
INSERT
  5
1D5
  8
0
  6
CONTINUOUS
  2
*U85
 10
0.0
 20
0.0
 30
0.0
  0
ENDBLK
  5
1D6
  8
0
  0
BLOCK
  8
0
  2
*D32
 70
     1
 10
0.0
 20
0.0
 30
0.0
  3
*D32
  1

  0
LINE
  5
1D8
  8
0
  6
CONTINUOUS
 62
     6
 10
371.33105486198002
 20
446.60612265443001
 30
0.0
 11
371.33105486198002
 21
460.51041849505992
 31
0.0
  0
LINE
  5
1D9
  8
0
  6
CONTINUOUS
 62
     6
 10
379.33105486198002
 20
448.14017744773003
 30
0.0
 11
379.33105486198002
 21
460.51041849505992
 31
0.0
  0
LINE
  5
1DA
  8
0
  6
CONTINUOUS
 62
     6
 10
371.33105486198002
 20
460.01041849505992
 30
0.0
 11
375.33105486198002
 21
460.01041849505992
 31
0.0
  0
LINE
  5
1DB
  8
0
  6
CONTINUOUS
 62
     6
 10
379.33105486198002
 20
460.01041849505992
 30
0.0
 11
375.33105486198002
 21
460.01041849505992
 31
0.0
  0
INSERT
  5
1DC
  8
0
  6
CONTINUOUS
 62
     6
  2
_OPEN30
 10
371.33105486198002
 20
460.01041849505992
 30
0.0
 41
2.0
 42
2.0
 43
2.0
 50
180.0
  0
INSERT
  5
1DD
  8
0
  6
CONTINUOUS
 62
     6
  2
_OPEN30
 10
379.33105486198002
 20
460.01041849505992
 30
0.0
 41
2.0
 42
2.0
 43
2.0
  0
INSERT
  5
1DE
  8
0
  6
CONTINUOUS
  2
*U86
 10
0.0
 20
0.0
 30
0.0
  0
ENDBLK
  5
1DF
  8
0
  0
BLOCK
  8
0
  2
*D33
 70
     1
 10
0.0
 20
0.0
 30
0.0
  3
*D33
  1

  0
LINE
  5
1E1
  8
0
  6
CONTINUOUS
 62
     6
 10
374.33105486197991
 20
443.89882881622998
 30
0.0
 11
374.33105486197991
 21
452.32178484479999
 31
0.0
  0
LINE
  5
1E2
  8
0
  6
CONTINUOUS
 62
     6
 10
379.33105486198002
 20
448.14017744773003
 30
0.0
 11
379.33105486198002
 21
452.32178484479999
 31
0.0
  0
LINE
  5
1E3
  8
0
  6
CONTINUOUS
 62
     6
 10
371.83105486198002
 20
451.32178484479999
 30
0.0
 11
376.83105486198002
 21
451.32178484479999
 31
0.0
  0
LINE
  5
1E4
  8
0
  6
CONTINUOUS
 62
     6
 10
381.83105486198002
 20
451.32178484479999
 30
0.0
 11
376.83105486198002
 21
451.32178484479999
 31
0.0
  0
INSERT
  5
1E5
  8
0
  6
CONTINUOUS
 62
     6
  2
_OPEN30
 10
374.33105486197991
 20
451.32178484479999
 30
0.0
 41
2.0
 42
2.0
 43
2.0
  0
INSERT
  5
1E6
  8
0
  6
CONTINUOUS
 62
     6
  2
_OPEN30
 10
379.33105486198002
 20
451.32178484479999
 30
0.0
 41
2.0
 42
2.0
 43
2.0
 50
180.0
  0
INSERT
  5
1E7
  8
0
  6
CONTINUOUS
  2
*U87
 10
0.0
 20
0.0
 30
0.0
  0
ENDBLK
  5
1E8
  8
0
  0
BLOCK
  8
0
  2
*D34
 70
     1
 10
0.0
 20
0.0
 30
0.0
  3
*D34
  1

  0
POLYLINE
  5
1EA
  8
0
  6
CONTINUOUS
 62
     6
 66
     1
 10
0.0
 20
0.0
 30
0.0
  0
VERTEX
  5
689
  8
0
  6
CONTINUOUS
 62
     6
 10
71.991748622679012
 20
398.22092247469999
 30
0.0
  0
VERTEX
  5
68A
  8
0
  6
CONTINUOUS
 62
     6
 10
84.385177243541008
 20
386.34322365720999
 30
0.0
  0
VERTEX
  5
68B
  8
0
  6
CONTINUOUS
 62
     6
 10
93.385177243540994
 20
386.34322365720999
 30
0.0
  0
SEQEND
  5
68C
  8
0
  6
CONTINUOUS
 62
     6
  0
INSERT
  5
1EF
  8
0
  6
CONTINUOUS
 62
     6
  2
_OPEN30
 10
71.991748622679012
 20
398.22092247469999
 30
0.0
 41
3.0
 42
3.0
 43
3.0
 50
136.21727740776001
  0
INSERT
  5
1F0
  8
0
  6
CONTINUOUS
  2
*U88
 10
0.0
 20
0.0
 30
0.0
  0
ENDBLK
  5
1F1
  8
0
  0
BLOCK
  8
0
  2
*D35
 70
     1
 10
0.0
 20
0.0
 30
0.0
  3
*D35
  1

  0
LINE
  5
1F3
  8
0
  6
CONTINUOUS
 62
     6
 10
75.772059528392006
 20
555.91862633845994
 30
0.0
 11
94.663686138915025
 21
555.91862633845994
 31
0.0
  0
LINE
  5
1F4
  8
0
  6
CONTINUOUS
 62
     6
 10
82.490016643182983
 20
503.41862633845989
 30
0.0
 11
94.663686138915025
 21
503.41862633845989
 31
0.0
  0
LINE
  5
1F5
  8
0
  6
CONTINUOUS
 62
     6
 10
93.663686138914997
 20
555.91862633845994
 30
0.0
 11
93.663686138914997
 21
529.66862633845994
 31
0.0
  0
LINE
  5
1F6
  8
0
  6
CONTINUOUS
 62
     6
 10
93.663686138914997
 20
503.41862633845989
 30
0.0
 11
93.663686138914997
 21
529.66862633845994
 31
0.0
  0
INSERT
  5
1F7
  8
0
  6
CONTINUOUS
 62
     6
  2
_OPEN30
 10
93.663686138914997
 20
555.91862633845994
 30
0.0
 41
3.0
 42
3.0
 43
3.0
 50
90.0
  0
INSERT
  5
1F8
  8
0
  6
CONTINUOUS
 62
     6
  2
_OPEN30
 10
93.663686138914997
 20
503.41862633845989
 30
0.0
 41
3.0
 42
3.0
 43
3.0
 50
270.0
  0
INSERT
  5
1F9
  8
0
  6
CONTINUOUS
  2
*U89
 10
0.0
 20
0.0
 30
0.0
  0
ENDBLK
  5
1FA
  8
0
  0
BLOCK
  8
0
  2
*D36
 70
     1
 10
0.0
 20
0.0
 30
0.0
  3
*D36
  1

  0
LINE
  5
1FC
  8
0
  6
CONTINUOUS
 62
     6
 10
161.77205952838989
 20
503.41862633845989
 30
0.0
 11
150.63100067303
 21
503.41862633845989
 31
0.0
  0
LINE
  5
1FD
  8
0
  6
CONTINUOUS
 62
     6
 10
161.77205952838989
 20
487.41862633845989
 30
0.0
 11
150.63100067303
 21
487.41862633845989
 31
0.0
  0
LINE
  5
1FE
  8
0
  6
CONTINUOUS
 62
     6
 10
151.63100067303
 20
519.60248904709999
 30
0.0
 11
151.63100067303
 21
495.41862633845989
 31
0.0
  0
LINE
  5
1FF
  8
0
  6
CONTINUOUS
 62
     6
 10
151.63100067303
 20
483.66862633845989
 30
0.0
 11
151.63100067303
 21
495.41862633845989
 31
0.0
  0
INSERT
  5
200
  8
0
  6
CONTINUOUS
 62
     6
  2
_OPEN30
 10
151.63100067303
 20
503.41862633845989
 30
0.0
 41
3.0
 42
3.0
 43
3.0
 50
270.0
  0
INSERT
  5
201
  8
0
  6
CONTINUOUS
 62
     6
  2
_OPEN30
 10
151.63100067303
 20
487.41862633845989
 30
0.0
 41
3.0
 42
3.0
 43
3.0
 50
90.0
  0
INSERT
  5
202
  8
0
  6
CONTINUOUS
  2
*U90
 10
0.0
 20
0.0
 30
0.0
  0
ENDBLK
  5
203
  8
0
  0
BLOCK
  8
0
  2
*D37
 70
     1
 10
0.0
 20
0.0
 30
0.0
  3
*D37
  1

  0
LINE
  5
205
  8
0
  6
CONTINUOUS
 62
     6
 10
64.772059528392006
 20
567.05878126748996
 30
0.0
 11
64.772059528392006
 21
573.76950375221998
 31
0.0
  0
LINE
  5
206
  8
0
  6
CONTINUOUS
 62
     6
 10
264.77205952839
 20
567.05878126748996
 30
0.0
 11
264.77205952839
 21
573.76950375221998
 31
0.0
  0
LINE
  5
207
  8
0
  6
CONTINUOUS
 62
     6
 10
64.772059528392006
 20
572.76950375221998
 30
0.0
 11
164.77205952839
 21
572.76950375221998
 31
0.0
  0
LINE
  5
208
  8
0
  6
CONTINUOUS
 62
     6
 10
264.77205952839
 20
572.76950375221998
 30
0.0
 11
164.77205952839
 21
572.76950375221998
 31
0.0
  0
INSERT
  5
209
  8
0
  6
CONTINUOUS
 62
     6
  2
_OPEN30
 10
64.772059528392006
 20
572.76950375221998
 30
0.0
 41
3.0
 42
3.0
 43
3.0
 50
180.0
  0
INSERT
  5
20A
  8
0
  6
CONTINUOUS
 62
     6
  2
_OPEN30
 10
264.77205952839
 20
572.76950375221998
 30
0.0
 41
3.0
 42
3.0
 43
3.0
  0
INSERT
  5
20B
  8
0
  6
CONTINUOUS
  2
*U91
 10
0.0
 20
0.0
 30
0.0
  0
ENDBLK
  5
20C
  8
0
  0
BLOCK
  8
0
  2
*D38
 70
     1
 10
0.0
 20
0.0
 30
0.0
  3
*D38
  1

  0
LINE
  5
20E
  8
0
  6
CONTINUOUS
 62
     6
 10
64.772059528392006
 20
480.89139250656001
 30
0.0
 11
64.772059528392006
 21
471.40238673950989
 31
0.0
  0
LINE
  5
20F
  8
0
  6
CONTINUOUS
 62
     6
 10
264.77205952839
 20
480.89139250656001
 30
0.0
 11
264.77205952839
 21
471.40238673950989
 31
0.0
  0
LINE
  5
210
  8
0
  6
CONTINUOUS
 62
     6
 10
64.772059528392006
 20
472.40238673950989
 30
0.0
 11
164.77205952839
 21
472.40238673950989
 31
0.0
  0
LINE
  5
211
  8
0
  6
CONTINUOUS
 62
     6
 10
264.77205952839
 20
472.40238673950989
 30
0.0
 11
164.77205952839
 21
472.40238673950989
 31
0.0
  0
INSERT
  5
212
  8
0
  6
CONTINUOUS
 62
     6
  2
_OPEN30
 10
64.772059528392006
 20
472.40238673950989
 30
0.0
 41
3.0
 42
3.0
 43
3.0
 50
180.0
  0
INSERT
  5
213
  8
0
  6
CONTINUOUS
 62
     6
  2
_OPEN30
 10
264.77205952839
 20
472.40238673950989
 30
0.0
 41
3.0
 42
3.0
 43
3.0
  0
INSERT
  5
214
  8
0
  6
CONTINUOUS
  2
*U92
 10
0.0
 20
0.0
 30
0.0
  0
ENDBLK
  5
215
  8
0
  0
BLOCK
  8
0
  2
_ARCHTICK
 70
     0
 10
0.0
 20
0.0
 30
0.0
  3
_ARCHTICK
  1

  0
POLYLINE
  5
7E
  8
0
  6
BYBLOCK
 62
     0
 66
     1
 10
0.0
 20
0.0
 30
0.0
 70
     1
 40
0.15
 41
0.15
  0
VERTEX
  5
5BE
  8
0
  6
BYBLOCK
 62
     0
 10
-0.5
 20
-0.5
 30
0.0
  0
VERTEX
  5
5BF
  8
0
  6
BYBLOCK
 62
     0
 10
0.5
 20
0.5
 30
0.0
  0
SEQEND
  5
5C0
  8
0
  6
BYBLOCK
 62
     0
  0
ENDBLK
  5
82
  8
0
  0
BLOCK
  8
0
  2
_BOXBLANK
 70
     0
 10
0.0
 20
0.0
 30
0.0
  3
_BOXBLANK
  1

  0
LINE
  5
87
  8
0
  6
BYBLOCK
 62
     0
 10
-0.5
 20
-0.5
 30
0.0
 11
0.5
 21
-0.5
 31
0.0
  0
LINE
  5
88
  8
0
  6
BYBLOCK
 62
     0
 10
0.5
 20
-0.5
 30
0.0
 11
0.5
 21
0.5
 31
0.0
  0
LINE
  5
89
  8
0
  6
BYBLOCK
 62
     0
 10
0.5
 20
0.5
 30
0.0
 11
-0.5
 21
0.5
 31
0.0
  0
LINE
  5
8A
  8
0
  6
BYBLOCK
 62
     0
 10
-0.5
 20
0.5
 30
0.0
 11
-0.5
 21
-0.5
 31
0.0
  0
LINE
  5
8B
  8
0
  6
BYBLOCK
 62
     0
 10
-0.5
 20
0.0
 30
0.0
 11
-1.0
 21
0.0
 31
0.0
  0
ENDBLK
  5
8C
  8
0
  0
BLOCK
  8
0
  2
_BOXFILLED
 70
     0
 10
0.0
 20
0.0
 30
0.0
  3
_BOXFILLED
  1

  0
SOLID
  5
8E
  8
0
  6
BYBLOCK
 62
     0
 10
-0.5
 20
0.5
 30
0.0
 11
0.5
 21
0.5
 31
0.0
 12
-0.5
 22
-0.5
 32
0.0
 13
0.5
 23
-0.5
 33
0.0
  0
LINE
  5
8F
  8
0
  6
BYBLOCK
 62
     0
 10
-0.5
 20
0.0
 30
0.0
 11
-1.0
 21
0.0
 31
0.0
  0
ENDBLK
  5
90
  8
0
  0
BLOCK
  8
0
  2
_CLOSED
 70
     0
 10
0.0
 20
0.0
 30
0.0
  3
_CLOSED
  1

  0
LINE
  5
92
  8
0
  6
BYBLOCK
 62
     0
 10
-1.0
 20
0.16666666666667
 30
0.0
 11
0.0
 21
0.0
 31
0.0
  0
LINE
  5
93
  8
0
  6
BYBLOCK
 62
     0
 10
0.0
 20
0.0
 30
0.0
 11
-1.0
 21
-0.16666666666667
 31
0.0
  0
LINE
  5
94
  8
0
  6
BYBLOCK
 62
     0
 10
-1.0
 20
0.16666666666667
 30
0.0
 11
-1.0
 21
-0.16666666666667
 31
0.0
  0
LINE
  5
95
  8
0
  6
BYBLOCK
 62
     0
 10
0.0
 20
0.0
 30
0.0
 11
-1.0
 21
0.0
 31
0.0
  0
ENDBLK
  5
96
  8
0
  0
BLOCK
  8
0
  2
_CLOSEDBLANK
 70
     0
 10
0.0
 20
0.0
 30
0.0
  3
_CLOSEDBLANK
  1

  0
LINE
  5
A7
  8
0
  6
BYBLOCK
 62
     0
 10
-1.0
 20
0.16666666666667
 30
0.0
 11
0.0
 21
0.0
 31
0.0
  0
LINE
  5
A8
  8
0
  6
BYBLOCK
 62
     0
 10
0.0
 20
0.0
 30
0.0
 11
-1.0
 21
-0.16666666666667
 31
0.0
  0
LINE
  5
A9
  8
0
  6
BYBLOCK
 62
     0
 10
-1.0
 20
0.16666666666667
 30
0.0
 11
-1.0
 21
-0.16666666666667
 31
0.0
  0
ENDBLK
  5
AA
  8
0
  0
BLOCK
  8
0
  2
_DATUMBLANK
 70
     0
 10
0.0
 20
0.0
 30
0.0
  3
_DATUMBLANK
  1

  0
LINE
  5
B9
  8
0
  6
BYBLOCK
 62
     0
 10
0.0
 20
0.5773502700000001
 30
0.0
 11
-1.0
 21
0.0
 31
0.0
  0
LINE
  5
BA
  8
0
  6
BYBLOCK
 62
     0
 10
-1.0
 20
0.0
 30
0.0
 11
0.0
 21
-0.5773502700000001
 31
0.0
  0
LINE
  5
BB
  8
0
  6
BYBLOCK
 62
     0
 10
0.0
 20
-0.5773502700000001
 30
0.0
 11
0.0
 21
0.5773502700000001
 31
0.0
  0
ENDBLK
  5
BC
  8
0
  0
BLOCK
  8
0
  2
_DATUMFILLED
 70
     0
 10
0.0
 20
0.0
 30
0.0
  3
_DATUMFILLED
  1

  0
SOLID
  5
BE
  8
0
  6
BYBLOCK
 62
     0
 10
0.0
 20
0.5773502700000001
 30
0.0
 11
-1.0
 21
0.0
 31
0.0
 12
0.0
 22
-0.5773502700000001
 32
0.0
 13
0.0
 23
-0.5773502700000001
 33
0.0
  0
ENDBLK
  5
BF
  8
0
  0
BLOCK
  8
0
  2
_DOT
 70
     0
 10
0.0
 20
0.0
 30
0.0
  3
_DOT
  1

  0
POLYLINE
  5
AC
  8
0
  6
BYBLOCK
 62
     0
 66
     1
 10
0.0
 20
0.0
 30
0.0
 70
     1
 40
0.5
 41
0.5
  0
VERTEX
  5
5C1
  8
0
  6
BYBLOCK
 62
     0
 10
-0.25
 20
0.0
 30
0.0
 42
1.0
  0
VERTEX
  5
5C2
  8
0
  6
BYBLOCK
 62
     0
 10
0.25
 20
0.0
 30
0.0
 42
1.0
  0
SEQEND
  5
5C3
  8
0
  6
BYBLOCK
 62
     0
  0
LINE
  5
B0
  8
0
  6
BYBLOCK
 62
     0
 10
-0.5
 20
0.0
 30
0.0
 11
-1.0
 21
0.0
 31
0.0
  0
ENDBLK
  5
B1
  8
0
  0
BLOCK
  8
0
  2
_DOTBLANK
 70
     0
 10
0.0
 20
0.0
 30
0.0
  3
_DOTBLANK
  1

  0
CIRCLE
  5
C8
  8
0
  6
BYBLOCK
 62
     0
 10
0.0
 20
0.0
 30
0.0
 40
0.5
  0
LINE
  5
C9
  8
0
  6
BYBLOCK
 62
     0
 10
-0.5
 20
0.0
 30
0.0
 11
-1.0
 21
0.0
 31
0.0
  0
ENDBLK
  5
CA
  8
0
  0
BLOCK
  8
0
  2
_DOTSMALL
 70
     0
 10
0.0
 20
0.0
 30
0.0
  3
_DOTSMALL
  1

  0
POLYLINE
  5
B3
  8
0
  6
BYBLOCK
 62
     0
 66
     1
 10
0.0
 20
0.0
 30
0.0
 70
     1
 40
0.5
 41
0.5
  0
VERTEX
  5
5C4
  8
0
  6
BYBLOCK
 62
     0
 10
-0.0625
 20
0.0
 30
0.0
 42
1.0
  0
VERTEX
  5
5C5
  8
0
  6
BYBLOCK
 62
     0
 10
0.0625
 20
0.0
 30
0.0
 42
1.0
  0
SEQEND
  5
5C6
  8
0
  6
BYBLOCK
 62
     0
  0
ENDBLK
  5
B7
  8
0
  0
BLOCK
  8
0
  2
_INTEGRAL
 70
     0
 10
0.0
 20
0.0
 30
0.0
  3
_INTEGRAL
  1

  0
ARC
  5
CC
  8
0
  6
BYBLOCK
 62
     0
 10
0.444888
 20
-0.091335
 30
0.0
 40
0.454167
 50
102.0
 51
168.0
  0
ARC
  5
CD
  8
0
  6
BYBLOCK
 62
     0
 10
-0.444888
 20
0.091335
 30
0.0
 40
0.454167
 50
282.0
 51
348.0
  0
ENDBLK
  5
CE
  8
0
  0
BLOCK
  8
0
  2
_NONE
 70
     0
 10
0.0
 20
0.0
 30
0.0
  3
_NONE
  1

  0
CIRCLE
  5
C5
  8
0
  6
BYBLOCK
 62
     0
 10
0.0
 20
0.0
 30
0.0
 40
0.25
  0
ENDBLK
  5
C6
  8
0
  0
BLOCK
  8
0
  2
_OBLIQUE
 70
     0
 10
0.0
 20
0.0
 30
0.0
  3
_OBLIQUE
  1

  0
LINE
  5
84
  8
0
  6
BYBLOCK
 62
     0
 10
-0.5
 20
-0.5
 30
0.0
 11
0.5
 21
0.5
 31
0.0
  0
ENDBLK
  5
85
  8
0
  0
BLOCK
  8
0
  2
_OPEN
 70
     0
 10
0.0
 20
0.0
 30
0.0
  3
_OPEN
  1

  0
LINE
  5
98
  8
0
  6
BYBLOCK
 62
     0
 10
-1.0
 20
0.16666666666667
 30
0.0
 11
0.0
 21
0.0
 31
0.0
  0
LINE
  5
99
  8
0
  6
BYBLOCK
 62
     0
 10
0.0
 20
0.0
 30
0.0
 11
-1.0
 21
-0.16666666666667
 31
0.0
  0
LINE
  5
9A
  8
0
  6
BYBLOCK
 62
     0
 10
0.0
 20
0.0
 30
0.0
 11
-1.0
 21
0.0
 31
0.0
  0
ENDBLK
  5
9B
  8
0
  0
BLOCK
  8
0
  2
_OPEN30
 70
     0
 10
0.0
 20
0.0
 30
0.0
  3
_OPEN30
  1

  0
LINE
  5
9D
  8
0
  6
BYBLOCK
 62
     0
 10
-1.0
 20
0.2679491924311
 30
0.0
 11
0.0
 21
0.0
 31
0.0
  0
LINE
  5
9E
  8
0
  6
BYBLOCK
 62
     0
 10
0.0
 20
0.0
 30
0.0
 11
-1.0
 21
-0.2679491924311
 31
0.0
  0
LINE
  5
9F
  8
0
  6
BYBLOCK
 62
     0
 10
0.0
 20
0.0
 30
0.0
 11
-1.0
 21
0.0
 31
0.0
  0
ENDBLK
  5
A0
  8
0
  0
BLOCK
  8
0
  2
_OPEN90
 70
     0
 10
0.0
 20
0.0
 30
0.0
  3
_OPEN90
  1

  0
LINE
  5
A2
  8
0
  6
BYBLOCK
 62
     0
 10
-0.5
 20
0.5
 30
0.0
 11
0.0
 21
0.0
 31
0.0
  0
LINE
  5
A3
  8
0
  6
BYBLOCK
 62
     0
 10
0.0
 20
0.0
 30
0.0
 11
-0.5
 21
-0.5
 31
0.0
  0
LINE
  5
A4
  8
0
  6
BYBLOCK
 62
     0
 10
0.0
 20
0.0
 30
0.0
 11
-1.0
 21
0.0
 31
0.0
  0
ENDBLK
  5
A5
  8
0
  0
BLOCK
  8
0
  2
_ORIGIN
 70
     0
 10
0.0
 20
0.0
 30
0.0
  3
_ORIGIN
  1

  0
CIRCLE
  5
C1
  8
0
  6
BYBLOCK
 62
     0
 10
0.0
 20
0.0
 30
0.0
 40
0.5
  0
LINE
  5
C2
  8
0
  6
BYBLOCK
 62
     0
 10
0.0
 20
0.0
 30
0.0
 11
-1.0
 21
0.0
 31
0.0
  0
ENDBLK
  5
C3
  8
0
  0
BLOCK
  8
0
  2
*U56
 70
     1
 10
0.0
 20
0.0
 30
0.0
  3
*U56
  1

  0
TEXT
  5
5E3
  8
0
  6
CONTINUOUS
 62
     6
 10
295.63543067348002
 20
132.05883806304999
 30
0.0
 40
4.0
  1
R10
 41
0.75
  7
GMM001
  0
ENDBLK
  5
5E5
  8
0
  0
BLOCK
  8
0
  2
*U57
 70
     1
 10
0.0
 20
0.0
 30
0.0
  3
*U57
  1

  0
TEXT
  5
5EB
  8
0
  6
CONTINUOUS
 62
     6
 10
31.289285988534999
 20
152.90712225722001
 30
0.0
 40
4.0
  1
\U+22054.7穴\U+22058.5ザグリ
 41
0.75
  7
GMM001
  0
ENDBLK
  5
5ED
  8
0
  0
BLOCK
  8
0
  2
*U58
 70
     1
 10
0.0
 20
0.0
 30
0.0
  3
*U58
  1

  0
TEXT
  5
5EF
  8
0
  6
CONTINUOUS
 62
     6
 10
119.4443128427579
 20
134.83404065318999
 30
0.0
 40
7.0710678118655004
  1
２
  7
GMM002
  0
ENDBLK
  5
5F1
  8
0
  0
BLOCK
  8
0
  2
*U59
 70
     1
 10
0.0
 20
0.0
 30
0.0
  3
*U59
  1

  0
TEXT
  5
5F3
  8
0
  6
CONTINUOUS
 62
     6
 10
76.645782051808823
 20
145.53667682456
 30
0.0
 40
7.0710678118655004
  1
１
  7
GMM002
  0
ENDBLK
  5
5F5
  8
0
  0
BLOCK
  8
0
  2
*U60
 70
     1
 10
0.0
 20
0.0
 30
0.0
  3
*U60
  1

  0
TEXT
  5
5F7
  8
0
  6
CONTINUOUS
 62
     6
 10
375.83105486198002
 20
146.15955322318999
 30
0.0
 40
4.0
  1
5
 41
0.75
  7
GMM001
  0
ENDBLK
  5
5F9
  8
0
  0
BLOCK
  8
0
  2
*U61
 70
     1
 10
0.0
 20
0.0
 30
0.0
  3
*U61
  1

  0
TEXT
  5
5FF
  8
0
  6
CONTINUOUS
 62
     6
 10
84.385177243541008
 20
81.180992035599004
 30
0.0
 40
4.0
  1
R10
 41
0.75
  7
GMM001
  0
ENDBLK
  5
601
  8
0
  0
BLOCK
  8
0
  2
*U62
 70
     1
 10
0.0
 20
0.0
 30
0.0
  3
*U62
  1

  0
TEXT
  5
603
  8
0
  6
CONTINUOUS
 62
     6
 10
149.91671495873999
 20
204.7259717112
 30
0.0
 40
4.0
  1
\U+220516
 50
90.0
 41
0.75
  7
GMM001
  0
ENDBLK
  5
605
  8
0
  0
BLOCK
  8
0
  2
*U63
 70
     1
 10
0.0
 20
0.0
 30
0.0
  3
*U63
  1

  0
TEXT
  5
607
  8
0
  6
CONTINUOUS
 62
     6
 10
154.77205952838989
 20
267.60727213061
 30
0.0
 40
4.0
  1
取付ピッチL
 41
0.75
  7
GMM001
  0
ENDBLK
  5
609
  8
0
  0
BLOCK
  8
0
  2
*U64
 70
     1
 10
0.0
 20
0.0
 30
0.0
  3
*U64
  1

  0
TEXT
  5
60B
  8
0
  6
CONTINUOUS
 62
     6
 10
91.949400424629005
 20
216.29210900256001
 30
0.0
 40
4.0
  1
(52.7)
 50
90.0
 41
0.75
  7
GMM001
  0
ENDBLK
  5
60D
  8
0
  0
BLOCK
  8
0
  2
*U65
 70
     1
 10
0.0
 20
0.0
 30
0.0
  3
*U65
  1

  0
TEXT
  5
60F
  8
0
  6
CONTINUOUS
 62
     6
 10
297.61037658672001
 20
112.01366011178
 30
0.0
 40
4.0
  1
20
 50
90.0
 41
0.75
  7
GMM001
  0
ENDBLK
  5
611
  8
0
  0
BLOCK
  8
0
  2
*U66
 70
     1
 10
0.0
 20
0.0
 30
0.0
  3
*U66
  1

  0
TEXT
  5
613
  8
0
  6
CONTINUOUS
 62
     6
 10
374.33105486197991
 20
154.84818687344
 30
0.0
 40
4.0
  1
8
 41
0.75
  7
GMM001
  0
ENDBLK
  5
615
  8
0
  0
BLOCK
  8
0
  2
*U67
 70
     1
 10
0.0
 20
0.0
 30
0.0
  3
*U67
  1

  0
TEXT
  5
617
  8
0
  6
CONTINUOUS
 62
     6
 10
30.372651859072999
 20
109.76366011183001
 30
0.0
 40
4.0
  1
52.5
 50
90.0
 41
0.75
  7
GMM001
  0
ENDBLK
  5
619
  8
0
  0
BLOCK
  8
0
  2
*U68
 70
     1
 10
0.0
 20
0.0
 30
0.0
  3
*U68
  1

  0
TEXT
  5
61B
  8
0
  6
CONTINUOUS
 62
     6
 10
40.103497543308002
 20
111.76366011183001
 30
0.0
 40
4.0
  1
36
 50
90.0
 41
0.75
  7
GMM001
  0
ENDBLK
  5
61D
  8
0
  0
BLOCK
  8
0
  2
*U69
 70
     1
 10
0.0
 20
0.0
 30
0.0
  3
*U69
  1

  0
TEXT
  5
61F
  8
0
  6
CONTINUOUS
 62
     6
 10
62.522059528392013
 20
72.085039716531
 30
0.0
 40
4.0
  1
21
 41
0.75
  7
GMM001
  0
ENDBLK
  5
621
  8
0
  0
BLOCK
  8
0
  2
*U70
 70
     1
 10
0.0
 20
0.0
 30
0.0
  3
*U70
  1

  0
TEXT
  5
623
  8
0
  6
CONTINUOUS
 62
     6
 10
30.372651859072999
 20
211.79210900243001
 30
0.0
 40
4.0
  1
71
 50
90.0
 41
0.75
  7
GMM001
  0
ENDBLK
  5
625
  8
0
  0
BLOCK
  8
0
  2
*U71
 70
     1
 10
0.0
 20
0.0
 30
0.0
  3
*U71
  1

  0
TEXT
  5
627
  8
0
  6
CONTINUOUS
 62
     6
 10
40.103497543308002
 20
216.79210900256001
 30
0.0
 40
4.0
  1
61
 50
90.0
 41
0.75
  7
GMM001
  0
ENDBLK
  5
629
  8
0
  0
BLOCK
  8
0
  2
*U72
 70
     1
 10
0.0
 20
0.0
 30
0.0
  3
*U72
  1

  0
TEXT
  5
62B
  8
0
  6
CONTINUOUS
 62
     6
 10
153.77205952838989
 20
167.24015511789
 30
0.0
 40
4.0
  1
パイプ長さL1
 41
0.75
  7
GMM001
  0
ENDBLK
  5
62D
  8
0
  0
BLOCK
  8
0
  2
*U73
 70
     1
 10
0.0
 20
0.0
 30
0.0
  3
*U73
  1

  0
TEXT
  5
64A
  8
0
  6
CONTINUOUS
 62
     6
 10
295.63543067348002
 20
438.93535539894998
 30
0.0
 40
4.0
  1
R10
 41
0.75
  7
GMM001
  0
ENDBLK
  5
64C
  8
0
  0
BLOCK
  8
0
  2
*U74
 70
     1
 10
0.0
 20
0.0
 30
0.0
  3
*U74
  1

  0
TEXT
  5
652
  8
0
  6
CONTINUOUS
 62
     6
 10
31.289285988534999
 20
459.78363959311997
 30
0.0
 40
4.0
  1
\U+22054.7穴\U+22058.5ザグリ
 41
0.75
  7
GMM001
  0
ENDBLK
  5
654
  8
0
  0
BLOCK
  8
0
  2
*U75
 70
     1
 10
0.0
 20
0.0
 30
0.0
  3
*U75
  1

  0
TEXT
  5
656
  8
0
  6
CONTINUOUS
 62
     6
 10
68.022059528392006
 20
385.06933946749001
 30
0.0
 40
4.0
  1
10
 41
0.75
  7
GMM001
  0
ENDBLK
  5
658
  8
0
  0
BLOCK
  8
0
  2
*U76
 70
     1
 10
0.0
 20
0.0
 30
0.0
  3
*U76
  1

  0
TEXT
  5
65A
  8
0
  6
CONTINUOUS
 62
     6
 10
58.022059528391999
 20
385.06933946749001
 30
0.0
 40
4.0
  1
10
 41
0.75
  7
GMM001
  0
ENDBLK
  5
65C
  8
0
  0
BLOCK
  8
0
  2
*U77
 70
     1
 10
0.0
 20
0.0
 30
0.0
  3
*U77
  1

  0
TEXT
  5
65E
  8
0
  6
CONTINUOUS
 62
     6
 10
62.522059528392013
 20
374.72370677912988
 30
0.0
 40
4.0
  1
20
 41
0.75
  7
GMM001
  0
ENDBLK
  5
660
  8
0
  0
BLOCK
  8
0
  2
*U78
 70
     1
 10
0.0
 20
0.0
 30
0.0
  3
*U78
  1

  0
TEXT
  5
662
  8
0
  6
CONTINUOUS
 62
     6
 10
297.61037658672001
 20
418.89017744768
 30
0.0
 40
4.0
  1
20
 50
90.0
 41
0.75
  7
GMM001
  0
ENDBLK
  5
664
  8
0
  0
BLOCK
  8
0
  2
*U79
 70
     1
 10
0.0
 20
0.0
 30
0.0
  3
*U79
  1

  0
TEXT
  5
666
  8
0
  6
CONTINUOUS
 62
     6
 10
119.4443128427579
 20
441.71055798908998
 30
0.0
 40
7.0710678118655004
  1
２
  7
GMM002
  0
ENDBLK
  5
668
  8
0
  0
BLOCK
  8
0
  2
*U80
 70
     1
 10
0.0
 20
0.0
 30
0.0
  3
*U80
  1

  0
TEXT
  5
66A
  8
0
  6
CONTINUOUS
 62
     6
 10
76.645782051808823
 20
452.41319416046002
 30
0.0
 40
7.0710678118655004
  1
１
  7
GMM002
  0
ENDBLK
  5
66C
  8
0
  0
BLOCK
  8
0
  2
*U81
 70
     1
 10
0.0
 20
0.0
 30
0.0
  3
*U81
  1

  0
TEXT
  5
66E
  8
0
  6
CONTINUOUS
 62
     6
 10
394.30628044944001
 20
418.64017744773003
 30
0.0
 40
4.0
  1
52
 50
90.0
 41
0.75
  7
GMM001
  0
ENDBLK
  5
670
  8
0
  0
BLOCK
  8
0
  2
*U82
 70
     1
 10
0.0
 20
0.0
 30
0.0
  3
*U82
  1

  0
TEXT
  5
672
  8
0
  6
CONTINUOUS
 62
     6
 10
40.103497543308002
 20
418.64017744773003
 30
0.0
 40
4.0
  1
36
 50
90.0
 41
0.75
  7
GMM001
  0
ENDBLK
  5
674
  8
0
  0
BLOCK
  8
0
  2
*U83
 70
     1
 10
0.0
 20
0.0
 30
0.0
  3
*U83
  1

  0
TEXT
  5
676
  8
0
  6
CONTINUOUS
 62
     6
 10
30.372651859072999
 20
418.64017744773003
 30
0.0
 40
4.0
  1
52
 50
90.0
 41
0.75
  7
GMM001
  0
ENDBLK
  5
678
  8
0
  0
BLOCK
  8
0
  2
*U84
 70
     1
 10
0.0
 20
0.0
 30
0.0
  3
*U84
  1

  0
TEXT
  5
67A
  8
0
  6
CONTINUOUS
 62
     6
 10
40.103497543308002
 20
521.41862633845994
 30
0.0
 40
4.0
  1
60.5
 50
90.0
 41
0.75
  7
GMM001
  0
ENDBLK
  5
67C
  8
0
  0
BLOCK
  8
0
  2
*U85
 70
     1
 10
0.0
 20
0.0
 30
0.0
  3
*U85
  1

  0
TEXT
  5
67E
  8
0
  6
CONTINUOUS
 62
     6
 10
30.372651859072999
 20
516.41862633833
 30
0.0
 40
4.0
  1
70.5
 50
90.0
 41
0.75
  7
GMM001
  0
ENDBLK
  5
680
  8
0
  0
BLOCK
  8
0
  2
*U86
 70
     1
 10
0.0
 20
0.0
 30
0.0
  3
*U86
  1

  0
TEXT
  5
682
  8
0
  6
CONTINUOUS
 62
     6
 10
374.33105486197991
 20
461.72470420934002
 30
0.0
 40
4.0
  1
8
 41
0.75
  7
GMM001
  0
ENDBLK
  5
684
  8
0
  0
BLOCK
  8
0
  2
*U87
 70
     1
 10
0.0
 20
0.0
 30
0.0
  3
*U87
  1

  0
TEXT
  5
686
  8
0
  6
CONTINUOUS
 62
     6
 10
375.83105486198002
 20
453.03607055908998
 30
0.0
 40
4.0
  1
5
 41
0.75
  7
GMM001
  0
ENDBLK
  5
688
  8
0
  0
BLOCK
  8
0
  2
*U88
 70
     1
 10
0.0
 20
0.0
 30
0.0
  3
*U88
  1

  0
TEXT
  5
68E
  8
0
  6
CONTINUOUS
 62
     6
 10
84.385177243541008
 20
388.05750937149998
 30
0.0
 40
4.0
  1
R10
 41
0.75
  7
GMM001
  0
ENDBLK
  5
690
  8
0
  0
BLOCK
  8
0
  2
*U89
 70
     1
 10
0.0
 20
0.0
 30
0.0
  3
*U89
  1

  0
TEXT
  5
692
  8
0
  6
CONTINUOUS
 62
     6
 10
91.949400424629005
 20
523.16862633845994
 30
0.0
 40
4.0
  1
(52.5)
 50
90.0
 41
0.75
  7
GMM001
  0
ENDBLK
  5
694
  8
0
  0
BLOCK
  8
0
  2
*U90
 70
     1
 10
0.0
 20
0.0
 30
0.0
  3
*U90
  1

  0
TEXT
  5
696
  8
0
  6
CONTINUOUS
 62
     6
 10
149.91671495873999
 20
511.60248904709999
 30
0.0
 40
4.0
  1
\U+220516
 50
90.0
 41
0.75
  7
GMM001
  0
ENDBLK
  5
698
  8
0
  0
BLOCK
  8
0
  2
*U91
 70
     1
 10
0.0
 20
0.0
 30
0.0
  3
*U91
  1

  0
TEXT
  5
69A
  8
0
  6
CONTINUOUS
 62
     6
 10
154.77205952838989
 20
574.48378946650985
 30
0.0
 40
4.0
  1
取付ピッチL
 41
0.75
  7
GMM001
  0
ENDBLK
  5
69C
  8
0
  0
BLOCK
  8
0
  2
*U92
 70
     1
 10
0.0
 20
0.0
 30
0.0
  3
*U92
  1

  0
TEXT
  5
69E
  8
0
  6
CONTINUOUS
 62
     6
 10
153.77205952838989
 20
474.11667245378999
 30
0.0
 40
4.0
  1
パイプ長さL1
 41
0.75
  7
GMM001
  0
ENDBLK
  5
6A0
  8
0
  0
ENDSEC
  0
SECTION
  2
ENTITIES
  0
LINE
  5
277
  8
0
  6
CONTINUOUS
 62
     7
 10
367.79420540657998
 20
127.96886152613
 30
0.0
 11
367.90783172578
 21
128.08323263903
 31
0.0
  0
LINE
  5
278
  8
0
  6
CONTINUOUS
 62
     7
 10
367.90783172578
 20
128.08323263903
 30
0.0
 11
367.99093677858002
 21
128.16900931983
 31
0.0
  0
DIMENSION
  5
279
  8
0
  6
CONTINUOUS
 62
     6
  2
*D1
 10
318.83105486198002
 20
114.26366011183001
 30
0.0
 11
295.63543067348002
 21
130.34455234877001
 31
0.0
 70
   132
 15
312.21310823568001
 25
121.76051161439
 35
0.0
 40
11.450194433550999
  0
LINE
  5
27A
  8
0
  6
CONTINUOUS
 62
     7
 10
379.33105486198002
 20
140.26366011183001
 30
0.0
 11
372.82331057827997
 21
140.22958533102999
 31
0.0
  0
ARC
  5
27B
  8
0
  6
CONTINUOUS
 62
     7
 10
372.83116452397991
 20
138.72960589264
 30
0.0
 40
1.5
 50
90.300000000000978
 51
180.00000000021001
  0
ARC
  5
27C
  8
0
  6
CONTINUOUS
 62
     7
 10
359.33116452398002
 20
136.47602170273001
 30
0.0
 40
12.0
 50
270.30000000000001
 51
335.09914366359999
  0
ARC
  5
27D
  8
0
  6
CONTINUOUS
 62
     7
 10
318.83105486199003
 20
114.26366011183001
 30
0.0
 40
10.0
 50
90.300000000018002
 51
269.69999999997998
  0
ARC
  5
27E
  8
0
  6
CONTINUOUS
 62
     7
 10
359.33116452398002
 20
136.47602170273001
 30
0.0
 40
11.999999999998
 50
335.09914366360999
 51
0.0000000000074637
  0
LINE
  5
27F
  8
0
  6
CONTINUOUS
 62
     7
 10
318.77869522368002
 20
124.26352303423
 30
0.0
 11
359.39399608998002
 21
124.47618619572999
 31
0.0
  0
LINE
  5
280
  8
0
  6
CONTINUOUS
 62
     7
 10
371.33116452398002
 20
136.47602170273001
 30
0.0
 11
371.33116452398002
 21
138.72960589262999
 31
0.0
  0
LINE
  5
281
  8
0
  6
CONTINUOUS
 62
     7
 10
371.33116452398002
 20
137.05737202403
 30
0.0
 11
371.33116452398002
 21
136.47602170273001
 31
0.0
  0
LINE
  5
282
  8
0
  6
CONTINUOUS
 62
     7
 10
372.82331057827997
 20
88.297734892630004
 30
0.0
 11
379.33105486198002
 21
88.263660111830006
 31
0.0
  0
ARC
  5
283
  8
0
  6
CONTINUOUS
 62
     7
 10
372.83116452399003
 20
89.797714330930006
 30
0.0
 40
1.5
 50
180.0
 51
269.69999999980001
  0
ARC
  5
284
  8
0
  6
CONTINUOUS
 62
     7
 10
359.33116452398002
 20
92.051298520930004
 30
0.0
 40
12.0
 50
24.900856336398999
 51
89.699999999999008
  0
ARC
  5
285
  8
0
  6
CONTINUOUS
 62
     7
 10
359.33116452398002
 20
92.051298520930985
 30
0.0
 40
11.999999999998
 50
0.0
 51
24.900856336392
  0
LINE
  5
286
  8
0
  6
CONTINUOUS
 62
     7
 10
318.77869522368002
 20
104.26379718933001
 30
0.0
 11
359.39399608998002
 21
104.05113402783
 31
0.0
  0
LINE
  5
287
  8
0
  6
CONTINUOUS
 62
     7
 10
371.33116452398002
 20
92.051298520930004
 30
0.0
 11
371.33116452398002
 21
89.797714330930006
 31
0.0
  0
LINE
  5
288
  8
0
  6
CONTINUOUS
 62
     7
 10
260.47256426779001
 20
240.81425447705999
 30
0.0
 11
260.50536204829001
 21
240.83740309906
 31
0.0
  0
LINE
  5
289
  8
0
  6
CONTINUOUS
 62
     7
 10
260.50536204829001
 20
240.83740309906
 30
0.0
 11
260.58934714799
 21
240.87718510856001
 31
0.0
  0
LINE
  5
28A
  8
0
  6
CONTINUOUS
 62
     7
 10
260.58934714799
 20
240.87718510856001
 30
0.0
 11
260.72623838979001
 21
240.92086035646
 31
0.0
  0
LINE
  5
28B
  8
0
  6
CONTINUOUS
 62
     7
 10
260.72623838979001
 20
240.92086035646
 30
0.0
 11
260.91544319038991
 21
240.96116109255999
 31
0.0
  0
LINE
  5
28C
  8
0
  6
CONTINUOUS
 62
     7
 10
260.91544319038991
 20
240.96116109255999
 30
0.0
 11
261.15802618279002
 21
240.99442315386
 31
0.0
  0
LINE
  5
28D
  8
0
  6
CONTINUOUS
 62
     7
 10
261.15802618279002
 20
240.99442315386
 30
0.0
 11
261.45303455788991
 21
241.01862526916
 31
0.0
  0
LINE
  5
28E
  8
0
  6
CONTINUOUS
 62
     7
 10
261.45303455788991
 20
241.01862526916
 30
0.0
 11
261.79180990178997
 21
241.03362667665999
 31
0.0
  0
LINE
  5
28F
  8
0
  6
CONTINUOUS
 62
     7
 10
261.79180990178997
 20
241.03362667665999
 30
0.0
 11
262.17885211759
 21
241.04092207796
 31
0.0
  0
LINE
  5
290
  8
0
  6
CONTINUOUS
 62
     7
 10
262.17885211759
 20
241.04092207796
 30
0.0
 11
262.37271431278998
 21
241.04143766295999
 31
0.0
  0
LINE
  5
291
  8
0
  6
CONTINUOUS
 62
     7
 10
267.06019131278998
 20
241.04227435376001
 30
0.0
 11
267.48255030608999
 21
241.03959640325999
 31
0.0
  0
LINE
  5
292
  8
0
  6
CONTINUOUS
 62
     7
 10
267.48255030608999
 20
241.03959640325999
 30
0.0
 11
267.86834062189001
 21
241.02969127136001
 31
0.0
  0
LINE
  5
293
  8
0
  6
CONTINUOUS
 62
     7
 10
267.86834062189001
 20
241.02969127136001
 30
0.0
 11
268.20921242659
 21
241.01052941596001
 31
0.0
  0
LINE
  5
294
  8
0
  6
CONTINUOUS
 62
     7
 10
268.20921242659
 20
241.01052941596001
 30
0.0
 11
268.49684412929003
 21
240.98098479315999
 31
0.0
  0
LINE
  5
295
  8
0
  6
CONTINUOUS
 62
     7
 10
268.49684412929003
 20
240.98098479315999
 30
0.0
 11
268.72715201499
 21
240.94198194206001
 31
0.0
  0
LINE
  5
296
  8
0
  6
CONTINUOUS
 62
     7
 10
268.72715201499
 20
240.94198194206001
 30
0.0
 11
268.90196551298999
 21
240.89596436276
 31
0.0
  0
LINE
  5
297
  8
0
  6
CONTINUOUS
 62
     7
 10
268.90196551298999
 20
240.89596436276
 30
0.0
 11
269.01295907089002
 21
240.85148596536001
 31
0.0
  0
LINE
  5
298
  8
0
  6
CONTINUOUS
 62
     7
 10
269.01295907089002
 20
240.85148596536001
 30
0.0
 11
269.06435060919
 21
240.82015279036
 31
0.0
  0
LINE
  5
299
  8
0
  6
CONTINUOUS
 62
     7
 10
254.81406333419
 20
241.02004632076
 30
0.0
 11
254.77205952839
 21
249.04210900256001
 31
0.0
  0
LINE
  5
29A
  8
0
  6
CONTINUOUS
 62
     7
 10
274.75254733329001
 20
249.04210900256001
 30
0.0
 11
254.77205952839
 21
249.04210900256001
 31
0.0
  0
LINE
  5
29B
  8
0
  6
CONTINUOUS
 62
     7
 10
270.52347686919001
 20
241.04221866456001
 30
0.0
 11
259.02064218759
 21
241.04221866456001
 31
0.0
  0
LINE
  5
29C
  8
0
  6
CONTINUOUS
 62
     7
 10
275.27205952839
 20
249.04210900256001
 30
0.0
 11
274.75254733329001
 21
249.04210900256001
 31
0.0
  0
LINE
  5
29D
  8
0
  6
CONTINUOUS
 62
     7
 10
254.87645067798999
 20
229.10505023056001
 30
0.0
 11
254.81406333419
 21
241.02004632076
 31
0.0
  0
LINE
  5
29E
  8
0
  6
CONTINUOUS
 62
     7
 10
255.08911383949001
 20
188.48974936426001
 30
0.0
 11
254.87645067798999
 21
229.10505023056001
 31
0.0
  0
LINE
  5
29F
  8
0
  6
CONTINUOUS
 62
     7
 10
272.67257479499
 20
240.70544662206001
 30
0.0
 11
272.42048236728999
 21
240.82002883876001
 31
0.0
  0
LINE
  5
2A0
  8
0
  6
CONTINUOUS
 62
     7
 10
272.42048236728999
 20
240.82002883876001
 30
0.0
 11
272.12131034939
 21
240.90826745176
 31
0.0
  0
LINE
  5
2A1
  8
0
  6
CONTINUOUS
 62
     7
 10
271.78377361039003
 20
240.97097870616
 30
0.0
 11
271.40527652829002
 21
241.01233406786
 31
0.0
  0
LINE
  5
2A2
  8
0
  6
CONTINUOUS
 62
     7
 10
272.12131034939
 20
240.90826745176
 30
0.0
 11
271.78377361039003
 21
240.97097870616
 31
0.0
  0
LINE
  5
2A3
  8
0
  6
CONTINUOUS
 62
     7
 10
271.40527652829002
 20
241.01233406786
 30
0.0
 11
270.98231285118999
 21
241.03528888426001
 31
0.0
  0
LINE
  5
2A4
  8
0
  6
CONTINUOUS
 62
     7
 10
270.98231285118999
 20
241.03528888426001
 30
0.0
 11
270.52347686919001
 21
241.04221866456001
 31
0.0
  0
LINE
  5
2A5
  8
0
  6
CONTINUOUS
 62
     7
 10
273.14939023719
 20
240.17944893745999
 30
0.0
 11
273.02813663269001
 21
240.40031698196
 31
0.0
  0
LINE
  5
2A6
  8
0
  6
CONTINUOUS
 62
     7
 10
273.02813663269001
 20
240.40031698196
 30
0.0
 11
272.87348922869
 21
240.56620608886001
 31
0.0
  0
LINE
  5
2A7
  8
0
  6
CONTINUOUS
 62
     7
 10
272.87348922869
 20
240.56620608886001
 30
0.0
 11
272.67257479499
 21
240.70544662206001
 31
0.0
  0
LINE
  5
2A8
  8
0
  6
CONTINUOUS
 62
     7
 10
273.21492803618997
 20
239.92667132176001
 30
0.0
 11
273.14939023719
 21
240.17944893745999
 31
0.0
  0
ARC
  5
2A9
  8
0
  6
CONTINUOUS
 62
     7
 10
264.76717721058998
 20
242.22836826736
 30
0.0
 40
4.5328283195390986
 50
198.45839552979001
 51
341.57052898210998
  0
LINE
  5
2AA
  8
0
  6
CONTINUOUS
 62
     7
 10
258.66346106509002
 20
241.03816453976
 30
0.0
 11
258.00496185398998
 21
241.00042979316001
 31
0.0
  0
LINE
  5
2AB
  8
0
  6
CONTINUOUS
 62
     7
 10
258.00496185398998
 20
241.00042979316001
 30
0.0
 11
257.70602061159002
 21
240.96283736736001
 31
0.0
  0
LINE
  5
2AC
  8
0
  6
CONTINUOUS
 62
     7
 10
257.70602061159002
 20
240.96283736736001
 30
0.0
 11
257.38303172189001
 21
240.89865796736001
 31
0.0
  0
LINE
  5
2AD
  8
0
  6
CONTINUOUS
 62
     7
 10
257.38303172189001
 20
240.89865796736001
 30
0.0
 11
257.09744412728998
 21
240.81022266106001
 31
0.0
  0
LINE
  5
2AE
  8
0
  6
CONTINUOUS
 62
     7
 10
257.09744412728998
 20
240.81022266106001
 30
0.0
 11
256.84890327999
 21
240.69245375846
 31
0.0
  0
LINE
  5
2AF
  8
0
  6
CONTINUOUS
 62
     7
 10
256.84890327999
 20
240.69245375846
 30
0.0
 11
256.64566391968998
 21
240.54408408846001
 31
0.0
  0
LINE
  5
2B0
  8
0
  6
CONTINUOUS
 62
     7
 10
256.64566391968998
 20
240.54408408846001
 30
0.0
 11
256.49945378148999
 21
240.37713580746001
 31
0.0
  0
LINE
  5
2B1
  8
0
  6
CONTINUOUS
 62
     7
 10
256.49945378148999
 20
240.37713580746001
 30
0.0
 11
256.39554982588999
 21
240.18154158376001
 31
0.0
  0
LINE
  5
2B2
  8
0
  6
CONTINUOUS
 62
     7
 10
256.39554982588999
 20
240.18154158376001
 30
0.0
 11
256.33335259198998
 21
239.95331236525999
 31
0.0
  0
LINE
  5
2B3
  8
0
  6
CONTINUOUS
 62
     7
 10
256.33335259198998
 20
239.95331236525999
 30
0.0
 11
256.31404277259003
 21
239.69615786636001
 31
0.0
  0
LINE
  5
2B4
  8
0
  6
CONTINUOUS
 62
     7
 10
259.02064218759
 20
241.04221866456001
 30
0.0
 11
258.66346106509002
 21
241.03816453976
 31
0.0
  0
LINE
  5
2B5
  8
0
  6
DOT
 62
     2
 10
262.34211632238998
 20
248.62205220856001
 30
0.0
 11
267.20200273439002
 21
248.62205220856001
 31
0.0
  0
LINE
  5
2B6
  8
0
  6
DOT
 62
     2
 10
267.62205952839003
 20
249.04210900256001
 30
0.0
 11
267.20200273439002
 21
248.62205220856001
 31
0.0
  0
LINE
  5
2B7
  8
0
  6
DOT
 62
     2
 10
267.20200273439002
 20
248.62205220856001
 30
0.0
 11
267.12205952839003
 21
244.04210900256001
 31
0.0
  0
LINE
  5
2B8
  8
0
  6
DOT
 62
     2
 10
262.34211632238998
 20
248.62205220856001
 30
0.0
 11
261.92205952838998
 21
249.04210900256001
 31
0.0
  0
LINE
  5
2B9
  8
0
  6
DOT
 62
     2
 10
262.42205952838998
 20
244.04210900256001
 30
0.0
 11
262.34211632238998
 21
248.62205220856001
 31
0.0
  0
LINE
  5
2BA
  8
0
  6
DOT
 62
     2
 10
261.01340818029001
 20
244.04210900256001
 30
0.0
 11
268.53071089679003
 21
244.04210900256001
 31
0.0
  0
LINE
  5
2BB
  8
0
  6
DOT
 62
     2
 10
260.46546945439002
 20
240.80006583496001
 30
0.0
 11
260.51348431239001
 21
243.55083520576
 31
0.0
  0
ARC
  5
2BC
  8
0
  6
DOT
 62
     2
 10
261.01340815999998
 20
243.54210900256001
 30
0.0
 40
0.5
 50
90.000000000702997
 51
179.00000000001
  0
LINE
  5
2BD
  8
0
  6
DOT
 62
     2
 10
269.03063474439
 20
243.55083520576
 30
0.0
 11
269.07864078349002
 21
240.80057106795999
 31
0.0
  0
ARC
  5
2BE
  8
0
  6
DOT
 62
     2
 10
268.53071089679003
 20
243.54210900256999
 30
0.0
 40
0.50000000000001
 50
0.9999999989398398
 51
89.999999999979991
  0
LINE
  5
2BF
  8
0
  6
DOT
 62
     2
 10
371.33116452398002
 20
91.469948199629997
 30
0.0
 11
371.33116452398002
 21
92.051298520930004
 31
0.0
  0
LINE
  5
2C0
  8
0
  6
DOT
 62
     2
 10
367.91946641068
 20
100.62557480453
 30
0.0
 11
373.83978106517998
 21
100.52223532783
 31
0.0
  0
LINE
  5
2C1
  8
0
  6
DOT
 62
     2
 10
374.33105486197991
 20
100.02231148023
 30
0.0
 11
374.33105486197991
 21
98.613660111830015
 31
0.0
  0
ARC
  5
2C2
  8
0
  6
DOT
 62
     2
 10
373.83105486199997
 20
100.02231148023
 30
0.0
 40
0.5000000000000201
 50
0.000000000029312
 51
89.000000001619995
  0
LINE
  5
2C3
  8
0
  6
DOT
 62
     2
 10
374.33105486197991
 20
98.613660111830015
 30
0.0
 11
378.91099806808
 21
98.693603317830011
 31
0.0
  0
LINE
  5
2C4
  8
0
  6
DOT
 62
     2
 10
374.33105486197991
 20
98.613660111830015
 30
0.0
 11
374.33105486197991
 21
93.913660111829998
 31
0.0
  0
LINE
  5
2C5
  8
0
  6
DOT
 62
     2
 10
378.91099806808
 20
93.83371690573
 30
0.0
 11
374.33105486197991
 21
93.913660111829998
 31
0.0
  0
LINE
  5
2C6
  8
0
  6
DOT
 62
     2
 10
373.83978106517998
 20
92.005084895729993
 30
0.0
 11
371.8224383207799
 21
91.969872047229984
 31
0.0
  0
ARC
  5
2C7
  8
0
  6
DOT
 62
     2
 10
373.83105486198002
 20
92.505008743344007
 30
0.0
 40
0.5
 50
270.9999999999701
 51
0.0
  0
LINE
  5
2C8
  8
0
  6
DOT
 62
     2
 10
374.33105486197991
 20
93.913660111829998
 30
0.0
 11
374.33105486197991
 21
92.505008743329995
 31
0.0
  0
ARC
  5
2C9
  8
0
  6
DOT
 62
     2
 10
371.83116452398002
 20
91.469948199633009
 30
0.0
 40
0.50000000000006
 50
91.000000000009024
 51
180.00000000041001
  0
ARC
  5
2CA
  8
0
  6
DOT
 62
     2
 10
367.92819261396011
 20
101.12549865213001
 30
0.0
 40
0.5000000000000301
 50
226.54676866253999
 51
269.00000000275998
  0
LINE
  5
2CB
  8
0
  6
DOT
 62
     2
 10
367.64996015897992
 20
100.71046241283
 30
0.0
 11
367.63097117467993
 21
100.72395471163
 31
0.0
  0
ARC
  5
2CC
  8
0
  6
DOT
 62
     2
 10
371.83116452398002
 20
91.469948199633009
 30
0.0
 40
0.50000000000006
 50
91.000000000009024
 51
180.00000000041001
  0
LINE
  5
2CD
  8
0
  6
CONTINUOUS
 62
     7
 10
379.33105486198002
 20
114.26366011183001
 30
0.0
 11
379.33105486198002
 21
140.26366011183001
 31
0.0
  0
LINE
  5
2CE
  8
0
  6
CONTINUOUS
 62
     7
 10
379.33105486198002
 20
114.26366011183001
 30
0.0
 11
379.33105486198002
 21
88.263660111830006
 31
0.0
  0
LINE
  5
2CF
  8
0
  6
DOT
 62
     2
 10
371.33116452398002
 20
137.05737202403
 30
0.0
 11
371.33116452398002
 21
136.47602170273001
 31
0.0
  0
LINE
  5
2D0
  8
0
  6
DOT
 62
     2
 10
367.91946641068
 20
127.90174541912999
 30
0.0
 11
373.83978106517998
 21
128.00508489583001
 31
0.0
  0
LINE
  5
2D1
  8
0
  6
DOT
 62
     2
 10
374.33105486197991
 20
128.50500874343001
 30
0.0
 11
374.33105486197991
 21
129.91366011183001
 31
0.0
  0
ARC
  5
2D2
  8
0
  6
DOT
 62
     2
 10
373.83105486199997
 20
128.50500874343001
 30
0.0
 40
0.5000000000000201
 50
270.99999999840003
 51
0.0
  0
LINE
  5
2D3
  8
0
  6
DOT
 62
     2
 10
374.33105486197991
 20
129.91366011183001
 30
0.0
 11
378.91099806808
 21
129.83371690582999
 31
0.0
  0
LINE
  5
2D4
  8
0
  6
DOT
 62
     2
 10
374.33105486197991
 20
129.91366011183001
 30
0.0
 11
374.33105486197991
 21
134.61366011183
 31
0.0
  0
LINE
  5
2D5
  8
0
  6
DOT
 62
     2
 10
378.91099806808
 20
134.69360331793001
 30
0.0
 11
374.33105486197991
 21
134.61366011183
 31
0.0
  0
LINE
  5
2D6
  8
0
  6
DOT
 62
     2
 10
373.83978106517998
 20
136.52223532792999
 30
0.0
 11
371.8224383207799
 21
136.55744817643
 31
0.0
  0
ARC
  5
2D7
  8
0
  6
DOT
 62
     2
 10
373.83105486198002
 20
136.02231148031001
 30
0.0
 40
0.5
 50
0.0000000017033524
 51
89.000000000027995
  0
LINE
  5
2D8
  8
0
  6
DOT
 62
     2
 10
374.33105486197991
 20
134.61366011183
 30
0.0
 11
374.33105486197991
 21
136.02231148032999
 31
0.0
  0
ARC
  5
2D9
  8
0
  6
DOT
 62
     2
 10
371.83116452398002
 20
137.05737202403
 30
0.0
 40
0.50000000000006
 50
179.99999999964001
 51
268.99999999999
  0
ARC
  5
2DA
  8
0
  6
DOT
 62
     2
 10
367.92819261396011
 20
127.40182157152999
 30
0.0
 40
0.5000000000000301
 50
90.999999997382986
 51
133.45323133757
  0
LINE
  5
2DB
  8
0
  6
DOT
 62
     2
 10
367.64996015897992
 20
127.81685781083
 30
0.0
 11
367.63097117467993
 21
127.80336551203
 31
0.0
  0
ARC
  5
2DC
  8
0
  6
DOT
 62
     2
 10
371.83116452398002
 20
137.05737202403
 30
0.0
 40
0.50000000000006
 50
179.99999999964001
 51
268.99999999999
  0
DIMENSION
  5
2DD
  8
0
  6
CONTINUOUS
 62
     6
  2
*D2
 10
66.456908458437994
 20
130.62543421686999
 30
0.0
 11
31.289285988534999
 21
145.85950320959989
 31
0.0
 70
   131
  1
\A1;%%c4.7穴%%c8.5ザグリ
 15
63.087210598345003
 25
133.90188600678999
 35
0.0
 40
17.152946069919999
  0
ARC
  5
2DE
  8
0
  6
CONTINUOUS
 62
     7
 10
494.66092282179
 20
114.26366011183001
 30
0.0
 40
440.01742786636993
 50
178.88686049730001
 51
181.11313950269999
  0
ARC
  5
2DF
  8
0
  6
CONTINUOUS
 62
     7
 10
56.225784187591998
 20
105.76382441713
 30
0.0
 40
1.500027228530699
 50
181.84378967428
 51
269.99823237229998
  0
LINE
  5
2E0
  8
0
  6
CONTINUOUS
 62
     7
 10
56.225737910391999
 20
104.26379718933001
 30
0.0
 11
56.227478883491997
 21
104.27761408563001
 31
0.0
  0
LINE
  5
2E1
  8
0
  6
CONTINUOUS
 62
     7
 10
56.227478883491997
 20
104.27761408563001
 30
0.0
 11
56.228600947491991
 21
104.31415979693
 31
0.0
  0
ARC
  5
2E2
  8
0
  6
CONTINUOUS
 62
     7
 10
56.225784187591998
 20
122.76349580643
 30
0.0
 40
1.500027228530699
 50
90.001767627704993
 51
178.15621032569999
  0
ARC
  5
2E3
  8
0
  6
CONTINUOUS
 62
     7
 10
72.954977614392007
 20
105.76382479223
 30
0.0
 40
1.500027603662399
 50
270.00183971521
 51
359.99816028480001
  0
POLYLINE
  5
2E4
  8
0
  6
CONTINUOUS
 62
     7
 10
74.455005217301391
 20
122.76354359593321
 30
0.0
 66
     1
 70
     8
  0
VERTEX
  8
0
  5
6E0
 10
74.4550
 20
122.764
 30
0.000000
  70
    32
  0
VERTEX
  8
0
  5
6E1
 10
74.4539
 20
122.760
 30
0.000000
  70
    32
  0
VERTEX
  8
0
  5
6E2
 10
74.4528
 20
122.751
 30
0.000000
  70
    32
  0
VERTEX
  8
0
  5
6E3
 10
74.4517
 20
122.737
 30
0.000000
  70
    32
  0
VERTEX
  8
0
  5
6E4
 10
74.4507
 20
122.719
 30
0.000000
  70
    32
  0
VERTEX
  8
0
  5
6E5
 10
74.4496
 20
122.695
 30
0.000000
  70
    32
  0
VERTEX
  8
0
  5
6E6
 10
74.4485
 20
122.666
 30
0.000000
  70
    32
  0
VERTEX
  8
0
  5
6E7
 10
74.4474
 20
122.632
 30
0.000000
  70
    32
  0
VERTEX
  8
0
  5
6E8
 10
74.4464
 20
122.593
 30
0.000000
  70
    32
  0
VERTEX
  8
0
  5
6E9
 10
74.4453
 20
122.549
 30
0.000000
  70
    32
  0
VERTEX
  8
0
  5
6EA
 10
74.4442
 20
122.500
 30
0.000000
  70
    32
  0
VERTEX
  8
0
  5
6EB
 10
74.4432
 20
122.446
 30
0.000000
  70
    32
  0
VERTEX
  8
0
  5
6EC
 10
74.4421
 20
122.387
 30
0.000000
  70
    32
  0
VERTEX
  8
0
  5
6ED
 10
74.4411
 20
122.323
 30
0.000000
  70
    32
  0
VERTEX
  8
0
  5
6EE
 10
74.4401
 20
122.255
 30
0.000000
  70
    32
  0
VERTEX
  8
0
  5
6EF
 10
74.4391
 20
122.182
 30
0.000000
  70
    32
  0
VERTEX
  8
0
  5
6F0
 10
74.4380
 20
122.104
 30
0.000000
  70
    32
  0
VERTEX
  8
0
  5
6F1
 10
74.4370
 20
122.021
 30
0.000000
  70
    32
  0
VERTEX
  8
0
  5
6F2
 10
74.4361
 20
121.934
 30
0.000000
  70
    32
  0
VERTEX
  8
0
  5
6F3
 10
74.4351
 20
121.842
 30
0.000000
  70
    32
  0
VERTEX
  8
0
  5
6F4
 10
74.4341
 20
121.746
 30
0.000000
  70
    32
  0
VERTEX
  8
0
  5
6F5
 10
74.4332
 20
121.645
 30
0.000000
  70
    32
  0
VERTEX
  8
0
  5
6F6
 10
74.4322
 20
121.539
 30
0.000000
  70
    32
  0
VERTEX
  8
0
  5
6F7
 10
74.4313
 20
121.430
 30
0.000000
  70
    32
  0
VERTEX
  8
0
  5
6F8
 10
74.4304
 20
121.316
 30
0.000000
  70
    32
  0
VERTEX
  8
0
  5
6F9
 10
74.4295
 20
121.197
 30
0.000000
  70
    32
  0
VERTEX
  8
0
  5
6FA
 10
74.4286
 20
121.075
 30
0.000000
  70
    32
  0
VERTEX
  8
0
  5
6FB
 10
74.4278
 20
120.949
 30
0.000000
  70
    32
  0
VERTEX
  8
0
  5
6FC
 10
74.4269
 20
120.818
 30
0.000000
  70
    32
  0
VERTEX
  8
0
  5
6FD
 10
74.4261
 20
120.684
 30
0.000000
  70
    32
  0
VERTEX
  8
0
  5
6FE
 10
74.4253
 20
120.546
 30
0.000000
  70
    32
  0
VERTEX
  8
0
  5
6FF
 10
74.4245
 20
120.404
 30
0.000000
  70
    32
  0
VERTEX
  8
0
  5
700
 10
74.4237
 20
120.258
 30
0.000000
  70
    32
  0
VERTEX
  8
0
  5
701
 10
74.4229
 20
120.109
 30
0.000000
  70
    32
  0
VERTEX
  8
0
  5
702
 10
74.4222
 20
119.956
 30
0.000000
  70
    32
  0
VERTEX
  8
0
  5
703
 10
74.4215
 20
119.800
 30
0.000000
  70
    32
  0
VERTEX
  8
0
  5
704
 10
74.4208
 20
119.641
 30
0.000000
  70
    32
  0
VERTEX
  8
0
  5
705
 10
74.4201
 20
119.478
 30
0.000000
  70
    32
  0
VERTEX
  8
0
  5
706
 10
74.4194
 20
119.313
 30
0.000000
  70
    32
  0
VERTEX
  8
0
  5
707
 10
74.4188
 20
119.144
 30
0.000000
  70
    32
  0
VERTEX
  8
0
  5
708
 10
74.4182
 20
118.972
 30
0.000000
  70
    32
  0
VERTEX
  8
0
  5
709
 10
74.4176
 20
118.798
 30
0.000000
  70
    32
  0
VERTEX
  8
0
  5
70A
 10
74.4170
 20
118.620
 30
0.000000
  70
    32
  0
VERTEX
  8
0
  5
70B
 10
74.4165
 20
118.441
 30
0.000000
  70
    32
  0
VERTEX
  8
0
  5
70C
 10
74.4160
 20
118.258
 30
0.000000
  70
    32
  0
VERTEX
  8
0
  5
70D
 10
74.4155
 20
118.074
 30
0.000000
  70
    32
  0
VERTEX
  8
0
  5
70E
 10
74.4150
 20
117.887
 30
0.000000
  70
    32
  0
VERTEX
  8
0
  5
70F
 10
74.4145
 20
117.697
 30
0.000000
  70
    32
  0
VERTEX
  8
0
  5
710
 10
74.4141
 20
117.506
 30
0.000000
  70
    32
  0
VERTEX
  8
0
  5
711
 10
74.4137
 20
117.313
 30
0.000000
  70
    32
  0
VERTEX
  8
0
  5
712
 10
74.4133
 20
117.118
 30
0.000000
  70
    32
  0
VERTEX
  8
0
  5
713
 10
74.4130
 20
116.921
 30
0.000000
  70
    32
  0
VERTEX
  8
0
  5
714
 10
74.4126
 20
116.723
 30
0.000000
  70
    32
  0
VERTEX
  8
0
  5
715
 10
74.4123
 20
116.523
 30
0.000000
  70
    32
  0
VERTEX
  8
0
  5
716
 10
74.4121
 20
116.322
 30
0.000000
  70
    32
  0
VERTEX
  8
0
  5
717
 10
74.4118
 20
116.120
 30
0.000000
  70
    32
  0
VERTEX
  8
0
  5
718
 10
74.4116
 20
115.916
 30
0.000000
  70
    32
  0
VERTEX
  8
0
  5
719
 10
74.4114
 20
115.712
 30
0.000000
  70
    32
  0
VERTEX
  8
0
  5
71A
 10
74.4112
 20
115.507
 30
0.000000
  70
    32
  0
VERTEX
  8
0
  5
71B
 10
74.4111
 20
115.301
 30
0.000000
  70
    32
  0
VERTEX
  8
0
  5
71C
 10
74.4109
 20
115.094
 30
0.000000
  70
    32
  0
VERTEX
  8
0
  5
71D
 10
74.4109
 20
114.887
 30
0.000000
  70
    32
  0
VERTEX
  8
0
  5
71E
 10
74.4108
 20
114.679
 30
0.000000
  70
    32
  0
VERTEX
  8
0
  5
71F
 10
74.4107
 20
114.472
 30
0.000000
  70
    32
  0
VERTEX
  8
0
  5
720
 10
74.4107
 20
114.264
 30
0.000000
  70
    32
  0
VERTEX
  8
0
  5
721
 10
74.4107
 20
114.056
 30
0.000000
  70
    32
  0
VERTEX
  8
0
  5
722
 10
74.4108
 20
113.848
 30
0.000000
  70
    32
  0
VERTEX
  8
0
  5
723
 10
74.4109
 20
113.640
 30
0.000000
  70
    32
  0
VERTEX
  8
0
  5
724
 10
74.4109
 20
113.433
 30
0.000000
  70
    32
  0
VERTEX
  8
0
  5
725
 10
74.4111
 20
113.227
 30
0.000000
  70
    32
  0
VERTEX
  8
0
  5
726
 10
74.4112
 20
113.021
 30
0.000000
  70
    32
  0
VERTEX
  8
0
  5
727
 10
74.4114
 20
112.815
 30
0.000000
  70
    32
  0
VERTEX
  8
0
  5
728
 10
74.4116
 20
112.611
 30
0.000000
  70
    32
  0
VERTEX
  8
0
  5
729
 10
74.4118
 20
112.407
 30
0.000000
  70
    32
  0
VERTEX
  8
0
  5
72A
 10
74.4121
 20
112.205
 30
0.000000
  70
    32
  0
VERTEX
  8
0
  5
72B
 10
74.4123
 20
112.004
 30
0.000000
  70
    32
  0
VERTEX
  8
0
  5
72C
 10
74.4126
 20
111.804
 30
0.000000
  70
    32
  0
VERTEX
  8
0
  5
72D
 10
74.4130
 20
111.606
 30
0.000000
  70
    32
  0
VERTEX
  8
0
  5
72E
 10
74.4133
 20
111.409
 30
0.000000
  70
    32
  0
VERTEX
  8
0
  5
72F
 10
74.4137
 20
111.214
 30
0.000000
  70
    32
  0
VERTEX
  8
0
  5
730
 10
74.4141
 20
111.021
 30
0.000000
  70
    32
  0
VERTEX
  8
0
  5
731
 10
74.4145
 20
110.830
 30
0.000000
  70
    32
  0
VERTEX
  8
0
  5
732
 10
74.4150
 20
110.641
 30
0.000000
  70
    32
  0
VERTEX
  8
0
  5
733
 10
74.4155
 20
110.454
 30
0.000000
  70
    32
  0
VERTEX
  8
0
  5
734
 10
74.4160
 20
110.269
 30
0.000000
  70
    32
  0
VERTEX
  8
0
  5
735
 10
74.4165
 20
110.087
 30
0.000000
  70
    32
  0
VERTEX
  8
0
  5
736
 10
74.4170
 20
109.907
 30
0.000000
  70
    32
  0
VERTEX
  8
0
  5
737
 10
74.4176
 20
109.730
 30
0.000000
  70
    32
  0
VERTEX
  8
0
  5
738
 10
74.4182
 20
109.555
 30
0.000000
  70
    32
  0
VERTEX
  8
0
  5
739
 10
74.4188
 20
109.384
 30
0.000000
  70
    32
  0
VERTEX
  8
0
  5
73A
 10
74.4194
 20
109.215
 30
0.000000
  70
    32
  0
VERTEX
  8
0
  5
73B
 10
74.4201
 20
109.049
 30
0.000000
  70
    32
  0
VERTEX
  8
0
  5
73C
 10
74.4208
 20
108.886
 30
0.000000
  70
    32
  0
VERTEX
  8
0
  5
73D
 10
74.4215
 20
108.727
 30
0.000000
  70
    32
  0
VERTEX
  8
0
  5
73E
 10
74.4222
 20
108.571
 30
0.000000
  70
    32
  0
VERTEX
  8
0
  5
73F
 10
74.4229
 20
108.418
 30
0.000000
  70
    32
  0
VERTEX
  8
0
  5
740
 10
74.4237
 20
108.269
 30
0.000000
  70
    32
  0
VERTEX
  8
0
  5
741
 10
74.4245
 20
108.123
 30
0.000000
  70
    32
  0
VERTEX
  8
0
  5
742
 10
74.4253
 20
107.981
 30
0.000000
  70
    32
  0
VERTEX
  8
0
  5
743
 10
74.4261
 20
107.843
 30
0.000000
  70
    32
  0
VERTEX
  8
0
  5
744
 10
74.4269
 20
107.709
 30
0.000000
  70
    32
  0
VERTEX
  8
0
  5
745
 10
74.4278
 20
107.579
 30
0.000000
  70
    32
  0
VERTEX
  8
0
  5
746
 10
74.4286
 20
107.452
 30
0.000000
  70
    32
  0
VERTEX
  8
0
  5
747
 10
74.4295
 20
107.330
 30
0.000000
  70
    32
  0
VERTEX
  8
0
  5
748
 10
74.4304
 20
107.212
 30
0.000000
  70
    32
  0
VERTEX
  8
0
  5
749
 10
74.4313
 20
107.098
 30
0.000000
  70
    32
  0
VERTEX
  8
0
  5
74A
 10
74.4322
 20
106.988
 30
0.000000
  70
    32
  0
VERTEX
  8
0
  5
74B
 10
74.4332
 20
106.883
 30
0.000000
  70
    32
  0
VERTEX
  8
0
  5
74C
 10
74.4341
 20
106.782
 30
0.000000
  70
    32
  0
VERTEX
  8
0
  5
74D
 10
74.4351
 20
106.685
 30
0.000000
  70
    32
  0
VERTEX
  8
0
  5
74E
 10
74.4361
 20
106.593
 30
0.000000
  70
    32
  0
VERTEX
  8
0
  5
74F
 10
74.4370
 20
106.506
 30
0.000000
  70
    32
  0
VERTEX
  8
0
  5
750
 10
74.4380
 20
106.424
 30
0.000000
  70
    32
  0
VERTEX
  8
0
  5
751
 10
74.4391
 20
106.346
 30
0.000000
  70
    32
  0
VERTEX
  8
0
  5
752
 10
74.4401
 20
106.272
 30
0.000000
  70
    32
  0
VERTEX
  8
0
  5
753
 10
74.4411
 20
106.204
 30
0.000000
  70
    32
  0
VERTEX
  8
0
  5
754
 10
74.4421
 20
106.140
 30
0.000000
  70
    32
  0
VERTEX
  8
0
  5
755
 10
74.4432
 20
106.081
 30
0.000000
  70
    32
  0
VERTEX
  8
0
  5
756
 10
74.4442
 20
106.028
 30
0.000000
  70
    32
  0
VERTEX
  8
0
  5
757
 10
74.4453
 20
105.979
 30
0.000000
  70
    32
  0
VERTEX
  8
0
  5
758
 10
74.4464
 20
105.935
 30
0.000000
  70
    32
  0
VERTEX
  8
0
  5
759
 10
74.4474
 20
105.896
 30
0.000000
  70
    32
  0
VERTEX
  8
0
  5
75A
 10
74.4485
 20
105.862
 30
0.000000
  70
    32
  0
VERTEX
  8
0
  5
75B
 10
74.4496
 20
105.833
 30
0.000000
  70
    32
  0
VERTEX
  8
0
  5
75C
 10
74.4507
 20
105.809
 30
0.000000
  70
    32
  0
VERTEX
  8
0
  5
75D
 10
74.4517
 20
105.790
 30
0.000000
  70
    32
  0
VERTEX
  8
0
  5
75E
 10
74.4528
 20
105.776
 30
0.000000
  70
    32
  0
VERTEX
  8
0
  5
75F
 10
74.4539
 20
105.767
 30
0.000000
  70
    32
  0
VERTEX
  8
0
  5
760
 10
74.4550
 20
105.764
 30
0.000000
  70
    32
  0
SEQEND
  8
0
  5
761
  0
ARC
  5
2E5
  8
0
  6
CONTINUOUS
 62
     7
 10
72.954977614392007
 20
122.76349543143
 30
0.0
 40
1.500027603662399
 50
0.0018397151981281
 51
89.998160284798999
  0
LINE
  5
2E6
  8
0
  6
CONTINUOUS
 62
     7
 10
72.955025778892008
 20
104.26379718933001
 30
0.0
 11
56.225737910391999
 21
104.26379718933001
 31
0.0
  0
LINE
  5
2E7
  8
0
  6
CONTINUOUS
 62
     7
 10
72.955025778892008
 20
124.26352303423
 30
0.0
 11
56.225737910391999
 21
124.26352303423
 31
0.0
  0
ARC
  5
2E8
  8
0
  6
CONTINUOUS
 62
     7
 10
320.52205952839
 20
114.26366011183001
 30
0.0
 40
266.25
 50
176.42017878349989
 51
183.57982121649999
  0
ARC
  5
2E9
  8
0
  6
CONTINUOUS
 62
     7
 10
64.772059528392006
 20
132.23798044173
 30
0.0
 40
4.316370875135199
 50
118.3481731756
 51
61.65182682439999
  0
ARC
  5
2EA
  8
0
  6
CONTINUOUS
 62
     7
 10
64.772059528392006
 20
96.289339781830009
 30
0.0
 40
4.316370875135199
 50
298.34817317559998
 51
241.65182682439999
  0
ARC
  5
2EB
  8
0
  6
CONTINUOUS
 62
     7
 10
64.772059528392006
 20
132.26366011183001
 30
0.0
 40
4.2937880646066002
 50
61.489118911703002
 51
118.5108810883
  0
ARC
  5
2EC
  8
0
  6
CONTINUOUS
 62
     7
 10
64.772059528392006
 20
96.263660111830021
 30
0.0
 40
4.2937880646066002
 50
241.48911891169999
 51
298.5108810883001
  0
ARC
  5
2ED
  8
0
  6
CONTINUOUS
 62
     7
 10
64.772059528392006
 20
98.263660111828997
 30
0.0
 40
10.0
 50
183.57982121649999
 51
0.0000000000029312
  0
ARC
  5
2EE
  8
0
  6
CONTINUOUS
 62
     7
 10
64.772059528392006
 20
130.26366011183001
 30
0.0
 40
10.0
 50
0.0
 51
176.42017878351001
  0
CIRCLE
  5
2EF
  8
0
  6
CONTINUOUS
 62
     7
 10
64.772059528392006
 20
96.263660111830021
 30
0.0
 40
2.3500000000000001
  0
CIRCLE
  5
2F0
  8
0
  6
CONTINUOUS
 62
     7
 10
64.772059528392006
 20
132.26366011183001
 30
0.0
 40
2.3500000000000001
  0
LINE
  5
2F1
  8
0
  6
DASHDOT
 62
     2
 10
51.891613669887001
 20
132.26366011183001
 30
0.0
 11
78.540385755558006
 21
132.26366011183001
 31
0.0
  0
LINE
  5
2F2
  8
0
  6
DASHDOT
 62
     2
 10
51.891613669887001
 20
96.263660111830021
 30
0.0
 11
78.540385755558006
 21
96.263660111830021
 31
0.0
  0
LINE
  5
2F3
  8
0
  6
CONTINUOUS
 62
     7
 10
69.071554788992003
 20
240.81425447705999
 30
0.0
 11
69.038757008491999
 21
240.83740309906
 31
0.0
  0
LINE
  5
2F4
  8
0
  6
CONTINUOUS
 62
     7
 10
69.038757008491999
 20
240.83740309906
 30
0.0
 11
68.954771908791997
 21
240.87718510856001
 31
0.0
  0
LINE
  5
2F5
  8
0
  6
CONTINUOUS
 62
     7
 10
68.954771908791997
 20
240.87718510856001
 30
0.0
 11
68.817880666991996
 21
240.92086035646
 31
0.0
  0
LINE
  5
2F6
  8
0
  6
CONTINUOUS
 62
     7
 10
68.817880666991996
 20
240.92086035646
 30
0.0
 11
68.628675866392001
 21
240.96116109255999
 31
0.0
  0
LINE
  5
2F7
  8
0
  6
CONTINUOUS
 62
     7
 10
68.628675866392001
 20
240.96116109255999
 30
0.0
 11
68.386092873991998
 21
240.99442315386
 31
0.0
  0
LINE
  5
2F8
  8
0
  6
CONTINUOUS
 62
     7
 10
68.386092873991998
 20
240.99442315386
 30
0.0
 11
68.091084498892002
 21
241.01862526916
 31
0.0
  0
LINE
  5
2F9
  8
0
  6
CONTINUOUS
 62
     7
 10
68.091084498892002
 20
241.01862526916
 30
0.0
 11
67.752309154992005
 21
241.03362667665999
 31
0.0
  0
LINE
  5
2FA
  8
0
  6
CONTINUOUS
 62
     7
 10
67.752309154992005
 20
241.03362667665999
 30
0.0
 11
67.365266939191983
 21
241.04092207796
 31
0.0
  0
LINE
  5
2FB
  8
0
  6
CONTINUOUS
 62
     7
 10
67.365266939191983
 20
241.04092207796
 30
0.0
 11
67.171404743991999
 21
241.04143766295999
 31
0.0
  0
LINE
  5
2FC
  8
0
  6
CONTINUOUS
 62
     7
 10
62.483927743991998
 20
241.04227435376001
 30
0.0
 11
62.061568750691997
 21
241.03959640325999
 31
0.0
  0
LINE
  5
2FD
  8
0
  6
CONTINUOUS
 62
     7
 10
62.061568750691997
 20
241.03959640325999
 30
0.0
 11
61.675778434891988
 21
241.02969127136001
 31
0.0
  0
LINE
  5
2FE
  8
0
  6
CONTINUOUS
 62
     7
 10
61.675778434891988
 20
241.02969127136001
 30
0.0
 11
61.334906630192002
 21
241.01052941596001
 31
0.0
  0
LINE
  5
2FF
  8
0
  6
CONTINUOUS
 62
     7
 10
61.334906630192002
 20
241.01052941596001
 30
0.0
 11
61.047274927491998
 21
240.98098479315999
 31
0.0
  0
LINE
  5
300
  8
0
  6
CONTINUOUS
 62
     7
 10
61.047274927491998
 20
240.98098479315999
 30
0.0
 11
60.816967041792012
 21
240.94198194206001
 31
0.0
  0
LINE
  5
301
  8
0
  6
CONTINUOUS
 62
     7
 10
60.816967041792012
 20
240.94198194206001
 30
0.0
 11
60.642153543791999
 21
240.89596436276
 31
0.0
  0
LINE
  5
302
  8
0
  6
CONTINUOUS
 62
     7
 10
60.642153543791999
 20
240.89596436276
 30
0.0
 11
60.531159985892003
 21
240.85148596536001
 31
0.0
  0
LINE
  5
303
  8
0
  6
CONTINUOUS
 62
     7
 10
60.531159985892003
 20
240.85148596536001
 30
0.0
 11
60.479768447592001
 21
240.82015279036
 31
0.0
  0
LINE
  5
304
  8
0
  6
CONTINUOUS
 62
     7
 10
74.730055722591999
 20
241.02004632076
 30
0.0
 11
74.772059528392006
 21
249.04210900256001
 31
0.0
  0
LINE
  5
305
  8
0
  6
CONTINUOUS
 62
     7
 10
54.791571723491998
 20
249.04210900256001
 30
0.0
 11
74.772059528392006
 21
249.04210900256001
 31
0.0
  0
LINE
  5
306
  8
0
  6
CONTINUOUS
 62
     7
 10
59.020642187592003
 20
241.04221866456001
 30
0.0
 11
70.523476869191995
 21
241.04221866456001
 31
0.0
  0
LINE
  5
307
  8
0
  6
CONTINUOUS
 62
     7
 10
54.272059528391999
 20
249.04210900256001
 30
0.0
 11
54.791571723491998
 21
249.04210900256001
 31
0.0
  0
LINE
  5
308
  8
0
  6
CONTINUOUS
 62
     7
 10
74.667668378792001
 20
229.10505023056001
 30
0.0
 11
74.730055722591999
 21
241.02004632076
 31
0.0
  0
LINE
  5
309
  8
0
  6
CONTINUOUS
 62
     7
 10
74.455005217291998
 20
188.48974936426001
 30
0.0
 11
74.667668378792001
 21
229.10505023056001
 31
0.0
  0
LINE
  5
30A
  8
0
  6
CONTINUOUS
 62
     7
 10
56.871544261792003
 20
240.70544662206001
 30
0.0
 11
57.123636689491988
 21
240.82002883876001
 31
0.0
  0
LINE
  5
30B
  8
0
  6
CONTINUOUS
 62
     7
 10
57.123636689491988
 20
240.82002883876001
 30
0.0
 11
57.422808707391987
 21
240.90826745176
 31
0.0
  0
LINE
  5
30C
  8
0
  6
CONTINUOUS
 62
     7
 10
57.760345446392002
 20
240.97097870616
 30
0.0
 11
58.138842528491999
 21
241.01233406786
 31
0.0
  0
LINE
  5
30D
  8
0
  6
CONTINUOUS
 62
     7
 10
57.422808707391987
 20
240.90826745176
 30
0.0
 11
57.760345446392002
 21
240.97097870616
 31
0.0
  0
LINE
  5
30E
  8
0
  6
CONTINUOUS
 62
     7
 10
58.138842528491999
 20
241.01233406786
 30
0.0
 11
58.561806205591999
 21
241.03528888426001
 31
0.0
  0
LINE
  5
30F
  8
0
  6
CONTINUOUS
 62
     7
 10
58.561806205591999
 20
241.03528888426001
 30
0.0
 11
59.020642187592003
 21
241.04221866456001
 31
0.0
  0
LINE
  5
310
  8
0
  6
CONTINUOUS
 62
     7
 10
56.394728819591997
 20
240.17944893745999
 30
0.0
 11
56.515982424092002
 21
240.40031698196
 31
0.0
  0
LINE
  5
311
  8
0
  6
CONTINUOUS
 62
     7
 10
56.515982424092002
 20
240.40031698196
 30
0.0
 11
56.670629828091997
 21
240.56620608886001
 31
0.0
  0
LINE
  5
312
  8
0
  6
CONTINUOUS
 62
     7
 10
56.670629828091997
 20
240.56620608886001
 30
0.0
 11
56.871544261792003
 21
240.70544662206001
 31
0.0
  0
LINE
  5
313
  8
0
  6
CONTINUOUS
 62
     7
 10
56.329191020592013
 20
239.92667132176001
 30
0.0
 11
56.394728819591997
 21
240.17944893745999
 31
0.0
  0
ARC
  5
314
  8
0
  6
CONTINUOUS
 62
     7
 10
64.776941846192003
 20
242.22836826736
 30
0.0
 40
4.5328283195390986
 50
198.4294710179
 51
341.54160447020001
  0
LINE
  5
315
  8
0
  6
CONTINUOUS
 62
     7
 10
70.880657991692004
 20
241.03816453976
 30
0.0
 11
71.539157202791998
 21
241.00042979316001
 31
0.0
  0
LINE
  5
316
  8
0
  6
CONTINUOUS
 62
     7
 10
71.539157202791998
 20
241.00042979316001
 30
0.0
 11
71.838098445192003
 21
240.96283736736001
 31
0.0
  0
LINE
  5
317
  8
0
  6
CONTINUOUS
 62
     7
 10
71.838098445192003
 20
240.96283736736001
 30
0.0
 11
72.161087334892002
 21
240.89865796736001
 31
0.0
  0
LINE
  5
318
  8
0
  6
CONTINUOUS
 62
     7
 10
72.161087334892002
 20
240.89865796736001
 30
0.0
 11
72.446674929491991
 21
240.81022266106001
 31
0.0
  0
LINE
  5
319
  8
0
  6
CONTINUOUS
 62
     7
 10
72.446674929491991
 20
240.81022266106001
 30
0.0
 11
72.695215776791997
 21
240.69245375846
 31
0.0
  0
LINE
  5
31A
  8
0
  6
CONTINUOUS
 62
     7
 10
72.695215776791997
 20
240.69245375846
 30
0.0
 11
72.898455137092
 21
240.54408408846001
 31
0.0
  0
LINE
  5
31B
  8
0
  6
CONTINUOUS
 62
     7
 10
72.898455137092
 20
240.54408408846001
 30
0.0
 11
73.04466527529199
 21
240.37713580746001
 31
0.0
  0
LINE
  5
31C
  8
0
  6
CONTINUOUS
 62
     7
 10
73.04466527529199
 20
240.37713580746001
 30
0.0
 11
73.148569230891994
 21
240.18154158376001
 31
0.0
  0
LINE
  5
31D
  8
0
  6
CONTINUOUS
 62
     7
 10
73.148569230891994
 20
240.18154158376001
 30
0.0
 11
73.210766464792002
 21
239.95331236525999
 31
0.0
  0
LINE
  5
31E
  8
0
  6
CONTINUOUS
 62
     7
 10
73.210766464792002
 20
239.95331236525999
 30
0.0
 11
73.230076284191995
 21
239.69615786636001
 31
0.0
  0
LINE
  5
31F
  8
0
  6
CONTINUOUS
 62
     7
 10
70.523476869191995
 20
241.04221866456001
 30
0.0
 11
70.880657991692004
 21
241.03816453976
 31
0.0
  0
LINE
  5
320
  8
0
  6
DOT
 62
     2
 10
67.202002734392011
 20
248.62205220856001
 30
0.0
 11
62.342116322391988
 21
248.62205220856001
 31
0.0
  0
LINE
  5
321
  8
0
  6
DOT
 62
     2
 10
61.922059528391991
 20
249.04210900256001
 30
0.0
 11
62.342116322391988
 21
248.62205220856001
 31
0.0
  0
LINE
  5
322
  8
0
  6
DOT
 62
     2
 10
62.342116322391988
 20
248.62205220856001
 30
0.0
 11
62.422059528391991
 21
244.04210900256001
 31
0.0
  0
LINE
  5
323
  8
0
  6
DOT
 62
     2
 10
67.202002734392011
 20
248.62205220856001
 30
0.0
 11
67.622059528392001
 21
249.04210900256001
 31
0.0
  0
LINE
  5
324
  8
0
  6
DOT
 62
     2
 10
67.122059528392001
 20
244.04210900256001
 30
0.0
 11
67.202002734392011
 21
248.62205220856001
 31
0.0
  0
LINE
  5
325
  8
0
  6
DOT
 62
     2
 10
68.530710876492009
 20
244.04210900256001
 30
0.0
 11
61.013408159991997
 21
244.04210900256001
 31
0.0
  0
LINE
  5
326
  8
0
  6
DOT
 62
     2
 10
69.078649602391991
 20
240.80006583496001
 30
0.0
 11
69.030634744392003
 21
243.55083520576
 31
0.0
  0
ARC
  5
327
  8
0
  6
DOT
 62
     2
 10
68.530710896786985
 20
243.54210900256001
 30
0.0
 40
0.5
 50
0.9999999999923298
 51
89.999999999445976
  0
LINE
  5
328
  8
0
  6
DOT
 62
     2
 10
60.513484312391988
 20
243.55083520576
 30
0.0
 11
60.465478273292
 21
240.80057106795999
 31
0.0
  0
ARC
  5
329
  8
0
  6
DOT
 62
     2
 10
61.013408159991997
 20
243.54210900256001
 30
0.0
 40
0.50000000000001
 50
90.000000000002004
 51
179.00000000013
  0
LINE
  5
32A
  8
0
  6
CONTINUOUS
 62
     7
 10
162.77205952839
 20
122.26366011183001
 30
0.0
 11
74.447129808149
 21
122.26366011183001
 31
0.0
  0
LINE
  5
32B
  8
0
  6
CONTINUOUS
 62
     7
 10
74.772059528392006
 20
130.26366011183001
 30
0.0
 11
74.772059528392006
 21
122.26366011183001
 31
0.0
  0
LINE
  5
32C
  8
0
  6
CONTINUOUS
 62
     7
 10
162.77205952839
 20
106.26366011183001
 30
0.0
 11
74.447129808149
 21
106.26366011183001
 31
0.0
  0
POLYLINE
  5
32D
  8
0
  6
CONTINUOUS
 62
     7
 10
74.463428940234337
 20
122.26366011183106
 30
0.0
 66
     1
 70
     8
  0
VERTEX
  8
0
  5
762
 10
74.4634
 20
122.264
 30
0.000000
  70
    32
  0
VERTEX
  8
0
  5
763
 10
74.4623
 20
122.303
 30
0.000000
  70
    32
  0
VERTEX
  8
0
  5
764
 10
74.4611
 20
122.337
 30
0.000000
  70
    32
  0
VERTEX
  8
0
  5
765
 10
74.4599
 20
122.365
 30
0.000000
  70
    32
  0
VERTEX
  8
0
  5
766
 10
74.4588
 20
122.386
 30
0.000000
  70
    32
  0
VERTEX
  8
0
  5
767
 10
74.4576
 20
122.402
 30
0.000000
  70
    32
  0
VERTEX
  8
0
  5
768
 10
74.4564
 20
122.411
 30
0.000000
  70
    32
  0
VERTEX
  8
0
  5
769
 10
74.4553
 20
122.414
 30
0.000000
  70
    32
  0
VERTEX
  8
0
  5
76A
 10
74.4541
 20
122.410
 30
0.000000
  70
    32
  0
VERTEX
  8
0
  5
76B
 10
74.4529
 20
122.401
 30
0.000000
  70
    32
  0
VERTEX
  8
0
  5
76C
 10
74.4517
 20
122.385
 30
0.000000
  70
    32
  0
VERTEX
  8
0
  5
76D
 10
74.4506
 20
122.364
 30
0.000000
  70
    32
  0
VERTEX
  8
0
  5
76E
 10
74.4494
 20
122.336
 30
0.000000
  70
    32
  0
VERTEX
  8
0
  5
76F
 10
74.4482
 20
122.302
 30
0.000000
  70
    32
  0
VERTEX
  8
0
  5
770
 10
74.4471
 20
122.262
 30
0.000000
  70
    32
  0
VERTEX
  8
0
  5
771
 10
74.4459
 20
122.215
 30
0.000000
  70
    32
  0
VERTEX
  8
0
  5
772
 10
74.4448
 20
122.163
 30
0.000000
  70
    32
  0
VERTEX
  8
0
  5
773
 10
74.4436
 20
122.105
 30
0.000000
  70
    32
  0
VERTEX
  8
0
  5
774
 10
74.4425
 20
122.041
 30
0.000000
  70
    32
  0
VERTEX
  8
0
  5
775
 10
74.4414
 20
121.971
 30
0.000000
  70
    32
  0
VERTEX
  8
0
  5
776
 10
74.4403
 20
121.895
 30
0.000000
  70
    32
  0
VERTEX
  8
0
  5
777
 10
74.4392
 20
121.813
 30
0.000000
  70
    32
  0
VERTEX
  8
0
  5
778
 10
74.4381
 20
121.726
 30
0.000000
  70
    32
  0
VERTEX
  8
0
  5
779
 10
74.4370
 20
121.632
 30
0.000000
  70
    32
  0
VERTEX
  8
0
  5
77A
 10
74.4360
 20
121.534
 30
0.000000
  70
    32
  0
VERTEX
  8
0
  5
77B
 10
74.4350
 20
121.430
 30
0.000000
  70
    32
  0
VERTEX
  8
0
  5
77C
 10
74.4339
 20
121.320
 30
0.000000
  70
    32
  0
VERTEX
  8
0
  5
77D
 10
74.4329
 20
121.205
 30
0.000000
  70
    32
  0
VERTEX
  8
0
  5
77E
 10
74.4319
 20
121.085
 30
0.000000
  70
    32
  0
VERTEX
  8
0
  5
77F
 10
74.4309
 20
120.959
 30
0.000000
  70
    32
  0
VERTEX
  8
0
  5
780
 10
74.4300
 20
120.829
 30
0.000000
  70
    32
  0
VERTEX
  8
0
  5
781
 10
74.4291
 20
120.693
 30
0.000000
  70
    32
  0
VERTEX
  8
0
  5
782
 10
74.4281
 20
120.553
 30
0.000000
  70
    32
  0
VERTEX
  8
0
  5
783
 10
74.4272
 20
120.408
 30
0.000000
  70
    32
  0
VERTEX
  8
0
  5
784
 10
74.4264
 20
120.258
 30
0.000000
  70
    32
  0
VERTEX
  8
0
  5
785
 10
74.4255
 20
120.104
 30
0.000000
  70
    32
  0
VERTEX
  8
0
  5
786
 10
74.4247
 20
119.945
 30
0.000000
  70
    32
  0
VERTEX
  8
0
  5
787
 10
74.4239
 20
119.782
 30
0.000000
  70
    32
  0
VERTEX
  8
0
  5
788
 10
74.4231
 20
119.614
 30
0.000000
  70
    32
  0
VERTEX
  8
0
  5
789
 10
74.4223
 20
119.443
 30
0.000000
  70
    32
  0
VERTEX
  8
0
  5
78A
 10
74.4216
 20
119.268
 30
0.000000
  70
    32
  0
VERTEX
  8
0
  5
78B
 10
74.4209
 20
119.089
 30
0.000000
  70
    32
  0
VERTEX
  8
0
  5
78C
 10
74.4202
 20
118.906
 30
0.000000
  70
    32
  0
VERTEX
  8
0
  5
78D
 10
74.4195
 20
118.720
 30
0.000000
  70
    32
  0
VERTEX
  8
0
  5
78E
 10
74.4189
 20
118.530
 30
0.000000
  70
    32
  0
VERTEX
  8
0
  5
78F
 10
74.4183
 20
118.337
 30
0.000000
  70
    32
  0
VERTEX
  8
0
  5
790
 10
74.4177
 20
118.141
 30
0.000000
  70
    32
  0
VERTEX
  8
0
  5
791
 10
74.4172
 20
117.942
 30
0.000000
  70
    32
  0
VERTEX
  8
0
  5
792
 10
74.4167
 20
117.741
 30
0.000000
  70
    32
  0
VERTEX
  8
0
  5
793
 10
74.4162
 20
117.536
 30
0.000000
  70
    32
  0
VERTEX
  8
0
  5
794
 10
74.4157
 20
117.329
 30
0.000000
  70
    32
  0
VERTEX
  8
0
  5
795
 10
74.4153
 20
117.120
 30
0.000000
  70
    32
  0
VERTEX
  8
0
  5
796
 10
74.4149
 20
116.909
 30
0.000000
  70
    32
  0
VERTEX
  8
0
  5
797
 10
74.4145
 20
116.696
 30
0.000000
  70
    32
  0
VERTEX
  8
0
  5
798
 10
74.4142
 20
116.480
 30
0.000000
  70
    32
  0
VERTEX
  8
0
  5
799
 10
74.4139
 20
116.264
 30
0.000000
  70
    32
  0
VERTEX
  8
0
  5
79A
 10
74.4136
 20
116.045
 30
0.000000
  70
    32
  0
VERTEX
  8
0
  5
79B
 10
74.4134
 20
115.825
 30
0.000000
  70
    32
  0
VERTEX
  8
0
  5
79C
 10
74.4132
 20
115.605
 30
0.000000
  70
    32
  0
VERTEX
  8
0
  5
79D
 10
74.4130
 20
115.383
 30
0.000000
  70
    32
  0
VERTEX
  8
0
  5
79E
 10
74.4129
 20
115.160
 30
0.000000
  70
    32
  0
VERTEX
  8
0
  5
79F
 10
74.4128
 20
114.936
 30
0.000000
  70
    32
  0
VERTEX
  8
0
  5
7A0
 10
74.4127
 20
114.712
 30
0.000000
  70
    32
  0
VERTEX
  8
0
  5
7A1
 10
74.4126
 20
114.488
 30
0.000000
  70
    32
  0
VERTEX
  8
0
  5
7A2
 10
74.4126
 20
114.264
 30
0.000000
  70
    32
  0
VERTEX
  8
0
  5
7A3
 10
74.4126
 20
114.039
 30
0.000000
  70
    32
  0
VERTEX
  8
0
  5
7A4
 10
74.4127
 20
113.815
 30
0.000000
  70
    32
  0
VERTEX
  8
0
  5
7A5
 10
74.4128
 20
113.591
 30
0.000000
  70
    32
  0
VERTEX
  8
0
  5
7A6
 10
74.4129
 20
113.367
 30
0.000000
  70
    32
  0
VERTEX
  8
0
  5
7A7
 10
74.4130
 20
113.145
 30
0.000000
  70
    32
  0
VERTEX
  8
0
  5
7A8
 10
74.4132
 20
112.923
 30
0.000000
  70
    32
  0
VERTEX
  8
0
  5
7A9
 10
74.4134
 20
112.702
 30
0.000000
  70
    32
  0
VERTEX
  8
0
  5
7AA
 10
74.4136
 20
112.482
 30
0.000000
  70
    32
  0
VERTEX
  8
0
  5
7AB
 10
74.4139
 20
112.264
 30
0.000000
  70
    32
  0
VERTEX
  8
0
  5
7AC
 10
74.4142
 20
112.047
 30
0.000000
  70
    32
  0
VERTEX
  8
0
  5
7AD
 10
74.4145
 20
111.832
 30
0.000000
  70
    32
  0
VERTEX
  8
0
  5
7AE
 10
74.4149
 20
111.618
 30
0.000000
  70
    32
  0
VERTEX
  8
0
  5
7AF
 10
74.4153
 20
111.407
 30
0.000000
  70
    32
  0
VERTEX
  8
0
  5
7B0
 10
74.4157
 20
111.198
 30
0.000000
  70
    32
  0
VERTEX
  8
0
  5
7B1
 10
74.4162
 20
110.991
 30
0.000000
  70
    32
  0
VERTEX
  8
0
  5
7B2
 10
74.4167
 20
110.787
 30
0.000000
  70
    32
  0
VERTEX
  8
0
  5
7B3
 10
74.4172
 20
110.585
 30
0.000000
  70
    32
  0
VERTEX
  8
0
  5
7B4
 10
74.4177
 20
110.386
 30
0.000000
  70
    32
  0
VERTEX
  8
0
  5
7B5
 10
74.4183
 20
110.190
 30
0.000000
  70
    32
  0
VERTEX
  8
0
  5
7B6
 10
74.4189
 20
109.997
 30
0.000000
  70
    32
  0
VERTEX
  8
0
  5
7B7
 10
74.4195
 20
109.808
 30
0.000000
  70
    32
  0
VERTEX
  8
0
  5
7B8
 10
74.4202
 20
109.621
 30
0.000000
  70
    32
  0
VERTEX
  8
0
  5
7B9
 10
74.4209
 20
109.439
 30
0.000000
  70
    32
  0
VERTEX
  8
0
  5
7BA
 10
74.4216
 20
109.260
 30
0.000000
  70
    32
  0
VERTEX
  8
0
  5
7BB
 10
74.4223
 20
109.084
 30
0.000000
  70
    32
  0
VERTEX
  8
0
  5
7BC
 10
74.4231
 20
108.913
 30
0.000000
  70
    32
  0
VERTEX
  8
0
  5
7BD
 10
74.4239
 20
108.746
 30
0.000000
  70
    32
  0
VERTEX
  8
0
  5
7BE
 10
74.4247
 20
108.583
 30
0.000000
  70
    32
  0
VERTEX
  8
0
  5
7BF
 10
74.4255
 20
108.424
 30
0.000000
  70
    32
  0
VERTEX
  8
0
  5
7C0
 10
74.4264
 20
108.269
 30
0.000000
  70
    32
  0
VERTEX
  8
0
  5
7C1
 10
74.4272
 20
108.120
 30
0.000000
  70
    32
  0
VERTEX
  8
0
  5
7C2
 10
74.4281
 20
107.974
 30
0.000000
  70
    32
  0
VERTEX
  8
0
  5
7C3
 10
74.4291
 20
107.834
 30
0.000000
  70
    32
  0
VERTEX
  8
0
  5
7C4
 10
74.4300
 20
107.699
 30
0.000000
  70
    32
  0
VERTEX
  8
0
  5
7C5
 10
74.4309
 20
107.568
 30
0.000000
  70
    32
  0
VERTEX
  8
0
  5
7C6
 10
74.4319
 20
107.443
 30
0.000000
  70
    32
  0
VERTEX
  8
0
  5
7C7
 10
74.4329
 20
107.322
 30
0.000000
  70
    32
  0
VERTEX
  8
0
  5
7C8
 10
74.4339
 20
107.207
 30
0.000000
  70
    32
  0
VERTEX
  8
0
  5
7C9
 10
74.4350
 20
107.098
 30
0.000000
  70
    32
  0
VERTEX
  8
0
  5
7CA
 10
74.4360
 20
106.994
 30
0.000000
  70
    32
  0
VERTEX
  8
0
  5
7CB
 10
74.4370
 20
106.895
 30
0.000000
  70
    32
  0
VERTEX
  8
0
  5
7CC
 10
74.4381
 20
106.802
 30
0.000000
  70
    32
  0
VERTEX
  8
0
  5
7CD
 10
74.4392
 20
106.714
 30
0.000000
  70
    32
  0
VERTEX
  8
0
  5
7CE
 10
74.4403
 20
106.633
 30
0.000000
  70
    32
  0
VERTEX
  8
0
  5
7CF
 10
74.4414
 20
106.557
 30
0.000000
  70
    32
  0
VERTEX
  8
0
  5
7D0
 10
74.4425
 20
106.487
 30
0.000000
  70
    32
  0
VERTEX
  8
0
  5
7D1
 10
74.4436
 20
106.422
 30
0.000000
  70
    32
  0
VERTEX
  8
0
  5
7D2
 10
74.4448
 20
106.364
 30
0.000000
  70
    32
  0
VERTEX
  8
0
  5
7D3
 10
74.4459
 20
106.312
 30
0.000000
  70
    32
  0
VERTEX
  8
0
  5
7D4
 10
74.4471
 20
106.266
 30
0.000000
  70
    32
  0
VERTEX
  8
0
  5
7D5
 10
74.4482
 20
106.226
 30
0.000000
  70
    32
  0
VERTEX
  8
0
  5
7D6
 10
74.4494
 20
106.192
 30
0.000000
  70
    32
  0
VERTEX
  8
0
  5
7D7
 10
74.4506
 20
106.164
 30
0.000000
  70
    32
  0
VERTEX
  8
0
  5
7D8
 10
74.4517
 20
106.142
 30
0.000000
  70
    32
  0
VERTEX
  8
0
  5
7D9
 10
74.4529
 20
106.126
 30
0.000000
  70
    32
  0
VERTEX
  8
0
  5
7DA
 10
74.4541
 20
106.117
 30
0.000000
  70
    32
  0
VERTEX
  8
0
  5
7DB
 10
74.4553
 20
106.114
 30
0.000000
  70
    32
  0
VERTEX
  8
0
  5
7DC
 10
74.4564
 20
106.117
 30
0.000000
  70
    32
  0
VERTEX
  8
0
  5
7DD
 10
74.4576
 20
106.126
 30
0.000000
  70
    32
  0
VERTEX
  8
0
  5
7DE
 10
74.4588
 20
106.141
 30
0.000000
  70
    32
  0
VERTEX
  8
0
  5
7DF
 10
74.4599
 20
106.162
 30
0.000000
  70
    32
  0
VERTEX
  8
0
  5
7E0
 10
74.4611
 20
106.190
 30
0.000000
  70
    32
  0
VERTEX
  8
0
  5
7E1
 10
74.4623
 20
106.224
 30
0.000000
  70
    32
  0
VERTEX
  8
0
  5
7E2
 10
74.4634
 20
106.264
 30
0.000000
  70
    32
  0
SEQEND
  8
0
  5
7E3
  0
LINE
  5
32E
  8
0
  6
CONTINUOUS
 62
     7
 10
74.772059528392006
 20
106.26366011183001
 30
0.0
 11
74.772059528392006
 21
98.263660111830006
 31
0.0
  0
ARC
  5
32F
  8
0
  6
CONTINUOUS
 62
     7
 10
-165.11680376500999
 20
114.26366011183001
 30
0.0
 40
440.01742786636993
 50
358.88686049730001
 51
1.1131395026999991
  0
ARC
  5
330
  8
0
  6
CONTINUOUS
 62
     7
 10
273.31833486918998
 20
105.76382441713
 30
0.0
 40
1.500027228530699
 50
270.00176762770002
 51
358.15621032576001
  0
LINE
  5
331
  8
0
  6
CONTINUOUS
 62
     7
 10
273.31838114638998
 20
104.26379718933001
 30
0.0
 11
273.31664017329001
 21
104.27761408563001
 31
0.0
  0
LINE
  5
332
  8
0
  6
CONTINUOUS
 62
     7
 10
273.31664017329001
 20
104.27761408563001
 30
0.0
 11
273.31551810929
 21
104.31415979693
 31
0.0
  0
ARC
  5
333
  8
0
  6
CONTINUOUS
 62
     7
 10
273.31833486918998
 20
122.76349580643
 30
0.0
 40
1.500027228530699
 50
1.8437896742985
 51
89.998232372249007
  0
ARC
  5
334
  8
0
  6
CONTINUOUS
 62
     7
 10
256.58914144238997
 20
105.76382479223
 30
0.0
 40
1.500027603662399
 50
180.00183971519999
 51
269.99816028469002
  0
POLYLINE
  5
335
  8
0
  6
CONTINUOUS
 62
     7
 10
255.08911383948083
 20
105.76377662772703
 30
0.0
 66
     1
 70
     8
  0
VERTEX
  8
0
  5
7E4
 10
255.089
 20
105.764
 30
0.000000
  70
    32
  0
VERTEX
  8
0
  5
7E5
 10
255.090
 20
105.767
 30
0.000000
  70
    32
  0
VERTEX
  8
0
  5
7E6
 10
255.091
 20
105.776
 30
0.000000
  70
    32
  0
VERTEX
  8
0
  5
7E7
 10
255.092
 20
105.790
 30
0.000000
  70
    32
  0
VERTEX
  8
0
  5
7E8
 10
255.093
 20
105.809
 30
0.000000
  70
    32
  0
VERTEX
  8
0
  5
7E9
 10
255.095
 20
105.833
 30
0.000000
  70
    32
  0
VERTEX
  8
0
  5
7EA
 10
255.096
 20
105.862
 30
0.000000
  70
    32
  0
VERTEX
  8
0
  5
7EB
 10
255.097
 20
105.896
 30
0.000000
  70
    32
  0
VERTEX
  8
0
  5
7EC
 10
255.098
 20
105.935
 30
0.000000
  70
    32
  0
VERTEX
  8
0
  5
7ED
 10
255.099
 20
105.979
 30
0.000000
  70
    32
  0
VERTEX
  8
0
  5
7EE
 10
255.100
 20
106.028
 30
0.000000
  70
    32
  0
VERTEX
  8
0
  5
7EF
 10
255.101
 20
106.081
 30
0.000000
  70
    32
  0
VERTEX
  8
0
  5
7F0
 10
255.102
 20
106.140
 30
0.000000
  70
    32
  0
VERTEX
  8
0
  5
7F1
 10
255.103
 20
106.204
 30
0.000000
  70
    32
  0
VERTEX
  8
0
  5
7F2
 10
255.104
 20
106.272
 30
0.000000
  70
    32
  0
VERTEX
  8
0
  5
7F3
 10
255.105
 20
106.346
 30
0.000000
  70
    32
  0
VERTEX
  8
0
  5
7F4
 10
255.106
 20
106.424
 30
0.000000
  70
    32
  0
VERTEX
  8
0
  5
7F5
 10
255.107
 20
106.506
 30
0.000000
  70
    32
  0
VERTEX
  8
0
  5
7F6
 10
255.108
 20
106.593
 30
0.000000
  70
    32
  0
VERTEX
  8
0
  5
7F7
 10
255.109
 20
106.685
 30
0.000000
  70
    32
  0
VERTEX
  8
0
  5
7F8
 10
255.110
 20
106.782
 30
0.000000
  70
    32
  0
VERTEX
  8
0
  5
7F9
 10
255.111
 20
106.883
 30
0.000000
  70
    32
  0
VERTEX
  8
0
  5
7FA
 10
255.112
 20
106.988
 30
0.000000
  70
    32
  0
VERTEX
  8
0
  5
7FB
 10
255.113
 20
107.098
 30
0.000000
  70
    32
  0
VERTEX
  8
0
  5
7FC
 10
255.114
 20
107.212
 30
0.000000
  70
    32
  0
VERTEX
  8
0
  5
7FD
 10
255.115
 20
107.330
 30
0.000000
  70
    32
  0
VERTEX
  8
0
  5
7FE
 10
255.116
 20
107.452
 30
0.000000
  70
    32
  0
VERTEX
  8
0
  5
7FF
 10
255.116
 20
107.579
 30
0.000000
  70
    32
  0
VERTEX
  8
0
  5
800
 10
255.117
 20
107.709
 30
0.000000
  70
    32
  0
VERTEX
  8
0
  5
801
 10
255.118
 20
107.843
 30
0.000000
  70
    32
  0
VERTEX
  8
0
  5
802
 10
255.119
 20
107.981
 30
0.000000
  70
    32
  0
VERTEX
  8
0
  5
803
 10
255.120
 20
108.123
 30
0.000000
  70
    32
  0
VERTEX
  8
0
  5
804
 10
255.120
 20
108.269
 30
0.000000
  70
    32
  0
VERTEX
  8
0
  5
805
 10
255.121
 20
108.418
 30
0.000000
  70
    32
  0
VERTEX
  8
0
  5
806
 10
255.122
 20
108.571
 30
0.000000
  70
    32
  0
VERTEX
  8
0
  5
807
 10
255.123
 20
108.727
 30
0.000000
  70
    32
  0
VERTEX
  8
0
  5
808
 10
255.123
 20
108.886
 30
0.000000
  70
    32
  0
VERTEX
  8
0
  5
809
 10
255.124
 20
109.049
 30
0.000000
  70
    32
  0
VERTEX
  8
0
  5
80A
 10
255.125
 20
109.215
 30
0.000000
  70
    32
  0
VERTEX
  8
0
  5
80B
 10
255.125
 20
109.384
 30
0.000000
  70
    32
  0
VERTEX
  8
0
  5
80C
 10
255.126
 20
109.555
 30
0.000000
  70
    32
  0
VERTEX
  8
0
  5
80D
 10
255.127
 20
109.730
 30
0.000000
  70
    32
  0
VERTEX
  8
0
  5
80E
 10
255.127
 20
109.907
 30
0.000000
  70
    32
  0
VERTEX
  8
0
  5
80F
 10
255.128
 20
110.087
 30
0.000000
  70
    32
  0
VERTEX
  8
0
  5
810
 10
255.128
 20
110.269
 30
0.000000
  70
    32
  0
VERTEX
  8
0
  5
811
 10
255.129
 20
110.454
 30
0.000000
  70
    32
  0
VERTEX
  8
0
  5
812
 10
255.129
 20
110.641
 30
0.000000
  70
    32
  0
VERTEX
  8
0
  5
813
 10
255.130
 20
110.830
 30
0.000000
  70
    32
  0
VERTEX
  8
0
  5
814
 10
255.130
 20
111.021
 30
0.000000
  70
    32
  0
VERTEX
  8
0
  5
815
 10
255.130
 20
111.214
 30
0.000000
  70
    32
  0
VERTEX
  8
0
  5
816
 10
255.131
 20
111.409
 30
0.000000
  70
    32
  0
VERTEX
  8
0
  5
817
 10
255.131
 20
111.606
 30
0.000000
  70
    32
  0
VERTEX
  8
0
  5
818
 10
255.131
 20
111.804
 30
0.000000
  70
    32
  0
VERTEX
  8
0
  5
819
 10
255.132
 20
112.004
 30
0.000000
  70
    32
  0
VERTEX
  8
0
  5
81A
 10
255.132
 20
112.205
 30
0.000000
  70
    32
  0
VERTEX
  8
0
  5
81B
 10
255.132
 20
112.407
 30
0.000000
  70
    32
  0
VERTEX
  8
0
  5
81C
 10
255.133
 20
112.611
 30
0.000000
  70
    32
  0
VERTEX
  8
0
  5
81D
 10
255.133
 20
112.815
 30
0.000000
  70
    32
  0
VERTEX
  8
0
  5
81E
 10
255.133
 20
113.021
 30
0.000000
  70
    32
  0
VERTEX
  8
0
  5
81F
 10
255.133
 20
113.227
 30
0.000000
  70
    32
  0
VERTEX
  8
0
  5
820
 10
255.133
 20
113.433
 30
0.000000
  70
    32
  0
VERTEX
  8
0
  5
821
 10
255.133
 20
113.640
 30
0.000000
  70
    32
  0
VERTEX
  8
0
  5
822
 10
255.133
 20
113.848
 30
0.000000
  70
    32
  0
VERTEX
  8
0
  5
823
 10
255.133
 20
114.056
 30
0.000000
  70
    32
  0
VERTEX
  8
0
  5
824
 10
255.133
 20
114.264
 30
0.000000
  70
    32
  0
VERTEX
  8
0
  5
825
 10
255.133
 20
114.472
 30
0.000000
  70
    32
  0
VERTEX
  8
0
  5
826
 10
255.133
 20
114.679
 30
0.000000
  70
    32
  0
VERTEX
  8
0
  5
827
 10
255.133
 20
114.887
 30
0.000000
  70
    32
  0
VERTEX
  8
0
  5
828
 10
255.133
 20
115.094
 30
0.000000
  70
    32
  0
VERTEX
  8
0
  5
829
 10
255.133
 20
115.301
 30
0.000000
  70
    32
  0
VERTEX
  8
0
  5
82A
 10
255.133
 20
115.507
 30
0.000000
  70
    32
  0
VERTEX
  8
0
  5
82B
 10
255.133
 20
115.712
 30
0.000000
  70
    32
  0
VERTEX
  8
0
  5
82C
 10
255.133
 20
115.916
 30
0.000000
  70
    32
  0
VERTEX
  8
0
  5
82D
 10
255.132
 20
116.120
 30
0.000000
  70
    32
  0
VERTEX
  8
0
  5
82E
 10
255.132
 20
116.322
 30
0.000000
  70
    32
  0
VERTEX
  8
0
  5
82F
 10
255.132
 20
116.523
 30
0.000000
  70
    32
  0
VERTEX
  8
0
  5
830
 10
255.131
 20
116.723
 30
0.000000
  70
    32
  0
VERTEX
  8
0
  5
831
 10
255.131
 20
116.921
 30
0.000000
  70
    32
  0
VERTEX
  8
0
  5
832
 10
255.131
 20
117.118
 30
0.000000
  70
    32
  0
VERTEX
  8
0
  5
833
 10
255.130
 20
117.313
 30
0.000000
  70
    32
  0
VERTEX
  8
0
  5
834
 10
255.130
 20
117.506
 30
0.000000
  70
    32
  0
VERTEX
  8
0
  5
835
 10
255.130
 20
117.697
 30
0.000000
  70
    32
  0
VERTEX
  8
0
  5
836
 10
255.129
 20
117.887
 30
0.000000
  70
    32
  0
VERTEX
  8
0
  5
837
 10
255.129
 20
118.074
 30
0.000000
  70
    32
  0
VERTEX
  8
0
  5
838
 10
255.128
 20
118.258
 30
0.000000
  70
    32
  0
VERTEX
  8
0
  5
839
 10
255.128
 20
118.441
 30
0.000000
  70
    32
  0
VERTEX
  8
0
  5
83A
 10
255.127
 20
118.620
 30
0.000000
  70
    32
  0
VERTEX
  8
0
  5
83B
 10
255.127
 20
118.798
 30
0.000000
  70
    32
  0
VERTEX
  8
0
  5
83C
 10
255.126
 20
118.972
 30
0.000000
  70
    32
  0
VERTEX
  8
0
  5
83D
 10
255.125
 20
119.144
 30
0.000000
  70
    32
  0
VERTEX
  8
0
  5
83E
 10
255.125
 20
119.313
 30
0.000000
  70
    32
  0
VERTEX
  8
0
  5
83F
 10
255.124
 20
119.478
 30
0.000000
  70
    32
  0
VERTEX
  8
0
  5
840
 10
255.123
 20
119.641
 30
0.000000
  70
    32
  0
VERTEX
  8
0
  5
841
 10
255.123
 20
119.800
 30
0.000000
  70
    32
  0
VERTEX
  8
0
  5
842
 10
255.122
 20
119.956
 30
0.000000
  70
    32
  0
VERTEX
  8
0
  5
843
 10
255.121
 20
120.109
 30
0.000000
  70
    32
  0
VERTEX
  8
0
  5
844
 10
255.120
 20
120.258
 30
0.000000
  70
    32
  0
VERTEX
  8
0
  5
845
 10
255.120
 20
120.404
 30
0.000000
  70
    32
  0
VERTEX
  8
0
  5
846
 10
255.119
 20
120.546
 30
0.000000
  70
    32
  0
VERTEX
  8
0
  5
847
 10
255.118
 20
120.684
 30
0.000000
  70
    32
  0
VERTEX
  8
0
  5
848
 10
255.117
 20
120.818
 30
0.000000
  70
    32
  0
VERTEX
  8
0
  5
849
 10
255.116
 20
120.949
 30
0.000000
  70
    32
  0
VERTEX
  8
0
  5
84A
 10
255.116
 20
121.075
 30
0.000000
  70
    32
  0
VERTEX
  8
0
  5
84B
 10
255.115
 20
121.197
 30
0.000000
  70
    32
  0
VERTEX
  8
0
  5
84C
 10
255.114
 20
121.316
 30
0.000000
  70
    32
  0
VERTEX
  8
0
  5
84D
 10
255.113
 20
121.430
 30
0.000000
  70
    32
  0
VERTEX
  8
0
  5
84E
 10
255.112
 20
121.539
 30
0.000000
  70
    32
  0
VERTEX
  8
0
  5
84F
 10
255.111
 20
121.645
 30
0.000000
  70
    32
  0
VERTEX
  8
0
  5
850
 10
255.110
 20
121.746
 30
0.000000
  70
    32
  0
VERTEX
  8
0
  5
851
 10
255.109
 20
121.842
 30
0.000000
  70
    32
  0
VERTEX
  8
0
  5
852
 10
255.108
 20
121.934
 30
0.000000
  70
    32
  0
VERTEX
  8
0
  5
853
 10
255.107
 20
122.021
 30
0.000000
  70
    32
  0
VERTEX
  8
0
  5
854
 10
255.106
 20
122.104
 30
0.000000
  70
    32
  0
VERTEX
  8
0
  5
855
 10
255.105
 20
122.182
 30
0.000000
  70
    32
  0
VERTEX
  8
0
  5
856
 10
255.104
 20
122.255
 30
0.000000
  70
    32
  0
VERTEX
  8
0
  5
857
 10
255.103
 20
122.323
 30
0.000000
  70
    32
  0
VERTEX
  8
0
  5
858
 10
255.102
 20
122.387
 30
0.000000
  70
    32
  0
VERTEX
  8
0
  5
859
 10
255.101
 20
122.446
 30
0.000000
  70
    32
  0
VERTEX
  8
0
  5
85A
 10
255.100
 20
122.500
 30
0.000000
  70
    32
  0
VERTEX
  8
0
  5
85B
 10
255.099
 20
122.549
 30
0.000000
  70
    32
  0
VERTEX
  8
0
  5
85C
 10
255.098
 20
122.593
 30
0.000000
  70
    32
  0
VERTEX
  8
0
  5
85D
 10
255.097
 20
122.632
 30
0.000000
  70
    32
  0
VERTEX
  8
0
  5
85E
 10
255.096
 20
122.666
 30
0.000000
  70
    32
  0
VERTEX
  8
0
  5
85F
 10
255.095
 20
122.695
 30
0.000000
  70
    32
  0
VERTEX
  8
0
  5
860
 10
255.093
 20
122.719
 30
0.000000
  70
    32
  0
VERTEX
  8
0
  5
861
 10
255.092
 20
122.737
 30
0.000000
  70
    32
  0
VERTEX
  8
0
  5
862
 10
255.091
 20
122.751
 30
0.000000
  70
    32
  0
VERTEX
  8
0
  5
863
 10
255.090
 20
122.760
 30
0.000000
  70
    32
  0
VERTEX
  8
0
  5
864
 10
255.089
 20
122.764
 30
0.000000
  70
    32
  0
SEQEND
  8
0
  5
865
  0
ARC
  5
336
  8
0
  6
CONTINUOUS
 62
     7
 10
256.58914144238997
 20
122.76349543143
 30
0.0
 40
1.500027603662399
 50
90.001839715200006
 51
179.9981602849
  0
LINE
  5
337
  8
0
  6
CONTINUOUS
 62
     7
 10
256.5890932778899
 20
104.26379718933001
 30
0.0
 11
273.31838114638998
 21
104.26379718933001
 31
0.0
  0
LINE
  5
338
  8
0
  6
CONTINUOUS
 62
     7
 10
256.5890932778899
 20
124.26352303423
 30
0.0
 11
273.31838114638998
 21
124.26352303423
 31
0.0
  0
ARC
  5
339
  8
0
  6
CONTINUOUS
 62
     7
 10
9.0220595283917007
 20
114.26366011183001
 30
0.0
 40
266.25
 50
356.42017878349998
 51
3.5798212165000991
  0
ARC
  5
33A
  8
0
  6
CONTINUOUS
 62
     7
 10
264.77205952839
 20
132.23798044173
 30
0.0
 40
4.316370875135199
 50
118.3481731756
 51
61.651826824395002
  0
ARC
  5
33B
  8
0
  6
CONTINUOUS
 62
     7
 10
264.77205952839
 20
96.289339781830009
 30
0.0
 40
4.316370875135199
 50
298.34817317559998
 51
241.65182682439999
  0
ARC
  5
33C
  8
0
  6
CONTINUOUS
 62
     7
 10
264.77205952839
 20
132.26366011183001
 30
0.0
 40
4.2937880646066002
 50
61.489118911698
 51
118.51088108829001
  0
ARC
  5
33D
  8
0
  6
CONTINUOUS
 62
     7
 10
264.77205952839
 20
96.263660111830021
 30
0.0
 40
4.2937880646066002
 50
241.48911891169999
 51
298.5108810883001
  0
ARC
  5
33E
  8
0
  6
CONTINUOUS
 62
     7
 10
264.77205952839
 20
98.263660111835023
 30
0.0
 40
10.0
 50
180.00000000003001
 51
356.42017878347002
  0
ARC
  5
33F
  8
0
  6
CONTINUOUS
 62
     7
 10
264.77205952839
 20
130.26366011183001
 30
0.0
 40
10.0
 50
3.5798212164696999
 51
180.00000000003001
  0
CIRCLE
  5
340
  8
0
  6
CONTINUOUS
 62
     7
 10
264.77205952839
 20
96.263660111830021
 30
0.0
 40
2.3500000000000001
  0
CIRCLE
  5
341
  8
0
  6
CONTINUOUS
 62
     7
 10
264.77205952839
 20
132.26366011183001
 30
0.0
 40
2.3500000000000001
  0
LINE
  5
342
  8
0
  6
DASHDOT
 62
     2
 10
264.77205952839
 20
144.50849685208999
 30
0.0
 11
264.77205952839
 21
85.989655015558995
 31
0.0
  0
LINE
  5
343
  8
0
  6
DASHDOT
 62
     2
 10
277.65250538689997
 20
132.26366011183001
 30
0.0
 11
251.00373330123
 21
132.26366011183001
 31
0.0
  0
LINE
  5
344
  8
0
  6
DASHDOT
 62
     2
 10
277.65250538689997
 20
96.263660111830021
 30
0.0
 11
251.00373330123
 21
96.263660111830021
 31
0.0
  0
LINE
  5
345
  8
0
  6
CONTINUOUS
 62
     7
 10
166.77205952839
 20
122.26366011183001
 30
0.0
 11
255.09698924863
 21
122.26366011183001
 31
0.0
  0
LINE
  5
346
  8
0
  6
CONTINUOUS
 62
     7
 10
254.77205952839
 20
130.26366011183001
 30
0.0
 11
254.77205952839
 21
122.26366011183001
 31
0.0
  0
LINE
  5
347
  8
0
  6
CONTINUOUS
 62
     7
 10
166.77205952839
 20
106.26366011183001
 30
0.0
 11
255.09698924863
 21
106.26366011183001
 31
0.0
  0
POLYLINE
  5
348
  8
0
  6
CONTINUOUS
 62
     7
 10
255.08069011654766
 20
106.26366011182898
 30
0.0
 66
     1
 70
     8
  0
VERTEX
  8
0
  5
866
 10
255.081
 20
106.264
 30
0.000000
  70
    32
  0
VERTEX
  8
0
  5
867
 10
255.082
 20
106.224
 30
0.000000
  70
    32
  0
VERTEX
  8
0
  5
868
 10
255.083
 20
106.190
 30
0.000000
  70
    32
  0
VERTEX
  8
0
  5
869
 10
255.084
 20
106.162
 30
0.000000
  70
    32
  0
VERTEX
  8
0
  5
86A
 10
255.085
 20
106.141
 30
0.000000
  70
    32
  0
VERTEX
  8
0
  5
86B
 10
255.087
 20
106.126
 30
0.000000
  70
    32
  0
VERTEX
  8
0
  5
86C
 10
255.088
 20
106.117
 30
0.000000
  70
    32
  0
VERTEX
  8
0
  5
86D
 10
255.089
 20
106.114
 30
0.000000
  70
    32
  0
VERTEX
  8
0
  5
86E
 10
255.090
 20
106.117
 30
0.000000
  70
    32
  0
VERTEX
  8
0
  5
86F
 10
255.091
 20
106.126
 30
0.000000
  70
    32
  0
VERTEX
  8
0
  5
870
 10
255.092
 20
106.142
 30
0.000000
  70
    32
  0
VERTEX
  8
0
  5
871
 10
255.094
 20
106.164
 30
0.000000
  70
    32
  0
VERTEX
  8
0
  5
872
 10
255.095
 20
106.192
 30
0.000000
  70
    32
  0
VERTEX
  8
0
  5
873
 10
255.096
 20
106.226
 30
0.000000
  70
    32
  0
VERTEX
  8
0
  5
874
 10
255.097
 20
106.266
 30
0.000000
  70
    32
  0
VERTEX
  8
0
  5
875
 10
255.098
 20
106.312
 30
0.000000
  70
    32
  0
VERTEX
  8
0
  5
876
 10
255.099
 20
106.364
 30
0.000000
  70
    32
  0
VERTEX
  8
0
  5
877
 10
255.100
 20
106.422
 30
0.000000
  70
    32
  0
VERTEX
  8
0
  5
878
 10
255.102
 20
106.487
 30
0.000000
  70
    32
  0
VERTEX
  8
0
  5
879
 10
255.103
 20
106.557
 30
0.000000
  70
    32
  0
VERTEX
  8
0
  5
87A
 10
255.104
 20
106.633
 30
0.000000
  70
    32
  0
VERTEX
  8
0
  5
87B
 10
255.105
 20
106.714
 30
0.000000
  70
    32
  0
VERTEX
  8
0
  5
87C
 10
255.106
 20
106.802
 30
0.000000
  70
    32
  0
VERTEX
  8
0
  5
87D
 10
255.107
 20
106.895
 30
0.000000
  70
    32
  0
VERTEX
  8
0
  5
87E
 10
255.108
 20
106.994
 30
0.000000
  70
    32
  0
VERTEX
  8
0
  5
87F
 10
255.109
 20
107.098
 30
0.000000
  70
    32
  0
VERTEX
  8
0
  5
880
 10
255.110
 20
107.207
 30
0.000000
  70
    32
  0
VERTEX
  8
0
  5
881
 10
255.111
 20
107.322
 30
0.000000
  70
    32
  0
VERTEX
  8
0
  5
882
 10
255.112
 20
107.443
 30
0.000000
  70
    32
  0
VERTEX
  8
0
  5
883
 10
255.113
 20
107.568
 30
0.000000
  70
    32
  0
VERTEX
  8
0
  5
884
 10
255.114
 20
107.699
 30
0.000000
  70
    32
  0
VERTEX
  8
0
  5
885
 10
255.115
 20
107.834
 30
0.000000
  70
    32
  0
VERTEX
  8
0
  5
886
 10
255.116
 20
107.974
 30
0.000000
  70
    32
  0
VERTEX
  8
0
  5
887
 10
255.117
 20
108.120
 30
0.000000
  70
    32
  0
VERTEX
  8
0
  5
888
 10
255.118
 20
108.269
 30
0.000000
  70
    32
  0
VERTEX
  8
0
  5
889
 10
255.119
 20
108.424
 30
0.000000
  70
    32
  0
VERTEX
  8
0
  5
88A
 10
255.119
 20
108.583
 30
0.000000
  70
    32
  0
VERTEX
  8
0
  5
88B
 10
255.120
 20
108.746
 30
0.000000
  70
    32
  0
VERTEX
  8
0
  5
88C
 10
255.121
 20
108.913
 30
0.000000
  70
    32
  0
VERTEX
  8
0
  5
88D
 10
255.122
 20
109.084
 30
0.000000
  70
    32
  0
VERTEX
  8
0
  5
88E
 10
255.123
 20
109.260
 30
0.000000
  70
    32
  0
VERTEX
  8
0
  5
88F
 10
255.123
 20
109.439
 30
0.000000
  70
    32
  0
VERTEX
  8
0
  5
890
 10
255.124
 20
109.621
 30
0.000000
  70
    32
  0
VERTEX
  8
0
  5
891
 10
255.125
 20
109.808
 30
0.000000
  70
    32
  0
VERTEX
  8
0
  5
892
 10
255.125
 20
109.997
 30
0.000000
  70
    32
  0
VERTEX
  8
0
  5
893
 10
255.126
 20
110.190
 30
0.000000
  70
    32
  0
VERTEX
  8
0
  5
894
 10
255.126
 20
110.386
 30
0.000000
  70
    32
  0
VERTEX
  8
0
  5
895
 10
255.127
 20
110.585
 30
0.000000
  70
    32
  0
VERTEX
  8
0
  5
896
 10
255.127
 20
110.787
 30
0.000000
  70
    32
  0
VERTEX
  8
0
  5
897
 10
255.128
 20
110.991
 30
0.000000
  70
    32
  0
VERTEX
  8
0
  5
898
 10
255.128
 20
111.198
 30
0.000000
  70
    32
  0
VERTEX
  8
0
  5
899
 10
255.129
 20
111.407
 30
0.000000
  70
    32
  0
VERTEX
  8
0
  5
89A
 10
255.129
 20
111.618
 30
0.000000
  70
    32
  0
VERTEX
  8
0
  5
89B
 10
255.130
 20
111.832
 30
0.000000
  70
    32
  0
VERTEX
  8
0
  5
89C
 10
255.130
 20
112.047
 30
0.000000
  70
    32
  0
VERTEX
  8
0
  5
89D
 10
255.130
 20
112.264
 30
0.000000
  70
    32
  0
VERTEX
  8
0
  5
89E
 10
255.130
 20
112.482
 30
0.000000
  70
    32
  0
VERTEX
  8
0
  5
89F
 10
255.131
 20
112.702
 30
0.000000
  70
    32
  0
VERTEX
  8
0
  5
8A0
 10
255.131
 20
112.923
 30
0.000000
  70
    32
  0
VERTEX
  8
0
  5
8A1
 10
255.131
 20
113.145
 30
0.000000
  70
    32
  0
VERTEX
  8
0
  5
8A2
 10
255.131
 20
113.367
 30
0.000000
  70
    32
  0
VERTEX
  8
0
  5
8A3
 10
255.131
 20
113.591
 30
0.000000
  70
    32
  0
VERTEX
  8
0
  5
8A4
 10
255.131
 20
113.815
 30
0.000000
  70
    32
  0
VERTEX
  8
0
  5
8A5
 10
255.131
 20
114.039
 30
0.000000
  70
    32
  0
VERTEX
  8
0
  5
8A6
 10
255.132
 20
114.264
 30
0.000000
  70
    32
  0
VERTEX
  8
0
  5
8A7
 10
255.131
 20
114.488
 30
0.000000
  70
    32
  0
VERTEX
  8
0
  5
8A8
 10
255.131
 20
114.712
 30
0.000000
  70
    32
  0
VERTEX
  8
0
  5
8A9
 10
255.131
 20
114.936
 30
0.000000
  70
    32
  0
VERTEX
  8
0
  5
8AA
 10
255.131
 20
115.160
 30
0.000000
  70
    32
  0
VERTEX
  8
0
  5
8AB
 10
255.131
 20
115.383
 30
0.000000
  70
    32
  0
VERTEX
  8
0
  5
8AC
 10
255.131
 20
115.605
 30
0.000000
  70
    32
  0
VERTEX
  8
0
  5
8AD
 10
255.131
 20
115.825
 30
0.000000
  70
    32
  0
VERTEX
  8
0
  5
8AE
 10
255.130
 20
116.045
 30
0.000000
  70
    32
  0
VERTEX
  8
0
  5
8AF
 10
255.130
 20
116.264
 30
0.000000
  70
    32
  0
VERTEX
  8
0
  5
8B0
 10
255.130
 20
116.480
 30
0.000000
  70
    32
  0
VERTEX
  8
0
  5
8B1
 10
255.130
 20
116.696
 30
0.000000
  70
    32
  0
VERTEX
  8
0
  5
8B2
 10
255.129
 20
116.909
 30
0.000000
  70
    32
  0
VERTEX
  8
0
  5
8B3
 10
255.129
 20
117.120
 30
0.000000
  70
    32
  0
VERTEX
  8
0
  5
8B4
 10
255.128
 20
117.329
 30
0.000000
  70
    32
  0
VERTEX
  8
0
  5
8B5
 10
255.128
 20
117.536
 30
0.000000
  70
    32
  0
VERTEX
  8
0
  5
8B6
 10
255.127
 20
117.741
 30
0.000000
  70
    32
  0
VERTEX
  8
0
  5
8B7
 10
255.127
 20
117.942
 30
0.000000
  70
    32
  0
VERTEX
  8
0
  5
8B8
 10
255.126
 20
118.141
 30
0.000000
  70
    32
  0
VERTEX
  8
0
  5
8B9
 10
255.126
 20
118.337
 30
0.000000
  70
    32
  0
VERTEX
  8
0
  5
8BA
 10
255.125
 20
118.530
 30
0.000000
  70
    32
  0
VERTEX
  8
0
  5
8BB
 10
255.125
 20
118.720
 30
0.000000
  70
    32
  0
VERTEX
  8
0
  5
8BC
 10
255.124
 20
118.906
 30
0.000000
  70
    32
  0
VERTEX
  8
0
  5
8BD
 10
255.123
 20
119.089
 30
0.000000
  70
    32
  0
VERTEX
  8
0
  5
8BE
 10
255.123
 20
119.268
 30
0.000000
  70
    32
  0
VERTEX
  8
0
  5
8BF
 10
255.122
 20
119.443
 30
0.000000
  70
    32
  0
VERTEX
  8
0
  5
8C0
 10
255.121
 20
119.614
 30
0.000000
  70
    32
  0
VERTEX
  8
0
  5
8C1
 10
255.120
 20
119.782
 30
0.000000
  70
    32
  0
VERTEX
  8
0
  5
8C2
 10
255.119
 20
119.945
 30
0.000000
  70
    32
  0
VERTEX
  8
0
  5
8C3
 10
255.119
 20
120.104
 30
0.000000
  70
    32
  0
VERTEX
  8
0
  5
8C4
 10
255.118
 20
120.258
 30
0.000000
  70
    32
  0
VERTEX
  8
0
  5
8C5
 10
255.117
 20
120.408
 30
0.000000
  70
    32
  0
VERTEX
  8
0
  5
8C6
 10
255.116
 20
120.553
 30
0.000000
  70
    32
  0
VERTEX
  8
0
  5
8C7
 10
255.115
 20
120.693
 30
0.000000
  70
    32
  0
VERTEX
  8
0
  5
8C8
 10
255.114
 20
120.829
 30
0.000000
  70
    32
  0
VERTEX
  8
0
  5
8C9
 10
255.113
 20
120.959
 30
0.000000
  70
    32
  0
VERTEX
  8
0
  5
8CA
 10
255.112
 20
121.085
 30
0.000000
  70
    32
  0
VERTEX
  8
0
  5
8CB
 10
255.111
 20
121.205
 30
0.000000
  70
    32
  0
VERTEX
  8
0
  5
8CC
 10
255.110
 20
121.320
 30
0.000000
  70
    32
  0
VERTEX
  8
0
  5
8CD
 10
255.109
 20
121.430
 30
0.000000
  70
    32
  0
VERTEX
  8
0
  5
8CE
 10
255.108
 20
121.534
 30
0.000000
  70
    32
  0
VERTEX
  8
0
  5
8CF
 10
255.107
 20
121.632
 30
0.000000
  70
    32
  0
VERTEX
  8
0
  5
8D0
 10
255.106
 20
121.726
 30
0.000000
  70
    32
  0
VERTEX
  8
0
  5
8D1
 10
255.105
 20
121.813
 30
0.000000
  70
    32
  0
VERTEX
  8
0
  5
8D2
 10
255.104
 20
121.895
 30
0.000000
  70
    32
  0
VERTEX
  8
0
  5
8D3
 10
255.103
 20
121.971
 30
0.000000
  70
    32
  0
VERTEX
  8
0
  5
8D4
 10
255.102
 20
122.041
 30
0.000000
  70
    32
  0
VERTEX
  8
0
  5
8D5
 10
255.100
 20
122.105
 30
0.000000
  70
    32
  0
VERTEX
  8
0
  5
8D6
 10
255.099
 20
122.163
 30
0.000000
  70
    32
  0
VERTEX
  8
0
  5
8D7
 10
255.098
 20
122.215
 30
0.000000
  70
    32
  0
VERTEX
  8
0
  5
8D8
 10
255.097
 20
122.262
 30
0.000000
  70
    32
  0
VERTEX
  8
0
  5
8D9
 10
255.096
 20
122.302
 30
0.000000
  70
    32
  0
VERTEX
  8
0
  5
8DA
 10
255.095
 20
122.336
 30
0.000000
  70
    32
  0
VERTEX
  8
0
  5
8DB
 10
255.094
 20
122.364
 30
0.000000
  70
    32
  0
VERTEX
  8
0
  5
8DC
 10
255.092
 20
122.385
 30
0.000000
  70
    32
  0
VERTEX
  8
0
  5
8DD
 10
255.091
 20
122.401
 30
0.000000
  70
    32
  0
VERTEX
  8
0
  5
8DE
 10
255.090
 20
122.410
 30
0.000000
  70
    32
  0
VERTEX
  8
0
  5
8DF
 10
255.089
 20
122.414
 30
0.000000
  70
    32
  0
VERTEX
  8
0
  5
8E0
 10
255.088
 20
122.411
 30
0.000000
  70
    32
  0
VERTEX
  8
0
  5
8E1
 10
255.087
 20
122.402
 30
0.000000
  70
    32
  0
VERTEX
  8
0
  5
8E2
 10
255.085
 20
122.386
 30
0.000000
  70
    32
  0
VERTEX
  8
0
  5
8E3
 10
255.084
 20
122.365
 30
0.000000
  70
    32
  0
VERTEX
  8
0
  5
8E4
 10
255.083
 20
122.337
 30
0.000000
  70
    32
  0
VERTEX
  8
0
  5
8E5
 10
255.082
 20
122.303
 30
0.000000
  70
    32
  0
VERTEX
  8
0
  5
8E6
 10
255.081
 20
122.264
 30
0.000000
  70
    32
  0
SEQEND
  8
0
  5
8E7
  0
LINE
  5
349
  8
0
  6
CONTINUOUS
 62
     7
 10
254.77205952839
 20
106.26366011183001
 30
0.0
 11
254.77205952839
 21
98.263660111830006
 31
0.0
  0
LINE
  5
34A
  8
0
  6
DOT
 62
     2
 10
255.09698924863
 20
122.26366011183001
 30
0.0
 11
264.77205952839
 21
122.26366011183001
 31
0.0
  0
LINE
  5
34B
  8
0
  6
DOT
 62
     2
 10
255.09698924863
 20
106.26366011183001
 30
0.0
 11
264.77205952839
 21
106.26366011183001
 31
0.0
  0
LINE
  5
34C
  8
0
  6
DOT
 62
     2
 10
74.447129808149
 20
106.26366011183001
 30
0.0
 11
64.772059528392006
 21
106.26366011183001
 31
0.0
  0
LINE
  5
34D
  8
0
  6
DOT
 62
     2
 10
74.447129808149
 20
122.26366011183001
 30
0.0
 11
64.772059528392006
 21
122.26366011183001
 31
0.0
  0
LINE
  5
34E
  8
0
  6
CONTINUOUS
 62
     7
 10
166.77205952839
 20
180.54210900256001
 30
0.0
 11
255.09698924863
 21
180.54210900256001
 31
0.0
  0
LINE
  5
34F
  8
0
  6
DOT
 62
     2
 10
255.09698924863
 20
180.54210900256001
 30
0.0
 11
264.77205952839
 21
180.54210900256001
 31
0.0
  0
LINE
  5
350
  8
0
  6
CONTINUOUS
 62
     7
 10
166.77205952839
 20
196.54210900256001
 30
0.0
 11
255.04695139770999
 21
196.54210900256001
 31
0.0
  0
LINE
  5
351
  8
0
  6
DOT
 62
     2
 10
255.04695139770999
 20
196.54210900256001
 30
0.0
 11
264.77205952839
 21
196.54210900256001
 31
0.0
  0
LINE
  5
352
  8
0
  6
DOT
 62
     2
 10
74.497167659073
 20
196.54210900256001
 30
0.0
 11
64.772059528392006
 21
196.54210900256001
 31
0.0
  0
LINE
  5
353
  8
0
  6
CONTINUOUS
 62
     7
 10
162.77205952839
 20
196.54210900256001
 30
0.0
 11
74.497167659073
 21
196.54210900256001
 31
0.0
  0
LINE
  5
354
  8
0
  6
CONTINUOUS
 62
     7
 10
162.77205952839
 20
180.54210900256001
 30
0.0
 11
74.447129808149
 21
180.54210900256001
 31
0.0
  0
LINE
  5
355
  8
0
  6
DOT
 62
     2
 10
74.447129808149
 20
180.54210900256001
 30
0.0
 11
64.772059528392006
 21
180.54210900256001
 31
0.0
  0
LINE
  5
356
  8
0
  6
DOT
 62
     2
 10
264.77205952839
 20
196.54210900256001
 30
0.0
 11
264.77205952839
 21
180.54210900256001
 31
0.0
  0
LINE
  5
357
  8
0
  6
DOT
 62
     2
 10
264.77205952839
 20
122.26366011183001
 30
0.0
 11
264.77205952839
 21
106.26366011183001
 31
0.0
  0
LINE
  5
358
  8
0
  6
DOT
 62
     2
 10
64.772059528392006
 20
122.26366011183001
 30
0.0
 11
64.772059528392006
 21
106.26366011183001
 31
0.0
  0
LINE
  5
359
  8
0
  6
DOT
 62
     2
 10
64.772059528392006
 20
196.54210900256001
 30
0.0
 11
64.772059528392006
 21
180.54210900256001
 31
0.0
  0
ARC
  5
35A
  8
0
  6
CONTINUOUS
 62
     7
 10
56.133366547115003
 20
180.04210900256001
 30
0.0
 40
1.5
 50
180.30000000000001
 51
270.00000001025001
  0
POINT
  5
35B
  8
0
 62
     7
 10
54.64120003861499
 20
178.54210900229
 30
0.0
  0
LINE
  5
35C
  8
0
  6
CONTINUOUS
 62
     7
 10
54.633387108744003
 20
180.03425505681
 30
0.0
 11
54.272059528391999
 21
249.04210900256001
 31
0.0
  0
LINE
  5
35D
  8
0
  6
CONTINUOUS
 62
     7
 10
72.910752510004997
 20
178.54210900556001
 30
0.0
 11
56.133366547383012
 21
178.54210900256001
 31
0.0
  0
ARC
  5
35E
  8
0
  6
CONTINUOUS
 62
     7
 10
72.910752509736
 20
180.04210900556001
 30
0.0
 40
1.5
 50
270.00000001025001
 51
359.70000000035998
  0
POINT
  5
35F
  8
0
 62
     7
 10
74.402919018250003
 20
178.54210900583001
 30
0.0
  0
LINE
  5
360
  8
0
  6
CONTINUOUS
 62
     7
 10
74.410731948107994
 20
180.03425505982
 30
0.0
 11
74.455005217291998
 21
188.48974936426001
 31
0.0
  0
ARC
  5
361
  8
0
  6
CONTINUOUS
 62
     7
 10
273.41075250966998
 20
180.04210900256001
 30
0.0
 40
1.5
 50
269.99999998974999
 51
359.69999999987999
  0
POINT
  5
362
  8
0
 62
     7
 10
274.90291901817
 20
178.54210900229
 30
0.0
  0
LINE
  5
363
  8
0
  6
CONTINUOUS
 62
     7
 10
274.91073194804
 20
180.03425505681
 30
0.0
 11
275.27205952839
 21
249.04210900256001
 31
0.0
  0
LINE
  5
364
  8
0
  6
CONTINUOUS
 62
     7
 10
256.63336654678
 20
178.54210900556001
 30
0.0
 11
273.41075250940003
 21
178.54210900256001
 31
0.0
  0
ARC
  5
365
  8
0
  6
CONTINUOUS
 62
     7
 10
256.63336654705
 20
180.04210900556001
 30
0.0
 40
1.5
 50
180.29999999954001
 51
269.99999998974999
  0
POINT
  5
366
  8
0
 62
     7
 10
255.14120003853
 20
178.54210900583001
 30
0.0
  0
LINE
  5
367
  8
0
  6
CONTINUOUS
 62
     7
 10
255.13338710868001
 20
180.03425505982
 30
0.0
 11
255.08911383949001
 21
188.48974936426001
 31
0.0
  0
LINE
  5
368
  8
0
  6
DASHDOT
 62
     2
 10
64.772059528392006
 20
175.01487517065999
 30
0.0
 11
64.772059528392006
 21
259.18226393159
 31
0.0
  0
LINE
  5
369
  8
0
  6
DASHDOT
 62
     2
 10
366.45060900348
 20
132.26366011183001
 30
0.0
 11
385.42603412135009
 21
132.26366011183001
 31
0.0
  0
LINE
  5
36A
  8
0
  6
DASHDOT
 62
     2
 10
366.45060900348
 20
96.263660111830021
 30
0.0
 11
385.42603412135009
 21
96.263660111830021
 31
0.0
  0
LINE
  5
36B
  8
0
  6
DASHDOT
 62
     2
 10
385.42603412135009
 20
114.26366011183001
 30
0.0
 11
302.98188021671001
 21
114.26366011183001
 31
0.0
  0
LINE
  5
36C
  8
0
  6
DASHDOT
 62
     2
 10
318.83105486199997
 20
98.220088054580003
 30
0.0
 11
318.83105486199997
 21
130.20740867114
 31
0.0
  0
LINE
  5
36D
  8
0
  6
DASHDOT
 62
     2
 10
264.77205952839
 20
175.01487517065999
 30
0.0
 11
264.77205952839
 21
259.18226393159
 31
0.0
  0
INSERT
  5
36E
  8
0
  2
*D3
 10
0.0
 20
0.0
 30
0.0
  0
INSERT
  5
36F
  8
0
  2
*D4
 10
0.0
 20
0.0
 30
0.0
  0
LINE
  5
370
  8
0
  6
DASHDOT
 62
     2
 10
47.071092718364
 20
114.26366011183001
 30
0.0
 11
164.77205952839
 21
114.26366011183001
 31
0.0
  0
LINE
  5
371
  8
0
  6
DASHDOT
 62
     2
 10
282.47302633842003
 20
114.26366011183001
 30
0.0
 11
164.77205952839
 21
114.26366011183001
 31
0.0
  0
LINE
  5
372
  8
0
  6
DASHDOT
 62
     2
 10
164.77205952839
 20
188.54210900256001
 30
0.0
 11
44.380041233975
 21
188.54210900256001
 31
0.0
  0
LINE
  5
373
  8
0
  6
DASHDOT
 62
     2
 10
164.77205952839
 20
188.54210900256001
 30
0.0
 11
285.16407782280999
 21
188.54210900256001
 31
0.0
  0
DIMENSION
  5
375
  8
0
  6
CONTINUOUS
 62
     6
  2
*D5
 10
379.33105486198002
 20
144.4452675089
 30
0.0
 11
376.83105486198002
 21
144.4452675089
 31
0.0
 13
374.33105486197991
 23
136.02231148032999
 33
0.0
 14
379.33105486198002
 24
140.26366011183001
 34
0.0
  0
DIMENSION
  5
376
  8
0
  6
CONTINUOUS
 62
     6
  2
*D6
 10
64.772059528392006
 20
98.263660111831001
 30
0.0
 11
84.385177243541008
 21
79.466706321314007
 31
0.0
 70
   132
 15
71.991748622679012
 25
91.344405138799004
 35
0.0
 40
17.166152806593001
  0
DIMENSION
  5
379
  8
0
  6
CONTINUOUS
 62
     6
  2
*D7
 10
151.63100067303
 20
180.54210900256001
 30
0.0
 11
151.63100067303
 21
208.2259717112
 31
0.0
 70
   128
 13
162.77205952839
 23
196.54210900256001
 33
0.0
 14
162.77205952839
 24
180.54210900256001
 34
0.0
 50
270.0
  0
DIMENSION
  5
37A
  8
0
  6
CONTINUOUS
 62
     6
  2
*D8
 10
264.77205952839
 20
265.89298641632001
 30
0.0
 11
164.77205952839
 21
265.89298641632001
 31
0.0
  1
\A1;取付ピッチL
 13
64.772059528392006
 23
259.18226393159
 33
0.0
 14
264.77205952839
 24
259.18226393159
 34
0.0
  0
CIRCLE
  5
37B
  8
0
  6
DOT
 62
     2
 10
318.83105486199997
 20
114.26366011183001
 30
0.0
 40
8.0
  0
DIMENSION
  5
37C
  8
0
  6
CONTINUOUS
 62
     6
  2
*D9
 10
93.663686138914997
 20
196.54210900256001
 30
0.0
 11
93.663686138914997
 21
222.79210900256001
 31
0.0
  1
\A1;(52.7)
 13
74.772059528392006
 23
249.04210900256001
 33
0.0
 14
81.490016643182997
 24
196.54210900256001
 34
0.0
 50
270.0
  0
LINE
  5
37E
  8
0
  6
DASHDOT
 62
     2
 10
64.772059528392006
 20
144.50849685208999
 30
0.0
 11
64.772059528392006
 21
85.989655015558995
 31
0.0
  0
LINE
  5
37F
  8
0
  6
DASHDOT
 62
     2
 10
164.77205952839
 20
134.92598990841
 30
0.0
 11
164.77205952839
 21
90.127056174818975
 31
0.0
  0
LINE
  5
380
  8
0
  6
DASHDOT
 62
     2
 10
164.77205952839
 20
259.18226393159
 30
0.0
 11
164.77205952839
 21
175.01487517065999
 31
0.0
  0
LINE
  5
383
  8
0
  6
CONTINUOUS
 62
     3
 10
34.785649236669997
 20
50.071638509112987
 30
0.0
 11
34.785649236669997
 21
20.071638509113001
 31
0.0
  0
LINE
  5
384
  8
0
  6
CONTINUOUS
 62
     3
 10
25.78564923667
 20
50.071638509112987
 30
0.0
 11
25.78564923667
 21
20.071638509113001
 31
0.0
  0
TEXT
  5
385
  8
0
 62
     3
 10
35.396703861012
 20
45.029847356234988
 30
0.0
 40
3.7999999999999989
  1
品番
 41
0.7894736842105301
  0
TEXT
  5
386
  8
0
 62
     6
 10
35.396703861012
 20
39.029847356235003
 30
0.0
 40
3.7999999999999989
  1
６１０－０２２
 41
0.7894736842105301
  0
TEXT
  5
387
  8
0
 62
     6
 10
35.396703861012
 20
33.029847356235003
 30
0.0
 40
3.7999999999999989
  1
６１０－０２４
 41
0.7894736842105301
  0
TEXT
  5
388
  8
0
 62
     6
 10
35.396703861012
 20
27.029847356234999
 30
0.0
 40
3.7999999999999989
  1
６１０－０２６
 41
0.7894736842105301
  0
DIMENSION
  5
38B
  8
0
  6
CONTINUOUS
 62
     6
  2
*D10
 10
299.32466230100999
 20
104.26379718933001
 30
0.0
 11
299.32466230100999
 21
114.26366011178
 31
0.0
  1
\A1;20
 13
318.77869522368002
 23
124.26352303423
 33
0.0
 14
318.77869522368002
 24
104.26379718933001
 34
0.0
 50
270.0
  0
DIMENSION
  5
38C
  8
0
  6
CONTINUOUS
 62
     6
  2
*D11
 10
379.33105486198002
 20
153.13390115915999
 30
0.0
 11
375.33105486198002
 21
153.13390115915999
 31
0.0
 13
371.33105486198002
 23
138.72960531852999
 33
0.0
 14
379.33105486198002
 24
140.26366011183001
 34
0.0
  0
DIMENSION
  5
38D
  8
0
  6
CONTINUOUS
 62
     6
  2
*D12
 10
32.086937573359002
 20
88.263660111830006
 30
0.0
 11
32.086937573359002
 21
114.26366011183001
 31
0.0
  1
\A1;52.5
 13
64.772059528392006
 23
140.26366011183001
 33
0.0
 14
64.772059528392006
 24
88.263660111830006
 34
0.0
 50
270.0
  0
DIMENSION
  5
38E
  8
0
  6
CONTINUOUS
 62
     6
  2
*D13
 10
41.817783257592993
 20
96.263660111830021
 30
0.0
 11
41.817783257592993
 21
114.26366011183001
 31
0.0
 13
51.891613669887001
 23
132.26366011183001
 33
0.0
 14
51.891613669887001
 24
96.263660111830021
 34
0.0
 50
270.0
  0
DIMENSION
  5
38F
  8
0
  6
CONTINUOUS
 62
     6
  2
*D14
 10
74.772059528392006
 20
70.370754002244993
 30
0.0
 11
64.522059528392006
 21
70.370754002244993
 31
0.0
  1
\A1;21
 13
54.272059528391999
 23
114.26366011183001
 33
0.0
 14
74.772059528392006
 24
98.263660111830006
 34
0.0
  0
DIMENSION
  5
390
  8
0
  6
CONTINUOUS
 62
     6
  2
*D15
 10
32.086937573359002
 20
178.54210900229
 30
0.0
 11
32.086937573359002
 21
213.79210900243001
 31
0.0
  1
\A1;71
 13
54.272059528391999
 23
249.04210900256001
 33
0.0
 14
54.64120003861499
 24
178.54210900229
 34
0.0
 50
270.0
  0
DIMENSION
  5
391
  8
0
  6
CONTINUOUS
 62
     6
  2
*D16
 10
41.817783257592993
 20
188.54210900256001
 30
0.0
 11
41.817783257592993
 21
218.79210900256001
 31
0.0
  1
\A1;61
 13
53.791571723491998
 23
249.04210900256001
 33
0.0
 14
44.380041233975
 24
188.54210900256001
 34
0.0
 50
270.0
  0
DIMENSION
  5
392
  8
0
  6
CONTINUOUS
 62
     6
  2
*D17
 10
264.77205952839
 20
165.52586940360999
 30
0.0
 11
164.77205952839
 21
165.52586940360999
 31
0.0
  1
\A1;パイプ長さL1
 13
64.772059528392006
 23
175.01487517065999
 33
0.0
 14
264.77205952839
 24
175.01487517065999
 34
0.0
  0
TEXT
  5
39B
  8
0
 62
     3
 10
75.838243851437994
 20
45.224777008946987
 30
0.0
 40
3.7999999999999989
  1
Ｌ寸法
 41
0.7894736842105301
  0
TEXT
  5
39C
  8
0
 62
     6
 10
75.396703861011986
 20
39.029847356235003
 30
0.0
 40
3.7999999999999989
  1
４００
 41
0.7894736842105301
  0
TEXT
  5
39D
  8
0
 62
     3
 10
105.83824385144
 20
45.224777008946987
 30
0.0
 40
3.7999999999999989
  1
①の色
 41
0.7894736842105301
  0
TEXT
  5
39E
  8
0
 62
     6
 10
90.396703861011986
 20
39.029847356235003
 30
0.0
 40
3.7999999999999989
  1
４００
 41
0.7894736842105301
  0
TEXT
  5
39F
  8
0
 62
     3
 10
90.838243851438008
 20
45.224777008946987
 30
0.0
 40
3.7999999999999989
  1
Ｌ１寸法
 41
0.7894736842105301
  0
LINE
  5
3A0
  8
0
  6
CONTINUOUS
 62
     3
 10
34.785649236669997
 20
38.071638509113001
 30
0.0
 11
104.78564923667
 21
38.071638509113001
 31
0.0
  0
LINE
  5
3A1
  8
0
  6
CONTINUOUS
 62
     3
 10
25.78564923667
 20
50.071638509112987
 30
0.0
 11
152.32968763667
 21
50.071638509112987
 31
0.0
  0
LINE
  5
3A2
  8
0
  6
CONTINUOUS
 62
     3
 10
34.785649236669997
 20
44.071638509112987
 30
0.0
 11
152.32968763667
 21
44.071638509112987
 31
0.0
  0
LINE
  5
3A3
  8
0
  6
CONTINUOUS
 62
     3
 10
25.78564923667
 20
20.071638509113001
 30
0.0
 11
152.32968763667
 21
20.071638509113001
 31
0.0
  0
TEXT
  5
3A4
  8
0
 62
     6
 10
75.396703861011986
 20
33.029847356235003
 30
0.0
 40
3.7999999999999989
  1
４５９
 41
0.7894736842105301
  0
TEXT
  5
3A5
  8
0
 62
     6
 10
90.396703861011986
 20
33.029847356235003
 30
0.0
 40
3.7999999999999989
  1
４６０
 41
0.7894736842105301
  0
TEXT
  5
3A6
  8
0
 62
     6
 10
90.396703861011986
 20
27.029847356234999
 30
0.0
 40
3.7999999999999989
  1
６１０
 41
0.7894736842105301
  0
TEXT
  5
3A7
  8
0
 62
     6
 10
75.396703861011986
 20
27.029847356234999
 30
0.0
 40
3.7999999999999989
  1
６０９
 41
0.7894736842105301
  0
LINE
  5
3A8
  8
0
  6
CONTINUOUS
 62
     3
 10
74.785649236669997
 20
50.071638509112987
 30
0.0
 11
74.785649236669997
 21
20.071638509113001
 31
0.0
  0
LINE
  5
3A9
  8
0
  6
CONTINUOUS
 62
     3
 10
89.785649236669997
 20
50.071638509112987
 30
0.0
 11
89.785649236669997
 21
20.071638509113001
 31
0.0
  0
LINE
  5
3AA
  8
0
  6
CONTINUOUS
 62
     3
 10
104.78564923667
 20
50.071638509112987
 30
0.0
 11
104.78564923667
 21
20.071638509113001
 31
0.0
  0
LINE
  5
3AB
  8
0
  6
CONTINUOUS
 62
     3
 10
152.32968763667
 20
50.071638509112987
 30
0.0
 11
152.32968763667
 21
20.071638509113001
 31
0.0
  0
LINE
  5
3AC
  8
0
  6
CONTINUOUS
 62
     3
 10
34.785649236669997
 20
32.071638509113001
 30
0.0
 11
104.78564923667
 21
32.071638509113001
 31
0.0
  0
LINE
  5
3AD
  8
0
  6
CONTINUOUS
 62
     3
 10
34.785649236669997
 20
26.071638509113001
 30
0.0
 11
104.78564923667
 21
26.071638509113001
 31
0.0
  0
TEXT
  5
3AE
  8
0
 62
     6
 10
105.83824385144
 20
39.224777008947001
 30
0.0
 40
3.7999999999999989
  1
クローム
 41
0.65789473684211
  0
LINE
  5
411
  8
0
  6
CONTINUOUS
 62
     7
 10
367.79420540657998
 20
434.84537886202992
 30
0.0
 11
367.90783172578
 21
434.95974997492988
 31
0.0
  0
LINE
  5
412
  8
0
  6
CONTINUOUS
 62
     7
 10
367.90783172578
 20
434.95974997492988
 30
0.0
 11
367.99093677858002
 21
435.04552665572987
 31
0.0
  0
DIMENSION
  5
413
  8
0
  6
CONTINUOUS
 62
     6
  2
*D19
 10
318.83105486198002
 20
421.14017744772991
 30
0.0
 11
295.63543067348002
 21
437.22106968467
 31
0.0
 70
   132
 15
312.21310823568001
 25
428.63702895029002
 35
0.0
 40
11.450194433550999
  0
LINE
  5
414
  8
0
  6
CONTINUOUS
 62
     7
 10
379.33105486198002
 20
447.14017744772991
 30
0.0
 11
372.82331057827997
 21
447.10610266692998
 31
0.0
  0
ARC
  5
415
  8
0
  6
CONTINUOUS
 62
     7
 10
372.83116452397991
 20
445.6061232285299
 30
0.0
 40
1.5
 50
90.299999999999983
 51
180.00000000002001
  0
ARC
  5
416
  8
0
  6
CONTINUOUS
 62
     7
 10
359.33116452398002
 20
443.35253903862991
 30
0.0
 40
12.0
 50
270.30000000000001
 51
335.09914366359999
  0
ARC
  5
417
  8
0
  6
CONTINUOUS
 62
     7
 10
318.83105486196001
 20
421.14017744772991
 30
0.0
 40
10.0
 50
90.299999999845994
 51
269.70000000015
  0
ARC
  5
418
  8
0
  6
CONTINUOUS
 62
     7
 10
359.33116452398002
 20
443.35253903862991
 30
0.0
 40
11.999999999998
 50
335.09914366362011
 51
0.0000000000189985
  0
LINE
  5
419
  8
0
  6
CONTINUOUS
 62
     7
 10
318.77869522368002
 20
431.1400403701299
 30
0.0
 11
359.39399608998002
 21
431.35270353162991
 31
0.0
  0
LINE
  5
41A
  8
0
  6
CONTINUOUS
 62
     7
 10
371.33116452398002
 20
443.35253903862991
 30
0.0
 11
371.33116452398002
 21
445.6061232285299
 31
0.0
  0
LINE
  5
41B
  8
0
  6
CONTINUOUS
 62
     7
 10
371.33116452398002
 20
443.93388935992988
 30
0.0
 11
371.33116452398002
 21
443.35253903862991
 31
0.0
  0
LINE
  5
41C
  8
0
  6
CONTINUOUS
 62
     7
 10
372.82331057827997
 20
395.17425222853001
 30
0.0
 11
379.33105486198002
 21
395.14017744773003
 31
0.0
  0
ARC
  5
41D
  8
0
  6
CONTINUOUS
 62
     7
 10
372.83116452399003
 20
396.67423166683
 30
0.0
 40
1.5
 50
180.0
 51
269.6999999999
  0
ARC
  5
41E
  8
0
  6
CONTINUOUS
 62
     7
 10
359.33116452398002
 20
398.92781585683002
 30
0.0
 40
12.0
 50
24.900856336402001
 51
89.700000000004025
  0
ARC
  5
41F
  8
0
  6
CONTINUOUS
 62
     7
 10
359.33116452398002
 20
398.92781585683002
 30
0.0
 40
11.999999999998
 50
0.0
 51
24.900856336395002
  0
LINE
  5
420
  8
0
  6
CONTINUOUS
 62
     7
 10
318.77869522368002
 20
411.14031452522988
 30
0.0
 11
359.39399608998002
 21
410.92765136372998
 31
0.0
  0
LINE
  5
421
  8
0
  6
CONTINUOUS
 62
     7
 10
371.33116452398002
 20
398.92781585683002
 30
0.0
 11
371.33116452398002
 21
396.67423166683
 31
0.0
  0
LINE
  5
422
  8
0
  6
CONTINUOUS
 62
     7
 10
260.47256426779001
 20
547.69077181295995
 30
0.0
 11
260.50536204829001
 21
547.71392043495985
 31
0.0
  0
LINE
  5
423
  8
0
  6
CONTINUOUS
 62
     7
 10
260.50536204829001
 20
547.71392043495985
 30
0.0
 11
260.58934714799
 21
547.75370244446003
 31
0.0
  0
LINE
  5
424
  8
0
  6
CONTINUOUS
 62
     7
 10
260.58934714799
 20
547.75370244446003
 30
0.0
 11
260.72623838979001
 21
547.79737769235976
 31
0.0
  0
LINE
  5
425
  8
0
  6
CONTINUOUS
 62
     7
 10
260.72623838979001
 20
547.79737769235976
 30
0.0
 11
260.91544319038991
 21
547.83767842845987
 31
0.0
  0
LINE
  5
426
  8
0
  6
CONTINUOUS
 62
     7
 10
260.91544319038991
 20
547.83767842845987
 30
0.0
 11
261.15802618279002
 21
547.87094048975985
 31
0.0
  0
LINE
  5
427
  8
0
  6
CONTINUOUS
 62
     7
 10
261.15802618279002
 20
547.87094048975985
 30
0.0
 11
261.45303455788991
 21
547.89514260505985
 31
0.0
  0
LINE
  5
428
  8
0
  6
CONTINUOUS
 62
     7
 10
261.45303455788991
 20
547.89514260505985
 30
0.0
 11
261.79180990178997
 21
547.91014401255995
 31
0.0
  0
LINE
  5
429
  8
0
  6
CONTINUOUS
 62
     7
 10
261.79180990178997
 20
547.91014401255995
 30
0.0
 11
262.17885211759
 21
547.91743941385994
 31
0.0
  0
LINE
  5
42A
  8
0
  6
CONTINUOUS
 62
     7
 10
262.17885211759
 20
547.91743941385994
 30
0.0
 11
262.37271431278998
 21
547.91795499885995
 31
0.0
  0
LINE
  5
42B
  8
0
  6
CONTINUOUS
 62
     7
 10
267.06019131278998
 20
547.91879168966
 30
0.0
 11
267.48255030608999
 21
547.91611373915987
 31
0.0
  0
LINE
  5
42C
  8
0
  6
CONTINUOUS
 62
     7
 10
267.48255030608999
 20
547.91611373915987
 30
0.0
 11
267.86834062189001
 21
547.90620860725994
 31
0.0
  0
LINE
  5
42D
  8
0
  6
CONTINUOUS
 62
     7
 10
267.86834062189001
 20
547.90620860725994
 30
0.0
 11
268.20921242659
 21
547.88704675186
 31
0.0
  0
LINE
  5
42E
  8
0
  6
CONTINUOUS
 62
     7
 10
268.20921242659
 20
547.88704675186
 30
0.0
 11
268.49684412929003
 21
547.85750212905987
 31
0.0
  0
LINE
  5
42F
  8
0
  6
CONTINUOUS
 62
     7
 10
268.49684412929003
 20
547.85750212905987
 30
0.0
 11
268.72715201499
 21
547.81849927795986
 31
0.0
  0
LINE
  5
430
  8
0
  6
CONTINUOUS
 62
     7
 10
268.72715201499
 20
547.81849927795986
 30
0.0
 11
268.90196551298999
 21
547.77248169865993
 31
0.0
  0
LINE
  5
431
  8
0
  6
CONTINUOUS
 62
     7
 10
268.90196551298999
 20
547.77248169865993
 30
0.0
 11
269.01295907089002
 21
547.72800330125995
 31
0.0
  0
LINE
  5
432
  8
0
  6
CONTINUOUS
 62
     7
 10
269.01295907089002
 20
547.72800330125995
 30
0.0
 11
269.06435060919
 21
547.69667012625985
 31
0.0
  0
LINE
  5
433
  8
0
  6
CONTINUOUS
 62
     7
 10
254.81406333419
 20
547.89656365665985
 30
0.0
 11
254.77205952839
 21
555.91862633845994
 31
0.0
  0
LINE
  5
434
  8
0
  6
CONTINUOUS
 62
     7
 10
274.75254733329001
 20
555.91862633845994
 30
0.0
 11
254.77205952839
 21
555.91862633845994
 31
0.0
  0
LINE
  5
435
  8
0
  6
CONTINUOUS
 62
     7
 10
270.52347686919001
 20
547.91873600045994
 30
0.0
 11
259.02064218759
 21
547.91873600045994
 31
0.0
  0
LINE
  5
436
  8
0
  6
CONTINUOUS
 62
     7
 10
275.27205952839
 20
555.91862633845994
 30
0.0
 11
274.75254733329001
 21
555.91862633845994
 31
0.0
  0
LINE
  5
437
  8
0
  6
CONTINUOUS
 62
     7
 10
254.87645067798999
 20
535.98156756645994
 30
0.0
 11
254.81406333419
 21
547.89656365665985
 31
0.0
  0
LINE
  5
438
  8
0
  6
CONTINUOUS
 62
     7
 10
255.08911383949001
 20
495.36626670016
 30
0.0
 11
254.87645067798999
 21
535.98156756645994
 31
0.0
  0
LINE
  5
439
  8
0
  6
CONTINUOUS
 62
     7
 10
272.67257479499
 20
547.58196395795994
 30
0.0
 11
272.42048236728999
 21
547.69654617465994
 31
0.0
  0
LINE
  5
43A
  8
0
  6
CONTINUOUS
 62
     7
 10
272.42048236728999
 20
547.69654617465994
 30
0.0
 11
272.12131034939
 21
547.78478478765987
 31
0.0
  0
LINE
  5
43B
  8
0
  6
CONTINUOUS
 62
     7
 10
271.78377361039003
 20
547.8474960420599
 30
0.0
 11
271.40527652829002
 21
547.88885140375987
 31
0.0
  0
LINE
  5
43C
  8
0
  6
CONTINUOUS
 62
     7
 10
272.12131034939
 20
547.78478478765987
 30
0.0
 11
271.78377361039003
 21
547.8474960420599
 31
0.0
  0
LINE
  5
43D
  8
0
  6
CONTINUOUS
 62
     7
 10
271.40527652829002
 20
547.88885140375987
 30
0.0
 11
270.98231285118999
 21
547.91180622015997
 31
0.0
  0
LINE
  5
43E
  8
0
  6
CONTINUOUS
 62
     7
 10
270.98231285118999
 20
547.91180622015997
 30
0.0
 11
270.52347686919001
 21
547.91873600045994
 31
0.0
  0
LINE
  5
43F
  8
0
  6
CONTINUOUS
 62
     7
 10
273.14939023719
 20
547.05596627336001
 30
0.0
 11
273.02813663269001
 21
547.27683431785988
 31
0.0
  0
LINE
  5
440
  8
0
  6
CONTINUOUS
 62
     7
 10
273.02813663269001
 20
547.27683431785988
 30
0.0
 11
272.87348922869
 21
547.44272342475995
 31
0.0
  0
LINE
  5
441
  8
0
  6
CONTINUOUS
 62
     7
 10
272.87348922869
 20
547.44272342475995
 30
0.0
 11
272.67257479499
 21
547.58196395795994
 31
0.0
  0
LINE
  5
442
  8
0
  6
CONTINUOUS
 62
     7
 10
273.21492803618997
 20
546.80318865766003
 30
0.0
 11
273.14939023719
 21
547.05596627336001
 31
0.0
  0
ARC
  5
443
  8
0
  6
CONTINUOUS
 62
     7
 10
264.76717721058998
 20
549.10488560325985
 30
0.0
 40
4.5328283195390986
 50
198.45839552983
 51
341.57052898206001
  0
LINE
  5
444
  8
0
  6
CONTINUOUS
 62
     7
 10
258.66346106509002
 20
547.91468187565999
 30
0.0
 11
258.00496185398998
 21
547.87694712906
 31
0.0
  0
LINE
  5
445
  8
0
  6
CONTINUOUS
 62
     7
 10
258.00496185398998
 20
547.87694712906
 30
0.0
 11
257.70602061159002
 21
547.83935470325991
 31
0.0
  0
LINE
  5
446
  8
0
  6
CONTINUOUS
 62
     7
 10
257.70602061159002
 20
547.83935470325991
 30
0.0
 11
257.38303172189001
 21
547.77517530325986
 31
0.0
  0
LINE
  5
447
  8
0
  6
CONTINUOUS
 62
     7
 10
257.38303172189001
 20
547.77517530325986
 30
0.0
 11
257.09744412728998
 21
547.68673999696
 31
0.0
  0
LINE
  5
448
  8
0
  6
CONTINUOUS
 62
     7
 10
257.09744412728998
 20
547.68673999696
 30
0.0
 11
256.84890327999
 21
547.56897109435999
 31
0.0
  0
LINE
  5
449
  8
0
  6
CONTINUOUS
 62
     7
 10
256.84890327999
 20
547.56897109435999
 30
0.0
 11
256.64566391968998
 21
547.4206014243598
 31
0.0
  0
LINE
  5
44A
  8
0
  6
CONTINUOUS
 62
     7
 10
256.64566391968998
 20
547.4206014243598
 30
0.0
 11
256.49945378148999
 21
547.25365314336
 31
0.0
  0
LINE
  5
44B
  8
0
  6
CONTINUOUS
 62
     7
 10
256.49945378148999
 20
547.25365314336
 30
0.0
 11
256.39554982588999
 21
547.05805891965986
 31
0.0
  0
LINE
  5
44C
  8
0
  6
CONTINUOUS
 62
     7
 10
256.39554982588999
 20
547.05805891965986
 30
0.0
 11
256.33335259198998
 21
546.82982970115995
 31
0.0
  0
LINE
  5
44D
  8
0
  6
CONTINUOUS
 62
     7
 10
256.33335259198998
 20
546.82982970115995
 30
0.0
 11
256.31404277259003
 21
546.57267520226003
 31
0.0
  0
LINE
  5
44E
  8
0
  6
CONTINUOUS
 62
     7
 10
259.02064218759
 20
547.91873600045994
 30
0.0
 11
258.66346106509002
 21
547.91468187565999
 31
0.0
  0
LINE
  5
44F
  8
0
  6
DOT
 62
     2
 10
262.34211632238998
 20
555.49856954445988
 30
0.0
 11
267.20200273439002
 21
555.49856954445988
 31
0.0
  0
LINE
  5
450
  8
0
  6
DOT
 62
     2
 10
267.62205952839003
 20
555.91862633845994
 30
0.0
 11
267.20200273439002
 21
555.49856954445988
 31
0.0
  0
LINE
  5
451
  8
0
  6
DOT
 62
     2
 10
267.20200273439002
 20
555.49856954445988
 30
0.0
 11
267.12205952839003
 21
550.91862633845994
 31
0.0
  0
LINE
  5
452
  8
0
  6
DOT
 62
     2
 10
262.34211632238998
 20
555.49856954445988
 30
0.0
 11
261.92205952838998
 21
555.91862633845994
 31
0.0
  0
LINE
  5
453
  8
0
  6
DOT
 62
     2
 10
262.42205952838998
 20
550.91862633845994
 30
0.0
 11
262.34211632238998
 21
555.49856954445988
 31
0.0
  0
LINE
  5
454
  8
0
  6
DOT
 62
     2
 10
261.01340818029001
 20
550.91862633845994
 30
0.0
 11
268.53071089679003
 21
550.91862633845994
 31
0.0
  0
LINE
  5
455
  8
0
  6
DOT
 62
     2
 10
260.46546945439002
 20
547.67658317086
 30
0.0
 11
260.51348431239001
 21
550.42735254165996
 31
0.0
  0
ARC
  5
456
  8
0
  6
DOT
 62
     2
 10
261.01340815998998
 20
550.41862633845994
 30
0.0
 40
0.5
 50
90.000000000377995
 51
179.0
  0
LINE
  5
457
  8
0
  6
DOT
 62
     2
 10
269.03063474439
 20
550.42735254165996
 30
0.0
 11
269.07864078349002
 21
547.67708840385978
 31
0.0
  0
ARC
  5
458
  8
0
  6
DOT
 62
     2
 10
268.53071089679003
 20
550.41862633844005
 30
0.0
 40
0.50000000000001
 50
1.0000000025816
 51
90.000000000046001
  0
LINE
  5
459
  8
0
  6
DOT
 62
     2
 10
371.33116452398002
 20
398.34646553553
 30
0.0
 11
371.33116452398002
 21
398.92781585683002
 31
0.0
  0
LINE
  5
45A
  8
0
  6
DOT
 62
     2
 10
367.91946641068
 20
407.50209214042991
 30
0.0
 11
373.83978106517998
 21
407.39875266373002
 31
0.0
  0
LINE
  5
45B
  8
0
  6
DOT
 62
     2
 10
374.33105486197991
 20
406.89882881612999
 30
0.0
 11
374.33105486197991
 21
405.49017744772988
 31
0.0
  0
ARC
  5
45C
  8
0
  6
DOT
 62
     2
 10
373.83105486199003
 20
406.89882881612999
 30
0.0
 40
0.5000000000000201
 50
0.0000000000260551
 51
89.000000001391996
  0
LINE
  5
45D
  8
0
  6
DOT
 62
     2
 10
374.33105486197991
 20
405.49017744772988
 30
0.0
 11
378.91099806808
 21
405.57012065372999
 31
0.0
  0
LINE
  5
45E
  8
0
  6
DOT
 62
     2
 10
374.33105486197991
 20
405.49017744772988
 30
0.0
 11
374.33105486197991
 21
400.79017744772989
 31
0.0
  0
LINE
  5
45F
  8
0
  6
DOT
 62
     2
 10
378.91099806808
 20
400.71023424162991
 30
0.0
 11
374.33105486197991
 21
400.79017744772989
 31
0.0
  0
LINE
  5
460
  8
0
  6
DOT
 62
     2
 10
373.83978106517998
 20
398.88160223162993
 30
0.0
 11
371.8224383207799
 21
398.84638938312997
 31
0.0
  0
ARC
  5
461
  8
0
  6
DOT
 62
     2
 10
373.83105486198002
 20
399.38152607923001
 30
0.0
 40
0.5
 50
270.99999999999
 51
0.0
  0
LINE
  5
462
  8
0
  6
DOT
 62
     2
 10
374.33105486197991
 20
400.79017744772989
 30
0.0
 11
374.33105486197991
 21
399.38152607923001
 31
0.0
  0
ARC
  5
463
  8
0
  6
DOT
 62
     2
 10
371.83116452398002
 20
398.34646553553
 30
0.0
 40
0.50000000000006
 50
91.000000000007006
 51
180.00000000028001
  0
ARC
  5
464
  8
0
  6
DOT
 62
     2
 10
367.92819261394999
 20
408.00201598803
 30
0.0
 40
0.5000000000000301
 50
226.54676866314
 51
269.00000000357011
  0
LINE
  5
465
  8
0
  6
DOT
 62
     2
 10
367.64996015897992
 20
407.58697974873002
 30
0.0
 11
367.63097117467993
 21
407.60047204752999
 31
0.0
  0
ARC
  5
466
  8
0
  6
DOT
 62
     2
 10
371.83116452398002
 20
398.34646553553
 30
0.0
 40
0.50000000000006
 50
91.000000000007006
 51
180.00000000028001
  0
LINE
  5
467
  8
0
  6
CONTINUOUS
 62
     7
 10
379.33105486198002
 20
421.14017744772991
 30
0.0
 11
379.33105486198002
 21
447.14017744772991
 31
0.0
  0
LINE
  5
468
  8
0
  6
CONTINUOUS
 62
     7
 10
379.33105486198002
 20
421.14017744772991
 30
0.0
 11
379.33105486198002
 21
395.14017744773003
 31
0.0
  0
LINE
  5
469
  8
0
  6
DOT
 62
     2
 10
371.33116452398002
 20
443.93388935992988
 30
0.0
 11
371.33116452398002
 21
443.35253903862991
 31
0.0
  0
LINE
  5
46A
  8
0
  6
DOT
 62
     2
 10
367.91946641068
 20
434.77826275503003
 30
0.0
 11
373.83978106517998
 21
434.88160223173003
 31
0.0
  0
LINE
  5
46B
  8
0
  6
DOT
 62
     2
 10
374.33105486197991
 20
435.38152607932989
 30
0.0
 11
374.33105486197991
 21
436.79017744772989
 31
0.0
  0
ARC
  5
46C
  8
0
  6
DOT
 62
     2
 10
373.83105486199997
 20
435.38152607932989
 30
0.0
 40
0.5000000000000201
 50
270.99999999805999
 51
0.0
  0
LINE
  5
46D
  8
0
  6
DOT
 62
     2
 10
374.33105486197991
 20
436.79017744772989
 30
0.0
 11
378.91099806808
 21
436.71023424172989
 31
0.0
  0
LINE
  5
46E
  8
0
  6
DOT
 62
     2
 10
374.33105486197991
 20
436.79017744772989
 30
0.0
 11
374.33105486197991
 21
441.49017744772988
 31
0.0
  0
LINE
  5
46F
  8
0
  6
DOT
 62
     2
 10
378.91099806808
 20
441.57012065382992
 30
0.0
 11
374.33105486197991
 21
441.49017744772988
 31
0.0
  0
LINE
  5
470
  8
0
  6
DOT
 62
     2
 10
373.83978106517998
 20
443.3987526638299
 30
0.0
 11
371.8224383207799
 21
443.43396551233002
 31
0.0
  0
ARC
  5
471
  8
0
  6
DOT
 62
     2
 10
373.83105486198002
 20
442.89882881620002
 30
0.0
 40
0.5
 50
0.000000003458815
 51
89.000000000058989
  0
LINE
  5
472
  8
0
  6
DOT
 62
     2
 10
374.33105486197991
 20
441.49017744772988
 30
0.0
 11
374.33105486197991
 21
442.89882881622998
 31
0.0
  0
ARC
  5
473
  8
0
  6
DOT
 62
     2
 10
371.83116452398002
 20
443.93388935991999
 30
0.0
 40
0.50000000000006
 50
179.9999999993
 51
268.99999999999
  0
ARC
  5
474
  8
0
  6
DOT
 62
     2
 10
367.92819261394999
 20
434.27833890742988
 30
0.0
 40
0.5000000000000301
 50
90.999999996235999
 51
133.45323133671999
  0
LINE
  5
475
  8
0
  6
DOT
 62
     2
 10
367.64996015897992
 20
434.69337514672992
 30
0.0
 11
367.63097117467993
 21
434.67988284792989
 31
0.0
  0
ARC
  5
476
  8
0
  6
DOT
 62
     2
 10
371.83116452398002
 20
443.93388935991999
 30
0.0
 40
0.50000000000006
 50
179.9999999993
 51
268.99999999999
  0
DIMENSION
  5
477
  8
0
  6
CONTINUOUS
 62
     6
  2
*D20
 10
66.456908458437994
 20
437.50195155276992
 30
0.0
 11
31.289285988534999
 21
452.73602054550003
 31
0.0
 70
   131
  1
\A1;%%c4.7穴%%c8.5ザグリ
 15
63.087210598345003
 25
440.77840334269001
 35
0.0
 40
17.152946069919999
  0
ARC
  5
478
  8
0
  6
CONTINUOUS
 62
     7
 10
494.66092282179
 20
421.14017744772991
 30
0.0
 40
440.01742786636993
 50
178.88686049730001
 51
181.11313950269999
  0
ARC
  5
479
  8
0
  6
CONTINUOUS
 62
     7
 10
56.225784187591998
 20
412.64034175301998
 30
0.0
 40
1.500027228530699
 50
181.84378967409
 51
269.99823237228998
  0
LINE
  5
47A
  8
0
  6
CONTINUOUS
 62
     7
 10
56.225737910391999
 20
411.14031452522988
 30
0.0
 11
56.227478883491997
 21
411.15413142152988
 31
0.0
  0
LINE
  5
47B
  8
0
  6
CONTINUOUS
 62
     7
 10
56.227478883491997
 20
411.15413142152988
 30
0.0
 11
56.228600947491991
 21
411.19067713282999
 31
0.0
  0
ARC
  5
47C
  8
0
  6
CONTINUOUS
 62
     7
 10
56.225784187597
 20
429.64001314233002
 30
0.0
 40
1.500027228530699
 50
90.001767627912002
 51
178.15621032570999
  0
ARC
  5
47D
  8
0
  6
CONTINUOUS
 62
     7
 10
72.954977614385996
 20
412.64034212812999
 30
0.0
 40
1.500027603662399
 50
270.00183971540997
 51
359.99816028480001
  0
POLYLINE
  5
47E
  8
0
  6
CONTINUOUS
 62
     7
 10
74.455005217301391
 20
429.64006093183315
 30
0.0
 66
     1
 70
     8
  0
VERTEX
  8
0
  5
8E8
 10
74.4550
 20
429.640
 30
0.000000
  70
    32
  0
VERTEX
  8
0
  5
8E9
 10
74.4539
 20
429.636
 30
0.000000
  70
    32
  0
VERTEX
  8
0
  5
8EA
 10
74.4528
 20
429.628
 30
0.000000
  70
    32
  0
VERTEX
  8
0
  5
8EB
 10
74.4517
 20
429.614
 30
0.000000
  70
    32
  0
VERTEX
  8
0
  5
8EC
 10
74.4507
 20
429.595
 30
0.000000
  70
    32
  0
VERTEX
  8
0
  5
8ED
 10
74.4496
 20
429.571
 30
0.000000
  70
    32
  0
VERTEX
  8
0
  5
8EE
 10
74.4485
 20
429.542
 30
0.000000
  70
    32
  0
VERTEX
  8
0
  5
8EF
 10
74.4474
 20
429.508
 30
0.000000
  70
    32
  0
VERTEX
  8
0
  5
8F0
 10
74.4464
 20
429.469
 30
0.000000
  70
    32
  0
VERTEX
  8
0
  5
8F1
 10
74.4453
 20
429.425
 30
0.000000
  70
    32
  0
VERTEX
  8
0
  5
8F2
 10
74.4442
 20
429.376
 30
0.000000
  70
    32
  0
VERTEX
  8
0
  5
8F3
 10
74.4432
 20
429.322
 30
0.000000
  70
    32
  0
VERTEX
  8
0
  5
8F4
 10
74.4421
 20
429.264
 30
0.000000
  70
    32
  0
VERTEX
  8
0
  5
8F5
 10
74.4411
 20
429.200
 30
0.000000
  70
    32
  0
VERTEX
  8
0
  5
8F6
 10
74.4401
 20
429.132
 30
0.000000
  70
    32
  0
VERTEX
  8
0
  5
8F7
 10
74.4391
 20
429.058
 30
0.000000
  70
    32
  0
VERTEX
  8
0
  5
8F8
 10
74.4380
 20
428.980
 30
0.000000
  70
    32
  0
VERTEX
  8
0
  5
8F9
 10
74.4370
 20
428.898
 30
0.000000
  70
    32
  0
VERTEX
  8
0
  5
8FA
 10
74.4361
 20
428.810
 30
0.000000
  70
    32
  0
VERTEX
  8
0
  5
8FB
 10
74.4351
 20
428.718
 30
0.000000
  70
    32
  0
VERTEX
  8
0
  5
8FC
 10
74.4341
 20
428.622
 30
0.000000
  70
    32
  0
VERTEX
  8
0
  5
8FD
 10
74.4332
 20
428.521
 30
0.000000
  70
    32
  0
VERTEX
  8
0
  5
8FE
 10
74.4322
 20
428.416
 30
0.000000
  70
    32
  0
VERTEX
  8
0
  5
8FF
 10
74.4313
 20
428.306
 30
0.000000
  70
    32
  0
VERTEX
  8
0
  5
900
 10
74.4304
 20
428.192
 30
0.000000
  70
    32
  0
VERTEX
  8
0
  5
901
 10
74.4295
 20
428.074
 30
0.000000
  70
    32
  0
VERTEX
  8
0
  5
902
 10
74.4286
 20
427.952
 30
0.000000
  70
    32
  0
VERTEX
  8
0
  5
903
 10
74.4278
 20
427.825
 30
0.000000
  70
    32
  0
VERTEX
  8
0
  5
904
 10
74.4269
 20
427.695
 30
0.000000
  70
    32
  0
VERTEX
  8
0
  5
905
 10
74.4261
 20
427.561
 30
0.000000
  70
    32
  0
VERTEX
  8
0
  5
906
 10
74.4253
 20
427.422
 30
0.000000
  70
    32
  0
VERTEX
  8
0
  5
907
 10
74.4245
 20
427.280
 30
0.000000
  70
    32
  0
VERTEX
  8
0
  5
908
 10
74.4237
 20
427.135
 30
0.000000
  70
    32
  0
VERTEX
  8
0
  5
909
 10
74.4229
 20
426.986
 30
0.000000
  70
    32
  0
VERTEX
  8
0
  5
90A
 10
74.4222
 20
426.833
 30
0.000000
  70
    32
  0
VERTEX
  8
0
  5
90B
 10
74.4215
 20
426.677
 30
0.000000
  70
    32
  0
VERTEX
  8
0
  5
90C
 10
74.4208
 20
426.517
 30
0.000000
  70
    32
  0
VERTEX
  8
0
  5
90D
 10
74.4201
 20
426.355
 30
0.000000
  70
    32
  0
VERTEX
  8
0
  5
90E
 10
74.4194
 20
426.189
 30
0.000000
  70
    32
  0
VERTEX
  8
0
  5
90F
 10
74.4188
 20
426.020
 30
0.000000
  70
    32
  0
VERTEX
  8
0
  5
910
 10
74.4182
 20
425.849
 30
0.000000
  70
    32
  0
VERTEX
  8
0
  5
911
 10
74.4176
 20
425.674
 30
0.000000
  70
    32
  0
VERTEX
  8
0
  5
912
 10
74.4170
 20
425.497
 30
0.000000
  70
    32
  0
VERTEX
  8
0
  5
913
 10
74.4165
 20
425.317
 30
0.000000
  70
    32
  0
VERTEX
  8
0
  5
914
 10
74.4160
 20
425.135
 30
0.000000
  70
    32
  0
VERTEX
  8
0
  5
915
 10
74.4155
 20
424.950
 30
0.000000
  70
    32
  0
VERTEX
  8
0
  5
916
 10
74.4150
 20
424.763
 30
0.000000
  70
    32
  0
VERTEX
  8
0
  5
917
 10
74.4145
 20
424.574
 30
0.000000
  70
    32
  0
VERTEX
  8
0
  5
918
 10
74.4141
 20
424.383
 30
0.000000
  70
    32
  0
VERTEX
  8
0
  5
919
 10
74.4137
 20
424.190
 30
0.000000
  70
    32
  0
VERTEX
  8
0
  5
91A
 10
74.4133
 20
423.995
 30
0.000000
  70
    32
  0
VERTEX
  8
0
  5
91B
 10
74.4130
 20
423.798
 30
0.000000
  70
    32
  0
VERTEX
  8
0
  5
91C
 10
74.4126
 20
423.600
 30
0.000000
  70
    32
  0
VERTEX
  8
0
  5
91D
 10
74.4123
 20
423.400
 30
0.000000
  70
    32
  0
VERTEX
  8
0
  5
91E
 10
74.4121
 20
423.199
 30
0.000000
  70
    32
  0
VERTEX
  8
0
  5
91F
 10
74.4118
 20
422.996
 30
0.000000
  70
    32
  0
VERTEX
  8
0
  5
920
 10
74.4116
 20
422.793
 30
0.000000
  70
    32
  0
VERTEX
  8
0
  5
921
 10
74.4114
 20
422.589
 30
0.000000
  70
    32
  0
VERTEX
  8
0
  5
922
 10
74.4112
 20
422.383
 30
0.000000
  70
    32
  0
VERTEX
  8
0
  5
923
 10
74.4111
 20
422.177
 30
0.000000
  70
    32
  0
VERTEX
  8
0
  5
924
 10
74.4109
 20
421.971
 30
0.000000
  70
    32
  0
VERTEX
  8
0
  5
925
 10
74.4109
 20
421.763
 30
0.000000
  70
    32
  0
VERTEX
  8
0
  5
926
 10
74.4108
 20
421.556
 30
0.000000
  70
    32
  0
VERTEX
  8
0
  5
927
 10
74.4107
 20
421.348
 30
0.000000
  70
    32
  0
VERTEX
  8
0
  5
928
 10
74.4107
 20
421.140
 30
0.000000
  70
    32
  0
VERTEX
  8
0
  5
929
 10
74.4107
 20
420.932
 30
0.000000
  70
    32
  0
VERTEX
  8
0
  5
92A
 10
74.4108
 20
420.724
 30
0.000000
  70
    32
  0
VERTEX
  8
0
  5
92B
 10
74.4109
 20
420.517
 30
0.000000
  70
    32
  0
VERTEX
  8
0
  5
92C
 10
74.4109
 20
420.310
 30
0.000000
  70
    32
  0
VERTEX
  8
0
  5
92D
 10
74.4111
 20
420.103
 30
0.000000
  70
    32
  0
VERTEX
  8
0
  5
92E
 10
74.4112
 20
419.897
 30
0.000000
  70
    32
  0
VERTEX
  8
0
  5
92F
 10
74.4114
 20
419.692
 30
0.000000
  70
    32
  0
VERTEX
  8
0
  5
930
 10
74.4116
 20
419.487
 30
0.000000
  70
    32
  0
VERTEX
  8
0
  5
931
 10
74.4118
 20
419.284
 30
0.000000
  70
    32
  0
VERTEX
  8
0
  5
932
 10
74.4121
 20
419.082
 30
0.000000
  70
    32
  0
VERTEX
  8
0
  5
933
 10
74.4123
 20
418.880
 30
0.000000
  70
    32
  0
VERTEX
  8
0
  5
934
 10
74.4126
 20
418.681
 30
0.000000
  70
    32
  0
VERTEX
  8
0
  5
935
 10
74.4130
 20
418.482
 30
0.000000
  70
    32
  0
VERTEX
  8
0
  5
936
 10
74.4133
 20
418.286
 30
0.000000
  70
    32
  0
VERTEX
  8
0
  5
937
 10
74.4137
 20
418.091
 30
0.000000
  70
    32
  0
VERTEX
  8
0
  5
938
 10
74.4141
 20
417.898
 30
0.000000
  70
    32
  0
VERTEX
  8
0
  5
939
 10
74.4145
 20
417.706
 30
0.000000
  70
    32
  0
VERTEX
  8
0
  5
93A
 10
74.4150
 20
417.517
 30
0.000000
  70
    32
  0
VERTEX
  8
0
  5
93B
 10
74.4155
 20
417.330
 30
0.000000
  70
    32
  0
VERTEX
  8
0
  5
93C
 10
74.4160
 20
417.146
 30
0.000000
  70
    32
  0
VERTEX
  8
0
  5
93D
 10
74.4165
 20
416.963
 30
0.000000
  70
    32
  0
VERTEX
  8
0
  5
93E
 10
74.4170
 20
416.783
 30
0.000000
  70
    32
  0
VERTEX
  8
0
  5
93F
 10
74.4176
 20
416.606
 30
0.000000
  70
    32
  0
VERTEX
  8
0
  5
940
 10
74.4182
 20
416.432
 30
0.000000
  70
    32
  0
VERTEX
  8
0
  5
941
 10
74.4188
 20
416.260
 30
0.000000
  70
    32
  0
VERTEX
  8
0
  5
942
 10
74.4194
 20
416.091
 30
0.000000
  70
    32
  0
VERTEX
  8
0
  5
943
 10
74.4201
 20
415.926
 30
0.000000
  70
    32
  0
VERTEX
  8
0
  5
944
 10
74.4208
 20
415.763
 30
0.000000
  70
    32
  0
VERTEX
  8
0
  5
945
 10
74.4215
 20
415.603
 30
0.000000
  70
    32
  0
VERTEX
  8
0
  5
946
 10
74.4222
 20
415.447
 30
0.000000
  70
    32
  0
VERTEX
  8
0
  5
947
 10
74.4229
 20
415.295
 30
0.000000
  70
    32
  0
VERTEX
  8
0
  5
948
 10
74.4237
 20
415.146
 30
0.000000
  70
    32
  0
VERTEX
  8
0
  5
949
 10
74.4245
 20
415.000
 30
0.000000
  70
    32
  0
VERTEX
  8
0
  5
94A
 10
74.4253
 20
414.858
 30
0.000000
  70
    32
  0
VERTEX
  8
0
  5
94B
 10
74.4261
 20
414.720
 30
0.000000
  70
    32
  0
VERTEX
  8
0
  5
94C
 10
74.4269
 20
414.585
 30
0.000000
  70
    32
  0
VERTEX
  8
0
  5
94D
 10
74.4278
 20
414.455
 30
0.000000
  70
    32
  0
VERTEX
  8
0
  5
94E
 10
74.4286
 20
414.329
 30
0.000000
  70
    32
  0
VERTEX
  8
0
  5
94F
 10
74.4295
 20
414.206
 30
0.000000
  70
    32
  0
VERTEX
  8
0
  5
950
 10
74.4304
 20
414.088
 30
0.000000
  70
    32
  0
VERTEX
  8
0
  5
951
 10
74.4313
 20
413.974
 30
0.000000
  70
    32
  0
VERTEX
  8
0
  5
952
 10
74.4322
 20
413.865
 30
0.000000
  70
    32
  0
VERTEX
  8
0
  5
953
 10
74.4332
 20
413.759
 30
0.000000
  70
    32
  0
VERTEX
  8
0
  5
954
 10
74.4341
 20
413.658
 30
0.000000
  70
    32
  0
VERTEX
  8
0
  5
955
 10
74.4351
 20
413.562
 30
0.000000
  70
    32
  0
VERTEX
  8
0
  5
956
 10
74.4361
 20
413.470
 30
0.000000
  70
    32
  0
VERTEX
  8
0
  5
957
 10
74.4370
 20
413.383
 30
0.000000
  70
    32
  0
VERTEX
  8
0
  5
958
 10
74.4380
 20
413.300
 30
0.000000
  70
    32
  0
VERTEX
  8
0
  5
959
 10
74.4391
 20
413.222
 30
0.000000
  70
    32
  0
VERTEX
  8
0
  5
95A
 10
74.4401
 20
413.149
 30
0.000000
  70
    32
  0
VERTEX
  8
0
  5
95B
 10
74.4411
 20
413.080
 30
0.000000
  70
    32
  0
VERTEX
  8
0
  5
95C
 10
74.4421
 20
413.017
 30
0.000000
  70
    32
  0
VERTEX
  8
0
  5
95D
 10
74.4432
 20
412.958
 30
0.000000
  70
    32
  0
VERTEX
  8
0
  5
95E
 10
74.4442
 20
412.904
 30
0.000000
  70
    32
  0
VERTEX
  8
0
  5
95F
 10
74.4453
 20
412.855
 30
0.000000
  70
    32
  0
VERTEX
  8
0
  5
960
 10
74.4464
 20
412.811
 30
0.000000
  70
    32
  0
VERTEX
  8
0
  5
961
 10
74.4474
 20
412.772
 30
0.000000
  70
    32
  0
VERTEX
  8
0
  5
962
 10
74.4485
 20
412.738
 30
0.000000
  70
    32
  0
VERTEX
  8
0
  5
963
 10
74.4496
 20
412.709
 30
0.000000
  70
    32
  0
VERTEX
  8
0
  5
964
 10
74.4507
 20
412.685
 30
0.000000
  70
    32
  0
VERTEX
  8
0
  5
965
 10
74.4517
 20
412.666
 30
0.000000
  70
    32
  0
VERTEX
  8
0
  5
966
 10
74.4528
 20
412.653
 30
0.000000
  70
    32
  0
VERTEX
  8
0
  5
967
 10
74.4539
 20
412.644
 30
0.000000
  70
    32
  0
VERTEX
  8
0
  5
968
 10
74.4550
 20
412.640
 30
0.000000
  70
    32
  0
SEQEND
  8
0
  5
969
  0
ARC
  5
47F
  8
0
  6
CONTINUOUS
 62
     7
 10
72.954977614392007
 20
429.64001276733001
 30
0.0
 40
1.500027603662399
 50
0.0018397152002993
 51
89.998160284798999
  0
LINE
  5
480
  8
0
  6
CONTINUOUS
 62
     7
 10
72.955025778892008
 20
411.14031452522988
 30
0.0
 11
56.225737910391999
 21
411.14031452522988
 31
0.0
  0
LINE
  5
481
  8
0
  6
CONTINUOUS
 62
     7
 10
72.955025778892008
 20
431.1400403701299
 30
0.0
 11
56.225737910391999
 21
431.1400403701299
 31
0.0
  0
ARC
  5
482
  8
0
  6
CONTINUOUS
 62
     7
 10
320.52205952839
 20
421.14017744772991
 30
0.0
 40
266.25
 50
176.42017878349989
 51
183.57982121649999
  0
ARC
  5
483
  8
0
  6
CONTINUOUS
 62
     7
 10
64.772059528390983
 20
439.11449777762988
 30
0.0
 40
4.316370875135199
 50
118.34817317559001
 51
61.651826824392991
  0
ARC
  5
484
  8
0
  6
CONTINUOUS
 62
     7
 10
64.772059528390983
 20
403.1658571177299
 30
0.0
 40
4.316370875135199
 50
298.34817317560999
 51
241.65182682440999
  0
ARC
  5
485
  8
0
  6
CONTINUOUS
 62
     7
 10
64.772059528390983
 20
439.14017744773003
 30
0.0
 40
4.2937880646066002
 50
61.489118911682993
 51
118.51088108829001
  0
ARC
  5
486
  8
0
  6
CONTINUOUS
 62
     7
 10
64.772059528390983
 20
403.14017744772991
 30
0.0
 40
4.2937880646066002
 50
241.48911891172
 51
298.51088108830999
  0
ARC
  5
487
  8
0
  6
CONTINUOUS
 62
     7
 10
64.772059528392006
 20
405.14017744772991
 30
0.0
 40
10.0
 50
183.57982121648999
 51
0.0000000000068395
  0
ARC
  5
488
  8
0
  6
CONTINUOUS
 62
     7
 10
64.772059528392006
 20
437.14017744772991
 30
0.0
 40
10.0
 50
0.0000000000127019
 51
176.42017878349
  0
CIRCLE
  5
489
  8
0
  6
CONTINUOUS
 62
     7
 10
64.772059528392006
 20
403.14017744772991
 30
0.0
 40
2.3500000000000001
  0
CIRCLE
  5
48A
  8
0
  6
CONTINUOUS
 62
     7
 10
64.772059528392006
 20
439.14017744773003
 30
0.0
 40
2.3500000000000001
  0
LINE
  5
48B
  8
0
  6
DASHDOT
 62
     2
 10
64.772059528392006
 20
451.38501418799001
 30
0.0
 11
64.772059528392006
 21
392.86617235146002
 31
0.0
  0
LINE
  5
48C
  8
0
  6
DASHDOT
 62
     2
 10
51.891613669887001
 20
439.14017744773003
 30
0.0
 11
78.540385755558006
 21
439.14017744773003
 31
0.0
  0
LINE
  5
48D
  8
0
  6
DASHDOT
 62
     2
 10
51.891613669887001
 20
403.14017744772991
 30
0.0
 11
78.540385755558006
 21
403.14017744772991
 31
0.0
  0
LINE
  5
48E
  8
0
  6
CONTINUOUS
 62
     7
 10
69.071554788992003
 20
547.69077181295995
 30
0.0
 11
69.038757008491999
 21
547.71392043495985
 31
0.0
  0
LINE
  5
48F
  8
0
  6
CONTINUOUS
 62
     7
 10
69.038757008491999
 20
547.71392043495985
 30
0.0
 11
68.954771908791997
 21
547.75370244446003
 31
0.0
  0
LINE
  5
490
  8
0
  6
CONTINUOUS
 62
     7
 10
68.954771908791997
 20
547.75370244446003
 30
0.0
 11
68.817880666991996
 21
547.79737769235976
 31
0.0
  0
LINE
  5
491
  8
0
  6
CONTINUOUS
 62
     7
 10
68.817880666991996
 20
547.79737769235976
 30
0.0
 11
68.628675866392001
 21
547.83767842845987
 31
0.0
  0
LINE
  5
492
  8
0
  6
CONTINUOUS
 62
     7
 10
68.628675866392001
 20
547.83767842845987
 30
0.0
 11
68.386092873991998
 21
547.87094048975985
 31
0.0
  0
LINE
  5
493
  8
0
  6
CONTINUOUS
 62
     7
 10
68.386092873991998
 20
547.87094048975985
 30
0.0
 11
68.091084498892002
 21
547.89514260505985
 31
0.0
  0
LINE
  5
494
  8
0
  6
CONTINUOUS
 62
     7
 10
68.091084498892002
 20
547.89514260505985
 30
0.0
 11
67.752309154992005
 21
547.91014401255995
 31
0.0
  0
LINE
  5
495
  8
0
  6
CONTINUOUS
 62
     7
 10
67.752309154992005
 20
547.91014401255995
 30
0.0
 11
67.365266939191983
 21
547.91743941385994
 31
0.0
  0
LINE
  5
496
  8
0
  6
CONTINUOUS
 62
     7
 10
67.365266939191983
 20
547.91743941385994
 30
0.0
 11
67.171404743991999
 21
547.91795499885995
 31
0.0
  0
LINE
  5
497
  8
0
  6
CONTINUOUS
 62
     7
 10
62.483927743991998
 20
547.91879168966
 30
0.0
 11
62.061568750691997
 21
547.91611373915987
 31
0.0
  0
LINE
  5
498
  8
0
  6
CONTINUOUS
 62
     7
 10
62.061568750691997
 20
547.91611373915987
 30
0.0
 11
61.675778434891988
 21
547.90620860725994
 31
0.0
  0
LINE
  5
499
  8
0
  6
CONTINUOUS
 62
     7
 10
61.675778434891988
 20
547.90620860725994
 30
0.0
 11
61.334906630192002
 21
547.88704675186
 31
0.0
  0
LINE
  5
49A
  8
0
  6
CONTINUOUS
 62
     7
 10
61.334906630192002
 20
547.88704675186
 30
0.0
 11
61.047274927491998
 21
547.85750212905987
 31
0.0
  0
LINE
  5
49B
  8
0
  6
CONTINUOUS
 62
     7
 10
61.047274927491998
 20
547.85750212905987
 30
0.0
 11
60.816967041792012
 21
547.81849927795986
 31
0.0
  0
LINE
  5
49C
  8
0
  6
CONTINUOUS
 62
     7
 10
60.816967041792012
 20
547.81849927795986
 30
0.0
 11
60.642153543791999
 21
547.77248169865993
 31
0.0
  0
LINE
  5
49D
  8
0
  6
CONTINUOUS
 62
     7
 10
60.642153543791999
 20
547.77248169865993
 30
0.0
 11
60.531159985892003
 21
547.72800330125995
 31
0.0
  0
LINE
  5
49E
  8
0
  6
CONTINUOUS
 62
     7
 10
60.531159985892003
 20
547.72800330125995
 30
0.0
 11
60.479768447592001
 21
547.69667012625985
 31
0.0
  0
LINE
  5
49F
  8
0
  6
CONTINUOUS
 62
     7
 10
74.730055722591999
 20
547.89656365665985
 30
0.0
 11
74.772059528392006
 21
555.91862633845994
 31
0.0
  0
LINE
  5
4A0
  8
0
  6
CONTINUOUS
 62
     7
 10
54.791571723491998
 20
555.91862633845994
 30
0.0
 11
74.772059528392006
 21
555.91862633845994
 31
0.0
  0
LINE
  5
4A1
  8
0
  6
CONTINUOUS
 62
     7
 10
59.020642187592003
 20
547.91873600045994
 30
0.0
 11
70.523476869191995
 21
547.91873600045994
 31
0.0
  0
LINE
  5
4A2
  8
0
  6
CONTINUOUS
 62
     7
 10
54.272059528391999
 20
555.91862633845994
 30
0.0
 11
54.791571723491998
 21
555.91862633845994
 31
0.0
  0
LINE
  5
4A3
  8
0
  6
CONTINUOUS
 62
     7
 10
74.667668378792001
 20
535.98156756645994
 30
0.0
 11
74.730055722591999
 21
547.89656365665985
 31
0.0
  0
LINE
  5
4A4
  8
0
  6
CONTINUOUS
 62
     7
 10
74.455005217291998
 20
495.36626670016
 30
0.0
 11
74.667668378792001
 21
535.98156756645994
 31
0.0
  0
LINE
  5
4A5
  8
0
  6
CONTINUOUS
 62
     7
 10
56.871544261792003
 20
547.58196395795994
 30
0.0
 11
57.123636689491988
 21
547.69654617465994
 31
0.0
  0
LINE
  5
4A6
  8
0
  6
CONTINUOUS
 62
     7
 10
57.123636689491988
 20
547.69654617465994
 30
0.0
 11
57.422808707391987
 21
547.78478478765987
 31
0.0
  0
LINE
  5
4A7
  8
0
  6
CONTINUOUS
 62
     7
 10
57.760345446392002
 20
547.8474960420599
 30
0.0
 11
58.138842528491999
 21
547.88885140375987
 31
0.0
  0
LINE
  5
4A8
  8
0
  6
CONTINUOUS
 62
     7
 10
57.422808707391987
 20
547.78478478765987
 30
0.0
 11
57.760345446392002
 21
547.8474960420599
 31
0.0
  0
LINE
  5
4A9
  8
0
  6
CONTINUOUS
 62
     7
 10
58.138842528491999
 20
547.88885140375987
 30
0.0
 11
58.561806205591999
 21
547.91180622015997
 31
0.0
  0
LINE
  5
4AA
  8
0
  6
CONTINUOUS
 62
     7
 10
58.561806205591999
 20
547.91180622015997
 30
0.0
 11
59.020642187592003
 21
547.91873600045994
 31
0.0
  0
LINE
  5
4AB
  8
0
  6
CONTINUOUS
 62
     7
 10
56.394728819591997
 20
547.05596627336001
 30
0.0
 11
56.515982424092002
 21
547.27683431785988
 31
0.0
  0
LINE
  5
4AC
  8
0
  6
CONTINUOUS
 62
     7
 10
56.515982424092002
 20
547.27683431785988
 30
0.0
 11
56.670629828091997
 21
547.44272342475995
 31
0.0
  0
LINE
  5
4AD
  8
0
  6
CONTINUOUS
 62
     7
 10
56.670629828091997
 20
547.44272342475995
 30
0.0
 11
56.871544261792003
 21
547.58196395795994
 31
0.0
  0
LINE
  5
4AE
  8
0
  6
CONTINUOUS
 62
     7
 10
56.329191020592013
 20
546.80318865766003
 30
0.0
 11
56.394728819591997
 21
547.05596627336001
 31
0.0
  0
ARC
  5
4AF
  8
0
  6
CONTINUOUS
 62
     7
 10
64.776941846190994
 20
549.10488560325985
 30
0.0
 40
4.5328283195390986
 50
198.42947101791
 51
341.5416044701899
  0
LINE
  5
4B0
  8
0
  6
CONTINUOUS
 62
     7
 10
70.880657991692004
 20
547.91468187565999
 30
0.0
 11
71.539157202791998
 21
547.87694712906
 31
0.0
  0
LINE
  5
4B1
  8
0
  6
CONTINUOUS
 62
     7
 10
71.539157202791998
 20
547.87694712906
 30
0.0
 11
71.838098445192003
 21
547.83935470325991
 31
0.0
  0
LINE
  5
4B2
  8
0
  6
CONTINUOUS
 62
     7
 10
71.838098445192003
 20
547.83935470325991
 30
0.0
 11
72.161087334892002
 21
547.77517530325986
 31
0.0
  0
LINE
  5
4B3
  8
0
  6
CONTINUOUS
 62
     7
 10
72.161087334892002
 20
547.77517530325986
 30
0.0
 11
72.446674929491991
 21
547.68673999696
 31
0.0
  0
LINE
  5
4B4
  8
0
  6
CONTINUOUS
 62
     7
 10
72.446674929491991
 20
547.68673999696
 30
0.0
 11
72.695215776791997
 21
547.56897109435999
 31
0.0
  0
LINE
  5
4B5
  8
0
  6
CONTINUOUS
 62
     7
 10
72.695215776791997
 20
547.56897109435999
 30
0.0
 11
72.898455137092
 21
547.4206014243598
 31
0.0
  0
LINE
  5
4B6
  8
0
  6
CONTINUOUS
 62
     7
 10
72.898455137092
 20
547.4206014243598
 30
0.0
 11
73.04466527529199
 21
547.25365314336
 31
0.0
  0
LINE
  5
4B7
  8
0
  6
CONTINUOUS
 62
     7
 10
73.04466527529199
 20
547.25365314336
 30
0.0
 11
73.148569230891994
 21
547.05805891965986
 31
0.0
  0
LINE
  5
4B8
  8
0
  6
CONTINUOUS
 62
     7
 10
73.148569230891994
 20
547.05805891965986
 30
0.0
 11
73.210766464792002
 21
546.82982970115995
 31
0.0
  0
LINE
  5
4B9
  8
0
  6
CONTINUOUS
 62
     7
 10
73.210766464792002
 20
546.82982970115995
 30
0.0
 11
73.230076284191995
 21
546.57267520226003
 31
0.0
  0
LINE
  5
4BA
  8
0
  6
CONTINUOUS
 62
     7
 10
70.523476869191995
 20
547.91873600045994
 30
0.0
 11
70.880657991692004
 21
547.91468187565999
 31
0.0
  0
LINE
  5
4BB
  8
0
  6
DOT
 62
     2
 10
67.202002734392011
 20
555.49856954445988
 30
0.0
 11
62.342116322391988
 21
555.49856954445988
 31
0.0
  0
LINE
  5
4BC
  8
0
  6
DOT
 62
     2
 10
61.922059528391991
 20
555.91862633845994
 30
0.0
 11
62.342116322391988
 21
555.49856954445988
 31
0.0
  0
LINE
  5
4BD
  8
0
  6
DOT
 62
     2
 10
62.342116322391988
 20
555.49856954445988
 30
0.0
 11
62.422059528391991
 21
550.91862633845994
 31
0.0
  0
LINE
  5
4BE
  8
0
  6
DOT
 62
     2
 10
67.202002734392011
 20
555.49856954445988
 30
0.0
 11
67.622059528392001
 21
555.91862633845994
 31
0.0
  0
LINE
  5
4BF
  8
0
  6
DOT
 62
     2
 10
67.122059528392001
 20
550.91862633845994
 30
0.0
 11
67.202002734392011
 21
555.49856954445988
 31
0.0
  0
LINE
  5
4C0
  8
0
  6
DOT
 62
     2
 10
68.530710876492009
 20
550.91862633845994
 30
0.0
 11
61.013408159991997
 21
550.91862633845994
 31
0.0
  0
LINE
  5
4C1
  8
0
  6
DOT
 62
     2
 10
69.078649602391991
 20
547.67658317086
 30
0.0
 11
69.030634744392003
 21
550.42735254165996
 31
0.0
  0
ARC
  5
4C2
  8
0
  6
DOT
 62
     2
 10
68.530710896783006
 20
550.41862633845994
 30
0.0
 40
0.5
 50
0.9999999999834301
 51
89.999999998937014
  0
LINE
  5
4C3
  8
0
  6
DOT
 62
     2
 10
60.513484312391988
 20
550.42735254165996
 30
0.0
 11
60.465478273292
 21
547.67708840385978
 31
0.0
  0
ARC
  5
4C4
  8
0
  6
DOT
 62
     2
 10
61.013408159991997
 20
550.41862633846995
 30
0.0
 40
0.50000000000001
 50
90.000000000025011
 51
179.00000000147989
  0
LINE
  5
4C5
  8
0
  6
CONTINUOUS
 62
     7
 10
162.77205952839
 20
429.14017744772991
 30
0.0
 11
74.447129808149
 21
429.14017744772991
 31
0.0
  0
LINE
  5
4C6
  8
0
  6
CONTINUOUS
 62
     7
 10
74.772059528392006
 20
437.14017744772991
 30
0.0
 11
74.772059528392006
 21
429.14017744772991
 31
0.0
  0
LINE
  5
4C7
  8
0
  6
CONTINUOUS
 62
     7
 10
162.77205952839
 20
413.14017744772991
 30
0.0
 11
74.447129808149
 21
413.14017744772991
 31
0.0
  0
POLYLINE
  5
4C8
  8
0
  6
CONTINUOUS
 62
     7
 10
74.463428940234337
 20
429.14017744773093
 30
0.0
 66
     1
 70
     8
  0
VERTEX
  8
0
  5
96A
 10
74.4634
 20
429.140
 30
0.000000
  70
    32
  0
VERTEX
  8
0
  5
96B
 10
74.4623
 20
429.180
 30
0.000000
  70
    32
  0
VERTEX
  8
0
  5
96C
 10
74.4611
 20
429.214
 30
0.000000
  70
    32
  0
VERTEX
  8
0
  5
96D
 10
74.4599
 20
429.241
 30
0.000000
  70
    32
  0
VERTEX
  8
0
  5
96E
 10
74.4588
 20
429.263
 30
0.000000
  70
    32
  0
VERTEX
  8
0
  5
96F
 10
74.4576
 20
429.278
 30
0.000000
  70
    32
  0
VERTEX
  8
0
  5
970
 10
74.4564
 20
429.287
 30
0.000000
  70
    32
  0
VERTEX
  8
0
  5
971
 10
74.4553
 20
429.290
 30
0.000000
  70
    32
  0
VERTEX
  8
0
  5
972
 10
74.4541
 20
429.287
 30
0.000000
  70
    32
  0
VERTEX
  8
0
  5
973
 10
74.4529
 20
429.278
 30
0.000000
  70
    32
  0
VERTEX
  8
0
  5
974
 10
74.4517
 20
429.262
 30
0.000000
  70
    32
  0
VERTEX
  8
0
  5
975
 10
74.4506
 20
429.240
 30
0.000000
  70
    32
  0
VERTEX
  8
0
  5
976
 10
74.4494
 20
429.212
 30
0.000000
  70
    32
  0
VERTEX
  8
0
  5
977
 10
74.4482
 20
429.178
 30
0.000000
  70
    32
  0
VERTEX
  8
0
  5
978
 10
74.4471
 20
429.138
 30
0.000000
  70
    32
  0
VERTEX
  8
0
  5
979
 10
74.4459
 20
429.092
 30
0.000000
  70
    32
  0
VERTEX
  8
0
  5
97A
 10
74.4448
 20
429.040
 30
0.000000
  70
    32
  0
VERTEX
  8
0
  5
97B
 10
74.4436
 20
428.981
 30
0.000000
  70
    32
  0
VERTEX
  8
0
  5
97C
 10
74.4425
 20
428.917
 30
0.000000
  70
    32
  0
VERTEX
  8
0
  5
97D
 10
74.4414
 20
428.847
 30
0.000000
  70
    32
  0
VERTEX
  8
0
  5
97E
 10
74.4403
 20
428.771
 30
0.000000
  70
    32
  0
VERTEX
  8
0
  5
97F
 10
74.4392
 20
428.690
 30
0.000000
  70
    32
  0
VERTEX
  8
0
  5
980
 10
74.4381
 20
428.602
 30
0.000000
  70
    32
  0
VERTEX
  8
0
  5
981
 10
74.4370
 20
428.509
 30
0.000000
  70
    32
  0
VERTEX
  8
0
  5
982
 10
74.4360
 20
428.410
 30
0.000000
  70
    32
  0
VERTEX
  8
0
  5
983
 10
74.4350
 20
428.306
 30
0.000000
  70
    32
  0
VERTEX
  8
0
  5
984
 10
74.4339
 20
428.196
 30
0.000000
  70
    32
  0
VERTEX
  8
0
  5
985
 10
74.4329
 20
428.081
 30
0.000000
  70
    32
  0
VERTEX
  8
0
  5
986
 10
74.4319
 20
427.961
 30
0.000000
  70
    32
  0
VERTEX
  8
0
  5
987
 10
74.4309
 20
427.836
 30
0.000000
  70
    32
  0
VERTEX
  8
0
  5
988
 10
74.4300
 20
427.705
 30
0.000000
  70
    32
  0
VERTEX
  8
0
  5
989
 10
74.4291
 20
427.570
 30
0.000000
  70
    32
  0
VERTEX
  8
0
  5
98A
 10
74.4281
 20
427.429
 30
0.000000
  70
    32
  0
VERTEX
  8
0
  5
98B
 10
74.4272
 20
427.284
 30
0.000000
  70
    32
  0
VERTEX
  8
0
  5
98C
 10
74.4264
 20
427.134
 30
0.000000
  70
    32
  0
VERTEX
  8
0
  5
98D
 10
74.4255
 20
426.980
 30
0.000000
  70
    32
  0
VERTEX
  8
0
  5
98E
 10
74.4247
 20
426.821
 30
0.000000
  70
    32
  0
VERTEX
  8
0
  5
98F
 10
74.4239
 20
426.658
 30
0.000000
  70
    32
  0
VERTEX
  8
0
  5
990
 10
74.4231
 20
426.491
 30
0.000000
  70
    32
  0
VERTEX
  8
0
  5
991
 10
74.4223
 20
426.319
 30
0.000000
  70
    32
  0
VERTEX
  8
0
  5
992
 10
74.4216
 20
426.144
 30
0.000000
  70
    32
  0
VERTEX
  8
0
  5
993
 10
74.4209
 20
425.965
 30
0.000000
  70
    32
  0
VERTEX
  8
0
  5
994
 10
74.4202
 20
425.782
 30
0.000000
  70
    32
  0
VERTEX
  8
0
  5
995
 10
74.4195
 20
425.596
 30
0.000000
  70
    32
  0
VERTEX
  8
0
  5
996
 10
74.4189
 20
425.406
 30
0.000000
  70
    32
  0
VERTEX
  8
0
  5
997
 10
74.4183
 20
425.214
 30
0.000000
  70
    32
  0
VERTEX
  8
0
  5
998
 10
74.4177
 20
425.018
 30
0.000000
  70
    32
  0
VERTEX
  8
0
  5
999
 10
74.4172
 20
424.819
 30
0.000000
  70
    32
  0
VERTEX
  8
0
  5
99A
 10
74.4167
 20
424.617
 30
0.000000
  70
    32
  0
VERTEX
  8
0
  5
99B
 10
74.4162
 20
424.413
 30
0.000000
  70
    32
  0
VERTEX
  8
0
  5
99C
 10
74.4157
 20
424.206
 30
0.000000
  70
    32
  0
VERTEX
  8
0
  5
99D
 10
74.4153
 20
423.997
 30
0.000000
  70
    32
  0
VERTEX
  8
0
  5
99E
 10
74.4149
 20
423.785
 30
0.000000
  70
    32
  0
VERTEX
  8
0
  5
99F
 10
74.4145
 20
423.572
 30
0.000000
  70
    32
  0
VERTEX
  8
0
  5
9A0
 10
74.4142
 20
423.357
 30
0.000000
  70
    32
  0
VERTEX
  8
0
  5
9A1
 10
74.4139
 20
423.140
 30
0.000000
  70
    32
  0
VERTEX
  8
0
  5
9A2
 10
74.4136
 20
422.922
 30
0.000000
  70
    32
  0
VERTEX
  8
0
  5
9A3
 10
74.4134
 20
422.702
 30
0.000000
  70
    32
  0
VERTEX
  8
0
  5
9A4
 10
74.4132
 20
422.481
 30
0.000000
  70
    32
  0
VERTEX
  8
0
  5
9A5
 10
74.4130
 20
422.259
 30
0.000000
  70
    32
  0
VERTEX
  8
0
  5
9A6
 10
74.4129
 20
422.036
 30
0.000000
  70
    32
  0
VERTEX
  8
0
  5
9A7
 10
74.4128
 20
421.813
 30
0.000000
  70
    32
  0
VERTEX
  8
0
  5
9A8
 10
74.4127
 20
421.589
 30
0.000000
  70
    32
  0
VERTEX
  8
0
  5
9A9
 10
74.4126
 20
421.365
 30
0.000000
  70
    32
  0
VERTEX
  8
0
  5
9AA
 10
74.4126
 20
421.140
 30
0.000000
  70
    32
  0
VERTEX
  8
0
  5
9AB
 10
74.4126
 20
420.916
 30
0.000000
  70
    32
  0
VERTEX
  8
0
  5
9AC
 10
74.4127
 20
420.691
 30
0.000000
  70
    32
  0
VERTEX
  8
0
  5
9AD
 10
74.4128
 20
420.467
 30
0.000000
  70
    32
  0
VERTEX
  8
0
  5
9AE
 10
74.4129
 20
420.244
 30
0.000000
  70
    32
  0
VERTEX
  8
0
  5
9AF
 10
74.4130
 20
420.021
 30
0.000000
  70
    32
  0
VERTEX
  8
0
  5
9B0
 10
74.4132
 20
419.799
 30
0.000000
  70
    32
  0
VERTEX
  8
0
  5
9B1
 10
74.4134
 20
419.578
 30
0.000000
  70
    32
  0
VERTEX
  8
0
  5
9B2
 10
74.4136
 20
419.359
 30
0.000000
  70
    32
  0
VERTEX
  8
0
  5
9B3
 10
74.4139
 20
419.140
 30
0.000000
  70
    32
  0
VERTEX
  8
0
  5
9B4
 10
74.4142
 20
418.923
 30
0.000000
  70
    32
  0
VERTEX
  8
0
  5
9B5
 10
74.4145
 20
418.708
 30
0.000000
  70
    32
  0
VERTEX
  8
0
  5
9B6
 10
74.4149
 20
418.495
 30
0.000000
  70
    32
  0
VERTEX
  8
0
  5
9B7
 10
74.4153
 20
418.284
 30
0.000000
  70
    32
  0
VERTEX
  8
0
  5
9B8
 10
74.4157
 20
418.074
 30
0.000000
  70
    32
  0
VERTEX
  8
0
  5
9B9
 10
74.4162
 20
417.868
 30
0.000000
  70
    32
  0
VERTEX
  8
0
  5
9BA
 10
74.4167
 20
417.663
 30
0.000000
  70
    32
  0
VERTEX
  8
0
  5
9BB
 10
74.4172
 20
417.462
 30
0.000000
  70
    32
  0
VERTEX
  8
0
  5
9BC
 10
74.4177
 20
417.263
 30
0.000000
  70
    32
  0
VERTEX
  8
0
  5
9BD
 10
74.4183
 20
417.067
 30
0.000000
  70
    32
  0
VERTEX
  8
0
  5
9BE
 10
74.4189
 20
416.874
 30
0.000000
  70
    32
  0
VERTEX
  8
0
  5
9BF
 10
74.4195
 20
416.684
 30
0.000000
  70
    32
  0
VERTEX
  8
0
  5
9C0
 10
74.4202
 20
416.498
 30
0.000000
  70
    32
  0
VERTEX
  8
0
  5
9C1
 10
74.4209
 20
416.315
 30
0.000000
  70
    32
  0
VERTEX
  8
0
  5
9C2
 10
74.4216
 20
416.136
 30
0.000000
  70
    32
  0
VERTEX
  8
0
  5
9C3
 10
74.4223
 20
415.961
 30
0.000000
  70
    32
  0
VERTEX
  8
0
  5
9C4
 10
74.4231
 20
415.790
 30
0.000000
  70
    32
  0
VERTEX
  8
0
  5
9C5
 10
74.4239
 20
415.622
 30
0.000000
  70
    32
  0
VERTEX
  8
0
  5
9C6
 10
74.4247
 20
415.459
 30
0.000000
  70
    32
  0
VERTEX
  8
0
  5
9C7
 10
74.4255
 20
415.300
 30
0.000000
  70
    32
  0
VERTEX
  8
0
  5
9C8
 10
74.4264
 20
415.146
 30
0.000000
  70
    32
  0
VERTEX
  8
0
  5
9C9
 10
74.4272
 20
414.996
 30
0.000000
  70
    32
  0
VERTEX
  8
0
  5
9CA
 10
74.4281
 20
414.851
 30
0.000000
  70
    32
  0
VERTEX
  8
0
  5
9CB
 10
74.4291
 20
414.711
 30
0.000000
  70
    32
  0
VERTEX
  8
0
  5
9CC
 10
74.4300
 20
414.575
 30
0.000000
  70
    32
  0
VERTEX
  8
0
  5
9CD
 10
74.4309
 20
414.445
 30
0.000000
  70
    32
  0
VERTEX
  8
0
  5
9CE
 10
74.4319
 20
414.319
 30
0.000000
  70
    32
  0
VERTEX
  8
0
  5
9CF
 10
74.4329
 20
414.199
 30
0.000000
  70
    32
  0
VERTEX
  8
0
  5
9D0
 10
74.4339
 20
414.084
 30
0.000000
  70
    32
  0
VERTEX
  8
0
  5
9D1
 10
74.4350
 20
413.974
 30
0.000000
  70
    32
  0
VERTEX
  8
0
  5
9D2
 10
74.4360
 20
413.870
 30
0.000000
  70
    32
  0
VERTEX
  8
0
  5
9D3
 10
74.4370
 20
413.771
 30
0.000000
  70
    32
  0
VERTEX
  8
0
  5
9D4
 10
74.4381
 20
413.678
 30
0.000000
  70
    32
  0
VERTEX
  8
0
  5
9D5
 10
74.4392
 20
413.591
 30
0.000000
  70
    32
  0
VERTEX
  8
0
  5
9D6
 10
74.4403
 20
413.509
 30
0.000000
  70
    32
  0
VERTEX
  8
0
  5
9D7
 10
74.4414
 20
413.433
 30
0.000000
  70
    32
  0
VERTEX
  8
0
  5
9D8
 10
74.4425
 20
413.363
 30
0.000000
  70
    32
  0
VERTEX
  8
0
  5
9D9
 10
74.4436
 20
413.299
 30
0.000000
  70
    32
  0
VERTEX
  8
0
  5
9DA
 10
74.4448
 20
413.241
 30
0.000000
  70
    32
  0
VERTEX
  8
0
  5
9DB
 10
74.4459
 20
413.188
 30
0.000000
  70
    32
  0
VERTEX
  8
0
  5
9DC
 10
74.4471
 20
413.142
 30
0.000000
  70
    32
  0
VERTEX
  8
0
  5
9DD
 10
74.4482
 20
413.102
 30
0.000000
  70
    32
  0
VERTEX
  8
0
  5
9DE
 10
74.4494
 20
413.068
 30
0.000000
  70
    32
  0
VERTEX
  8
0
  5
9DF
 10
74.4506
 20
413.040
 30
0.000000
  70
    32
  0
VERTEX
  8
0
  5
9E0
 10
74.4517
 20
413.018
 30
0.000000
  70
    32
  0
VERTEX
  8
0
  5
9E1
 10
74.4529
 20
413.003
 30
0.000000
  70
    32
  0
VERTEX
  8
0
  5
9E2
 10
74.4541
 20
412.993
 30
0.000000
  70
    32
  0
VERTEX
  8
0
  5
9E3
 10
74.4553
 20
412.990
 30
0.000000
  70
    32
  0
VERTEX
  8
0
  5
9E4
 10
74.4564
 20
412.993
 30
0.000000
  70
    32
  0
VERTEX
  8
0
  5
9E5
 10
74.4576
 20
413.002
 30
0.000000
  70
    32
  0
VERTEX
  8
0
  5
9E6
 10
74.4588
 20
413.018
 30
0.000000
  70
    32
  0
VERTEX
  8
0
  5
9E7
 10
74.4599
 20
413.039
 30
0.000000
  70
    32
  0
VERTEX
  8
0
  5
9E8
 10
74.4611
 20
413.067
 30
0.000000
  70
    32
  0
VERTEX
  8
0
  5
9E9
 10
74.4623
 20
413.100
 30
0.000000
  70
    32
  0
VERTEX
  8
0
  5
9EA
 10
74.4634
 20
413.140
 30
0.000000
  70
    32
  0
SEQEND
  8
0
  5
9EB
  0
LINE
  5
4C9
  8
0
  6
CONTINUOUS
 62
     7
 10
74.772059528392006
 20
413.14017744772991
 30
0.0
 11
74.772059528392006
 21
405.14017744772991
 31
0.0
  0
ARC
  5
4CA
  8
0
  6
CONTINUOUS
 62
     7
 10
-165.11680376500999
 20
421.14017744772991
 30
0.0
 40
440.01742786636993
 50
358.88686049730001
 51
1.1131395026999
  0
ARC
  5
4CB
  8
0
  6
CONTINUOUS
 62
     7
 10
273.31833486918998
 20
412.64034175301998
 30
0.0
 40
1.500027228530699
 50
270.00176762771002
 51
358.15621032598
  0
LINE
  5
4CC
  8
0
  6
CONTINUOUS
 62
     7
 10
273.31838114638998
 20
411.14031452522988
 30
0.0
 11
273.31664017329001
 21
411.15413142152988
 31
0.0
  0
LINE
  5
4CD
  8
0
  6
CONTINUOUS
 62
     7
 10
273.31664017329001
 20
411.15413142152988
 30
0.0
 11
273.31551810929
 21
411.19067713282999
 31
0.0
  0
ARC
  5
4CE
  8
0
  6
CONTINUOUS
 62
     7
 10
273.31833486917998
 20
429.64001314233002
 30
0.0
 40
1.500027228530699
 50
1.8437896742912001
 51
89.998232372020993
  0
ARC
  5
4CF
  8
0
  6
CONTINUOUS
 62
     7
 10
256.58914144240009
 20
412.64034212812999
 30
0.0
 40
1.500027603662399
 50
180.00183971519999
 51
269.99816028457002
  0
POLYLINE
  5
4D0
  8
0
  6
CONTINUOUS
 62
     7
 10
255.08911383948083
 20
412.6402939636269
 30
0.0
 66
     1
 70
     8
  0
VERTEX
  8
0
  5
9EC
 10
255.089
 20
412.640
 30
0.000000
  70
    32
  0
VERTEX
  8
0
  5
9ED
 10
255.090
 20
412.644
 30
0.000000
  70
    32
  0
VERTEX
  8
0
  5
9EE
 10
255.091
 20
412.653
 30
0.000000
  70
    32
  0
VERTEX
  8
0
  5
9EF
 10
255.092
 20
412.666
 30
0.000000
  70
    32
  0
VERTEX
  8
0
  5
9F0
 10
255.093
 20
412.685
 30
0.000000
  70
    32
  0
VERTEX
  8
0
  5
9F1
 10
255.095
 20
412.709
 30
0.000000
  70
    32
  0
VERTEX
  8
0
  5
9F2
 10
255.096
 20
412.738
 30
0.000000
  70
    32
  0
VERTEX
  8
0
  5
9F3
 10
255.097
 20
412.772
 30
0.000000
  70
    32
  0
VERTEX
  8
0
  5
9F4
 10
255.098
 20
412.811
 30
0.000000
  70
    32
  0
VERTEX
  8
0
  5
9F5
 10
255.099
 20
412.855
 30
0.000000
  70
    32
  0
VERTEX
  8
0
  5
9F6
 10
255.100
 20
412.904
 30
0.000000
  70
    32
  0
VERTEX
  8
0
  5
9F7
 10
255.101
 20
412.958
 30
0.000000
  70
    32
  0
VERTEX
  8
0
  5
9F8
 10
255.102
 20
413.017
 30
0.000000
  70
    32
  0
VERTEX
  8
0
  5
9F9
 10
255.103
 20
413.080
 30
0.000000
  70
    32
  0
VERTEX
  8
0
  5
9FA
 10
255.104
 20
413.149
 30
0.000000
  70
    32
  0
VERTEX
  8
0
  5
9FB
 10
255.105
 20
413.222
 30
0.000000
  70
    32
  0
VERTEX
  8
0
  5
9FC
 10
255.106
 20
413.300
 30
0.000000
  70
    32
  0
VERTEX
  8
0
  5
9FD
 10
255.107
 20
413.383
 30
0.000000
  70
    32
  0
VERTEX
  8
0
  5
9FE
 10
255.108
 20
413.470
 30
0.000000
  70
    32
  0
VERTEX
  8
0
  5
9FF
 10
255.109
 20
413.562
 30
0.000000
  70
    32
  0
VERTEX
  8
0
  5
A00
 10
255.110
 20
413.658
 30
0.000000
  70
    32
  0
VERTEX
  8
0
  5
A01
 10
255.111
 20
413.759
 30
0.000000
  70
    32
  0
VERTEX
  8
0
  5
A02
 10
255.112
 20
413.865
 30
0.000000
  70
    32
  0
VERTEX
  8
0
  5
A03
 10
255.113
 20
413.974
 30
0.000000
  70
    32
  0
VERTEX
  8
0
  5
A04
 10
255.114
 20
414.088
 30
0.000000
  70
    32
  0
VERTEX
  8
0
  5
A05
 10
255.115
 20
414.206
 30
0.000000
  70
    32
  0
VERTEX
  8
0
  5
A06
 10
255.116
 20
414.329
 30
0.000000
  70
    32
  0
VERTEX
  8
0
  5
A07
 10
255.116
 20
414.455
 30
0.000000
  70
    32
  0
VERTEX
  8
0
  5
A08
 10
255.117
 20
414.585
 30
0.000000
  70
    32
  0
VERTEX
  8
0
  5
A09
 10
255.118
 20
414.720
 30
0.000000
  70
    32
  0
VERTEX
  8
0
  5
A0A
 10
255.119
 20
414.858
 30
0.000000
  70
    32
  0
VERTEX
  8
0
  5
A0B
 10
255.120
 20
415.000
 30
0.000000
  70
    32
  0
VERTEX
  8
0
  5
A0C
 10
255.120
 20
415.146
 30
0.000000
  70
    32
  0
VERTEX
  8
0
  5
A0D
 10
255.121
 20
415.295
 30
0.000000
  70
    32
  0
VERTEX
  8
0
  5
A0E
 10
255.122
 20
415.447
 30
0.000000
  70
    32
  0
VERTEX
  8
0
  5
A0F
 10
255.123
 20
415.603
 30
0.000000
  70
    32
  0
VERTEX
  8
0
  5
A10
 10
255.123
 20
415.763
 30
0.000000
  70
    32
  0
VERTEX
  8
0
  5
A11
 10
255.124
 20
415.926
 30
0.000000
  70
    32
  0
VERTEX
  8
0
  5
A12
 10
255.125
 20
416.091
 30
0.000000
  70
    32
  0
VERTEX
  8
0
  5
A13
 10
255.125
 20
416.260
 30
0.000000
  70
    32
  0
VERTEX
  8
0
  5
A14
 10
255.126
 20
416.432
 30
0.000000
  70
    32
  0
VERTEX
  8
0
  5
A15
 10
255.127
 20
416.606
 30
0.000000
  70
    32
  0
VERTEX
  8
0
  5
A16
 10
255.127
 20
416.783
 30
0.000000
  70
    32
  0
VERTEX
  8
0
  5
A17
 10
255.128
 20
416.963
 30
0.000000
  70
    32
  0
VERTEX
  8
0
  5
A18
 10
255.128
 20
417.146
 30
0.000000
  70
    32
  0
VERTEX
  8
0
  5
A19
 10
255.129
 20
417.330
 30
0.000000
  70
    32
  0
VERTEX
  8
0
  5
A1A
 10
255.129
 20
417.517
 30
0.000000
  70
    32
  0
VERTEX
  8
0
  5
A1B
 10
255.130
 20
417.706
 30
0.000000
  70
    32
  0
VERTEX
  8
0
  5
A1C
 10
255.130
 20
417.898
 30
0.000000
  70
    32
  0
VERTEX
  8
0
  5
A1D
 10
255.130
 20
418.091
 30
0.000000
  70
    32
  0
VERTEX
  8
0
  5
A1E
 10
255.131
 20
418.286
 30
0.000000
  70
    32
  0
VERTEX
  8
0
  5
A1F
 10
255.131
 20
418.482
 30
0.000000
  70
    32
  0
VERTEX
  8
0
  5
A20
 10
255.131
 20
418.681
 30
0.000000
  70
    32
  0
VERTEX
  8
0
  5
A21
 10
255.132
 20
418.880
 30
0.000000
  70
    32
  0
VERTEX
  8
0
  5
A22
 10
255.132
 20
419.082
 30
0.000000
  70
    32
  0
VERTEX
  8
0
  5
A23
 10
255.132
 20
419.284
 30
0.000000
  70
    32
  0
VERTEX
  8
0
  5
A24
 10
255.133
 20
419.487
 30
0.000000
  70
    32
  0
VERTEX
  8
0
  5
A25
 10
255.133
 20
419.692
 30
0.000000
  70
    32
  0
VERTEX
  8
0
  5
A26
 10
255.133
 20
419.897
 30
0.000000
  70
    32
  0
VERTEX
  8
0
  5
A27
 10
255.133
 20
420.103
 30
0.000000
  70
    32
  0
VERTEX
  8
0
  5
A28
 10
255.133
 20
420.310
 30
0.000000
  70
    32
  0
VERTEX
  8
0
  5
A29
 10
255.133
 20
420.517
 30
0.000000
  70
    32
  0
VERTEX
  8
0
  5
A2A
 10
255.133
 20
420.724
 30
0.000000
  70
    32
  0
VERTEX
  8
0
  5
A2B
 10
255.133
 20
420.932
 30
0.000000
  70
    32
  0
VERTEX
  8
0
  5
A2C
 10
255.133
 20
421.140
 30
0.000000
  70
    32
  0
VERTEX
  8
0
  5
A2D
 10
255.133
 20
421.348
 30
0.000000
  70
    32
  0
VERTEX
  8
0
  5
A2E
 10
255.133
 20
421.556
 30
0.000000
  70
    32
  0
VERTEX
  8
0
  5
A2F
 10
255.133
 20
421.763
 30
0.000000
  70
    32
  0
VERTEX
  8
0
  5
A30
 10
255.133
 20
421.971
 30
0.000000
  70
    32
  0
VERTEX
  8
0
  5
A31
 10
255.133
 20
422.177
 30
0.000000
  70
    32
  0
VERTEX
  8
0
  5
A32
 10
255.133
 20
422.383
 30
0.000000
  70
    32
  0
VERTEX
  8
0
  5
A33
 10
255.133
 20
422.589
 30
0.000000
  70
    32
  0
VERTEX
  8
0
  5
A34
 10
255.133
 20
422.793
 30
0.000000
  70
    32
  0
VERTEX
  8
0
  5
A35
 10
255.132
 20
422.996
 30
0.000000
  70
    32
  0
VERTEX
  8
0
  5
A36
 10
255.132
 20
423.199
 30
0.000000
  70
    32
  0
VERTEX
  8
0
  5
A37
 10
255.132
 20
423.400
 30
0.000000
  70
    32
  0
VERTEX
  8
0
  5
A38
 10
255.131
 20
423.600
 30
0.000000
  70
    32
  0
VERTEX
  8
0
  5
A39
 10
255.131
 20
423.798
 30
0.000000
  70
    32
  0
VERTEX
  8
0
  5
A3A
 10
255.131
 20
423.995
 30
0.000000
  70
    32
  0
VERTEX
  8
0
  5
A3B
 10
255.130
 20
424.190
 30
0.000000
  70
    32
  0
VERTEX
  8
0
  5
A3C
 10
255.130
 20
424.383
 30
0.000000
  70
    32
  0
VERTEX
  8
0
  5
A3D
 10
255.130
 20
424.574
 30
0.000000
  70
    32
  0
VERTEX
  8
0
  5
A3E
 10
255.129
 20
424.763
 30
0.000000
  70
    32
  0
VERTEX
  8
0
  5
A3F
 10
255.129
 20
424.950
 30
0.000000
  70
    32
  0
VERTEX
  8
0
  5
A40
 10
255.128
 20
425.135
 30
0.000000
  70
    32
  0
VERTEX
  8
0
  5
A41
 10
255.128
 20
425.317
 30
0.000000
  70
    32
  0
VERTEX
  8
0
  5
A42
 10
255.127
 20
425.497
 30
0.000000
  70
    32
  0
VERTEX
  8
0
  5
A43
 10
255.127
 20
425.674
 30
0.000000
  70
    32
  0
VERTEX
  8
0
  5
A44
 10
255.126
 20
425.849
 30
0.000000
  70
    32
  0
VERTEX
  8
0
  5
A45
 10
255.125
 20
426.020
 30
0.000000
  70
    32
  0
VERTEX
  8
0
  5
A46
 10
255.125
 20
426.189
 30
0.000000
  70
    32
  0
VERTEX
  8
0
  5
A47
 10
255.124
 20
426.355
 30
0.000000
  70
    32
  0
VERTEX
  8
0
  5
A48
 10
255.123
 20
426.517
 30
0.000000
  70
    32
  0
VERTEX
  8
0
  5
A49
 10
255.123
 20
426.677
 30
0.000000
  70
    32
  0
VERTEX
  8
0
  5
A4A
 10
255.122
 20
426.833
 30
0.000000
  70
    32
  0
VERTEX
  8
0
  5
A4B
 10
255.121
 20
426.986
 30
0.000000
  70
    32
  0
VERTEX
  8
0
  5
A4C
 10
255.120
 20
427.135
 30
0.000000
  70
    32
  0
VERTEX
  8
0
  5
A4D
 10
255.120
 20
427.280
 30
0.000000
  70
    32
  0
VERTEX
  8
0
  5
A4E
 10
255.119
 20
427.422
 30
0.000000
  70
    32
  0
VERTEX
  8
0
  5
A4F
 10
255.118
 20
427.561
 30
0.000000
  70
    32
  0
VERTEX
  8
0
  5
A50
 10
255.117
 20
427.695
 30
0.000000
  70
    32
  0
VERTEX
  8
0
  5
A51
 10
255.116
 20
427.825
 30
0.000000
  70
    32
  0
VERTEX
  8
0
  5
A52
 10
255.116
 20
427.952
 30
0.000000
  70
    32
  0
VERTEX
  8
0
  5
A53
 10
255.115
 20
428.074
 30
0.000000
  70
    32
  0
VERTEX
  8
0
  5
A54
 10
255.114
 20
428.192
 30
0.000000
  70
    32
  0
VERTEX
  8
0
  5
A55
 10
255.113
 20
428.306
 30
0.000000
  70
    32
  0
VERTEX
  8
0
  5
A56
 10
255.112
 20
428.416
 30
0.000000
  70
    32
  0
VERTEX
  8
0
  5
A57
 10
255.111
 20
428.521
 30
0.000000
  70
    32
  0
VERTEX
  8
0
  5
A58
 10
255.110
 20
428.622
 30
0.000000
  70
    32
  0
VERTEX
  8
0
  5
A59
 10
255.109
 20
428.718
 30
0.000000
  70
    32
  0
VERTEX
  8
0
  5
A5A
 10
255.108
 20
428.810
 30
0.000000
  70
    32
  0
VERTEX
  8
0
  5
A5B
 10
255.107
 20
428.898
 30
0.000000
  70
    32
  0
VERTEX
  8
0
  5
A5C
 10
255.106
 20
428.980
 30
0.000000
  70
    32
  0
VERTEX
  8
0
  5
A5D
 10
255.105
 20
429.058
 30
0.000000
  70
    32
  0
VERTEX
  8
0
  5
A5E
 10
255.104
 20
429.132
 30
0.000000
  70
    32
  0
VERTEX
  8
0
  5
A5F
 10
255.103
 20
429.200
 30
0.000000
  70
    32
  0
VERTEX
  8
0
  5
A60
 10
255.102
 20
429.264
 30
0.000000
  70
    32
  0
VERTEX
  8
0
  5
A61
 10
255.101
 20
429.322
 30
0.000000
  70
    32
  0
VERTEX
  8
0
  5
A62
 10
255.100
 20
429.376
 30
0.000000
  70
    32
  0
VERTEX
  8
0
  5
A63
 10
255.099
 20
429.425
 30
0.000000
  70
    32
  0
VERTEX
  8
0
  5
A64
 10
255.098
 20
429.469
 30
0.000000
  70
    32
  0
VERTEX
  8
0
  5
A65
 10
255.097
 20
429.508
 30
0.000000
  70
    32
  0
VERTEX
  8
0
  5
A66
 10
255.096
 20
429.542
 30
0.000000
  70
    32
  0
VERTEX
  8
0
  5
A67
 10
255.095
 20
429.571
 30
0.000000
  70
    32
  0
VERTEX
  8
0
  5
A68
 10
255.093
 20
429.595
 30
0.000000
  70
    32
  0
VERTEX
  8
0
  5
A69
 10
255.092
 20
429.614
 30
0.000000
  70
    32
  0
VERTEX
  8
0
  5
A6A
 10
255.091
 20
429.628
 30
0.000000
  70
    32
  0
VERTEX
  8
0
  5
A6B
 10
255.090
 20
429.636
 30
0.000000
  70
    32
  0
VERTEX
  8
0
  5
A6C
 10
255.089
 20
429.640
 30
0.000000
  70
    32
  0
SEQEND
  8
0
  5
A6D
  0
ARC
  5
4D1
  8
0
  6
CONTINUOUS
 62
     7
 10
256.58914144238997
 20
429.64001276733001
 30
0.0
 40
1.500027603662399
 50
90.001839715200006
 51
179.99816028481001
  0
LINE
  5
4D2
  8
0
  6
CONTINUOUS
 62
     7
 10
256.5890932778899
 20
411.14031452522988
 30
0.0
 11
273.31838114638998
 21
411.14031452522988
 31
0.0
  0
LINE
  5
4D3
  8
0
  6
CONTINUOUS
 62
     7
 10
256.5890932778899
 20
431.1400403701299
 30
0.0
 11
273.31838114638998
 21
431.1400403701299
 31
0.0
  0
ARC
  5
4D4
  8
0
  6
CONTINUOUS
 62
     7
 10
9.0220595283917007
 20
421.14017744772991
 30
0.0
 40
266.25
 50
356.42017878349998
 51
3.5798212164999992
  0
ARC
  5
4D5
  8
0
  6
CONTINUOUS
 62
     7
 10
264.77205952839
 20
439.11449777762988
 30
0.0
 40
4.316370875135199
 50
118.3481731756
 51
61.651826824395002
  0
ARC
  5
4D6
  8
0
  6
CONTINUOUS
 62
     7
 10
264.77205952839
 20
403.1658571177299
 30
0.0
 40
4.316370875135199
 50
298.34817317559998
 51
241.65182682439999
  0
ARC
  5
4D7
  8
0
  6
CONTINUOUS
 62
     7
 10
264.77205952839
 20
439.14017744773003
 30
0.0
 40
4.2937880646066002
 50
61.489118911713
 51
118.51088108832001
  0
ARC
  5
4D8
  8
0
  6
CONTINUOUS
 62
     7
 10
264.77205952839
 20
403.14017744772991
 30
0.0
 40
4.2937880646066002
 50
241.48911891172
 51
298.51088108833
  0
ARC
  5
4D9
  8
0
  6
CONTINUOUS
 62
     7
 10
264.77205952839
 20
405.14017744771991
 30
0.0
 40
10.0
 50
179.99999999996999
 51
356.42017878352999
  0
ARC
  5
4DA
  8
0
  6
CONTINUOUS
 62
     7
 10
264.77205952839
 20
437.14017744772002
 30
0.0
 40
10.0
 50
3.5798212165424999
 51
179.99999999996001
  0
CIRCLE
  5
4DB
  8
0
  6
CONTINUOUS
 62
     7
 10
264.77205952839
 20
403.14017744772991
 30
0.0
 40
2.3500000000000001
  0
CIRCLE
  5
4DC
  8
0
  6
CONTINUOUS
 62
     7
 10
264.77205952839
 20
439.14017744773003
 30
0.0
 40
2.3500000000000001
  0
LINE
  5
4DD
  8
0
  6
DASHDOT
 62
     2
 10
264.77205952839
 20
451.38501418799001
 30
0.0
 11
264.77205952839
 21
392.86617235146002
 31
0.0
  0
LINE
  5
4DE
  8
0
  6
DASHDOT
 62
     2
 10
277.65250538689997
 20
439.14017744773003
 30
0.0
 11
251.00373330123
 21
439.14017744773003
 31
0.0
  0
LINE
  5
4DF
  8
0
  6
DASHDOT
 62
     2
 10
277.65250538689997
 20
403.14017744772991
 30
0.0
 11
251.00373330123
 21
403.14017744772991
 31
0.0
  0
LINE
  5
4E0
  8
0
  6
CONTINUOUS
 62
     7
 10
166.77205952839
 20
429.14017744772991
 30
0.0
 11
255.09698924863
 21
429.14017744772991
 31
0.0
  0
LINE
  5
4E1
  8
0
  6
CONTINUOUS
 62
     7
 10
254.77205952839
 20
437.14017744772991
 30
0.0
 11
254.77205952839
 21
429.14017744772991
 31
0.0
  0
LINE
  5
4E2
  8
0
  6
CONTINUOUS
 62
     7
 10
166.77205952839
 20
413.14017744772991
 30
0.0
 11
255.09698924863
 21
413.14017744772991
 31
0.0
  0
POLYLINE
  5
4E3
  8
0
  6
CONTINUOUS
 62
     7
 10
255.08069011654766
 20
413.14017744772889
 30
0.0
 66
     1
 70
     8
  0
VERTEX
  8
0
  5
A6E
 10
255.081
 20
413.140
 30
0.000000
  70
    32
  0
VERTEX
  8
0
  5
A6F
 10
255.082
 20
413.100
 30
0.000000
  70
    32
  0
VERTEX
  8
0
  5
A70
 10
255.083
 20
413.067
 30
0.000000
  70
    32
  0
VERTEX
  8
0
  5
A71
 10
255.084
 20
413.039
 30
0.000000
  70
    32
  0
VERTEX
  8
0
  5
A72
 10
255.085
 20
413.018
 30
0.000000
  70
    32
  0
VERTEX
  8
0
  5
A73
 10
255.087
 20
413.002
 30
0.000000
  70
    32
  0
VERTEX
  8
0
  5
A74
 10
255.088
 20
412.993
 30
0.000000
  70
    32
  0
VERTEX
  8
0
  5
A75
 10
255.089
 20
412.990
 30
0.000000
  70
    32
  0
VERTEX
  8
0
  5
A76
 10
255.090
 20
412.993
 30
0.000000
  70
    32
  0
VERTEX
  8
0
  5
A77
 10
255.091
 20
413.003
 30
0.000000
  70
    32
  0
VERTEX
  8
0
  5
A78
 10
255.092
 20
413.018
 30
0.000000
  70
    32
  0
VERTEX
  8
0
  5
A79
 10
255.094
 20
413.040
 30
0.000000
  70
    32
  0
VERTEX
  8
0
  5
A7A
 10
255.095
 20
413.068
 30
0.000000
  70
    32
  0
VERTEX
  8
0
  5
A7B
 10
255.096
 20
413.102
 30
0.000000
  70
    32
  0
VERTEX
  8
0
  5
A7C
 10
255.097
 20
413.142
 30
0.000000
  70
    32
  0
VERTEX
  8
0
  5
A7D
 10
255.098
 20
413.188
 30
0.000000
  70
    32
  0
VERTEX
  8
0
  5
A7E
 10
255.099
 20
413.241
 30
0.000000
  70
    32
  0
VERTEX
  8
0
  5
A7F
 10
255.100
 20
413.299
 30
0.000000
  70
    32
  0
VERTEX
  8
0
  5
A80
 10
255.102
 20
413.363
 30
0.000000
  70
    32
  0
VERTEX
  8
0
  5
A81
 10
255.103
 20
413.433
 30
0.000000
  70
    32
  0
VERTEX
  8
0
  5
A82
 10
255.104
 20
413.509
 30
0.000000
  70
    32
  0
VERTEX
  8
0
  5
A83
 10
255.105
 20
413.591
 30
0.000000
  70
    32
  0
VERTEX
  8
0
  5
A84
 10
255.106
 20
413.678
 30
0.000000
  70
    32
  0
VERTEX
  8
0
  5
A85
 10
255.107
 20
413.771
 30
0.000000
  70
    32
  0
VERTEX
  8
0
  5
A86
 10
255.108
 20
413.870
 30
0.000000
  70
    32
  0
VERTEX
  8
0
  5
A87
 10
255.109
 20
413.974
 30
0.000000
  70
    32
  0
VERTEX
  8
0
  5
A88
 10
255.110
 20
414.084
 30
0.000000
  70
    32
  0
VERTEX
  8
0
  5
A89
 10
255.111
 20
414.199
 30
0.000000
  70
    32
  0
VERTEX
  8
0
  5
A8A
 10
255.112
 20
414.319
 30
0.000000
  70
    32
  0
VERTEX
  8
0
  5
A8B
 10
255.113
 20
414.445
 30
0.000000
  70
    32
  0
VERTEX
  8
0
  5
A8C
 10
255.114
 20
414.575
 30
0.000000
  70
    32
  0
VERTEX
  8
0
  5
A8D
 10
255.115
 20
414.711
 30
0.000000
  70
    32
  0
VERTEX
  8
0
  5
A8E
 10
255.116
 20
414.851
 30
0.000000
  70
    32
  0
VERTEX
  8
0
  5
A8F
 10
255.117
 20
414.996
 30
0.000000
  70
    32
  0
VERTEX
  8
0
  5
A90
 10
255.118
 20
415.146
 30
0.000000
  70
    32
  0
VERTEX
  8
0
  5
A91
 10
255.119
 20
415.300
 30
0.000000
  70
    32
  0
VERTEX
  8
0
  5
A92
 10
255.119
 20
415.459
 30
0.000000
  70
    32
  0
VERTEX
  8
0
  5
A93
 10
255.120
 20
415.622
 30
0.000000
  70
    32
  0
VERTEX
  8
0
  5
A94
 10
255.121
 20
415.790
 30
0.000000
  70
    32
  0
VERTEX
  8
0
  5
A95
 10
255.122
 20
415.961
 30
0.000000
  70
    32
  0
VERTEX
  8
0
  5
A96
 10
255.123
 20
416.136
 30
0.000000
  70
    32
  0
VERTEX
  8
0
  5
A97
 10
255.123
 20
416.315
 30
0.000000
  70
    32
  0
VERTEX
  8
0
  5
A98
 10
255.124
 20
416.498
 30
0.000000
  70
    32
  0
VERTEX
  8
0
  5
A99
 10
255.125
 20
416.684
 30
0.000000
  70
    32
  0
VERTEX
  8
0
  5
A9A
 10
255.125
 20
416.874
 30
0.000000
  70
    32
  0
VERTEX
  8
0
  5
A9B
 10
255.126
 20
417.067
 30
0.000000
  70
    32
  0
VERTEX
  8
0
  5
A9C
 10
255.126
 20
417.263
 30
0.000000
  70
    32
  0
VERTEX
  8
0
  5
A9D
 10
255.127
 20
417.462
 30
0.000000
  70
    32
  0
VERTEX
  8
0
  5
A9E
 10
255.127
 20
417.663
 30
0.000000
  70
    32
  0
VERTEX
  8
0
  5
A9F
 10
255.128
 20
417.868
 30
0.000000
  70
    32
  0
VERTEX
  8
0
  5
AA0
 10
255.128
 20
418.074
 30
0.000000
  70
    32
  0
VERTEX
  8
0
  5
AA1
 10
255.129
 20
418.284
 30
0.000000
  70
    32
  0
VERTEX
  8
0
  5
AA2
 10
255.129
 20
418.495
 30
0.000000
  70
    32
  0
VERTEX
  8
0
  5
AA3
 10
255.130
 20
418.708
 30
0.000000
  70
    32
  0
VERTEX
  8
0
  5
AA4
 10
255.130
 20
418.923
 30
0.000000
  70
    32
  0
VERTEX
  8
0
  5
AA5
 10
255.130
 20
419.140
 30
0.000000
  70
    32
  0
VERTEX
  8
0
  5
AA6
 10
255.130
 20
419.359
 30
0.000000
  70
    32
  0
VERTEX
  8
0
  5
AA7
 10
255.131
 20
419.578
 30
0.000000
  70
    32
  0
VERTEX
  8
0
  5
AA8
 10
255.131
 20
419.799
 30
0.000000
  70
    32
  0
VERTEX
  8
0
  5
AA9
 10
255.131
 20
420.021
 30
0.000000
  70
    32
  0
VERTEX
  8
0
  5
AAA
 10
255.131
 20
420.244
 30
0.000000
  70
    32
  0
VERTEX
  8
0
  5
AAB
 10
255.131
 20
420.467
 30
0.000000
  70
    32
  0
VERTEX
  8
0
  5
AAC
 10
255.131
 20
420.691
 30
0.000000
  70
    32
  0
VERTEX
  8
0
  5
AAD
 10
255.131
 20
420.916
 30
0.000000
  70
    32
  0
VERTEX
  8
0
  5
AAE
 10
255.132
 20
421.140
 30
0.000000
  70
    32
  0
VERTEX
  8
0
  5
AAF
 10
255.131
 20
421.365
 30
0.000000
  70
    32
  0
VERTEX
  8
0
  5
AB0
 10
255.131
 20
421.589
 30
0.000000
  70
    32
  0
VERTEX
  8
0
  5
AB1
 10
255.131
 20
421.813
 30
0.000000
  70
    32
  0
VERTEX
  8
0
  5
AB2
 10
255.131
 20
422.036
 30
0.000000
  70
    32
  0
VERTEX
  8
0
  5
AB3
 10
255.131
 20
422.259
 30
0.000000
  70
    32
  0
VERTEX
  8
0
  5
AB4
 10
255.131
 20
422.481
 30
0.000000
  70
    32
  0
VERTEX
  8
0
  5
AB5
 10
255.131
 20
422.702
 30
0.000000
  70
    32
  0
VERTEX
  8
0
  5
AB6
 10
255.130
 20
422.922
 30
0.000000
  70
    32
  0
VERTEX
  8
0
  5
AB7
 10
255.130
 20
423.140
 30
0.000000
  70
    32
  0
VERTEX
  8
0
  5
AB8
 10
255.130
 20
423.357
 30
0.000000
  70
    32
  0
VERTEX
  8
0
  5
AB9
 10
255.130
 20
423.572
 30
0.000000
  70
    32
  0
VERTEX
  8
0
  5
ABA
 10
255.129
 20
423.785
 30
0.000000
  70
    32
  0
VERTEX
  8
0
  5
ABB
 10
255.129
 20
423.997
 30
0.000000
  70
    32
  0
VERTEX
  8
0
  5
ABC
 10
255.128
 20
424.206
 30
0.000000
  70
    32
  0
VERTEX
  8
0
  5
ABD
 10
255.128
 20
424.413
 30
0.000000
  70
    32
  0
VERTEX
  8
0
  5
ABE
 10
255.127
 20
424.617
 30
0.000000
  70
    32
  0
VERTEX
  8
0
  5
ABF
 10
255.127
 20
424.819
 30
0.000000
  70
    32
  0
VERTEX
  8
0
  5
AC0
 10
255.126
 20
425.018
 30
0.000000
  70
    32
  0
VERTEX
  8
0
  5
AC1
 10
255.126
 20
425.214
 30
0.000000
  70
    32
  0
VERTEX
  8
0
  5
AC2
 10
255.125
 20
425.406
 30
0.000000
  70
    32
  0
VERTEX
  8
0
  5
AC3
 10
255.125
 20
425.596
 30
0.000000
  70
    32
  0
VERTEX
  8
0
  5
AC4
 10
255.124
 20
425.782
 30
0.000000
  70
    32
  0
VERTEX
  8
0
  5
AC5
 10
255.123
 20
425.965
 30
0.000000
  70
    32
  0
VERTEX
  8
0
  5
AC6
 10
255.123
 20
426.144
 30
0.000000
  70
    32
  0
VERTEX
  8
0
  5
AC7
 10
255.122
 20
426.319
 30
0.000000
  70
    32
  0
VERTEX
  8
0
  5
AC8
 10
255.121
 20
426.491
 30
0.000000
  70
    32
  0
VERTEX
  8
0
  5
AC9
 10
255.120
 20
426.658
 30
0.000000
  70
    32
  0
VERTEX
  8
0
  5
ACA
 10
255.119
 20
426.821
 30
0.000000
  70
    32
  0
VERTEX
  8
0
  5
ACB
 10
255.119
 20
426.980
 30
0.000000
  70
    32
  0
VERTEX
  8
0
  5
ACC
 10
255.118
 20
427.134
 30
0.000000
  70
    32
  0
VERTEX
  8
0
  5
ACD
 10
255.117
 20
427.284
 30
0.000000
  70
    32
  0
VERTEX
  8
0
  5
ACE
 10
255.116
 20
427.429
 30
0.000000
  70
    32
  0
VERTEX
  8
0
  5
ACF
 10
255.115
 20
427.570
 30
0.000000
  70
    32
  0
VERTEX
  8
0
  5
AD0
 10
255.114
 20
427.705
 30
0.000000
  70
    32
  0
VERTEX
  8
0
  5
AD1
 10
255.113
 20
427.836
 30
0.000000
  70
    32
  0
VERTEX
  8
0
  5
AD2
 10
255.112
 20
427.961
 30
0.000000
  70
    32
  0
VERTEX
  8
0
  5
AD3
 10
255.111
 20
428.081
 30
0.000000
  70
    32
  0
VERTEX
  8
0
  5
AD4
 10
255.110
 20
428.196
 30
0.000000
  70
    32
  0
VERTEX
  8
0
  5
AD5
 10
255.109
 20
428.306
 30
0.000000
  70
    32
  0
VERTEX
  8
0
  5
AD6
 10
255.108
 20
428.410
 30
0.000000
  70
    32
  0
VERTEX
  8
0
  5
AD7
 10
255.107
 20
428.509
 30
0.000000
  70
    32
  0
VERTEX
  8
0
  5
AD8
 10
255.106
 20
428.602
 30
0.000000
  70
    32
  0
VERTEX
  8
0
  5
AD9
 10
255.105
 20
428.690
 30
0.000000
  70
    32
  0
VERTEX
  8
0
  5
ADA
 10
255.104
 20
428.771
 30
0.000000
  70
    32
  0
VERTEX
  8
0
  5
ADB
 10
255.103
 20
428.847
 30
0.000000
  70
    32
  0
VERTEX
  8
0
  5
ADC
 10
255.102
 20
428.917
 30
0.000000
  70
    32
  0
VERTEX
  8
0
  5
ADD
 10
255.100
 20
428.981
 30
0.000000
  70
    32
  0
VERTEX
  8
0
  5
ADE
 10
255.099
 20
429.040
 30
0.000000
  70
    32
  0
VERTEX
  8
0
  5
ADF
 10
255.098
 20
429.092
 30
0.000000
  70
    32
  0
VERTEX
  8
0
  5
AE0
 10
255.097
 20
429.138
 30
0.000000
  70
    32
  0
VERTEX
  8
0
  5
AE1
 10
255.096
 20
429.178
 30
0.000000
  70
    32
  0
VERTEX
  8
0
  5
AE2
 10
255.095
 20
429.212
 30
0.000000
  70
    32
  0
VERTEX
  8
0
  5
AE3
 10
255.094
 20
429.240
 30
0.000000
  70
    32
  0
VERTEX
  8
0
  5
AE4
 10
255.092
 20
429.262
 30
0.000000
  70
    32
  0
VERTEX
  8
0
  5
AE5
 10
255.091
 20
429.278
 30
0.000000
  70
    32
  0
VERTEX
  8
0
  5
AE6
 10
255.090
 20
429.287
 30
0.000000
  70
    32
  0
VERTEX
  8
0
  5
AE7
 10
255.089
 20
429.290
 30
0.000000
  70
    32
  0
VERTEX
  8
0
  5
AE8
 10
255.088
 20
429.287
 30
0.000000
  70
    32
  0
VERTEX
  8
0
  5
AE9
 10
255.087
 20
429.278
 30
0.000000
  70
    32
  0
VERTEX
  8
0
  5
AEA
 10
255.085
 20
429.263
 30
0.000000
  70
    32
  0
VERTEX
  8
0
  5
AEB
 10
255.084
 20
429.241
 30
0.000000
  70
    32
  0
VERTEX
  8
0
  5
AEC
 10
255.083
 20
429.214
 30
0.000000
  70
    32
  0
VERTEX
  8
0
  5
AED
 10
255.082
 20
429.180
 30
0.000000
  70
    32
  0
VERTEX
  8
0
  5
AEE
 10
255.081
 20
429.140
 30
0.000000
  70
    32
  0
SEQEND
  8
0
  5
AEF
  0
LINE
  5
4E4
  8
0
  6
CONTINUOUS
 62
     7
 10
254.77205952839
 20
413.14017744772991
 30
0.0
 11
254.77205952839
 21
405.14017744772991
 31
0.0
  0
LINE
  5
4E5
  8
0
  6
DOT
 62
     2
 10
255.09698924863
 20
429.14017744772991
 30
0.0
 11
264.77205952839
 21
429.14017744772991
 31
0.0
  0
LINE
  5
4E6
  8
0
  6
DOT
 62
     2
 10
255.09698924863
 20
413.14017744772991
 30
0.0
 11
264.77205952839
 21
413.14017744772991
 31
0.0
  0
LINE
  5
4E7
  8
0
  6
DOT
 62
     2
 10
74.447129808149
 20
413.14017744772991
 30
0.0
 11
64.772059528392006
 21
413.14017744772991
 31
0.0
  0
LINE
  5
4E8
  8
0
  6
DOT
 62
     2
 10
74.447129808149
 20
429.14017744772991
 30
0.0
 11
64.772059528392006
 21
429.14017744772991
 31
0.0
  0
LINE
  5
4E9
  8
0
  6
CONTINUOUS
 62
     7
 10
166.77205952839
 20
487.41862633845989
 30
0.0
 11
255.09698924863
 21
487.41862633845989
 31
0.0
  0
LINE
  5
4EA
  8
0
  6
DOT
 62
     2
 10
255.09698924863
 20
487.41862633845989
 30
0.0
 11
264.77205952839
 21
487.41862633845989
 31
0.0
  0
LINE
  5
4EB
  8
0
  6
CONTINUOUS
 62
     7
 10
166.77205952839
 20
503.41862633845989
 30
0.0
 11
255.04695139770999
 21
503.41862633845989
 31
0.0
  0
LINE
  5
4EC
  8
0
  6
DOT
 62
     2
 10
255.04695139770999
 20
503.41862633845989
 30
0.0
 11
264.77205952839
 21
503.41862633845989
 31
0.0
  0
LINE
  5
4ED
  8
0
  6
DOT
 62
     2
 10
74.497167659073
 20
503.41862633845989
 30
0.0
 11
64.772059528392006
 21
503.41862633845989
 31
0.0
  0
LINE
  5
4EE
  8
0
  6
CONTINUOUS
 62
     7
 10
162.77205952839
 20
503.41862633845989
 30
0.0
 11
74.497167659073
 21
503.41862633845989
 31
0.0
  0
LINE
  5
4EF
  8
0
  6
CONTINUOUS
 62
     7
 10
162.77205952839
 20
487.41862633845989
 30
0.0
 11
74.447129808149
 21
487.41862633845989
 31
0.0
  0
LINE
  5
4F0
  8
0
  6
DOT
 62
     2
 10
74.447129808149
 20
487.41862633845989
 30
0.0
 11
64.772059528392006
 21
487.41862633845989
 31
0.0
  0
LINE
  5
4F1
  8
0
  6
DOT
 62
     2
 10
264.77205952839
 20
503.41862633845989
 30
0.0
 11
264.77205952839
 21
487.41862633845989
 31
0.0
  0
LINE
  5
4F2
  8
0
  6
DOT
 62
     2
 10
264.77205952839
 20
429.14017744772991
 30
0.0
 11
264.77205952839
 21
413.14017744772991
 31
0.0
  0
LINE
  5
4F3
  8
0
  6
DOT
 62
     2
 10
64.772059528392006
 20
429.14017744772991
 30
0.0
 11
64.772059528392006
 21
413.14017744772991
 31
0.0
  0
LINE
  5
4F4
  8
0
  6
DOT
 62
     2
 10
64.772059528392006
 20
503.41862633845989
 30
0.0
 11
64.772059528392006
 21
487.41862633845989
 31
0.0
  0
ARC
  5
4F5
  8
0
  6
CONTINUOUS
 62
     7
 10
56.133366547115003
 20
486.91862633845989
 30
0.0
 40
1.5
 50
180.2999999999
 51
270.00000001025001
  0
POINT
  5
4F6
  8
0
 62
     7
 10
54.64120003861499
 20
485.41862633818988
 30
0.0
  0
LINE
  5
4F7
  8
0
  6
CONTINUOUS
 62
     7
 10
54.633387108744003
 20
486.91077239270999
 30
0.0
 11
54.272059528391999
 21
555.91862633845994
 31
0.0
  0
LINE
  5
4F8
  8
0
  6
CONTINUOUS
 62
     7
 10
72.910752510004997
 20
485.41862634145991
 30
0.0
 11
56.133366547383012
 21
485.41862633845989
 31
0.0
  0
ARC
  5
4F9
  8
0
  6
CONTINUOUS
 62
     7
 10
72.910752509736994
 20
486.91862634146997
 30
0.0
 40
1.5
 50
270.00000001024
 51
359.70000000007002
  0
POINT
  5
4FA
  8
0
 62
     7
 10
74.402919018250003
 20
485.41862634172992
 30
0.0
  0
LINE
  5
4FB
  8
0
  6
CONTINUOUS
 62
     7
 10
74.410731948107994
 20
486.9107723957199
 30
0.0
 11
74.455005217291998
 21
495.36626670016
 31
0.0
  0
ARC
  5
4FC
  8
0
  6
CONTINUOUS
 62
     7
 10
273.41075250966998
 20
486.91862633845989
 30
0.0
 40
1.5
 50
269.99999998974999
 51
359.70000000010998
  0
POINT
  5
4FD
  8
0
 62
     7
 10
274.90291901817
 20
485.41862633818988
 30
0.0
  0
LINE
  5
4FE
  8
0
  6
CONTINUOUS
 62
     7
 10
274.91073194804
 20
486.91077239270999
 30
0.0
 11
275.27205952839
 21
555.91862633845994
 31
0.0
  0
LINE
  5
4FF
  8
0
  6
CONTINUOUS
 62
     7
 10
256.63336654678
 20
485.41862634145991
 30
0.0
 11
273.41075250940003
 21
485.41862633845989
 31
0.0
  0
ARC
  5
500
  8
0
  6
CONTINUOUS
 62
     7
 10
256.63336654705
 20
486.91862634146997
 30
0.0
 40
1.5
 50
180.29999999987999
 51
269.99999998976
  0
POINT
  5
501
  8
0
 62
     7
 10
255.14120003853
 20
485.41862634172992
 30
0.0
  0
LINE
  5
502
  8
0
  6
CONTINUOUS
 62
     7
 10
255.13338710868001
 20
486.9107723957199
 30
0.0
 11
255.08911383949001
 21
495.36626670016
 31
0.0
  0
DIMENSION
  5
503
  8
0
  6
CONTINUOUS
 62
     6
  2
*D21
 10
74.772059528392006
 20
383.35505375320002
 30
0.0
 11
69.772059528392006
 21
383.35505375320002
 31
0.0
 13
64.772059528392006
 23
392.86617235146002
 33
0.0
 14
74.772059528392006
 24
405.14017744772991
 34
0.0
  0
DIMENSION
  5
504
  8
0
  6
CONTINUOUS
 62
     6
  2
*D22
 10
54.772059528391999
 20
383.35505375320002
 30
0.0
 11
59.772059528391999
 21
383.35505375320002
 31
0.0
 13
64.772059528392006
 23
392.86617235146002
 33
0.0
 14
54.772059528391999
 24
405.14017744772991
 34
0.0
 50
180.0
  0
DIMENSION
  5
505
  8
0
  6
CONTINUOUS
 62
     6
  2
*D23
 10
54.772059528391999
 20
373.00942106484001
 30
0.0
 11
64.772059528392006
 21
373.00942106484001
 31
0.0
 13
74.772059528392006
 23
405.14017744772991
 33
0.0
 14
54.772059528391999
 24
405.14017744772991
 34
0.0
 50
180.0
  0
LINE
  5
506
  8
0
  6
DASHDOT
 62
     2
 10
64.772059528392006
 20
481.89139250656001
 30
0.0
 11
64.772059528392006
 21
566.05878126748985
 31
0.0
  0
LINE
  5
507
  8
0
  6
DASHDOT
 62
     2
 10
366.45060900348
 20
439.14017744773003
 30
0.0
 11
385.42603412135009
 21
439.14017744773003
 31
0.0
  0
LINE
  5
508
  8
0
  6
DASHDOT
 62
     2
 10
366.45060900348
 20
403.14017744772991
 30
0.0
 11
385.42603412135009
 21
403.14017744772991
 31
0.0
  0
LINE
  5
509
  8
0
  6
DASHDOT
 62
     2
 10
385.42603412135009
 20
421.14017744772991
 30
0.0
 11
302.98188021671001
 21
421.14017744772991
 31
0.0
  0
DIMENSION
  5
50A
  8
0
  6
CONTINUOUS
 62
     6
  2
*D24
 10
299.32466230100999
 20
411.14031452522988
 30
0.0
 11
299.32466230100999
 21
421.14017744768
 31
0.0
  1
\A1;20
 13
318.77869522368002
 23
431.1400403701299
 33
0.0
 14
318.77869522368002
 24
411.14031452522988
 34
0.0
 50
270.0
  0
LINE
  5
50B
  8
0
  6
DASHDOT
 62
     2
 10
318.83105486199997
 20
405.09660539047991
 30
0.0
 11
318.83105486199997
 21
437.08392600704002
 31
0.0
  0
LINE
  5
50C
  8
0
  6
DASHDOT
 62
     2
 10
264.77205952839
 20
481.89139250656001
 30
0.0
 11
264.77205952839
 21
566.05878126748985
 31
0.0
  0
INSERT
  5
50D
  8
0
  2
*D25
 10
0.0
 20
0.0
 30
0.0
  0
INSERT
  5
50E
  8
0
  2
*D26
 10
0.0
 20
0.0
 30
0.0
  0
DIMENSION
  5
50F
  8
0
  6
CONTINUOUS
 62
     6
  2
*D27
 10
396.02056616373
 20
395.14017744773003
 30
0.0
 11
396.02056616373
 21
421.14017744772991
 31
0.0
 13
379.33105486198002
 23
447.14017744772991
 33
0.0
 14
379.33105486198002
 24
395.14017744773003
 34
0.0
 50
270.0
  0
DIMENSION
  5
510
  8
0
  6
CONTINUOUS
 62
     6
  2
*D28
 10
41.817783257592993
 20
403.14017744772991
 30
0.0
 11
41.817783257592993
 21
421.14017744772991
 31
0.0
 13
51.891613669887001
 23
439.14017744773003
 33
0.0
 14
51.891613669887001
 24
403.14017744772991
 34
0.0
 50
270.0
  0
DIMENSION
  5
511
  8
0
  6
CONTINUOUS
 62
     6
  2
*D29
 10
32.086937573359002
 20
395.14017744773003
 30
0.0
 11
32.086937573359002
 21
421.14017744772991
 31
0.0
 13
64.772059528392006
 23
447.14017744772991
 33
0.0
 14
64.772059528392006
 24
395.14017744773003
 34
0.0
 50
270.0
  0
DIMENSION
  5
512
  8
0
  6
CONTINUOUS
 62
     6
  2
*D30
 10
41.817783257592993
 20
495.41862633845989
 30
0.0
 11
41.817783257592993
 21
525.66862633845994
 31
0.0
 13
53.791571723491998
 23
555.91862633845994
 33
0.0
 14
44.380041233975
 24
495.41862633845989
 34
0.0
 50
270.0
  0
DIMENSION
  5
513
  8
0
  6
CONTINUOUS
 62
     6
  2
*D31
 10
32.086937573359002
 20
485.41862633818988
 30
0.0
 11
32.086937573359002
 21
520.66862633833
 31
0.0
 13
54.272059528391999
 23
555.91862633845994
 33
0.0
 14
54.64120003861499
 24
485.41862633818988
 34
0.0
 50
270.0
  0
LINE
  5
514
  8
0
  6
DASHDOT
 62
     2
 10
47.071092718364
 20
421.14017744772991
 30
0.0
 11
164.77205952839
 21
421.14017744772991
 31
0.0
  0
LINE
  5
515
  8
0
  6
DASHDOT
 62
     2
 10
282.47302633842003
 20
421.14017744772991
 30
0.0
 11
164.77205952839
 21
421.14017744772991
 31
0.0
  0
LINE
  5
516
  8
0
  6
DASHDOT
 62
     2
 10
164.77205952839
 20
495.41862633845989
 30
0.0
 11
44.380041233975
 21
495.41862633845989
 31
0.0
  0
LINE
  5
517
  8
0
  6
DASHDOT
 62
     2
 10
164.77205952839
 20
495.41862633845989
 30
0.0
 11
285.16407782280999
 21
495.41862633845989
 31
0.0
  0
DIMENSION
  5
519
  8
0
  6
CONTINUOUS
 62
     6
  2
*D32
 10
379.33105486198002
 20
460.01041849505992
 30
0.0
 11
375.33105486198002
 21
460.01041849505992
 31
0.0
 13
371.33105486198002
 23
445.6061226544299
 33
0.0
 14
379.33105486198002
 24
447.14017744772991
 34
0.0
  0
DIMENSION
  5
51A
  8
0
  6
CONTINUOUS
 62
     6
  2
*D33
 10
379.33105486198002
 20
451.32178484479999
 30
0.0
 11
376.83105486198002
 21
451.32178484479999
 31
0.0
 13
374.33105486197991
 23
442.89882881622998
 33
0.0
 14
379.33105486198002
 24
447.14017744772991
 34
0.0
  0
DIMENSION
  5
51B
  8
0
  6
CONTINUOUS
 62
     6
  2
*D34
 10
64.772059528392006
 20
405.14017744772991
 30
0.0
 11
84.385177243541008
 21
386.34322365720999
 31
0.0
 70
   132
 15
71.991748622679012
 25
398.22092247469999
 35
0.0
 40
17.166152806593001
  0
DIMENSION
  5
51E
  8
0
  6
CONTINUOUS
 62
     6
  2
*D35
 10
93.663686138914997
 20
503.41862633845989
 30
0.0
 11
93.663686138914997
 21
529.66862633845994
 31
0.0
  1
\A1;(52.5)
 13
74.772059528392006
 23
555.91862633845994
 33
0.0
 14
81.490016643182997
 24
503.41862633845989
 34
0.0
 50
270.0
  0
DIMENSION
  5
51F
  8
0
  6
CONTINUOUS
 62
     6
  2
*D36
 10
151.63100067303
 20
487.41862633845989
 30
0.0
 11
151.63100067303
 21
515.10248904709988
 31
0.0
 70
   128
 13
162.77205952839
 23
503.41862633845989
 33
0.0
 14
162.77205952839
 24
487.41862633845989
 34
0.0
 50
270.0
  0
DIMENSION
  5
520
  8
0
  6
CONTINUOUS
 62
     6
  2
*D37
 10
264.77205952839
 20
572.76950375221998
 30
0.0
 11
164.77205952839
 21
572.76950375221998
 31
0.0
  1
\A1;取付ピッチL
 13
64.772059528392006
 23
566.05878126748985
 33
0.0
 14
264.77205952839
 24
566.05878126748985
 34
0.0
  0
CIRCLE
  5
521
  8
0
  6
DOT
 62
     2
 10
318.83105486199997
 20
421.14017744772991
 30
0.0
 40
8.0
  0
TEXT
  5
523
  8
0
 62
     3
 10
44.168723061012003
 20
352.10829380322002
 30
0.0
 40
3.7999999999999989
  1
㈱久力制作所品番
 41
0.7894736842105301
  0
TEXT
  5
524
  8
0
 62
     6
 10
44.168723061012003
 20
346.10829380322002
 30
0.0
 40
3.7999999999999989
  1
６１０－０２１
 41
0.7894736842105301
  0
LINE
  5
527
  8
0
  6
CONTINUOUS
 62
     3
 10
34.557668436669999
 20
357.10829380322002
 30
0.0
 11
34.557668436669999
 21
327.10829380322002
 31
0.0
  0
LINE
  5
528
  8
0
  6
CONTINUOUS
 62
     3
 10
43.557668436669999
 20
357.10829380322002
 30
0.0
 11
43.557668436669999
 21
327.10829380322002
 31
0.0
  0
TEXT
  5
529
  8
0
 62
     6
 10
44.168723061012003
 20
340.10829380322002
 30
0.0
 40
3.7999999999999989
  1
６１０－０２３
 41
0.7894736842105301
  0
TEXT
  5
52A
  8
0
 62
     6
 10
44.168723061012003
 20
334.10829380322002
 30
0.0
 40
3.7999999999999989
  1
６１０－０２５
 41
0.7894736842105301
  0
LINE
  5
532
  8
0
  6
CONTINUOUS
 62
     3
 10
43.557668436669999
 20
351.10829380321991
 30
0.0
 11
141.55766843667001
 21
351.10829380321991
 31
0.0
  0
LINE
  5
533
  8
0
  6
CONTINUOUS
 62
     3
 10
34.557668436669999
 20
357.10829380322002
 30
0.0
 11
141.55766843667001
 21
357.10829380322002
 31
0.0
  0
TEXT
  5
534
  8
0
 62
     3
 10
79.610263051437997
 20
352.10829380322002
 30
0.0
 40
3.7999999999999989
  1
Ｌ寸法
 41
0.7894736842105301
  0
TEXT
  5
535
  8
0
 62
     3
 10
94.610263051438025
 20
352.10829380322002
 30
0.0
 40
3.7999999999999989
  1
Ｌ１寸法
 41
0.7894736842105301
  0
TEXT
  5
536
  8
0
 62
     3
 10
109.61026305144
 20
352.10829380322002
 30
0.0
 40
3.7999999999999989
  1
①の色
 41
0.7894736842105301
  0
TEXT
  5
537
  8
0
 62
     6
 10
94.168723061012003
 20
346.10829380322002
 30
0.0
 40
3.7999999999999989
  1
４００
 41
0.7894736842105301
  0
TEXT
  5
538
  8
0
 62
     6
 10
79.168723061012003
 20
346.10829380322002
 30
0.0
 40
3.7999999999999989
  1
４００
 41
0.7894736842105301
  0
TEXT
  5
539
  8
0
 62
     6
 10
94.168723061012003
 20
340.10829380322002
 30
0.0
 40
3.7999999999999989
  1
４６０
 41
0.7894736842105301
  0
LINE
  5
53A
  8
0
  6
CONTINUOUS
 62
     3
 10
34.557668436669999
 20
327.10829380322002
 30
0.0
 11
141.55766843667001
 21
327.10829380322002
 31
0.0
  0
TEXT
  5
53B
  8
0
 62
     6
 10
94.168723061012003
 20
334.10829380322002
 30
0.0
 40
3.7999999999999989
  1
６１０
 41
0.7894736842105301
  0
LINE
  5
53C
  8
0
  6
CONTINUOUS
 62
     3
 10
78.557668436669999
 20
357.10829380322002
 30
0.0
 11
78.557668436669999
 21
327.10829380322002
 31
0.0
  0
LINE
  5
53D
  8
0
  6
CONTINUOUS
 62
     3
 10
93.557668436669999
 20
357.10829380322002
 30
0.0
 11
93.557668436669999
 21
327.10829380322002
 31
0.0
  0
LINE
  5
53E
  8
0
  6
CONTINUOUS
 62
     3
 10
108.55766843667
 20
357.10829380322002
 30
0.0
 11
108.55766843667
 21
327.10829380322002
 31
0.0
  0
LINE
  5
53F
  8
0
  6
CONTINUOUS
 62
     3
 10
141.55766843667001
 20
357.10829380322002
 30
0.0
 11
141.55766843667001
 21
327.10829380322002
 31
0.0
  0
TEXT
  5
540
  8
0
 62
     6
 10
79.168723061012003
 20
340.10829380322002
 30
0.0
 40
3.7999999999999989
  1
４５９
 41
0.7894736842105301
  0
TEXT
  5
541
  8
0
 62
     6
 10
79.168723061012003
 20
334.10829380322002
 30
0.0
 40
3.7999999999999989
  1
６０９
 41
0.7894736842105301
  0
LINE
  5
542
  8
0
  6
CONTINUOUS
 62
     3
 10
43.557668436669999
 20
345.10829380322002
 30
0.0
 11
108.55766843667
 21
345.10829380322002
 31
0.0
  0
LINE
  5
543
  8
0
  6
CONTINUOUS
 62
     3
 10
43.557668436669999
 20
339.10829380322002
 30
0.0
 11
108.55766843667
 21
339.10829380322002
 31
0.0
  0
TEXT
  5
546
  8
0
 62
     3
 10
35.557668436669999
 20
345.90636469213001
 30
0.0
 40
3.7999999999999989
  1
表
 41
0.7894736842105301
  0
DIMENSION
  5
547
  8
0
  6
CONTINUOUS
 62
     6
  2
*D38
 10
264.77205952839
 20
472.40238673950989
 30
0.0
 11
164.77205952839
 21
472.40238673950989
 31
0.0
  1
\A1;パイプ長さL1
 13
64.772059528392006
 23
481.89139250656001
 33
0.0
 14
264.77205952839
 24
481.89139250656001
 34
0.0
  0
LINE
  5
548
  8
0
  6
CONTINUOUS
 62
     3
 10
43.557668436669999
 20
333.10829380322002
 30
0.0
 11
108.55766843667
 21
333.10829380322002
 31
0.0
  0
TEXT
  5
54A
  8
0
 62
     6
 10
109.61026305144
 20
346.10829380322002
 30
0.0
 40
3.7999999999999989
  1
ホワイト
 41
0.7894736842105301
  0
TEXT
  5
54C
  8
0
 62
     3
 10
26.78564923667
 20
39.029847356235003
 30
0.0
 40
3.7999999999999989
  1
表
 41
0.7894736842105301
  0
ENDSEC
  0
EOF
