   0
SECTION
   2
HEADER
   9
$ACADVER
   1
AC1015
   9
$LIMMIN
  10
0.0
  20
0.0
   9
$LIMMAX
  10
 420.00000000000
  20
 297.00000000000
   9
$EXTMIN
  10
0.0
  20
0.0
  30
0.0
   9
$EXTMAX
  10
 420.00000000000
  20
 297.00000000000
  30
0.0
   9
$LTSCALE
  40
 8.4000000000000
   9
$HANDSEED
   5
45A
   0
ENDSEC
   0
SECTION
   2
TABLES
  0
TABLE
  2
VPORT
  5
8
100
AcDbSymbolTable
 70
     1
  0
VPORT
  5
459
100
AcDbSymbolTableRecord
100
AcDbViewportTableRecord
  2
*ACTIVE
 70
     0
 10
0.0
 20
0.0
 11
1.0
 21
1.0
  12
 210.00000000000
  22
 148.50000000000
 13
0.0
 23
0.0
 14
1.0
 24
1.0
 15
0.0
 25
0.0
 16
0.0
 26
0.0
 36
1.0
 17
0.0
 27
0.0
 37
0.0
  40
 420.00000000000
  41
 1.4787878787879
 42
50.0
 43
0.0
 44
0.0
 50
0.0
 51
0.0
 71
     0
 72
   100
 73
     1
 74
     1
 75
     0
 76
     0
 77
     0
 78
     0
  0
ENDTAB
  0
TABLE
  2
LTYPE
  5
5
100
AcDbSymbolTable
 70
    25
  0
LTYPE
  5
12
100
AcDbSymbolTableRecord
100
AcDbLinetypeTableRecord
  2
BYBLOCK
 70
     0
  3

 72
    65
 73
     0
 40
0.0
  0
LTYPE
  5
13
100
AcDbSymbolTableRecord
100
AcDbLinetypeTableRecord
  2
BYLAYER
 70
     0
  3

 72
    65
 73
     0
 40
0.0
  0
LTYPE
  5
14
100
AcDbSymbolTableRecord
100
AcDbLinetypeTableRecord
  2
CONTINUOUS
 70
     0
  3
Solid line
 72
    65
 73
     0
 40
0.0
  0
LTYPE
  5
20
100
AcDbSymbolTableRecord
100
AcDbLinetypeTableRecord
  2
BORDER
 70
     0
  3
__ __ . __ __ . __ __ . __ __ . __ __ . __ __ .
 72
    65
 73
     6
 40
1.75
 49
0.5
 74
     0
 49
-0.25
 74
     0
 49
0.5
 74
     0
 49
-0.25
 74
     0
 49
0.0
 74
     0
 49
-0.25
 74
     0
  0
LTYPE
  5
21
100
AcDbSymbolTableRecord
100
AcDbLinetypeTableRecord
  2
BORDER2
 70
     0
  3
__.__.__.__.__.__.__.__.__.__.__.__.__.__.__.__
 72
    65
 73
     6
 40
0.875
 49
0.25
 74
     0
 49
-0.125
 74
     0
 49
0.25
 74
     0
 49
-0.125
 74
     0
 49
0.0
 74
     0
 49
-0.125
 74
     0
  0
LTYPE
  5
22
100
AcDbSymbolTableRecord
100
AcDbLinetypeTableRecord
  2
BORDERX2
 70
     0
  3
____  ____  .  ____  ____  .  ____  ____  .  __
 72
    65
 73
     6
 40
3.5
 49
1.0
 74
     0
 49
-0.5
 74
     0
 49
1.0
 74
     0
 49
-0.5
 74
     0
 49
0.0
 74
     0
 49
-0.5
 74
     0
  0
LTYPE
  5
23
100
AcDbSymbolTableRecord
100
AcDbLinetypeTableRecord
  2
CENTER
 70
     0
  3
____ _ ____ _ ____ _ ____ _ ____ _ ____ _ ____ 
 72
    65
 73
     4
 40
2.0
 49
1.25
 74
     0
 49
-0.25
 74
     0
 49
0.25
 74
     0
 49
-0.25
 74
     0
  0
LTYPE
  5
24
100
AcDbSymbolTableRecord
100
AcDbLinetypeTableRecord
  2
CENTER2
 70
     0
  3
___ _ ___ _ ___ _ ___ _ ___ _ ___ _ ___ _ ___ _
 72
    65
 73
     4
 40
1.125
 49
0.75
 74
     0
 49
-0.125
 74
     0
 49
0.125
 74
     0
 49
-0.125
 74
     0
  0
LTYPE
  5
25
100
AcDbSymbolTableRecord
100
AcDbLinetypeTableRecord
  2
CENTERX2
 70
     0
  3
________  __  ________  __  ________  __  _____
 72
    65
 73
     4
 40
4.0
 49
2.5
 74
     0
 49
-0.5
 74
     0
 49
0.5
 74
     0
 49
-0.5
 74
     0
  0
LTYPE
  5
26
100
AcDbSymbolTableRecord
100
AcDbLinetypeTableRecord
  2
DASHDOT
 70
     0
  3
__ . __ . __ . __ . __ . __ . __ . __ . __ . __
 72
    65
 73
     4
 40
1.0
 49
0.5
 74
     0
 49
-0.25
 74
     0
 49
0.0
 74
     0
 49
-0.25
 74
     0
  0
LTYPE
  5
27
100
AcDbSymbolTableRecord
100
AcDbLinetypeTableRecord
  2
DASHDOT2
 70
     0
  3
_._._._._._._._._._._._._._._._._._._._._._._._
 72
    65
 73
     4
 40
0.5
 49
0.25
 74
     0
 49
-0.125
 74
     0
 49
0.0
 74
     0
 49
-0.125
 74
     0
  0
LTYPE
  5
28
100
AcDbSymbolTableRecord
100
AcDbLinetypeTableRecord
  2
DASHDOTX2
 70
     0
  3
____  .  ____  .  ____  .  ____  .  ____  .  __
 72
    65
 73
     4
 40
2.0
 49
1.0
 74
     0
 49
-0.5
 74
     0
 49
0.0
 74
     0
 49
-0.5
 74
     0
  0
LTYPE
  5
29
100
AcDbSymbolTableRecord
100
AcDbLinetypeTableRecord
  2
DASHED
 70
     0
  3
__ __ __ __ __ __ __ __ __ __ __ __ __ __ __ __
 72
    65
 73
     2
 40
0.75
 49
0.5
 74
     0
 49
-0.25
 74
     0
  0
LTYPE
  5
2A
100
AcDbSymbolTableRecord
100
AcDbLinetypeTableRecord
  2
DASHED2
 70
     0
  3
_ _ _ _ _ _ _ _ _ _ _ _ _ _ _ _ _ _ _ _ _ _ _ _
 72
    65
 73
     2
 40
0.375
 49
0.25
 74
     0
 49
-0.125
 74
     0
  0
LTYPE
  5
2B
100
AcDbSymbolTableRecord
100
AcDbLinetypeTableRecord
  2
DASHEDX2
 70
     0
  3
____  ____  ____  ____  ____  ____  ____  ____ 
 72
    65
 73
     2
 40
1.5
 49
1.0
 74
     0
 49
-0.5
 74
     0
  0
LTYPE
  5
2C
100
AcDbSymbolTableRecord
100
AcDbLinetypeTableRecord
  2
DIVIDE
 70
     0
  3
____ . . ____ . . ____ . . ____ . . ____ . . __
 72
    65
 73
     6
 40
1.25
 49
0.5
 74
     0
 49
-0.25
 74
     0
 49
0.0
 74
     0
 49
-0.25
 74
     0
 49
0.0
 74
     0
 49
-0.25
 74
     0
  0
LTYPE
  5
2D
100
AcDbSymbolTableRecord
100
AcDbLinetypeTableRecord
  2
DIVIDE2
 70
     0
  3
__..__..__..__..__..__..__..__..__..__..__..__.
 72
    65
 73
     6
 40
0.625
 49
0.25
 74
     0
 49
-0.125
 74
     0
 49
0.0
 74
     0
 49
-0.125
 74
     0
 49
0.0
 74
     0
 49
-0.125
 74
     0
  0
LTYPE
  5
2E
100
AcDbSymbolTableRecord
100
AcDbLinetypeTableRecord
  2
DIVIDEX2
 70
     0
  3
________  .  .  ________  .  .  ________  .  . 
 72
    65
 73
     6
 40
2.5
 49
1.0
 74
     0
 49
-0.5
 74
     0
 49
0.0
 74
     0
 49
-0.5
 74
     0
 49
0.0
 74
     0
 49
-0.5
 74
     0
  0
LTYPE
  5
2F
100
AcDbSymbolTableRecord
100
AcDbLinetypeTableRecord
  2
DOT
 70
     0
  3
. . . . . . . . . . . . . . . . . . . . . . . .
 72
    65
 73
     2
 40
0.25
 49
0.0
 74
     0
 49
-0.25
 74
     0
  0
LTYPE
  5
30
100
AcDbSymbolTableRecord
100
AcDbLinetypeTableRecord
  2
DOT2
 70
     0
  3
...............................................
 72
    65
 73
     2
 40
0.125
 49
0.0
 74
     0
 49
-0.125
 74
     0
  0
LTYPE
  5
31
100
AcDbSymbolTableRecord
100
AcDbLinetypeTableRecord
  2
DOTX2
 70
     0
  3
.  .  .  .  .  .  .  .  .  .  .  .  .  .  .  . 
 72
    65
 73
     2
 40
0.5
 49
0.0
 74
     0
 49
-0.5
 74
     0
  0
LTYPE
  5
32
100
AcDbSymbolTableRecord
100
AcDbLinetypeTableRecord
  2
HIDDEN
 70
     0
  3
__ __ __ __ __ __ __ __ __ __ __ __ __ __ __ __
 72
    65
 73
     2
 40
0.375
 49
0.25
 74
     0
 49
-0.125
 74
     0
  0
LTYPE
  5
33
100
AcDbSymbolTableRecord
100
AcDbLinetypeTableRecord
  2
HIDDEN2
 70
     0
  3
_ _ _ _ _ _ _ _ _ _ _ _ _ _ _ _ _ _ _ _ _ _ _ _
 72
    65
 73
     2
 40
0.1875
 49
0.125
 74
     0
 49
-0.0625
 74
     0
  0
LTYPE
  5
34
100
AcDbSymbolTableRecord
100
AcDbLinetypeTableRecord
  2
HIDDENX2
 70
     0
  3
____ ____ ____ ____ ____ ____ ____ ____ ____ __
 72
    65
 73
     2
 40
0.75
 49
0.5
 74
     0
 49
-0.25
 74
     0
  0
LTYPE
  5
35
100
AcDbSymbolTableRecord
100
AcDbLinetypeTableRecord
  2
PHANTOM
 70
     0
  3
______  __  __  ______  __  __  ______  __  __ 
 72
    65
 73
     6
 40
2.5
 49
1.25
 74
     0
 49
-0.25
 74
     0
 49
0.25
 74
     0
 49
-0.25
 74
     0
 49
0.25
 74
     0
 49
-0.25
 74
     0
  0
LTYPE
  5
36
100
AcDbSymbolTableRecord
100
AcDbLinetypeTableRecord
  2
PHANTOM2
 70
     0
  3
___ _ _ ___ _ _ ___ _ _ ___ _ _ ___ _ _ ___ _ _
 72
    65
 73
     6
 40
1.25
 49
0.625
 74
     0
 49
-0.125
 74
     0
 49
0.125
 74
     0
 49
-0.125
 74
     0
 49
0.125
 74
     0
 49
-0.125
 74
     0
  0
LTYPE
  5
37
100
AcDbSymbolTableRecord
100
AcDbLinetypeTableRecord
  2
PHANTOMX2
 70
     0
  3
____________    ____    ____    ____________   
 72
    65
 73
     6
 40
5.0
 49
2.5
 74
     0
 49
-0.5
 74
     0
 49
0.5
 74
     0
 49
-0.5
 74
     0
 49
0.5
 74
     0
 49
-0.5
 74
     0
  0
ENDTAB
   0
TABLE
   2
LAYER
   5
2
 100
AcDbSymbolTable
  70
2
   0
LAYER
   5
E
 100
AcDbSymbolTableRecord
 100
AcDbLayerTableRecord
   2
0
  70
0
  62
7
   6
CONTINUOUS
 390
30
   0
LAYER
   5
39
 100
AcDbSymbolTableRecord
 100
AcDbLayerTableRecord
   2
LEVEL001
  70
0
  62
7
   6
CONTINUOUS
 390
30
   0
ENDTAB
  0
TABLE
  2
STYLE
  5
3
100
AcDbSymbolTable
  70
4
  0
STYLE
  5
F
100
AcDbSymbolTableRecord
100
AcDbTextStyleTableRecord
  2
STANDARD
 70
     0
 40
0.0
 41
1.0
 50
0.0
 71
     0
 42
0.2
  3
TXT
  4
BIGFONT
  0
STYLE
  5
38
100
AcDbSymbolTableRecord
100
AcDbTextStyleTableRecord
  2
STANDARD1
 70
     4
 40
0.0
 41
1.0
 50
0.0
 71
     0
 42
0.2
  3
TXT
  4
BIGFONT
   0
STYLE
   5
3A
 100
AcDbSymbolTableRecord
 100
AcDbTextStyleTableRecord
   2
GMM001
  70
0
  40
0.0
  41
 1.0000000000000
  50
0.0
  71
     0
  42
1.0
   3
txt.shx
   4
bigfont.shx
   0
STYLE
   5
3B
 100
AcDbSymbolTableRecord
 100
AcDbTextStyleTableRecord
   2
GMM002
  70
0
  40
0.0
  41
 0.84210526315789
  50
0.0
  71
     0
  42
1.0
   3
txt.shx
   4
bigfont.shx
   0
ENDTAB
  0
TABLE
  2
VIEW
  5
6
100
AcDbSymbolTable
 70
     0
  0
ENDTAB
  0
TABLE
  2
UCS
  5
7
100
AcDbSymbolTable
 70
     0
  0
ENDTAB
  0
TABLE
  2
APPID
  5
9
100
AcDbSymbolTable
 70
     1
  0
APPID
  5
10
100
AcDbSymbolTableRecord
100
AcDbRegAppTableRecord
  2
ACAD
 70
     0
  0
ENDTAB
   0
TABLE
   2
DIMSTYLE
   5
A
 100
AcDbSymbolTable
  70
12
 100
AcDbDimStyleTable
  0
DIMSTYLE
105
1D
100
AcDbSymbolTableRecord
100
AcDbDimStyleTableRecord
  2
STANDARD
 70
     0
  3

  4

  5

  6

  7

 40
1.0
 41
0.18
 42
0.0625
 43
0.38
 44
0.18
 45
0.0
 46
0.0
 47
0.0
 48
0.0
140
0.18
141
0.09
142
0.0
143
25.4
144
1.0
145
0.0
146
1.0
147
0.09
 71
     0
 72
     0
 73
     1
 74
     1
 75
     0
 76
     0
 77
     0
 78
     0
170
     0
171
     2
172
     0
173
     0
174
     0
175
     0
176
     0
177
     0
178
     0
270
     2
271
     4
272
     4
273
     2
274
     2
340
F
275
     0
280
     0
281
     0
282
     0
283
     1
284
     0
285
     0
286
     0
287
     3
288
     0
   0
DIMSTYLE
 105
3C
 100
AcDbSymbolTableRecord
 100
AcDbDimStyleTableRecord
   2
GMM001
  70
0
   3
R<>
   4

   5

   6
_NONE
   7
_OPEN30
  40
 1.0000000000000
  41
 3.0000000000000
  42
0.0
  43
 8.0000000000000
  44
 2.0000000000000
  45
0.0
  46
0.0
  47
0.0
  48
0.0
 140
 4.0000000000000
 141
 1.0000000000000
 142
0.0
 143
 0.39400000000000E-1
 144
 1.0000000000000
 145
0.0
 146
 0.62500000000000
 147
 1.7142857142857
  71
0
  72
0
  73
0
  74
0
  75
0
  76
0
  77
3
  78
8
 170
0
 171
2
 172
1
 173
1
 174
0
 175
0
 176
2
 177
2
 178
2
 270
2
 271
6
 272
0
 273
2
 274
2
 340
3A
 275
1
 280
0
 281
0
 282
0
 283
1
 284
0
 285
0
 286
0
 287
3
 288
1
   0
DIMSTYLE
 105
3D
 100
AcDbSymbolTableRecord
 100
AcDbDimStyleTableRecord
   2
GMM002
  70
0
   3
4-R<>
   4

   5

   6
_NONE
   7
_OPEN30
  40
 1.0000000000000
  41
 3.0000000000000
  42
0.0
  43
 8.0000000000000
  44
 2.0000000000000
  45
0.0
  46
0.0
  47
0.0
  48
0.0
 140
 4.0000000000000
 141
 1.0000000000000
 142
0.0
 143
 0.39400000000000E-1
 144
 1.0000000000000
 145
0.0
 146
 0.62500000000000
 147
 1.7142857142857
  71
0
  72
0
  73
0
  74
0
  75
0
  76
0
  77
3
  78
8
 170
0
 171
2
 172
1
 173
1
 174
0
 175
0
 176
2
 177
2
 178
2
 270
2
 271
6
 272
0
 273
2
 274
2
 340
3A
 275
1
 280
0
 281
0
 282
0
 283
1
 284
0
 285
0
 286
0
 287
3
 288
1
   0
DIMSTYLE
 105
3E
 100
AcDbSymbolTableRecord
 100
AcDbDimStyleTableRecord
   2
GMM003
  70
0
   3

   4

   5

   6
_OPEN30
   7
_OPEN30
  40
 1.0000000000000
  41
 3.0000000000000
  42
0.0
  43
 8.0000000000000
  44
 2.0000000000000
  45
0.0
  46
0.0
  47
0.0
  48
0.0
 140
 4.0000000000000
 141
 1.0000000000000
 142
0.0
 143
 0.39400000000000E-1
 144
 1.0000000000000
 145
0.0
 146
 0.62500000000000
 147
 1.7142857142857
  71
0
  72
0
  73
0
  74
0
  75
0
  76
0
  77
3
  78
8
 170
0
 171
2
 172
1
 173
1
 174
0
 175
0
 176
2
 177
2
 178
2
 270
2
 271
6
 272
0
 273
2
 274
2
 340
3A
 275
1
 280
0
 281
0
 282
0
 283
1
 284
0
 285
0
 286
0
 287
3
 288
0
   0
DIMSTYLE
 105
3F
 100
AcDbSymbolTableRecord
 100
AcDbDimStyleTableRecord
   2
GMM004
  70
0
   3

   4

   5

   6
_OPEN30
   7
_OPEN30
  40
 1.0000000000000
  41
 2.0000000000000
  42
0.0
  43
 8.0000000000000
  44
 2.0000000000000
  45
0.0
  46
0.0
  47
0.0
  48
0.0
 140
 3.8000000000000
 141
 1.0000000000000
 142
0.0
 143
 0.39400000000000E-1
 144
 1.0000000000000
 145
0.0
 146
 0.65789473684211
 147
 1.6285714285714
  71
0
  72
0
  73
0
  74
0
  75
0
  76
0
  77
3
  78
8
 170
0
 171
2
 172
1
 173
1
 174
0
 175
0
 176
2
 177
2
 178
2
 270
2
 271
6
 272
0
 273
2
 274
2
 340
3B
 275
0
 280
0
 281
0
 282
0
 283
1
 284
0
 285
0
 286
0
 287
3
 288
0
   0
DIMSTYLE
 105
40
 100
AcDbSymbolTableRecord
 100
AcDbDimStyleTableRecord
   2
GMM005
  70
0
   3

   4

   5

   6
_OPEN30
   7
_OPEN30
  40
 1.0000000000000
  41
 3.0000000000000
  42
0.0
  43
 8.0000000000000
  44
 2.0000000000000
  45
0.0
  46
0.0
  47
0.0
  48
0.0
 140
 4.0000000000000
 141
 1.0000000000000
 142
0.0
 143
 0.39400000000000E-1
 144
 1.0000000000000
 145
0.0
 146
 0.62500000000000
 147
 1.8047320401708
  71
0
  72
0
  73
0
  74
0
  75
0
  76
0
  77
3
  78
8
 170
0
 171
2
 172
1
 173
1
 174
0
 175
0
 176
2
 177
2
 178
2
 270
2
 271
6
 272
0
 273
2
 274
2
 340
3A
 275
1
 280
0
 281
0
 282
0
 283
1
 284
0
 285
0
 286
0
 287
3
 288
1
   0
DIMSTYLE
 105
41
 100
AcDbSymbolTableRecord
 100
AcDbDimStyleTableRecord
   2
GMM006
  70
0
   3
%%c<>
   4

   5

   6
_OPEN30
   7
_OPEN30
  40
 1.0000000000000
  41
 3.0000000000000
  42
0.0
  43
 8.0000000000000
  44
 2.0000000000000
  45
0.0
  46
0.0
  47
0.0
  48
0.0
 140
 4.0000000000000
 141
 1.0000000000000
 142
0.0
 143
 0.39400000000000E-1
 144
 1.0000000000000
 145
0.0
 146
 0.62500000000000
 147
 1.7488095472020
  71
0
  72
0
  73
0
  74
0
  75
0
  76
0
  77
3
  78
8
 170
0
 171
2
 172
1
 173
1
 174
0
 175
0
 176
2
 177
2
 178
2
 270
2
 271
6
 272
0
 273
2
 274
2
 340
3A
 275
1
 280
0
 281
0
 282
0
 283
1
 284
0
 285
0
 286
0
 287
3
 288
1
   0
DIMSTYLE
 105
42
 100
AcDbSymbolTableRecord
 100
AcDbDimStyleTableRecord
   2
GMM007
  70
0
   3
%%c<>
   4

   5

   6
_OPEN30
   7
_OPEN30
  40
 1.0000000000000
  41
 3.0000000000000
  42
0.0
  43
 8.0000000000000
  44
 2.0000000000000
  45
0.0
  46
0.0
  47
0.0
  48
0.0
 140
 4.0000000000000
 141
 1.0000000000000
 142
0.0
 143
 0.39400000000000E-1
 144
 1.0000000000000
 145
0.0
 146
 0.62500000000000
 147
 1.5542158002773
  71
0
  72
0
  73
0
  74
0
  75
0
  76
0
  77
3
  78
8
 170
0
 171
2
 172
1
 173
1
 174
0
 175
0
 176
2
 177
2
 178
2
 270
2
 271
6
 272
0
 273
2
 274
2
 340
3A
 275
1
 280
0
 281
0
 282
0
 283
1
 284
0
 285
0
 286
0
 287
3
 288
1
   0
DIMSTYLE
 105
43
 100
AcDbSymbolTableRecord
 100
AcDbDimStyleTableRecord
   2
GMM008
  70
0
   3

   4

   5

   6
_OPEN30
   7
_OPEN30
  40
 1.0000000000000
  41
 2.0000000000000
  42
0.0
  43
 8.0000000000000
  44
 2.0000000000000
  45
0.0
  46
0.0
  47
0.0
  48
0.0
 140
 3.8000000000000
 141
 1.0000000000000
 142
0.0
 143
 0.39400000000000E-1
 144
 1.0000000000000
 145
0.0
 146
 0.65789473684211
 147
 1.6285714285714
  71
0
  72
0
  73
0
  74
0
  75
0
  76
0
  77
3
  78
8
 170
0
 171
2
 172
1
 173
1
 174
0
 175
0
 176
2
 177
2
 178
2
 270
2
 271
6
 272
0
 273
2
 274
2
 340
3B
 275
0
 280
0
 281
0
 282
0
 283
1
 284
0
 285
0
 286
0
 287
3
 288
0
   0
DIMSTYLE
 105
44
 100
AcDbSymbolTableRecord
 100
AcDbDimStyleTableRecord
   2
GMM009
  70
0
   3

   4

   5

   6
_OPEN30
   7
_OPEN30
  40
 1.0000000000000
  41
 3.0000000000000
  42
0.0
  43
 8.0000000000000
  44
 2.0000000000000
  45
0.0
  46
0.0
  47
0.0
  48
0.0
 140
 4.0000000000000
 141
 1.0000000000000
 142
0.0
 143
 0.39400000000000E-1
 144
 1.0000000000000
 145
0.0
 146
 0.62500000000000
 147
 1.7142857142857
  71
0
  72
0
  73
0
  74
0
  75
0
  76
0
  77
3
  78
8
 170
0
 171
2
 172
1
 173
1
 174
0
 175
0
 176
2
 177
2
 178
2
 270
2
 271
6
 272
0
 273
2
 274
2
 340
3A
 275
1
 280
0
 281
0
 282
0
 283
1
 284
0
 285
0
 286
0
 287
3
 288
0
   0
DIMSTYLE
 105
45
 100
AcDbSymbolTableRecord
 100
AcDbDimStyleTableRecord
   2
GMM010
  70
0
   3
(<>
   4

   5

   6
_OPEN30
   7
_OPEN30
  40
 1.0000000000000
  41
 2.0000000000000
  42
0.0
  43
 8.0000000000000
  44
 2.0000000000000
  45
0.0
  46
0.0
  47
0.0
  48
0.0
 140
 3.8000000000000
 141
 1.0000000000000
 142
0.0
 143
 0.39400000000000E-1
 144
 1.0000000000000
 145
0.0
 146
 0.65789473684211
 147
 1.6285714285714
  71
0
  72
0
  73
0
  74
0
  75
0
  76
0
  77
3
  78
8
 170
0
 171
2
 172
1
 173
1
 174
0
 175
0
 176
2
 177
2
 178
2
 270
2
 271
6
 272
0
 273
2
 274
2
 340
3B
 275
0
 280
0
 281
0
 282
0
 283
1
 284
0
 285
0
 286
0
 287
3
 288
0
   0
ENDTAB
  0
TABLE
  2
BLOCK_RECORD
  5
1
100
AcDbSymbolTable
 70
     0
  0
BLOCK_RECORD
  5
18
100
AcDbSymbolTableRecord
100
AcDbBlockTableRecord
  2
*MODEL_SPACE
  0
BLOCK_RECORD
  5
15
100
AcDbSymbolTableRecord
100
AcDbBlockTableRecord
  2
*PAPER_SPACE
   0
BLOCK_RECORD
   5
46
 100
AcDbSymbolTableRecord
 100
AcDbBlockTableRecord
   2
*D1
   0
BLOCK_RECORD
   5
47
 100
AcDbSymbolTableRecord
 100
AcDbBlockTableRecord
   2
*D2
   0
BLOCK_RECORD
   5
48
 100
AcDbSymbolTableRecord
 100
AcDbBlockTableRecord
   2
*D3
   0
BLOCK_RECORD
   5
49
 100
AcDbSymbolTableRecord
 100
AcDbBlockTableRecord
   2
*D4
   0
BLOCK_RECORD
   5
4A
 100
AcDbSymbolTableRecord
 100
AcDbBlockTableRecord
   2
*D5
   0
BLOCK_RECORD
   5
4B
 100
AcDbSymbolTableRecord
 100
AcDbBlockTableRecord
   2
*D6
   0
BLOCK_RECORD
   5
4C
 100
AcDbSymbolTableRecord
 100
AcDbBlockTableRecord
   2
*D7
   0
BLOCK_RECORD
   5
4D
 100
AcDbSymbolTableRecord
 100
AcDbBlockTableRecord
   2
*D8
   0
BLOCK_RECORD
   5
4E
 100
AcDbSymbolTableRecord
 100
AcDbBlockTableRecord
   2
*D9
   0
BLOCK_RECORD
   5
4F
 100
AcDbSymbolTableRecord
 100
AcDbBlockTableRecord
   2
*D10
   0
BLOCK_RECORD
   5
50
 100
AcDbSymbolTableRecord
 100
AcDbBlockTableRecord
   2
*D11
   0
BLOCK_RECORD
   5
51
 100
AcDbSymbolTableRecord
 100
AcDbBlockTableRecord
   2
*D12
   0
BLOCK_RECORD
   5
52
 100
AcDbSymbolTableRecord
 100
AcDbBlockTableRecord
   2
*D13
   0
BLOCK_RECORD
   5
53
 100
AcDbSymbolTableRecord
 100
AcDbBlockTableRecord
   2
*D14
   0
BLOCK_RECORD
   5
54
 100
AcDbSymbolTableRecord
 100
AcDbBlockTableRecord
   2
HATCH001
   0
BLOCK_RECORD
   5
55
 100
AcDbSymbolTableRecord
 100
AcDbBlockTableRecord
   2
*D15
   0
BLOCK_RECORD
   5
56
 100
AcDbSymbolTableRecord
 100
AcDbBlockTableRecord
   2
HATCH002
   0
BLOCK_RECORD
   5
57
 100
AcDbSymbolTableRecord
 100
AcDbBlockTableRecord
   2
*D16
   0
BLOCK_RECORD
   5
58
 100
AcDbSymbolTableRecord
 100
AcDbBlockTableRecord
   2
*D17
   0
BLOCK_RECORD
   5
59
 100
AcDbSymbolTableRecord
 100
AcDbBlockTableRecord
   2
*D18
   0
BLOCK_RECORD
   5
5A
 100
AcDbSymbolTableRecord
 100
AcDbBlockTableRecord
   2
*D19
   0
BLOCK_RECORD
   5
5B
 100
AcDbSymbolTableRecord
 100
AcDbBlockTableRecord
   2
*D20
   0
BLOCK_RECORD
   5
5C
 100
AcDbSymbolTableRecord
 100
AcDbBlockTableRecord
   2
_ARCHTICK
   0
BLOCK_RECORD
   5
5D
 100
AcDbSymbolTableRecord
 100
AcDbBlockTableRecord
   2
_BOXBLANK
   0
BLOCK_RECORD
   5
5E
 100
AcDbSymbolTableRecord
 100
AcDbBlockTableRecord
   2
_BOXFILLED
   0
BLOCK_RECORD
   5
5F
 100
AcDbSymbolTableRecord
 100
AcDbBlockTableRecord
   2
_CLOSED
   0
BLOCK_RECORD
   5
60
 100
AcDbSymbolTableRecord
 100
AcDbBlockTableRecord
   2
_CLOSEDBLANK
   0
BLOCK_RECORD
   5
61
 100
AcDbSymbolTableRecord
 100
AcDbBlockTableRecord
   2
_DATUMBLANK
   0
BLOCK_RECORD
   5
62
 100
AcDbSymbolTableRecord
 100
AcDbBlockTableRecord
   2
_DATUMFILLED
   0
BLOCK_RECORD
   5
63
 100
AcDbSymbolTableRecord
 100
AcDbBlockTableRecord
   2
_DOT
   0
BLOCK_RECORD
   5
64
 100
AcDbSymbolTableRecord
 100
AcDbBlockTableRecord
   2
_DOTBLANK
   0
BLOCK_RECORD
   5
65
 100
AcDbSymbolTableRecord
 100
AcDbBlockTableRecord
   2
_DOTSMALL
   0
BLOCK_RECORD
   5
66
 100
AcDbSymbolTableRecord
 100
AcDbBlockTableRecord
   2
_INTEGRAL
   0
BLOCK_RECORD
   5
67
 100
AcDbSymbolTableRecord
 100
AcDbBlockTableRecord
   2
_NONE
   0
BLOCK_RECORD
   5
68
 100
AcDbSymbolTableRecord
 100
AcDbBlockTableRecord
   2
_OBLIQUE
   0
BLOCK_RECORD
   5
69
 100
AcDbSymbolTableRecord
 100
AcDbBlockTableRecord
   2
_OPEN
   0
BLOCK_RECORD
   5
6A
 100
AcDbSymbolTableRecord
 100
AcDbBlockTableRecord
   2
_OPEN30
   0
BLOCK_RECORD
   5
6B
 100
AcDbSymbolTableRecord
 100
AcDbBlockTableRecord
   2
_OPEN90
   0
BLOCK_RECORD
   5
6C
 100
AcDbSymbolTableRecord
 100
AcDbBlockTableRecord
   2
_ORIGIN
   0
ENDTAB
   0
ENDSEC
  0
SECTION
  2
BLOCKS
  0
BLOCK
  5
19
100
AcDbEntity
  8
0
100
AcDbBlockBegin
  2
*MODEL_SPACE
 70
     0
 10
0.0
 20
0.0
 30
0.0
  3
*MODEL_SPACE
  1

  0
ENDBLK
  5
1A
100
AcDbEntity
  8
0
100
AcDbBlockEnd
  0
BLOCK
  5
16
100
AcDbEntity
 67
     1
  8
0
100
AcDbBlockBegin
  2
*PAPER_SPACE
 70
     0
 10
0.0
 20
0.0
 30
0.0
  3
*PAPER_SPACE
  1

  0
ENDBLK
  5
17
100
AcDbEntity
 67
     1
  8
0
100
AcDbBlockEnd
   0
BLOCK
   5
6D
 100
AcDbEntity
   8
0
 100
AcDbBlockBegin
   2
_ARCHTICK
  70
0
  10
0.0
  20
0.0
  30
0.0
   3
_ARCHTICK
   0
POLYLINE
   5
6E
 100
AcDbEntity
   8
0
   6
BYBLOCK
  62
0
 100
AcDb2dPolyline
  66
1
  10
0.0
  20
0.0
  30
0.0
  70
1
  40
 0.15000000000000
  41
 0.15000000000000
   0
VERTEX
   5
6F
 100
AcDbEntity
   8
0
   6
BYBLOCK
  62
0
 100
AcDbVertex
 100
AcDb2dVertex
  10
-0.50000000000000
  20
-0.50000000000000
  30
0.0
  40
 0.15000000000000
  41
 0.15000000000000
   0
VERTEX
   5
70
 100
AcDbEntity
   8
0
   6
BYBLOCK
  62
0
 100
AcDbVertex
 100
AcDb2dVertex
  10
 0.50000000000000
  20
 0.50000000000000
  30
0.0
  40
 0.15000000000000
  41
 0.15000000000000
   0
SEQEND
   5
71
 100
AcDbEntity
   8
0
   6
BYBLOCK
  62
0
   0
ENDBLK
   5
72
 100
AcDbEntity
   8
0
 100
AcDbBlockEnd
   0
BLOCK
   5
73
 100
AcDbEntity
   8
0
 100
AcDbBlockBegin
   2
_OBLIQUE
  70
0
  10
0.0
  20
0.0
  30
0.0
   3
_OBLIQUE
   0
LINE
   5
74
 100
AcDbEntity
   8
0
 100
AcDbLine
   6
BYBLOCK
  62
0
  10
-0.50000000000000
  20
-0.50000000000000
  30
0.0
  11
 0.50000000000000
  21
 0.50000000000000
  31
0.0
   0
ENDBLK
   5
75
 100
AcDbEntity
   8
0
 100
AcDbBlockEnd
   0
BLOCK
   5
76
 100
AcDbEntity
   8
0
 100
AcDbBlockBegin
   2
_BOXBLANK
  70
0
  10
0.0
  20
0.0
  30
0.0
   3
_BOXBLANK
   0
LINE
   5
77
 100
AcDbEntity
   8
0
 100
AcDbLine
   6
BYBLOCK
  62
0
  10
-0.50000000000000
  20
-0.50000000000000
  30
0.0
  11
 0.50000000000000
  21
-0.50000000000000
  31
0.0
   0
LINE
   5
78
 100
AcDbEntity
   8
0
 100
AcDbLine
   6
BYBLOCK
  62
0
  10
 0.50000000000000
  20
-0.50000000000000
  30
0.0
  11
 0.50000000000000
  21
 0.50000000000000
  31
0.0
   0
LINE
   5
79
 100
AcDbEntity
   8
0
 100
AcDbLine
   6
BYBLOCK
  62
0
  10
 0.50000000000000
  20
 0.50000000000000
  30
0.0
  11
-0.50000000000000
  21
 0.50000000000000
  31
0.0
   0
LINE
   5
7A
 100
AcDbEntity
   8
0
 100
AcDbLine
   6
BYBLOCK
  62
0
  10
-0.50000000000000
  20
 0.50000000000000
  30
0.0
  11
-0.50000000000000
  21
-0.50000000000000
  31
0.0
   0
LINE
   5
7B
 100
AcDbEntity
   8
0
 100
AcDbLine
   6
BYBLOCK
  62
0
  10
-0.50000000000000
  20
0.0
  30
0.0
  11
-1.0000000000000
  21
0.0
  31
0.0
   0
ENDBLK
   5
7C
 100
AcDbEntity
   8
0
 100
AcDbBlockEnd
   0
BLOCK
   5
7D
 100
AcDbEntity
   8
0
 100
AcDbBlockBegin
   2
_BOXFILLED
  70
0
  10
0.0
  20
0.0
  30
0.0
   3
_BOXFILLED
   0
SOLID
   5
7E
 100
AcDbEntity
   8
0
 100
AcDbTrace
   6
BYBLOCK
  62
0
  10
-0.50000000000000
  20
 0.50000000000000
  30
0.0
  11
 0.50000000000000
  21
 0.50000000000000
  31
0.0
  12
-0.50000000000000
  22
-0.50000000000000
  32
0.0
  13
 0.50000000000000
  23
-0.50000000000000
  33
0.0
   0
LINE
   5
7F
 100
AcDbEntity
   8
0
 100
AcDbLine
   6
BYBLOCK
  62
0
  10
-0.50000000000000
  20
0.0
  30
0.0
  11
-1.0000000000000
  21
0.0
  31
0.0
   0
ENDBLK
   5
80
 100
AcDbEntity
   8
0
 100
AcDbBlockEnd
   0
BLOCK
   5
81
 100
AcDbEntity
   8
0
 100
AcDbBlockBegin
   2
_CLOSED
  70
0
  10
0.0
  20
0.0
  30
0.0
   3
_CLOSED
   0
LINE
   5
82
 100
AcDbEntity
   8
0
 100
AcDbLine
   6
BYBLOCK
  62
0
  10
-1.0000000000000
  20
 0.16666666666667
  30
0.0
  11
0.0
  21
0.0
  31
0.0
   0
LINE
   5
83
 100
AcDbEntity
   8
0
 100
AcDbLine
   6
BYBLOCK
  62
0
  10
0.0
  20
0.0
  30
0.0
  11
-1.0000000000000
  21
-0.16666666666667
  31
0.0
   0
LINE
   5
84
 100
AcDbEntity
   8
0
 100
AcDbLine
   6
BYBLOCK
  62
0
  10
-1.0000000000000
  20
 0.16666666666667
  30
0.0
  11
-1.0000000000000
  21
-0.16666666666667
  31
0.0
   0
LINE
   5
85
 100
AcDbEntity
   8
0
 100
AcDbLine
   6
BYBLOCK
  62
0
  10
0.0
  20
0.0
  30
0.0
  11
-1.0000000000000
  21
0.0
  31
0.0
   0
ENDBLK
   5
86
 100
AcDbEntity
   8
0
 100
AcDbBlockEnd
   0
BLOCK
   5
87
 100
AcDbEntity
   8
0
 100
AcDbBlockBegin
   2
_OPEN
  70
0
  10
0.0
  20
0.0
  30
0.0
   3
_OPEN
   0
LINE
   5
88
 100
AcDbEntity
   8
0
 100
AcDbLine
   6
BYBLOCK
  62
0
  10
-1.0000000000000
  20
 0.16666666666667
  30
0.0
  11
0.0
  21
0.0
  31
0.0
   0
LINE
   5
89
 100
AcDbEntity
   8
0
 100
AcDbLine
   6
BYBLOCK
  62
0
  10
0.0
  20
0.0
  30
0.0
  11
-1.0000000000000
  21
-0.16666666666667
  31
0.0
   0
LINE
   5
8A
 100
AcDbEntity
   8
0
 100
AcDbLine
   6
BYBLOCK
  62
0
  10
0.0
  20
0.0
  30
0.0
  11
-1.0000000000000
  21
0.0
  31
0.0
   0
ENDBLK
   5
8B
 100
AcDbEntity
   8
0
 100
AcDbBlockEnd
   0
BLOCK
   5
8C
 100
AcDbEntity
   8
0
 100
AcDbBlockBegin
   2
_OPEN30
  70
0
  10
0.0
  20
0.0
  30
0.0
   3
_OPEN30
   0
LINE
   5
8D
 100
AcDbEntity
   8
0
 100
AcDbLine
   6
BYBLOCK
  62
0
  10
-1.0000000000000
  20
 0.26794919243110
  30
0.0
  11
0.0
  21
0.0
  31
0.0
   0
LINE
   5
8E
 100
AcDbEntity
   8
0
 100
AcDbLine
   6
BYBLOCK
  62
0
  10
0.0
  20
0.0
  30
0.0
  11
-1.0000000000000
  21
-0.26794919243110
  31
0.0
   0
LINE
   5
8F
 100
AcDbEntity
   8
0
 100
AcDbLine
   6
BYBLOCK
  62
0
  10
0.0
  20
0.0
  30
0.0
  11
-1.0000000000000
  21
0.0
  31
0.0
   0
ENDBLK
   5
90
 100
AcDbEntity
   8
0
 100
AcDbBlockEnd
   0
BLOCK
   5
91
 100
AcDbEntity
   8
0
 100
AcDbBlockBegin
   2
_OPEN90
  70
0
  10
0.0
  20
0.0
  30
0.0
   3
_OPEN90
   0
LINE
   5
92
 100
AcDbEntity
   8
0
 100
AcDbLine
   6
BYBLOCK
  62
0
  10
-0.50000000000000
  20
 0.50000000000000
  30
0.0
  11
0.0
  21
0.0
  31
0.0
   0
LINE
   5
93
 100
AcDbEntity
   8
0
 100
AcDbLine
   6
BYBLOCK
  62
0
  10
0.0
  20
0.0
  30
0.0
  11
-0.50000000000000
  21
-0.50000000000000
  31
0.0
   0
LINE
   5
94
 100
AcDbEntity
   8
0
 100
AcDbLine
   6
BYBLOCK
  62
0
  10
0.0
  20
0.0
  30
0.0
  11
-1.0000000000000
  21
0.0
  31
0.0
   0
ENDBLK
   5
95
 100
AcDbEntity
   8
0
 100
AcDbBlockEnd
   0
BLOCK
   5
96
 100
AcDbEntity
   8
0
 100
AcDbBlockBegin
   2
_CLOSEDBLANK
  70
0
  10
0.0
  20
0.0
  30
0.0
   3
_CLOSEDBLANK
   0
LINE
   5
97
 100
AcDbEntity
   8
0
 100
AcDbLine
   6
BYBLOCK
  62
0
  10
-1.0000000000000
  20
 0.16666666666667
  30
0.0
  11
0.0
  21
0.0
  31
0.0
   0
LINE
   5
98
 100
AcDbEntity
   8
0
 100
AcDbLine
   6
BYBLOCK
  62
0
  10
0.0
  20
0.0
  30
0.0
  11
-1.0000000000000
  21
-0.16666666666667
  31
0.0
   0
LINE
   5
99
 100
AcDbEntity
   8
0
 100
AcDbLine
   6
BYBLOCK
  62
0
  10
-1.0000000000000
  20
 0.16666666666667
  30
0.0
  11
-1.0000000000000
  21
-0.16666666666667
  31
0.0
   0
ENDBLK
   5
9A
 100
AcDbEntity
   8
0
 100
AcDbBlockEnd
   0
BLOCK
   5
9B
 100
AcDbEntity
   8
0
 100
AcDbBlockBegin
   2
_DOT
  70
0
  10
0.0
  20
0.0
  30
0.0
   3
_DOT
   0
POLYLINE
   5
9C
 100
AcDbEntity
   8
0
   6
BYBLOCK
  62
0
 100
AcDb2dPolyline
  66
1
  10
0.0
  20
0.0
  30
0.0
  70
1
  40
 0.50000000000000
  41
 0.50000000000000
   0
VERTEX
   5
9D
 100
AcDbEntity
   8
0
   6
BYBLOCK
  62
0
 100
AcDbVertex
 100
AcDb2dVertex
  10
-0.25000000000000
  20
0.0
  30
0.0
  42
 1.0000000000000
  40
 0.50000000000000
  41
 0.50000000000000
   0
VERTEX
   5
9E
 100
AcDbEntity
   8
0
   6
BYBLOCK
  62
0
 100
AcDbVertex
 100
AcDb2dVertex
  10
 0.25000000000000
  20
0.0
  30
0.0
  42
 1.0000000000000
  40
 0.50000000000000
  41
 0.50000000000000
   0
SEQEND
   5
9F
 100
AcDbEntity
   8
0
   6
BYBLOCK
  62
0
   0
LINE
   5
A0
 100
AcDbEntity
   8
0
 100
AcDbLine
   6
BYBLOCK
  62
0
  10
-0.50000000000000
  20
0.0
  30
0.0
  11
-1.0000000000000
  21
0.0
  31
0.0
   0
ENDBLK
   5
A1
 100
AcDbEntity
   8
0
 100
AcDbBlockEnd
   0
BLOCK
   5
A2
 100
AcDbEntity
   8
0
 100
AcDbBlockBegin
   2
_DOTSMALL
  70
0
  10
0.0
  20
0.0
  30
0.0
   3
_DOTSMALL
   0
POLYLINE
   5
A3
 100
AcDbEntity
   8
0
   6
BYBLOCK
  62
0
 100
AcDb2dPolyline
  66
1
  10
0.0
  20
0.0
  30
0.0
  70
1
  40
 0.50000000000000
  41
 0.50000000000000
   0
VERTEX
   5
A4
 100
AcDbEntity
   8
0
   6
BYBLOCK
  62
0
 100
AcDbVertex
 100
AcDb2dVertex
  10
-0.62500000000000E-1
  20
0.0
  30
0.0
  42
 1.0000000000000
  40
 0.50000000000000
  41
 0.50000000000000
   0
VERTEX
   5
A5
 100
AcDbEntity
   8
0
   6
BYBLOCK
  62
0
 100
AcDbVertex
 100
AcDb2dVertex
  10
 0.62500000000000E-1
  20
0.0
  30
0.0
  42
 1.0000000000000
  40
 0.50000000000000
  41
 0.50000000000000
   0
SEQEND
   5
A6
 100
AcDbEntity
   8
0
   6
BYBLOCK
  62
0
   0
ENDBLK
   5
A7
 100
AcDbEntity
   8
0
 100
AcDbBlockEnd
   0
BLOCK
   5
A8
 100
AcDbEntity
   8
0
 100
AcDbBlockBegin
   2
_DATUMBLANK
  70
0
  10
0.0
  20
0.0
  30
0.0
   3
_DATUMBLANK
   0
LINE
   5
A9
 100
AcDbEntity
   8
0
 100
AcDbLine
   6
BYBLOCK
  62
0
  10
0.0
  20
 0.57735027000000
  30
0.0
  11
-1.0000000000000
  21
0.0
  31
0.0
   0
LINE
   5
AA
 100
AcDbEntity
   8
0
 100
AcDbLine
   6
BYBLOCK
  62
0
  10
-1.0000000000000
  20
0.0
  30
0.0
  11
0.0
  21
-0.57735027000000
  31
0.0
   0
LINE
   5
AB
 100
AcDbEntity
   8
0
 100
AcDbLine
   6
BYBLOCK
  62
0
  10
0.0
  20
-0.57735027000000
  30
0.0
  11
0.0
  21
 0.57735027000000
  31
0.0
   0
ENDBLK
   5
AC
 100
AcDbEntity
   8
0
 100
AcDbBlockEnd
   0
BLOCK
   5
AD
 100
AcDbEntity
   8
0
 100
AcDbBlockBegin
   2
_DATUMFILLED
  70
0
  10
0.0
  20
0.0
  30
0.0
   3
_DATUMFILLED
   0
SOLID
   5
AE
 100
AcDbEntity
   8
0
 100
AcDbTrace
   6
BYBLOCK
  62
0
  10
0.0
  20
 0.57735027000000
  30
0.0
  11
-1.0000000000000
  21
0.0
  31
0.0
  12
0.0
  22
-0.57735027000000
  32
0.0
  13
0.0
  23
-0.57735027000000
  33
0.0
   0
ENDBLK
   5
AF
 100
AcDbEntity
   8
0
 100
AcDbBlockEnd
   0
BLOCK
   5
B0
 100
AcDbEntity
   8
0
 100
AcDbBlockBegin
   2
_ORIGIN
  70
0
  10
0.0
  20
0.0
  30
0.0
   3
_ORIGIN
   0
CIRCLE
   5
B1
 100
AcDbEntity
   8
0
 100
AcDbCircle
   6
BYBLOCK
  62
0
  10
0.0
  20
0.0
  30
0.0
  40
 0.50000000000000
   0
LINE
   5
B2
 100
AcDbEntity
   8
0
 100
AcDbLine
   6
BYBLOCK
  62
0
  10
0.0
  20
0.0
  30
0.0
  11
-1.0000000000000
  21
0.0
  31
0.0
   0
ENDBLK
   5
B3
 100
AcDbEntity
   8
0
 100
AcDbBlockEnd
   0
BLOCK
   5
B4
 100
AcDbEntity
   8
0
 100
AcDbBlockBegin
   2
_NONE
  70
0
  10
0.0
  20
0.0
  30
0.0
   3
_NONE
   0
CIRCLE
   5
B5
 100
AcDbEntity
   8
0
 100
AcDbCircle
   6
BYBLOCK
  62
0
  10
0.0
  20
0.0
  30
0.0
  40
 0.25000000000000
   0
ENDBLK
   5
B6
 100
AcDbEntity
   8
0
 100
AcDbBlockEnd
   0
BLOCK
   5
B7
 100
AcDbEntity
   8
0
 100
AcDbBlockBegin
   2
_DOTBLANK
  70
0
  10
0.0
  20
0.0
  30
0.0
   3
_DOTBLANK
   0
CIRCLE
   5
B8
 100
AcDbEntity
   8
0
 100
AcDbCircle
   6
BYBLOCK
  62
0
  10
0.0
  20
0.0
  30
0.0
  40
 0.50000000000000
   0
LINE
   5
B9
 100
AcDbEntity
   8
0
 100
AcDbLine
   6
BYBLOCK
  62
0
  10
-0.50000000000000
  20
0.0
  30
0.0
  11
-1.0000000000000
  21
0.0
  31
0.0
   0
ENDBLK
   5
BA
 100
AcDbEntity
   8
0
 100
AcDbBlockEnd
   0
BLOCK
   5
BB
 100
AcDbEntity
   8
0
 100
AcDbBlockBegin
   2
_INTEGRAL
  70
0
  10
0.0
  20
0.0
  30
0.0
   3
_INTEGRAL
   0
ARC
   5
BC
 100
AcDbEntity
   8
0
   6
BYBLOCK
  62
0
 100
AcDbCircle
  10
 0.44488800000000
  20
-0.91335000000000E-1
  30
0.0
  40
 0.45416700000000
 100
AcDbArc
  50
 102.00000000000
  51
 168.00000000000
   0
ARC
   5
BD
 100
AcDbEntity
   8
0
   6
BYBLOCK
  62
0
 100
AcDbCircle
  10
-0.44488800000000
  20
 0.91335000000000E-1
  30
0.0
  40
 0.45416700000000
 100
AcDbArc
  50
 282.00000000000
  51
 348.00000000000
   0
ENDBLK
   5
BE
 100
AcDbEntity
   8
0
 100
AcDbBlockEnd
   0
BLOCK
   5
BF
 100
AcDbEntity
   8
0
 100
AcDbBlockBegin
   2
*D1
  70
65
  10
0.0
  20
0.0
  30
0.0
   3
*D1
   0
LINE
   5
C0
 100
AcDbEntity
   8
LEVEL001
 100
AcDbLine
   6
CONTINUOUS
  62
2
  10
 101.41021652857
  20
 79.683456730595
  30
0.0
  11
 105.86957122321
  21
 74.287703242216
  31
0.0
   0
LINE
   5
C1
 100
AcDbEntity
   8
LEVEL001
 100
AcDbLine
   6
CONTINUOUS
  62
2
  10
 105.86957122321
  20
 74.287703242216
  30
0.0
  11
 124.88120231952
  21
 51.283909681915
  31
0.0
   0
INSERT
   5
C2
 100
AcDbEntity
   8
LEVEL001
   6
CONTINUOUS
  62
2
 100
AcDbBlockReference
   2
_OPEN30
  10
 110.32892591785
  20
 68.891949753838
  30
0.0
  41
 3.0000000000000
  42
 3.0000000000000
  43
 3.0000000000000
  50
 129.57224535194
   0
MTEXT
   5
C3
 100
AcDbEntity
   8
LEVEL001
  62
2
 100
AcDbMText
  10
 118.55800328913
  20
 61.625859668846
  30
0.0
  40
 4.0000000000000
  41
0.0
  71
7
  72
1
   1
\A1;R14
   7
GMM001
  11
 0.63705067066330
  21
-0.77082192691142
  31
0.0
   0
ENDBLK
   5
C4
 100
AcDbEntity
   8
0
 100
AcDbBlockEnd
   0
BLOCK
   5
C5
 100
AcDbEntity
   8
0
 100
AcDbBlockBegin
   2
*D2
  70
65
  10
0.0
  20
0.0
  30
0.0
   3
*D2
   0
LINE
   5
C6
 100
AcDbEntity
   8
LEVEL001
 100
AcDbLine
   6
CONTINUOUS
  62
2
  10
 101.41021652857
  20
 79.683456730595
  30
0.0
  11
 92.944442390824
  21
 72.274464339676
  31
0.0
   0
LINE
   5
C7
 100
AcDbEntity
   8
LEVEL001
 100
AcDbLine
   6
CONTINUOUS
  62
2
  10
 92.944442390824
  20
 72.274464339676
  30
0.0
  11
 67.992744920972
  21
 50.437484792772
  31
0.0
   0
INSERT
   5
C8
 100
AcDbEntity
   8
LEVEL001
   6
CONTINUOUS
  62
2
 100
AcDbBlockReference
   2
_OPEN30
  10
 84.478668253079
  20
 64.865471948757
  30
0.0
  41
 3.0000000000000
  42
 3.0000000000000
  43
 3.0000000000000
  50
 41.191444535829
   0
MTEXT
   5
C9
 100
AcDbEntity
   8
LEVEL001
  62
2
 100
AcDbMText
  10
 80.408994224652
  20
 63.581895343994
  30
0.0
  40
 4.0000000000000
  41
0.0
  71
9
  72
1
   1
\A1;R22.5
   7
GMM001
  11
 0.75251325668842
  21
 0.65857710141501
  31
0.0
   0
ENDBLK
   5
CA
 100
AcDbEntity
   8
0
 100
AcDbBlockEnd
   0
BLOCK
   5
CB
 100
AcDbEntity
   8
0
 100
AcDbBlockBegin
   2
*D3
  70
65
  10
0.0
  20
0.0
  30
0.0
   3
*D3
   0
LINE
   5
CC
 100
AcDbEntity
   8
LEVEL001
 100
AcDbLine
   6
CONTINUOUS
  62
2
  10
 69.410216528569
  20
 122.68345673058
  30
0.0
  11
 66.245393093137
  21
 125.12965635910
  31
0.0
   0
LINE
   5
CD
 100
AcDbEntity
   8
LEVEL001
 100
AcDbLine
   6
CONTINUOUS
  62
2
  10
 66.245393093137
  20
 125.12965635910
  30
0.0
  11
 44.879950310666
  21
 141.64373345180
  31
0.0
   0
INSERT
   5
CE
 100
AcDbEntity
   8
LEVEL001
   6
CONTINUOUS
  62
2
 100
AcDbBlockReference
   2
_OPEN30
  10
 63.080569657705
  20
 127.57585598761
  30
0.0
  41
 3.0000000000000
  42
 3.0000000000000
  43
 3.0000000000000
  50
 322.29834409129
   0
MTEXT
   5
CF
 100
AcDbEntity
   8
LEVEL001
  62
2
 100
AcDbMText
  10
 57.005203604040
  20
 134.43838765290
  30
0.0
  40
 4.0000000000000
  41
0.0
  71
9
  72
1
   1
\A1;4-R8
   7
GMM001
  11
 0.79120585885793
  21
-0.61154990712851
  31
0.0
   0
ENDBLK
   5
D0
 100
AcDbEntity
   8
0
 100
AcDbBlockEnd
   0
BLOCK
   5
D1
 100
AcDbEntity
   8
0
 100
AcDbBlockBegin
   2
*D4
  70
65
  10
0.0
  20
0.0
  30
0.0
   3
*D4
   0
LINE
   5
D2
 100
AcDbEntity
   8
LEVEL001
 100
AcDbLine
   6
CONTINUOUS
  62
2
  10
 61.410216528569
  20
 36.683456730606
  30
0.0
  11
 61.410216528569
  21
 12.169608417864
  31
0.0
   0
LINE
   5
D3
 100
AcDbEntity
   8
LEVEL001
 100
AcDbLine
   6
CONTINUOUS
  62
2
  10
 141.41021652857
  20
 36.683456730606
  30
0.0
  11
 141.41021652857
  21
 12.169608417864
  31
0.0
   0
LINE
   5
D4
 100
AcDbEntity
   8
LEVEL001
 100
AcDbLine
   6
CONTINUOUS
  62
2
  10
 61.410216528569
  20
 14.169608417864
  30
0.0
  11
 101.41021652857
  21
 14.169608417864
  31
0.0
   0
LINE
   5
D5
 100
AcDbEntity
   8
LEVEL001
 100
AcDbLine
   6
CONTINUOUS
  62
2
  10
 141.41021652857
  20
 14.169608417864
  30
0.0
  11
 101.41021652857
  21
 14.169608417864
  31
0.0
   0
INSERT
   5
D6
 100
AcDbEntity
   8
LEVEL001
   6
CONTINUOUS
  62
2
 100
AcDbBlockReference
   2
_OPEN30
  10
 61.410216528569
  20
 14.169608417864
  30
0.0
  41
 3.0000000000000
  42
 3.0000000000000
  43
 3.0000000000000
  50
 180.00000000000
   0
INSERT
   5
D7
 100
AcDbEntity
   8
LEVEL001
   6
CONTINUOUS
  62
2
 100
AcDbBlockReference
   2
_OPEN30
  10
 141.41021652857
  20
 14.169608417864
  30
0.0
  41
 3.0000000000000
  42
 3.0000000000000
  43
 3.0000000000000
  50
0.0
   0
MTEXT
   5
D8
 100
AcDbEntity
   8
LEVEL001
  62
2
 100
AcDbMText
  10
 101.41021652857
  20
 15.883894132150
  30
0.0
  40
 4.0000000000000
  41
0.0
  71
8
  72
1
   1
\A1;80
   7
GMM001
   0
ENDBLK
   5
D9
 100
AcDbEntity
   8
0
 100
AcDbBlockEnd
   0
BLOCK
   5
DA
 100
AcDbEntity
   8
0
 100
AcDbBlockBegin
   2
*D5
  70
65
  10
0.0
  20
0.0
  30
0.0
   3
*D5
   0
LINE
   5
DB
 100
AcDbEntity
   8
LEVEL001
 100
AcDbLine
   6
CONTINUOUS
  62
2
  10
 69.410216528569
  20
 30.683456730583
  30
0.0
  11
 34.263761532917
  21
 30.683456730583
  31
0.0
   0
LINE
   5
DC
 100
AcDbEntity
   8
LEVEL001
 100
AcDbLine
   6
CONTINUOUS
  62
2
  10
 69.410216528569
  20
 130.68345673058
  30
0.0
  11
 34.263761532917
  21
 130.68345673058
  31
0.0
   0
LINE
   5
DD
 100
AcDbEntity
   8
LEVEL001
 100
AcDbLine
   6
CONTINUOUS
  62
2
  10
 36.263761532917
  20
 30.683456730583
  30
0.0
  11
 36.263761532917
  21
 80.683456730583
  31
0.0
   0
LINE
   5
DE
 100
AcDbEntity
   8
LEVEL001
 100
AcDbLine
   6
CONTINUOUS
  62
2
  10
 36.263761532917
  20
 130.68345673058
  30
0.0
  11
 36.263761532917
  21
 80.683456730583
  31
0.0
   0
INSERT
   5
DF
 100
AcDbEntity
   8
LEVEL001
   6
CONTINUOUS
  62
2
 100
AcDbBlockReference
   2
_OPEN30
  10
 36.263761532917
  20
 30.683456730583
  30
0.0
  41
 3.0000000000000
  42
 3.0000000000000
  43
 3.0000000000000
  50
 270.00000000000
   0
INSERT
   5
E0
 100
AcDbEntity
   8
LEVEL001
   6
CONTINUOUS
  62
2
 100
AcDbBlockReference
   2
_OPEN30
  10
 36.263761532917
  20
 130.68345673058
  30
0.0
  41
 3.0000000000000
  42
 3.0000000000000
  43
 3.0000000000000
  50
 90.000000000000
   0
MTEXT
   5
E1
 100
AcDbEntity
   8
LEVEL001
  62
2
 100
AcDbMText
  10
 34.549475818632
  20
 80.683456730583
  30
0.0
  40
 4.0000000000000
  41
0.0
  71
8
  72
1
   1
\A1;100
   7
GMM001
  11
0.0
  21
 1.0000000000000
  31
0.0
   0
ENDBLK
   5
E2
 100
AcDbEntity
   8
0
 100
AcDbBlockEnd
   0
BLOCK
   5
E3
 100
AcDbEntity
   8
0
 100
AcDbBlockBegin
   2
*D6
  70
65
  10
0.0
  20
0.0
  30
0.0
   3
*D6
   0
LINE
   5
E4
 100
AcDbEntity
   8
LEVEL001
 100
AcDbLine
   6
CONTINUOUS
  62
2
  10
 101.41021652857
  20
 79.683456730583
  30
0.0
  11
 42.702512965335
  21
 79.683456730583
  31
0.0
   0
LINE
   5
E5
 100
AcDbEntity
   8
LEVEL001
 100
AcDbLine
   6
CONTINUOUS
  62
2
  10
 69.410216528569
  20
 130.68345673058
  30
0.0
  11
 42.702512965335
  21
 130.68345673058
  31
0.0
   0
LINE
   5
E6
 100
AcDbEntity
   8
LEVEL001
 100
AcDbLine
   6
CONTINUOUS
  62
2
  10
 44.702512965335
  20
 79.683456730583
  30
0.0
  11
 44.702512965335
  21
 105.18345673058
  31
0.0
   0
LINE
   5
E7
 100
AcDbEntity
   8
LEVEL001
 100
AcDbLine
   6
CONTINUOUS
  62
2
  10
 44.702512965335
  20
 130.68345673058
  30
0.0
  11
 44.702512965335
  21
 105.18345673058
  31
0.0
   0
INSERT
   5
E8
 100
AcDbEntity
   8
LEVEL001
   6
CONTINUOUS
  62
2
 100
AcDbBlockReference
   2
_OPEN30
  10
 44.702512965335
  20
 79.683456730583
  30
0.0
  41
 2.0000000000000
  42
 2.0000000000000
  43
 2.0000000000000
  50
 270.00000000000
   0
INSERT
   5
E9
 100
AcDbEntity
   8
LEVEL001
   6
CONTINUOUS
  62
2
 100
AcDbBlockReference
   2
_OPEN30
  10
 44.702512965335
  20
 130.68345673058
  30
0.0
  41
 2.0000000000000
  42
 2.0000000000000
  43
 2.0000000000000
  50
 90.000000000000
   0
MTEXT
   5
EA
 100
AcDbEntity
   8
LEVEL001
  62
2
 100
AcDbMText
  10
 43.073941536763
  20
 105.18345673058
  30
0.0
  40
 3.8000000000000
  41
0.0
  71
8
  72
1
   1
\A1;51
   7
GMM002
  11
0.0
  21
 1.0000000000000
  31
0.0
   0
ENDBLK
   5
EB
 100
AcDbEntity
   8
0
 100
AcDbBlockEnd
   0
BLOCK
   5
EC
 100
AcDbEntity
   8
0
 100
AcDbBlockBegin
   2
*D7
  70
65
  10
0.0
  20
0.0
  30
0.0
   3
*D7
   0
LINE
   5
ED
 100
AcDbEntity
   8
LEVEL001
 100
AcDbLine
   6
CONTINUOUS
  62
2
  10
 133.41021652857
  20
 130.68345673058
  30
0.0
  11
 160.48070752018
  21
 130.68345673058
  31
0.0
   0
LINE
   5
EE
 100
AcDbEntity
   8
LEVEL001
 100
AcDbLine
   6
CONTINUOUS
  62
2
  10
 108.74657357753
  20
 93.183456730583
  30
0.0
  11
 160.48070752018
  21
 93.183456730583
  31
0.0
   0
LINE
   5
EF
 100
AcDbEntity
   8
LEVEL001
 100
AcDbLine
   6
CONTINUOUS
  62
2
  10
 158.48070752018
  20
 130.68345673058
  30
0.0
  11
 158.48070752018
  21
 111.93345673058
  31
0.0
   0
LINE
   5
F0
 100
AcDbEntity
   8
LEVEL001
 100
AcDbLine
   6
CONTINUOUS
  62
2
  10
 158.48070752018
  20
 93.183456730583
  30
0.0
  11
 158.48070752018
  21
 111.93345673058
  31
0.0
   0
INSERT
   5
F1
 100
AcDbEntity
   8
LEVEL001
   6
CONTINUOUS
  62
2
 100
AcDbBlockReference
   2
_OPEN30
  10
 158.48070752018
  20
 130.68345673058
  30
0.0
  41
 2.0000000000000
  42
 2.0000000000000
  43
 2.0000000000000
  50
 90.000000000000
   0
INSERT
   5
F2
 100
AcDbEntity
   8
LEVEL001
   6
CONTINUOUS
  62
2
 100
AcDbBlockReference
   2
_OPEN30
  10
 158.48070752018
  20
 93.183456730583
  30
0.0
  41
 2.0000000000000
  42
 2.0000000000000
  43
 2.0000000000000
  50
 270.00000000000
   0
MTEXT
   5
F3
 100
AcDbEntity
   8
LEVEL001
  62
2
 100
AcDbMText
  10
 156.85213609161
  20
 111.93345673058
  30
0.0
  40
 3.8000000000000
  41
0.0
  71
8
  72
1
   1
\A1;37.5
   7
GMM002
  11
0.0
  21
 1.0000000000000
  31
0.0
   0
ENDBLK
   5
F4
 100
AcDbEntity
   8
0
 100
AcDbBlockEnd
   0
BLOCK
   5
F5
 100
AcDbEntity
   8
0
 100
AcDbBlockBegin
   2
*D8
  70
65
  10
0.0
  20
0.0
  30
0.0
   3
*D8
   0
LINE
   5
F6
 100
AcDbEntity
   8
LEVEL001
 100
AcDbLine
   6
CONTINUOUS
  62
2
  10
 108.66722115002
  20
 73.183456730583
  30
0.0
  11
 160.48070752018
  21
 73.183456730583
  31
0.0
   0
LINE
   5
F7
 100
AcDbEntity
   8
LEVEL001
 100
AcDbLine
   6
CONTINUOUS
  62
2
  10
 158.48070752018
  20
 73.183456730583
  30
0.0
  11
 158.48070752018
  21
 83.183456730583
  31
0.0
   0
LINE
   5
F8
 100
AcDbEntity
   8
LEVEL001
 100
AcDbLine
   6
CONTINUOUS
  62
2
  10
 158.48070752018
  20
 93.183456730583
  30
0.0
  11
 158.48070752018
  21
 83.183456730583
  31
0.0
   0
INSERT
   5
F9
 100
AcDbEntity
   8
LEVEL001
   6
CONTINUOUS
  62
2
 100
AcDbBlockReference
   2
_OPEN30
  10
 158.48070752018
  20
 73.183456730583
  30
0.0
  41
 2.0000000000000
  42
 2.0000000000000
  43
 2.0000000000000
  50
 270.00000000000
   0
INSERT
   5
FA
 100
AcDbEntity
   8
LEVEL001
   6
CONTINUOUS
  62
2
 100
AcDbBlockReference
   2
_OPEN30
  10
 158.48070752018
  20
 93.183456730583
  30
0.0
  41
 2.0000000000000
  42
 2.0000000000000
  43
 2.0000000000000
  50
 90.000000000000
   0
MTEXT
   5
FB
 100
AcDbEntity
   8
LEVEL001
  62
2
 100
AcDbMText
  10
 156.85213609161
  20
 83.183456730583
  30
0.0
  40
 3.8000000000000
  41
0.0
  71
8
  72
1
   1
\A1;20
   7
GMM002
  11
0.0
  21
 1.0000000000000
  31
0.0
   0
ENDBLK
   5
FC
 100
AcDbEntity
   8
0
 100
AcDbBlockEnd
   0
BLOCK
   5
FD
 100
AcDbEntity
   8
0
 100
AcDbBlockBegin
   2
*D9
  70
65
  10
0.0
  20
0.0
  30
0.0
   3
*D9
   0
LINE
   5
FE
 100
AcDbEntity
   8
LEVEL001
 100
AcDbLine
   6
CONTINUOUS
  62
2
  10
 133.41021652857
  20
 30.683456730583
  30
0.0
  11
 160.48070752018
  21
 30.683456730583
  31
0.0
   0
LINE
   5
FF
 100
AcDbEntity
   8
LEVEL001
 100
AcDbLine
   6
CONTINUOUS
  62
2
  10
 158.48070752018
  20
 30.683456730583
  30
0.0
  11
 158.48070752018
  21
 51.933456730583
  31
0.0
   0
LINE
   5
100
 100
AcDbEntity
   8
LEVEL001
 100
AcDbLine
   6
CONTINUOUS
  62
2
  10
 158.48070752018
  20
 73.183456730583
  30
0.0
  11
 158.48070752018
  21
 51.933456730583
  31
0.0
   0
INSERT
   5
101
 100
AcDbEntity
   8
LEVEL001
   6
CONTINUOUS
  62
2
 100
AcDbBlockReference
   2
_OPEN30
  10
 158.48070752018
  20
 30.683456730583
  30
0.0
  41
 2.0000000000000
  42
 2.0000000000000
  43
 2.0000000000000
  50
 270.00000000000
   0
INSERT
   5
102
 100
AcDbEntity
   8
LEVEL001
   6
CONTINUOUS
  62
2
 100
AcDbBlockReference
   2
_OPEN30
  10
 158.48070752018
  20
 73.183456730583
  30
0.0
  41
 2.0000000000000
  42
 2.0000000000000
  43
 2.0000000000000
  50
 90.000000000000
   0
MTEXT
   5
103
 100
AcDbEntity
   8
LEVEL001
  62
2
 100
AcDbMText
  10
 156.85213609161
  20
 51.933456730583
  30
0.0
  40
 3.8000000000000
  41
0.0
  71
8
  72
1
   1
\A1;42.5
   7
GMM002
  11
0.0
  21
 1.0000000000000
  31
0.0
   0
ENDBLK
   5
104
 100
AcDbEntity
   8
0
 100
AcDbBlockEnd
   0
BLOCK
   5
105
 100
AcDbEntity
   8
0
 100
AcDbBlockBegin
   2
*D10
  70
65
  10
0.0
  20
0.0
  30
0.0
   3
*D10
   0
LINE
   5
106
 100
AcDbEntity
   8
LEVEL001
 100
AcDbLine
   6
CONTINUOUS
  62
2
  10
 264.03588482669
  20
 185.99613643936
  30
0.0
  11
 267.08549149357
  21
 185.99613643936
  31
0.0
   0
LINE
   5
107
 100
AcDbEntity
   8
LEVEL001
 100
AcDbLine
   6
CONTINUOUS
  62
2
  10
 264.21014452822
  20
 186.49613643936
  30
0.0
  11
 267.08549149357
  21
 186.49613643936
  31
0.0
   0
LINE
   5
108
 100
AcDbEntity
   8
LEVEL001
 100
AcDbLine
   6
CONTINUOUS
  62
2
  10
 265.08549149357
  20
 174.87966204593
  30
0.0
  11
 265.08549149357
  21
 186.24613643936
  31
0.0
   0
LINE
   5
109
 100
AcDbEntity
   8
LEVEL001
 100
AcDbLine
   6
CONTINUOUS
  62
2
  10
 265.08549149357
  20
 190.24613643936
  30
0.0
  11
 265.08549149357
  21
 186.24613643936
  31
0.0
   0
INSERT
   5
10A
 100
AcDbEntity
   8
LEVEL001
   6
CONTINUOUS
  62
2
 100
AcDbBlockReference
   2
_OPEN30
  10
 265.08549149357
  20
 185.99613643936
  30
0.0
  41
 3.0000000000000
  42
 3.0000000000000
  43
 3.0000000000000
  50
 90.000000000000
   0
INSERT
   5
10B
 100
AcDbEntity
   8
LEVEL001
   6
CONTINUOUS
  62
2
 100
AcDbBlockReference
   2
_OPEN30
  10
 265.08549149357
  20
 186.49613643936
  30
0.0
  41
 3.0000000000000
  42
 3.0000000000000
  43
 3.0000000000000
  50
 270.00000000000
   0
MTEXT
   5
10C
 100
AcDbEntity
   8
LEVEL001
  62
2
 100
AcDbMText
  10
 263.28075945340
  20
 184.87966204593
  30
0.0
  40
 4.0000000000000
  41
0.0
  71
9
  72
1
   1
\A1;0.5
   7
GMM001
  11
0.0
  21
 1.0000000000000
  31
0.0
   0
ENDBLK
   5
10D
 100
AcDbEntity
   8
0
 100
AcDbBlockEnd
   0
BLOCK
   5
10E
 100
AcDbEntity
   8
0
 100
AcDbBlockBegin
   2
*D11
  70
65
  10
0.0
  20
0.0
  30
0.0
   3
*D11
   0
LINE
   5
10F
 100
AcDbEntity
   8
LEVEL001
 100
AcDbLine
   6
CONTINUOUS
  62
2
  10
 302.60289047995
  20
 185.99613643936
  30
0.0
  11
 304.83144474595
  21
 185.99613643936
  31
0.0
   0
LINE
   5
110
 100
AcDbEntity
   8
LEVEL001
 100
AcDbLine
   6
CONTINUOUS
  62
2
  10
 302.37433621395
  20
 204.99613643936
  30
0.0
  11
 304.83144474595
  21
 204.99613643936
  31
0.0
   0
LINE
   5
111
 100
AcDbEntity
   8
LEVEL001
 100
AcDbLine
   6
CONTINUOUS
  62
2
  10
 302.83144474595
  20
 173.03802890192
  30
0.0
  11
 302.83144474595
  21
 195.49613643936
  31
0.0
   0
LINE
   5
112
 100
AcDbEntity
   8
LEVEL001
 100
AcDbLine
   6
CONTINUOUS
  62
2
  10
 302.83144474595
  20
 204.99613643936
  30
0.0
  11
 302.83144474595
  21
 195.49613643936
  31
0.0
   0
INSERT
   5
113
 100
AcDbEntity
   8
LEVEL001
   6
CONTINUOUS
  62
2
 100
AcDbBlockReference
   2
_OPEN30
  10
 302.83144474595
  20
 185.99613643936
  30
0.0
  41
 3.0000000000000
  42
 3.0000000000000
  43
 3.0000000000000
  50
 270.00000000000
   0
INSERT
   5
114
 100
AcDbEntity
   8
LEVEL001
   6
CONTINUOUS
  62
2
 100
AcDbBlockReference
   2
_OPEN30
  10
 302.83144474595
  20
 204.99613643936
  30
0.0
  41
 3.0000000000000
  42
 3.0000000000000
  43
 3.0000000000000
  50
 90.000000000000
   0
MTEXT
   5
115
 100
AcDbEntity
   8
LEVEL001
  62
2
 100
AcDbMText
  10
 301.08263519875
  20
 185.03802890192
  30
0.0
  40
 4.0000000000000
  41
0.0
  71
9
  72
1
   1
\A1;%%c19
   7
GMM001
  11
0.0
  21
 1.0000000000000
  31
0.0
   0
ENDBLK
   5
116
 100
AcDbEntity
   8
0
 100
AcDbBlockEnd
   0
BLOCK
   5
117
 100
AcDbEntity
   8
0
 100
AcDbBlockBegin
   2
*D12
  70
65
  10
0.0
  20
0.0
  30
0.0
   3
*D12
   0
LINE
   5
118
 100
AcDbEntity
   8
LEVEL001
 100
AcDbLine
   6
CONTINUOUS
  62
2
  10
 153.36741856562
  20
 184.64613643936
  30
0.0
  11
 156.41702523250
  21
 184.64613643936
  31
0.0
   0
LINE
   5
119
 100
AcDbEntity
   8
LEVEL001
 100
AcDbLine
   6
CONTINUOUS
  62
2
  10
 153.54167826715
  20
 185.14613643936
  30
0.0
  11
 156.41702523250
  21
 185.14613643936
  31
0.0
   0
LINE
   5
11A
 100
AcDbEntity
   8
LEVEL001
 100
AcDbLine
   6
CONTINUOUS
  62
2
  10
 154.41702523250
  20
 173.52966204593
  30
0.0
  11
 154.41702523250
  21
 184.89613643936
  31
0.0
   0
LINE
   5
11B
 100
AcDbEntity
   8
LEVEL001
 100
AcDbLine
   6
CONTINUOUS
  62
2
  10
 154.41702523250
  20
 188.89613643936
  30
0.0
  11
 154.41702523250
  21
 184.89613643936
  31
0.0
   0
INSERT
   5
11C
 100
AcDbEntity
   8
LEVEL001
   6
CONTINUOUS
  62
2
 100
AcDbBlockReference
   2
_OPEN30
  10
 154.41702523250
  20
 184.64613643936
  30
0.0
  41
 3.0000000000000
  42
 3.0000000000000
  43
 3.0000000000000
  50
 90.000000000000
   0
INSERT
   5
11D
 100
AcDbEntity
   8
LEVEL001
   6
CONTINUOUS
  62
2
 100
AcDbBlockReference
   2
_OPEN30
  10
 154.41702523250
  20
 185.14613643936
  30
0.0
  41
 3.0000000000000
  42
 3.0000000000000
  43
 3.0000000000000
  50
 270.00000000000
   0
MTEXT
   5
11E
 100
AcDbEntity
   8
LEVEL001
  62
2
 100
AcDbMText
  10
 152.61229319233
  20
 183.52966204593
  30
0.0
  40
 4.0000000000000
  41
0.0
  71
9
  72
1
   1
\A1;0.5
   7
GMM001
  11
0.0
  21
 1.0000000000000
  31
0.0
   0
ENDBLK
   5
11F
 100
AcDbEntity
   8
0
 100
AcDbBlockEnd
   0
BLOCK
   5
120
 100
AcDbEntity
   8
0
 100
AcDbBlockBegin
   2
*D13
  70
65
  10
0.0
  20
0.0
  30
0.0
   3
*D13
   0
LINE
   5
121
 100
AcDbEntity
   8
LEVEL001
 100
AcDbLine
   6
CONTINUOUS
  62
2
  10
 126.58480806937
  20
 184.64613643936
  30
0.0
  11
 124.12769953737
  21
 184.64613643936
  31
0.0
   0
LINE
   5
122
 100
AcDbEntity
   8
LEVEL001
 100
AcDbLine
   6
CONTINUOUS
  62
2
  10
 126.12769953737
  20
 165.14388380861
  30
0.0
  11
 126.12769953737
  21
 195.49613643936
  31
0.0
   0
LINE
   5
123
 100
AcDbEntity
   8
LEVEL001
 100
AcDbLine
   6
CONTINUOUS
  62
2
  10
 126.12769953737
  20
 206.34613643936
  30
0.0
  11
 126.12769953737
  21
 195.49613643936
  31
0.0
   0
INSERT
   5
124
 100
AcDbEntity
   8
LEVEL001
   6
CONTINUOUS
  62
2
 100
AcDbBlockReference
   2
_OPEN30
  10
 126.12769953737
  20
 184.64613643936
  30
0.0
  41
 3.0000000000000
  42
 3.0000000000000
  43
 3.0000000000000
  50
 270.00000000000
   0
INSERT
   5
125
 100
AcDbEntity
   8
LEVEL001
   6
CONTINUOUS
  62
2
 100
AcDbBlockReference
   2
_OPEN30
  10
 126.12769953737
  20
 206.34613643936
  30
0.0
  41
 3.0000000000000
  42
 3.0000000000000
  43
 3.0000000000000
  50
 90.000000000000
   0
MTEXT
   5
126
 100
AcDbEntity
   8
LEVEL001
  62
2
 100
AcDbMText
  10
 124.57348373709
  20
 183.14388380861
  30
0.0
  40
 4.0000000000000
  41
0.0
  71
9
  72
1
   1
\A1;%%c21.7
   7
GMM001
  11
0.0
  21
 1.0000000000000
  31
0.0
   0
ENDBLK
   5
127
 100
AcDbEntity
   8
0
 100
AcDbBlockEnd
   0
BLOCK
   5
128
 100
AcDbEntity
   8
0
 100
AcDbBlockBegin
   2
*D14
  70
65
  10
0.0
  20
0.0
  30
0.0
   3
*D14
   0
LINE
   5
129
 100
AcDbEntity
   8
LEVEL001
 100
AcDbLine
   6
CONTINUOUS
  62
6
  10
 311.01102922965
  20
 212.82216024340
  30
0.0
  11
 305.88070804225
  21
 212.82216024340
  31
0.0
   0
INSERT
   5
12A
 100
AcDbEntity
   8
LEVEL001
   6
CONTINUOUS
  62
6
 100
AcDbBlockReference
   2
_OPEN30
  10
 311.01102922965
  20
 212.82216024340
  30
0.0
  41
 2.0000000000000
  42
 2.0000000000000
  43
 2.0000000000000
  50
0.0
   0
MTEXT
   5
12B
 100
AcDbEntity
   8
LEVEL001
  62
6
 100
AcDbMText
  10
 299.88070804225
  20
 209.82216024340
  30
0.0
  40
 6.0000000000000
  41
0.0
  71
7
  72
1
   1
\A1;Ａ
   7
GMM001
   0
ENDBLK
   5
12C
 100
AcDbEntity
   8
0
 100
AcDbBlockEnd
   0
BLOCK
   5
12D
 100
AcDbEntity
   8
0
 100
AcDbBlockBegin
   2
HATCH001
  70
64
  10
0.0
  20
0.0
  30
0.0
   3
HATCH001
   0
LINE
   5
12E
 100
AcDbEntity
   8
LEVEL001
 100
AcDbLine
   6
CONTINUOUS
  62
1
  10
 351.71784160782
  20
 153.74680551128
  30
0.0
  11
 351.93567955168
  21
 153.52896756742
  31
0.0
   0
LINE
   5
12F
 100
AcDbEntity
   8
LEVEL001
 100
AcDbLine
   6
CONTINUOUS
  62
1
  10
 351.71784160782
  20
 154.45391229128
  30
0.0
  11
 352.64278633168
  21
 153.52896756742
  31
0.0
   0
LINE
   5
130
 100
AcDbEntity
   8
LEVEL001
 100
AcDbLine
   6
CONTINUOUS
  62
1
  10
 351.71784160782
  20
 155.16101907128
  30
0.0
  11
 352.71784160782
  21
 154.16101907128
  31
0.0
   0
LINE
   5
131
 100
AcDbEntity
   8
LEVEL001
 100
AcDbLine
   6
CONTINUOUS
  62
1
  10
 351.71784160782
  20
 155.86812585128
  30
0.0
  11
 352.71784160782
  21
 154.86812585128
  31
0.0
   0
LINE
   5
132
 100
AcDbEntity
   8
LEVEL001
 100
AcDbLine
   6
CONTINUOUS
  62
1
  10
 351.71784160782
  20
 156.57523263128
  30
0.0
  11
 352.71784160782
  21
 155.57523263128
  31
0.0
   0
LINE
   5
133
 100
AcDbEntity
   8
LEVEL001
 100
AcDbLine
   6
CONTINUOUS
  62
1
  10
 351.71784160782
  20
 157.28233941128
  30
0.0
  11
 352.71784160782
  21
 156.28233941128
  31
0.0
   0
LINE
   5
134
 100
AcDbEntity
   8
LEVEL001
 100
AcDbLine
   6
CONTINUOUS
  62
1
  10
 351.71784160782
  20
 157.98944619128
  30
0.0
  11
 352.71784160782
  21
 156.98944619128
  31
0.0
   0
LINE
   5
135
 100
AcDbEntity
   8
LEVEL001
 100
AcDbLine
   6
CONTINUOUS
  62
1
  10
 351.71784160782
  20
 158.69655297128
  30
0.0
  11
 352.71784160782
  21
 157.69655297128
  31
0.0
   0
LINE
   5
136
 100
AcDbEntity
   8
LEVEL001
 100
AcDbLine
   6
CONTINUOUS
  62
1
  10
 351.71784160782
  20
 159.40365975128
  30
0.0
  11
 352.71784160782
  21
 158.40365975128
  31
0.0
   0
LINE
   5
137
 100
AcDbEntity
   8
LEVEL001
 100
AcDbLine
   6
CONTINUOUS
  62
1
  10
 351.71784160782
  20
 160.11076653128
  30
0.0
  11
 352.71784160782
  21
 159.11076653128
  31
0.0
   0
LINE
   5
138
 100
AcDbEntity
   8
LEVEL001
 100
AcDbLine
   6
CONTINUOUS
  62
1
  10
 351.71784160782
  20
 160.81787331128
  30
0.0
  11
 352.71784160782
  21
 159.81787331128
  31
0.0
   0
LINE
   5
139
 100
AcDbEntity
   8
LEVEL001
 100
AcDbLine
   6
CONTINUOUS
  62
1
  10
 351.71784160782
  20
 161.52498009128
  30
0.0
  11
 352.71784160782
  21
 160.52498009128
  31
0.0
   0
LINE
   5
13A
 100
AcDbEntity
   8
LEVEL001
 100
AcDbLine
   6
CONTINUOUS
  62
1
  10
 351.71784160782
  20
 162.23208687128
  30
0.0
  11
 352.71784160782
  21
 161.23208687128
  31
0.0
   0
LINE
   5
13B
 100
AcDbEntity
   8
LEVEL001
 100
AcDbLine
   6
CONTINUOUS
  62
1
  10
 351.71784160782
  20
 162.93919365128
  30
0.0
  11
 352.71784160782
  21
 161.93919365128
  31
0.0
   0
LINE
   5
13C
 100
AcDbEntity
   8
LEVEL001
 100
AcDbLine
   6
CONTINUOUS
  62
1
  10
 351.71784160782
  20
 163.64630043128
  30
0.0
  11
 352.71784160782
  21
 162.64630043128
  31
0.0
   0
LINE
   5
13D
 100
AcDbEntity
   8
LEVEL001
 100
AcDbLine
   6
CONTINUOUS
  62
1
  10
 351.71784160782
  20
 164.35340721128
  30
0.0
  11
 352.71784160782
  21
 163.35340721128
  31
0.0
   0
LINE
   5
13E
 100
AcDbEntity
   8
LEVEL001
 100
AcDbLine
   6
CONTINUOUS
  62
1
  10
 351.71784160782
  20
 165.06051399128
  30
0.0
  11
 352.71784160782
  21
 164.06051399128
  31
0.0
   0
LINE
   5
13F
 100
AcDbEntity
   8
LEVEL001
 100
AcDbLine
   6
CONTINUOUS
  62
1
  10
 351.71784160782
  20
 165.76762077128
  30
0.0
  11
 352.71784160782
  21
 164.76762077128
  31
0.0
   0
LINE
   5
140
 100
AcDbEntity
   8
LEVEL001
 100
AcDbLine
   6
CONTINUOUS
  62
1
  10
 351.71784160782
  20
 166.47472755128
  30
0.0
  11
 352.71784160782
  21
 165.47472755128
  31
0.0
   0
LINE
   5
141
 100
AcDbEntity
   8
LEVEL001
 100
AcDbLine
   6
CONTINUOUS
  62
1
  10
 351.71784160782
  20
 167.18183433128
  30
0.0
  11
 352.71784160782
  21
 166.18183433128
  31
0.0
   0
LINE
   5
142
 100
AcDbEntity
   8
LEVEL001
 100
AcDbLine
   6
CONTINUOUS
  62
1
  10
 351.71784160782
  20
 167.88894111128
  30
0.0
  11
 352.71784160782
  21
 166.88894111128
  31
0.0
   0
LINE
   5
143
 100
AcDbEntity
   8
LEVEL001
 100
AcDbLine
   6
CONTINUOUS
  62
1
  10
 351.71784160782
  20
 168.59604789128
  30
0.0
  11
 352.71784160782
  21
 167.59604789128
  31
0.0
   0
LINE
   5
144
 100
AcDbEntity
   8
LEVEL001
 100
AcDbLine
   6
CONTINUOUS
  62
1
  10
 351.71784160782
  20
 169.30315467128
  30
0.0
  11
 352.71784160782
  21
 168.30315467128
  31
0.0
   0
LINE
   5
145
 100
AcDbEntity
   8
LEVEL001
 100
AcDbLine
   6
CONTINUOUS
  62
1
  10
 351.71784160782
  20
 170.01026145128
  30
0.0
  11
 352.71784160782
  21
 169.01026145128
  31
0.0
   0
LINE
   5
146
 100
AcDbEntity
   8
LEVEL001
 100
AcDbLine
   6
CONTINUOUS
  62
1
  10
 351.71784160782
  20
 170.71736823128
  30
0.0
  11
 352.71784160782
  21
 169.71736823128
  31
0.0
   0
LINE
   5
147
 100
AcDbEntity
   8
LEVEL001
 100
AcDbLine
   6
CONTINUOUS
  62
1
  10
 351.71784160782
  20
 171.42447501128
  30
0.0
  11
 352.71784160782
  21
 170.42447501128
  31
0.0
   0
LINE
   5
148
 100
AcDbEntity
   8
LEVEL001
 100
AcDbLine
   6
CONTINUOUS
  62
1
  10
 351.71784160782
  20
 172.13158179128
  30
0.0
  11
 352.71784160782
  21
 171.13158179128
  31
0.0
   0
LINE
   5
149
 100
AcDbEntity
   8
LEVEL001
 100
AcDbLine
   6
CONTINUOUS
  62
1
  10
 351.71784160782
  20
 172.83868857128
  30
0.0
  11
 352.71784160782
  21
 171.83868857128
  31
0.0
   0
LINE
   5
14A
 100
AcDbEntity
   8
LEVEL001
 100
AcDbLine
   6
CONTINUOUS
  62
1
  10
 351.71784160782
  20
 173.54579535128
  30
0.0
  11
 352.71784160782
  21
 172.54579535128
  31
0.0
   0
LINE
   5
14B
 100
AcDbEntity
   8
LEVEL001
 100
AcDbLine
   6
CONTINUOUS
  62
1
  10
 351.71784160782
  20
 174.25290213128
  30
0.0
  11
 352.71784160782
  21
 173.25290213128
  31
0.0
   0
LINE
   5
14C
 100
AcDbEntity
   8
LEVEL001
 100
AcDbLine
   6
CONTINUOUS
  62
1
  10
 351.71784160782
  20
 174.96000891128
  30
0.0
  11
 352.71784160782
  21
 173.96000891128
  31
0.0
   0
LINE
   5
14D
 100
AcDbEntity
   8
LEVEL001
 100
AcDbLine
   6
CONTINUOUS
  62
1
  10
 351.71784160782
  20
 175.66711569128
  30
0.0
  11
 352.71784160782
  21
 174.66711569128
  31
0.0
   0
LINE
   5
14E
 100
AcDbEntity
   8
LEVEL001
 100
AcDbLine
   6
CONTINUOUS
  62
1
  10
 351.71784160782
  20
 176.37422247128
  30
0.0
  11
 352.71784160782
  21
 175.37422247128
  31
0.0
   0
LINE
   5
14F
 100
AcDbEntity
   8
LEVEL001
 100
AcDbLine
   6
CONTINUOUS
  62
1
  10
 351.71784160782
  20
 177.08132925128
  30
0.0
  11
 352.71784160782
  21
 176.08132925128
  31
0.0
   0
LINE
   5
150
 100
AcDbEntity
   8
LEVEL001
 100
AcDbLine
   6
CONTINUOUS
  62
1
  10
 351.71784160782
  20
 177.78843603128
  30
0.0
  11
 352.71784160782
  21
 176.78843603128
  31
0.0
   0
LINE
   5
151
 100
AcDbEntity
   8
LEVEL001
 100
AcDbLine
   6
CONTINUOUS
  62
1
  10
 351.71784160782
  20
 178.49554281128
  30
0.0
  11
 352.71784160782
  21
 177.49554281128
  31
0.0
   0
LINE
   5
152
 100
AcDbEntity
   8
LEVEL001
 100
AcDbLine
   6
CONTINUOUS
  62
1
  10
 351.71784160782
  20
 179.20264959128
  30
0.0
  11
 352.71784160782
  21
 178.20264959128
  31
0.0
   0
LINE
   5
153
 100
AcDbEntity
   8
LEVEL001
 100
AcDbLine
   6
CONTINUOUS
  62
1
  10
 351.71784160782
  20
 179.90975637128
  30
0.0
  11
 352.71784160782
  21
 178.90975637128
  31
0.0
   0
LINE
   5
154
 100
AcDbEntity
   8
LEVEL001
 100
AcDbLine
   6
CONTINUOUS
  62
1
  10
 351.71784160782
  20
 180.61686315128
  30
0.0
  11
 352.71784160782
  21
 179.61686315128
  31
0.0
   0
LINE
   5
155
 100
AcDbEntity
   8
LEVEL001
 100
AcDbLine
   6
CONTINUOUS
  62
1
  10
 351.71784160782
  20
 181.32396993128
  30
0.0
  11
 352.71784160782
  21
 180.32396993128
  31
0.0
   0
LINE
   5
156
 100
AcDbEntity
   8
LEVEL001
 100
AcDbLine
   6
CONTINUOUS
  62
1
  10
 351.71784160782
  20
 182.03107671128
  30
0.0
  11
 352.71784160782
  21
 181.03107671128
  31
0.0
   0
LINE
   5
157
 100
AcDbEntity
   8
LEVEL001
 100
AcDbLine
   6
CONTINUOUS
  62
1
  10
 351.71784160782
  20
 182.73818349128
  30
0.0
  11
 352.71784160782
  21
 181.73818349128
  31
0.0
   0
LINE
   5
158
 100
AcDbEntity
   8
LEVEL001
 100
AcDbLine
   6
CONTINUOUS
  62
1
  10
 351.71784160782
  20
 183.44529027128
  30
0.0
  11
 352.71784160782
  21
 182.44529027128
  31
0.0
   0
LINE
   5
159
 100
AcDbEntity
   8
LEVEL001
 100
AcDbLine
   6
CONTINUOUS
  62
1
  10
 351.71784160782
  20
 184.15239705128
  30
0.0
  11
 352.71784160782
  21
 183.15239705128
  31
0.0
   0
LINE
   5
15A
 100
AcDbEntity
   8
LEVEL001
 100
AcDbLine
   6
CONTINUOUS
  62
1
  10
 351.71784160782
  20
 184.85950383128
  30
0.0
  11
 352.71784160782
  21
 183.85950383128
  31
0.0
   0
LINE
   5
15B
 100
AcDbEntity
   8
LEVEL001
 100
AcDbLine
   6
CONTINUOUS
  62
1
  10
 351.71784160782
  20
 185.56661061128
  30
0.0
  11
 352.71784160782
  21
 184.56661061128
  31
0.0
   0
LINE
   5
15C
 100
AcDbEntity
   8
LEVEL001
 100
AcDbLine
   6
CONTINUOUS
  62
1
  10
 351.71784160782
  20
 186.27371739128
  30
0.0
  11
 352.71784160782
  21
 185.27371739128
  31
0.0
   0
LINE
   5
15D
 100
AcDbEntity
   8
LEVEL001
 100
AcDbLine
   6
CONTINUOUS
  62
1
  10
 351.71784160782
  20
 186.98082417128
  30
0.0
  11
 352.71784160782
  21
 185.98082417128
  31
0.0
   0
LINE
   5
15E
 100
AcDbEntity
   8
LEVEL001
 100
AcDbLine
   6
CONTINUOUS
  62
1
  10
 351.71784160782
  20
 187.68793095128
  30
0.0
  11
 352.71784160782
  21
 186.68793095128
  31
0.0
   0
LINE
   5
15F
 100
AcDbEntity
   8
LEVEL001
 100
AcDbLine
   6
CONTINUOUS
  62
1
  10
 351.71784160782
  20
 188.39503773128
  30
0.0
  11
 352.71784160782
  21
 187.39503773128
  31
0.0
   0
LINE
   5
160
 100
AcDbEntity
   8
LEVEL001
 100
AcDbLine
   6
CONTINUOUS
  62
1
  10
 351.71784160782
  20
 189.10214451128
  30
0.0
  11
 352.71784160782
  21
 188.10214451128
  31
0.0
   0
LINE
   5
161
 100
AcDbEntity
   8
LEVEL001
 100
AcDbLine
   6
CONTINUOUS
  62
1
  10
 351.71784160782
  20
 189.80925129128
  30
0.0
  11
 352.71784160782
  21
 188.80925129128
  31
0.0
   0
LINE
   5
162
 100
AcDbEntity
   8
LEVEL001
 100
AcDbLine
   6
CONTINUOUS
  62
1
  10
 351.71784160782
  20
 190.51635807128
  30
0.0
  11
 352.71784160782
  21
 189.51635807128
  31
0.0
   0
LINE
   5
163
 100
AcDbEntity
   8
LEVEL001
 100
AcDbLine
   6
CONTINUOUS
  62
1
  10
 351.71784160782
  20
 191.22346485128
  30
0.0
  11
 352.71784160782
  21
 190.22346485128
  31
0.0
   0
LINE
   5
164
 100
AcDbEntity
   8
LEVEL001
 100
AcDbLine
   6
CONTINUOUS
  62
1
  10
 351.71784160782
  20
 191.93057163128
  30
0.0
  11
 352.71784160782
  21
 190.93057163128
  31
0.0
   0
LINE
   5
165
 100
AcDbEntity
   8
LEVEL001
 100
AcDbLine
   6
CONTINUOUS
  62
1
  10
 351.71784160782
  20
 192.63767841128
  30
0.0
  11
 352.71784160782
  21
 191.63767841128
  31
0.0
   0
LINE
   5
166
 100
AcDbEntity
   8
LEVEL001
 100
AcDbLine
   6
CONTINUOUS
  62
1
  10
 351.71784160782
  20
 193.34478519128
  30
0.0
  11
 352.71784160782
  21
 192.34478519128
  31
0.0
   0
LINE
   5
167
 100
AcDbEntity
   8
LEVEL001
 100
AcDbLine
   6
CONTINUOUS
  62
1
  10
 351.71784160782
  20
 194.05189197128
  30
0.0
  11
 352.71784160782
  21
 193.05189197128
  31
0.0
   0
LINE
   5
168
 100
AcDbEntity
   8
LEVEL001
 100
AcDbLine
   6
CONTINUOUS
  62
1
  10
 351.71784160782
  20
 194.75899875128
  30
0.0
  11
 352.71784160782
  21
 193.75899875128
  31
0.0
   0
LINE
   5
169
 100
AcDbEntity
   8
LEVEL001
 100
AcDbLine
   6
CONTINUOUS
  62
1
  10
 351.71784160782
  20
 195.46610553128
  30
0.0
  11
 352.71784160782
  21
 194.46610553128
  31
0.0
   0
LINE
   5
16A
 100
AcDbEntity
   8
LEVEL001
 100
AcDbLine
   6
CONTINUOUS
  62
1
  10
 351.71784160782
  20
 196.17321231128
  30
0.0
  11
 352.71784160782
  21
 195.17321231128
  31
0.0
   0
LINE
   5
16B
 100
AcDbEntity
   8
LEVEL001
 100
AcDbLine
   6
CONTINUOUS
  62
1
  10
 351.71784160782
  20
 196.88031909128
  30
0.0
  11
 352.71784160782
  21
 195.88031909128
  31
0.0
   0
LINE
   5
16C
 100
AcDbEntity
   8
LEVEL001
 100
AcDbLine
   6
CONTINUOUS
  62
1
  10
 351.71784160782
  20
 197.58742587128
  30
0.0
  11
 352.71784160782
  21
 196.58742587128
  31
0.0
   0
LINE
   5
16D
 100
AcDbEntity
   8
LEVEL001
 100
AcDbLine
   6
CONTINUOUS
  62
1
  10
 351.71784160782
  20
 198.29453265128
  30
0.0
  11
 352.71784160782
  21
 197.29453265128
  31
0.0
   0
LINE
   5
16E
 100
AcDbEntity
   8
LEVEL001
 100
AcDbLine
   6
CONTINUOUS
  62
1
  10
 351.71784160782
  20
 199.00163943128
  30
0.0
  11
 352.71784160782
  21
 198.00163943128
  31
0.0
   0
LINE
   5
16F
 100
AcDbEntity
   8
LEVEL001
 100
AcDbLine
   6
CONTINUOUS
  62
1
  10
 351.71784160782
  20
 199.70874621128
  30
0.0
  11
 352.71784160782
  21
 198.70874621128
  31
0.0
   0
LINE
   5
170
 100
AcDbEntity
   8
LEVEL001
 100
AcDbLine
   6
CONTINUOUS
  62
1
  10
 351.71784160782
  20
 200.41585299128
  30
0.0
  11
 352.71784160782
  21
 199.41585299128
  31
0.0
   0
LINE
   5
171
 100
AcDbEntity
   8
LEVEL001
 100
AcDbLine
   6
CONTINUOUS
  62
1
  10
 351.71784160782
  20
 201.12295977128
  30
0.0
  11
 352.71784160782
  21
 200.12295977128
  31
0.0
   0
LINE
   5
172
 100
AcDbEntity
   8
LEVEL001
 100
AcDbLine
   6
CONTINUOUS
  62
1
  10
 351.71784160782
  20
 201.83006655128
  30
0.0
  11
 352.71784160782
  21
 200.83006655128
  31
0.0
   0
LINE
   5
173
 100
AcDbEntity
   8
LEVEL001
 100
AcDbLine
   6
CONTINUOUS
  62
1
  10
 351.71784160782
  20
 202.53717333128
  30
0.0
  11
 352.71784160782
  21
 201.53717333128
  31
0.0
   0
LINE
   5
174
 100
AcDbEntity
   8
LEVEL001
 100
AcDbLine
   6
CONTINUOUS
  62
1
  10
 351.71784160782
  20
 203.24428011128
  30
0.0
  11
 352.71784160782
  21
 202.24428011128
  31
0.0
   0
LINE
   5
175
 100
AcDbEntity
   8
LEVEL001
 100
AcDbLine
   6
CONTINUOUS
  62
1
  10
 351.71784160782
  20
 203.95138689128
  30
0.0
  11
 352.71784160782
  21
 202.95138689128
  31
0.0
   0
LINE
   5
176
 100
AcDbEntity
   8
LEVEL001
 100
AcDbLine
   6
CONTINUOUS
  62
1
  10
 351.71784160782
  20
 204.65849367128
  30
0.0
  11
 352.71784160782
  21
 203.65849367128
  31
0.0
   0
LINE
   5
177
 100
AcDbEntity
   8
LEVEL001
 100
AcDbLine
   6
CONTINUOUS
  62
1
  10
 351.71784160782
  20
 205.36560045128
  30
0.0
  11
 352.71784160782
  21
 204.36560045128
  31
0.0
   0
LINE
   5
178
 100
AcDbEntity
   8
LEVEL001
 100
AcDbLine
   6
CONTINUOUS
  62
1
  10
 351.71784160782
  20
 206.07270723128
  30
0.0
  11
 352.71784160782
  21
 205.07270723128
  31
0.0
   0
LINE
   5
179
 100
AcDbEntity
   8
LEVEL001
 100
AcDbLine
   6
CONTINUOUS
  62
1
  10
 351.71784160782
  20
 206.77981401128
  30
0.0
  11
 352.71784160782
  21
 205.77981401128
  31
0.0
   0
LINE
   5
17A
 100
AcDbEntity
   8
LEVEL001
 100
AcDbLine
   6
CONTINUOUS
  62
1
  10
 351.71784160782
  20
 207.48692079128
  30
0.0
  11
 352.71784160782
  21
 206.48692079128
  31
0.0
   0
LINE
   5
17B
 100
AcDbEntity
   8
LEVEL001
 100
AcDbLine
   6
CONTINUOUS
  62
1
  10
 351.71784160782
  20
 208.19402757128
  30
0.0
  11
 352.71784160782
  21
 207.19402757128
  31
0.0
   0
LINE
   5
17C
 100
AcDbEntity
   8
LEVEL001
 100
AcDbLine
   6
CONTINUOUS
  62
1
  10
 351.71784160782
  20
 208.90113435128
  30
0.0
  11
 352.71784160782
  21
 207.90113435128
  31
0.0
   0
LINE
   5
17D
 100
AcDbEntity
   8
LEVEL001
 100
AcDbLine
   6
CONTINUOUS
  62
1
  10
 351.71784160782
  20
 209.60824113128
  30
0.0
  11
 352.71784160782
  21
 208.60824113128
  31
0.0
   0
LINE
   5
17E
 100
AcDbEntity
   8
LEVEL001
 100
AcDbLine
   6
CONTINUOUS
  62
1
  10
 351.71784160782
  20
 210.31534791128
  30
0.0
  11
 352.71784160782
  21
 209.31534791128
  31
0.0
   0
LINE
   5
17F
 100
AcDbEntity
   8
LEVEL001
 100
AcDbLine
   6
CONTINUOUS
  62
1
  10
 351.71784160782
  20
 211.02245469128
  30
0.0
  11
 352.71784160782
  21
 210.02245469128
  31
0.0
   0
LINE
   5
180
 100
AcDbEntity
   8
LEVEL001
 100
AcDbLine
   6
CONTINUOUS
  62
1
  10
 351.71784160782
  20
 211.72956147128
  30
0.0
  11
 352.71784160782
  21
 210.72956147128
  31
0.0
   0
LINE
   5
181
 100
AcDbEntity
   8
LEVEL001
 100
AcDbLine
   6
CONTINUOUS
  62
1
  10
 351.71784160782
  20
 212.43666825128
  30
0.0
  11
 352.71784160782
  21
 211.43666825128
  31
0.0
   0
LINE
   5
182
 100
AcDbEntity
   8
LEVEL001
 100
AcDbLine
   6
CONTINUOUS
  62
1
  10
 351.71784160782
  20
 213.14377503128
  30
0.0
  11
 352.71784160782
  21
 212.14377503128
  31
0.0
   0
LINE
   5
183
 100
AcDbEntity
   8
LEVEL001
 100
AcDbLine
   6
CONTINUOUS
  62
1
  10
 351.71784160782
  20
 213.85088181128
  30
0.0
  11
 352.71784160782
  21
 212.85088181128
  31
0.0
   0
LINE
   5
184
 100
AcDbEntity
   8
LEVEL001
 100
AcDbLine
   6
CONTINUOUS
  62
1
  10
 351.71784160782
  20
 214.55798859128
  30
0.0
  11
 352.71784160782
  21
 213.55798859128
  31
0.0
   0
LINE
   5
185
 100
AcDbEntity
   8
LEVEL001
 100
AcDbLine
   6
CONTINUOUS
  62
1
  10
 351.71784160782
  20
 215.26509537128
  30
0.0
  11
 352.71784160782
  21
 214.26509537128
  31
0.0
   0
LINE
   5
186
 100
AcDbEntity
   8
LEVEL001
 100
AcDbLine
   6
CONTINUOUS
  62
1
  10
 351.71784160782
  20
 215.97220215128
  30
0.0
  11
 352.71784160782
  21
 214.97220215128
  31
0.0
   0
LINE
   5
187
 100
AcDbEntity
   8
LEVEL001
 100
AcDbLine
   6
CONTINUOUS
  62
1
  10
 351.71784160782
  20
 216.67930893128
  30
0.0
  11
 352.71784160782
  21
 215.67930893128
  31
0.0
   0
LINE
   5
188
 100
AcDbEntity
   8
LEVEL001
 100
AcDbLine
   6
CONTINUOUS
  62
1
  10
 351.71784160782
  20
 217.38641571128
  30
0.0
  11
 352.71784160782
  21
 216.38641571128
  31
0.0
   0
LINE
   5
189
 100
AcDbEntity
   8
LEVEL001
 100
AcDbLine
   6
CONTINUOUS
  62
1
  10
 351.71784160782
  20
 218.09352249128
  30
0.0
  11
 352.71784160782
  21
 217.09352249128
  31
0.0
   0
LINE
   5
18A
 100
AcDbEntity
   8
LEVEL001
 100
AcDbLine
   6
CONTINUOUS
  62
1
  10
 351.71784160782
  20
 218.80062927128
  30
0.0
  11
 352.71784160782
  21
 217.80062927128
  31
0.0
   0
LINE
   5
18B
 100
AcDbEntity
   8
LEVEL001
 100
AcDbLine
   6
CONTINUOUS
  62
1
  10
 351.71784160782
  20
 219.50773605128
  30
0.0
  11
 352.71784160782
  21
 218.50773605128
  31
0.0
   0
LINE
   5
18C
 100
AcDbEntity
   8
LEVEL001
 100
AcDbLine
   6
CONTINUOUS
  62
1
  10
 351.71784160782
  20
 220.21484283128
  30
0.0
  11
 352.71784160782
  21
 219.21484283128
  31
0.0
   0
LINE
   5
18D
 100
AcDbEntity
   8
LEVEL001
 100
AcDbLine
   6
CONTINUOUS
  62
1
  10
 351.71784160782
  20
 220.92194961128
  30
0.0
  11
 352.71784160782
  21
 219.92194961128
  31
0.0
   0
LINE
   5
18E
 100
AcDbEntity
   8
LEVEL001
 100
AcDbLine
   6
CONTINUOUS
  62
1
  10
 351.71784160782
  20
 221.62905639128
  30
0.0
  11
 352.71784160782
  21
 220.62905639128
  31
0.0
   0
LINE
   5
18F
 100
AcDbEntity
   8
LEVEL001
 100
AcDbLine
   6
CONTINUOUS
  62
1
  10
 351.71784160782
  20
 222.33616317128
  30
0.0
  11
 352.71784160782
  21
 221.33616317128
  31
0.0
   0
LINE
   5
190
 100
AcDbEntity
   8
LEVEL001
 100
AcDbLine
   6
CONTINUOUS
  62
1
  10
 351.71784160782
  20
 223.04326995128
  30
0.0
  11
 352.71784160782
  21
 222.04326995128
  31
0.0
   0
LINE
   5
191
 100
AcDbEntity
   8
LEVEL001
 100
AcDbLine
   6
CONTINUOUS
  62
1
  10
 351.71784160782
  20
 223.75037673128
  30
0.0
  11
 352.71784160782
  21
 222.75037673128
  31
0.0
   0
LINE
   5
192
 100
AcDbEntity
   8
LEVEL001
 100
AcDbLine
   6
CONTINUOUS
  62
1
  10
 351.71784160782
  20
 224.45748351128
  30
0.0
  11
 352.71784160782
  21
 223.45748351128
  31
0.0
   0
LINE
   5
193
 100
AcDbEntity
   8
LEVEL001
 100
AcDbLine
   6
CONTINUOUS
  62
1
  10
 351.71784160782
  20
 225.16459029128
  30
0.0
  11
 352.71784160782
  21
 224.16459029128
  31
0.0
   0
LINE
   5
194
 100
AcDbEntity
   8
LEVEL001
 100
AcDbLine
   6
CONTINUOUS
  62
1
  10
 351.71784160782
  20
 225.87169707128
  30
0.0
  11
 352.71784160782
  21
 224.87169707128
  31
0.0
   0
LINE
   5
195
 100
AcDbEntity
   8
LEVEL001
 100
AcDbLine
   6
CONTINUOUS
  62
1
  10
 351.71784160782
  20
 226.57880385128
  30
0.0
  11
 352.71784160782
  21
 225.57880385128
  31
0.0
   0
LINE
   5
196
 100
AcDbEntity
   8
LEVEL001
 100
AcDbLine
   6
CONTINUOUS
  62
1
  10
 351.71784160782
  20
 227.28591063128
  30
0.0
  11
 352.71784160782
  21
 226.28591063128
  31
0.0
   0
LINE
   5
197
 100
AcDbEntity
   8
LEVEL001
 100
AcDbLine
   6
CONTINUOUS
  62
1
  10
 351.71784160782
  20
 227.99301741128
  30
0.0
  11
 352.71784160782
  21
 226.99301741128
  31
0.0
   0
LINE
   5
198
 100
AcDbEntity
   8
LEVEL001
 100
AcDbLine
   6
CONTINUOUS
  62
1
  10
 351.71784160782
  20
 228.70012419128
  30
0.0
  11
 352.71784160782
  21
 227.70012419128
  31
0.0
   0
LINE
   5
199
 100
AcDbEntity
   8
LEVEL001
 100
AcDbLine
   6
CONTINUOUS
  62
1
  10
 351.71784160782
  20
 229.40723097128
  30
0.0
  11
 352.71784160782
  21
 228.40723097128
  31
0.0
   0
LINE
   5
19A
 100
AcDbEntity
   8
LEVEL001
 100
AcDbLine
   6
CONTINUOUS
  62
1
  10
 351.71784160782
  20
 230.11433775128
  30
0.0
  11
 352.71784160782
  21
 229.11433775128
  31
0.0
   0
LINE
   5
19B
 100
AcDbEntity
   8
LEVEL001
 100
AcDbLine
   6
CONTINUOUS
  62
1
  10
 351.71784160782
  20
 230.82144453128
  30
0.0
  11
 352.71784160782
  21
 229.82144453128
  31
0.0
   0
LINE
   5
19C
 100
AcDbEntity
   8
LEVEL001
 100
AcDbLine
   6
CONTINUOUS
  62
1
  10
 351.71784160782
  20
 231.52855131128
  30
0.0
  11
 352.71784160782
  21
 230.52855131128
  31
0.0
   0
LINE
   5
19D
 100
AcDbEntity
   8
LEVEL001
 100
AcDbLine
   6
CONTINUOUS
  62
1
  10
 351.71784160782
  20
 232.23565809128
  30
0.0
  11
 352.71784160782
  21
 231.23565809128
  31
0.0
   0
LINE
   5
19E
 100
AcDbEntity
   8
LEVEL001
 100
AcDbLine
   6
CONTINUOUS
  62
1
  10
 351.71784160782
  20
 232.94276487128
  30
0.0
  11
 352.71784160782
  21
 231.94276487128
  31
0.0
   0
LINE
   5
19F
 100
AcDbEntity
   8
LEVEL001
 100
AcDbLine
   6
CONTINUOUS
  62
1
  10
 351.71784160782
  20
 233.64987165128
  30
0.0
  11
 352.71784160782
  21
 232.64987165128
  31
0.0
   0
LINE
   5
1A0
 100
AcDbEntity
   8
LEVEL001
 100
AcDbLine
   6
CONTINUOUS
  62
1
  10
 351.71784160782
  20
 234.35697843128
  30
0.0
  11
 352.71784160782
  21
 233.35697843128
  31
0.0
   0
LINE
   5
1A1
 100
AcDbEntity
   8
LEVEL001
 100
AcDbLine
   6
CONTINUOUS
  62
1
  10
 351.71784160782
  20
 235.06408521128
  30
0.0
  11
 352.71784160782
  21
 234.06408521128
  31
0.0
   0
LINE
   5
1A2
 100
AcDbEntity
   8
LEVEL001
 100
AcDbLine
   6
CONTINUOUS
  62
1
  10
 351.71784160782
  20
 235.77119199128
  30
0.0
  11
 352.71784160782
  21
 234.77119199128
  31
0.0
   0
LINE
   5
1A3
 100
AcDbEntity
   8
LEVEL001
 100
AcDbLine
   6
CONTINUOUS
  62
1
  10
 351.71784160782
  20
 236.47829877128
  30
0.0
  11
 352.71784160782
  21
 235.47829877128
  31
0.0
   0
LINE
   5
1A4
 100
AcDbEntity
   8
LEVEL001
 100
AcDbLine
   6
CONTINUOUS
  62
1
  10
 351.71784160782
  20
 237.18540555128
  30
0.0
  11
 352.71784160782
  21
 236.18540555128
  31
0.0
   0
LINE
   5
1A5
 100
AcDbEntity
   8
LEVEL001
 100
AcDbLine
   6
CONTINUOUS
  62
1
  10
 351.71784160782
  20
 237.89251233128
  30
0.0
  11
 352.71784160782
  21
 236.89251233128
  31
0.0
   0
LINE
   5
1A6
 100
AcDbEntity
   8
LEVEL001
 100
AcDbLine
   6
CONTINUOUS
  62
1
  10
 351.71784160782
  20
 238.59961911128
  30
0.0
  11
 352.71784160782
  21
 237.59961911128
  31
0.0
   0
LINE
   5
1A7
 100
AcDbEntity
   8
LEVEL001
 100
AcDbLine
   6
CONTINUOUS
  62
1
  10
 351.71784160782
  20
 239.30672589128
  30
0.0
  11
 352.71784160782
  21
 238.30672589128
  31
0.0
   0
LINE
   5
1A8
 100
AcDbEntity
   8
LEVEL001
 100
AcDbLine
   6
CONTINUOUS
  62
1
  10
 351.71784160782
  20
 240.01383267128
  30
0.0
  11
 352.71784160782
  21
 239.01383267128
  31
0.0
   0
LINE
   5
1A9
 100
AcDbEntity
   8
LEVEL001
 100
AcDbLine
   6
CONTINUOUS
  62
1
  10
 351.71784160782
  20
 240.72093945128
  30
0.0
  11
 352.71784160782
  21
 239.72093945128
  31
0.0
   0
LINE
   5
1AA
 100
AcDbEntity
   8
LEVEL001
 100
AcDbLine
   6
CONTINUOUS
  62
1
  10
 351.71784160782
  20
 241.42804623128
  30
0.0
  11
 352.71784160782
  21
 240.42804623128
  31
0.0
   0
LINE
   5
1AB
 100
AcDbEntity
   8
LEVEL001
 100
AcDbLine
   6
CONTINUOUS
  62
1
  10
 351.71784160782
  20
 242.13515301128
  30
0.0
  11
 352.71784160782
  21
 241.13515301128
  31
0.0
   0
LINE
   5
1AC
 100
AcDbEntity
   8
LEVEL001
 100
AcDbLine
   6
CONTINUOUS
  62
1
  10
 351.71784160782
  20
 242.84225979128
  30
0.0
  11
 352.71784160782
  21
 241.84225979128
  31
0.0
   0
LINE
   5
1AD
 100
AcDbEntity
   8
LEVEL001
 100
AcDbLine
   6
CONTINUOUS
  62
1
  10
 351.73824061168
  20
 243.52896756742
  30
0.0
  11
 352.71784160782
  21
 242.54936657128
  31
0.0
   0
LINE
   5
1AE
 100
AcDbEntity
   8
LEVEL001
 100
AcDbLine
   6
CONTINUOUS
  62
1
  10
 352.44534739168
  20
 243.52896756742
  30
0.0
  11
 352.71784160782
  21
 243.25647335128
  31
0.0
   0
ENDBLK
   5
1AF
 100
AcDbEntity
   8
0
 100
AcDbBlockEnd
   0
BLOCK
   5
1B0
 100
AcDbEntity
   8
0
 100
AcDbBlockBegin
   2
*D15
  70
65
  10
0.0
  20
0.0
  30
0.0
   3
*D15
   0
LINE
   5
1B1
 100
AcDbEntity
   8
LEVEL001
 100
AcDbLine
   6
CONTINUOUS
  62
2
  10
 324.71784160782
  20
 177.39294217478
  30
0.0
  11
 324.71784160782
  21
 123.94198775175
  31
0.0
   0
LINE
   5
1B2
 100
AcDbEntity
   8
LEVEL001
 100
AcDbLine
   6
CONTINUOUS
  62
2
  10
 351.71784160782
  20
 148.52896756742
  30
0.0
  11
 351.71784160782
  21
 123.94198775175
  31
0.0
   0
LINE
   5
1B3
 100
AcDbEntity
   8
LEVEL001
 100
AcDbLine
   6
CONTINUOUS
  62
2
  10
 324.71784160782
  20
 125.94198775175
  30
0.0
  11
 338.21784160782
  21
 125.94198775175
  31
0.0
   0
LINE
   5
1B4
 100
AcDbEntity
   8
LEVEL001
 100
AcDbLine
   6
CONTINUOUS
  62
2
  10
 351.71784160782
  20
 125.94198775175
  30
0.0
  11
 338.21784160782
  21
 125.94198775175
  31
0.0
   0
INSERT
   5
1B5
 100
AcDbEntity
   8
LEVEL001
   6
CONTINUOUS
  62
2
 100
AcDbBlockReference
   2
_OPEN30
  10
 324.71784160782
  20
 125.94198775175
  30
0.0
  41
 2.0000000000000
  42
 2.0000000000000
  43
 2.0000000000000
  50
 180.00000000000
   0
INSERT
   5
1B6
 100
AcDbEntity
   8
LEVEL001
   6
CONTINUOUS
  62
2
 100
AcDbBlockReference
   2
_OPEN30
  10
 351.71784160782
  20
 125.94198775175
  30
0.0
  41
 2.0000000000000
  42
 2.0000000000000
  43
 2.0000000000000
  50
0.0
   0
MTEXT
   5
1B7
 100
AcDbEntity
   8
LEVEL001
  62
2
 100
AcDbMText
  10
 338.21784160782
  20
 127.57055918032
  30
0.0
  40
 3.8000000000000
  41
0.0
  71
8
  72
1
   1
\A1;27
   7
GMM002
   0
ENDBLK
   5
1B8
 100
AcDbEntity
   8
0
 100
AcDbBlockEnd
   0
BLOCK
   5
1B9
 100
AcDbEntity
   8
0
 100
AcDbBlockBegin
   2
HATCH002
  70
64
  10
0.0
  20
0.0
  30
0.0
   3
HATCH002
   0
LINE
   5
1BA
 100
AcDbEntity
   8
LEVEL001
 100
AcDbLine
   6
CONTINUOUS
  62
1
  10
 348.71784160782
  20
 246.43198523999
  30
0.0
  11
 350.81482393525
  21
 248.52896756742
  31
0.0
   0
LINE
   5
1BB
 100
AcDbEntity
   8
LEVEL001
 100
AcDbLine
   6
CONTINUOUS
  62
1
  10
 348.71784160782
  20
 245.01777167999
  30
0.0
  11
 351.71784160782
  21
 248.01777167999
  31
0.0
   0
LINE
   5
1BC
 100
AcDbEntity
   8
LEVEL001
 100
AcDbLine
   6
CONTINUOUS
  62
1
  10
 348.71784160782
  20
 243.60355811999
  30
0.0
  11
 351.71784160782
  21
 246.60355811999
  31
0.0
   0
LINE
   5
1BD
 100
AcDbEntity
   8
LEVEL001
 100
AcDbLine
   6
CONTINUOUS
  62
1
  10
 348.71784160782
  20
 242.18934455999
  30
0.0
  11
 351.71784160782
  21
 245.18934455999
  31
0.0
   0
LINE
   5
1BE
 100
AcDbEntity
   8
LEVEL001
 100
AcDbLine
   6
CONTINUOUS
  62
1
  10
 348.71784160782
  20
 240.77513099999
  30
0.0
  11
 351.71784160782
  21
 243.77513099999
  31
0.0
   0
LINE
   5
1BF
 100
AcDbEntity
   8
LEVEL001
 100
AcDbLine
   6
CONTINUOUS
  62
1
  10
 348.71784160782
  20
 239.36091743999
  30
0.0
  11
 351.71784160782
  21
 242.36091743999
  31
0.0
   0
LINE
   5
1C0
 100
AcDbEntity
   8
LEVEL001
 100
AcDbLine
   6
CONTINUOUS
  62
1
  10
 348.71784160782
  20
 237.94670387999
  30
0.0
  11
 351.71784160782
  21
 240.94670387999
  31
0.0
   0
LINE
   5
1C1
 100
AcDbEntity
   8
LEVEL001
 100
AcDbLine
   6
CONTINUOUS
  62
1
  10
 348.71784160782
  20
 236.53249031999
  30
0.0
  11
 351.71784160782
  21
 239.53249031999
  31
0.0
   0
LINE
   5
1C2
 100
AcDbEntity
   8
LEVEL001
 100
AcDbLine
   6
CONTINUOUS
  62
1
  10
 348.71784160782
  20
 235.11827675999
  30
0.0
  11
 351.71784160782
  21
 238.11827675999
  31
0.0
   0
LINE
   5
1C3
 100
AcDbEntity
   8
LEVEL001
 100
AcDbLine
   6
CONTINUOUS
  62
1
  10
 348.71784160782
  20
 233.70406319999
  30
0.0
  11
 351.71784160782
  21
 236.70406319999
  31
0.0
   0
LINE
   5
1C4
 100
AcDbEntity
   8
LEVEL001
 100
AcDbLine
   6
CONTINUOUS
  62
1
  10
 348.71784160782
  20
 232.28984963999
  30
0.0
  11
 351.71784160782
  21
 235.28984963999
  31
0.0
   0
LINE
   5
1C5
 100
AcDbEntity
   8
LEVEL001
 100
AcDbLine
   6
CONTINUOUS
  62
1
  10
 348.71784160782
  20
 230.87563607999
  30
0.0
  11
 351.71784160782
  21
 233.87563607999
  31
0.0
   0
LINE
   5
1C6
 100
AcDbEntity
   8
LEVEL001
 100
AcDbLine
   6
CONTINUOUS
  62
1
  10
 348.71784160782
  20
 229.46142251999
  30
0.0
  11
 351.71784160782
  21
 232.46142251999
  31
0.0
   0
LINE
   5
1C7
 100
AcDbEntity
   8
LEVEL001
 100
AcDbLine
   6
CONTINUOUS
  62
1
  10
 348.71784160782
  20
 228.04720895999
  30
0.0
  11
 351.71784160782
  21
 231.04720895999
  31
0.0
   0
LINE
   5
1C8
 100
AcDbEntity
   8
LEVEL001
 100
AcDbLine
   6
CONTINUOUS
  62
1
  10
 348.71784160782
  20
 226.63299539999
  30
0.0
  11
 351.71784160782
  21
 229.63299539999
  31
0.0
   0
LINE
   5
1C9
 100
AcDbEntity
   8
LEVEL001
 100
AcDbLine
   6
CONTINUOUS
  62
1
  10
 348.71784160782
  20
 225.21878183999
  30
0.0
  11
 351.71784160782
  21
 228.21878183999
  31
0.0
   0
LINE
   5
1CA
 100
AcDbEntity
   8
LEVEL001
 100
AcDbLine
   6
CONTINUOUS
  62
1
  10
 348.71784160782
  20
 223.80456827999
  30
0.0
  11
 351.71784160782
  21
 226.80456827999
  31
0.0
   0
LINE
   5
1CB
 100
AcDbEntity
   8
LEVEL001
 100
AcDbLine
   6
CONTINUOUS
  62
1
  10
 348.71784160782
  20
 222.39035471999
  30
0.0
  11
 351.71784160782
  21
 225.39035471999
  31
0.0
   0
LINE
   5
1CC
 100
AcDbEntity
   8
LEVEL001
 100
AcDbLine
   6
CONTINUOUS
  62
1
  10
 348.71784160782
  20
 220.97614115999
  30
0.0
  11
 351.71784160782
  21
 223.97614115999
  31
0.0
   0
LINE
   5
1CD
 100
AcDbEntity
   8
LEVEL001
 100
AcDbLine
   6
CONTINUOUS
  62
1
  10
 348.71784160782
  20
 219.56192759999
  30
0.0
  11
 351.71784160782
  21
 222.56192759999
  31
0.0
   0
LINE
   5
1CE
 100
AcDbEntity
   8
LEVEL001
 100
AcDbLine
   6
CONTINUOUS
  62
1
  10
 348.71784160782
  20
 218.14771403999
  30
0.0
  11
 351.71784160782
  21
 221.14771403999
  31
0.0
   0
LINE
   5
1CF
 100
AcDbEntity
   8
LEVEL001
 100
AcDbLine
   6
CONTINUOUS
  62
1
  10
 348.71784160782
  20
 216.73350047999
  30
0.0
  11
 351.71784160782
  21
 219.73350047999
  31
0.0
   0
LINE
   5
1D0
 100
AcDbEntity
   8
LEVEL001
 100
AcDbLine
   6
CONTINUOUS
  62
1
  10
 349.66033338869
  20
 216.26177870086
  30
0.0
  11
 351.71784160782
  21
 218.31928691999
  31
0.0
   0
LINE
   5
1D1
 100
AcDbEntity
   8
LEVEL001
 100
AcDbLine
   6
CONTINUOUS
  62
1
  10
 349.71784160782
  20
 214.90507335999
  30
0.0
  11
 351.71784160782
  21
 216.90507335999
  31
0.0
   0
LINE
   5
1D2
 100
AcDbEntity
   8
LEVEL001
 100
AcDbLine
   6
CONTINUOUS
  62
1
  10
 349.71784160782
  20
 213.49085979999
  30
0.0
  11
 351.71784160782
  21
 215.49085979999
  31
0.0
   0
LINE
   5
1D3
 100
AcDbEntity
   8
LEVEL001
 100
AcDbLine
   6
CONTINUOUS
  62
1
  10
 350.92016293525
  20
 213.27896756742
  30
0.0
  11
 351.71784160782
  21
 214.07664623999
  31
0.0
   0
LINE
   5
1D4
 100
AcDbEntity
   8
LEVEL001
 100
AcDbLine
   6
CONTINUOUS
  62
1
  10
 351.21784160782
  20
 212.16243267999
  30
0.0
  11
 351.71784160782
  21
 212.66243267999
  31
0.0
   0
LINE
   5
1D5
 100
AcDbEntity
   8
LEVEL001
 100
AcDbLine
   6
CONTINUOUS
  62
1
  10
 351.21784160782
  20
 210.74821911999
  30
0.0
  11
 351.71784160782
  21
 211.24821911999
  31
0.0
   0
LINE
   5
1D6
 100
AcDbEntity
   8
LEVEL001
 100
AcDbLine
   6
CONTINUOUS
  62
1
  10
 349.71784160782
  20
 207.83400555999
  30
0.0
  11
 350.66280361525
  21
 208.77896756742
  31
0.0
   0
LINE
   5
1D7
 100
AcDbEntity
   8
LEVEL001
 100
AcDbLine
   6
CONTINUOUS
  62
1
  10
 351.21784160782
  20
 209.33400555999
  30
0.0
  11
 351.71784160782
  21
 209.83400555999
  31
0.0
   0
LINE
   5
1D8
 100
AcDbEntity
   8
LEVEL001
 100
AcDbLine
   6
CONTINUOUS
  62
1
  10
 324.72064326513
  20
 181.42259365731
  30
0.0
  11
 325.64303876464
  21
 182.34498915682
  31
0.0
   0
LINE
   5
1D9
 100
AcDbEntity
   8
LEVEL001
 100
AcDbLine
   6
CONTINUOUS
  62
1
  10
 348.71784160782
  20
 205.41979199999
  30
0.0
  11
 348.82701717525
  21
 205.52896756742
  31
0.0
   0
LINE
   5
1DA
 100
AcDbEntity
   8
LEVEL001
 100
AcDbLine
   6
CONTINUOUS
  62
1
  10
 349.71784160782
  20
 206.41979199999
  30
0.0
  11
 351.71784160782
  21
 208.41979199999
  31
0.0
   0
LINE
   5
1DB
 100
AcDbEntity
   8
LEVEL001
 100
AcDbLine
   6
CONTINUOUS
  62
1
  10
 324.71784160782
  20
 180.00557843999
  30
0.0
  11
 327.09649816698
  21
 182.38423499915
  31
0.0
   0
LINE
   5
1DC
 100
AcDbEntity
   8
LEVEL001
 100
AcDbLine
   6
CONTINUOUS
  62
1
  10
 348.71784160782
  20
 204.00557843999
  30
0.0
  11
 351.71784160782
  21
 207.00557843999
  31
0.0
   0
LINE
   5
1DD
 100
AcDbEntity
   8
LEVEL001
 100
AcDbLine
   6
CONTINUOUS
  62
1
  10
 324.71784160782
  20
 178.59136487999
  30
0.0
  11
 328.54874001819
  21
 182.42226329037
  31
0.0
   0
LINE
   5
1DE
 100
AcDbEntity
   8
LEVEL001
 100
AcDbLine
   6
CONTINUOUS
  62
1
  10
 348.71784160782
  20
 202.59136487999
  30
0.0
  11
 351.71784160782
  21
 205.59136487999
  31
0.0
   0
LINE
   5
1DF
 100
AcDbEntity
   8
LEVEL001
 100
AcDbLine
   6
CONTINUOUS
  62
1
  10
 324.73730351803
  20
 177.19661323020
  30
0.0
  11
 326.71784160782
  21
 179.17715131999
  31
0.0
   0
LINE
   5
1E0
 100
AcDbEntity
   8
LEVEL001
 100
AcDbLine
   6
CONTINUOUS
  62
1
  10
 327.94649772372
  20
 180.40580743590
  30
0.0
  11
 330.00098186941
  21
 182.46029158158
  31
0.0
   0
LINE
   5
1E1
 100
AcDbEntity
   8
LEVEL001
 100
AcDbLine
   6
CONTINUOUS
  62
1
  10
 348.71784160782
  20
 201.17715131999
  30
0.0
  11
 351.71784160782
  21
 204.17715131999
  31
0.0
   0
LINE
   5
1E2
 100
AcDbEntity
   8
LEVEL001
 100
AcDbLine
   6
CONTINUOUS
  62
1
  10
 325.39977698672
  20
 176.44487313889
  30
0.0
  11
 327.26797910480
  21
 178.31307525698
  31
0.0
   0
LINE
   5
1E3
 100
AcDbEntity
   8
LEVEL001
 100
AcDbLine
   6
CONTINUOUS
  62
1
  10
 329.39873957494
  20
 180.44383572711
  30
0.0
  11
 331.45322372063
  21
 182.49831987280
  31
0.0
   0
LINE
   5
1E4
 100
AcDbEntity
   8
LEVEL001
 100
AcDbLine
   6
CONTINUOUS
  62
1
  10
 348.71784160782
  20
 199.76293775999
  30
0.0
  11
 351.71784160782
  21
 202.76293775999
  31
0.0
   0
LINE
   5
1E5
 100
AcDbEntity
   8
LEVEL001
 100
AcDbLine
   6
CONTINUOUS
  62
1
  10
 326.70875563308
  20
 176.33963822526
  30
0.0
  11
 328.61176768927
  21
 178.24265028144
  31
0.0
   0
LINE
   5
1E6
 100
AcDbEntity
   8
LEVEL001
 100
AcDbLine
   6
CONTINUOUS
  62
1
  10
 330.85098142615
  20
 180.48186401833
  30
0.0
  11
 332.90546557184
  21
 182.53634816401
  31
0.0
   0
LINE
   5
1E7
 100
AcDbEntity
   8
LEVEL001
 100
AcDbLine
   6
CONTINUOUS
  62
1
  10
 348.71784160782
  20
 198.34872419999
  30
0.0
  11
 351.71784160782
  21
 201.34872419999
  31
0.0
   0
LINE
   5
1E8
 100
AcDbEntity
   8
LEVEL001
 100
AcDbLine
   6
CONTINUOUS
  62
1
  10
 328.05254421755
  20
 176.26921324972
  30
0.0
  11
 329.95555627373
  21
 178.17222530590
  31
0.0
   0
LINE
   5
1E9
 100
AcDbEntity
   8
LEVEL001
 100
AcDbLine
   6
CONTINUOUS
  62
1
  10
 332.30322327737
  20
 180.51989230954
  30
0.0
  11
 334.35770742306
  21
 182.57437645523
  31
0.0
   0
LINE
   5
1EA
 100
AcDbEntity
   8
LEVEL001
 100
AcDbLine
   6
CONTINUOUS
  62
1
  10
 348.71784160782
  20
 196.93451063999
  30
0.0
  11
 351.71784160782
  21
 199.93451063999
  31
0.0
   0
LINE
   5
1EB
 100
AcDbEntity
   8
LEVEL001
 100
AcDbLine
   6
CONTINUOUS
  62
1
  10
 329.39633280201
  20
 176.19878827418
  30
0.0
  11
 331.29934485819
  21
 178.10180033036
  31
0.0
   0
LINE
   5
1EC
 100
AcDbEntity
   8
LEVEL001
 100
AcDbLine
   6
CONTINUOUS
  62
1
  10
 333.75546512859
  20
 180.55792060076
  30
0.0
  11
 335.80994927427
  21
 182.61240474644
  31
0.0
   0
LINE
   5
1ED
 100
AcDbEntity
   8
LEVEL001
 100
AcDbLine
   6
CONTINUOUS
  62
1
  10
 349.57570366192
  20
 196.37815913409
  30
0.0
  11
 351.71784160782
  21
 198.52029707999
  31
0.0
   0
LINE
   5
1EE
 100
AcDbEntity
   8
LEVEL001
 100
AcDbLine
   6
CONTINUOUS
  62
1
  10
 330.74012138647
  20
 176.12836329864
  30
0.0
  11
 332.64313344265
  21
 178.03137535483
  31
0.0
   0
LINE
   5
1EF
 100
AcDbEntity
   8
LEVEL001
 100
AcDbLine
   6
CONTINUOUS
  62
1
  10
 335.20770697980
  20
 180.59594889197
  30
0.0
  11
 337.26219112549
  21
 182.65043303766
  31
0.0
   0
LINE
   5
1F0
 100
AcDbEntity
   8
LEVEL001
 100
AcDbLine
   6
CONTINUOUS
  62
1
  10
 349.71784160782
  20
 195.10608351999
  30
0.0
  11
 351.71784160782
  21
 197.10608351999
  31
0.0
   0
LINE
   5
1F1
 100
AcDbEntity
   8
LEVEL001
 100
AcDbLine
   6
CONTINUOUS
  62
1
  10
 332.08390997093
  20
 176.05793832311
  30
0.0
  11
 333.98692202712
  21
 177.96095037929
  31
0.0
   0
LINE
   5
1F2
 100
AcDbEntity
   8
LEVEL001
 100
AcDbLine
   6
CONTINUOUS
  62
1
  10
 336.65994883102
  20
 180.63397718319
  30
0.0
  11
 338.71443297670
  21
 182.68846132887
  31
0.0
   0
LINE
   5
1F3
 100
AcDbEntity
   8
LEVEL001
 100
AcDbLine
   6
CONTINUOUS
  62
1
  10
 349.71784160782
  20
 193.69186995999
  30
0.0
  11
 351.71784160782
  21
 195.69186995999
  31
0.0
   0
LINE
   5
1F4
 100
AcDbEntity
   8
LEVEL001
 100
AcDbLine
   6
CONTINUOUS
  62
1
  10
 333.42769855540
  20
 175.98751334757
  30
0.0
  11
 335.33071061158
  21
 177.89052540375
  31
0.0
   0
LINE
   5
1F5
 100
AcDbEntity
   8
LEVEL001
 100
AcDbLine
   6
CONTINUOUS
  62
1
  10
 338.11219068223
  20
 180.67200547440
  30
0.0
  11
 340.16667482792
  21
 182.72648962009
  31
0.0
   0
LINE
   5
1F6
 100
AcDbEntity
   8
LEVEL001
 100
AcDbLine
   6
CONTINUOUS
  62
1
  10
 350.71915277525
  20
 193.27896756742
  30
0.0
  11
 351.71784160782
  21
 194.27765639999
  31
0.0
   0
LINE
   5
1F7
 100
AcDbEntity
   8
LEVEL001
 100
AcDbLine
   6
CONTINUOUS
  62
1
  10
 334.77148713986
  20
 175.91708837203
  30
0.0
  11
 336.67449919604
  21
 177.82010042821
  31
0.0
   0
LINE
   5
1F8
 100
AcDbEntity
   8
LEVEL001
 100
AcDbLine
   6
CONTINUOUS
  62
1
  10
 339.56443253345
  20
 180.71003376562
  30
0.0
  11
 341.61891667913
  21
 182.76451791131
  31
0.0
   0
LINE
   5
1F9
 100
AcDbEntity
   8
LEVEL001
 100
AcDbLine
   6
CONTINUOUS
  62
1
  10
 351.21784160782
  20
 192.36344283999
  30
0.0
  11
 351.71784160782
  21
 192.86344283999
  31
0.0
   0
LINE
   5
1FA
 100
AcDbEntity
   8
LEVEL001
 100
AcDbLine
   6
CONTINUOUS
  62
1
  10
 336.11527572432
  20
 175.84666339649
  30
0.0
  11
 338.01828778050
  21
 177.74967545268
  31
0.0
   0
LINE
   5
1FB
 100
AcDbEntity
   8
LEVEL001
 100
AcDbLine
   6
CONTINUOUS
  62
1
  10
 341.01667438466
  20
 180.74806205684
  30
0.0
  11
 343.07115853035
  21
 182.80254620252
  31
0.0
   0
LINE
   5
1FC
 100
AcDbEntity
   8
LEVEL001
 100
AcDbLine
   6
CONTINUOUS
  62
1
  10
 351.21784160782
  20
 190.94922927999
  30
0.0
  11
 351.71784160782
  21
 191.44922927999
  31
0.0
   0
LINE
   5
1FD
 100
AcDbEntity
   8
LEVEL001
 100
AcDbLine
   6
CONTINUOUS
  62
1
  10
 337.45906430878
  20
 175.77623842096
  30
0.0
  11
 339.36207636497
  21
 177.67925047714
  31
0.0
   0
LINE
   5
1FE
 100
AcDbEntity
   8
LEVEL001
 100
AcDbLine
   6
CONTINUOUS
  62
1
  10
 342.46891623588
  20
 180.78609034805
  30
0.0
  11
 344.52340038156
  21
 182.84057449374
  31
0.0
   0
LINE
   5
1FF
 100
AcDbEntity
   8
LEVEL001
 100
AcDbLine
   6
CONTINUOUS
  62
1
  10
 349.71784160782
  20
 188.03501571999
  30
0.0
  11
 350.46179345525
  21
 188.77896756742
  31
0.0
   0
LINE
   5
200
 100
AcDbEntity
   8
LEVEL001
 100
AcDbLine
   6
CONTINUOUS
  62
1
  10
 351.21784160782
  20
 189.53501571999
  30
0.0
  11
 351.71784160782
  21
 190.03501571999
  31
0.0
   0
LINE
   5
201
 100
AcDbEntity
   8
LEVEL001
 100
AcDbLine
   6
CONTINUOUS
  62
1
  10
 338.80285289325
  20
 175.70581344542
  30
0.0
  11
 340.70586494943
  21
 177.60882550160
  31
0.0
   0
LINE
   5
202
 100
AcDbEntity
   8
LEVEL001
 100
AcDbLine
   6
CONTINUOUS
  62
1
  10
 343.92115808709
  20
 180.82411863927
  30
0.0
  11
 345.97564223278
  21
 182.87860278495
  31
0.0
   0
LINE
   5
203
 100
AcDbEntity
   8
LEVEL001
 100
AcDbLine
   6
CONTINUOUS
  62
1
  10
 349.71784160782
  20
 186.62080215999
  30
0.0
  11
 351.71784160782
  21
 188.62080215999
  31
0.0
   0
LINE
   5
204
 100
AcDbEntity
   8
LEVEL001
 100
AcDbLine
   6
CONTINUOUS
  62
1
  10
 340.14664147771
  20
 175.63538846988
  30
0.0
  11
 342.04965353389
  21
 177.53840052606
  31
0.0
   0
LINE
   5
205
 100
AcDbEntity
   8
LEVEL001
 100
AcDbLine
   6
CONTINUOUS
  62
1
  10
 345.37339993831
  20
 180.86214693048
  30
0.0
  11
 347.42788408400
  21
 182.91663107617
  31
0.0
   0
LINE
   5
206
 100
AcDbEntity
   8
LEVEL001
 100
AcDbLine
   6
CONTINUOUS
  62
1
  10
 348.71784160782
  20
 184.20658859999
  30
0.0
  11
 351.71784160782
  21
 187.20658859999
  31
0.0
   0
LINE
   5
207
 100
AcDbEntity
   8
LEVEL001
 100
AcDbLine
   6
CONTINUOUS
  62
1
  10
 341.49043006217
  20
 175.56496349434
  30
0.0
  11
 343.39344211835
  21
 177.46797555053
  31
0.0
   0
LINE
   5
208
 100
AcDbEntity
   8
LEVEL001
 100
AcDbLine
   6
CONTINUOUS
  62
1
  10
 346.82564178952
  20
 180.90017522170
  30
0.0
  11
 351.71784160782
  21
 185.79237503999
  31
0.0
   0
LINE
   5
209
 100
AcDbEntity
   8
LEVEL001
 100
AcDbLine
   6
CONTINUOUS
  62
1
  10
 342.83421864663
  20
 175.49453851880
  30
0.0
  11
 344.73723070282
  21
 177.39755057499
  31
0.0
   0
LINE
   5
20A
 100
AcDbEntity
   8
LEVEL001
 100
AcDbLine
   6
CONTINUOUS
  62
1
  10
 348.27788364074
  20
 180.93820351291
  30
0.0
  11
 351.71784160782
  21
 184.37816147999
  31
0.0
   0
LINE
   5
20B
 100
AcDbEntity
   8
LEVEL001
 100
AcDbLine
   6
CONTINUOUS
  62
1
  10
 344.17800723110
  20
 175.42411354327
  30
0.0
  11
 346.08101928728
  21
 177.32712559945
  31
0.0
   0
LINE
   5
20C
 100
AcDbEntity
   8
LEVEL001
 100
AcDbLine
   6
CONTINUOUS
  62
1
  10
 349.73012549196
  20
 180.97623180413
  30
0.0
  11
 351.71784160782
  21
 182.96394791999
  31
0.0
   0
LINE
   5
20D
 100
AcDbEntity
   8
LEVEL001
 100
AcDbLine
   6
CONTINUOUS
  62
1
  10
 345.52179581556
  20
 175.35368856773
  30
0.0
  11
 347.42480787174
  21
 177.25670062391
  31
0.0
   0
LINE
   5
20E
 100
AcDbEntity
   8
LEVEL001
 100
AcDbLine
   6
CONTINUOUS
  62
1
  10
 351.18236734317
  20
 181.01426009534
  30
0.0
  11
 351.71784160782
  21
 181.54973435999
  31
0.0
   0
LINE
   5
20F
 100
AcDbEntity
   8
LEVEL001
 100
AcDbLine
   6
CONTINUOUS
  62
1
  10
 346.86558440002
  20
 175.28326359219
  30
0.0
  11
 348.76859645620
  21
 177.18627564837
  31
0.0
   0
LINE
   5
210
 100
AcDbEntity
   8
LEVEL001
 100
AcDbLine
   6
CONTINUOUS
  62
1
  10
 348.14019292422
  20
 175.14365855639
  30
0.0
  11
 350.11238504066
  21
 177.11585067284
  31
0.0
   0
LINE
   5
211
 100
AcDbEntity
   8
LEVEL001
 100
AcDbLine
   6
CONTINUOUS
  62
1
  10
 348.71555539027
  20
 174.30480746244
  30
0.0
  11
 351.45617362513
  21
 177.04542569730
  31
0.0
   0
LINE
   5
212
 100
AcDbEntity
   8
LEVEL001
 100
AcDbLine
   6
CONTINUOUS
  62
1
  10
 348.71784160782
  20
 172.89288011999
  30
0.0
  11
 351.71784160782
  21
 175.89288011999
  31
0.0
   0
LINE
   5
213
 100
AcDbEntity
   8
LEVEL001
 100
AcDbLine
   6
CONTINUOUS
  62
1
  10
 348.71784160782
  20
 171.47866655999
  30
0.0
  11
 351.71784160782
  21
 174.47866655999
  31
0.0
   0
LINE
   5
214
 100
AcDbEntity
   8
LEVEL001
 100
AcDbLine
   6
CONTINUOUS
  62
1
  10
 348.71784160782
  20
 170.06445299999
  30
0.0
  11
 351.71784160782
  21
 173.06445299999
  31
0.0
   0
LINE
   5
215
 100
AcDbEntity
   8
LEVEL001
 100
AcDbLine
   6
CONTINUOUS
  62
1
  10
 348.71784160782
  20
 168.65023943999
  30
0.0
  11
 351.71784160782
  21
 171.65023943999
  31
0.0
   0
LINE
   5
216
 100
AcDbEntity
   8
LEVEL001
 100
AcDbLine
   6
CONTINUOUS
  62
1
  10
 348.71784160782
  20
 167.23602587999
  30
0.0
  11
 351.71784160782
  21
 170.23602587999
  31
0.0
   0
LINE
   5
217
 100
AcDbEntity
   8
LEVEL001
 100
AcDbLine
   6
CONTINUOUS
  62
1
  10
 348.71784160782
  20
 165.82181231999
  30
0.0
  11
 351.71784160782
  21
 168.82181231999
  31
0.0
   0
LINE
   5
218
 100
AcDbEntity
   8
LEVEL001
 100
AcDbLine
   6
CONTINUOUS
  62
1
  10
 348.71784160782
  20
 164.40759875999
  30
0.0
  11
 351.71784160782
  21
 167.40759875999
  31
0.0
   0
LINE
   5
219
 100
AcDbEntity
   8
LEVEL001
 100
AcDbLine
   6
CONTINUOUS
  62
1
  10
 348.71784160782
  20
 162.99338519999
  30
0.0
  11
 351.71784160782
  21
 165.99338519999
  31
0.0
   0
LINE
   5
21A
 100
AcDbEntity
   8
LEVEL001
 100
AcDbLine
   6
CONTINUOUS
  62
1
  10
 348.71784160782
  20
 161.57917163999
  30
0.0
  11
 351.71784160782
  21
 164.57917163999
  31
0.0
   0
LINE
   5
21B
 100
AcDbEntity
   8
LEVEL001
 100
AcDbLine
   6
CONTINUOUS
  62
1
  10
 348.71784160782
  20
 160.16495807999
  30
0.0
  11
 351.71784160782
  21
 163.16495807999
  31
0.0
   0
LINE
   5
21C
 100
AcDbEntity
   8
LEVEL001
 100
AcDbLine
   6
CONTINUOUS
  62
1
  10
 348.71784160782
  20
 158.75074451999
  30
0.0
  11
 351.71784160782
  21
 161.75074451999
  31
0.0
   0
LINE
   5
21D
 100
AcDbEntity
   8
LEVEL001
 100
AcDbLine
   6
CONTINUOUS
  62
1
  10
 348.71784160782
  20
 157.33653095999
  30
0.0
  11
 351.71784160782
  21
 160.33653095999
  31
0.0
   0
LINE
   5
21E
 100
AcDbEntity
   8
LEVEL001
 100
AcDbLine
   6
CONTINUOUS
  62
1
  10
 348.71784160782
  20
 155.92231739999
  30
0.0
  11
 351.71784160782
  21
 158.92231739999
  31
0.0
   0
LINE
   5
21F
 100
AcDbEntity
   8
LEVEL001
 100
AcDbLine
   6
CONTINUOUS
  62
1
  10
 348.71784160782
  20
 154.50810383999
  30
0.0
  11
 351.71784160782
  21
 157.50810383999
  31
0.0
   0
LINE
   5
220
 100
AcDbEntity
   8
LEVEL001
 100
AcDbLine
   6
CONTINUOUS
  62
1
  10
 348.71784160782
  20
 153.09389027999
  30
0.0
  11
 351.71784160782
  21
 156.09389027999
  31
0.0
   0
LINE
   5
221
 100
AcDbEntity
   8
LEVEL001
 100
AcDbLine
   6
CONTINUOUS
  62
1
  10
 348.71784160782
  20
 151.67967671999
  30
0.0
  11
 351.71784160782
  21
 154.67967671999
  31
0.0
   0
LINE
   5
222
 100
AcDbEntity
   8
LEVEL001
 100
AcDbLine
   6
CONTINUOUS
  62
1
  10
 348.73328482015
  20
 150.28090637232
  30
0.0
  11
 351.71784160782
  21
 153.26546315999
  31
0.0
   0
LINE
   5
223
 100
AcDbEntity
   8
LEVEL001
 100
AcDbLine
   6
CONTINUOUS
  62
1
  10
 349.15169754069
  20
 149.28510553287
  30
0.0
  11
 351.71784160782
  21
 151.85124959999
  31
0.0
   0
LINE
   5
224
 100
AcDbEntity
   8
LEVEL001
 100
AcDbLine
   6
CONTINUOUS
  62
1
  10
 349.95923028111
  20
 148.67842471328
  30
0.0
  11
 351.71784160782
  21
 150.43703603999
  31
0.0
   0
LINE
   5
225
 100
AcDbEntity
   8
LEVEL001
 100
AcDbLine
   6
CONTINUOUS
  62
1
  10
 351.22398669525
  20
 148.52896756742
  30
0.0
  11
 351.71784160782
  21
 149.02282247999
  31
0.0
   0
ENDBLK
   5
226
 100
AcDbEntity
   8
0
 100
AcDbBlockEnd
   0
BLOCK
   5
227
 100
AcDbEntity
   8
0
 100
AcDbBlockBegin
   2
*D16
  70
65
  10
0.0
  20
0.0
  30
0.0
   3
*D16
   0
LINE
   5
228
 100
AcDbEntity
   8
LEVEL001
 100
AcDbLine
   6
CONTINUOUS
  62
2
  10
 348.71784160782
  20
 150.52896756742
  30
0.0
  11
 348.71784160782
  21
 133.14116639651
  31
0.0
   0
LINE
   5
229
 100
AcDbEntity
   8
LEVEL001
 100
AcDbLine
   6
CONTINUOUS
  62
2
  10
 351.71784160782
  20
 148.52896756742
  30
0.0
  11
 351.71784160782
  21
 133.14116639651
  31
0.0
   0
LINE
   5
22A
 100
AcDbEntity
   8
LEVEL001
 100
AcDbLine
   6
CONTINUOUS
  62
2
  10
 346.21784160782
  20
 135.14116639651
  30
0.0
  11
 350.21784160782
  21
 135.14116639651
  31
0.0
   0
LINE
   5
22B
 100
AcDbEntity
   8
LEVEL001
 100
AcDbLine
   6
CONTINUOUS
  62
2
  10
 354.21784160782
  20
 135.14116639651
  30
0.0
  11
 350.21784160782
  21
 135.14116639651
  31
0.0
   0
INSERT
   5
22C
 100
AcDbEntity
   8
LEVEL001
   6
CONTINUOUS
  62
2
 100
AcDbBlockReference
   2
_OPEN30
  10
 348.71784160782
  20
 135.14116639651
  30
0.0
  41
 2.0000000000000
  42
 2.0000000000000
  43
 2.0000000000000
  50
0.0
   0
INSERT
   5
22D
 100
AcDbEntity
   8
LEVEL001
   6
CONTINUOUS
  62
2
 100
AcDbBlockReference
   2
_OPEN30
  10
 351.71784160782
  20
 135.14116639651
  30
0.0
  41
 2.0000000000000
  42
 2.0000000000000
  43
 2.0000000000000
  50
 180.00000000000
   0
MTEXT
   5
22E
 100
AcDbEntity
   8
LEVEL001
  62
2
 100
AcDbMText
  10
 350.21784160782
  20
 136.76973782508
  30
0.0
  40
 3.8000000000000
  41
0.0
  71
8
  72
1
   1
\A1;3
   7
GMM002
   0
ENDBLK
   5
22F
 100
AcDbEntity
   8
0
 100
AcDbBlockEnd
   0
BLOCK
   5
230
 100
AcDbEntity
   8
0
 100
AcDbBlockBegin
   2
*D17
  70
65
  10
0.0
  20
0.0
  30
0.0
   3
*D17
   0
POLYLINE
   5
231
 100
AcDbEntity
   8
LEVEL001
   6
CONTINUOUS
  62
2
 100
AcDb2dPolyline
  66
1
  10
0.0
  20
0.0
  30
0.0
  70
0
   0
VERTEX
   5
232
 100
AcDbEntity
   8
LEVEL001
   6
CONTINUOUS
  62
2
 100
AcDbVertex
 100
AcDb2dVertex
  10
 352.97862669279
  20
 225.31894151318
  30
0.0
   0
VERTEX
   5
233
 100
AcDbEntity
   8
LEVEL001
   6
CONTINUOUS
  62
2
 100
AcDbVertex
 100
AcDb2dVertex
  10
 359.12258790674
  20
 232.05092115304
  30
0.0
   0
VERTEX
   5
234
 100
AcDbEntity
   8
LEVEL001
   6
CONTINUOUS
  62
2
 100
AcDbVertex
 100
AcDb2dVertex
  10
 375.12258790674
  20
 232.05092115304
  30
0.0
   0
SEQEND
   5
235
 100
AcDbEntity
   8
LEVEL001
   6
CONTINUOUS
  62
2
   0
INSERT
   5
236
 100
AcDbEntity
   8
LEVEL001
   6
CONTINUOUS
  62
2
 100
AcDbBlockReference
   2
_OPEN30
  10
 352.97862669279
  20
 225.31894151318
  30
0.0
  41
 2.0000000000000
  42
 2.0000000000000
  43
 2.0000000000000
  50
 227.61476673008
   0
MTEXT
   5
237
 100
AcDbEntity
   8
LEVEL001
  62
2
 100
AcDbMText
  10
 359.12258790674
  20
 233.67949258161
  30
0.0
  40
 3.8000000000000
  41
0.0
  71
7
  72
1
   1
\A1;両面テープ
   7
GMM002
   0
ENDBLK
   5
238
 100
AcDbEntity
   8
0
 100
AcDbBlockEnd
   0
BLOCK
   5
239
 100
AcDbEntity
   8
0
 100
AcDbBlockBegin
   2
*D18
  70
65
  10
0.0
  20
0.0
  30
0.0
   3
*D18
   0
LINE
   5
23A
 100
AcDbEntity
   8
LEVEL001
 100
AcDbLine
   6
CONTINUOUS
  62
2
  10
 80.217841607869
  20
 208.78440746996
  30
0.0
  11
 80.217841607869
  21
 256.17056418626
  31
0.0
   0
LINE
   5
23B
 100
AcDbEntity
   8
LEVEL001
 100
AcDbLine
   6
CONTINUOUS
  62
2
  10
 342.71784160782
  20
 207.99613643936
  30
0.0
  11
 342.71784160782
  21
 256.17056418626
  31
0.0
   0
LINE
   5
23C
 100
AcDbEntity
   8
LEVEL001
 100
AcDbLine
   6
CONTINUOUS
  62
2
  10
 80.217841607869
  20
 254.17056418626
  30
0.0
  11
 211.46784160784
  21
 254.17056418626
  31
0.0
   0
LINE
   5
23D
 100
AcDbEntity
   8
LEVEL001
 100
AcDbLine
   6
CONTINUOUS
  62
2
  10
 342.71784160782
  20
 254.17056418626
  30
0.0
  11
 211.46784160784
  21
 254.17056418626
  31
0.0
   0
INSERT
   5
23E
 100
AcDbEntity
   8
LEVEL001
   6
CONTINUOUS
  62
2
 100
AcDbBlockReference
   2
_OPEN30
  10
 80.217841607869
  20
 254.17056418626
  30
0.0
  41
 3.0000000000000
  42
 3.0000000000000
  43
 3.0000000000000
  50
 180.00000000000
   0
INSERT
   5
23F
 100
AcDbEntity
   8
LEVEL001
   6
CONTINUOUS
  62
2
 100
AcDbBlockReference
   2
_OPEN30
  10
 342.71784160782
  20
 254.17056418626
  30
0.0
  41
 3.0000000000000
  42
 3.0000000000000
  43
 3.0000000000000
  50
0.0
   0
MTEXT
   5
240
 100
AcDbEntity
   8
LEVEL001
  62
2
 100
AcDbMText
  10
 211.46784160784
  20
 255.88484990055
  30
0.0
  40
 4.0000000000000
  41
0.0
  71
8
  72
1
   1
\A1;950～1800
   7
GMM001
   0
ENDBLK
   5
241
 100
AcDbEntity
   8
0
 100
AcDbBlockEnd
   0
BLOCK
   5
242
 100
AcDbEntity
   8
0
 100
AcDbBlockBegin
   2
*D19
  70
65
  10
0.0
  20
0.0
  30
0.0
   3
*D19
   0
LINE
   5
243
 100
AcDbEntity
   8
LEVEL001
 100
AcDbLine
   6
CONTINUOUS
  62
2
  10
 351.71784160782
  20
 248.52896756742
  30
0.0
  11
 351.71784160782
  21
 256.17056418626
  31
0.0
   0
LINE
   5
244
 100
AcDbEntity
   8
LEVEL001
 100
AcDbLine
   6
CONTINUOUS
  62
2
  10
 342.71784160782
  20
 254.17056418626
  30
0.0
  11
 347.21784160782
  21
 254.17056418626
  31
0.0
   0
LINE
   5
245
 100
AcDbEntity
   8
LEVEL001
 100
AcDbLine
   6
CONTINUOUS
  62
2
  10
 351.71784160782
  20
 254.17056418626
  30
0.0
  11
 347.21784160782
  21
 254.17056418626
  31
0.0
   0
INSERT
   5
246
 100
AcDbEntity
   8
LEVEL001
   6
CONTINUOUS
  62
2
 100
AcDbBlockReference
   2
_OPEN30
  10
 342.71784160782
  20
 254.17056418626
  30
0.0
  41
 2.0000000000000
  42
 2.0000000000000
  43
 2.0000000000000
  50
 180.00000000000
   0
INSERT
   5
247
 100
AcDbEntity
   8
LEVEL001
   6
CONTINUOUS
  62
2
 100
AcDbBlockReference
   2
_OPEN30
  10
 351.71784160782
  20
 254.17056418626
  30
0.0
  41
 2.0000000000000
  42
 2.0000000000000
  43
 2.0000000000000
  50
0.0
   0
MTEXT
   5
248
 100
AcDbEntity
   8
LEVEL001
  62
2
 100
AcDbMText
  10
 347.21784160782
  20
 255.79913561483
  30
0.0
  40
 3.8000000000000
  41
0.0
  71
8
  72
1
   1
\A1;(9)
   7
GMM002
   0
ENDBLK
   5
249
 100
AcDbEntity
   8
0
 100
AcDbBlockEnd
   0
BLOCK
   5
24A
 100
AcDbEntity
   8
0
 100
AcDbBlockBegin
   2
*D20
  70
65
  10
0.0
  20
0.0
  30
0.0
   3
*D20
   0
LINE
   5
24B
 100
AcDbEntity
   8
LEVEL001
 100
AcDbLine
   6
CONTINUOUS
  62
2
  10
 71.217841607918
  20
 248.52896756742
  30
0.0
  11
 71.217841607918
  21
 256.17056418626
  31
0.0
   0
LINE
   5
24C
 100
AcDbEntity
   8
LEVEL001
 100
AcDbLine
   6
CONTINUOUS
  62
2
  10
 71.217841607918
  20
 254.17056418626
  30
0.0
  11
 75.717841607893
  21
 254.17056418626
  31
0.0
   0
LINE
   5
24D
 100
AcDbEntity
   8
LEVEL001
 100
AcDbLine
   6
CONTINUOUS
  62
2
  10
 80.217841607869
  20
 254.17056418626
  30
0.0
  11
 75.717841607893
  21
 254.17056418626
  31
0.0
   0
INSERT
   5
24E
 100
AcDbEntity
   8
LEVEL001
   6
CONTINUOUS
  62
2
 100
AcDbBlockReference
   2
_OPEN30
  10
 71.217841607918
  20
 254.17056418626
  30
0.0
  41
 2.0000000000000
  42
 2.0000000000000
  43
 2.0000000000000
  50
 180.00000000000
   0
INSERT
   5
24F
 100
AcDbEntity
   8
LEVEL001
   6
CONTINUOUS
  62
2
 100
AcDbBlockReference
   2
_OPEN30
  10
 80.217841607869
  20
 254.17056418626
  30
0.0
  41
 2.0000000000000
  42
 2.0000000000000
  43
 2.0000000000000
  50
0.0
   0
MTEXT
   5
250
 100
AcDbEntity
   8
LEVEL001
  62
2
 100
AcDbMText
  10
 75.717841607893
  20
 255.79913561483
  30
0.0
  40
 3.8000000000000
  41
0.0
  71
8
  72
1
   1
\A1;(9)
   7
GMM002
   0
ENDBLK
   5
251
 100
AcDbEntity
   8
0
 100
AcDbBlockEnd
   0
ENDSEC
   0
SECTION
   2
ENTITIES
   0
DIMENSION
   5
252
 100
AcDbEntity
   8
LEVEL001
   6
CONTINUOUS
  62
2
 100
AcDbDimension
   2
*D1
  10
 101.41021652857
  20
 79.683456730595
  30
0.0
  11
 117.23659427157
  21
 60.533772804852
  31
0.0
  70
132
   3
GMM001
 100
AcDbRadialDimension
  15
 110.32892591785
  25
 68.891949753838
  35
0.0
  40
 10.977876821391
   0
DIMENSION
   5
253
 100
AcDbEntity
   8
LEVEL001
   6
CONTINUOUS
  62
2
 100
AcDbDimension
   2
*D2
  10
 101.41021652857
  20
 79.683456730595
  30
0.0
  11
 81.537983541364
  21
 62.291872618242
  31
0.0
  70
132
   3
GMM001
 100
AcDbRadialDimension
  15
 84.478668253079
  25
 64.865471948757
  35
0.0
  40
 4.2672960522969
   0
LINE
   5
254
 100
AcDbEntity
   8
LEVEL001
 100
AcDbLine
   6
CONTINUOUS
  62
7
  10
 69.410216528569
  20
 130.68345673058
  30
0.0
  11
 133.41021652857
  21
 130.68345673058
  31
0.0
   0
ARC
   5
255
 100
AcDbEntity
   8
LEVEL001
   6
CONTINUOUS
  62
7
 100
AcDbCircle
  10
 69.410216528569
  20
 122.68345673058
  30
0.0
  40
 8.0000000000000
 100
AcDbArc
  50
 90.000000000000
  51
 180.00000000000
   0
ARC
   5
256
 100
AcDbEntity
   8
LEVEL001
   6
CONTINUOUS
  62
7
 100
AcDbCircle
  10
 133.41021652857
  20
 122.68345673058
  30
0.0
  40
 8.0000000000000
 100
AcDbArc
  50
0.0
  51
 90.000000000001
   0
LINE
   5
257
 100
AcDbEntity
   8
LEVEL001
 100
AcDbLine
   6
CONTINUOUS
  62
7
  10
 61.410216528569
  20
 38.683456730583
  30
0.0
  11
 61.410216528569
  21
 122.68345673058
  31
0.0
   0
LINE
   5
258
 100
AcDbEntity
   8
LEVEL001
 100
AcDbLine
   6
CONTINUOUS
  62
7
  10
 141.41021652857
  20
 122.68345673058
  30
0.0
  11
 141.41021652857
  21
 38.683456730583
  31
0.0
   0
ARC
   5
259
 100
AcDbEntity
   8
LEVEL001
   6
CONTINUOUS
  62
7
 100
AcDbCircle
  10
 69.410216528569
  20
 38.683456730583
  30
0.0
  40
 8.0000000000000
 100
AcDbArc
  50
 180.00000000000
  51
 270.00000000000
   0
ARC
   5
25A
 100
AcDbEntity
   8
LEVEL001
   6
CONTINUOUS
  62
7
 100
AcDbCircle
  10
 133.41021652857
  20
 38.683456730583
  30
0.0
  40
 8.0000000000000
 100
AcDbArc
  50
 270.00000000000
  51
 0.30533324942050E-12
   0
LINE
   5
25B
 100
AcDbEntity
   8
LEVEL001
 100
AcDbLine
   6
CONTINUOUS
  62
7
  10
 133.41021652857
  20
 30.683456730583
  30
0.0
  11
 69.410216528569
  21
 30.683456730583
  31
0.0
   0
LINE
   5
25C
 100
AcDbEntity
   8
LEVEL001
 100
AcDbLine
   6
CONTINUOUS
  62
1
  10
 133.41021652857
  20
 128.68345673058
  30
0.0
  11
 69.410216528569
  21
 128.68345673058
  31
0.0
   0
LINE
   5
25D
 100
AcDbEntity
   8
LEVEL001
 100
AcDbLine
   6
CONTINUOUS
  62
1
  10
 69.410216528569
  20
 130.68345673058
  30
0.0
  11
 69.410216528569
  21
 128.68345673058
  31
0.0
   0
LINE
   5
25E
 100
AcDbEntity
   8
LEVEL001
 100
AcDbLine
   6
CONTINUOUS
  62
1
  10
 133.41021652857
  20
 128.68345673058
  30
0.0
  11
 133.41021652857
  21
 130.68345673058
  31
0.0
   0
ARC
   5
25F
 100
AcDbEntity
   8
LEVEL001
   6
CONTINUOUS
  62
1
 100
AcDbCircle
  10
 69.410216528569
  20
 122.68345673058
  30
0.0
  40
 6.0000000000000
 100
AcDbArc
  50
 90.000000000000
  51
 180.00000000000
   0
LINE
   5
260
 100
AcDbEntity
   8
LEVEL001
 100
AcDbLine
   6
CONTINUOUS
  62
1
  10
 61.410216528569
  20
 122.68345673058
  30
0.0
  11
 63.410216528569
  21
 122.68345673058
  31
0.0
   0
ARC
   5
261
 100
AcDbEntity
   8
LEVEL001
   6
CONTINUOUS
  62
1
 100
AcDbCircle
  10
 133.41021652857
  20
 122.68345673058
  30
0.0
  40
 6.0000000000109
 100
AcDbArc
  50
0.0
  51
 90.000000000000
   0
LINE
   5
262
 100
AcDbEntity
   8
LEVEL001
 100
AcDbLine
   6
CONTINUOUS
  62
1
  10
 139.41021652858
  20
 122.68345673058
  30
0.0
  11
 141.41021652857
  21
 122.68345673058
  31
0.0
   0
LINE
   5
263
 100
AcDbEntity
   8
LEVEL001
 100
AcDbLine
   6
CONTINUOUS
  62
1
  10
 63.410216528569
  20
 122.68345673058
  30
0.0
  11
 63.410216528558
  21
 38.683456730583
  31
0.0
   0
LINE
   5
264
 100
AcDbEntity
   8
LEVEL001
 100
AcDbLine
   6
CONTINUOUS
  62
1
  10
 61.410216528569
  20
 38.683456730583
  30
0.0
  11
 63.410216528558
  21
 38.683456730583
  31
0.0
   0
LINE
   5
265
 100
AcDbEntity
   8
LEVEL001
 100
AcDbLine
   6
CONTINUOUS
  62
1
  10
 139.41021652857
  20
 38.683456730583
  30
0.0
  11
 139.41021652858
  21
 122.68345673058
  31
0.0
   0
LINE
   5
266
 100
AcDbEntity
   8
LEVEL001
 100
AcDbLine
   6
CONTINUOUS
  62
1
  10
 139.41021652857
  20
 38.683456730583
  30
0.0
  11
 141.41021652857
  21
 38.683456730583
  31
0.0
   0
ARC
   5
267
 100
AcDbEntity
   8
LEVEL001
   6
CONTINUOUS
  62
1
 100
AcDbCircle
  10
 133.41021652857
  20
 38.683456730583
  30
0.0
  40
 6.0000000000000
 100
AcDbArc
  50
 270.00000000000
  51
 0.67851833204555E-12
   0
LINE
   5
268
 100
AcDbEntity
   8
LEVEL001
 100
AcDbLine
   6
CONTINUOUS
  62
1
  10
 69.410216528569
  20
 32.683456730583
  30
0.0
  11
 133.41021652857
  21
 32.683456730583
  31
0.0
   0
ARC
   5
269
 100
AcDbEntity
   8
LEVEL001
   6
CONTINUOUS
  62
1
 100
AcDbCircle
  10
 69.410216528569
  20
 38.683456730583
  30
0.0
  40
 6.0000000000109
 100
AcDbArc
  50
 180.00000000000
  51
 270.00000000000
   0
LINE
   5
26A
 100
AcDbEntity
   8
LEVEL001
 100
AcDbLine
   6
CONTINUOUS
  62
1
  10
 69.410216528569
  20
 30.683456730583
  30
0.0
  11
 69.410216528569
  21
 32.683456730583
  31
0.0
   0
LINE
   5
26B
 100
AcDbEntity
   8
LEVEL001
 100
AcDbLine
   6
CONTINUOUS
  62
1
  10
 133.41021652857
  20
 32.683456730583
  30
0.0
  11
 133.41021652857
  21
 30.683456730583
  31
0.0
   0
DIMENSION
   5
26C
 100
AcDbEntity
   8
LEVEL001
   6
CONTINUOUS
  62
2
 100
AcDbDimension
   2
*D3
  10
 69.410216528569
  20
 122.68345673058
  30
0.0
  11
 55.956832334677
  21
 133.08203475200
  31
0.0
  70
132
   3
GMM002
 100
AcDbRadialDimension
  15
 63.080569657705
  25
 127.57585598761
  35
0.0
  40
 9.1653921652672
   0
LINE
   5
26D
 100
AcDbEntity
   8
LEVEL001
 100
AcDbLine
   6
CONTINUOUS
  62
7
  10
 89.160216528569
  20
 85.299140646075
  30
0.0
  11
 89.160216528569
  21
 83.067772815092
  31
0.0
   0
LINE
   5
26E
 100
AcDbEntity
   8
LEVEL001
 100
AcDbLine
   6
CONTINUOUS
  62
7
  10
 113.66021652857
  20
 83.067772815092
  30
0.0
  11
 113.66021652857
  21
 85.299140646075
  31
0.0
   0
LINE
   5
26F
 100
AcDbEntity
   8
LEVEL001
 100
AcDbLine
   6
CONTINUOUS
  62
7
  10
 113.66021652857
  20
 85.299140646075
  30
0.0
  11
 113.66021652857
  21
 85.799064493653
  31
0.0
   0
ARC
   5
270
 100
AcDbEntity
   8
LEVEL001
   6
CONTINUOUS
  62
7
 100
AcDbCircle
  10
 115.16010230863
  20
 85.798950256320
  30
0.0
  40
 1.4998857844165
 100
AcDbArc
  50
 89.995636787665
  51
 179.99563612301
   0
LINE
   5
271
 100
AcDbEntity
   8
LEVEL001
 100
AcDbLine
   6
CONTINUOUS
  62
7
  10
 89.160216528569
  20
 85.799064493653
  30
0.0
  11
 89.160216528569
  21
 85.299140646075
  31
0.0
   0
ARC
   5
272
 100
AcDbEntity
   8
LEVEL001
   6
CONTINUOUS
  62
7
 100
AcDbCircle
  10
 87.660330748502
  20
 85.798950256320
  30
0.0
  40
 1.4998857844164
 100
AcDbArc
  50
 0.43638769724220E-2
  51
 90.004363212331
   0
LINE
   5
273
 100
AcDbEntity
   8
LEVEL001
 100
AcDbLine
   6
CONTINUOUS
  62
7
  10
 89.160216528569
  20
 83.067772815092
  30
0.0
  11
 89.160216528569
  21
 82.567848967514
  31
0.0
   0
ARC
   5
274
 100
AcDbEntity
   8
LEVEL001
   6
CONTINUOUS
  62
7
 100
AcDbCircle
  10
 87.660330748503
  20
 82.567963204847
  30
0.0
  40
 1.4998857844165
 100
AcDbArc
  50
 269.99563678767
  51
 359.99563612302
   0
LINE
   5
275
 100
AcDbEntity
   8
LEVEL001
 100
AcDbLine
   6
CONTINUOUS
  62
7
  10
 113.66021652857
  20
 82.567848967514
  30
0.0
  11
 113.66021652857
  21
 83.067772815092
  31
0.0
   0
ARC
   5
276
 100
AcDbEntity
   8
LEVEL001
   6
CONTINUOUS
  62
7
 100
AcDbCircle
  10
 115.16010230863
  20
 82.567963204847
  30
0.0
  40
 1.4998857844164
 100
AcDbArc
  50
 180.00436387697
  51
 270.00436321235
   0
ELLIPSE
   5
277
 100
AcDbEntity
   8
LEVEL001
   6
CONTINUOUS
  62
7
 100
AcDbEllipse
  10
 87.660216528569
  20
 86.113407978805
  30
0.0
  11
0.0
  21
-1.5005331249534
  31
0.0
  40
 0.99964470964051
  41
 1.5707963267949
  42
 3.0833200373373
   0
LINE
   5
278
 100
AcDbEntity
   8
LEVEL001
 100
AcDbLine
   6
CONTINUOUS
  62
7
  10
 89.160216528569
  20
 86.113407978805
  30
0.0
  11
 89.160216528569
  21
 85.799064493653
  31
0.0
   0
ELLIPSE
   5
279
 100
AcDbEntity
   8
LEVEL001
   6
CONTINUOUS
  62
7
 100
AcDbEllipse
  10
 87.660216528569
  20
 82.253505482362
  30
0.0
  11
0.0
  21
-1.5005331249534
  31
0.0
  40
 0.99964470964053
  41
 0.58272616252583E-1
  42
 1.5707963267949
   0
LINE
   5
27A
 100
AcDbEntity
   8
LEVEL001
 100
AcDbLine
   6
CONTINUOUS
  62
7
  10
 89.160216528569
  20
 82.567848967514
  30
0.0
  11
 89.160216528569
  21
 82.253505482362
  31
0.0
   0
ELLIPSE
   5
27B
 100
AcDbEntity
   8
LEVEL001
   6
CONTINUOUS
  62
7
 100
AcDbEllipse
  10
 115.16021652857
  20
 86.113407978805
  30
0.0
  11
0.0
  21
-1.5005331249534
  31
0.0
  40
 0.99964470964051
  41
-3.0833200373372
  42
-1.5707963267949
   0
LINE
   5
27C
 100
AcDbEntity
   8
LEVEL001
 100
AcDbLine
   6
CONTINUOUS
  62
7
  10
 113.66021652857
  20
 85.799064493653
  30
0.0
  11
 113.66021652857
  21
 86.113407978805
  31
0.0
   0
ELLIPSE
   5
27D
 100
AcDbEntity
   8
LEVEL001
   6
CONTINUOUS
  62
7
 100
AcDbEllipse
  10
 115.16021652857
  20
 82.253505482362
  30
0.0
  11
0.0
  21
-1.5005331249534
  31
0.0
  40
 0.99964470964053
  41
-1.5707963267949
  42
-0.58272616252564E-1
   0
LINE
   5
27E
 100
AcDbEntity
   8
LEVEL001
 100
AcDbLine
   6
CONTINUOUS
  62
7
  10
 113.66021652857
  20
 82.253505482362
  30
0.0
  11
 113.66021652857
  21
 82.567848967514
  31
0.0
   0
ELLIPSE
   5
27F
 100
AcDbEntity
   8
LEVEL001
   6
CONTINUOUS
  62
1
 100
AcDbEllipse
  10
 121.59276445182
  20
 88.748893998867
  30
0.0
  11
-4.9864749303061
  21
 0.38133178929792
  31
0.0
  40
 0.99979314092172
  41
-0.76298458761782E-1
  42
 0.76298458761649E-1
   0
LINE
   5
280
 100
AcDbEntity
   8
LEVEL001
 100
AcDbLine
   6
CONTINUOUS
  62
1
  10
 116.64985754499
  20
 89.509129068770
  30
0.0
  11
 117.63789055234
  21
 89.357123990715
  31
0.0
   0
ELLIPSE
   5
281
 100
AcDbEntity
   8
LEVEL001
   6
CONTINUOUS
  62
1
 100
AcDbEllipse
  10
 121.59276445182
  20
 88.748893998867
  30
0.0
  11
-3.9897299183052
  21
 0.30510748972540
  31
0.0
  40
 0.99965532199551
  41
-0.76298458761698E-1
  42
 0.76298458761725E-1
   0
LINE
   5
282
 100
AcDbEntity
   8
LEVEL001
 100
AcDbLine
   6
CONTINUOUS
  62
1
  10
 117.59139328186
  20
 88.749103678497
  30
0.0
  11
 116.59173595688
  21
 88.749103678497
  31
0.0
   0
LINE
   5
283
 100
AcDbEntity
   8
LEVEL001
 100
AcDbLine
   6
CONTINUOUS
  62
1
  10
 118.93752062184
  20
 97.804719442431
  30
0.0
  11
 117.63789055234
  21
 89.357123990715
  31
0.0
   0
LINE
   5
284
 100
AcDbEntity
   8
LEVEL001
 100
AcDbLine
   6
CONTINUOUS
  62
1
  10
 121.54624192121
  20
 97.804719442431
  30
0.0
  11
 118.93752062184
  21
 97.804719442431
  31
0.0
   0
LINE
   5
285
 100
AcDbEntity
   8
LEVEL001
 100
AcDbLine
   6
CONTINUOUS
  62
1
  10
 121.54624192121
  20
 79.683456730583
  30
0.0
  11
 121.54624192121
  21
 97.804719442431
  31
0.0
   0
ARC
   5
286
 100
AcDbEntity
   8
LEVEL001
   6
CONTINUOUS
  62
1
 100
AcDbCircle
  10
 101.41021652857
  20
 79.683456730583
  30
0.0
  40
 20.136025392643
 100
AcDbArc
  50
 180.00000000000
  51
0.0
   0
LINE
   5
287
 100
AcDbEntity
   8
LEVEL001
 100
AcDbLine
   6
CONTINUOUS
  62
1
  10
 81.274191135926
  20
 97.804719442431
  30
0.0
  11
 81.274191135926
  21
 79.683456730583
  31
0.0
   0
LINE
   5
288
 100
AcDbEntity
   8
LEVEL001
 100
AcDbLine
   6
CONTINUOUS
  62
1
  10
 83.882912435302
  20
 97.804719442431
  30
0.0
  11
 81.274191135926
  21
 97.804719442431
  31
0.0
   0
LINE
   5
289
 100
AcDbEntity
   8
LEVEL001
 100
AcDbLine
   6
CONTINUOUS
  62
1
  10
 85.182542504797
  20
 89.357123990715
  30
0.0
  11
 83.882912435302
  21
 97.804719442431
  31
0.0
   0
ELLIPSE
   5
28A
 100
AcDbEntity
   8
LEVEL001
   6
CONTINUOUS
  62
1
 100
AcDbEllipse
  10
 81.227668605315
  20
 88.748893998867
  30
0.0
  11
 3.9897299183052
  21
 0.30510748972540
  31
0.0
  40
 0.99965532199551
  41
-0.76298458761711E-1
  42
 0.76298458761720E-1
   0
LINE
   5
28B
 100
AcDbEntity
   8
LEVEL001
 100
AcDbLine
   6
CONTINUOUS
  62
1
  10
 85.229039775279
  20
 79.683456730583
  30
0.0
  11
 85.229039775279
  21
 88.749103678497
  31
0.0
   0
ARC
   5
28C
 100
AcDbEntity
   8
LEVEL001
   6
CONTINUOUS
  62
1
 100
AcDbCircle
  10
 101.41021652857
  20
 79.683456730583
  30
0.0
  40
 16.181176753290
 100
AcDbArc
  50
 180.00000000000
  51
0.0
   0
LINE
   5
28D
 100
AcDbEntity
   8
LEVEL001
 100
AcDbLine
   6
CONTINUOUS
  62
1
  10
 117.59139328186
  20
 88.749103678497
  30
0.0
  11
 117.59139328186
  21
 79.683456730583
  31
0.0
   0
LINE
   5
28E
 100
AcDbEntity
   8
LEVEL001
 100
AcDbLine
   6
CONTINUOUS
  62
1
  10
 122.54487145597
  20
 97.804719442431
  30
0.0
  11
 122.54487145597
  21
 79.683456730583
  31
0.0
   0
LINE
   5
28F
 100
AcDbEntity
   8
LEVEL001
 100
AcDbLine
   6
CONTINUOUS
  62
1
  10
 122.54487145597
  20
 79.683456730583
  30
0.0
  11
 121.54624192121
  21
 79.683456730583
  31
0.0
   0
LINE
   5
290
 100
AcDbEntity
   8
LEVEL001
 100
AcDbLine
   6
CONTINUOUS
  62
1
  10
 122.54487145597
  20
 97.804719442431
  30
0.0
  11
 121.54624192121
  21
 97.804719442431
  31
0.0
   0
ARC
   5
291
 100
AcDbEntity
   8
LEVEL001
   6
CONTINUOUS
  62
1
 100
AcDbCircle
  10
 101.41021652857
  20
 79.683456730583
  30
0.0
  40
 21.134654927398
 100
AcDbArc
  50
 180.00000000000
  51
0.0
   0
LINE
   5
292
 100
AcDbEntity
   8
LEVEL001
 100
AcDbLine
   6
CONTINUOUS
  62
1
  10
 80.275561601171
  20
 79.683456730583
  30
0.0
  11
 81.274191135926
  21
 79.683456730583
  31
0.0
   0
LINE
   5
293
 100
AcDbEntity
   8
LEVEL001
 100
AcDbLine
   6
CONTINUOUS
  62
1
  10
 80.275561601171
  20
 79.683456730583
  30
0.0
  11
 80.275561601171
  21
 97.804719442431
  31
0.0
   0
LINE
   5
294
 100
AcDbEntity
   8
LEVEL001
 100
AcDbLine
   6
CONTINUOUS
  62
1
  10
 80.275561601171
  20
 97.804719442431
  30
0.0
  11
 81.274191135926
  21
 97.804719442431
  31
0.0
   0
ARC
   5
295
 100
AcDbEntity
   8
LEVEL001
   6
CONTINUOUS
  62
1
 100
AcDbCircle
  10
 81.278594296526
  20
 97.793334305124
  30
0.0
  40
 1.0030973079933
 100
AcDbArc
  50
 90.251504342718
  51
 179.34967991840
   0
LINE
   5
296
 100
AcDbEntity
   8
LEVEL001
 100
AcDbLine
   6
CONTINUOUS
  62
1
  10
 81.274191135926
  20
 98.796421949093
  30
0.0
  11
 81.274191135926
  21
 97.804719442431
  31
0.0
   0
LINE
   5
297
 100
AcDbEntity
   8
LEVEL001
 100
AcDbLine
   6
CONTINUOUS
  62
1
  10
 116.59173595688
  20
 79.683456730583
  30
0.0
  11
 117.59139328186
  21
 79.683456730583
  31
0.0
   0
LINE
   5
298
 100
AcDbEntity
   8
LEVEL001
 100
AcDbLine
   6
CONTINUOUS
  62
1
  10
 116.59173595688
  20
 79.683456730583
  30
0.0
  11
 116.59173595688
  21
 88.749103678497
  31
0.0
   0
LINE
   5
299
 100
AcDbEntity
   8
LEVEL001
 100
AcDbLine
   6
CONTINUOUS
  62
1
  10
 121.54624192121
  20
 97.804719442431
  30
0.0
  11
 121.54624192121
  21
 98.796421949093
  31
0.0
   0
LINE
   5
29A
 100
AcDbEntity
   8
LEVEL001
 100
AcDbLine
   6
CONTINUOUS
  62
1
  10
 118.93752062184
  20
 98.796421949093
  30
0.0
  11
 118.93752062184
  21
 97.804719442431
  31
0.0
   0
LINE
   5
29B
 100
AcDbEntity
   8
LEVEL001
 100
AcDbLine
   6
CONTINUOUS
  62
1
  10
 118.93752062184
  20
 98.796421949093
  30
0.0
  11
 121.54624192121
  21
 98.796421949093
  31
0.0
   0
ARC
   5
29C
 100
AcDbEntity
   8
LEVEL001
   6
CONTINUOUS
  62
1
 100
AcDbCircle
  10
 118.93523432067
  20
 97.797977118802
  30
0.0
  40
 0.99844744794520
 100
AcDbArc
  50
 89.868800784541
  51
 170.85147635862
   0
LINE
   5
29D
 100
AcDbEntity
   8
LEVEL001
 100
AcDbLine
   6
CONTINUOUS
  62
1
  10
 117.94948761448
  20
 97.956724520485
  30
0.0
  11
 118.93752062184
  21
 97.804719442431
  31
0.0
   0
LINE
   5
29E
 100
AcDbEntity
   8
LEVEL001
 100
AcDbLine
   6
CONTINUOUS
  62
1
  10
 83.882912435302
  20
 97.804719442431
  30
0.0
  11
 83.882912435302
  21
 98.796421949093
  31
0.0
   0
LINE
   5
29F
 100
AcDbEntity
   8
LEVEL001
 100
AcDbLine
   6
CONTINUOUS
  62
1
  10
 81.274191135926
  20
 98.796421949093
  30
0.0
  11
 83.882912435302
  21
 98.796421949093
  31
0.0
   0
ELLIPSE
   5
2A0
 100
AcDbEntity
   8
LEVEL001
   6
CONTINUOUS
  62
1
 100
AcDbEllipse
  10
 81.227668605315
  20
 88.748893998867
  30
0.0
  11
-4.9864749303061
  21
-0.38133178929843
  31
0.0
  40
 0.99979314092172
  41
 3.0652941948281
  42
-3.0652941948281
   0
LINE
   5
2A1
 100
AcDbEntity
   8
LEVEL001
 100
AcDbLine
   6
CONTINUOUS
  62
1
  10
 86.228697100254
  20
 88.749103678497
  30
0.0
  11
 85.229039775279
  21
 88.749103678497
  31
0.0
   0
LINE
   5
2A2
 100
AcDbEntity
   8
LEVEL001
 100
AcDbLine
   6
CONTINUOUS
  62
1
  10
 85.182542504797
  20
 89.357123990715
  30
0.0
  11
 86.170575512152
  21
 89.509129068770
  31
0.0
   0
LINE
   5
2A3
 100
AcDbEntity
   8
LEVEL001
 100
AcDbLine
   6
CONTINUOUS
  62
1
  10
 84.870945442657
  20
 97.956724520485
  30
0.0
  11
 83.882912435302
  21
 97.804719442431
  31
0.0
   0
LINE
   5
2A4
 100
AcDbEntity
   8
LEVEL001
 100
AcDbLine
   6
CONTINUOUS
  62
1
  10
 84.870945442657
  20
 97.956724520485
  30
0.0
  11
 86.170575512152
  21
 89.509129068770
  31
0.0
   0
LINE
   5
2A5
 100
AcDbEntity
   8
LEVEL001
 100
AcDbLine
   6
CONTINUOUS
  62
1
  10
 86.228697100254
  20
 79.683456730583
  30
0.0
  11
 85.229039775279
  21
 79.683456730583
  31
0.0
   0
LINE
   5
2A6
 100
AcDbEntity
   8
LEVEL001
 100
AcDbLine
   6
CONTINUOUS
  62
1
  10
 86.228697100254
  20
 88.749103678497
  30
0.0
  11
 86.228697100254
  21
 79.683456730583
  31
0.0
   0
ARC
   5
2A7
 100
AcDbEntity
   8
LEVEL001
   6
CONTINUOUS
  62
1
 100
AcDbCircle
  10
 101.41021652857
  20
 79.683456730583
  30
0.0
  40
 15.181519428314
 100
AcDbArc
  50
 180.00000000000
  51
0.0
   0
LINE
   5
2A8
 100
AcDbEntity
   8
LEVEL001
 100
AcDbLine
   6
CONTINUOUS
  62
1
  10
 116.64985754499
  20
 89.509129068770
  30
0.0
  11
 117.94948761448
  21
 97.956724520485
  31
0.0
   0
ARC
   5
2A9
 100
AcDbEntity
   8
LEVEL001
   6
CONTINUOUS
  62
1
 100
AcDbCircle
  10
 121.54183876061
  20
 97.793334305125
  30
0.0
  40
 1.0030973079933
 100
AcDbArc
  50
 0.65032008154059
  51
 89.748495657333
   0
ARC
   5
2AA
 100
AcDbEntity
   8
LEVEL001
   6
CONTINUOUS
  62
1
 100
AcDbCircle
  10
 83.885198736465
  20
 97.797977118802
  30
0.0
  40
 0.99844744794527
 100
AcDbArc
  50
 9.1485236414168
  51
 90.131199215434
   0
LINE
   5
2AB
 100
AcDbEntity
   8
LEVEL001
 100
AcDbLine
   6
CONTINUOUS
  62
1
  10
 80.275561601171
  20
 97.804719442431
  30
0.0
  11
 79.117104834457
  21
 100.67013987553
  31
0.0
   0
ELLIPSE
   5
2AC
 100
AcDbEntity
   8
LEVEL001
   6
CONTINUOUS
  62
1
 100
AcDbEllipse
  10
 80.121219991699
  20
 100.65657129428
  30
0.0
  11
 0.38571905424739
  21
-0.95406862926100
  31
0.0
  40
 0.97173234845205
  41
 2.7607470145153
  42
-1.9583700146464
   0
LINE
   5
2AD
 100
AcDbEntity
   8
LEVEL001
 100
AcDbLine
   6
CONTINUOUS
  62
1
  10
 80.107745529381
  20
 101.68160262319
  30
0.0
  11
 81.274191135926
  21
 98.796421949093
  31
0.0
   0
LINE
   5
2AE
 100
AcDbEntity
   8
LEVEL001
 100
AcDbLine
   6
CONTINUOUS
  62
1
  10
 121.54624192121
  20
 98.796421949093
  30
0.0
  11
 122.71268752776
  21
 101.68160262319
  31
0.0
   0
ELLIPSE
   5
2AF
 100
AcDbEntity
   8
LEVEL001
   6
CONTINUOUS
  62
1
 100
AcDbEllipse
  10
 122.69921306544
  20
 100.65657129428
  30
0.0
  11
-0.38571905424743
  21
-0.95406862926100
  31
0.0
  40
 0.97173234845203
  41
 1.9583700146465
  42
-2.7607470145153
   0
LINE
   5
2B0
 100
AcDbEntity
   8
LEVEL001
 100
AcDbLine
   6
CONTINUOUS
  62
1
  10
 123.70332822268
  20
 100.67013987553
  30
0.0
  11
 122.54487145597
  21
 97.804719442431
  31
0.0
   0
LINE
   5
2B1
 100
AcDbEntity
   8
LEVEL001
 100
AcDbLine
   6
CONTINUOUS
  62
1
  10
 83.882912435302
  20
 98.796421949093
  30
0.0
  11
 84.028718347107
  21
 101.68160262319
  31
0.0
   0
ELLIPSE
   5
2B2
 100
AcDbEntity
   8
LEVEL001
   6
CONTINUOUS
  62
1
 100
AcDbEllipse
  10
 84.027034036880
  20
 100.65657129428
  30
0.0
  11
-0.51738316077206E-1
  21
-1.0237883211162
  31
0.0
  40
 0.97551951813282
  41
 1.7755957840531
  42
-3.0915187821382
   0
LINE
   5
2B3
 100
AcDbEntity
   8
LEVEL001
 100
AcDbLine
   6
CONTINUOUS
  62
1
  10
 85.015410013664
  20
 100.81536298857
  30
0.0
  11
 84.870945442657
  21
 97.956724520485
  31
0.0
   0
LINE
   5
2B4
 100
AcDbEntity
   8
LEVEL001
 100
AcDbLine
   6
CONTINUOUS
  62
1
  10
 117.94948761448
  20
 97.956724520485
  30
0.0
  11
 117.80502304347
  21
 100.81536298857
  31
0.0
   0
ELLIPSE
   5
2B5
 100
AcDbEntity
   8
LEVEL001
   6
CONTINUOUS
  62
1
 100
AcDbEllipse
  10
 118.79339902026
  20
 100.65657129428
  30
0.0
  11
 0.51738316077206E-1
  21
-1.0237883211162
  31
0.0
  40
 0.97551951813282
  41
 3.0915187821382
  42
-1.7755957840531
   0
LINE
   5
2B6
 100
AcDbEntity
   8
LEVEL001
 100
AcDbLine
   6
CONTINUOUS
  62
1
  10
 118.79171471003
  20
 101.68160262319
  30
0.0
  11
 118.93752062184
  21
 98.796421949093
  31
0.0
   0
LINE
   5
2B7
 100
AcDbEntity
   8
LEVEL001
 100
AcDbLine
   6
CONTINUOUS
  62
1
  10
 122.71268752776
  20
 101.68160262319
  30
0.0
  11
 118.79171471003
  21
 101.68160262319
  31
0.0
   0
LINE
   5
2B8
 100
AcDbEntity
   8
LEVEL001
 100
AcDbLine
   6
CONTINUOUS
  62
1
  10
 84.028718347107
  20
 101.68160262319
  30
0.0
  11
 80.107745529381
  21
 101.68160262319
  31
0.0
   0
LINE
   5
2B9
 100
AcDbEntity
   8
LEVEL001
 100
AcDbLine
   6
CONTINUOUS
  62
1
  10
 80.275561601171
  20
 79.683456730583
  30
0.0
  11
 79.117104834457
  21
 79.683456730583
  31
0.0
   0
LINE
   5
2BA
 100
AcDbEntity
   8
LEVEL001
 100
AcDbLine
   6
CONTINUOUS
  62
1
  10
 79.117104834457
  20
 100.67013987553
  30
0.0
  11
 79.117104834457
  21
 79.683456730583
  31
0.0
   0
LINE
   5
2BB
 100
AcDbEntity
   8
LEVEL001
 100
AcDbLine
   6
CONTINUOUS
  62
1
  10
 123.70332822268
  20
 79.683456730583
  30
0.0
  11
 123.70332822268
  21
 100.67013987553
  31
0.0
   0
LINE
   5
2BC
 100
AcDbEntity
   8
LEVEL001
 100
AcDbLine
   6
CONTINUOUS
  62
1
  10
 122.54487145597
  20
 79.683456730583
  30
0.0
  11
 123.70332822268
  21
 79.683456730583
  31
0.0
   0
ARC
   5
2BD
 100
AcDbEntity
   8
LEVEL001
   6
CONTINUOUS
  62
1
 100
AcDbCircle
  10
 101.41021652857
  20
 79.683456730583
  30
0.0
  40
 22.293111694111
 100
AcDbArc
  50
 180.00000000000
  51
0.0
   0
LINE
   5
2BE
 100
AcDbEntity
   8
LEVEL001
 100
AcDbLine
   6
CONTINUOUS
  62
1
  10
 116.59173595688
  20
 88.749103678497
  30
0.0
  11
 116.01427474733
  21
 88.793263996029
  31
0.0
   0
ELLIPSE
   5
2BF
 100
AcDbEntity
   8
LEVEL001
   6
CONTINUOUS
  62
1
 100
AcDbEllipse
  10
 121.01667417730
  20
 88.792949476585
  30
0.0
  11
-4.9878498654570
  21
 0.38143693501519
  31
0.0
  40
 0.99951754106001
  41
-0.76298458761706E-1
  42
 0.76298458761714E-1
   0
LINE
   5
2C0
 100
AcDbEntity
   8
LEVEL001
 100
AcDbLine
   6
CONTINUOUS
  62
1
  10
 116.07239633543
  20
 89.553289386302
  30
0.0
  11
 116.64985754499
  21
 89.509129068770
  31
0.0
   0
LINE
   5
2C1
 100
AcDbEntity
   8
LEVEL001
 100
AcDbLine
   6
CONTINUOUS
  62
1
  10
 86.170575512152
  20
 89.509129068770
  30
0.0
  11
 86.748036721704
  21
 89.553289386302
  31
0.0
   0
ELLIPSE
   5
2C2
 100
AcDbEntity
   8
LEVEL001
   6
CONTINUOUS
  62
1
 100
AcDbEllipse
  10
 81.803758879838
  20
 88.792949476585
  30
0.0
  11
-4.9878498654570
  21
-0.38143693501513
  31
0.0
  40
 0.99951754106002
  41
 3.0652941948281
  42
-3.0652941948281
   0
LINE
   5
2C3
 100
AcDbEntity
   8
LEVEL001
 100
AcDbLine
   6
CONTINUOUS
  62
1
  10
 86.806158309807
  20
 88.793263996029
  30
0.0
  11
 86.228697100254
  21
 88.749103678497
  31
0.0
   0
LINE
   5
2C4
 100
AcDbEntity
   8
LEVEL001
 100
AcDbLine
   6
CONTINUOUS
  62
1
  10
 117.80502304347
  20
 100.81536298857
  30
0.0
  11
 116.07239633543
  21
 89.553289386302
  31
0.0
   0
LINE
   5
2C5
 100
AcDbEntity
   8
LEVEL001
 100
AcDbLine
   6
CONTINUOUS
  62
1
  10
 116.48699235761
  20
 80.068229729623
  30
0.0
  11
 116.15987385354
  21
 79.850178410991
  31
0.0
   0
ELLIPSE
   5
2C6
 100
AcDbEntity
   8
LEVEL001
   6
CONTINUOUS
  62
1
 100
AcDbEllipse
  10
 116.48562133558
  20
 83.067772815092
  30
0.0
  11
0.0
  21
-3.0000000000000
  31
0.0
  40
 0.26185921569199E-1
  41
 0.17453292520336E-1
  42
 1.5707963267949
   0
LINE
   5
2C7
 100
AcDbEntity
   8
LEVEL001
 100
AcDbLine
   6
CONTINUOUS
  62
1
  10
 116.56417910028
  20
 85.299140646075
  30
0.0
  11
 116.56417910028
  21
 83.067772815092
  31
0.0
   0
ELLIPSE
   5
2C8
 100
AcDbEntity
   8
LEVEL001
   6
CONTINUOUS
  62
1
 100
AcDbEllipse
  10
 116.48562133558
  20
 85.299140646075
  30
0.0
  11
0.0
  21
-3.0000000000000
  31
0.0
  40
 0.26185921569199E-1
  41
 1.5707963267949
  42
 3.1241393610704
   0
LINE
   5
2C9
 100
AcDbEntity
   8
LEVEL001
 100
AcDbLine
   6
CONTINUOUS
  62
1
  10
 116.15987385354
  20
 88.516735050176
  30
0.0
  11
 116.48699235761
  21
 88.298683731544
  31
0.0
   0
ELLIPSE
   5
2CA
 100
AcDbEntity
   8
LEVEL001
   6
CONTINUOUS
  62
1
 100
AcDbEllipse
  10
 116.15987385354
  20
 86.016354230066
  30
0.0
  11
 2.0278938858937
  21
-2.8140495648375
  31
0.0
  40
 0.51956057655156
  41
 2.1954639382104
  42
 2.2537365544630
   0
LINE
   5
2CB
 100
AcDbEntity
   8
LEVEL001
 100
AcDbLine
   6
CONTINUOUS
  62
1
  10
 116.01427474733
  20
 88.793263996029
  30
0.0
  11
 116.01427474733
  21
 88.609544731252
  31
0.0
   0
LINE
   5
2CC
 100
AcDbEntity
   8
LEVEL001
 100
AcDbLine
   6
CONTINUOUS
  62
1
  10
 116.01427474733
  20
 79.683456730583
  30
0.0
  11
 116.59173595688
  21
 79.683456730583
  31
0.0
   0
LINE
   5
2CD
 100
AcDbEntity
   8
LEVEL001
 100
AcDbLine
   6
CONTINUOUS
  62
1
  10
 116.01427474733
  20
 79.757368729915
  30
0.0
  11
 116.01427474733
  21
 79.683456730583
  31
0.0
   0
ELLIPSE
   5
2CE
 100
AcDbEntity
   8
LEVEL001
   6
CONTINUOUS
  62
1
 100
AcDbEllipse
  10
 116.15987385354
  20
 82.350559231101
  30
0.0
  11
-2.0278938858937
  21
-2.8140495648375
  31
0.0
  40
 0.51956057655156
  41
 0.88785609912684
  42
 0.94612871537939
   0
LINE
   5
2CF
 100
AcDbEntity
   8
LEVEL001
 100
AcDbLine
   6
CONTINUOUS
  62
1
  10
 86.333440699523
  20
 88.298683731544
  30
0.0
  11
 86.660559203593
  21
 88.516735050176
  31
0.0
   0
ELLIPSE
   5
2D0
 100
AcDbEntity
   8
LEVEL001
   6
CONTINUOUS
  62
1
 100
AcDbEllipse
  10
 86.334811721562
  20
 85.299140646075
  30
0.0
  11
0.0
  21
-3.0000000000000
  31
0.0
  40
 0.26185921569189E-1
  41
-3.1241393610698
  42
-1.5707963267949
   0
LINE
   5
2D1
 100
AcDbEntity
   8
LEVEL001
 100
AcDbLine
   6
CONTINUOUS
  62
1
  10
 86.256253956854
  20
 83.067772815092
  30
0.0
  11
 86.256253956854
  21
 85.299140646075
  31
0.0
   0
ELLIPSE
   5
2D2
 100
AcDbEntity
   8
LEVEL001
   6
CONTINUOUS
  62
1
 100
AcDbEllipse
  10
 86.334811721562
  20
 83.067772815092
  30
0.0
  11
0.0
  21
-3.0000000000000
  31
0.0
  40
 0.26185921569190E-1
  41
-1.5707963267949
  42
-0.17453292519976E-1
   0
LINE
   5
2D3
 100
AcDbEntity
   8
LEVEL001
 100
AcDbLine
   6
CONTINUOUS
  62
1
  10
 86.660559203593
  20
 79.850178410991
  30
0.0
  11
 86.333440699523
  21
 80.068229729623
  31
0.0
   0
ELLIPSE
   5
2D4
 100
AcDbEntity
   8
LEVEL001
   6
CONTINUOUS
  62
1
 100
AcDbEllipse
  10
 86.660559203593
  20
 82.350559231101
  30
0.0
  11
 2.0278938858937
  21
-2.8140495648375
  31
0.0
  40
 0.51956057655156
  41
-0.94612871537938
  42
-0.88785609912681
   0
LINE
   5
2D5
 100
AcDbEntity
   8
LEVEL001
 100
AcDbLine
   6
CONTINUOUS
  62
1
  10
 86.806158309807
  20
 79.683456730583
  30
0.0
  11
 86.806158309807
  21
 79.757368729915
  31
0.0
   0
LINE
   5
2D6
 100
AcDbEntity
   8
LEVEL001
 100
AcDbLine
   6
CONTINUOUS
  62
1
  10
 86.806158309807
  20
 79.683456730583
  30
0.0
  11
 86.228697100254
  21
 79.683456730583
  31
0.0
   0
LINE
   5
2D7
 100
AcDbEntity
   8
LEVEL001
 100
AcDbLine
   6
CONTINUOUS
  62
1
  10
 86.806158309807
  20
 88.609544731252
  30
0.0
  11
 86.806158309807
  21
 88.793263996029
  31
0.0
   0
ELLIPSE
   5
2D8
 100
AcDbEntity
   8
LEVEL001
   6
CONTINUOUS
  62
1
 100
AcDbEllipse
  10
 86.660559203593
  20
 86.016354230066
  30
0.0
  11
-2.0278938858937
  21
-2.8140495648375
  31
0.0
  40
 0.51956057655157
  41
-2.2537365544630
  42
-2.1954639382104
   0
LINE
   5
2D9
 100
AcDbEntity
   8
LEVEL001
 100
AcDbLine
   6
CONTINUOUS
  62
1
  10
 86.748036721704
  20
 89.553289386302
  30
0.0
  11
 85.015410013664
  21
 100.81536298857
  31
0.0
   0
ARC
   5
2DA
 100
AcDbEntity
   8
LEVEL001
   6
CONTINUOUS
  62
1
 100
AcDbCircle
  10
 101.41021652857
  20
 79.683456730583
  30
0.0
  40
 14.604058218761
 100
AcDbArc
  50
 180.00000000000
  51
0.0
   0
LINE
   5
2DB
 100
AcDbEntity
   8
LEVEL001
 100
AcDbLine
   6
CONTINUOUS
  62
1
  10
 115.56452177531
  20
 85.299140646075
  30
0.0
  11
 116.56417910028
  21
 85.299140646075
  31
0.0
   0
ELLIPSE
   5
2DC
 100
AcDbEntity
   8
LEVEL001
   6
CONTINUOUS
  62
1
 100
AcDbEllipse
  10
 115.48596401060
  20
 85.299140646075
  30
0.0
  11
0.0
  21
-2.0000000000000
  31
0.0
  40
 0.39278882353784E-1
  41
 1.5707963267949
  42
 3.1241393610700
   0
ARC
   5
2DD
 100
AcDbEntity
   8
LEVEL001
   6
CONTINUOUS
  62
1
 100
AcDbCircle
  10
 115.48670466187
  20
 88.299123630235
  30
0.0
  40
 1.0002877924735
 100
AcDbArc
  50
 270.03610719568
  51
 359.97480291234
   0
LINE
   5
2DE
 100
AcDbEntity
   8
LEVEL001
 100
AcDbLine
   6
CONTINUOUS
  62
1
  10
 87.255911281830
  20
 83.067772815092
  30
0.0
  11
 86.256253956854
  21
 83.067772815092
  31
0.0
   0
ELLIPSE
   5
2DF
 100
AcDbEntity
   8
LEVEL001
   6
CONTINUOUS
  62
1
 100
AcDbEllipse
  10
 87.334469046537
  20
 83.067772815092
  30
0.0
  11
0.0
  21
-2.0000000000000
  31
0.0
  40
 0.39278882353798E-1
  41
-1.5707963267949
  42
-0.17453292519971E-1
   0
ARC
   5
2E0
 100
AcDbEntity
   8
LEVEL001
   6
CONTINUOUS
  62
1
 100
AcDbCircle
  10
 87.333728395269
  20
 80.067789830932
  30
0.0
  40
 1.0002877924736
 100
AcDbArc
  50
 90.036107195682
  51
 179.97480291234
   0
LINE
   5
2E1
 100
AcDbEntity
   8
LEVEL001
 100
AcDbLine
   6
CONTINUOUS
  62
1
  10
 115.56452177531
  20
 83.067772815092
  30
0.0
  11
 115.56452177531
  21
 85.299140646075
  31
0.0
   0
LINE
   5
2E2
 100
AcDbEntity
   8
LEVEL001
 100
AcDbLine
   6
CONTINUOUS
  62
1
  10
 115.56452177531
  20
 83.067772815092
  30
0.0
  11
 116.56417910028
  21
 83.067772815092
  31
0.0
   0
LINE
   5
2E3
 100
AcDbEntity
   8
LEVEL001
 100
AcDbLine
   6
CONTINUOUS
  62
1
  10
 87.255911281830
  20
 85.299140646075
  30
0.0
  11
 87.255911281830
  21
 83.067772815092
  31
0.0
   0
LINE
   5
2E4
 100
AcDbEntity
   8
LEVEL001
 100
AcDbLine
   6
CONTINUOUS
  62
1
  10
 87.255911281830
  20
 85.299140646075
  30
0.0
  11
 86.256253956854
  21
 85.299140646075
  31
0.0
   0
ELLIPSE
   5
2E5
 100
AcDbEntity
   8
LEVEL001
   6
CONTINUOUS
  62
1
 100
AcDbEllipse
  10
 115.48596401060
  20
 83.067772815092
  30
0.0
  11
0.0
  21
-2.0000000000000
  31
0.0
  40
 0.39278882353784E-1
  41
 0.17453292520522E-1
  42
 1.5707963267949
   0
ARC
   5
2E6
 100
AcDbEntity
   8
LEVEL001
   6
CONTINUOUS
  62
1
 100
AcDbCircle
  10
 115.48670466187
  20
 80.067789830932
  30
0.0
  40
 1.0002877924735
 100
AcDbArc
  50
 0.25197087664208E-1
  51
 89.963892804347
   0
ELLIPSE
   5
2E7
 100
AcDbEntity
   8
LEVEL001
   6
CONTINUOUS
  62
1
 100
AcDbEllipse
  10
 87.334469046537
  20
 85.299140646075
  30
0.0
  11
0.0
  21
-2.0000000000000
  31
0.0
  40
 0.39278882353798E-1
  41
-3.1241393610698
  42
-1.5707963267949
   0
ARC
   5
2E8
 100
AcDbEntity
   8
LEVEL001
   6
CONTINUOUS
  62
1
 100
AcDbCircle
  10
 87.333728395269
  20
 88.299123630235
  30
0.0
  40
 1.0002877924735
 100
AcDbArc
  50
 180.02519708767
  51
 269.96389280431
   0
LINE
   5
2E9
 100
AcDbEntity
   8
LEVEL001
 100
AcDbLine
   6
CONTINUOUS
  62
1
  10
 87.660216528569
  20
 83.067772815092
  30
0.0
  11
 87.660216528569
  21
 85.299140646075
  31
0.0
   0
LINE
   5
2EA
 100
AcDbEntity
   8
LEVEL001
 100
AcDbLine
   6
CONTINUOUS
  62
1
  10
 87.255911281830
  20
 83.067772815092
  30
0.0
  11
 87.660216528569
  21
 83.067772815092
  31
0.0
   0
LINE
   5
2EB
 100
AcDbEntity
   8
LEVEL001
 100
AcDbLine
   6
CONTINUOUS
  62
1
  10
 87.660216528569
  20
 85.299140646075
  30
0.0
  11
 87.255911281830
  21
 85.299140646075
  31
0.0
   0
LINE
   5
2EC
 100
AcDbEntity
   8
LEVEL001
 100
AcDbLine
   6
CONTINUOUS
  62
1
  10
 89.160216528569
  20
 83.067772815092
  30
0.0
  11
 87.660216528569
  21
 83.067772815092
  31
0.0
   0
LINE
   5
2ED
 100
AcDbEntity
   8
LEVEL001
 100
AcDbLine
   6
CONTINUOUS
  62
1
  10
 89.160216528569
  20
 85.299140646075
  30
0.0
  11
 87.660216528569
  21
 85.299140646075
  31
0.0
   0
LINE
   5
2EE
 100
AcDbEntity
   8
LEVEL001
 100
AcDbLine
   6
CONTINUOUS
  62
1
  10
 113.66021652857
  20
 85.299140646075
  30
0.0
  11
 115.16021652857
  21
 85.299140646075
  31
0.0
   0
LINE
   5
2EF
 100
AcDbEntity
   8
LEVEL001
 100
AcDbLine
   6
CONTINUOUS
  62
1
  10
 115.16021652857
  20
 85.299140646075
  30
0.0
  11
 115.16021652857
  21
 83.067772815092
  31
0.0
   0
LINE
   5
2F0
 100
AcDbEntity
   8
LEVEL001
 100
AcDbLine
   6
CONTINUOUS
  62
1
  10
 113.66021652857
  20
 83.067772815092
  30
0.0
  11
 115.16021652857
  21
 83.067772815092
  31
0.0
   0
LINE
   5
2F1
 100
AcDbEntity
   8
LEVEL001
 100
AcDbLine
   6
CONTINUOUS
  62
1
  10
 115.16021652857
  20
 87.298836036388
  30
0.0
  11
 115.16021652857
  21
 85.299140646075
  31
0.0
   0
LINE
   5
2F2
 100
AcDbEntity
   8
LEVEL001
 100
AcDbLine
   6
CONTINUOUS
  62
1
  10
 87.660216528569
  20
 85.299140646075
  30
0.0
  11
 87.660216528569
  21
 87.298836036388
  31
0.0
   0
LINE
   5
2F3
 100
AcDbEntity
   8
LEVEL001
 100
AcDbLine
   6
CONTINUOUS
  62
1
  10
 115.56452177531
  20
 85.299140646075
  30
0.0
  11
 115.16021652857
  21
 85.299140646075
  31
0.0
   0
LINE
   5
2F4
 100
AcDbEntity
   8
LEVEL001
 100
AcDbLine
   6
CONTINUOUS
  62
1
  10
 115.16021652857
  20
 83.067772815092
  30
0.0
  11
 115.56452177531
  21
 83.067772815092
  31
0.0
   0
LINE
   5
2F5
 100
AcDbEntity
   8
LEVEL001
 100
AcDbLine
   6
CONTINUOUS
  62
1
  10
 87.660216528569
  20
 81.068077424779
  30
0.0
  11
 87.660216528569
  21
 83.067772815092
  31
0.0
   0
LINE
   5
2F6
 100
AcDbEntity
   8
LEVEL001
 100
AcDbLine
   6
CONTINUOUS
  62
1
  10
 87.660216528569
  20
 81.068077424779
  30
0.0
  11
 87.333098024499
  21
 81.068077424779
  31
0.0
   0
LINE
   5
2F7
 100
AcDbEntity
   8
LEVEL001
 100
AcDbLine
   6
CONTINUOUS
  62
1
  10
 115.16021652857
  20
 83.067772815092
  30
0.0
  11
 115.16021652857
  21
 81.068077424779
  31
0.0
   0
LINE
   5
2F8
 100
AcDbEntity
   8
LEVEL001
 100
AcDbLine
   6
CONTINUOUS
  62
1
  10
 115.48733503264
  20
 81.068077424779
  30
0.0
  11
 115.16021652857
  21
 81.068077424779
  31
0.0
   0
LINE
   5
2F9
 100
AcDbEntity
   8
LEVEL001
 100
AcDbLine
   6
CONTINUOUS
  62
1
  10
 87.333098024499
  20
 87.298836036388
  30
0.0
  11
 87.660216528569
  21
 87.298836036388
  31
0.0
   0
LINE
   5
2FA
 100
AcDbEntity
   8
LEVEL001
 100
AcDbLine
   6
CONTINUOUS
  62
1
  10
 115.16021652857
  20
 87.298836036388
  30
0.0
  11
 115.48733503264
  21
 87.298836036388
  31
0.0
   0
LINE
   5
2FB
 100
AcDbEntity
   8
LEVEL001
 100
AcDbLine
   6
CONTINUOUS
  62
1
  10
 115.16021652857
  20
 80.850026106147
  30
0.0
  11
 115.48733503264
  21
 81.068077424779
  31
0.0
   0
ARC
   5
2FC
 100
AcDbEntity
   8
LEVEL001
   6
CONTINUOUS
  62
1
 100
AcDbCircle
  10
 115.15958615780
  20
 79.849738512300
  30
0.0
  40
 1.0002877924735
 100
AcDbArc
  50
 0.25197087663386E-1
  51
 89.963892804330
   0
LINE
   5
2FD
 100
AcDbEntity
   8
LEVEL001
 100
AcDbLine
   6
CONTINUOUS
  62
1
  10
 87.660216528569
  20
 87.516887355020
  30
0.0
  11
 87.333098024499
  21
 87.298836036388
  31
0.0
   0
LINE
   5
2FE
 100
AcDbEntity
   8
LEVEL001
 100
AcDbLine
   6
CONTINUOUS
  62
1
  10
 87.660216528569
  20
 87.298836036388
  30
0.0
  11
 87.660216528569
  21
 87.516887355020
  31
0.0
   0
LINE
   5
2FF
 100
AcDbEntity
   8
LEVEL001
 100
AcDbLine
   6
CONTINUOUS
  62
1
  10
 87.660216528569
  20
 80.850026106147
  30
0.0
  11
 87.660216528569
  21
 81.068077424779
  31
0.0
   0
LINE
   5
300
 100
AcDbEntity
   8
LEVEL001
 100
AcDbLine
   6
CONTINUOUS
  62
1
  10
 87.333098024499
  20
 81.068077424779
  30
0.0
  11
 87.660216528569
  21
 80.850026106147
  31
0.0
   0
ELLIPSE
   5
301
 100
AcDbEntity
   8
LEVEL001
   6
CONTINUOUS
  62
1
 100
AcDbEllipse
  10
 87.660216528569
  20
 86.016354230066
  30
0.0
  11
-1.2926354674680
  21
-2.1973317328123
  31
0.0
  40
 0.34632092723602
  41
-2.1611424722089
  42
-2.1028698559563
   0
LINE
   5
302
 100
AcDbEntity
   8
LEVEL001
 100
AcDbLine
   6
CONTINUOUS
  62
1
  10
 115.16021652857
  20
 81.068077424779
  30
0.0
  11
 115.16021652857
  21
 80.850026106147
  31
0.0
   0
ARC
   5
303
 100
AcDbEntity
   8
LEVEL001
   6
CONTINUOUS
  62
1
 100
AcDbCircle
  10
 87.660846899339
  20
 88.517174948867
  30
0.0
  40
 1.0002877924735
 100
AcDbArc
  50
 180.02519708767
  51
 269.96389280432
   0
ARC
   5
304
 100
AcDbEntity
   8
LEVEL001
   6
CONTINUOUS
  62
1
 100
AcDbCircle
  10
 87.660846899339
  20
 79.849738512300
  30
0.0
  40
 1.0002877924736
 100
AcDbArc
  50
 90.036107195683
  51
 179.97480291232
   0
ELLIPSE
   5
305
 100
AcDbEntity
   8
LEVEL001
   6
CONTINUOUS
  62
1
 100
AcDbEllipse
  10
 87.660216528569
  20
 82.350559231101
  30
0.0
  11
 1.2926354674680
  21
-2.1973317328123
  31
0.0
  40
 0.34632092723603
  41
-1.0387227976335
  42
-0.98045018138090
   0
LINE
   5
306
 100
AcDbEntity
   8
LEVEL001
 100
AcDbLine
   6
CONTINUOUS
  62
1
  10
 115.16021652857
  20
 87.516887355020
  30
0.0
  11
 115.16021652857
  21
 87.298836036388
  31
0.0
   0
LINE
   5
307
 100
AcDbEntity
   8
LEVEL001
 100
AcDbLine
   6
CONTINUOUS
  62
1
  10
 115.48733503264
  20
 87.298836036388
  30
0.0
  11
 115.16021652857
  21
 87.516887355020
  31
0.0
   0
ELLIPSE
   5
308
 100
AcDbEntity
   8
LEVEL001
   6
CONTINUOUS
  62
1
 100
AcDbEllipse
  10
 115.16021652857
  20
 86.016354230066
  30
0.0
  11
 1.2926354674680
  21
-2.1973317328123
  31
0.0
  40
 0.34632092723603
  41
 2.1028698559563
  42
 2.1611424722089
   0
ELLIPSE
   5
309
 100
AcDbEntity
   8
LEVEL001
   6
CONTINUOUS
  62
1
 100
AcDbEllipse
  10
 115.16021652857
  20
 82.350559231101
  30
0.0
  11
-1.2926354674680
  21
-2.1973317328123
  31
0.0
  40
 0.34632092723602
  41
 0.98045018138093
  42
 1.0387227976335
   0
ARC
   5
30A
 100
AcDbEntity
   8
LEVEL001
   6
CONTINUOUS
  62
1
 100
AcDbCircle
  10
 115.15958615780
  20
 88.517174948867
  30
0.0
  40
 1.0002877924735
 100
AcDbArc
  50
 270.03610719568
  51
 359.97480291232
   0
ARC
   5
30B
 100
AcDbEntity
   8
LEVEL001
   6
CONTINUOUS
  62
1
 100
AcDbCircle
  10
 115.01399783414
  20
 88.609937910085
  30
0.0
  40
 1.0002769904681
 100
AcDbArc
  50
 273.37340028583
  51
 359.97747874986
   0
ARC
   5
30C
 100
AcDbEntity
   8
LEVEL001
   6
CONTINUOUS
  62
1
 100
AcDbCircle
  10
 87.806435223002
  20
 88.609937910085
  30
0.0
  40
 1.0002769904683
 100
AcDbArc
  50
 180.02252125016
  51
 266.62659971418
   0
ARC
   5
30D
 100
AcDbEntity
   8
LEVEL001
   6
CONTINUOUS
  62
1
 100
AcDbCircle
  10
 87.806435223002
  20
 79.756975551082
  30
0.0
  40
 1.0002769904682
 100
AcDbArc
  50
 93.373400285841
  51
 179.97747874987
   0
ARC
   5
30E
 100
AcDbEntity
   8
LEVEL001
   6
CONTINUOUS
  62
1
 100
AcDbCircle
  10
 115.01399783413
  20
 79.756975551082
  30
0.0
  40
 1.0002769904682
 100
AcDbArc
  50
 0.22521250150781E-1
  51
 86.626599714114
   0
LINE
   5
30F
 100
AcDbEntity
   8
LEVEL001
 100
AcDbLine
   6
CONTINUOUS
  62
1
  10
 89.160216528569
  20
 82.253505482362
  30
0.0
  11
 90.160216528569
  21
 82.253505482362
  31
0.0
   0
ELLIPSE
   5
310
 100
AcDbEntity
   8
LEVEL001
   6
CONTINUOUS
  62
1
 100
AcDbEllipse
  10
 87.660216528569
  20
 82.253505482362
  30
0.0
  11
0.0
  21
-2.5003808201097
  31
0.0
  40
 0.99984769515640
  41
 0.58272616282082E-1
  42
 1.5707963267949
   0
LINE
   5
311
 100
AcDbEntity
   8
LEVEL001
 100
AcDbLine
   6
CONTINUOUS
  62
1
  10
 87.747575992297
  20
 80.755519315081
  30
0.0
  11
 87.805815634857
  21
 79.757368729915
  31
0.0
   0
LINE
   5
312
 100
AcDbEntity
   8
LEVEL001
 100
AcDbLine
   6
CONTINUOUS
  62
1
  10
 112.66021652857
  20
 82.253505482362
  30
0.0
  11
 112.66021652857
  21
 86.113407978805
  31
0.0
   0
LINE
   5
313
 100
AcDbEntity
   8
LEVEL001
 100
AcDbLine
   6
CONTINUOUS
  62
1
  10
 112.66021652857
  20
 86.113407978805
  30
0.0
  11
 113.66021652857
  21
 86.113407978805
  31
0.0
   0
LINE
   5
314
 100
AcDbEntity
   8
LEVEL001
 100
AcDbLine
   6
CONTINUOUS
  62
1
  10
 112.66021652857
  20
 82.253505482362
  30
0.0
  11
 113.66021652857
  21
 82.253505482362
  31
0.0
   0
LINE
   5
315
 100
AcDbEntity
   8
LEVEL001
 100
AcDbLine
   6
CONTINUOUS
  62
1
  10
 89.160216528569
  20
 86.113407978805
  30
0.0
  11
 90.160216528550
  21
 86.113407978805
  31
0.0
   0
LINE
   5
316
 100
AcDbEntity
   8
LEVEL001
 100
AcDbLine
   6
CONTINUOUS
  62
1
  10
 90.160216528550
  20
 86.113407978805
  30
0.0
  11
 90.160216528569
  21
 82.253505482362
  31
0.0
   0
ELLIPSE
   5
317
 100
AcDbEntity
   8
LEVEL001
   6
CONTINUOUS
  62
1
 100
AcDbEllipse
  10
 115.16021652857
  20
 82.253505482362
  30
0.0
  11
0.0
  21
-2.5003808201098
  31
0.0
  40
 0.99984769515639
  41
-1.5707963267949
  42
-0.58272616252552E-1
   0
LINE
   5
318
 100
AcDbEntity
   8
LEVEL001
 100
AcDbLine
   6
CONTINUOUS
  62
1
  10
 115.01461742235
  20
 79.757368729915
  30
0.0
  11
 115.07285706484
  21
 80.755519315081
  31
0.0
   0
LINE
   5
319
 100
AcDbEntity
   8
LEVEL001
 100
AcDbLine
   6
CONTINUOUS
  62
1
  10
 87.747575992297
  20
 87.611394146086
  30
0.0
  11
 87.805815634783
  21
 88.609544731252
  31
0.0
   0
ELLIPSE
   5
31A
 100
AcDbEntity
   8
LEVEL001
   6
CONTINUOUS
  62
1
 100
AcDbEllipse
  10
 87.660216528569
  20
 86.113407978805
  30
0.0
  11
0.0
  21
 2.5003808201098
  31
0.0
  40
 0.99984769515639
  41
-1.5707963267949
  42
-0.58272616252547E-1
   0
ELLIPSE
   5
31B
 100
AcDbEntity
   8
LEVEL001
   6
CONTINUOUS
  62
1
 100
AcDbEllipse
  10
 115.16021652857
  20
 86.113407978805
  30
0.0
  11
0.0
  21
 2.5003808201097
  31
0.0
  40
 0.99984769515640
  41
 0.58272616252563E-1
  42
 1.5707963267949
   0
LINE
   5
31C
 100
AcDbEntity
   8
LEVEL001
 100
AcDbLine
   6
CONTINUOUS
  62
1
  10
 115.01461742235
  20
 88.609544731252
  30
0.0
  11
 115.07285706484
  21
 87.611394146086
  31
0.0
   0
LINE
   5
31D
 100
AcDbEntity
   8
LEVEL001
 100
AcDbLine
   6
CONTINUOUS
  62
1
  10
 86.806158309807
  20
 88.609544731252
  30
0.0
  11
 87.805815634783
  21
 88.609544731252
  31
0.0
   0
LINE
   5
31E
 100
AcDbEntity
   8
LEVEL001
 100
AcDbLine
   6
CONTINUOUS
  62
1
  10
 116.01427474733
  20
 79.757368729915
  30
0.0
  11
 115.01461742235
  21
 79.757368729915
  31
0.0
   0
LINE
   5
31F
 100
AcDbEntity
   8
LEVEL001
 100
AcDbLine
   6
CONTINUOUS
  62
1
  10
 115.01461742235
  20
 88.609544731252
  30
0.0
  11
 116.01427474733
  21
 88.609544731252
  31
0.0
   0
LINE
   5
320
 100
AcDbEntity
   8
LEVEL001
 100
AcDbLine
   6
CONTINUOUS
  62
1
  10
 86.806158309807
  20
 79.757368729915
  30
0.0
  11
 87.805815634857
  21
 79.757368729915
  31
0.0
   0
LINE
   5
321
 100
AcDbEntity
   8
LEVEL001
 100
AcDbLine
   6
CONTINUOUS
  62
1
  10
 84.028718347107
  20
 101.68160262319
  30
0.0
  11
 84.028718347107
  21
 102.67330512985
  31
0.0
   0
ELLIPSE
   5
322
 100
AcDbEntity
   8
LEVEL001
   6
CONTINUOUS
  62
1
 100
AcDbEllipse
  10
 84.027034036880
  20
 100.65657129428
  30
0.0
  11
 0.10179020810557
  21
 2.0142059920724
  31
0.0
  40
 0.99168157935797
  41
-1.3659968695366
  42
 0.50073871451603E-1
   0
LINE
   5
323
 100
AcDbEntity
   8
LEVEL001
 100
AcDbLine
   6
CONTINUOUS
  62
1
  10
 85.015410013664
  20
 100.81536298857
  30
0.0
  11
 86.003443021002
  21
 100.96736806662
  31
0.0
   0
LINE
   5
324
 100
AcDbEntity
   8
LEVEL001
 100
AcDbLine
   6
CONTINUOUS
  62
1
  10
 86.003443021002
  20
 100.96736806662
  30
0.0
  11
 87.736069729059
  21
 89.705294464357
  31
0.0
   0
LINE
   5
325
 100
AcDbEntity
   8
LEVEL001
 100
AcDbLine
   6
CONTINUOUS
  62
1
  10
 86.748036721704
  20
 89.553289386302
  30
0.0
  11
 87.736069729059
  21
 89.705294464357
  31
0.0
   0
LINE
   5
326
 100
AcDbEntity
   8
LEVEL001
 100
AcDbLine
   6
CONTINUOUS
  62
1
  10
 115.01461742235
  20
 88.609544731252
  30
0.0
  11
 115.01461742235
  21
 88.793263996029
  31
0.0
   0
LINE
   5
327
 100
AcDbEntity
   8
LEVEL001
 100
AcDbLine
   6
CONTINUOUS
  62
1
  10
 115.01461742235
  20
 88.793263996029
  30
0.0
  11
 116.01427474733
  21
 88.793263996029
  31
0.0
   0
ELLIPSE
   5
328
 100
AcDbEntity
   8
LEVEL001
   6
CONTINUOUS
  62
1
 100
AcDbEllipse
  10
 121.01667417730
  20
 88.792949476585
  30
0.0
  11
-5.9845948774579
  21
 0.45766123458807
  31
0.0
  40
 0.99965532199550
  41
-0.76298458761707E-1
  42
 0.76298458761713E-1
   0
LINE
   5
329
 100
AcDbEntity
   8
LEVEL001
 100
AcDbLine
   6
CONTINUOUS
  62
1
  10
 115.08436332808
  20
 89.705294464357
  30
0.0
  11
 116.07239633543
  21
 89.553289386302
  31
0.0
   0
LINE
   5
32A
 100
AcDbEntity
   8
LEVEL001
 100
AcDbLine
   6
CONTINUOUS
  62
1
  10
 115.08436332808
  20
 89.705294464357
  30
0.0
  11
 116.81699003612
  21
 100.96736806662
  31
0.0
   0
LINE
   5
32B
 100
AcDbEntity
   8
LEVEL001
 100
AcDbLine
   6
CONTINUOUS
  62
1
  10
 116.81699003612
  20
 100.96736806662
  30
0.0
  11
 117.80502304347
  21
 100.81536298857
  31
0.0
   0
ELLIPSE
   5
32C
 100
AcDbEntity
   8
LEVEL001
   6
CONTINUOUS
  62
1
 100
AcDbEllipse
  10
 118.79339902026
  20
 100.65657129428
  30
0.0
  11
 0.10179020810554
  21
-2.0142059920724
  31
0.0
  40
 0.99168157935795
  41
 3.0915187821382
  42
-1.7755957840531
   0
LINE
   5
32D
 100
AcDbEntity
   8
LEVEL001
 100
AcDbLine
   6
CONTINUOUS
  62
1
  10
 118.79171471003
  20
 102.67330512985
  30
0.0
  11
 118.79171471003
  21
 101.68160262319
  31
0.0
   0
ELLIPSE
   5
32E
 100
AcDbEntity
   8
LEVEL001
   6
CONTINUOUS
  62
1
 100
AcDbEllipse
  10
 81.803758879838
  20
 88.792949476585
  30
0.0
  11
 5.9845948774578
  21
 0.45766123458804
  31
0.0
  40
 0.99965532199550
  41
-0.76298458761700E-1
  42
 0.76298458761726E-1
   0
LINE
   5
32F
 100
AcDbEntity
   8
LEVEL001
 100
AcDbLine
   6
CONTINUOUS
  62
1
  10
 86.806158309807
  20
 88.793263996029
  30
0.0
  11
 87.805815634857
  21
 88.793263996029
  31
0.0
   0
LINE
   5
330
 100
AcDbEntity
   8
LEVEL001
 100
AcDbLine
   6
CONTINUOUS
  62
1
  10
 116.01427474733
  20
 79.683456730583
  30
0.0
  11
 115.01461742235
  21
 79.683456730583
  31
0.0
   0
LINE
   5
331
 100
AcDbEntity
   8
LEVEL001
 100
AcDbLine
   6
CONTINUOUS
  62
1
  10
 115.01461742235
  20
 79.683456730583
  30
0.0
  11
 115.01461742235
  21
 79.757368729915
  31
0.0
   0
LINE
   5
332
 100
AcDbEntity
   8
LEVEL001
 100
AcDbLine
   6
CONTINUOUS
  62
1
  10
 86.806158309807
  20
 79.683456730583
  30
0.0
  11
 87.805815634783
  21
 79.683456730583
  31
0.0
   0
ARC
   5
333
 100
AcDbEntity
   8
LEVEL001
   6
CONTINUOUS
  62
1
 100
AcDbCircle
  10
 101.41021652857
  20
 79.683456730583
  30
0.0
  40
 13.604400893786
 100
AcDbArc
  50
 180.00000000000
  51
0.0
   0
LINE
   5
334
 100
AcDbEntity
   8
LEVEL001
 100
AcDbLine
   6
CONTINUOUS
  62
1
  10
 87.805815634857
  20
 79.757368729915
  30
0.0
  11
 87.805815634783
  21
 79.683456730583
  31
0.0
   0
LINE
   5
335
 100
AcDbEntity
   8
LEVEL001
 100
AcDbLine
   6
CONTINUOUS
  62
1
  10
 87.805815634857
  20
 88.793263996029
  30
0.0
  11
 87.805815634783
  21
 88.609544731252
  31
0.0
   0
LINE
   5
336
 100
AcDbEntity
   8
LEVEL001
 100
AcDbLine
   6
CONTINUOUS
  62
1
  10
 78.118475299703
  20
 79.683456730583
  30
0.0
  11
 78.118475299703
  21
 100.67013987553
  31
0.0
   0
LINE
   5
337
 100
AcDbEntity
   8
LEVEL001
 100
AcDbLine
   6
CONTINUOUS
  62
1
  10
 78.118475299703
  20
 100.67013987553
  30
0.0
  11
 79.117104834457
  21
 100.67013987553
  31
0.0
   0
LINE
   5
338
 100
AcDbEntity
   8
LEVEL001
 100
AcDbLine
   6
CONTINUOUS
  62
1
  10
 78.118475299703
  20
 79.683456730583
  30
0.0
  11
 79.117104834457
  21
 79.683456730583
  31
0.0
   0
ELLIPSE
   5
339
 100
AcDbEntity
   8
LEVEL001
   6
CONTINUOUS
  62
1
 100
AcDbEllipse
  10
 80.121219991699
  20
 100.65657129428
  30
0.0
  11
-0.75692369793067
  21
 1.8722361443846
  31
0.0
  40
 0.99036582802534
  41
-0.38084563907448
  42
 1.1832226389433
   0
LINE
   5
33A
 100
AcDbEntity
   8
LEVEL001
 100
AcDbLine
   6
CONTINUOUS
  62
1
  10
 80.107745529381
  20
 101.68160262319
  30
0.0
  11
 80.107745529381
  21
 102.67330512985
  31
0.0
   0
ARC
   5
33B
 100
AcDbEntity
   8
LEVEL001
   6
CONTINUOUS
  62
1
 100
AcDbCircle
  10
 101.41021652857
  20
 79.683456730583
  30
0.0
  40
 23.291741228866
 100
AcDbArc
  50
 180.00000000000
  51
0.0
   0
LINE
   5
33C
 100
AcDbEntity
   8
LEVEL001
 100
AcDbLine
   6
CONTINUOUS
  62
1
  10
 124.70195775743
  20
 79.683456730583
  30
0.0
  11
 123.70332822268
  21
 79.683456730583
  31
0.0
   0
LINE
   5
33D
 100
AcDbEntity
   8
LEVEL001
 100
AcDbLine
   6
CONTINUOUS
  62
1
  10
 124.70195775743
  20
 100.67013987553
  30
0.0
  11
 124.70195775743
  21
 79.683456730583
  31
0.0
   0
LINE
   5
33E
 100
AcDbEntity
   8
LEVEL001
 100
AcDbLine
   6
CONTINUOUS
  62
1
  10
 124.70195775743
  20
 100.67013987553
  30
0.0
  11
 123.70332822268
  21
 100.67013987553
  31
0.0
   0
ELLIPSE
   5
33F
 100
AcDbEntity
   8
LEVEL001
   6
CONTINUOUS
  62
1
 100
AcDbEllipse
  10
 122.69921306544
  20
 100.65657129428
  30
0.0
  11
-0.75692369793069
  21
-1.8722361443846
  31
0.0
  40
 0.99036582802531
  41
 1.9583700146465
  42
-2.7607470145153
   0
LINE
   5
340
 100
AcDbEntity
   8
LEVEL001
 100
AcDbLine
   6
CONTINUOUS
  62
1
  10
 122.71268752776
  20
 102.67330512985
  30
0.0
  11
 122.71268752776
  21
 101.68160262319
  31
0.0
   0
LINE
   5
341
 100
AcDbEntity
   8
LEVEL001
 100
AcDbLine
   6
CONTINUOUS
  62
1
  10
 118.79171471003
  20
 102.67330512985
  30
0.0
  11
 122.71268752776
  21
 102.67330512985
  31
0.0
   0
LINE
   5
342
 100
AcDbEntity
   8
LEVEL001
 100
AcDbLine
   6
CONTINUOUS
  62
1
  10
 80.107745529381
  20
 102.67330512985
  30
0.0
  11
 84.028718347107
  21
 102.67330512985
  31
0.0
   0
DIMENSION
   5
343
 100
AcDbEntity
   8
LEVEL001
   6
CONTINUOUS
  62
2
 100
AcDbDimension
   2
*D4
  10
 141.41021652857
  20
 14.169608417864
  30
0.0
  11
 101.41021652857
  21
 14.169608417864
  31
0.0
  70
0
   3
GMM003
 100
AcDbAlignedDimension
  13
 61.410216528569
  23
 36.683456730606
  33
0.0
  14
 141.41021652857
  24
 36.683456730606
  34
0.0
 100
AcDbRotatedDimension
   0
DIMENSION
   5
344
 100
AcDbEntity
   8
LEVEL001
   6
CONTINUOUS
  62
2
 100
AcDbDimension
   2
*D5
  10
 36.263761532917
  20
 130.68345673058
  30
0.0
  11
 36.263761532917
  21
 80.683456730583
  31
0.0
  70
0
   3
GMM003
 100
AcDbAlignedDimension
  13
 69.410216528569
  23
 30.683456730583
  33
0.0
  14
 69.410216528569
  24
 130.68345673058
  34
0.0
  50
 90.000000000000
 100
AcDbRotatedDimension
   0
LINE
   5
345
 100
AcDbEntity
   8
LEVEL001
 100
AcDbLine
   6
CONTINUOUS
  62
6
  10
 147.43404723727
  20
 20.635816761586
  30
0.0
  11
 162.15203472940
  21
 20.635816761586
  31
0.0
   0
TEXT
   5
346
 100
AcDbEntity
   8
LEVEL001
  62
6
 100
AcDbText
  10
 147.30492813142
  20
 20.781303366241
  30
0.0
  40
 5.0000000000000
   1
Ａ矢視
   7
STANDARD
 100
AcDbText
   0
DIMENSION
   5
347
 100
AcDbEntity
   8
LEVEL001
   6
CONTINUOUS
  62
2
 100
AcDbDimension
   2
*D6
  10
 44.702512965335
  20
 130.68345673058
  30
0.0
  11
 44.702512965335
  21
 105.18345673058
  31
0.0
  70
0
   3
GMM004
 100
AcDbAlignedDimension
  13
 101.41021652857
  23
 79.683456730583
  33
0.0
  14
 69.410216528569
  24
 130.68345673058
  34
0.0
  50
 90.000000000000
 100
AcDbRotatedDimension
   0
CIRCLE
   5
348
 100
AcDbEntity
   8
LEVEL001
 100
AcDbCircle
   6
CONTINUOUS
  62
7
  10
 101.41021652857
  20
 73.183456730583
  30
0.0
  40
 5.5000000000000
   0
CIRCLE
   5
349
 100
AcDbEntity
   8
LEVEL001
 100
AcDbCircle
   6
CONTINUOUS
  62
7
  10
 101.41021652857
  20
 93.183456730583
  30
0.0
  40
 5.5000000000000
   0
CIRCLE
   5
34A
 100
AcDbEntity
   8
LEVEL001
 100
AcDbCircle
   6
CONTINUOUS
  62
7
  10
 101.41021652857
  20
 93.183456730583
  30
0.0
  40
 2.2500000000000
   0
CIRCLE
   5
34B
 100
AcDbEntity
   8
LEVEL001
 100
AcDbCircle
   6
CONTINUOUS
  62
1
  10
 101.41021652857
  20
 73.183456730583
  30
0.0
  40
 5.0000000000000
   0
CIRCLE
   5
34C
 100
AcDbEntity
   8
LEVEL001
 100
AcDbCircle
   6
CONTINUOUS
  62
1
  10
 101.41021652857
  20
 93.183456730583
  30
0.0
  40
 5.0000000000000
   0
CIRCLE
   5
34D
 100
AcDbEntity
   8
LEVEL001
 100
AcDbCircle
   6
CONTINUOUS
  62
7
  10
 101.41021652857
  20
 73.183456730583
  30
0.0
  40
 2.2500000000000
   0
LINE
   5
34E
 100
AcDbEntity
   8
LEVEL001
 100
AcDbLine
   6
DASHDOT
  62
2
  10
 101.41021652857
  20
 24.177709361819
  30
0.0
  11
 101.41021652857
  21
 137.27580442513
  31
0.0
   0
LINE
   5
34F
 100
AcDbEntity
   8
LEVEL001
 100
AcDbLine
   6
DASHDOT
  62
2
  10
 93.510907495378
  20
 93.183456730583
  30
0.0
  11
 108.74657357753
  21
 93.183456730583
  31
0.0
   0
LINE
   5
350
 100
AcDbEntity
   8
LEVEL001
 100
AcDbLine
   6
DASHDOT
  62
2
  10
 93.510907495378
  20
 73.183456730583
  30
0.0
  11
 108.66722115002
  21
 73.183456730583
  31
0.0
   0
DIMENSION
   5
351
 100
AcDbEntity
   8
LEVEL001
   6
CONTINUOUS
  62
2
 100
AcDbDimension
   2
*D7
  10
 158.48070752018
  20
 93.183456730583
  30
0.0
  11
 158.48070752018
  21
 111.93345673058
  31
0.0
  70
0
   3
GMM004
 100
AcDbAlignedDimension
  13
 133.41021652857
  23
 130.68345673058
  33
0.0
  14
 108.74657357753
  24
 93.183456730583
  34
0.0
  50
 270.00000000000
 100
AcDbRotatedDimension
   0
DIMENSION
   5
352
 100
AcDbEntity
   8
LEVEL001
   6
CONTINUOUS
  62
2
 100
AcDbDimension
   2
*D8
  10
 158.48070752018
  20
 93.183456730583
  30
0.0
  11
 158.48070752018
  21
 83.183456730583
  31
0.0
  70
0
   3
GMM004
 100
AcDbAlignedDimension
  13
 108.66722115002
  23
 73.183456730583
  33
0.0
  14
 158.48070752018
  24
 93.183456730583
  34
0.0
  50
 90.000000000000
 100
AcDbRotatedDimension
   0
DIMENSION
   5
353
 100
AcDbEntity
   8
LEVEL001
   6
CONTINUOUS
  62
2
 100
AcDbDimension
   2
*D9
  10
 158.48070752018
  20
 73.183456730583
  30
0.0
  11
 158.48070752018
  21
 51.933456730583
  31
0.0
  70
0
   3
GMM004
 100
AcDbAlignedDimension
  13
 133.41021652857
  23
 30.683456730583
  33
0.0
  14
 158.48070752018
  24
 73.183456730583
  34
0.0
  50
 90.000000000000
 100
AcDbRotatedDimension
   0
ARC
   5
354
 100
AcDbEntity
   8
LEVEL001
   6
CONTINUOUS
  62
7
 100
AcDbCircle
  10
 242.01784160782
  20
 202.34613643936
  30
0.0
  40
 4.0000000000000
 100
AcDbArc
  50
 47.545849795610
  51
 90.000000000017
   0
ARC
   5
355
 100
AcDbEntity
   8
LEVEL001
   6
CONTINUOUS
  62
7
 100
AcDbCircle
  10
 242.01784160782
  20
 188.64613643936
  30
0.0
  40
 4.0000000000000
 100
AcDbArc
  50
 269.99999999998
  51
 312.45415020439
   0
ARC
   5
356
 100
AcDbEntity
   8
LEVEL001
   6
CONTINUOUS
  62
7
 100
AcDbCircle
  10
 316.21784160780
  20
 207.00645792477
  30
0.0
  40
 0.50000000000000
 100
AcDbArc
  50
 91.195046883634
  51
 179.99999999995
   0
POINT
   5
357
 100
AcDbEntity
   8
LEVEL001
 100
AcDbPoint
  62
7
  10
 315.71784160782
  20
 207.49613643936
  30
0.0
   0
LINE
   5
358
 100
AcDbEntity
   8
LEVEL001
 100
AcDbLine
   6
CONTINUOUS
  62
7
  10
 316.20741361252
  20
 207.50634916986
  30
0.0
  11
 339.65527363600
  21
 207.99548390988
  31
0.0
   0
LINE
   5
359
 100
AcDbEntity
   8
LEVEL001
 100
AcDbLine
   6
CONTINUOUS
  62
7
  10
 316.20741361252
  20
 183.48592370886
  30
0.0
  11
 339.65527363600
  21
 182.99678896884
  31
0.0
   0
ARC
   5
35A
 100
AcDbEntity
   8
LEVEL001
   6
CONTINUOUS
  62
7
 100
AcDbCircle
  10
 339.71784160782
  20
 185.99613643936
  30
0.0
  40
 3.0000000000000
 100
AcDbArc
  50
 268.80495311456
  51
 0.10856293312733E-11
   0
ARC
   5
35B
 100
AcDbEntity
   8
LEVEL001
   6
CONTINUOUS
  62
7
 100
AcDbCircle
  10
 316.21784160781
  20
 183.98581495395
  30
0.0
  40
 0.50000000000000
 100
AcDbArc
  50
 180.00000000003
  51
 268.80495311608
   0
POINT
   5
35C
 100
AcDbEntity
   8
LEVEL001
 100
AcDbPoint
  62
7
  10
 315.71784160782
  20
 183.49613643936
  30
0.0
   0
LINE
   5
35D
 100
AcDbEntity
   8
LEVEL001
 100
AcDbLine
   6
CONTINUOUS
  62
7
  10
 342.71784160782
  20
 185.99613643936
  30
0.0
  11
 342.71784160782
  21
 204.99613643936
  31
0.0
   0
ARC
   5
35E
 100
AcDbEntity
   8
LEVEL001
   6
CONTINUOUS
  62
7
 100
AcDbCircle
  10
 281.55966734811
  20
 200.24613643936
  30
0.0
  40
 7.0424343248533
 100
AcDbArc
  50
 137.58600953676
  51
 222.41399046324
   0
ARC
   5
35F
 100
AcDbEntity
   8
LEVEL001
   6
CONTINUOUS
  62
7
 100
AcDbCircle
  10
 271.16094026834
  20
 200.24613643936
  30
0.0
  40
 7.0424343248533
 100
AcDbArc
  50
 317.58600953676
  51
 42.413990463243
   0
ARC
   5
360
 100
AcDbEntity
   8
LEVEL001
   6
CONTINUOUS
  62
7
 100
AcDbCircle
  10
 271.16094026834
  20
 190.74613643936
  30
0.0
  40
 7.0424343248533
 100
AcDbArc
  50
 317.58600953676
  51
 42.413990463243
   0
ARC
   5
361
 100
AcDbEntity
   8
LEVEL001
   6
CONTINUOUS
  62
7
 100
AcDbCircle
  10
 276.16094026834
  20
 190.74613643936
  30
0.0
  40
 7.0424343248533
 100
AcDbArc
  50
 317.58600953676
  51
 42.413990463243
   0
ARC
   5
362
 100
AcDbEntity
   8
LEVEL001
   6
CONTINUOUS
  62
7
 100
AcDbCircle
  10
 286.55966734811
  20
 190.74613643936
  30
0.0
  40
 7.0424343248533
 100
AcDbArc
  50
 137.58600953676
  51
 222.41399046324
   0
ARC
   5
363
 100
AcDbEntity
   8
LEVEL001
   6
CONTINUOUS
  62
7
 100
AcDbCircle
  10
 286.55966734811
  20
 200.24613643936
  30
0.0
  40
 7.0424343248533
 100
AcDbArc
  50
 137.58600953676
  51
 222.41399046324
   0
LINE
   5
364
 100
AcDbEntity
   8
LEVEL001
 100
AcDbLine
   6
CONTINUOUS
  62
7
  10
 315.71784160782
  20
 195.49613643936
  30
0.0
  11
 315.71784160782
  21
 183.98581495395
  31
0.0
   0
LINE
   5
365
 100
AcDbEntity
   8
LEVEL001
 100
AcDbLine
   6
CONTINUOUS
  62
7
  10
 315.71784160782
  20
 195.49613643936
  30
0.0
  11
 315.71784160782
  21
 207.00645792477
  31
0.0
   0
LINE
   5
366
 100
AcDbEntity
   8
LEVEL001
 100
AcDbLine
   6
CONTINUOUS
  62
7
  10
 244.04071726335
  20
 204.99613643936
  30
0.0
  11
 276.36030380823
  21
 204.99613643936
  31
0.0
   0
LINE
   5
367
 100
AcDbEntity
   8
LEVEL001
 100
AcDbLine
   6
CONTINUOUS
  62
7
  10
 244.04071726335
  20
 185.99613643936
  30
0.0
  11
 276.36030380823
  21
 185.99613643936
  31
0.0
   0
LINE
   5
368
 100
AcDbEntity
   8
LEVEL001
 100
AcDbLine
   6
DOT
  62
2
  10
 280.98324537550
  20
 204.49613643936
  30
0.0
  11
 339.71784160782
  21
 204.49613643936
  31
0.0
   0
LINE
   5
369
 100
AcDbEntity
   8
LEVEL001
 100
AcDbLine
   6
DOT
  62
2
  10
 281.85487761451
  20
 186.49613643936
  30
0.0
  11
 339.71784160782
  21
 186.49613643936
  31
0.0
   0
LINE
   5
36A
 100
AcDbEntity
   8
LEVEL001
 100
AcDbLine
   6
DOT
  62
2
  10
 339.71784160782
  20
 185.99613643936
  30
0.0
  11
 339.71784160782
  21
 204.99613643936
  31
0.0
   0
LINE
   5
36B
 100
AcDbEntity
   8
LEVEL001
 100
AcDbLine
   6
CONTINUOUS
  62
7
  10
 281.36030380823
  20
 204.99613643936
  30
0.0
  11
 315.71784160782
  21
 204.99613643936
  31
0.0
   0
LINE
   5
36C
 100
AcDbEntity
   8
LEVEL001
 100
AcDbLine
   6
CONTINUOUS
  62
7
  10
 281.36030380823
  20
 185.99613643936
  30
0.0
  11
 315.71784160782
  21
 185.99613643936
  31
0.0
   0
LINE
   5
36D
 100
AcDbEntity
   8
LEVEL001
 100
AcDbLine
   6
DOT
  62
2
  10
 339.71784160782
  20
 204.99613643936
  30
0.0
  11
 315.71784160782
  21
 204.99613643936
  31
0.0
   0
LINE
   5
36E
 100
AcDbEntity
   8
LEVEL001
 100
AcDbLine
   6
DOT
  62
2
  10
 339.71784160782
  20
 185.99613643936
  30
0.0
  11
 315.71784160782
  21
 185.99613643936
  31
0.0
   0
LINE
   5
36F
 100
AcDbEntity
   8
LEVEL001
 100
AcDbLine
   6
CONTINUOUS
  62
7
  10
 244.71784160782
  20
 205.29740735203
  30
0.0
  11
 244.71784160782
  21
 195.49613643936
  31
0.0
   0
LINE
   5
370
 100
AcDbEntity
   8
LEVEL001
 100
AcDbLine
   6
CONTINUOUS
  62
7
  10
 244.71784160782
  20
 185.69486552669
  30
0.0
  11
 244.71784160782
  21
 195.49613643936
  31
0.0
   0
ARC
   5
371
 100
AcDbEntity
   8
LEVEL001
   6
DOT
  62
2
 100
AcDbCircle
  10
 242.71784160782
  20
 203.49613643936
  30
0.0
  40
 1.5000000000000
 100
AcDbArc
  50
 41.810314895780
  51
 138.18968510421
   0
ARC
   5
372
 100
AcDbEntity
   8
LEVEL001
   6
DOT
  62
2
 100
AcDbCircle
  10
 242.71784160782
  20
 203.49613643936
  30
0.0
  40
 2.0000000000000
 100
AcDbArc
  50
 48.590377890728
  51
 131.40962210931
   0
LINE
   5
373
 100
AcDbEntity
   8
LEVEL001
 100
AcDbLine
   6
DOT
  62
2
  10
 241.59980761907
  20
 204.49613643936
  30
0.0
  11
 192.71784160782
  21
 204.49613643936
  31
0.0
   0
LINE
   5
374
 100
AcDbEntity
   8
LEVEL001
 100
AcDbLine
   6
DOT
  62
2
  10
 241.39496595229
  20
 204.99613643936
  30
0.0
  11
 192.71784160782
  21
 204.99613643936
  31
0.0
   0
ARC
   5
375
 100
AcDbEntity
   8
LEVEL001
   6
DOT
  62
2
 100
AcDbCircle
  10
 242.01784160782
  20
 202.34613643936
  30
0.0
  40
 3.5000000000000
 100
AcDbArc
  50
 53.130102354174
  51
 90.000000000020
   0
LINE
   5
376
 100
AcDbEntity
   8
LEVEL001
 100
AcDbLine
   6
DOT
  62
2
  10
 244.11784160782
  20
 205.14613643936
  30
0.0
  11
 244.71784160782
  21
 205.14613643936
  31
0.0
   0
LINE
   5
377
 100
AcDbEntity
   8
LEVEL001
 100
AcDbLine
   6
DOT
  62
2
  10
 243.83587559657
  20
 204.49613643936
  30
0.0
  11
 275.87904146318
  21
 204.49613643936
  31
0.0
   0
ARC
   5
378
 100
AcDbEntity
   8
LEVEL001
   6
DOT
  62
2
 100
AcDbCircle
  10
 242.71784160782
  20
 187.49613643936
  30
0.0
  40
 1.5000000000000
 100
AcDbArc
  50
 221.81031489579
  51
 318.18968510422
   0
ARC
   5
379
 100
AcDbEntity
   8
LEVEL001
   6
DOT
  62
2
 100
AcDbCircle
  10
 242.71784160782
  20
 187.49613643936
  30
0.0
  40
 2.0000000000000
 100
AcDbArc
  50
 228.59037789069
  51
 311.40962210927
   0
LINE
   5
37A
 100
AcDbEntity
   8
LEVEL001
 100
AcDbLine
   6
DOT
  62
2
  10
 241.59980761907
  20
 186.49613643936
  30
0.0
  11
 192.71784160782
  21
 186.49613643936
  31
0.0
   0
LINE
   5
37B
 100
AcDbEntity
   8
LEVEL001
 100
AcDbLine
   6
DOT
  62
2
  10
 241.39496595229
  20
 185.99613643936
  30
0.0
  11
 192.71784160782
  21
 185.99613643936
  31
0.0
   0
ARC
   5
37C
 100
AcDbEntity
   8
LEVEL001
   6
DOT
  62
2
 100
AcDbCircle
  10
 242.01784160782
  20
 188.64613643936
  30
0.0
  40
 3.5000000000000
 100
AcDbArc
  50
 270.00000000000
  51
 306.86989764584
   0
LINE
   5
37D
 100
AcDbEntity
   8
LEVEL001
 100
AcDbLine
   6
DOT
  62
2
  10
 244.11784160782
  20
 185.84613643936
  30
0.0
  11
 244.71784160782
  21
 185.84613643936
  31
0.0
   0
LINE
   5
37E
 100
AcDbEntity
   8
LEVEL001
 100
AcDbLine
   6
DOT
  62
2
  10
 243.83587559657
  20
 186.49613643936
  30
0.0
  11
 276.81712616175
  21
 186.49613643936
  31
0.0
   0
POINT
   5
37F
 100
AcDbEntity
   8
LEVEL001
 100
AcDbPoint
  62
2
  10
 212.71784160782
  20
 186.64613643936
  30
0.0
   0
LINE
   5
380
 100
AcDbEntity
   8
LEVEL001
 100
AcDbLine
   6
DOT
  62
2
  10
 192.71784160782
  20
 204.49613643936
  30
0.0
  11
 192.71784160782
  21
 204.99613643936
  31
0.0
   0
POINT
   5
381
 100
AcDbEntity
   8
LEVEL001
 100
AcDbPoint
  62
2
  10
 212.71784160782
  20
 204.34613643936
  30
0.0
   0
LINE
   5
382
 100
AcDbEntity
   8
LEVEL001
 100
AcDbLine
   6
DOT
  62
2
  10
 172.71784160782
  20
 195.49613643936
  30
0.0
  11
 172.71784160782
  21
 185.69613643936
  31
0.0
   0
LINE
   5
383
 100
AcDbEntity
   8
LEVEL001
 100
AcDbLine
   6
DOT
  62
2
  10
 172.71784160782
  20
 185.69613643936
  30
0.0
  11
 175.71784160782
  21
 185.69613643936
  31
0.0
   0
LINE
   5
384
 100
AcDbEntity
   8
LEVEL001
 100
AcDbLine
   6
DOT
  62
2
  10
 189.71784160782
  20
 185.69613643936
  30
0.0
  11
 192.71784160782
  21
 185.69613643936
  31
0.0
   0
LINE
   5
385
 100
AcDbEntity
   8
LEVEL001
 100
AcDbLine
   6
DOT
  62
2
  10
 176.71784160782
  20
 185.14613643936
  30
0.0
  11
 188.21784160782
  21
 185.14613643936
  31
0.0
   0
ARC
   5
386
 100
AcDbEntity
   8
LEVEL001
   6
DOT
  62
2
 100
AcDbCircle
  10
 188.21784160782
  20
 185.64613643937
  30
0.0
  40
 0.50000000000000
 100
AcDbArc
  50
 270.00000000000
  51
0.0
   0
POINT
   5
387
 100
AcDbEntity
   8
LEVEL001
 100
AcDbPoint
  62
2
  10
 188.71784160782
  20
 185.14613643936
  30
0.0
   0
LINE
   5
388
 100
AcDbEntity
   8
LEVEL001
 100
AcDbLine
   6
DOT
  62
2
  10
 192.71784160782
  20
 186.49613643936
  30
0.0
  11
 192.71784160782
  21
 185.99613643936
  31
0.0
   0
LINE
   5
389
 100
AcDbEntity
   8
LEVEL001
 100
AcDbLine
   6
DOT
  62
2
  10
 172.71784160782
  20
 195.49613643936
  30
0.0
  11
 172.71784160782
  21
 205.29613643936
  31
0.0
   0
LINE
   5
38A
 100
AcDbEntity
   8
LEVEL001
 100
AcDbLine
   6
DOT
  62
2
  10
 172.71784160782
  20
 205.29613643936
  30
0.0
  11
 175.71784160782
  21
 205.29613643936
  31
0.0
   0
LINE
   5
38B
 100
AcDbEntity
   8
LEVEL001
 100
AcDbLine
   6
DOT
  62
2
  10
 189.71784160782
  20
 205.29613643936
  30
0.0
  11
 192.71784160782
  21
 205.29613643936
  31
0.0
   0
LINE
   5
38C
 100
AcDbEntity
   8
LEVEL001
 100
AcDbLine
   6
DOT
  62
2
  10
 176.71784160782
  20
 205.84613643936
  30
0.0
  11
 188.21784160782
  21
 205.84613643936
  31
0.0
   0
ARC
   5
38D
 100
AcDbEntity
   8
LEVEL001
   6
DOT
  62
2
 100
AcDbCircle
  10
 188.21784160782
  20
 205.34613643935
  30
0.0
  40
 0.50000000000000
 100
AcDbArc
  50
 0.67743270271428E-9
  51
 90.000000000000
   0
POINT
   5
38E
 100
AcDbEntity
   8
LEVEL001
 100
AcDbPoint
  62
2
  10
 188.71784160782
  20
 205.84613643936
  30
0.0
   0
LINE
   5
38F
 100
AcDbEntity
   8
LEVEL001
 100
AcDbLine
   6
DOT
  62
2
  10
 192.71784160782
  20
 205.29613643936
  30
0.0
  11
 192.71784160782
  21
 195.49613643936
  31
0.0
   0
LINE
   5
390
 100
AcDbEntity
   8
LEVEL001
 100
AcDbLine
   6
DOT
  62
2
  10
 192.71784160782
  20
 185.69613643936
  30
0.0
  11
 192.71784160782
  21
 195.49613643936
  31
0.0
   0
LINE
   5
391
 100
AcDbEntity
   8
LEVEL001
 100
AcDbLine
   6
DOT
  62
2
  10
 189.71784160782
  20
 185.69613643936
  30
0.0
  11
 189.71784160782
  21
 195.49613643936
  31
0.0
   0
LINE
   5
392
 100
AcDbEntity
   8
LEVEL001
 100
AcDbLine
   6
DOT
  62
2
  10
 189.71784160782
  20
 205.29613643936
  30
0.0
  11
 189.71784160782
  21
 195.49613643936
  31
0.0
   0
LINE
   5
393
 100
AcDbEntity
   8
LEVEL001
 100
AcDbLine
   6
DOT
  62
2
  10
 188.71784160782
  20
 185.64613643936
  30
0.0
  11
 188.71784160782
  21
 195.49613643936
  31
0.0
   0
LINE
   5
394
 100
AcDbEntity
   8
LEVEL001
 100
AcDbLine
   6
DOT
  62
2
  10
 188.71784160782
  20
 205.34613643936
  30
0.0
  11
 188.71784160782
  21
 195.49613643936
  31
0.0
   0
LINE
   5
395
 100
AcDbEntity
   8
LEVEL001
 100
AcDbLine
   6
DOT
  62
2
  10
 176.71784160782
  20
 195.49613643936
  30
0.0
  11
 176.71784160782
  21
 205.84613643936
  31
0.0
   0
LINE
   5
396
 100
AcDbEntity
   8
LEVEL001
 100
AcDbLine
   6
DOT
  62
2
  10
 175.71784160782
  20
 195.49613643936
  30
0.0
  11
 175.71784160782
  21
 205.29613643936
  31
0.0
   0
LINE
   5
397
 100
AcDbEntity
   8
LEVEL001
 100
AcDbLine
   6
DOT
  62
2
  10
 175.71784160782
  20
 195.49613643936
  30
0.0
  11
 175.71784160782
  21
 185.69613643936
  31
0.0
   0
LINE
   5
398
 100
AcDbEntity
   8
LEVEL001
 100
AcDbLine
   6
DOT
  62
2
  10
 176.71784160782
  20
 195.49613643936
  30
0.0
  11
 176.71784160782
  21
 185.14613643936
  31
0.0
   0
LINE
   5
399
 100
AcDbEntity
   8
LEVEL001
 100
AcDbLine
   6
DOT
  62
2
  10
 189.71784160782
  20
 203.14613643936
  30
0.0
  11
 188.71784160782
  21
 203.14613643936
  31
0.0
   0
LINE
   5
39A
 100
AcDbEntity
   8
LEVEL001
 100
AcDbLine
   6
DOT
  62
2
  10
 176.71784160782
  20
 203.14613643936
  30
0.0
  11
 175.71784160782
  21
 203.14613643936
  31
0.0
   0
LINE
   5
39B
 100
AcDbEntity
   8
LEVEL001
 100
AcDbLine
   6
DOT
  62
2
  10
 189.71784160782
  20
 188.84613643936
  30
0.0
  11
 188.71784160782
  21
 188.84613643936
  31
0.0
   0
LINE
   5
39C
 100
AcDbEntity
   8
LEVEL001
 100
AcDbLine
   6
DOT
  62
2
  10
 176.71784160782
  20
 188.84613643936
  30
0.0
  11
 175.71784160782
  21
 188.84613643936
  31
0.0
   0
DIMENSION
   5
39D
 100
AcDbEntity
   8
LEVEL001
   6
CONTINUOUS
  62
2
 100
AcDbDimension
   2
*D10
  10
 265.08549149357
  20
 186.49613643936
  30
0.0
  11
 265.08549149357
  21
 184.87966204593
  31
0.0
  70
128
   3
GMM005
 100
AcDbAlignedDimension
  13
 264.03588482669
  23
 185.99613643936
  33
0.0
  14
 264.21014452822
  24
 186.49613643936
  34
0.0
  50
 90.000000000000
 100
AcDbRotatedDimension
   0
DIMENSION
   5
39E
 100
AcDbEntity
   8
LEVEL001
   6
CONTINUOUS
  62
2
 100
AcDbDimension
   2
*D11
  10
 302.83144474595
  20
 204.99613643936
  30
0.0
  11
 302.83144474595
  21
 185.03802890192
  31
0.0
  70
128
   3
GMM006
 100
AcDbAlignedDimension
  13
 302.60289047995
  23
 185.99613643936
  33
0.0
  14
 302.37433621395
  24
 204.99613643936
  34
0.0
  50
 90.000000000000
 100
AcDbRotatedDimension
   0
ARC
   5
39F
 100
AcDbEntity
   8
LEVEL001
   6
CONTINUOUS
  62
7
 100
AcDbCircle
  10
 339.71784160782
  20
 204.99613643936
  30
0.0
  40
 3.0000000000000
 100
AcDbArc
  50
 0.54281466563656E-12
  51
 91.195046885437
   0
DIMENSION
   5
3A0
 100
AcDbEntity
   8
LEVEL001
   6
CONTINUOUS
  62
2
 100
AcDbDimension
   2
*D12
  10
 154.41702523250
  20
 185.14613643936
  30
0.0
  11
 154.41702523250
  21
 183.52966204593
  31
0.0
  70
128
   3
GMM005
 100
AcDbAlignedDimension
  13
 153.36741856562
  23
 184.64613643936
  33
0.0
  14
 153.54167826715
  24
 185.14613643936
  34
0.0
  50
 90.000000000000
 100
AcDbRotatedDimension
   0
LINE
   5
3A1
 100
AcDbEntity
   8
LEVEL001
 100
AcDbLine
   6
DASHDOT
  62
2
  10
 74.006661023490
  20
 195.49613643936
  30
0.0
  11
 347.36114988549
  21
 195.49613643936
  31
0.0
   0
ARC
   5
3A2
 100
AcDbEntity
   8
LEVEL001
   6
CONTINUOUS
  62
7
 100
AcDbCircle
  10
 142.86514920855
  20
 200.92113643936
  30
0.0
  40
 8.0432013078588
 100
AcDbArc
  50
 137.58600953676
  51
 222.41399046324
   0
ARC
   5
3A3
 100
AcDbEntity
   8
LEVEL001
   6
CONTINUOUS
  62
7
 100
AcDbCircle
  10
 130.98870828061
  20
 200.92113643936
  30
0.0
  40
 8.0432013078588
 100
AcDbArc
  50
 317.58600953676
  51
 42.413990463242
   0
ARC
   5
3A4
 100
AcDbEntity
   8
LEVEL001
   6
CONTINUOUS
  62
7
 100
AcDbCircle
  10
 148.57567552434
  20
 200.92113643936
  30
0.0
  40
 8.0432013078588
 100
AcDbArc
  50
 137.58600953676
  51
 222.41399046324
   0
ARC
   5
3A5
 100
AcDbEntity
   8
LEVEL001
   6
CONTINUOUS
  62
7
 100
AcDbCircle
  10
 130.98870828061
  20
 190.07113643936
  30
0.0
  40
 8.0432013078588
 100
AcDbArc
  50
 317.58600953676
  51
 42.413990463243
   0
ARC
   5
3A6
 100
AcDbEntity
   8
LEVEL001
   6
CONTINUOUS
  62
7
 100
AcDbCircle
  10
 136.69923459640
  20
 190.07113643936
  30
0.0
  40
 8.0432013078588
 100
AcDbArc
  50
 317.58600953676
  51
 42.413990463243
   0
ARC
   5
3A7
 100
AcDbEntity
   8
LEVEL001
   6
CONTINUOUS
  62
7
 100
AcDbCircle
  10
 148.57567552434
  20
 190.07113643936
  30
0.0
  40
 8.0432013078588
 100
AcDbArc
  50
 137.58600953676
  51
 222.41399046324
   0
LINE
   5
3A8
 100
AcDbEntity
   8
LEVEL001
 100
AcDbLine
   6
CONTINUOUS
  62
7
  10
 242.01784160782
  20
 206.34613643936
  30
0.0
  11
 142.63745506037
  21
 206.34613643936
  31
0.0
   0
LINE
   5
3A9
 100
AcDbEntity
   8
LEVEL001
 100
AcDbLine
   6
DOT
  62
2
  10
 242.01784160782
  20
 205.84613643936
  30
0.0
  11
 142.27633422887
  21
 205.84613643936
  31
0.0
   0
LINE
   5
3AA
 100
AcDbEntity
   8
LEVEL001
 100
AcDbLine
   6
CONTINUOUS
  62
7
  10
 242.01784160782
  20
 184.64613643936
  30
0.0
  11
 142.63745506037
  21
 184.64613643936
  31
0.0
   0
LINE
   5
3AB
 100
AcDbEntity
   8
LEVEL001
 100
AcDbLine
   6
DOT
  62
2
  10
 242.01784160782
  20
 185.14613643936
  30
0.0
  11
 143.11665472654
  21
 185.14613643936
  31
0.0
   0
LINE
   5
3AC
 100
AcDbEntity
   8
LEVEL001
 100
AcDbLine
   6
CONTINUOUS
  62
7
  10
 136.92692874458
  20
 206.34613643936
  30
0.0
  11
 107.21784160787
  21
 206.34613643936
  31
0.0
   0
LINE
   5
3AD
 100
AcDbEntity
   8
LEVEL001
 100
AcDbLine
   6
DOT
  62
2
  10
 136.46317606997
  20
 205.84613643936
  30
0.0
  11
 107.21784160787
  21
 205.84613643936
  31
0.0
   0
LINE
   5
3AE
 100
AcDbEntity
   8
LEVEL001
 100
AcDbLine
   6
DOT
  62
2
  10
 137.41461900334
  20
 185.14613643936
  30
0.0
  11
 107.21784160787
  21
 185.14613643936
  31
0.0
   0
LINE
   5
3AF
 100
AcDbEntity
   8
LEVEL001
 100
AcDbLine
   6
CONTINUOUS
  62
7
  10
 136.92692874458
  20
 184.64613643936
  30
0.0
  11
 107.21784160787
  21
 184.64613643936
  31
0.0
   0
ARC
   5
3B0
 100
AcDbEntity
   8
LEVEL001
   6
CONTINUOUS
  62
7
 100
AcDbCircle
  10
 106.71784160787
  20
 207.00645792477
  30
0.0
  40
 0.50000000000000
 100
AcDbArc
  50
 0.13027551975309E-10
  51
 88.804953114737
   0
POINT
   5
3B1
 100
AcDbEntity
   8
LEVEL001
 100
AcDbPoint
  62
7
  10
 107.21784160787
  20
 207.49613643936
  30
0.0
   0
ARC
   5
3B2
 100
AcDbEntity
   8
LEVEL001
   6
CONTINUOUS
  62
7
 100
AcDbCircle
  10
 106.71784160787
  20
 183.98581495395
  30
0.0
  40
 0.50000000000000
 100
AcDbArc
  50
 271.19504688556
  51
 0.97706639814304E-11
   0
POINT
   5
3B3
 100
AcDbEntity
   8
LEVEL001
 100
AcDbPoint
  62
7
  10
 107.21784160787
  20
 183.49613643936
  30
0.0
   0
LINE
   5
3B4
 100
AcDbEntity
   8
LEVEL001
 100
AcDbLine
   6
CONTINUOUS
  62
7
  10
 107.21784160787
  20
 195.49613643936
  30
0.0
  11
 107.21784160787
  21
 207.00645792477
  31
0.0
   0
LINE
   5
3B5
 100
AcDbEntity
   8
LEVEL001
 100
AcDbLine
   6
CONTINUOUS
  62
7
  10
 107.21784160787
  20
 195.49613643936
  30
0.0
  11
 107.21784160787
  21
 183.98581495395
  31
0.0
   0
ARC
   5
3B6
 100
AcDbEntity
   8
LEVEL001
   6
DOT
  62
2
 100
AcDbCircle
  10
 83.217841607869
  20
 204.99613643936
  30
0.0
  40
 3.0000000000000
 100
AcDbArc
  50
 88.804953114587
  51
 180.00000000000
   0
LINE
   5
3B7
 100
AcDbEntity
   8
LEVEL001
 100
AcDbLine
   6
DOT
  62
2
  10
 80.217841607869
  20
 185.99613643936
  30
0.0
  11
 80.217841607869
  21
 204.99613643936
  31
0.0
   0
ARC
   5
3B8
 100
AcDbEntity
   8
LEVEL001
   6
DOT
  62
2
 100
AcDbCircle
  10
 83.217841607868
  20
 185.99613643936
  30
0.0
  40
 3.0000000000000
 100
AcDbArc
  50
 180.00000000000
  51
 271.19504688542
   0
DIMENSION
   5
3B9
 100
AcDbEntity
   8
LEVEL001
   6
CONTINUOUS
  62
2
 100
AcDbDimension
   2
*D13
  10
 126.12769953737
  20
 206.34613643936
  30
0.0
  11
 126.12769953737
  21
 183.14388380861
  31
0.0
  70
128
   3
GMM007
 100
AcDbAlignedDimension
  13
 126.58480806937
  23
 184.64613643936
  33
0.0
  14
 126.12769953737
  24
 206.34613643936
  34
0.0
  50
 90.000000000000
 100
AcDbRotatedDimension
   0
INSERT
   5
3BA
 100
AcDbEntity
   8
LEVEL001
 100
AcDbBlockReference
   2
*D14
  10
0.0
  20
0.0
  30
0.0
   0
ARC
   5
3BB
 100
AcDbEntity
   8
LEVEL001
   6
CONTINUOUS
  62
7
 100
AcDbCircle
  10
 347.71784160782
  20
 174.23722633856
  30
0.0
  40
 1.0000000000000
 100
AcDbArc
  50
0.0
  51
 86.999999999975
   0
ARC
   5
3BC
 100
AcDbEntity
   8
LEVEL001
   6
CONTINUOUS
  62
7
 100
AcDbCircle
  10
 347.71784160782
  20
 183.92456667364
  30
0.0
  40
 1.0000000000000
 100
AcDbArc
  50
 271.50000000000
  51
0.0
   0
LINE
   5
3BD
 100
AcDbEntity
   8
LEVEL001
 100
AcDbLine
   6
CONTINUOUS
  62
7
  10
 347.77017756406
  20
 175.23585587331
  30
0.0
  11
 325.66550565158
  21
 176.39431264002
  31
0.0
   0
LINE
   5
3BE
 100
AcDbEntity
   8
LEVEL001
 100
AcDbLine
   6
CONTINUOUS
  62
7
  10
 351.71784160782
  20
 213.27896756742
  30
0.0
  11
 351.71784160782
  21
 208.77896756742
  31
0.0
   0
LINE
   5
3BF
 100
AcDbEntity
   8
LEVEL001
 100
AcDbLine
   6
CONTINUOUS
  62
7
  10
 325.69166465951
  20
 182.34744813911
  30
0.0
  11
 347.74401855613
  21
 182.92490934866
  31
0.0
   0
LINE
   5
3C0
 100
AcDbEntity
   8
LEVEL001
 100
AcDbLine
   6
CONTINUOUS
  62
7
  10
 351.71784160782
  20
 248.52896756742
  30
0.0
  11
 351.71784160782
  21
 213.27896756742
  31
0.0
   0
LINE
   5
3C1
 100
AcDbEntity
   8
LEVEL001
 100
AcDbLine
   6
CONTINUOUS
  62
7
  10
 351.71784160782
  20
 208.77896756742
  30
0.0
  11
 351.71784160782
  21
 193.27896756742
  31
0.0
   0
LINE
   5
3C2
 100
AcDbEntity
   8
LEVEL001
 100
AcDbLine
   6
CONTINUOUS
  62
7
  10
 351.71784160782
  20
 188.77896756742
  30
0.0
  11
 351.71784160782
  21
 181.02828198244
  31
0.0
   0
LINE
   5
3C3
 100
AcDbEntity
   8
LEVEL001
 100
AcDbLine
   6
CONTINUOUS
  62
7
  10
 326.71784160782
  20
 180.37363394321
  30
0.0
  11
 351.71784160782
  21
 181.02828198244
  31
0.0
   0
LINE
   5
3C4
 100
AcDbEntity
   8
LEVEL001
 100
AcDbLine
   6
CONTINUOUS
  62
7
  10
 326.71784160782
  20
 180.37363394321
  30
0.0
  11
 326.71784160782
  21
 178.34190674149
  31
0.0
   0
LINE
   5
3C5
 100
AcDbEntity
   8
LEVEL001
 100
AcDbLine
   6
CONTINUOUS
  62
7
  10
 351.71784160782
  20
 177.03171225942
  30
0.0
  11
 326.71784160782
  21
 178.34190674149
  31
0.0
   0
LINE
   5
3C6
 100
AcDbEntity
   8
LEVEL001
 100
AcDbLine
   6
CONTINUOUS
  62
7
  10
 351.71784160782
  20
 177.03171225942
  30
0.0
  11
 351.71784160782
  21
 148.52896756742
  31
0.0
   0
ARC
   5
3C7
 100
AcDbEntity
   8
LEVEL001
   6
CONTINUOUS
  62
7
 100
AcDbCircle
  10
 325.71784160782
  20
 177.39294217478
  30
0.0
  40
 1.0000000000000
 100
AcDbArc
  50
 179.99999999999
  51
 266.99999999984
   0
LINE
   5
3C8
 100
AcDbEntity
   8
LEVEL001
 100
AcDbLine
   6
CONTINUOUS
  62
7
  10
 324.71784160782
  20
 181.34779081413
  30
0.0
  11
 324.71784160782
  21
 177.39294217478
  31
0.0
   0
ARC
   5
3C9
 100
AcDbEntity
   8
LEVEL001
   6
CONTINUOUS
  62
7
 100
AcDbCircle
  10
 325.71784160782
  20
 181.34779081413
  30
0.0
  40
 1.0000000000000
 100
AcDbArc
  50
 91.499999999993
  51
 179.99999999999
   0
LINE
   5
3CA
 100
AcDbEntity
   8
LEVEL001
 100
AcDbLine
   6
CONTINUOUS
  62
7
  10
 348.71784160782
  20
 174.23722633856
  30
0.0
  11
 348.71784160782
  21
 150.52896756742
  31
0.0
   0
ARC
   5
3CB
 100
AcDbEntity
   8
LEVEL001
   6
CONTINUOUS
  62
7
 100
AcDbCircle
  10
 350.71784160782
  20
 246.52896756742
  30
0.0
  40
 2.0000000000000
 100
AcDbArc
  50
 90.000000000000
  51
 180.00000000002
   0
LINE
   5
3CC
 100
AcDbEntity
   8
LEVEL001
 100
AcDbLine
   6
CONTINUOUS
  62
7
  10
 350.71784160782
  20
 248.52896756742
  30
0.0
  11
 351.71784160782
  21
 248.52896756742
  31
0.0
   0
LINE
   5
3CD
 100
AcDbEntity
   8
LEVEL001
 100
AcDbLine
   6
CONTINUOUS
  62
7
  10
 351.71784160782
  20
 197.52896756742
  30
0.0
  11
 351.71784160782
  21
 177.03171225942
  31
0.0
   0
LINE
   5
3CE
 100
AcDbEntity
   8
LEVEL001
 100
AcDbLine
   6
CONTINUOUS
  62
7
  10
 351.71784160782
  20
 193.27896756742
  30
0.0
  11
 351.71784160782
  21
 188.77896756742
  31
0.0
   0
ARC
   5
3CF
 100
AcDbEntity
   8
LEVEL001
   6
CONTINUOUS
  62
7
 100
AcDbCircle
  10
 347.71784160782
  20
 220.51881596669
  30
0.0
  40
 1.0000000000000
 100
AcDbArc
  50
 277.38604315126
  51
0.0
   0
LINE
   5
3D0
 100
AcDbEntity
   8
LEVEL001
 100
AcDbLine
   6
CONTINUOUS
  62
7
  10
 325.58928757918
  20
 216.64193278593
  30
0.0
  11
 347.84639563646
  21
 219.52711346002
  31
0.0
   0
ARC
   5
3D1
 100
AcDbEntity
   8
LEVEL001
   6
CONTINUOUS
  62
7
 100
AcDbCircle
  10
 325.71784160782
  20
 215.65023027928
  30
0.0
  40
 1.0000000000000
 100
AcDbArc
  50
 97.386043151319
  51
 180.00000000039
   0
LINE
   5
3D2
 100
AcDbEntity
   8
LEVEL001
 100
AcDbLine
   6
CONTINUOUS
  62
7
  10
 351.71784160782
  20
 218.01223373186
  30
0.0
  11
 351.71784160782
  21
 197.52896756742
  31
0.0
   0
LINE
   5
3D3
 100
AcDbEntity
   8
LEVEL001
 100
AcDbLine
   6
CONTINUOUS
  62
1
  10
 347.74401855613
  20
 197.52896756742
  30
0.0
  11
 348.71784160782
  21
 197.52896756742
  31
0.0
   0
LINE
   5
3D4
 100
AcDbEntity
   8
LEVEL001
 100
AcDbLine
   6
CONTINUOUS
  62
1
  10
 347.73526439109
  20
 198.60103015192
  30
0.0
  11
 347.71784160782
  21
 200.09901631920
  31
0.0
   0
LINE
   5
3D5
 100
AcDbEntity
   8
LEVEL001
 100
AcDbLine
   6
CONTINUOUS
  62
1
  10
 347.71784160782
  20
 200.09901631920
  30
0.0
  11
 348.71784160782
  21
 200.09901631920
  31
0.0
   0
ARC
   5
3D6
 100
AcDbEntity
   8
LEVEL001
   6
CONTINUOUS
  62
1
 100
AcDbCircle
  10
 347.71872464224
  20
 197.60204975360
  30
0.0
  40
 0.99911731018316
 100
AcDbArc
  50
 0.47586801036308E-1
  51
 89.051461642271
   0
LINE
   5
3D7
 100
AcDbEntity
   8
LEVEL001
 100
AcDbLine
   6
CONTINUOUS
  62
1
  10
 347.71784160782
  20
 200.09901631920
  30
0.0
  11
 347.71784160782
  21
 203.95891881564
  31
0.0
   0
LINE
   5
3D8
 100
AcDbEntity
   8
LEVEL001
 100
AcDbLine
   6
CONTINUOUS
  62
1
  10
 347.71784160782
  20
 203.95891881564
  30
0.0
  11
 348.71784160782
  21
 203.95891881564
  31
0.0
   0
LINE
   5
3D9
 100
AcDbEntity
   8
LEVEL001
 100
AcDbLine
   6
CONTINUOUS
  62
1
  10
 347.71784160782
  20
 203.95891881564
  30
0.0
  11
 347.73526439109
  21
 205.45690498292
  31
0.0
   0
ARC
   5
3DA
 100
AcDbEntity
   8
LEVEL001
   6
CONTINUOUS
  62
1
 100
AcDbCircle
  10
 347.71872464224
  20
 206.45588538124
  30
0.0
  40
 0.99911731018321
 100
AcDbArc
  50
 270.94853835793
  51
 359.95241319868
   0
LINE
   5
3DB
 100
AcDbEntity
   8
LEVEL001
 100
AcDbLine
   6
CONTINUOUS
  62
1
  10
 347.74401855613
  20
 197.52896756742
  30
0.0
  11
 347.74401855613
  21
 197.60287956675
  31
0.0
   0
LINE
   5
3DC
 100
AcDbEntity
   8
LEVEL001
 100
AcDbLine
   6
CONTINUOUS
  62
1
  10
 347.74401855613
  20
 197.60287956675
  30
0.0
  11
 348.71784160782
  21
 197.60287956675
  31
0.0
   0
ARC
   5
3DD
 100
AcDbEntity
   8
LEVEL001
   6
CONTINUOUS
  62
1
 100
AcDbCircle
  10
 336.85646851627
  20
 198.00650524119
  30
0.0
  40
 10.895029121369
 100
AcDbArc
  50
 357.87689040543
  51
 3.1280959313091
   0
ELLIPSE
   5
3DE
 100
AcDbEntity
   8
LEVEL001
   6
CONTINUOUS
  62
1
 100
AcDbEllipse
  10
 347.71784160782
  20
 206.63846031342
  30
0.0
  11
-0.20028470306102E-2
  21
-5.0000140355719
  31
0.0
  40
 0.52353489390672E-2
  41
 1.5708613276220
  42
 1.7234582451457
   0
LINE
   5
3DF
 100
AcDbEntity
   8
LEVEL001
 100
AcDbLine
   6
CONTINUOUS
  62
1
  10
 347.74401855613
  20
 206.63877483287
  30
0.0
  11
 348.71784160782
  21
 206.63877483287
  31
0.0
   0
LINE
   5
3E0
 100
AcDbEntity
   8
LEVEL001
 100
AcDbLine
   6
CONTINUOUS
  62
1
  10
 347.74401855613
  20
 206.45505556809
  30
0.0
  11
 347.74401855613
  21
 206.63877483287
  31
0.0
   0
LINE
   5
3E1
 100
AcDbEntity
   8
LEVEL001
 100
AcDbLine
   6
CONTINUOUS
  62
1
  10
 347.74401855613
  20
 206.45505556809
  30
0.0
  11
 348.71784160782
  21
 206.45505556809
  31
0.0
   0
ARC
   5
3E2
 100
AcDbEntity
   8
LEVEL001
   6
CONTINUOUS
  62
1
 100
AcDbCircle
  10
 336.85646851544
  20
 206.05142989363
  30
0.0
  40
 10.895029122203
 100
AcDbArc
  50
 356.87190406901
  51
 2.1231095944898
   0
ARC
   5
3E3
 100
AcDbEntity
   8
LEVEL001
   6
CONTINUOUS
  62
1
 100
AcDbCircle
  10
 347.97716311980
  20
 220.36263861326
  30
0.0
  40
 1.7176611367636
 100
AcDbArc
  50
 262.19894957111
  51
 295.54458982736
   0
LINE
   5
3E4
 100
AcDbEntity
   8
LEVEL001
 100
AcDbLine
   6
CONTINUOUS
  62
1
  10
 347.74401855613
  20
 218.66087382540
  30
0.0
  11
 325.69166465951
  21
 215.80223535732
  31
0.0
   0
ARC
   5
3E5
 100
AcDbEntity
   8
LEVEL001
   6
CONTINUOUS
  62
1
 100
AcDbCircle
  10
 325.45852009584
  20
 214.10047056954
  30
0.0
  40
 1.7176611366978
 100
AcDbArc
  50
 82.198949570783
  51
 115.54458982838
   0
ELLIPSE
   5
3E6
 100
AcDbEntity
   8
LEVEL001
   6
CONTINUOUS
  62
1
 100
AcDbEllipse
  10
 347.71784160782
  20
 218.50208213112
  30
0.0
  11
-0.12856403655661
  21
-1.0250313703636
  31
0.0
  40
 0.60873110598384E-2
  41
 1.7271001654728
  42
-3.1400144007271
   0
ARC
   5
3E7
 100
AcDbEntity
   8
LEVEL001
   6
CONTINUOUS
  62
1
 100
AcDbCircle
  10
 356.04595602739
  20
 219.92916254189
  30
0.0
  40
 30.633552396562
 100
AcDbArc
  50
 186.16016517834
  51
 187.74238198410
   0
LINE
   5
3E8
 100
AcDbEntity
   8
LEVEL001
 100
AcDbLine
   6
CONTINUOUS
  62
1
  10
 341.53080610505
  20
 207.38635813029
  30
0.0
  11
 347.74401855613
  21
 207.39880022314
  31
0.0
   0
LINE
   5
3E9
 100
AcDbEntity
   8
LEVEL001
 100
AcDbLine
   6
CONTINUOUS
  62
1
  10
 347.74401855613
  20
 206.63877483287
  30
0.0
  11
 342.23535189507
  21
 206.62774360826
  31
0.0
   0
ELLIPSE
   5
3EA
 100
AcDbEntity
   8
LEVEL001
   6
CONTINUOUS
  62
1
 100
AcDbEllipse
  10
 342.18381301479
  20
 203.86186506690
  30
0.0
  11
-95.471138259035
  21
-1.6675983932112
  31
0.0
  40
 0.26181927854502E-1
  41
-1.6295262638522
  42
-1.5733812262237
   0
ELLIPSE
   5
3EB
 100
AcDbEntity
   8
LEVEL001
   6
CONTINUOUS
  62
1
 100
AcDbEllipse
  10
 342.15763606648
  20
 203.86186506690
  30
0.0
  11
-95.471146245641
  21
-1.6671408410955
  31
0.0
  40
 0.15709156714141E-1
  41
-1.6295260631688
  42
-1.5766916146224
   0
LINE
   5
3EC
 100
AcDbEntity
   8
LEVEL001
 100
AcDbLine
   6
CONTINUOUS
  62
1
  10
 347.71784160782
  20
 203.95891881564
  30
0.0
  11
 342.71784160782
  21
 203.87164349100
  31
0.0
   0
LINE
   5
3ED
 100
AcDbEntity
   8
LEVEL001
 100
AcDbLine
   6
CONTINUOUS
  62
1
  10
 342.71784160782
  20
 200.18629164384
  30
0.0
  11
 347.71784160782
  21
 200.09901631920
  31
0.0
   0
ELLIPSE
   5
3EE
 100
AcDbEntity
   8
LEVEL001
   6
CONTINUOUS
  62
1
 100
AcDbEllipse
  10
 342.15763606648
  20
 200.19607006794
  30
0.0
  11
-95.471146245641
  21
 1.6671408410955
  31
0.0
  40
 0.15709156714141E-1
  41
 1.5769384769020
  42
 1.6295260631688
   0
LINE
   5
3EF
 100
AcDbEntity
   8
LEVEL001
 100
AcDbLine
   6
CONTINUOUS
  62
7
  10
 324.71784160782
  20
 207.68388119115
  30
0.0
  11
 324.71784160782
  21
 215.65023027927
  31
0.0
   0
LINE
   5
3F0
 100
AcDbEntity
   8
LEVEL001
 100
AcDbLine
   6
CONTINUOUS
  62
1
  10
 325.69166465951
  20
 215.80223535732
  30
0.0
  11
 325.69166465951
  21
 207.70419565417
  31
0.0
   0
LINE
   5
3F1
 100
AcDbEntity
   8
LEVEL001
 100
AcDbLine
   6
CONTINUOUS
  62
7
  10
 324.71784160782
  20
 181.34779081413
  30
0.0
  11
 324.71784160782
  21
 183.30839168757
  31
0.0
   0
LINE
   5
3F2
 100
AcDbEntity
   8
LEVEL001
 100
AcDbLine
   6
CONTINUOUS
  62
1
  10
 325.69166465951
  20
 183.28807722455
  30
0.0
  11
 325.69166465951
  21
 182.34744813911
  31
0.0
   0
ELLIPSE
   5
3F3
 100
AcDbEntity
   8
LEVEL001
   6
CONTINUOUS
  62
1
 100
AcDbEllipse
  10
 342.18381301479
  20
 200.19607006794
  30
0.0
  11
-95.471138259035
  21
 1.6675983932113
  31
0.0
  40
 0.26181927854502E-1
  41
 1.5768472891105
  42
 1.6295262638522
   0
LINE
   5
3F4
 100
AcDbEntity
   8
LEVEL001
 100
AcDbLine
   6
CONTINUOUS
  62
1
  10
 347.74401855613
  20
 197.52896756742
  30
0.0
  11
 342.71784160782
  21
 197.52896756742
  31
0.0
   0
POLYLINE
   5
3F5
 100
AcDbEntity
   8
LEVEL001
   6
CONTINUOUS
  62
3
 100
AcDb2dPolyline
  66
1
  10
0.0
  20
0.0
  30
0.0
  70
0
   0
VERTEX
   5
3F6
 100
AcDbEntity
   8
LEVEL001
   6
CONTINUOUS
  62
3
 100
AcDbVertex
 100
AcDb2dVertex
  10
 351.71784160782
  20
 153.52896756742
  30
0.0
   0
VERTEX
   5
3F7
 100
AcDbEntity
   8
LEVEL001
   6
CONTINUOUS
  62
3
 100
AcDbVertex
 100
AcDb2dVertex
  10
 352.71784160782
  20
 153.52896756742
  30
0.0
   0
VERTEX
   5
3F8
 100
AcDbEntity
   8
LEVEL001
   6
CONTINUOUS
  62
3
 100
AcDbVertex
 100
AcDb2dVertex
  10
 352.71784160782
  20
 243.52896756742
  30
0.0
   0
VERTEX
   5
3F9
 100
AcDbEntity
   8
LEVEL001
   6
CONTINUOUS
  62
3
 100
AcDbVertex
 100
AcDb2dVertex
  10
 351.71784160782
  20
 243.52896756742
  30
0.0
   0
VERTEX
   5
3FA
 100
AcDbEntity
   8
LEVEL001
   6
CONTINUOUS
  62
3
 100
AcDbVertex
 100
AcDb2dVertex
  10
 351.71784160782
  20
 153.52896756742
  30
0.0
   0
SEQEND
   5
3FB
 100
AcDbEntity
   8
LEVEL001
   6
CONTINUOUS
  62
3
   0
INSERT
   5
3FC
 100
AcDbEntity
   8
LEVEL001
 100
AcDbBlockReference
   2
HATCH001
  10
0.0
  20
0.0
  30
0.0
   0
LINE
   5
3FD
 100
AcDbEntity
   8
LEVEL001
 100
AcDbLine
   6
CONTINUOUS
  62
7
  10
 71.217841607918
  20
 218.01223373186
  30
0.0
  11
 71.217841607918
  21
 197.52896756742
  31
0.0
   0
POLYLINE
   5
3FE
 100
AcDbEntity
   8
LEVEL001
   6
CONTINUOUS
  62
3
 100
AcDb2dPolyline
  66
1
  10
0.0
  20
0.0
  30
0.0
  70
0
   0
VERTEX
   5
3FF
 100
AcDbEntity
   8
LEVEL001
   6
CONTINUOUS
  62
3
 100
AcDbVertex
 100
AcDb2dVertex
  10
 71.217841607918
  20
 153.52896756742
  30
0.0
   0
VERTEX
   5
400
 100
AcDbEntity
   8
LEVEL001
   6
CONTINUOUS
  62
3
 100
AcDbVertex
 100
AcDb2dVertex
  10
 70.217841607918
  20
 153.52896756742
  30
0.0
   0
VERTEX
   5
401
 100
AcDbEntity
   8
LEVEL001
   6
CONTINUOUS
  62
3
 100
AcDbVertex
 100
AcDb2dVertex
  10
 70.217841607918
  20
 243.52896756742
  30
0.0
   0
VERTEX
   5
402
 100
AcDbEntity
   8
LEVEL001
   6
CONTINUOUS
  62
3
 100
AcDbVertex
 100
AcDb2dVertex
  10
 71.217841607918
  20
 243.52896756742
  30
0.0
   0
VERTEX
   5
403
 100
AcDbEntity
   8
LEVEL001
   6
CONTINUOUS
  62
3
 100
AcDbVertex
 100
AcDb2dVertex
  10
 71.217841607918
  20
 153.52896756742
  30
0.0
   0
SEQEND
   5
404
 100
AcDbEntity
   8
LEVEL001
   6
CONTINUOUS
  62
3
   0
LINE
   5
405
 100
AcDbEntity
   8
LEVEL001
 100
AcDbLine
   6
CONTINUOUS
  62
7
  10
 71.217841607918
  20
 240.52896756742
  30
0.0
  11
 71.217841607918
  21
 156.52896756742
  31
0.0
   0
LINE
   5
406
 100
AcDbEntity
   8
LEVEL001
 100
AcDbLine
   6
CONTINUOUS
  62
7
  10
 71.217841607918
  20
 240.52896756742
  30
0.0
  11
 71.217841607918
  21
 248.52896756742
  31
0.0
   0
LINE
   5
407
 100
AcDbEntity
   8
LEVEL001
 100
AcDbLine
   6
CONTINUOUS
  62
1
  10
 72.217841607918
  20
 240.52896756742
  30
0.0
  11
 71.217841607918
  21
 240.52896756742
  31
0.0
   0
LINE
   5
408
 100
AcDbEntity
   8
LEVEL001
 100
AcDbLine
   6
CONTINUOUS
  62
1
  10
 72.217841607918
  20
 156.52896756742
  30
0.0
  11
 72.217841607918
  21
 240.52896756742
  31
0.0
   0
LINE
   5
409
 100
AcDbEntity
   8
LEVEL001
 100
AcDbLine
   6
CONTINUOUS
  62
1
  10
 72.217841607918
  20
 240.52896756742
  30
0.0
  11
 72.217841607918
  21
 248.52896756742
  31
0.0
   0
LINE
   5
40A
 100
AcDbEntity
   8
LEVEL001
 100
AcDbLine
   6
CONTINUOUS
  62
1
  10
 72.217841607918
  20
 240.52896756742
  30
0.0
  11
 74.217841607918
  21
 240.52896756742
  31
0.0
   0
ARC
   5
40B
 100
AcDbEntity
   8
LEVEL001
   6
CONTINUOUS
  62
7
 100
AcDbCircle
  10
 72.217841607917
  20
 246.52896756742
  30
0.0
  40
 2.0000000000000
 100
AcDbArc
  50
0.0
  51
 89.999999999982
   0
LINE
   5
40C
 100
AcDbEntity
   8
LEVEL001
 100
AcDbLine
   6
CONTINUOUS
  62
7
  10
 71.217841607918
  20
 248.52896756742
  30
0.0
  11
 72.217841607918
  21
 248.52896756742
  31
0.0
   0
LINE
   5
40D
 100
AcDbEntity
   8
LEVEL001
 100
AcDbLine
   6
CONTINUOUS
  62
7
  10
 74.217841607918
  20
 246.52896756742
  30
0.0
  11
 74.217841607918
  21
 240.52896756742
  31
0.0
   0
LINE
   5
40E
 100
AcDbEntity
   8
LEVEL001
 100
AcDbLine
   6
CONTINUOUS
  62
7
  10
 74.217841607918
  20
 240.52896756742
  30
0.0
  11
 74.217841607918
  21
 156.52896756742
  31
0.0
   0
LINE
   5
40F
 100
AcDbEntity
   8
LEVEL001
 100
AcDbLine
   6
CONTINUOUS
  62
7
  10
 75.165505651675
  20
 175.23585587331
  30
0.0
  11
 97.270177564160
  21
 176.39431264002
  31
0.0
   0
ARC
   5
410
 100
AcDbEntity
   8
LEVEL001
   6
CONTINUOUS
  62
7
 100
AcDbCircle
  10
 97.217841607918
  20
 177.39294217478
  30
0.0
  40
 1.0000000000000
 100
AcDbArc
  50
 273.00000000000
  51
 0.24426659953640E-10
   0
LINE
   5
411
 100
AcDbEntity
   8
LEVEL001
 100
AcDbLine
   6
CONTINUOUS
  62
7
  10
 98.217841607918
  20
 197.52896756742
  30
0.0
  11
 98.217841607918
  21
 177.39294217478
  31
0.0
   0
LINE
   5
412
 100
AcDbEntity
   8
LEVEL001
 100
AcDbLine
   6
CONTINUOUS
  62
7
  10
 98.217841607917
  20
 197.52896756742
  30
0.0
  11
 98.217841607918
  21
 181.34779081413
  31
0.0
   0
LINE
   5
413
 100
AcDbEntity
   8
LEVEL001
 100
AcDbLine
   6
CONTINUOUS
  62
1
  10
 97.270177564160
  20
 176.39431264002
  30
0.0
  11
 97.270177564161
  21
 197.52896756742
  31
0.0
   0
LINE
   5
414
 100
AcDbEntity
   8
LEVEL001
 100
AcDbLine
   6
CONTINUOUS
  62
1
  10
 75.165505651675
  20
 197.52896756742
  30
0.0
  11
 75.165505651675
  21
 175.23585587331
  31
0.0
   0
LINE
   5
415
 100
AcDbEntity
   8
LEVEL001
 100
AcDbLine
   6
CONTINUOUS
  62
7
  10
 98.217841607918
  20
 215.65023027927
  30
0.0
  11
 98.217841607918
  21
 197.52896756742
  31
0.0
   0
LINE
   5
416
 100
AcDbEntity
   8
LEVEL001
 100
AcDbLine
   6
CONTINUOUS
  62
7
  10
 98.217841607917
  20
 203.09228628813
  30
0.0
  11
 98.217841607917
  21
 200.96564884671
  31
0.0
   0
LINE
   5
417
 100
AcDbEntity
   8
LEVEL001
 100
AcDbLine
   6
CONTINUOUS
  62
7
  10
 98.217841607917
  20
 206.59461451533
  30
0.0
  11
 98.217841607917
  21
 203.09228628813
  31
0.0
   0
LINE
   5
418
 100
AcDbEntity
   8
LEVEL001
 100
AcDbLine
   6
CONTINUOUS
  62
7
  10
 98.217841607917
  20
 200.96564884671
  30
0.0
  11
 98.217841607917
  21
 197.52896756742
  31
0.0
   0
LINE
   5
419
 100
AcDbEntity
   8
LEVEL001
 100
AcDbLine
   6
CONTINUOUS
  62
1
  10
 75.165505651675
  20
 218.51565071237
  30
0.0
  11
 75.165505651675
  21
 197.52896756742
  31
0.0
   0
LINE
   5
41A
 100
AcDbEntity
   8
LEVEL001
 100
AcDbLine
   6
CONTINUOUS
  62
1
  10
 97.270177564161
  20
 197.52896756742
  30
0.0
  11
 97.270177564161
  21
 215.65023027927
  31
0.0
   0
LINE
   5
41B
 100
AcDbEntity
   8
LEVEL001
 100
AcDbLine
   6
CONTINUOUS
  62
7
  10
 75.089287579276
  20
 219.52711346002
  30
0.0
  11
 97.346395636559
  21
 216.64193278593
  31
0.0
   0
ARC
   5
41C
 100
AcDbEntity
   8
LEVEL001
   6
CONTINUOUS
  62
7
 100
AcDbCircle
  10
 97.217841607917
  20
 215.65023027927
  30
0.0
  40
 1.0000000000000
 100
AcDbArc
  50
0.0
  51
 82.613956848714
   0
ARC
   5
41D
 100
AcDbEntity
   8
LEVEL001
   6
CONTINUOUS
  62
1
 100
AcDbCircle
  10
 92.529554499121
  20
 216.51335472876
  30
0.0
  40
 4.8185569271411
 100
AcDbArc
  50
 349.68119699583
  51
 1.5290583176585
   0
LINE
   5
41E
 100
AcDbEntity
   8
LEVEL001
 100
AcDbLine
   6
CONTINUOUS
  62
1
  10
 97.270177564161
  20
 215.65023027927
  30
0.0
  11
 75.165505651675
  21
 218.51565071237
  31
0.0
   0
LINE
   5
41F
 100
AcDbEntity
   8
LEVEL001
 100
AcDbLine
   6
CONTINUOUS
  62
1
  10
 97.270177564161
  20
 215.65023027927
  30
0.0
  11
 98.217841607918
  21
 215.65023027927
  31
0.0
   0
LINE
   5
420
 100
AcDbEntity
   8
LEVEL001
 100
AcDbLine
   6
CONTINUOUS
  62
7
  10
 98.217841607917
  20
 215.65023027927
  30
0.0
  11
 98.217841607917
  21
 207.20263482755
  31
0.0
   0
ELLIPSE
   5
421
 100
AcDbEntity
   8
LEVEL001
   6
CONTINUOUS
  62
1
 100
AcDbEllipse
  10
 75.217841607918
  20
 218.50208213112
  30
0.0
  11
 0.12919425158192
  21
-1.0250337939852
  31
0.0
  40
 0.48626177665440E-1
  41
 3.1289546416782
  42
-1.5901623874837
   0
LINE
   5
422
 100
AcDbEntity
   8
LEVEL001
 100
AcDbLine
   6
CONTINUOUS
  62
1
  10
 74.217841607918
  20
 218.51565071237
  30
0.0
  11
 75.165505651675
  21
 218.51565071237
  31
0.0
   0
ARC
   5
423
 100
AcDbEntity
   8
LEVEL001
   6
CONTINUOUS
  62
7
 100
AcDbCircle
  10
 75.217841607918
  20
 220.51881596669
  30
0.0
  40
 1.0000000000000
 100
AcDbArc
  50
 180.00000000000
  51
 262.61395684873
   0
ARC
   5
424
 100
AcDbEntity
   8
LEVEL001
   6
CONTINUOUS
  62
7
 100
AcDbCircle
  10
 75.217841607918
  20
 174.23722633856
  30
0.0
  40
 1.0000000000000
 100
AcDbArc
  50
 93.000000000000
  51
 180.00000000002
   0
LINE
   5
425
 100
AcDbEntity
   8
LEVEL001
 100
AcDbLine
   6
DOT
  62
2
  10
 98.217841607917
  20
 207.68388119115
  30
0.0
  11
 83.280409579690
  21
 207.99548390988
  31
0.0
   0
LINE
   5
426
 100
AcDbEntity
   8
LEVEL001
 100
AcDbLine
   6
DOT
  62
2
  10
 98.217841607918
  20
 183.30839168757
  30
0.0
  11
 83.280409579690
  21
 182.99678896884
  31
0.0
   0
LINE
   5
427
 100
AcDbEntity
   8
LEVEL001
 100
AcDbLine
   6
CONTINUOUS
  62
7
  10
 106.72826960317
  20
 207.50634916986
  30
0.0
  11
 98.217841607917
  21
 207.68388119115
  31
0.0
   0
LINE
   5
428
 100
AcDbEntity
   8
LEVEL001
 100
AcDbLine
   6
CONTINUOUS
  62
7
  10
 106.72826960317
  20
 183.48592370886
  30
0.0
  11
 98.217841607918
  21
 183.30839168757
  31
0.0
   0
DIMENSION
   5
429
 100
AcDbEntity
   8
LEVEL001
   6
CONTINUOUS
  62
2
 100
AcDbDimension
   2
*D15
  10
 351.71784160782
  20
 125.94198775175
  30
0.0
  11
 338.21784160782
  21
 125.94198775175
  31
0.0
  70
0
   3
GMM008
 100
AcDbAlignedDimension
  13
 324.71784160782
  23
 177.39294217478
  33
0.0
  14
 351.71784160782
  24
 148.52896756742
  34
0.0
 100
AcDbRotatedDimension
   0
LINE
   5
42A
 100
AcDbEntity
   8
LEVEL001
 100
AcDbLine
   6
CONTINUOUS
  62
7
  10
 74.217841607918
  20
 220.51881596669
  30
0.0
  11
 74.217841607918
  21
 183.92456667364
  31
0.0
   0
LINE
   5
42B
 100
AcDbEntity
   8
LEVEL001
 100
AcDbLine
   6
DOT
  62
2
  10
 97.244018556226
  20
 182.34744813911
  30
0.0
  11
 75.191664659610
  21
 182.92490934866
  31
0.0
   0
ARC
   5
42C
 100
AcDbEntity
   8
LEVEL001
   6
DOT
  62
2
 100
AcDbCircle
  10
 75.217841607918
  20
 183.92456667363
  30
0.0
  40
 1.0000000000000
 100
AcDbArc
  50
 179.99999999989
  51
 268.50000000000
   0
ARC
   5
42D
 100
AcDbEntity
   8
LEVEL001
   6
DOT
  62
2
 100
AcDbCircle
  10
 97.217841607918
  20
 181.34779081413
  30
0.0
  40
 1.0000000000000
 100
AcDbArc
  50
 0.48853319907279E-11
  51
 88.500000000003
   0
INSERT
   5
42E
 100
AcDbEntity
   8
LEVEL001
 100
AcDbBlockReference
   2
HATCH002
  10
0.0
  20
0.0
  30
0.0
   0
ARC
   5
42F
 100
AcDbEntity
   8
LEVEL001
   6
CONTINUOUS
  62
7
 100
AcDbCircle
  10
 349.21784160781
  20
 216.02896756742
  30
0.0
  40
 0.50000000000000
 100
AcDbArc
  50
0.0
  51
 89.999999998867
   0
ARC
   5
430
 100
AcDbEntity
   8
LEVEL001
   6
CONTINUOUS
  62
7
 100
AcDbCircle
  10
 349.21784160782
  20
 206.02896756742
  30
0.0
  40
 0.50000000000000
 100
AcDbArc
  50
 270.00000000000
  51
 0.33220257536950E-9
   0
LINE
   5
431
 100
AcDbEntity
   8
LEVEL001
 100
AcDbLine
   6
CONTINUOUS
  62
7
  10
 348.71784160782
  20
 216.52896756742
  30
0.0
  11
 349.21784160782
  21
 216.52896756742
  31
0.0
   0
LINE
   5
432
 100
AcDbEntity
   8
LEVEL001
 100
AcDbLine
   6
CONTINUOUS
  62
7
  10
 349.21784160782
  20
 205.52896756742
  30
0.0
  11
 348.71784160782
  21
 205.52896756742
  31
0.0
   0
LINE
   5
433
 100
AcDbEntity
   8
LEVEL001
 100
AcDbLine
   6
CONTINUOUS
  62
7
  10
 351.21784160782
  20
 208.77896756742
  30
0.0
  11
 349.71784160782
  21
 208.77896756742
  31
0.0
   0
LINE
   5
434
 100
AcDbEntity
   8
LEVEL001
 100
AcDbLine
   6
CONTINUOUS
  62
7
  10
 351.21784160782
  20
 213.27896756742
  30
0.0
  11
 351.21784160782
  21
 208.77896756742
  31
0.0
   0
LINE
   5
435
 100
AcDbEntity
   8
LEVEL001
 100
AcDbLine
   6
CONTINUOUS
  62
7
  10
 349.71784160782
  20
 213.27896756742
  30
0.0
  11
 351.21784160782
  21
 213.27896756742
  31
0.0
   0
LINE
   5
436
 100
AcDbEntity
   8
LEVEL001
 100
AcDbLine
   6
CONTINUOUS
  62
7
  10
 349.71784160782
  20
 208.77896756742
  30
0.0
  11
 349.71784160782
  21
 206.02896756742
  31
0.0
   0
LINE
   5
437
 100
AcDbEntity
   8
LEVEL001
 100
AcDbLine
   6
CONTINUOUS
  62
7
  10
 349.71784160782
  20
 216.02896756742
  30
0.0
  11
 349.71784160782
  21
 213.27896756742
  31
0.0
   0
LINE
   5
438
 100
AcDbEntity
   8
LEVEL001
 100
AcDbLine
   6
CONTINUOUS
  62
7
  10
 349.71784160782
  20
 213.27896756742
  30
0.0
  11
 349.71784160782
  21
 208.77896756742
  31
0.0
   0
ARC
   5
439
 100
AcDbEntity
   8
LEVEL001
   6
CONTINUOUS
  62
7
 100
AcDbCircle
  10
 349.21784160781
  20
 196.02896756742
  30
0.0
  40
 0.50000000000000
 100
AcDbArc
  50
0.0
  51
 89.999999998867
   0
ARC
   5
43A
 100
AcDbEntity
   8
LEVEL001
   6
CONTINUOUS
  62
7
 100
AcDbCircle
  10
 349.21784160782
  20
 186.02896756741
  30
0.0
  40
 0.50000000000000
 100
AcDbArc
  50
 270.00000000000
  51
 0.11594521257994E-8
   0
LINE
   5
43B
 100
AcDbEntity
   8
LEVEL001
 100
AcDbLine
   6
CONTINUOUS
  62
7
  10
 348.71784160782
  20
 196.52896756742
  30
0.0
  11
 349.21784160782
  21
 196.52896756742
  31
0.0
   0
LINE
   5
43C
 100
AcDbEntity
   8
LEVEL001
 100
AcDbLine
   6
CONTINUOUS
  62
7
  10
 349.21784160782
  20
 185.52896756742
  30
0.0
  11
 348.71784160782
  21
 185.52896756742
  31
0.0
   0
LINE
   5
43D
 100
AcDbEntity
   8
LEVEL001
 100
AcDbLine
   6
CONTINUOUS
  62
7
  10
 351.21784160782
  20
 188.77896756742
  30
0.0
  11
 349.71784160782
  21
 188.77896756742
  31
0.0
   0
LINE
   5
43E
 100
AcDbEntity
   8
LEVEL001
 100
AcDbLine
   6
CONTINUOUS
  62
7
  10
 349.71784160782
  20
 193.27896756742
  30
0.0
  11
 351.21784160782
  21
 193.27896756742
  31
0.0
   0
LINE
   5
43F
 100
AcDbEntity
   8
LEVEL001
 100
AcDbLine
   6
CONTINUOUS
  62
7
  10
 349.71784160782
  20
 188.77896756742
  30
0.0
  11
 349.71784160782
  21
 186.02896756742
  31
0.0
   0
LINE
   5
440
 100
AcDbEntity
   8
LEVEL001
 100
AcDbLine
   6
CONTINUOUS
  62
7
  10
 349.71784160782
  20
 196.02896756742
  30
0.0
  11
 349.71784160782
  21
 193.27896756742
  31
0.0
   0
LINE
   5
441
 100
AcDbEntity
   8
LEVEL001
 100
AcDbLine
   6
CONTINUOUS
  62
7
  10
 349.71784160782
  20
 193.27896756742
  30
0.0
  11
 349.71784160782
  21
 188.77896756742
  31
0.0
   0
LINE
   5
442
 100
AcDbEntity
   8
LEVEL001
 100
AcDbLine
   6
CONTINUOUS
  62
7
  10
 351.21784160782
  20
 193.27896756742
  30
0.0
  11
 351.21784160782
  21
 188.77896756742
  31
0.0
   0
POINT
   5
443
 100
AcDbEntity
   8
LEVEL001
 100
AcDbPoint
  62
7
  10
 349.71784160782
  20
 211.02896756742
  30
0.0
   0
LINE
   5
444
 100
AcDbEntity
   8
LEVEL001
 100
AcDbLine
   6
CONTINUOUS
  62
7
  10
 349.71784160782
  20
 213.02896756742
  30
0.0
  11
 349.71784160782
  21
 209.02896756742
  31
0.0
   0
ARC
   5
445
 100
AcDbEntity
   8
LEVEL001
   6
CONTINUOUS
  62
1
 100
AcDbCircle
  10
 347.97716311980
  20
 209.10056501093
  30
0.0
  40
 1.7176611366972
 100
AcDbArc
  50
 262.19894957075
  51
 283.91529981560
   0
LINE
   5
446
 100
AcDbEntity
   8
LEVEL001
 100
AcDbLine
   6
CONTINUOUS
  62
7
  10
 348.71784160782
  20
 246.52896756742
  30
0.0
  11
 348.71784160782
  21
 183.92456667364
  31
0.0
   0
LINE
   5
447
 100
AcDbEntity
   8
LEVEL001
 100
AcDbLine
   6
CONTINUOUS
  62
1
  10
 349.21784160782
  20
 185.52896756742
  30
0.0
  11
 349.21784160782
  21
 196.52896756742
  31
0.0
   0
LINE
   5
448
 100
AcDbEntity
   8
LEVEL001
 100
AcDbLine
   6
CONTINUOUS
  62
1
  10
 347.74401855613
  20
 182.92490934866
  30
0.0
  11
 347.74401855612
  21
 197.52896756742
  31
0.0
   0
LINE
   5
449
 100
AcDbEntity
   8
LEVEL001
 100
AcDbLine
   6
CONTINUOUS
  62
1
  10
 349.21784160782
  20
 205.52896756742
  30
0.0
  11
 349.21784160782
  21
 216.52896756742
  31
0.0
   0
LINE
   5
44A
 100
AcDbEntity
   8
LEVEL001
 100
AcDbLine
   6
CONTINUOUS
  62
1
  10
 347.74401855613
  20
 207.39880022314
  30
0.0
  11
 347.74401855613
  21
 218.50208213112
  31
0.0
   0
ARC
   5
44B
 100
AcDbEntity
   8
LEVEL001
   6
CONTINUOUS
  62
7
 100
AcDbCircle
  10
 350.71784160782
  20
 150.52896756742
  30
0.0
  40
 2.0000000000000
 100
AcDbArc
  50
 180.00000000000
  51
 269.99999999997
   0
LINE
   5
44C
 100
AcDbEntity
   8
LEVEL001
 100
AcDbLine
   6
CONTINUOUS
  62
7
  10
 351.71784160782
  20
 148.52896756742
  30
0.0
  11
 350.71784160782
  21
 148.52896756742
  31
0.0
   0
DIMENSION
   5
44D
 100
AcDbEntity
   8
LEVEL001
   6
CONTINUOUS
  62
2
 100
AcDbDimension
   2
*D16
  10
 351.71784160782
  20
 135.14116639651
  30
0.0
  11
 350.21784160782
  21
 135.14116639651
  31
0.0
  70
0
   3
GMM004
 100
AcDbAlignedDimension
  13
 348.71784160782
  23
 150.52896756742
  33
0.0
  14
 351.71784160782
  24
 148.52896756742
  34
0.0
 100
AcDbRotatedDimension
   0
LINE
   5
44E
 100
AcDbEntity
   8
LEVEL001
 100
AcDbLine
   6
CONTINUOUS
  62
7
  10
 72.217841607918
  20
 148.52896756742
  30
0.0
  11
 71.217841607918
  21
 148.52896756742
  31
0.0
   0
LINE
   5
44F
 100
AcDbEntity
   8
LEVEL001
 100
AcDbLine
   6
CONTINUOUS
  62
7
  10
 71.217841607918
  20
 148.52896756742
  30
0.0
  11
 71.217841607918
  21
 156.52896756742
  31
0.0
   0
LINE
   5
450
 100
AcDbEntity
   8
LEVEL001
 100
AcDbLine
   6
CONTINUOUS
  62
7
  10
 74.217841607918
  20
 156.52896756742
  30
0.0
  11
 74.217841607918
  21
 150.52896756742
  31
0.0
   0
ARC
   5
451
 100
AcDbEntity
   8
LEVEL001
   6
CONTINUOUS
  62
7
 100
AcDbCircle
  10
 72.217841607918
  20
 150.52896756742
  30
0.0
  40
 2.0000000000000
 100
AcDbArc
  50
 270.00000000000
  51
0.0
   0
LINE
   5
452
 100
AcDbEntity
   8
LEVEL001
 100
AcDbLine
   6
CONTINUOUS
  62
1
  10
 71.217841607918
  20
 156.52896756742
  30
0.0
  11
 72.217841607918
  21
 156.52896756742
  31
0.0
   0
LINE
   5
453
 100
AcDbEntity
   8
LEVEL001
 100
AcDbLine
   6
CONTINUOUS
  62
1
  10
 72.217841607918
  20
 156.52896756742
  30
0.0
  11
 74.217841607918
  21
 156.52896756742
  31
0.0
   0
LINE
   5
454
 100
AcDbEntity
   8
LEVEL001
 100
AcDbLine
   6
CONTINUOUS
  62
1
  10
 72.217841607918
  20
 148.52896756742
  30
0.0
  11
 72.217841607918
  21
 156.52896756742
  31
0.0
   0
INSERT
   5
455
 100
AcDbEntity
   8
LEVEL001
 100
AcDbBlockReference
   2
*D17
  10
0.0
  20
0.0
  30
0.0
   0
DIMENSION
   5
456
 100
AcDbEntity
   8
LEVEL001
   6
CONTINUOUS
  62
2
 100
AcDbDimension
   2
*D18
  10
 342.71784160782
  20
 254.17056418626
  30
0.0
  11
 211.46784160784
  21
 254.17056418626
  31
0.0
  70
0
   1
\A1;950～1800
   3
GMM009
 100
AcDbAlignedDimension
  13
 80.217841607869
  23
 208.78440746996
  33
0.0
  14
 342.71784160782
  24
 207.99613643936
  34
0.0
 100
AcDbRotatedDimension
   0
DIMENSION
   5
457
 100
AcDbEntity
   8
LEVEL001
   6
CONTINUOUS
  62
2
 100
AcDbDimension
   2
*D19
  10
 351.71784160782
  20
 254.17056418626
  30
0.0
  11
 347.21784160782
  21
 254.17056418626
  31
0.0
  70
0
   1
\A1;(9)
   3
GMM010
 100
AcDbAlignedDimension
  13
 342.71784160782
  23
 254.17056418626
  33
0.0
  14
 351.71784160782
  24
 248.52896756742
  34
0.0
 100
AcDbRotatedDimension
   0
DIMENSION
   5
458
 100
AcDbEntity
   8
LEVEL001
   6
CONTINUOUS
  62
2
 100
AcDbDimension
   2
*D20
  10
 80.217841607869
  20
 254.17056418626
  30
0.0
  11
 75.717841607893
  21
 254.17056418626
  31
0.0
  70
0
   1
\A1;(9)
   3
GMM010
 100
AcDbAlignedDimension
  13
 71.217841607918
  23
 248.52896756742
  33
0.0
  14
 80.217841607869
  24
 254.17056418626
  34
0.0
 100
AcDbRotatedDimension
   0
ENDSEC
  0
SECTION
  2
OBJECTS
  0
DICTIONARY
  5
C
100
AcDbDictionary
  3
ACAD_GROUP
350
D
  3
ACAD_MLINESTYLE
350
1B
  0
DICTIONARY
  5
D
102
{ACAD_REACTORS
330
C
102
}
100
AcDbDictionary
  0
DICTIONARY
  5
1B
102
{ACAD_REACTORS
330
C
102
}
100
AcDbDictionary
  3
STANDARD
350
1C
  0
MLINESTYLE
  5
1C
102
{ACAD_REACTORS
330
1B
102
}
100
AcDbMlineStyle
  2
STANDARD
 70
     0
  3

 62
   256
 51
90.0
 52
90.0
 71
     2
 49
0.5
 62
   256
  6
BYLAYER
 49
-0.5
 62
   256
  6
BYLAYER
  0
ENDSEC
   0
EOF
