   0
SECTION
   2
HEADER
   9
$ACADVER
   1
AC1015
   9
$LIMMIN
  10
0.0
  20
0.0
   9
$LIMMAX
  10
 840.00000000000
  20
 594.00000000000
   9
$EXTMIN
  10
0.0
  20
0.0
  30
0.0
   9
$EXTMAX
  10
 840.00000000000
  20
 594.00000000000
  30
0.0
   9
$LTSCALE
  40
 16.800000000000
   9
$HANDSEED
   5
2D6
   0
ENDSEC
   0
SECTION
   2
TABLES
  0
TABLE
  2
VPORT
  5
8
100
AcDbSymbolTable
 70
     1
  0
VPORT
  5
2D5
100
AcDbSymbolTableRecord
100
AcDbViewportTableRecord
  2
*ACTIVE
 70
     0
 10
0.0
 20
0.0
 11
1.0
 21
1.0
  12
 420.00000000000
  22
 297.00000000000
 13
0.0
 23
0.0
 14
1.0
 24
1.0
 15
0.0
 25
0.0
 16
0.0
 26
0.0
 36
1.0
 17
0.0
 27
0.0
 37
0.0
  40
 840.00000000000
  41
 1.4787878787879
 42
50.0
 43
0.0
 44
0.0
 50
0.0
 51
0.0
 71
     0
 72
   100
 73
     1
 74
     1
 75
     0
 76
     0
 77
     0
 78
     0
  0
ENDTAB
  0
TABLE
  2
LTYPE
  5
5
100
AcDbSymbolTable
 70
    25
  0
LTYPE
  5
12
100
AcDbSymbolTableRecord
100
AcDbLinetypeTableRecord
  2
BYBLOCK
 70
     0
  3

 72
    65
 73
     0
 40
0.0
  0
LTYPE
  5
13
100
AcDbSymbolTableRecord
100
AcDbLinetypeTableRecord
  2
BYLAYER
 70
     0
  3

 72
    65
 73
     0
 40
0.0
  0
LTYPE
  5
14
100
AcDbSymbolTableRecord
100
AcDbLinetypeTableRecord
  2
CONTINUOUS
 70
     0
  3
Solid line
 72
    65
 73
     0
 40
0.0
  0
LTYPE
  5
20
100
AcDbSymbolTableRecord
100
AcDbLinetypeTableRecord
  2
BORDER
 70
     0
  3
__ __ . __ __ . __ __ . __ __ . __ __ . __ __ .
 72
    65
 73
     6
 40
1.75
 49
0.5
 74
     0
 49
-0.25
 74
     0
 49
0.5
 74
     0
 49
-0.25
 74
     0
 49
0.0
 74
     0
 49
-0.25
 74
     0
  0
LTYPE
  5
21
100
AcDbSymbolTableRecord
100
AcDbLinetypeTableRecord
  2
BORDER2
 70
     0
  3
__.__.__.__.__.__.__.__.__.__.__.__.__.__.__.__
 72
    65
 73
     6
 40
0.875
 49
0.25
 74
     0
 49
-0.125
 74
     0
 49
0.25
 74
     0
 49
-0.125
 74
     0
 49
0.0
 74
     0
 49
-0.125
 74
     0
  0
LTYPE
  5
22
100
AcDbSymbolTableRecord
100
AcDbLinetypeTableRecord
  2
BORDERX2
 70
     0
  3
____  ____  .  ____  ____  .  ____  ____  .  __
 72
    65
 73
     6
 40
3.5
 49
1.0
 74
     0
 49
-0.5
 74
     0
 49
1.0
 74
     0
 49
-0.5
 74
     0
 49
0.0
 74
     0
 49
-0.5
 74
     0
  0
LTYPE
  5
23
100
AcDbSymbolTableRecord
100
AcDbLinetypeTableRecord
  2
CENTER
 70
     0
  3
____ _ ____ _ ____ _ ____ _ ____ _ ____ _ ____ 
 72
    65
 73
     4
 40
2.0
 49
1.25
 74
     0
 49
-0.25
 74
     0
 49
0.25
 74
     0
 49
-0.25
 74
     0
  0
LTYPE
  5
24
100
AcDbSymbolTableRecord
100
AcDbLinetypeTableRecord
  2
CENTER2
 70
     0
  3
___ _ ___ _ ___ _ ___ _ ___ _ ___ _ ___ _ ___ _
 72
    65
 73
     4
 40
1.125
 49
0.75
 74
     0
 49
-0.125
 74
     0
 49
0.125
 74
     0
 49
-0.125
 74
     0
  0
LTYPE
  5
25
100
AcDbSymbolTableRecord
100
AcDbLinetypeTableRecord
  2
CENTERX2
 70
     0
  3
________  __  ________  __  ________  __  _____
 72
    65
 73
     4
 40
4.0
 49
2.5
 74
     0
 49
-0.5
 74
     0
 49
0.5
 74
     0
 49
-0.5
 74
     0
  0
LTYPE
  5
26
100
AcDbSymbolTableRecord
100
AcDbLinetypeTableRecord
  2
DASHDOT
 70
     0
  3
__ . __ . __ . __ . __ . __ . __ . __ . __ . __
 72
    65
 73
     4
 40
1.0
 49
0.5
 74
     0
 49
-0.25
 74
     0
 49
0.0
 74
     0
 49
-0.25
 74
     0
  0
LTYPE
  5
27
100
AcDbSymbolTableRecord
100
AcDbLinetypeTableRecord
  2
DASHDOT2
 70
     0
  3
_._._._._._._._._._._._._._._._._._._._._._._._
 72
    65
 73
     4
 40
0.5
 49
0.25
 74
     0
 49
-0.125
 74
     0
 49
0.0
 74
     0
 49
-0.125
 74
     0
  0
LTYPE
  5
28
100
AcDbSymbolTableRecord
100
AcDbLinetypeTableRecord
  2
DASHDOTX2
 70
     0
  3
____  .  ____  .  ____  .  ____  .  ____  .  __
 72
    65
 73
     4
 40
2.0
 49
1.0
 74
     0
 49
-0.5
 74
     0
 49
0.0
 74
     0
 49
-0.5
 74
     0
  0
LTYPE
  5
29
100
AcDbSymbolTableRecord
100
AcDbLinetypeTableRecord
  2
DASHED
 70
     0
  3
__ __ __ __ __ __ __ __ __ __ __ __ __ __ __ __
 72
    65
 73
     2
 40
0.75
 49
0.5
 74
     0
 49
-0.25
 74
     0
  0
LTYPE
  5
2A
100
AcDbSymbolTableRecord
100
AcDbLinetypeTableRecord
  2
DASHED2
 70
     0
  3
_ _ _ _ _ _ _ _ _ _ _ _ _ _ _ _ _ _ _ _ _ _ _ _
 72
    65
 73
     2
 40
0.375
 49
0.25
 74
     0
 49
-0.125
 74
     0
  0
LTYPE
  5
2B
100
AcDbSymbolTableRecord
100
AcDbLinetypeTableRecord
  2
DASHEDX2
 70
     0
  3
____  ____  ____  ____  ____  ____  ____  ____ 
 72
    65
 73
     2
 40
1.5
 49
1.0
 74
     0
 49
-0.5
 74
     0
  0
LTYPE
  5
2C
100
AcDbSymbolTableRecord
100
AcDbLinetypeTableRecord
  2
DIVIDE
 70
     0
  3
____ . . ____ . . ____ . . ____ . . ____ . . __
 72
    65
 73
     6
 40
1.25
 49
0.5
 74
     0
 49
-0.25
 74
     0
 49
0.0
 74
     0
 49
-0.25
 74
     0
 49
0.0
 74
     0
 49
-0.25
 74
     0
  0
LTYPE
  5
2D
100
AcDbSymbolTableRecord
100
AcDbLinetypeTableRecord
  2
DIVIDE2
 70
     0
  3
__..__..__..__..__..__..__..__..__..__..__..__.
 72
    65
 73
     6
 40
0.625
 49
0.25
 74
     0
 49
-0.125
 74
     0
 49
0.0
 74
     0
 49
-0.125
 74
     0
 49
0.0
 74
     0
 49
-0.125
 74
     0
  0
LTYPE
  5
2E
100
AcDbSymbolTableRecord
100
AcDbLinetypeTableRecord
  2
DIVIDEX2
 70
     0
  3
________  .  .  ________  .  .  ________  .  . 
 72
    65
 73
     6
 40
2.5
 49
1.0
 74
     0
 49
-0.5
 74
     0
 49
0.0
 74
     0
 49
-0.5
 74
     0
 49
0.0
 74
     0
 49
-0.5
 74
     0
  0
LTYPE
  5
2F
100
AcDbSymbolTableRecord
100
AcDbLinetypeTableRecord
  2
DOT
 70
     0
  3
. . . . . . . . . . . . . . . . . . . . . . . .
 72
    65
 73
     2
 40
0.25
 49
0.0
 74
     0
 49
-0.25
 74
     0
  0
LTYPE
  5
30
100
AcDbSymbolTableRecord
100
AcDbLinetypeTableRecord
  2
DOT2
 70
     0
  3
...............................................
 72
    65
 73
     2
 40
0.125
 49
0.0
 74
     0
 49
-0.125
 74
     0
  0
LTYPE
  5
31
100
AcDbSymbolTableRecord
100
AcDbLinetypeTableRecord
  2
DOTX2
 70
     0
  3
.  .  .  .  .  .  .  .  .  .  .  .  .  .  .  . 
 72
    65
 73
     2
 40
0.5
 49
0.0
 74
     0
 49
-0.5
 74
     0
  0
LTYPE
  5
32
100
AcDbSymbolTableRecord
100
AcDbLinetypeTableRecord
  2
HIDDEN
 70
     0
  3
__ __ __ __ __ __ __ __ __ __ __ __ __ __ __ __
 72
    65
 73
     2
 40
0.375
 49
0.25
 74
     0
 49
-0.125
 74
     0
  0
LTYPE
  5
33
100
AcDbSymbolTableRecord
100
AcDbLinetypeTableRecord
  2
HIDDEN2
 70
     0
  3
_ _ _ _ _ _ _ _ _ _ _ _ _ _ _ _ _ _ _ _ _ _ _ _
 72
    65
 73
     2
 40
0.1875
 49
0.125
 74
     0
 49
-0.0625
 74
     0
  0
LTYPE
  5
34
100
AcDbSymbolTableRecord
100
AcDbLinetypeTableRecord
  2
HIDDENX2
 70
     0
  3
____ ____ ____ ____ ____ ____ ____ ____ ____ __
 72
    65
 73
     2
 40
0.75
 49
0.5
 74
     0
 49
-0.25
 74
     0
  0
LTYPE
  5
35
100
AcDbSymbolTableRecord
100
AcDbLinetypeTableRecord
  2
PHANTOM
 70
     0
  3
______  __  __  ______  __  __  ______  __  __ 
 72
    65
 73
     6
 40
2.5
 49
1.25
 74
     0
 49
-0.25
 74
     0
 49
0.25
 74
     0
 49
-0.25
 74
     0
 49
0.25
 74
     0
 49
-0.25
 74
     0
  0
LTYPE
  5
36
100
AcDbSymbolTableRecord
100
AcDbLinetypeTableRecord
  2
PHANTOM2
 70
     0
  3
___ _ _ ___ _ _ ___ _ _ ___ _ _ ___ _ _ ___ _ _
 72
    65
 73
     6
 40
1.25
 49
0.625
 74
     0
 49
-0.125
 74
     0
 49
0.125
 74
     0
 49
-0.125
 74
     0
 49
0.125
 74
     0
 49
-0.125
 74
     0
  0
LTYPE
  5
37
100
AcDbSymbolTableRecord
100
AcDbLinetypeTableRecord
  2
PHANTOMX2
 70
     0
  3
____________    ____    ____    ____________   
 72
    65
 73
     6
 40
5.0
 49
2.5
 74
     0
 49
-0.5
 74
     0
 49
0.5
 74
     0
 49
-0.5
 74
     0
 49
0.5
 74
     0
 49
-0.5
 74
     0
  0
ENDTAB
   0
TABLE
   2
LAYER
   5
2
 100
AcDbSymbolTable
  70
2
   0
LAYER
   5
E
 100
AcDbSymbolTableRecord
 100
AcDbLayerTableRecord
   2
0
  70
0
  62
7
   6
CONTINUOUS
 390
30
   0
LAYER
   5
39
 100
AcDbSymbolTableRecord
 100
AcDbLayerTableRecord
   2
LEVEL001
  70
0
  62
7
   6
CONTINUOUS
 390
30
   0
ENDTAB
  0
TABLE
  2
STYLE
  5
3
100
AcDbSymbolTable
  70
3
  0
STYLE
  5
F
100
AcDbSymbolTableRecord
100
AcDbTextStyleTableRecord
  2
STANDARD
 70
     0
 40
0.0
 41
1.0
 50
0.0
 71
     0
 42
0.2
  3
TXT
  4
BIGFONT
  0
STYLE
  5
38
100
AcDbSymbolTableRecord
100
AcDbTextStyleTableRecord
  2
STANDARD1
 70
     4
 40
0.0
 41
1.0
 50
0.0
 71
     0
 42
0.2
  3
TXT
  4
BIGFONT
   0
STYLE
   5
3A
 100
AcDbSymbolTableRecord
 100
AcDbTextStyleTableRecord
   2
GMM001
  70
0
  40
0.0
  41
 0.95000000000000
  50
0.0
  71
     0
  42
1.0
   3
txt.shx
   4
bigfont.shx
   0
ENDTAB
  0
TABLE
  2
VIEW
  5
6
100
AcDbSymbolTable
 70
     0
  0
ENDTAB
  0
TABLE
  2
UCS
  5
7
100
AcDbSymbolTable
 70
     0
  0
ENDTAB
  0
TABLE
  2
APPID
  5
9
100
AcDbSymbolTable
 70
     1
  0
APPID
  5
10
100
AcDbSymbolTableRecord
100
AcDbRegAppTableRecord
  2
ACAD
 70
     0
  0
ENDTAB
   0
TABLE
   2
DIMSTYLE
   5
A
 100
AcDbSymbolTable
  70
7
 100
AcDbDimStyleTable
  0
DIMSTYLE
105
1D
100
AcDbSymbolTableRecord
100
AcDbDimStyleTableRecord
  2
STANDARD
 70
     0
  3

  4

  5

  6

  7

 40
1.0
 41
0.18
 42
0.0625
 43
0.38
 44
0.18
 45
0.0
 46
0.0
 47
0.0
 48
0.0
140
0.18
141
0.09
142
0.0
143
25.4
144
1.0
145
0.0
146
1.0
147
0.09
 71
     0
 72
     0
 73
     1
 74
     1
 75
     0
 76
     0
 77
     0
 78
     0
170
     0
171
     2
172
     0
173
     0
174
     0
175
     0
176
     0
177
     0
178
     0
270
     2
271
     4
272
     4
273
     2
274
     2
340
F
275
     0
280
     0
281
     0
282
     0
283
     1
284
     0
285
     0
286
     0
287
     3
288
     0
   0
DIMSTYLE
 105
3B
 100
AcDbSymbolTableRecord
 100
AcDbDimStyleTableRecord
   2
GMM001
  70
0
   3

   4

   5

   6
_OPEN30
   7
_OPEN30
  40
 1.0000000000000
  41
 6.0000000000000
  42
 2.0000000000000
  43
 16.000000000000
  44
 2.0000000000000
  45
0.0
  46
0.0
  47
0.0
  48
0.0
 140
 8.0000000000000
 141
 2.0000000000000
 142
0.0
 143
 0.39400000000000E-1
 144
 1.0000000000000
 145
0.0
 146
 0.62500000000000
 147
 3.4285714285714
  71
0
  72
0
  73
0
  74
0
  75
0
  76
0
  77
3
  78
8
 170
0
 171
2
 172
1
 173
1
 174
0
 175
0
 176
3
 177
3
 178
3
 270
2
 271
6
 272
0
 273
2
 274
2
 340
3A
 275
0
 280
0
 281
0
 282
0
 283
1
 284
0
 285
0
 286
0
 287
3
 288
0
   0
DIMSTYLE
 105
3C
 100
AcDbSymbolTableRecord
 100
AcDbDimStyleTableRecord
   2
GMM002
  70
0
   3
%%c<>
   4

   5

   6
_OPEN30
   7
_OPEN30
  40
 1.0000000000000
  41
 6.0000000000000
  42
 2.0000000000000
  43
 16.000000000000
  44
 2.0000000000000
  45
0.0
  46
0.0
  47
0.0
  48
0.0
 140
 8.0000000000000
 141
 2.0000000000000
 142
0.0
 143
 0.39400000000000E-1
 144
 1.0000000000000
 145
0.0
 146
 0.62500000000000
 147
 3.4285714285714
  71
0
  72
0
  73
0
  74
0
  75
0
  76
0
  77
3
  78
8
 170
0
 171
2
 172
1
 173
1
 174
0
 175
0
 176
3
 177
3
 178
3
 270
2
 271
6
 272
0
 273
2
 274
2
 340
3A
 275
0
 280
0
 281
0
 282
0
 283
1
 284
0
 285
0
 286
0
 287
3
 288
0
   0
DIMSTYLE
 105
3D
 100
AcDbSymbolTableRecord
 100
AcDbDimStyleTableRecord
   2
GMM003
  70
0
   3
400üE<>
   4

   5

   6
_OPEN30
   7
_OPEN30
  40
 1.0000000000000
  41
 6.0000000000000
  42
 2.0000000000000
  43
 16.000000000000
  44
 2.0000000000000
  45
0.0
  46
0.0
  47
0.0
  48
0.0
 140
 8.0000000000000
 141
 2.0000000000000
 142
0.0
 143
 0.39400000000000E-1
 144
 1.0000000000000
 145
0.0
 146
 0.62500000000000
 147
 3.4285714285714
  71
0
  72
0
  73
0
  74
0
  75
0
  76
0
  77
3
  78
8
 170
0
 171
2
 172
1
 173
1
 174
0
 175
0
 176
3
 177
3
 178
3
 270
2
 271
6
 272
0
 273
2
 274
2
 340
3A
 275
0
 280
0
 281
0
 282
0
 283
1
 284
0
 285
0
 286
0
 287
3
 288
0
   0
DIMSTYLE
 105
3E
 100
AcDbSymbolTableRecord
 100
AcDbDimStyleTableRecord
   2
GMM004
  70
0
   3
250üE<>
   4

   5

   6
_OPEN30
   7
_OPEN30
  40
 1.0000000000000
  41
 6.0000000000000
  42
 2.0000000000000
  43
 16.000000000000
  44
 2.0000000000000
  45
0.0
  46
0.0
  47
0.0
  48
0.0
 140
 8.0000000000000
 141
 2.0000000000000
 142
0.0
 143
 0.39400000000000E-1
 144
 1.0000000000000
 145
0.0
 146
 0.62500000000000
 147
 3.4285714285714
  71
0
  72
0
  73
0
  74
0
  75
0
  76
0
  77
3
  78
8
 170
0
 171
2
 172
1
 173
1
 174
0
 175
0
 176
3
 177
3
 178
3
 270
2
 271
6
 272
0
 273
2
 274
2
 340
3A
 275
0
 280
0
 281
0
 282
0
 283
1
 284
0
 285
0
 286
0
 287
3
 288
0
   0
DIMSTYLE
 105
3F
 100
AcDbSymbolTableRecord
 100
AcDbDimStyleTableRecord
   2
GMM005
  70
0
   3
235üE<>
   4

   5

   6
_OPEN30
   7
_OPEN30
  40
 1.0000000000000
  41
 6.0000000000000
  42
 2.0000000000000
  43
 16.000000000000
  44
 2.0000000000000
  45
0.0
  46
0.0
  47
0.0
  48
0.0
 140
 8.0000000000000
 141
 2.0000000000000
 142
0.0
 143
 0.39400000000000E-1
 144
 1.0000000000000
 145
0.0
 146
 0.62500000000000
 147
 3.4285714285714
  71
0
  72
0
  73
0
  74
0
  75
0
  76
0
  77
3
  78
8
 170
0
 171
2
 172
1
 173
1
 174
0
 175
0
 176
3
 177
3
 178
3
 270
2
 271
6
 272
0
 273
2
 274
2
 340
3A
 275
0
 280
0
 281
0
 282
0
 283
1
 284
0
 285
0
 286
0
 287
3
 288
0
   0
ENDTAB
  0
TABLE
  2
BLOCK_RECORD
  5
1
100
AcDbSymbolTable
 70
     0
  0
BLOCK_RECORD
  5
18
100
AcDbSymbolTableRecord
100
AcDbBlockTableRecord
  2
*MODEL_SPACE
  0
BLOCK_RECORD
  5
15
100
AcDbSymbolTableRecord
100
AcDbBlockTableRecord
  2
*PAPER_SPACE
   0
BLOCK_RECORD
   5
40
 100
AcDbSymbolTableRecord
 100
AcDbBlockTableRecord
   2
*D1
   0
BLOCK_RECORD
   5
41
 100
AcDbSymbolTableRecord
 100
AcDbBlockTableRecord
   2
*D2
   0
BLOCK_RECORD
   5
42
 100
AcDbSymbolTableRecord
 100
AcDbBlockTableRecord
   2
*D3
   0
BLOCK_RECORD
   5
43
 100
AcDbSymbolTableRecord
 100
AcDbBlockTableRecord
   2
*D4
   0
BLOCK_RECORD
   5
44
 100
AcDbSymbolTableRecord
 100
AcDbBlockTableRecord
   2
*D5
   0
BLOCK_RECORD
   5
45
 100
AcDbSymbolTableRecord
 100
AcDbBlockTableRecord
   2
*D6
   0
BLOCK_RECORD
   5
46
 100
AcDbSymbolTableRecord
 100
AcDbBlockTableRecord
   2
*D7
   0
BLOCK_RECORD
   5
47
 100
AcDbSymbolTableRecord
 100
AcDbBlockTableRecord
   2
*D8
   0
BLOCK_RECORD
   5
48
 100
AcDbSymbolTableRecord
 100
AcDbBlockTableRecord
   2
*D9
   0
BLOCK_RECORD
   5
49
 100
AcDbSymbolTableRecord
 100
AcDbBlockTableRecord
   2
*D10
   0
BLOCK_RECORD
   5
4A
 100
AcDbSymbolTableRecord
 100
AcDbBlockTableRecord
   2
*D11
   0
BLOCK_RECORD
   5
4B
 100
AcDbSymbolTableRecord
 100
AcDbBlockTableRecord
   2
*D12
   0
BLOCK_RECORD
   5
4C
 100
AcDbSymbolTableRecord
 100
AcDbBlockTableRecord
   2
*D13
   0
BLOCK_RECORD
   5
4D
 100
AcDbSymbolTableRecord
 100
AcDbBlockTableRecord
   2
*D14
   0
BLOCK_RECORD
   5
4E
 100
AcDbSymbolTableRecord
 100
AcDbBlockTableRecord
   2
*D15
   0
BLOCK_RECORD
   5
4F
 100
AcDbSymbolTableRecord
 100
AcDbBlockTableRecord
   2
*D16
   0
BLOCK_RECORD
   5
50
 100
AcDbSymbolTableRecord
 100
AcDbBlockTableRecord
   2
_ARCHTICK
   0
BLOCK_RECORD
   5
51
 100
AcDbSymbolTableRecord
 100
AcDbBlockTableRecord
   2
_BOXBLANK
   0
BLOCK_RECORD
   5
52
 100
AcDbSymbolTableRecord
 100
AcDbBlockTableRecord
   2
_BOXFILLED
   0
BLOCK_RECORD
   5
53
 100
AcDbSymbolTableRecord
 100
AcDbBlockTableRecord
   2
_CLOSED
   0
BLOCK_RECORD
   5
54
 100
AcDbSymbolTableRecord
 100
AcDbBlockTableRecord
   2
_CLOSEDBLANK
   0
BLOCK_RECORD
   5
55
 100
AcDbSymbolTableRecord
 100
AcDbBlockTableRecord
   2
_DATUMBLANK
   0
BLOCK_RECORD
   5
56
 100
AcDbSymbolTableRecord
 100
AcDbBlockTableRecord
   2
_DATUMFILLED
   0
BLOCK_RECORD
   5
57
 100
AcDbSymbolTableRecord
 100
AcDbBlockTableRecord
   2
_DOT
   0
BLOCK_RECORD
   5
58
 100
AcDbSymbolTableRecord
 100
AcDbBlockTableRecord
   2
_DOTBLANK
   0
BLOCK_RECORD
   5
59
 100
AcDbSymbolTableRecord
 100
AcDbBlockTableRecord
   2
_DOTSMALL
   0
BLOCK_RECORD
   5
5A
 100
AcDbSymbolTableRecord
 100
AcDbBlockTableRecord
   2
_INTEGRAL
   0
BLOCK_RECORD
   5
5B
 100
AcDbSymbolTableRecord
 100
AcDbBlockTableRecord
   2
_NONE
   0
BLOCK_RECORD
   5
5C
 100
AcDbSymbolTableRecord
 100
AcDbBlockTableRecord
   2
_OBLIQUE
   0
BLOCK_RECORD
   5
5D
 100
AcDbSymbolTableRecord
 100
AcDbBlockTableRecord
   2
_OPEN
   0
BLOCK_RECORD
   5
5E
 100
AcDbSymbolTableRecord
 100
AcDbBlockTableRecord
   2
_OPEN30
   0
BLOCK_RECORD
   5
5F
 100
AcDbSymbolTableRecord
 100
AcDbBlockTableRecord
   2
_OPEN90
   0
BLOCK_RECORD
   5
60
 100
AcDbSymbolTableRecord
 100
AcDbBlockTableRecord
   2
_ORIGIN
   0
ENDTAB
   0
ENDSEC
  0
SECTION
  2
BLOCKS
  0
BLOCK
  5
19
100
AcDbEntity
  8
0
100
AcDbBlockBegin
  2
*MODEL_SPACE
 70
     0
 10
0.0
 20
0.0
 30
0.0
  3
*MODEL_SPACE
  1

  0
ENDBLK
  5
1A
100
AcDbEntity
  8
0
100
AcDbBlockEnd
  0
BLOCK
  5
16
100
AcDbEntity
 67
     1
  8
0
100
AcDbBlockBegin
  2
*PAPER_SPACE
 70
     0
 10
0.0
 20
0.0
 30
0.0
  3
*PAPER_SPACE
  1

  0
ENDBLK
  5
17
100
AcDbEntity
 67
     1
  8
0
100
AcDbBlockEnd
   0
BLOCK
   5
61
 100
AcDbEntity
   8
0
 100
AcDbBlockBegin
   2
_ARCHTICK
  70
0
  10
0.0
  20
0.0
  30
0.0
   3
_ARCHTICK
   0
POLYLINE
   5
62
 100
AcDbEntity
   8
0
   6
BYBLOCK
  62
0
 100
AcDb2dPolyline
  66
1
  10
0.0
  20
0.0
  30
0.0
  70
1
  40
 0.15000000000000
  41
 0.15000000000000
   0
VERTEX
   5
63
 100
AcDbEntity
   8
0
   6
BYBLOCK
  62
0
 100
AcDbVertex
 100
AcDb2dVertex
  10
-0.50000000000000
  20
-0.50000000000000
  30
0.0
  40
 0.15000000000000
  41
 0.15000000000000
   0
VERTEX
   5
64
 100
AcDbEntity
   8
0
   6
BYBLOCK
  62
0
 100
AcDbVertex
 100
AcDb2dVertex
  10
 0.50000000000000
  20
 0.50000000000000
  30
0.0
  40
 0.15000000000000
  41
 0.15000000000000
   0
SEQEND
   5
65
 100
AcDbEntity
   8
0
   6
BYBLOCK
  62
0
   0
ENDBLK
   5
66
 100
AcDbEntity
   8
0
 100
AcDbBlockEnd
   0
BLOCK
   5
67
 100
AcDbEntity
   8
0
 100
AcDbBlockBegin
   2
_OBLIQUE
  70
0
  10
0.0
  20
0.0
  30
0.0
   3
_OBLIQUE
   0
LINE
   5
68
 100
AcDbEntity
   8
0
 100
AcDbLine
   6
BYBLOCK
  62
0
  10
-0.50000000000000
  20
-0.50000000000000
  30
0.0
  11
 0.50000000000000
  21
 0.50000000000000
  31
0.0
   0
ENDBLK
   5
69
 100
AcDbEntity
   8
0
 100
AcDbBlockEnd
   0
BLOCK
   5
6A
 100
AcDbEntity
   8
0
 100
AcDbBlockBegin
   2
_BOXBLANK
  70
0
  10
0.0
  20
0.0
  30
0.0
   3
_BOXBLANK
   0
LINE
   5
6B
 100
AcDbEntity
   8
0
 100
AcDbLine
   6
BYBLOCK
  62
0
  10
-0.50000000000000
  20
-0.50000000000000
  30
0.0
  11
 0.50000000000000
  21
-0.50000000000000
  31
0.0
   0
LINE
   5
6C
 100
AcDbEntity
   8
0
 100
AcDbLine
   6
BYBLOCK
  62
0
  10
 0.50000000000000
  20
-0.50000000000000
  30
0.0
  11
 0.50000000000000
  21
 0.50000000000000
  31
0.0
   0
LINE
   5
6D
 100
AcDbEntity
   8
0
 100
AcDbLine
   6
BYBLOCK
  62
0
  10
 0.50000000000000
  20
 0.50000000000000
  30
0.0
  11
-0.50000000000000
  21
 0.50000000000000
  31
0.0
   0
LINE
   5
6E
 100
AcDbEntity
   8
0
 100
AcDbLine
   6
BYBLOCK
  62
0
  10
-0.50000000000000
  20
 0.50000000000000
  30
0.0
  11
-0.50000000000000
  21
-0.50000000000000
  31
0.0
   0
LINE
   5
6F
 100
AcDbEntity
   8
0
 100
AcDbLine
   6
BYBLOCK
  62
0
  10
-0.50000000000000
  20
0.0
  30
0.0
  11
-1.0000000000000
  21
0.0
  31
0.0
   0
ENDBLK
   5
70
 100
AcDbEntity
   8
0
 100
AcDbBlockEnd
   0
BLOCK
   5
71
 100
AcDbEntity
   8
0
 100
AcDbBlockBegin
   2
_BOXFILLED
  70
0
  10
0.0
  20
0.0
  30
0.0
   3
_BOXFILLED
   0
SOLID
   5
72
 100
AcDbEntity
   8
0
 100
AcDbTrace
   6
BYBLOCK
  62
0
  10
-0.50000000000000
  20
 0.50000000000000
  30
0.0
  11
 0.50000000000000
  21
 0.50000000000000
  31
0.0
  12
-0.50000000000000
  22
-0.50000000000000
  32
0.0
  13
 0.50000000000000
  23
-0.50000000000000
  33
0.0
   0
LINE
   5
73
 100
AcDbEntity
   8
0
 100
AcDbLine
   6
BYBLOCK
  62
0
  10
-0.50000000000000
  20
0.0
  30
0.0
  11
-1.0000000000000
  21
0.0
  31
0.0
   0
ENDBLK
   5
74
 100
AcDbEntity
   8
0
 100
AcDbBlockEnd
   0
BLOCK
   5
75
 100
AcDbEntity
   8
0
 100
AcDbBlockBegin
   2
_CLOSED
  70
0
  10
0.0
  20
0.0
  30
0.0
   3
_CLOSED
   0
LINE
   5
76
 100
AcDbEntity
   8
0
 100
AcDbLine
   6
BYBLOCK
  62
0
  10
-1.0000000000000
  20
 0.16666666666667
  30
0.0
  11
0.0
  21
0.0
  31
0.0
   0
LINE
   5
77
 100
AcDbEntity
   8
0
 100
AcDbLine
   6
BYBLOCK
  62
0
  10
0.0
  20
0.0
  30
0.0
  11
-1.0000000000000
  21
-0.16666666666667
  31
0.0
   0
LINE
   5
78
 100
AcDbEntity
   8
0
 100
AcDbLine
   6
BYBLOCK
  62
0
  10
-1.0000000000000
  20
 0.16666666666667
  30
0.0
  11
-1.0000000000000
  21
-0.16666666666667
  31
0.0
   0
LINE
   5
79
 100
AcDbEntity
   8
0
 100
AcDbLine
   6
BYBLOCK
  62
0
  10
0.0
  20
0.0
  30
0.0
  11
-1.0000000000000
  21
0.0
  31
0.0
   0
ENDBLK
   5
7A
 100
AcDbEntity
   8
0
 100
AcDbBlockEnd
   0
BLOCK
   5
7B
 100
AcDbEntity
   8
0
 100
AcDbBlockBegin
   2
_OPEN
  70
0
  10
0.0
  20
0.0
  30
0.0
   3
_OPEN
   0
LINE
   5
7C
 100
AcDbEntity
   8
0
 100
AcDbLine
   6
BYBLOCK
  62
0
  10
-1.0000000000000
  20
 0.16666666666667
  30
0.0
  11
0.0
  21
0.0
  31
0.0
   0
LINE
   5
7D
 100
AcDbEntity
   8
0
 100
AcDbLine
   6
BYBLOCK
  62
0
  10
0.0
  20
0.0
  30
0.0
  11
-1.0000000000000
  21
-0.16666666666667
  31
0.0
   0
LINE
   5
7E
 100
AcDbEntity
   8
0
 100
AcDbLine
   6
BYBLOCK
  62
0
  10
0.0
  20
0.0
  30
0.0
  11
-1.0000000000000
  21
0.0
  31
0.0
   0
ENDBLK
   5
7F
 100
AcDbEntity
   8
0
 100
AcDbBlockEnd
   0
BLOCK
   5
80
 100
AcDbEntity
   8
0
 100
AcDbBlockBegin
   2
_OPEN30
  70
0
  10
0.0
  20
0.0
  30
0.0
   3
_OPEN30
   0
LINE
   5
81
 100
AcDbEntity
   8
0
 100
AcDbLine
   6
BYBLOCK
  62
0
  10
-1.0000000000000
  20
 0.26794919243110
  30
0.0
  11
0.0
  21
0.0
  31
0.0
   0
LINE
   5
82
 100
AcDbEntity
   8
0
 100
AcDbLine
   6
BYBLOCK
  62
0
  10
0.0
  20
0.0
  30
0.0
  11
-1.0000000000000
  21
-0.26794919243110
  31
0.0
   0
LINE
   5
83
 100
AcDbEntity
   8
0
 100
AcDbLine
   6
BYBLOCK
  62
0
  10
0.0
  20
0.0
  30
0.0
  11
-1.0000000000000
  21
0.0
  31
0.0
   0
ENDBLK
   5
84
 100
AcDbEntity
   8
0
 100
AcDbBlockEnd
   0
BLOCK
   5
85
 100
AcDbEntity
   8
0
 100
AcDbBlockBegin
   2
_OPEN90
  70
0
  10
0.0
  20
0.0
  30
0.0
   3
_OPEN90
   0
LINE
   5
86
 100
AcDbEntity
   8
0
 100
AcDbLine
   6
BYBLOCK
  62
0
  10
-0.50000000000000
  20
 0.50000000000000
  30
0.0
  11
0.0
  21
0.0
  31
0.0
   0
LINE
   5
87
 100
AcDbEntity
   8
0
 100
AcDbLine
   6
BYBLOCK
  62
0
  10
0.0
  20
0.0
  30
0.0
  11
-0.50000000000000
  21
-0.50000000000000
  31
0.0
   0
LINE
   5
88
 100
AcDbEntity
   8
0
 100
AcDbLine
   6
BYBLOCK
  62
0
  10
0.0
  20
0.0
  30
0.0
  11
-1.0000000000000
  21
0.0
  31
0.0
   0
ENDBLK
   5
89
 100
AcDbEntity
   8
0
 100
AcDbBlockEnd
   0
BLOCK
   5
8A
 100
AcDbEntity
   8
0
 100
AcDbBlockBegin
   2
_CLOSEDBLANK
  70
0
  10
0.0
  20
0.0
  30
0.0
   3
_CLOSEDBLANK
   0
LINE
   5
8B
 100
AcDbEntity
   8
0
 100
AcDbLine
   6
BYBLOCK
  62
0
  10
-1.0000000000000
  20
 0.16666666666667
  30
0.0
  11
0.0
  21
0.0
  31
0.0
   0
LINE
   5
8C
 100
AcDbEntity
   8
0
 100
AcDbLine
   6
BYBLOCK
  62
0
  10
0.0
  20
0.0
  30
0.0
  11
-1.0000000000000
  21
-0.16666666666667
  31
0.0
   0
LINE
   5
8D
 100
AcDbEntity
   8
0
 100
AcDbLine
   6
BYBLOCK
  62
0
  10
-1.0000000000000
  20
 0.16666666666667
  30
0.0
  11
-1.0000000000000
  21
-0.16666666666667
  31
0.0
   0
ENDBLK
   5
8E
 100
AcDbEntity
   8
0
 100
AcDbBlockEnd
   0
BLOCK
   5
8F
 100
AcDbEntity
   8
0
 100
AcDbBlockBegin
   2
_DOT
  70
0
  10
0.0
  20
0.0
  30
0.0
   3
_DOT
   0
POLYLINE
   5
90
 100
AcDbEntity
   8
0
   6
BYBLOCK
  62
0
 100
AcDb2dPolyline
  66
1
  10
0.0
  20
0.0
  30
0.0
  70
1
  40
 0.50000000000000
  41
 0.50000000000000
   0
VERTEX
   5
91
 100
AcDbEntity
   8
0
   6
BYBLOCK
  62
0
 100
AcDbVertex
 100
AcDb2dVertex
  10
-0.25000000000000
  20
0.0
  30
0.0
  42
 1.0000000000000
  40
 0.50000000000000
  41
 0.50000000000000
   0
VERTEX
   5
92
 100
AcDbEntity
   8
0
   6
BYBLOCK
  62
0
 100
AcDbVertex
 100
AcDb2dVertex
  10
 0.25000000000000
  20
0.0
  30
0.0
  42
 1.0000000000000
  40
 0.50000000000000
  41
 0.50000000000000
   0
SEQEND
   5
93
 100
AcDbEntity
   8
0
   6
BYBLOCK
  62
0
   0
LINE
   5
94
 100
AcDbEntity
   8
0
 100
AcDbLine
   6
BYBLOCK
  62
0
  10
-0.50000000000000
  20
0.0
  30
0.0
  11
-1.0000000000000
  21
0.0
  31
0.0
   0
ENDBLK
   5
95
 100
AcDbEntity
   8
0
 100
AcDbBlockEnd
   0
BLOCK
   5
96
 100
AcDbEntity
   8
0
 100
AcDbBlockBegin
   2
_DOTSMALL
  70
0
  10
0.0
  20
0.0
  30
0.0
   3
_DOTSMALL
   0
POLYLINE
   5
97
 100
AcDbEntity
   8
0
   6
BYBLOCK
  62
0
 100
AcDb2dPolyline
  66
1
  10
0.0
  20
0.0
  30
0.0
  70
1
  40
 0.50000000000000
  41
 0.50000000000000
   0
VERTEX
   5
98
 100
AcDbEntity
   8
0
   6
BYBLOCK
  62
0
 100
AcDbVertex
 100
AcDb2dVertex
  10
-0.62500000000000E-1
  20
0.0
  30
0.0
  42
 1.0000000000000
  40
 0.50000000000000
  41
 0.50000000000000
   0
VERTEX
   5
99
 100
AcDbEntity
   8
0
   6
BYBLOCK
  62
0
 100
AcDbVertex
 100
AcDb2dVertex
  10
 0.62500000000000E-1
  20
0.0
  30
0.0
  42
 1.0000000000000
  40
 0.50000000000000
  41
 0.50000000000000
   0
SEQEND
   5
9A
 100
AcDbEntity
   8
0
   6
BYBLOCK
  62
0
   0
ENDBLK
   5
9B
 100
AcDbEntity
   8
0
 100
AcDbBlockEnd
   0
BLOCK
   5
9C
 100
AcDbEntity
   8
0
 100
AcDbBlockBegin
   2
_DATUMBLANK
  70
0
  10
0.0
  20
0.0
  30
0.0
   3
_DATUMBLANK
   0
LINE
   5
9D
 100
AcDbEntity
   8
0
 100
AcDbLine
   6
BYBLOCK
  62
0
  10
0.0
  20
 0.57735027000000
  30
0.0
  11
-1.0000000000000
  21
0.0
  31
0.0
   0
LINE
   5
9E
 100
AcDbEntity
   8
0
 100
AcDbLine
   6
BYBLOCK
  62
0
  10
-1.0000000000000
  20
0.0
  30
0.0
  11
0.0
  21
-0.57735027000000
  31
0.0
   0
LINE
   5
9F
 100
AcDbEntity
   8
0
 100
AcDbLine
   6
BYBLOCK
  62
0
  10
0.0
  20
-0.57735027000000
  30
0.0
  11
0.0
  21
 0.57735027000000
  31
0.0
   0
ENDBLK
   5
A0
 100
AcDbEntity
   8
0
 100
AcDbBlockEnd
   0
BLOCK
   5
A1
 100
AcDbEntity
   8
0
 100
AcDbBlockBegin
   2
_DATUMFILLED
  70
0
  10
0.0
  20
0.0
  30
0.0
   3
_DATUMFILLED
   0
SOLID
   5
A2
 100
AcDbEntity
   8
0
 100
AcDbTrace
   6
BYBLOCK
  62
0
  10
0.0
  20
 0.57735027000000
  30
0.0
  11
-1.0000000000000
  21
0.0
  31
0.0
  12
0.0
  22
-0.57735027000000
  32
0.0
  13
0.0
  23
-0.57735027000000
  33
0.0
   0
ENDBLK
   5
A3
 100
AcDbEntity
   8
0
 100
AcDbBlockEnd
   0
BLOCK
   5
A4
 100
AcDbEntity
   8
0
 100
AcDbBlockBegin
   2
_ORIGIN
  70
0
  10
0.0
  20
0.0
  30
0.0
   3
_ORIGIN
   0
CIRCLE
   5
A5
 100
AcDbEntity
   8
0
 100
AcDbCircle
   6
BYBLOCK
  62
0
  10
0.0
  20
0.0
  30
0.0
  40
 0.50000000000000
   0
LINE
   5
A6
 100
AcDbEntity
   8
0
 100
AcDbLine
   6
BYBLOCK
  62
0
  10
0.0
  20
0.0
  30
0.0
  11
-1.0000000000000
  21
0.0
  31
0.0
   0
ENDBLK
   5
A7
 100
AcDbEntity
   8
0
 100
AcDbBlockEnd
   0
BLOCK
   5
A8
 100
AcDbEntity
   8
0
 100
AcDbBlockBegin
   2
_NONE
  70
0
  10
0.0
  20
0.0
  30
0.0
   3
_NONE
   0
CIRCLE
   5
A9
 100
AcDbEntity
   8
0
 100
AcDbCircle
   6
BYBLOCK
  62
0
  10
0.0
  20
0.0
  30
0.0
  40
 0.25000000000000
   0
ENDBLK
   5
AA
 100
AcDbEntity
   8
0
 100
AcDbBlockEnd
   0
BLOCK
   5
AB
 100
AcDbEntity
   8
0
 100
AcDbBlockBegin
   2
_DOTBLANK
  70
0
  10
0.0
  20
0.0
  30
0.0
   3
_DOTBLANK
   0
CIRCLE
   5
AC
 100
AcDbEntity
   8
0
 100
AcDbCircle
   6
BYBLOCK
  62
0
  10
0.0
  20
0.0
  30
0.0
  40
 0.50000000000000
   0
LINE
   5
AD
 100
AcDbEntity
   8
0
 100
AcDbLine
   6
BYBLOCK
  62
0
  10
-0.50000000000000
  20
0.0
  30
0.0
  11
-1.0000000000000
  21
0.0
  31
0.0
   0
ENDBLK
   5
AE
 100
AcDbEntity
   8
0
 100
AcDbBlockEnd
   0
BLOCK
   5
AF
 100
AcDbEntity
   8
0
 100
AcDbBlockBegin
   2
_INTEGRAL
  70
0
  10
0.0
  20
0.0
  30
0.0
   3
_INTEGRAL
   0
ARC
   5
B0
 100
AcDbEntity
   8
0
   6
BYBLOCK
  62
0
 100
AcDbCircle
  10
 0.44488800000000
  20
-0.91335000000000E-1
  30
0.0
  40
 0.45416700000000
 100
AcDbArc
  50
 102.00000000000
  51
 168.00000000000
   0
ARC
   5
B1
 100
AcDbEntity
   8
0
   6
BYBLOCK
  62
0
 100
AcDbCircle
  10
-0.44488800000000
  20
 0.91335000000000E-1
  30
0.0
  40
 0.45416700000000
 100
AcDbArc
  50
 282.00000000000
  51
 348.00000000000
   0
ENDBLK
   5
B2
 100
AcDbEntity
   8
0
 100
AcDbBlockEnd
   0
BLOCK
   5
B3
 100
AcDbEntity
   8
0
 100
AcDbBlockBegin
   2
*D1
  70
65
  10
0.0
  20
0.0
  30
0.0
   3
*D1
   0
LINE
   5
B4
 100
AcDbEntity
   8
LEVEL001
 100
AcDbLine
   6
CONTINUOUS
  62
3
  10
 721.11997109451
  20
 453.98621479322
  30
0.0
  11
 707.99781878113
  21
 453.98621479322
  31
0.0
   0
LINE
   5
B5
 100
AcDbEntity
   8
LEVEL001
 100
AcDbLine
   6
CONTINUOUS
  62
3
  10
 728.66426102601
  20
 393.98621479322
  30
0.0
  11
 707.99781878113
  21
 393.98621479322
  31
0.0
   0
LINE
   5
B6
 100
AcDbEntity
   8
LEVEL001
 100
AcDbLine
   6
CONTINUOUS
  62
3
  10
 709.99781878113
  20
 453.98621479322
  30
0.0
  11
 709.99781878113
  21
 423.98621479322
  31
0.0
   0
LINE
   5
B7
 100
AcDbEntity
   8
LEVEL001
 100
AcDbLine
   6
CONTINUOUS
  62
3
  10
 709.99781878113
  20
 393.98621479322
  30
0.0
  11
 709.99781878113
  21
 423.98621479322
  31
0.0
   0
INSERT
   5
B8
 100
AcDbEntity
   8
LEVEL001
   6
CONTINUOUS
  62
3
 100
AcDbBlockReference
   2
_OPEN30
  10
 709.99781878113
  20
 453.98621479322
  30
0.0
  41
 6.0000000000000
  42
 6.0000000000000
  43
 6.0000000000000
  50
 90.000000000000
   0
INSERT
   5
B9
 100
AcDbEntity
   8
LEVEL001
   6
CONTINUOUS
  62
3
 100
AcDbBlockReference
   2
_OPEN30
  10
 709.99781878113
  20
 393.98621479322
  30
0.0
  41
 6.0000000000000
  42
 6.0000000000000
  43
 6.0000000000000
  50
 270.00000000000
   0
MTEXT
   5
BA
 100
AcDbEntity
   8
LEVEL001
  62
3
 100
AcDbMText
  10
 706.56924735256
  20
 423.98621479322
  30
0.0
  40
 8.0000000000000
  41
0.0
  71
8
  72
1
   1
\A1;60
   7
GMM001
  11
0.0
  21
 1.0000000000000
  31
0.0
   0
ENDBLK
   5
BB
 100
AcDbEntity
   8
0
 100
AcDbBlockEnd
   0
BLOCK
   5
BC
 100
AcDbEntity
   8
0
 100
AcDbBlockBegin
   2
*D2
  70
65
  10
0.0
  20
0.0
  30
0.0
   3
*D2
   0
LINE
   5
BD
 100
AcDbEntity
   8
LEVEL001
 100
AcDbLine
   6
CONTINUOUS
  62
3
  10
 769.66426102601
  20
 393.98621479322
  30
0.0
  11
 795.65608540846
  21
 393.98621479322
  31
0.0
   0
LINE
   5
BE
 100
AcDbEntity
   8
LEVEL001
 100
AcDbLine
   6
CONTINUOUS
  62
3
  10
 751.16426102601
  20
 471.48621479322
  30
0.0
  11
 795.65608540846
  21
 471.48621479322
  31
0.0
   0
LINE
   5
BF
 100
AcDbEntity
   8
LEVEL001
 100
AcDbLine
   6
CONTINUOUS
  62
3
  10
 793.65608540846
  20
 393.98621479322
  30
0.0
  11
 793.65608540846
  21
 432.73621479322
  31
0.0
   0
LINE
   5
C0
 100
AcDbEntity
   8
LEVEL001
 100
AcDbLine
   6
CONTINUOUS
  62
3
  10
 793.65608540846
  20
 471.48621479322
  30
0.0
  11
 793.65608540846
  21
 432.73621479322
  31
0.0
   0
INSERT
   5
C1
 100
AcDbEntity
   8
LEVEL001
   6
CONTINUOUS
  62
3
 100
AcDbBlockReference
   2
_OPEN30
  10
 793.65608540846
  20
 393.98621479322
  30
0.0
  41
 6.0000000000000
  42
 6.0000000000000
  43
 6.0000000000000
  50
 270.00000000000
   0
INSERT
   5
C2
 100
AcDbEntity
   8
LEVEL001
   6
CONTINUOUS
  62
3
 100
AcDbBlockReference
   2
_OPEN30
  10
 793.65608540846
  20
 471.48621479322
  30
0.0
  41
 6.0000000000000
  42
 6.0000000000000
  43
 6.0000000000000
  50
 90.000000000000
   0
MTEXT
   5
C3
 100
AcDbEntity
   8
LEVEL001
  62
3
 100
AcDbMText
  10
 790.22751397989
  20
 432.73621479322
  30
0.0
  40
 8.0000000000000
  41
0.0
  71
8
  72
1
   1
\A1;77.5
   7
GMM001
  11
0.0
  21
 1.0000000000000
  31
0.0
   0
ENDBLK
   5
C4
 100
AcDbEntity
   8
0
 100
AcDbBlockEnd
   0
BLOCK
   5
C5
 100
AcDbEntity
   8
0
 100
AcDbBlockBegin
   2
*D3
  70
65
  10
0.0
  20
0.0
  30
0.0
   3
*D3
   0
LINE
   5
C6
 100
AcDbEntity
   8
LEVEL001
 100
AcDbLine
   6
CONTINUOUS
  62
3
  10
 645.65533204120
  20
 436.48621479322
  30
0.0
  11
 647.65533204120
  21
 436.48621479322
  31
0.0
   0
LINE
   5
C7
 100
AcDbEntity
   8
LEVEL001
 100
AcDbLine
   6
CONTINUOUS
  62
3
  10
 645.65533204120
  20
 471.48621479322
  30
0.0
  11
 645.65533204120
  21
 453.98621479322
  31
0.0
   0
LINE
   5
C8
 100
AcDbEntity
   8
LEVEL001
 100
AcDbLine
   6
CONTINUOUS
  62
3
  10
 645.65533204120
  20
 436.48621479322
  30
0.0
  11
 645.65533204120
  21
 453.98621479322
  31
0.0
   0
INSERT
   5
C9
 100
AcDbEntity
   8
LEVEL001
   6
CONTINUOUS
  62
3
 100
AcDbBlockReference
   2
_OPEN30
  10
 645.65533204120
  20
 471.48621479322
  30
0.0
  41
 6.0000000000000
  42
 6.0000000000000
  43
 6.0000000000000
  50
 90.000000000000
   0
INSERT
   5
CA
 100
AcDbEntity
   8
LEVEL001
   6
CONTINUOUS
  62
3
 100
AcDbBlockReference
   2
_OPEN30
  10
 645.65533204120
  20
 436.48621479322
  30
0.0
  41
 6.0000000000000
  42
 6.0000000000000
  43
 6.0000000000000
  50
 270.00000000000
   0
MTEXT
   5
CB
 100
AcDbEntity
   8
LEVEL001
  62
3
 100
AcDbMText
  10
 642.22676061263
  20
 453.98621479322
  30
0.0
  40
 8.0000000000000
  41
0.0
  71
8
  72
1
   1
\A1;%%c35
   7
GMM001
  11
0.0
  21
 1.0000000000000
  31
0.0
   0
ENDBLK
   5
CC
 100
AcDbEntity
   8
0
 100
AcDbBlockEnd
   0
BLOCK
   5
CD
 100
AcDbEntity
   8
0
 100
AcDbBlockBegin
   2
*D4
  70
65
  10
0.0
  20
0.0
  30
0.0
   3
*D4
   0
LINE
   5
CE
 100
AcDbEntity
   8
LEVEL001
 100
AcDbLine
   6
CONTINUOUS
  62
3
  10
 623.84837533696
  20
 393.98621479322
  30
0.0
  11
 647.65533204120
  21
 393.98621479322
  31
0.0
   0
LINE
   5
CF
 100
AcDbEntity
   8
LEVEL001
 100
AcDbLine
   6
CONTINUOUS
  62
3
  10
 645.65533204120
  20
 393.98621479322
  30
0.0
  11
 645.65533204120
  21
 415.23621479322
  31
0.0
   0
LINE
   5
D0
 100
AcDbEntity
   8
LEVEL001
 100
AcDbLine
   6
CONTINUOUS
  62
3
  10
 645.65533204120
  20
 436.48621479322
  30
0.0
  11
 645.65533204120
  21
 415.23621479322
  31
0.0
   0
INSERT
   5
D1
 100
AcDbEntity
   8
LEVEL001
   6
CONTINUOUS
  62
3
 100
AcDbBlockReference
   2
_OPEN30
  10
 645.65533204120
  20
 393.98621479322
  30
0.0
  41
 6.0000000000000
  42
 6.0000000000000
  43
 6.0000000000000
  50
 270.00000000000
   0
INSERT
   5
D2
 100
AcDbEntity
   8
LEVEL001
   6
CONTINUOUS
  62
3
 100
AcDbBlockReference
   2
_OPEN30
  10
 645.65533204120
  20
 436.48621479322
  30
0.0
  41
 6.0000000000000
  42
 6.0000000000000
  43
 6.0000000000000
  50
 90.000000000000
   0
MTEXT
   5
D3
 100
AcDbEntity
   8
LEVEL001
  62
3
 100
AcDbMText
  10
 642.22676061263
  20
 415.23621479322
  30
0.0
  40
 8.0000000000000
  41
0.0
  71
8
  72
1
   1
\A1;42.5
   7
GMM001
  11
0.0
  21
 1.0000000000000
  31
0.0
   0
ENDBLK
   5
D4
 100
AcDbEntity
   8
0
 100
AcDbBlockEnd
   0
BLOCK
   5
D5
 100
AcDbEntity
   8
0
 100
AcDbBlockBegin
   2
*D5
  70
65
  10
0.0
  20
0.0
  30
0.0
   3
*D5
   0
LINE
   5
D6
 100
AcDbEntity
   8
LEVEL001
 100
AcDbLine
   6
CONTINUOUS
  62
3
  10
 736.66426102601
  20
 388.47578763125
  30
0.0
  11
 736.66426102601
  21
 362.89489352388
  31
0.0
   0
LINE
   5
D7
 100
AcDbEntity
   8
LEVEL001
 100
AcDbLine
   6
CONTINUOUS
  62
3
  10
 761.66426102601
  20
 388.47578763125
  30
0.0
  11
 761.66426102601
  21
 362.89489352388
  31
0.0
   0
LINE
   5
D8
 100
AcDbEntity
   8
LEVEL001
 100
AcDbLine
   6
CONTINUOUS
  62
3
  10
 736.66426102601
  20
 364.89489352388
  30
0.0
  11
 749.16426102601
  21
 364.89489352388
  31
0.0
   0
LINE
   5
D9
 100
AcDbEntity
   8
LEVEL001
 100
AcDbLine
   6
CONTINUOUS
  62
3
  10
 761.66426102601
  20
 364.89489352388
  30
0.0
  11
 749.16426102601
  21
 364.89489352388
  31
0.0
   0
INSERT
   5
DA
 100
AcDbEntity
   8
LEVEL001
   6
CONTINUOUS
  62
3
 100
AcDbBlockReference
   2
_OPEN30
  10
 736.66426102601
  20
 364.89489352388
  30
0.0
  41
 6.0000000000000
  42
 6.0000000000000
  43
 6.0000000000000
  50
 180.00000000000
   0
INSERT
   5
DB
 100
AcDbEntity
   8
LEVEL001
   6
CONTINUOUS
  62
3
 100
AcDbBlockReference
   2
_OPEN30
  10
 761.66426102601
  20
 364.89489352388
  30
0.0
  41
 6.0000000000000
  42
 6.0000000000000
  43
 6.0000000000000
  50
0.0
   0
MTEXT
   5
DC
 100
AcDbEntity
   8
LEVEL001
  62
3
 100
AcDbMText
  10
 749.16426102601
  20
 368.32346495245
  30
0.0
  40
 8.0000000000000
  41
0.0
  71
8
  72
1
   1
\A1;25
   7
GMM001
   0
ENDBLK
   5
DD
 100
AcDbEntity
   8
0
 100
AcDbBlockEnd
   0
BLOCK
   5
DE
 100
AcDbEntity
   8
0
 100
AcDbBlockBegin
   2
*D6
  70
65
  10
0.0
  20
0.0
  30
0.0
   3
*D6
   0
LINE
   5
DF
 100
AcDbEntity
   8
LEVEL001
 100
AcDbLine
   6
CONTINUOUS
  62
3
  10
 730.66426102601
  20
 391.98621479322
  30
0.0
  11
 730.66426102601
  21
 347.00087557460
  31
0.0
   0
LINE
   5
E0
 100
AcDbEntity
   8
LEVEL001
 100
AcDbLine
   6
CONTINUOUS
  62
3
  10
 767.66426102601
  20
 391.98621479322
  30
0.0
  11
 767.66426102601
  21
 347.00087557460
  31
0.0
   0
LINE
   5
E1
 100
AcDbEntity
   8
LEVEL001
 100
AcDbLine
   6
CONTINUOUS
  62
3
  10
 730.66426102601
  20
 349.00087557460
  30
0.0
  11
 749.16426102601
  21
 349.00087557460
  31
0.0
   0
LINE
   5
E2
 100
AcDbEntity
   8
LEVEL001
 100
AcDbLine
   6
CONTINUOUS
  62
3
  10
 767.66426102601
  20
 349.00087557460
  30
0.0
  11
 749.16426102601
  21
 349.00087557460
  31
0.0
   0
INSERT
   5
E3
 100
AcDbEntity
   8
LEVEL001
   6
CONTINUOUS
  62
3
 100
AcDbBlockReference
   2
_OPEN30
  10
 730.66426102601
  20
 349.00087557460
  30
0.0
  41
 6.0000000000000
  42
 6.0000000000000
  43
 6.0000000000000
  50
 180.00000000000
   0
INSERT
   5
E4
 100
AcDbEntity
   8
LEVEL001
   6
CONTINUOUS
  62
3
 100
AcDbBlockReference
   2
_OPEN30
  10
 767.66426102601
  20
 349.00087557460
  30
0.0
  41
 6.0000000000000
  42
 6.0000000000000
  43
 6.0000000000000
  50
0.0
   0
MTEXT
   5
E5
 100
AcDbEntity
   8
LEVEL001
  62
3
 100
AcDbMText
  10
 749.16426102601
  20
 352.42944700317
  30
0.0
  40
 8.0000000000000
  41
0.0
  71
8
  72
1
   1
\A1;37
   7
GMM001
   0
ENDBLK
   5
E6
 100
AcDbEntity
   8
0
 100
AcDbBlockEnd
   0
BLOCK
   5
E7
 100
AcDbEntity
   8
0
 100
AcDbBlockBegin
   2
*D7
  70
65
  10
0.0
  20
0.0
  30
0.0
   3
*D7
   0
LINE
   5
E8
 100
AcDbEntity
   8
LEVEL001
 100
AcDbLine
   6
CONTINUOUS
  62
3
  10
 82.848375336957
  20
 473.48621479322
  30
0.0
  11
 82.848375336957
  21
 510.30830956856
  31
0.0
   0
LINE
   5
E9
 100
AcDbEntity
   8
LEVEL001
 100
AcDbLine
   6
CONTINUOUS
  62
3
  10
 682.84837533696
  20
 473.48621479322
  30
0.0
  11
 682.84837533696
  21
 510.30830956856
  31
0.0
   0
LINE
   5
EA
 100
AcDbEntity
   8
LEVEL001
 100
AcDbLine
   6
CONTINUOUS
  62
3
  10
 82.848375336957
  20
 508.30830956856
  30
0.0
  11
 382.84837533696
  21
 508.30830956856
  31
0.0
   0
LINE
   5
EB
 100
AcDbEntity
   8
LEVEL001
 100
AcDbLine
   6
CONTINUOUS
  62
3
  10
 682.84837533696
  20
 508.30830956856
  30
0.0
  11
 382.84837533696
  21
 508.30830956856
  31
0.0
   0
INSERT
   5
EC
 100
AcDbEntity
   8
LEVEL001
   6
CONTINUOUS
  62
3
 100
AcDbBlockReference
   2
_OPEN30
  10
 82.848375336957
  20
 508.30830956856
  30
0.0
  41
 6.0000000000000
  42
 6.0000000000000
  43
 6.0000000000000
  50
 180.00000000000
   0
INSERT
   5
ED
 100
AcDbEntity
   8
LEVEL001
   6
CONTINUOUS
  62
3
 100
AcDbBlockReference
   2
_OPEN30
  10
 682.84837533696
  20
 508.30830956856
  30
0.0
  41
 6.0000000000000
  42
 6.0000000000000
  43
 6.0000000000000
  50
0.0
   0
MTEXT
   5
EE
 100
AcDbEntity
   8
LEVEL001
  62
3
 100
AcDbMText
  10
 382.84837533696
  20
 511.73688099713
  30
0.0
  40
 8.0000000000000
  41
0.0
  71
8
  72
1
   1
\A1;400üE600üE800
   7
GMM001
   0
ENDBLK
   5
EF
 100
AcDbEntity
   8
0
 100
AcDbBlockEnd
   0
BLOCK
   5
F0
 100
AcDbEntity
   8
0
 100
AcDbBlockBegin
   2
*D8
  70
65
  10
0.0
  20
0.0
  30
0.0
   3
*D8
   0
LINE
   5
F1
 100
AcDbEntity
   8
LEVEL001
 100
AcDbLine
   6
CONTINUOUS
  62
3
  10
 157.84837533696
  20
 383.71480984063
  30
0.0
  11
 157.84837533696
  21
 362.89489352388
  31
0.0
   0
LINE
   5
F2
 100
AcDbEntity
   8
LEVEL001
 100
AcDbLine
   6
CONTINUOUS
  62
3
  10
 607.84837533696
  20
 383.71480984063
  30
0.0
  11
 607.84837533696
  21
 362.89489352388
  31
0.0
   0
LINE
   5
F3
 100
AcDbEntity
   8
LEVEL001
 100
AcDbLine
   6
CONTINUOUS
  62
3
  10
 157.84837533696
  20
 364.89489352388
  30
0.0
  11
 382.84837533696
  21
 364.89489352388
  31
0.0
   0
LINE
   5
F4
 100
AcDbEntity
   8
LEVEL001
 100
AcDbLine
   6
CONTINUOUS
  62
3
  10
 607.84837533696
  20
 364.89489352388
  30
0.0
  11
 382.84837533696
  21
 364.89489352388
  31
0.0
   0
INSERT
   5
F5
 100
AcDbEntity
   8
LEVEL001
   6
CONTINUOUS
  62
3
 100
AcDbBlockReference
   2
_OPEN30
  10
 157.84837533696
  20
 364.89489352388
  30
0.0
  41
 6.0000000000000
  42
 6.0000000000000
  43
 6.0000000000000
  50
 180.00000000000
   0
INSERT
   5
F6
 100
AcDbEntity
   8
LEVEL001
   6
CONTINUOUS
  62
3
 100
AcDbBlockReference
   2
_OPEN30
  10
 607.84837533696
  20
 364.89489352388
  30
0.0
  41
 6.0000000000000
  42
 6.0000000000000
  43
 6.0000000000000
  50
0.0
   0
MTEXT
   5
F7
 100
AcDbEntity
   8
LEVEL001
  62
3
 100
AcDbMText
  10
 382.84837533696
  20
 368.32346495245
  30
0.0
  40
 8.0000000000000
  41
0.0
  71
8
  72
1
   1
\A1;250üE450üE600
   7
GMM001
   0
ENDBLK
   5
F8
 100
AcDbEntity
   8
0
 100
AcDbBlockEnd
   0
BLOCK
   5
F9
 100
AcDbEntity
   8
0
 100
AcDbBlockBegin
   2
*D9
  70
65
  10
0.0
  20
0.0
  30
0.0
   3
*D9
   0
LINE
   5
FA
 100
AcDbEntity
   8
LEVEL001
 100
AcDbLine
   6
CONTINUOUS
  62
3
  10
 682.84837533696
  20
 434.48621479322
  30
0.0
  11
 682.84837533696
  21
 362.89489352388
  31
0.0
   0
LINE
   5
FB
 100
AcDbEntity
   8
LEVEL001
 100
AcDbLine
   6
CONTINUOUS
  62
3
  10
 607.84837533696
  20
 364.89489352388
  30
0.0
  11
 645.34837533696
  21
 364.89489352388
  31
0.0
   0
LINE
   5
FC
 100
AcDbEntity
   8
LEVEL001
 100
AcDbLine
   6
CONTINUOUS
  62
3
  10
 682.84837533696
  20
 364.89489352388
  30
0.0
  11
 645.34837533696
  21
 364.89489352388
  31
0.0
   0
INSERT
   5
FD
 100
AcDbEntity
   8
LEVEL001
   6
CONTINUOUS
  62
3
 100
AcDbBlockReference
   2
_OPEN30
  10
 607.84837533696
  20
 364.89489352388
  30
0.0
  41
 6.0000000000000
  42
 6.0000000000000
  43
 6.0000000000000
  50
 180.00000000000
   0
INSERT
   5
FE
 100
AcDbEntity
   8
LEVEL001
   6
CONTINUOUS
  62
3
 100
AcDbBlockReference
   2
_OPEN30
  10
 682.84837533696
  20
 364.89489352388
  30
0.0
  41
 6.0000000000000
  42
 6.0000000000000
  43
 6.0000000000000
  50
0.0
   0
MTEXT
   5
FF
 100
AcDbEntity
   8
LEVEL001
  62
3
 100
AcDbMText
  10
 645.34837533696
  20
 368.32346495245
  30
0.0
  40
 8.0000000000000
  41
0.0
  71
8
  72
1
   1
\A1;75
   7
GMM001
   0
ENDBLK
   5
100
 100
AcDbEntity
   8
0
 100
AcDbBlockEnd
   0
BLOCK
   5
101
 100
AcDbEntity
   8
0
 100
AcDbBlockBegin
   2
*D10
  70
65
  10
0.0
  20
0.0
  30
0.0
   3
*D10
   0
LINE
   5
102
 100
AcDbEntity
   8
LEVEL001
 100
AcDbLine
   6
CONTINUOUS
  62
3
  10
 82.848375336957
  20
 434.48621479322
  30
0.0
  11
 82.848375336957
  21
 362.89489352388
  31
0.0
   0
LINE
   5
103
 100
AcDbEntity
   8
LEVEL001
 100
AcDbLine
   6
CONTINUOUS
  62
3
  10
 82.848375336957
  20
 364.89489352388
  30
0.0
  11
 120.34837533696
  21
 364.89489352388
  31
0.0
   0
LINE
   5
104
 100
AcDbEntity
   8
LEVEL001
 100
AcDbLine
   6
CONTINUOUS
  62
3
  10
 157.84837533696
  20
 364.89489352388
  30
0.0
  11
 120.34837533696
  21
 364.89489352388
  31
0.0
   0
INSERT
   5
105
 100
AcDbEntity
   8
LEVEL001
   6
CONTINUOUS
  62
3
 100
AcDbBlockReference
   2
_OPEN30
  10
 82.848375336957
  20
 364.89489352388
  30
0.0
  41
 6.0000000000000
  42
 6.0000000000000
  43
 6.0000000000000
  50
 180.00000000000
   0
INSERT
   5
106
 100
AcDbEntity
   8
LEVEL001
   6
CONTINUOUS
  62
3
 100
AcDbBlockReference
   2
_OPEN30
  10
 157.84837533696
  20
 364.89489352388
  30
0.0
  41
 6.0000000000000
  42
 6.0000000000000
  43
 6.0000000000000
  50
0.0
   0
MTEXT
   5
107
 100
AcDbEntity
   8
LEVEL001
  62
3
 100
AcDbMText
  10
 120.34837533696
  20
 368.32346495245
  30
0.0
  40
 8.0000000000000
  41
0.0
  71
8
  72
1
   1
\A1;75
   7
GMM001
   0
ENDBLK
   5
108
 100
AcDbEntity
   8
0
 100
AcDbBlockEnd
   0
BLOCK
   5
109
 100
AcDbEntity
   8
0
 100
AcDbBlockBegin
   2
*D11
  70
65
  10
0.0
  20
0.0
  30
0.0
   3
*D11
   0
LINE
   5
10A
 100
AcDbEntity
   8
LEVEL001
 100
AcDbLine
   6
CONTINUOUS
  62
3
  10
 593.84837533696
  20
 271.30132259735
  30
0.0
  11
 593.84837533696
  21
 243.16361362144
  31
0.0
   0
LINE
   5
10B
 100
AcDbEntity
   8
LEVEL001
 100
AcDbLine
   6
CONTINUOUS
  62
3
  10
 621.84837533696
  20
 271.30132259735
  30
0.0
  11
 621.84837533696
  21
 243.16361362144
  31
0.0
   0
LINE
   5
10C
 100
AcDbEntity
   8
LEVEL001
 100
AcDbLine
   6
CONTINUOUS
  62
3
  10
 593.84837533696
  20
 245.16361362144
  30
0.0
  11
 607.84837533696
  21
 245.16361362144
  31
0.0
   0
LINE
   5
10D
 100
AcDbEntity
   8
LEVEL001
 100
AcDbLine
   6
CONTINUOUS
  62
3
  10
 621.84837533696
  20
 245.16361362144
  30
0.0
  11
 607.84837533696
  21
 245.16361362144
  31
0.0
   0
INSERT
   5
10E
 100
AcDbEntity
   8
LEVEL001
   6
CONTINUOUS
  62
3
 100
AcDbBlockReference
   2
_OPEN30
  10
 593.84837533696
  20
 245.16361362144
  30
0.0
  41
 6.0000000000000
  42
 6.0000000000000
  43
 6.0000000000000
  50
 180.00000000000
   0
INSERT
   5
10F
 100
AcDbEntity
   8
LEVEL001
   6
CONTINUOUS
  62
3
 100
AcDbBlockReference
   2
_OPEN30
  10
 621.84837533696
  20
 245.16361362144
  30
0.0
  41
 6.0000000000000
  42
 6.0000000000000
  43
 6.0000000000000
  50
0.0
   0
MTEXT
   5
110
 100
AcDbEntity
   8
LEVEL001
  62
3
 100
AcDbMText
  10
 607.84837533696
  20
 248.59218505001
  30
0.0
  40
 8.0000000000000
  41
0.0
  71
8
  72
1
   1
\A1;28
   7
GMM001
   0
ENDBLK
   5
111
 100
AcDbEntity
   8
0
 100
AcDbBlockEnd
   0
BLOCK
   5
112
 100
AcDbEntity
   8
0
 100
AcDbBlockBegin
   2
*D12
  70
65
  10
0.0
  20
0.0
  30
0.0
   3
*D12
   0
LINE
   5
113
 100
AcDbEntity
   8
LEVEL001
 100
AcDbLine
   6
CONTINUOUS
  62
3
  10
 615.34837533696
  20
 310.39446931954
  30
0.0
  11
 615.34837533696
  21
 340.36108696332
  31
0.0
   0
LINE
   5
114
 100
AcDbEntity
   8
LEVEL001
 100
AcDbLine
   6
CONTINUOUS
  62
3
  10
 600.34837533696
  20
 338.36108696332
  30
0.0
  11
 607.84837533696
  21
 338.36108696332
  31
0.0
   0
LINE
   5
115
 100
AcDbEntity
   8
LEVEL001
 100
AcDbLine
   6
CONTINUOUS
  62
3
  10
 615.34837533696
  20
 338.36108696332
  30
0.0
  11
 607.84837533696
  21
 338.36108696332
  31
0.0
   0
INSERT
   5
116
 100
AcDbEntity
   8
LEVEL001
   6
CONTINUOUS
  62
3
 100
AcDbBlockReference
   2
_OPEN30
  10
 600.34837533696
  20
 338.36108696332
  30
0.0
  41
 6.0000000000000
  42
 6.0000000000000
  43
 6.0000000000000
  50
 180.00000000000
   0
INSERT
   5
117
 100
AcDbEntity
   8
LEVEL001
   6
CONTINUOUS
  62
3
 100
AcDbBlockReference
   2
_OPEN30
  10
 615.34837533696
  20
 338.36108696332
  30
0.0
  41
 6.0000000000000
  42
 6.0000000000000
  43
 6.0000000000000
  50
0.0
   0
MTEXT
   5
118
 100
AcDbEntity
   8
LEVEL001
  62
3
 100
AcDbMText
  10
 607.84837533696
  20
 341.78965839189
  30
0.0
  40
 8.0000000000000
  41
0.0
  71
8
  72
1
   1
\A1;15
   7
GMM001
   0
ENDBLK
   5
119
 100
AcDbEntity
   8
0
 100
AcDbBlockEnd
   0
BLOCK
   5
11A
 100
AcDbEntity
   8
0
 100
AcDbBlockBegin
   2
*D13
  70
65
  10
0.0
  20
0.0
  30
0.0
   3
*D13
   0
LINE
   5
11B
 100
AcDbEntity
   8
LEVEL001
 100
AcDbLine
   6
CONTINUOUS
  62
3
  10
 682.84837533696
  20
 311.30132259735
  30
0.0
  11
 682.84837533696
  21
 340.36108696332
  31
0.0
   0
LINE
   5
11C
 100
AcDbEntity
   8
LEVEL001
 100
AcDbLine
   6
CONTINUOUS
  62
3
  10
 615.34837533696
  20
 338.36108696332
  30
0.0
  11
 649.09837533696
  21
 338.36108696332
  31
0.0
   0
LINE
   5
11D
 100
AcDbEntity
   8
LEVEL001
 100
AcDbLine
   6
CONTINUOUS
  62
3
  10
 682.84837533696
  20
 338.36108696332
  30
0.0
  11
 649.09837533696
  21
 338.36108696332
  31
0.0
   0
INSERT
   5
11E
 100
AcDbEntity
   8
LEVEL001
   6
CONTINUOUS
  62
3
 100
AcDbBlockReference
   2
_OPEN30
  10
 615.34837533696
  20
 338.36108696332
  30
0.0
  41
 6.0000000000000
  42
 6.0000000000000
  43
 6.0000000000000
  50
 180.00000000000
   0
INSERT
   5
11F
 100
AcDbEntity
   8
LEVEL001
   6
CONTINUOUS
  62
3
 100
AcDbBlockReference
   2
_OPEN30
  10
 682.84837533696
  20
 338.36108696332
  30
0.0
  41
 6.0000000000000
  42
 6.0000000000000
  43
 6.0000000000000
  50
0.0
   0
MTEXT
   5
120
 100
AcDbEntity
   8
LEVEL001
  62
3
 100
AcDbMText
  10
 649.09837533696
  20
 341.78965839189
  30
0.0
  40
 8.0000000000000
  41
0.0
  71
8
  72
1
   1
\A1;67.5
   7
GMM001
   0
ENDBLK
   5
121
 100
AcDbEntity
   8
0
 100
AcDbBlockEnd
   0
BLOCK
   5
122
 100
AcDbEntity
   8
0
 100
AcDbBlockBegin
   2
*D14
  70
65
  10
0.0
  20
0.0
  30
0.0
   3
*D14
   0
LINE
   5
123
 100
AcDbEntity
   8
LEVEL001
 100
AcDbLine
   6
CONTINUOUS
  62
3
  10
 150.34837533696
  20
 310.39446931954
  30
0.0
  11
 150.34837533696
  21
 340.36108696332
  31
0.0
   0
LINE
   5
124
 100
AcDbEntity
   8
LEVEL001
 100
AcDbLine
   6
CONTINUOUS
  62
3
  10
 150.34837533696
  20
 338.36108696332
  30
0.0
  11
 157.84837533696
  21
 338.36108696332
  31
0.0
   0
LINE
   5
125
 100
AcDbEntity
   8
LEVEL001
 100
AcDbLine
   6
CONTINUOUS
  62
3
  10
 165.34837533696
  20
 338.36108696332
  30
0.0
  11
 157.84837533696
  21
 338.36108696332
  31
0.0
   0
INSERT
   5
126
 100
AcDbEntity
   8
LEVEL001
   6
CONTINUOUS
  62
3
 100
AcDbBlockReference
   2
_OPEN30
  10
 150.34837533696
  20
 338.36108696332
  30
0.0
  41
 6.0000000000000
  42
 6.0000000000000
  43
 6.0000000000000
  50
 180.00000000000
   0
INSERT
   5
127
 100
AcDbEntity
   8
LEVEL001
   6
CONTINUOUS
  62
3
 100
AcDbBlockReference
   2
_OPEN30
  10
 165.34837533696
  20
 338.36108696332
  30
0.0
  41
 6.0000000000000
  42
 6.0000000000000
  43
 6.0000000000000
  50
0.0
   0
MTEXT
   5
128
 100
AcDbEntity
   8
LEVEL001
  62
3
 100
AcDbMText
  10
 157.84837533696
  20
 341.78965839189
  30
0.0
  40
 8.0000000000000
  41
0.0
  71
8
  72
1
   1
\A1;15
   7
GMM001
   0
ENDBLK
   5
129
 100
AcDbEntity
   8
0
 100
AcDbBlockEnd
   0
BLOCK
   5
12A
 100
AcDbEntity
   8
0
 100
AcDbBlockBegin
   2
*D15
  70
65
  10
0.0
  20
0.0
  30
0.0
   3
*D15
   0
LINE
   5
12B
 100
AcDbEntity
   8
LEVEL001
 100
AcDbLine
   6
CONTINUOUS
  62
3
  10
 82.848375336957
  20
 311.30132259735
  30
0.0
  11
 82.848375336957
  21
 340.36108696332
  31
0.0
   0
LINE
   5
12C
 100
AcDbEntity
   8
LEVEL001
 100
AcDbLine
   6
CONTINUOUS
  62
3
  10
 82.848375336957
  20
 338.36108696332
  30
0.0
  11
 116.59837533696
  21
 338.36108696332
  31
0.0
   0
LINE
   5
12D
 100
AcDbEntity
   8
LEVEL001
 100
AcDbLine
   6
CONTINUOUS
  62
3
  10
 150.34837533696
  20
 338.36108696332
  30
0.0
  11
 116.59837533696
  21
 338.36108696332
  31
0.0
   0
INSERT
   5
12E
 100
AcDbEntity
   8
LEVEL001
   6
CONTINUOUS
  62
3
 100
AcDbBlockReference
   2
_OPEN30
  10
 82.848375336957
  20
 338.36108696332
  30
0.0
  41
 6.0000000000000
  42
 6.0000000000000
  43
 6.0000000000000
  50
 180.00000000000
   0
INSERT
   5
12F
 100
AcDbEntity
   8
LEVEL001
   6
CONTINUOUS
  62
3
 100
AcDbBlockReference
   2
_OPEN30
  10
 150.34837533696
  20
 338.36108696332
  30
0.0
  41
 6.0000000000000
  42
 6.0000000000000
  43
 6.0000000000000
  50
0.0
   0
MTEXT
   5
130
 100
AcDbEntity
   8
LEVEL001
  62
3
 100
AcDbMText
  10
 116.59837533696
  20
 341.78965839189
  30
0.0
  40
 8.0000000000000
  41
0.0
  71
8
  72
1
   1
\A1;67.5
   7
GMM001
   0
ENDBLK
   5
131
 100
AcDbEntity
   8
0
 100
AcDbBlockEnd
   0
BLOCK
   5
132
 100
AcDbEntity
   8
0
 100
AcDbBlockBegin
   2
*D16
  70
65
  10
0.0
  20
0.0
  30
0.0
   3
*D16
   0
LINE
   5
133
 100
AcDbEntity
   8
LEVEL001
 100
AcDbLine
   6
CONTINUOUS
  62
3
  10
 165.34837533696
  20
 310.39446931954
  30
0.0
  11
 165.34837533696
  21
 340.36108696332
  31
0.0
   0
LINE
   5
134
 100
AcDbEntity
   8
LEVEL001
 100
AcDbLine
   6
CONTINUOUS
  62
3
  10
 600.34837533696
  20
 310.39446931954
  30
0.0
  11
 600.34837533696
  21
 340.36108696332
  31
0.0
   0
LINE
   5
135
 100
AcDbEntity
   8
LEVEL001
 100
AcDbLine
   6
CONTINUOUS
  62
3
  10
 165.34837533696
  20
 338.36108696332
  30
0.0
  11
 382.84837533696
  21
 338.36108696332
  31
0.0
   0
LINE
   5
136
 100
AcDbEntity
   8
LEVEL001
 100
AcDbLine
   6
CONTINUOUS
  62
3
  10
 600.34837533696
  20
 338.36108696332
  30
0.0
  11
 382.84837533696
  21
 338.36108696332
  31
0.0
   0
INSERT
   5
137
 100
AcDbEntity
   8
LEVEL001
   6
CONTINUOUS
  62
3
 100
AcDbBlockReference
   2
_OPEN30
  10
 165.34837533696
  20
 338.36108696332
  30
0.0
  41
 6.0000000000000
  42
 6.0000000000000
  43
 6.0000000000000
  50
 180.00000000000
   0
INSERT
   5
138
 100
AcDbEntity
   8
LEVEL001
   6
CONTINUOUS
  62
3
 100
AcDbBlockReference
   2
_OPEN30
  10
 600.34837533696
  20
 338.36108696332
  30
0.0
  41
 6.0000000000000
  42
 6.0000000000000
  43
 6.0000000000000
  50
0.0
   0
MTEXT
   5
139
 100
AcDbEntity
   8
LEVEL001
  62
3
 100
AcDbMText
  10
 382.84837533696
  20
 341.78965839189
  30
0.0
  40
 8.0000000000000
  41
0.0
  71
8
  72
1
   1
\A1;235üE435üE585
   7
GMM001
   0
ENDBLK
   5
13A
 100
AcDbEntity
   8
0
 100
AcDbBlockEnd
   0
ENDSEC
   0
SECTION
   2
ENTITIES
   0
LINE
   5
13B
 100
AcDbEntity
   8
LEVEL001
 100
AcDbLine
   6
DASHDOT
  62
3
  10
 382.84837533696
  20
 486.45605227630
  30
0.0
  11
 382.84837533696
  21
 417.40257093529
  31
0.0
   0
LINE
   5
13C
 100
AcDbEntity
   8
LEVEL001
 100
AcDbLine
   6
CONTINUOUS
  62
7
  10
 82.848375336957
  20
 471.48621479322
  30
0.0
  11
 82.848375336957
  21
 436.48621479322
  31
0.0
   0
LINE
   5
13D
 100
AcDbEntity
   8
LEVEL001
 100
AcDbLine
   6
CONTINUOUS
  62
7
  10
 682.84837533696
  20
 471.48621479322
  30
0.0
  11
 682.84837533696
  21
 436.48621479322
  31
0.0
   0
ELLIPSE
   5
13E
 100
AcDbEntity
   8
LEVEL001
   6
CONTINUOUS
  62
7
 100
AcDbEllipse
  10
 617.34837533696
  20
 435.57611772417
  30
0.0
  11
-3.6000000000000
  21
0.0
  31
0.0
  40
 0.38888888888889
  41
0.0
  42
 6.2831853071796
   0
LINE
   5
13F
 100
AcDbEntity
   8
LEVEL001
 100
AcDbLine
   6
CONTINUOUS
  62
7
  10
 621.84837533696
  20
 393.98621479322
  30
0.0
  11
 621.84837533696
  21
 435.29800832350
  31
0.0
   0
LINE
   5
140
 100
AcDbEntity
   8
LEVEL001
 100
AcDbLine
   6
CONTINUOUS
  62
7
  10
 593.84837533696
  20
 393.98621479322
  30
0.0
  11
 607.84837533696
  21
 393.98621479322
  31
0.0
   0
LINE
   5
141
 100
AcDbEntity
   8
LEVEL001
 100
AcDbLine
   6
CONTINUOUS
  62
7
  10
 621.84837533696
  20
 393.98621479322
  30
0.0
  11
 607.84837533696
  21
 393.98621479322
  31
0.0
   0
LINE
   5
142
 100
AcDbEntity
   8
LEVEL001
 100
AcDbLine
   6
CONTINUOUS
  62
7
  10
 593.84837533696
  20
 393.98621479322
  30
0.0
  11
 593.84837533696
  21
 395.48621479322
  31
0.0
   0
LINE
   5
143
 100
AcDbEntity
   8
LEVEL001
 100
AcDbLine
   6
CONTINUOUS
  62
7
  10
 595.14837533696
  20
 395.48621479322
  30
0.0
  11
 595.34837533696
  21
 395.48621479322
  31
0.0
   0
LINE
   5
144
 100
AcDbEntity
   8
LEVEL001
 100
AcDbLine
   6
CONTINUOUS
  62
7
  10
 595.34837533696
  20
 395.58621479322
  30
0.0
  11
 595.34837533696
  21
 395.48621479322
  31
0.0
   0
LINE
   5
145
 100
AcDbEntity
   8
LEVEL001
 100
AcDbLine
   6
CONTINUOUS
  62
7
  10
 620.34837533696
  20
 395.48621479322
  30
0.0
  11
 621.84837533696
  21
 395.48621479322
  31
0.0
   0
LINE
   5
146
 100
AcDbEntity
   8
LEVEL001
 100
AcDbLine
   6
CONTINUOUS
  62
7
  10
 620.34837533696
  20
 395.48621479322
  30
0.0
  11
 620.34837533696
  21
 395.58621479322
  31
0.0
   0
LINE
   5
147
 100
AcDbEntity
   8
LEVEL001
 100
AcDbLine
   6
DOT
  62
7
  10
 595.34837533696
  20
 395.48621479322
  30
0.0
  11
 595.64837533696
  21
 395.48621479322
  31
0.0
   0
LINE
   5
148
 100
AcDbEntity
   8
LEVEL001
 100
AcDbLine
   6
DOT
  62
7
  10
 620.34837533696
  20
 395.48621479322
  30
0.0
  11
 620.04837533696
  21
 395.48621479322
  31
0.0
   0
LINE
   5
149
 100
AcDbEntity
   8
LEVEL001
 100
AcDbLine
   6
CONTINUOUS
  62
7
  10
 593.84837533696
  20
 403.53083053519
  30
0.0
  11
 595.34837533696
  21
 403.53083053519
  31
0.0
   0
LINE
   5
14A
 100
AcDbEntity
   8
LEVEL001
 100
AcDbLine
   6
CONTINUOUS
  62
7
  10
 595.34837533696
  20
 403.03083053519
  30
0.0
  11
 595.34837533696
  21
 403.53083053519
  31
0.0
   0
LINE
   5
14B
 100
AcDbEntity
   8
LEVEL001
 100
AcDbLine
   6
CONTINUOUS
  62
7
  10
 593.84837533696
  20
 403.53083053519
  30
0.0
  11
 593.84837533696
  21
 435.29800832350
  31
0.0
   0
LINE
   5
14C
 100
AcDbEntity
   8
LEVEL001
 100
AcDbLine
   6
CONTINUOUS
  62
7
  10
 593.84837533696
  20
 435.29800832350
  30
0.0
  11
 593.84837533696
  21
 439.64065604086
  31
0.0
   0
ARC
   5
14D
 100
AcDbEntity
   8
LEVEL001
   6
CONTINUOUS
  62
7
 100
AcDbCircle
  10
 594.34837533697
  20
 439.64065604086
  30
0.0
  40
 0.50000000000000
 100
AcDbArc
  50
 90.000000001641
  51
 180.00000000000
   0
POINT
   5
14E
 100
AcDbEntity
   8
LEVEL001
 100
AcDbPoint
  62
7
  10
 593.84837533696
  20
 440.14065604086
  30
0.0
   0
LINE
   5
14F
 100
AcDbEntity
   8
LEVEL001
 100
AcDbLine
   6
CONTINUOUS
  62
7
  10
 594.34837533696
  20
 440.14065604086
  30
0.0
  11
 607.84837533696
  21
 440.14065604086
  31
0.0
   0
LINE
   5
150
 100
AcDbEntity
   8
LEVEL001
 100
AcDbLine
   6
CONTINUOUS
  62
7
  10
 607.84837533696
  20
 440.14065604086
  30
0.0
  11
 621.34837533696
  21
 440.14065604086
  31
0.0
   0
ARC
   5
151
 100
AcDbEntity
   8
LEVEL001
   6
CONTINUOUS
  62
7
 100
AcDbCircle
  10
 621.34837533696
  20
 439.64065604086
  30
0.0
  40
 0.50000000000000
 100
AcDbArc
  50
 0.24752348753022E-9
  51
 90.000000000000
   0
POINT
   5
152
 100
AcDbEntity
   8
LEVEL001
 100
AcDbPoint
  62
7
  10
 621.84837533696
  20
 440.14065604086
  30
0.0
   0
LINE
   5
153
 100
AcDbEntity
   8
LEVEL001
 100
AcDbLine
   6
CONTINUOUS
  62
7
  10
 621.84837533696
  20
 435.29800832350
  30
0.0
  11
 621.84837533696
  21
 439.64065604086
  31
0.0
   0
ARC
   5
154
 100
AcDbEntity
   8
LEVEL001
   6
CONTINUOUS
  62
7
 100
AcDbCircle
  10
 594.34837533697
  20
 437.78344907866
  30
0.0
  40
 0.50000000000000
 100
AcDbArc
  50
 180.00000000000
  51
 269.99999999818
   0
ARC
   5
155
 100
AcDbEntity
   8
LEVEL001
   6
CONTINUOUS
  62
7
 100
AcDbCircle
  10
 594.38837533694
  20
 434.58181323023
  30
0.0
  40
 0.54000000000000
 100
AcDbArc
  50
 180.00000000000
  51
 270.00000000177
   0
ARC
   5
156
 100
AcDbEntity
   8
LEVEL001
   6
CONTINUOUS
  62
7
 100
AcDbCircle
  10
 621.34837533696
  20
 437.78344907866
  30
0.0
  40
 0.50000000000000
 100
AcDbArc
  50
 269.99999999995
  51
0.0
   0
ARC
   5
157
 100
AcDbEntity
   8
LEVEL001
   6
CONTINUOUS
  62
7
 100
AcDbCircle
  10
 621.30837533696
  20
 434.58181323023
  30
0.0
  40
 0.54000000000000
 100
AcDbArc
  50
 269.99999999928
  51
0.0
   0
LINE
   5
158
 100
AcDbEntity
   8
LEVEL001
 100
AcDbLine
   6
CONTINUOUS
  62
7
  10
 594.34837533696
  20
 437.28344907866
  30
0.0
  11
 621.34837533696
  21
 437.28344907866
  31
0.0
   0
LINE
   5
159
 100
AcDbEntity
   8
LEVEL001
 100
AcDbLine
   6
CONTINUOUS
  62
7
  10
 594.38837533696
  20
 434.04181323023
  30
0.0
  11
 621.30837533696
  21
 434.04181323023
  31
0.0
   0
LINE
   5
15A
 100
AcDbEntity
   8
LEVEL001
 100
AcDbLine
   6
CONTINUOUS
  62
7
  10
 593.84837533696
  20
 395.48621479322
  30
0.0
  11
 620.34837533696
  21
 395.48621479322
  31
0.0
   0
LINE
   5
15B
 100
AcDbEntity
   8
LEVEL001
 100
AcDbLine
   6
DASHDOT
  62
3
  10
 598.34837533696
  20
 441.11146538414
  30
0.0
  11
 598.34837533696
  21
 430.99685205300
  31
0.0
   0
LINE
   5
15C
 100
AcDbEntity
   8
LEVEL001
 100
AcDbLine
   6
DASHDOT
  62
3
  10
 617.34837533696
  20
 441.11146538414
  30
0.0
  11
 617.34837533696
  21
 430.99685205300
  31
0.0
   0
LINE
   5
15D
 100
AcDbEntity
   8
LEVEL001
 100
AcDbLine
   6
DASHDOT
  62
3
  10
 607.84837533696
  20
 451.99872278919
  30
0.0
  11
 607.84837533696
  21
 385.71480984063
  31
0.0
   0
LINE
   5
15E
 100
AcDbEntity
   8
LEVEL001
 100
AcDbLine
   6
CONTINUOUS
  62
15
  10
 593.84837533696
  20
 395.58621479322
  30
0.0
  11
 621.84837533696
  21
 395.58621479322
  31
0.0
   0
ARC
   5
15F
 100
AcDbEntity
   8
LEVEL001
   6
CONTINUOUS
  62
7
 100
AcDbCircle
  10
 594.04837533696
  20
 402.83083053514
  30
0.0
  40
 0.20000000000000
 100
AcDbArc
  50
 90.000000000000
  51
 179.99999998484
   0
POINT
   5
160
 100
AcDbEntity
   8
LEVEL001
 100
AcDbPoint
  62
7
  10
 593.84837533696
  20
 403.03083053519
  30
0.0
   0
LINE
   5
161
 100
AcDbEntity
   8
LEVEL001
 100
AcDbLine
   6
CONTINUOUS
  62
7
  10
 593.84837533696
  20
 402.83083053519
  30
0.0
  11
 593.84837533696
  21
 395.48621479322
  31
0.0
   0
LINE
   5
162
 100
AcDbEntity
   8
LEVEL001
 100
AcDbLine
   6
CONTINUOUS
  62
7
  10
 593.84837533696
  20
 401.78621479322
  30
0.0
  11
 621.84837533696
  21
 401.78621479322
  31
0.0
   0
LINE
   5
163
 100
AcDbEntity
   8
LEVEL001
 100
AcDbLine
   6
CONTINUOUS
  62
7
  10
 594.04837533696
  20
 403.03083053519
  30
0.0
  11
 621.84837533696
  21
 403.03083053519
  31
0.0
   0
ELLIPSE
   5
164
 100
AcDbEntity
   8
LEVEL001
   6
CONTINUOUS
  62
7
 100
AcDbEllipse
  10
 167.34837533696
  20
 435.57611772417
  30
0.0
  11
-3.6000000000000
  21
0.0
  31
0.0
  40
 0.38888888888889
  41
0.0
  42
 6.2831853071796
   0
LINE
   5
165
 100
AcDbEntity
   8
LEVEL001
 100
AcDbLine
   6
CONTINUOUS
  62
7
  10
 171.84837533696
  20
 393.98621479322
  30
0.0
  11
 171.84837533696
  21
 435.29800832350
  31
0.0
   0
LINE
   5
166
 100
AcDbEntity
   8
LEVEL001
 100
AcDbLine
   6
CONTINUOUS
  62
7
  10
 143.84837533696
  20
 393.98621479322
  30
0.0
  11
 157.84837533696
  21
 393.98621479322
  31
0.0
   0
LINE
   5
167
 100
AcDbEntity
   8
LEVEL001
 100
AcDbLine
   6
CONTINUOUS
  62
7
  10
 171.84837533696
  20
 393.98621479322
  30
0.0
  11
 157.84837533696
  21
 393.98621479322
  31
0.0
   0
LINE
   5
168
 100
AcDbEntity
   8
LEVEL001
 100
AcDbLine
   6
CONTINUOUS
  62
7
  10
 143.84837533696
  20
 393.98621479322
  30
0.0
  11
 143.84837533696
  21
 395.48621479322
  31
0.0
   0
LINE
   5
169
 100
AcDbEntity
   8
LEVEL001
 100
AcDbLine
   6
CONTINUOUS
  62
7
  10
 145.14837533696
  20
 395.48621479322
  30
0.0
  11
 145.34837533696
  21
 395.48621479322
  31
0.0
   0
LINE
   5
16A
 100
AcDbEntity
   8
LEVEL001
 100
AcDbLine
   6
CONTINUOUS
  62
7
  10
 145.34837533696
  20
 395.58621479322
  30
0.0
  11
 145.34837533696
  21
 395.48621479322
  31
0.0
   0
LINE
   5
16B
 100
AcDbEntity
   8
LEVEL001
 100
AcDbLine
   6
CONTINUOUS
  62
7
  10
 170.34837533696
  20
 395.48621479322
  30
0.0
  11
 171.84837533696
  21
 395.48621479322
  31
0.0
   0
LINE
   5
16C
 100
AcDbEntity
   8
LEVEL001
 100
AcDbLine
   6
CONTINUOUS
  62
7
  10
 170.34837533696
  20
 395.48621479322
  30
0.0
  11
 170.34837533696
  21
 395.58621479322
  31
0.0
   0
LINE
   5
16D
 100
AcDbEntity
   8
LEVEL001
 100
AcDbLine
   6
DOT
  62
7
  10
 145.34837533696
  20
 395.48621479322
  30
0.0
  11
 145.64837533696
  21
 395.48621479322
  31
0.0
   0
LINE
   5
16E
 100
AcDbEntity
   8
LEVEL001
 100
AcDbLine
   6
DOT
  62
7
  10
 170.34837533696
  20
 395.48621479322
  30
0.0
  11
 170.04837533696
  21
 395.48621479322
  31
0.0
   0
LINE
   5
16F
 100
AcDbEntity
   8
LEVEL001
 100
AcDbLine
   6
CONTINUOUS
  62
7
  10
 143.84837533696
  20
 403.53083053519
  30
0.0
  11
 145.34837533696
  21
 403.53083053519
  31
0.0
   0
LINE
   5
170
 100
AcDbEntity
   8
LEVEL001
 100
AcDbLine
   6
CONTINUOUS
  62
7
  10
 145.34837533696
  20
 403.03083053519
  30
0.0
  11
 145.34837533696
  21
 403.53083053519
  31
0.0
   0
LINE
   5
171
 100
AcDbEntity
   8
LEVEL001
 100
AcDbLine
   6
CONTINUOUS
  62
7
  10
 143.84837533696
  20
 403.53083053519
  30
0.0
  11
 143.84837533696
  21
 435.29800832350
  31
0.0
   0
LINE
   5
172
 100
AcDbEntity
   8
LEVEL001
 100
AcDbLine
   6
CONTINUOUS
  62
7
  10
 143.84837533696
  20
 435.29800832350
  30
0.0
  11
 143.84837533696
  21
 439.64065604086
  31
0.0
   0
ARC
   5
173
 100
AcDbEntity
   8
LEVEL001
   6
CONTINUOUS
  62
7
 100
AcDbCircle
  10
 144.34837533697
  20
 439.64065604086
  30
0.0
  40
 0.50000000000000
 100
AcDbArc
  50
 90.000000001641
  51
 180.00000000000
   0
POINT
   5
174
 100
AcDbEntity
   8
LEVEL001
 100
AcDbPoint
  62
7
  10
 143.84837533696
  20
 440.14065604086
  30
0.0
   0
LINE
   5
175
 100
AcDbEntity
   8
LEVEL001
 100
AcDbLine
   6
CONTINUOUS
  62
7
  10
 144.34837533696
  20
 440.14065604086
  30
0.0
  11
 157.84837533696
  21
 440.14065604086
  31
0.0
   0
LINE
   5
176
 100
AcDbEntity
   8
LEVEL001
 100
AcDbLine
   6
CONTINUOUS
  62
7
  10
 157.84837533696
  20
 440.14065604086
  30
0.0
  11
 171.34837533696
  21
 440.14065604086
  31
0.0
   0
ARC
   5
177
 100
AcDbEntity
   8
LEVEL001
   6
CONTINUOUS
  62
7
 100
AcDbCircle
  10
 171.34837533696
  20
 439.64065604086
  30
0.0
  40
 0.50000000000000
 100
AcDbArc
  50
 0.24752348753022E-9
  51
 90.000000000000
   0
POINT
   5
178
 100
AcDbEntity
   8
LEVEL001
 100
AcDbPoint
  62
7
  10
 171.84837533696
  20
 440.14065604086
  30
0.0
   0
LINE
   5
179
 100
AcDbEntity
   8
LEVEL001
 100
AcDbLine
   6
CONTINUOUS
  62
7
  10
 171.84837533696
  20
 435.29800832350
  30
0.0
  11
 171.84837533696
  21
 439.64065604086
  31
0.0
   0
ARC
   5
17A
 100
AcDbEntity
   8
LEVEL001
   6
CONTINUOUS
  62
7
 100
AcDbCircle
  10
 144.34837533697
  20
 437.78344907866
  30
0.0
  40
 0.50000000000000
 100
AcDbArc
  50
 180.00000000000
  51
 269.99999999817
   0
ARC
   5
17B
 100
AcDbEntity
   8
LEVEL001
   6
CONTINUOUS
  62
7
 100
AcDbCircle
  10
 144.38837533697
  20
 434.58181323023
  30
0.0
  40
 0.54000000000000
 100
AcDbArc
  50
 180.00000000001
  51
 269.99999999918
   0
ARC
   5
17C
 100
AcDbEntity
   8
LEVEL001
   6
CONTINUOUS
  62
7
 100
AcDbCircle
  10
 171.34837533696
  20
 437.78344907866
  30
0.0
  40
 0.50000000000000
 100
AcDbArc
  50
 269.99999999993
  51
0.0
   0
ARC
   5
17D
 100
AcDbEntity
   8
LEVEL001
   6
CONTINUOUS
  62
7
 100
AcDbCircle
  10
 171.30837533696
  20
 434.58181323023
  30
0.0
  40
 0.54000000000000
 100
AcDbArc
  50
 269.99999999964
  51
0.0
   0
LINE
   5
17E
 100
AcDbEntity
   8
LEVEL001
 100
AcDbLine
   6
CONTINUOUS
  62
7
  10
 144.34837533696
  20
 437.28344907866
  30
0.0
  11
 171.34837533696
  21
 437.28344907866
  31
0.0
   0
LINE
   5
17F
 100
AcDbEntity
   8
LEVEL001
 100
AcDbLine
   6
CONTINUOUS
  62
7
  10
 144.38837533696
  20
 434.04181323023
  30
0.0
  11
 171.30837533696
  21
 434.04181323023
  31
0.0
   0
LINE
   5
180
 100
AcDbEntity
   8
LEVEL001
 100
AcDbLine
   6
CONTINUOUS
  62
7
  10
 143.84837533696
  20
 395.48621479322
  30
0.0
  11
 170.34837533696
  21
 395.48621479322
  31
0.0
   0
LINE
   5
181
 100
AcDbEntity
   8
LEVEL001
 100
AcDbLine
   6
DASHDOT
  62
3
  10
 148.34837533696
  20
 441.11146538414
  30
0.0
  11
 148.34837533696
  21
 430.99685205300
  31
0.0
   0
LINE
   5
182
 100
AcDbEntity
   8
LEVEL001
 100
AcDbLine
   6
DASHDOT
  62
3
  10
 167.34837533696
  20
 441.11146538414
  30
0.0
  11
 167.34837533696
  21
 430.99685205300
  31
0.0
   0
LINE
   5
183
 100
AcDbEntity
   8
LEVEL001
 100
AcDbLine
   6
DASHDOT
  62
3
  10
 157.84837533696
  20
 451.99872278919
  30
0.0
  11
 157.84837533696
  21
 385.71480984063
  31
0.0
   0
LINE
   5
184
 100
AcDbEntity
   8
LEVEL001
 100
AcDbLine
   6
CONTINUOUS
  62
15
  10
 143.84837533696
  20
 395.58621479322
  30
0.0
  11
 171.84837533696
  21
 395.58621479322
  31
0.0
   0
ARC
   5
185
 100
AcDbEntity
   8
LEVEL001
   6
CONTINUOUS
  62
7
 100
AcDbCircle
  10
 144.04837533696
  20
 402.83083053516
  30
0.0
  40
 0.20000000000000
 100
AcDbArc
  50
 89.999999999992
  51
 179.99999999331
   0
POINT
   5
186
 100
AcDbEntity
   8
LEVEL001
 100
AcDbPoint
  62
7
  10
 143.84837533696
  20
 403.03083053519
  30
0.0
   0
LINE
   5
187
 100
AcDbEntity
   8
LEVEL001
 100
AcDbLine
   6
CONTINUOUS
  62
7
  10
 143.84837533696
  20
 402.83083053519
  30
0.0
  11
 143.84837533696
  21
 395.48621479322
  31
0.0
   0
LINE
   5
188
 100
AcDbEntity
   8
LEVEL001
 100
AcDbLine
   6
CONTINUOUS
  62
7
  10
 143.84837533696
  20
 401.78621479322
  30
0.0
  11
 171.84837533696
  21
 401.78621479322
  31
0.0
   0
LINE
   5
189
 100
AcDbEntity
   8
LEVEL001
 100
AcDbLine
   6
CONTINUOUS
  62
7
  10
 144.04837533696
  20
 403.03083053519
  30
0.0
  11
 171.84837533696
  21
 403.03083053519
  31
0.0
   0
LINE
   5
18A
 100
AcDbEntity
   8
LEVEL001
 100
AcDbLine
   6
DIVIDE
  62
3
  10
 589.79457326278
  20
 436.48621479322
  30
0.0
  11
 593.84837533696
  21
 436.48621479322
  31
0.0
   0
LINE
   5
18B
 100
AcDbEntity
   8
LEVEL001
 100
AcDbLine
   6
CONTINUOUS
  62
7
  10
 621.84837533696
  20
 436.48621479322
  30
0.0
  11
 682.84837533696
  21
 436.48621479322
  31
0.0
   0
LINE
   5
18C
 100
AcDbEntity
   8
LEVEL001
 100
AcDbLine
   6
DIVIDE
  62
3
  10
 594.21369297624
  20
 436.48621479322
  30
0.0
  11
 621.45702738900
  21
 436.48621479322
  31
0.0
   0
ELLIPSE
   5
18D
 100
AcDbEntity
   8
LEVEL001
   6
CONTINUOUS
  62
7
 100
AcDbEllipse
  10
 391.17998331453
  20
 462.73621479322
  30
0.0
  11
0.0
  21
-8.7500000000000
  31
0.0
  40
 0.62667612265204
  41
0.0
  42
 6.2831853071796
   0
ELLIPSE
   5
18E
 100
AcDbEntity
   8
LEVEL001
   6
CONTINUOUS
  62
7
 100
AcDbEllipse
  10
 391.17998331453
  20
 445.23621479322
  30
0.0
  11
0.0
  21
-8.7500000000000
  31
0.0
  40
 0.62667612265204
  41
 3.1415926535898
  42
0.0
   0
ELLIPSE
   5
18F
 100
AcDbEntity
   8
LEVEL001
   6
CONTINUOUS
  62
7
 100
AcDbEllipse
  10
 374.51676735939
  20
 462.73621479322
  30
0.0
  11
0.0
  21
 8.7500000000000
  31
0.0
  40
 0.62667612265204
  41
 3.1415926535898
  42
 0.22204460492503E-15
   0
ELLIPSE
   5
190
 100
AcDbEntity
   8
LEVEL001
   6
CONTINUOUS
  62
7
 100
AcDbEllipse
  10
 374.51676735939
  20
 445.23621479322
  30
0.0
  11
0.0
  21
 8.7500000000000
  31
0.0
  40
 0.62667612265204
  41
0.0
  42
 6.2831853071796
   0
LINE
   5
191
 100
AcDbEntity
   8
LEVEL001
 100
AcDbLine
   6
CONTINUOUS
  62
7
  10
 82.848375336957
  20
 471.48621479322
  30
0.0
  11
 374.51676735939
  21
 471.48621479322
  31
0.0
   0
LINE
   5
192
 100
AcDbEntity
   8
LEVEL001
 100
AcDbLine
   6
CONTINUOUS
  62
7
  10
 391.17998331453
  20
 471.48621479322
  30
0.0
  11
 682.84837533696
  21
 471.48621479322
  31
0.0
   0
LINE
   5
193
 100
AcDbEntity
   8
LEVEL001
 100
AcDbLine
   6
CONTINUOUS
  62
7
  10
 391.17998331453
  20
 436.48621479322
  30
0.0
  11
 593.84837533696
  21
 436.48621479322
  31
0.0
   0
CIRCLE
   5
194
 100
AcDbEntity
   8
LEVEL001
 100
AcDbCircle
   6
CONTINUOUS
  62
7
  10
 749.16426102601
  20
 453.98621479322
  30
0.0
  40
 17.500000000000
   0
LINE
   5
195
 100
AcDbEntity
   8
LEVEL001
 100
AcDbLine
   6
DASHDOT
  62
3
  10
 775.20855095752
  20
 453.98621479322
  30
0.0
  11
 723.11997109451
  21
 453.98621479322
  31
0.0
   0
LINE
   5
196
 100
AcDbEntity
   8
LEVEL001
 100
AcDbLine
   6
CONTINUOUS
  62
7
  10
 737.66426102601
  20
 437.88497260511
  30
0.0
  11
 737.66426102601
  21
 439.73840794444
  31
0.0
   0
ARC
   5
197
 100
AcDbEntity
   8
LEVEL001
   6
CONTINUOUS
  62
7
 100
AcDbCircle
  10
 738.16426102610
  20
 439.73840794438
  30
0.0
  40
 0.50000000000000
 100
AcDbArc
  50
 52.330113047868
  51
 179.99999999255
   0
LINE
   5
198
 100
AcDbEntity
   8
LEVEL001
 100
AcDbLine
   6
CONTINUOUS
  62
7
  10
 749.16426102601
  20
 393.98621479322
  30
0.0
  11
 730.66426102601
  21
 393.98621479322
  31
0.0
   0
ARC
   5
199
 100
AcDbEntity
   8
LEVEL001
   6
CONTINUOUS
  62
7
 100
AcDbCircle
  10
 744.16426102600
  20
 432.56192950759
  30
0.0
  40
 2.0000000000000
 100
AcDbArc
  50
0.0
  51
 76.863441212760
   0
LINE
   5
19A
 100
AcDbEntity
   8
LEVEL001
 100
AcDbLine
   6
CONTINUOUS
  62
7
  10
 731.66426102601
  20
 395.48621479322
  30
0.0
  11
 767.66426102601
  21
 395.48621479322
  31
0.0
   0
LINE
   5
19B
 100
AcDbEntity
   8
LEVEL001
 100
AcDbLine
   6
CONTINUOUS
  62
7
  10
 767.66426102601
  20
 393.98621479322
  30
0.0
  11
 767.66426102601
  21
 395.58621479322
  31
0.0
   0
LINE
   5
19C
 100
AcDbEntity
   8
LEVEL001
 100
AcDbLine
   6
CONTINUOUS
  62
7
  10
 761.16426102601
  20
 395.48621479322
  30
0.0
  11
 761.16426102601
  21
 395.58621479322
  31
0.0
   0
LINE
   5
19D
 100
AcDbEntity
   8
LEVEL001
 100
AcDbLine
   6
CONTINUOUS
  62
7
  10
 762.16426102601
  20
 395.48621479322
  30
0.0
  11
 762.16426102601
  21
 395.58621479322
  31
0.0
   0
LINE
   5
19E
 100
AcDbEntity
   8
LEVEL001
 100
AcDbLine
   6
CONTINUOUS
  62
7
  10
 736.16426102601
  20
 395.48621479322
  30
0.0
  11
 736.16426102601
  21
 395.58621479322
  31
0.0
   0
LINE
   5
19F
 100
AcDbEntity
   8
LEVEL001
 100
AcDbLine
   6
CONTINUOUS
  62
7
  10
 737.16426102601
  20
 395.48621479322
  30
0.0
  11
 737.16426102601
  21
 395.58621479322
  31
0.0
   0
LINE
   5
1A0
 100
AcDbEntity
   8
LEVEL001
 100
AcDbLine
   6
CONTINUOUS
  62
7
  10
 767.66426102601
  20
 393.98621479322
  30
0.0
  11
 749.16426102601
  21
 393.98621479322
  31
0.0
   0
LINE
   5
1A1
 100
AcDbEntity
   8
LEVEL001
 100
AcDbLine
   6
DOT
  62
6
  10
 745.96426102601
  20
 400.78621479322
  30
0.0
  11
 745.96426102601
  21
 400.98621479322
  31
0.0
   0
LINE
   5
1A2
 100
AcDbEntity
   8
LEVEL001
 100
AcDbLine
   6
CONTINUOUS
  62
7
  10
 752.16426102601
  20
 401.48621479322
  30
0.0
  11
 752.16426102601
  21
 432.56192950759
  31
0.0
   0
LINE
   5
1A3
 100
AcDbEntity
   8
LEVEL001
 100
AcDbLine
   6
CONTINUOUS
  62
7
  10
 746.16426102601
  20
 401.48621479322
  30
0.0
  11
 746.16426102601
  21
 432.56192950759
  31
0.0
   0
POINT
   5
1A4
 100
AcDbEntity
   8
LEVEL001
 100
AcDbPoint
  62
7
  10
 746.16426102601
  20
 400.48621479322
  30
0.0
   0
ARC
   5
1A5
 100
AcDbEntity
   8
LEVEL001
   6
CONTINUOUS
  62
7
 100
AcDbCircle
  10
 745.16426102599
  20
 401.48621479318
  30
0.0
  40
 1.0000000000000
 100
AcDbArc
  50
 323.13010235695
  51
 0.22342251636941E-8
   0
LINE
   5
1A6
 100
AcDbEntity
   8
LEVEL001
 100
AcDbLine
   6
DASHDOT
  62
3
  10
 750.48092480884
  20
 457.08808028098
  30
0.0
  11
 740.22350806544
  21
 432.92312077881
  31
0.0
   0
LINE
   5
1A7
 100
AcDbEntity
   8
LEVEL001
 100
AcDbLine
   6
DASHDOT
  62
3
  10
 747.75517512073
  20
 457.30581315682
  30
0.0
  11
 757.92157741066
  21
 433.35527027019
  31
0.0
   0
ARC
   5
1A8
 100
AcDbEntity
   8
LEVEL001
   6
CONTINUOUS
  62
7
 100
AcDbCircle
  10
 749.16426102601
  20
 453.98621479322
  30
0.0
  40
 17.500000000000
 100
AcDbArc
  50
 232.33011303570
  51
 307.66988696433
   0
ARC
   5
1A9
 100
AcDbEntity
   8
LEVEL001
   6
CONTINUOUS
  62
7
 100
AcDbCircle
  10
 749.16426102601
  20
 453.98621479322
  30
0.0
  40
 20.000000000000
 100
AcDbArc
  50
 235.66000505630
  51
 256.86344121306
   0
ARC
   5
1AA
 100
AcDbEntity
   8
LEVEL001
   6
CONTINUOUS
  62
7
 100
AcDbCircle
  10
 738.16426102607
  20
 437.88497260508
  30
0.0
  40
 0.50000000000000
 100
AcDbArc
  50
 179.99999999592
  51
 235.66000504907
   0
LINE
   5
1AB
 100
AcDbEntity
   8
LEVEL001
 100
AcDbLine
   6
DOT
  62
1
  10
 740.31525985942
  20
 438.51381425683
  30
0.0
  11
 740.44281673067
  21
 438.81431941374
  31
0.0
   0
LINE
   5
1AC
 100
AcDbEntity
   8
LEVEL001
 100
AcDbLine
   6
DOT
  62
1
  10
 744.18138024391
  20
 436.87274351733
  30
0.0
  11
 740.31525985942
  21
 438.51381425683
  31
0.0
   0
LINE
   5
1AD
 100
AcDbEntity
   8
LEVEL001
 100
AcDbLine
   6
DOT
  62
1
  10
 740.31525985942
  20
 438.51381425683
  30
0.0
  11
 738.34840588652
  21
 437.71915366939
  31
0.0
   0
LINE
   5
1AE
 100
AcDbEntity
   8
LEVEL001
 100
AcDbLine
   6
DOT
  62
1
  10
 744.18138024391
  20
 436.87274351733
  30
0.0
  11
 744.30893711510
  21
 437.17324867409
  31
0.0
   0
LINE
   5
1AF
 100
AcDbEntity
   8
LEVEL001
 100
AcDbLine
   6
DOT
  62
1
  10
 744.18138024399
  20
 436.87274351715
  30
0.0
  11
 744.97604083143
  21
 434.90588954424
  31
0.0
   0
LINE
   5
1B0
 100
AcDbEntity
   8
LEVEL001
 100
AcDbLine
   6
DOT
  62
1
  10
 744.79109520538
  20
 434.47018495349
  30
0.0
  11
 744.97604083144
  21
 434.90588954420
  31
0.0
   0
LINE
   5
1B1
 100
AcDbEntity
   8
LEVEL001
 100
AcDbLine
   6
DOT
  62
1
  10
 738.16346026041
  20
 437.28344907866
  30
0.0
  11
 738.34840588648
  21
 437.71915366937
  31
0.0
   0
LINE
   5
1B2
 100
AcDbEntity
   8
LEVEL001
 100
AcDbLine
   6
DOT
  62
1
  10
 738.34840588649
  20
 437.71915366940
  30
0.0
  11
 744.97604083143
  21
 434.90588954424
  31
0.0
   0
LINE
   5
1B3
 100
AcDbEntity
   8
LEVEL001
 100
AcDbLine
   6
CONTINUOUS
  62
7
  10
 760.66426102601
  20
 437.88497260511
  30
0.0
  11
 760.66426102601
  21
 439.73840794444
  31
0.0
   0
ARC
   5
1B4
 100
AcDbEntity
   8
LEVEL001
   6
CONTINUOUS
  62
7
 100
AcDbCircle
  10
 760.16426102599
  20
 439.73840794442
  30
0.0
  40
 0.50000000000000
 100
AcDbArc
  50
 0.21169771958801E-8
  51
 127.66988696085
   0
ARC
   5
1B5
 100
AcDbEntity
   8
LEVEL001
   6
CONTINUOUS
  62
7
 100
AcDbCircle
  10
 749.16426102601
  20
 453.98621479322
  30
0.0
  40
 20.000000000000
 100
AcDbArc
  50
 283.13655878694
  51
 304.33999494370
   0
ARC
   5
1B6
 100
AcDbEntity
   8
LEVEL001
   6
CONTINUOUS
  62
7
 100
AcDbCircle
  10
 760.16426102591
  20
 437.88497260504
  30
0.0
  40
 0.50000000000000
 100
AcDbArc
  50
 304.33999495759
  51
 0.78360725115597E-8
   0
LINE
   5
1B7
 100
AcDbEntity
   8
LEVEL001
 100
AcDbLine
   6
DOT
  62
1
  10
 758.01326219261
  20
 438.51381425683
  30
0.0
  11
 757.88570532136
  21
 438.81431941374
  31
0.0
   0
LINE
   5
1B8
 100
AcDbEntity
   8
LEVEL001
 100
AcDbLine
   6
DOT
  62
1
  10
 754.14714180812
  20
 436.87274351733
  30
0.0
  11
 758.01326219261
  21
 438.51381425683
  31
0.0
   0
LINE
   5
1B9
 100
AcDbEntity
   8
LEVEL001
 100
AcDbLine
   6
DOT
  62
1
  10
 758.01326219261
  20
 438.51381425683
  30
0.0
  11
 759.98011616551
  21
 437.71915366939
  31
0.0
   0
LINE
   5
1BA
 100
AcDbEntity
   8
LEVEL001
 100
AcDbLine
   6
DOT
  62
1
  10
 754.14714180812
  20
 436.87274351733
  30
0.0
  11
 754.01958493693
  21
 437.17324867409
  31
0.0
   0
LINE
   5
1BB
 100
AcDbEntity
   8
LEVEL001
 100
AcDbLine
   6
DOT
  62
1
  10
 754.14714180804
  20
 436.87274351715
  30
0.0
  11
 753.35248122060
  21
 434.90588954424
  31
0.0
   0
LINE
   5
1BC
 100
AcDbEntity
   8
LEVEL001
 100
AcDbLine
   6
DOT
  62
1
  10
 760.16506179162
  20
 437.28344907866
  30
0.0
  11
 759.98011616555
  21
 437.71915366937
  31
0.0
   0
LINE
   5
1BD
 100
AcDbEntity
   8
LEVEL001
 100
AcDbLine
   6
DOT
  62
1
  10
 759.98011616554
  20
 437.71915366940
  30
0.0
  11
 753.35248122060
  21
 434.90588954424
  31
0.0
   0
ARC
   5
1BE
 100
AcDbEntity
   8
LEVEL001
   6
CONTINUOUS
  62
7
 100
AcDbCircle
  10
 754.16426102603
  20
 432.56192950759
  30
0.0
  40
 2.0000000000000
 100
AcDbArc
  50
 103.13655878727
  51
 180.00000000007
   0
LINE
   5
1BF
 100
AcDbEntity
   8
LEVEL001
 100
AcDbLine
   6
DOT
  62
1
  10
 753.53742684665
  20
 434.47018495349
  30
0.0
  11
 753.35248122059
  21
 434.90588954420
  31
0.0
   0
LINE
   5
1C0
 100
AcDbEntity
   8
LEVEL001
 100
AcDbLine
   6
DASHDOT
  62
3
  10
 735.55106228856
  20
 403.80719186045
  30
0.0
  11
 737.79147195759
  21
 391.10119723596
  31
0.0
   0
LINE
   5
1C1
 100
AcDbEntity
   8
LEVEL001
 100
AcDbLine
   6
DASHDOT
  62
3
  10
 736.66426102601
  20
 403.78929938983
  30
0.0
  11
 736.66426102601
  21
 390.47578763125
  31
0.0
   0
LINE
   5
1C2
 100
AcDbEntity
   8
LEVEL001
 100
AcDbLine
   6
DASHDOT
  62
3
  10
 740.76358997370
  20
 395.98621479322
  30
0.0
  11
 729.46107462583
  21
 395.98621479322
  31
0.0
   0
LINE
   5
1C3
 100
AcDbEntity
   8
LEVEL001
 100
AcDbLine
   6
DOT
  62
1
  10
 746.16426102601
  20
 403.03083053519
  30
0.0
  11
 752.16426102601
  21
 403.03083053519
  31
0.0
   0
LINE
   5
1C4
 100
AcDbEntity
   8
LEVEL001
 100
AcDbLine
   6
CONTINUOUS
  62
15
  10
 752.36426102601
  20
 395.58621479322
  30
0.0
  11
 767.66426102601
  21
 395.58621479322
  31
0.0
   0
LINE
   5
1C5
 100
AcDbEntity
   8
LEVEL001
 100
AcDbLine
   6
CONTINUOUS
  62
15
  10
 730.66426102601
  20
 395.58621479322
  30
0.0
  11
 745.96426102601
  21
 395.58621479322
  31
0.0
   0
LINE
   5
1C6
 100
AcDbEntity
   8
LEVEL001
 100
AcDbLine
   6
DOT
  62
1
  10
 745.96426102601
  20
 395.58621479322
  30
0.0
  11
 752.36426102601
  21
 395.58621479322
  31
0.0
   0
LINE
   5
1C7
 100
AcDbEntity
   8
LEVEL001
 100
AcDbLine
   6
DOT
  62
1
  10
 739.01426102601
  20
 393.98621479322
  30
0.0
  11
 739.01426102601
  21
 397.91563931666
  31
0.0
   0
LINE
   5
1C8
 100
AcDbEntity
   8
LEVEL001
 100
AcDbLine
   6
DOT
  62
1
  10
 734.31426102601
  20
 393.98621479322
  30
0.0
  11
 734.31426102601
  21
 397.07789197531
  31
0.0
   0
ARC
   5
1C9
 100
AcDbEntity
   8
LEVEL001
   6
DOT
  62
1
 100
AcDbCircle
  10
 745.16426102605
  20
 401.48621479322
  30
0.0
  40
 1.0000000000000
 100
AcDbArc
  50
 269.99999999794
  51
 323.13010235292
   0
LINE
   5
1CA
 100
AcDbEntity
   8
LEVEL001
 100
AcDbLine
   6
DOT
  62
1
  10
 745.16426102601
  20
 400.48621479322
  30
0.0
  11
 740.17118375539
  21
 400.48621479322
  31
0.0
   0
LINE
   5
1CB
 100
AcDbEntity
   8
LEVEL001
 100
AcDbLine
   6
DOT
  62
1
  10
 740.40653048744
  20
 398.15379117427
  30
0.0
  11
 740.40653048744
  21
 400.48621479322
  31
0.0
   0
LINE
   5
1CC
 100
AcDbEntity
   8
LEVEL001
 100
AcDbLine
   6
DOT
  62
1
  10
 731.66426102601
  20
 398.98621479323
  30
0.0
  11
 740.17118375539
  21
 400.48621479322
  31
0.0
   0
LINE
   5
1CD
 100
AcDbEntity
   8
LEVEL001
 100
AcDbLine
   6
DOT
  62
1
  10
 731.65588408391
  20
 396.61081611469
  30
0.0
  11
 740.40653048744
  21
 398.15379117427
  31
0.0
   0
LINE
   5
1CE
 100
AcDbEntity
   8
LEVEL001
 100
AcDbLine
   6
DOT
  62
1
  10
 731.56426102601
  20
 400.65418001894
  30
0.0
  11
 745.95538382649
  21
 401.80187590571
  31
0.0
   0
LINE
   5
1CF
 100
AcDbEntity
   8
LEVEL001
 100
AcDbLine
   6
CONTINUOUS
  62
7
  10
 745.96619753941
  20
 403.00654831685
  30
0.0
  11
 730.94041166790
  21
 401.80823788066
  31
0.0
   0
LINE
   5
1D0
 100
AcDbEntity
   8
LEVEL001
 100
AcDbLine
   6
CONTINUOUS
  62
7
  10
 745.96426102601
  20
 395.58621479322
  30
0.0
  11
 745.96426102601
  21
 403.03083053519
  31
0.0
   0
LINE
   5
1D1
 100
AcDbEntity
   8
LEVEL001
 100
AcDbLine
   6
CONTINUOUS
  62
7
  10
 745.96426102601
  20
 403.03083053519
  30
0.0
  11
 746.16426102601
  21
 403.03083053519
  31
0.0
   0
LINE
   5
1D2
 100
AcDbEntity
   8
LEVEL001
 100
AcDbLine
   6
DASHDOT
  62
3
  10
 762.77745976347
  20
 403.80719186045
  30
0.0
  11
 760.53705009444
  21
 391.10119723596
  31
0.0
   0
LINE
   5
1D3
 100
AcDbEntity
   8
LEVEL001
 100
AcDbLine
   6
DASHDOT
  62
3
  10
 761.66426102601
  20
 403.78929938983
  30
0.0
  11
 761.66426102601
  21
 390.47578763125
  31
0.0
   0
LINE
   5
1D4
 100
AcDbEntity
   8
LEVEL001
 100
AcDbLine
   6
DASHDOT
  62
3
  10
 757.56493207833
  20
 395.98621479322
  30
0.0
  11
 768.86744742620
  21
 395.98621479322
  31
0.0
   0
LINE
   5
1D5
 100
AcDbEntity
   8
LEVEL001
 100
AcDbLine
   6
DOT
  62
1
  10
 759.31426102601
  20
 393.98621479322
  30
0.0
  11
 759.31426102601
  21
 397.91563931666
  31
0.0
   0
LINE
   5
1D6
 100
AcDbEntity
   8
LEVEL001
 100
AcDbLine
   6
DOT
  62
1
  10
 764.01426102601
  20
 393.98621479322
  30
0.0
  11
 764.01426102601
  21
 397.07789197531
  31
0.0
   0
LINE
   5
1D7
 100
AcDbEntity
   8
LEVEL001
 100
AcDbLine
   6
DOT
  62
1
  10
 753.16426102601
  20
 400.48621479322
  30
0.0
  11
 758.15733829664
  21
 400.48621479322
  31
0.0
   0
LINE
   5
1D8
 100
AcDbEntity
   8
LEVEL001
 100
AcDbLine
   6
DOT
  62
1
  10
 766.66426102601
  20
 395.48621479322
  30
0.0
  11
 766.66426102601
  21
 398.98621479322
  31
0.0
   0
LINE
   5
1D9
 100
AcDbEntity
   8
LEVEL001
 100
AcDbLine
   6
DOT
  62
1
  10
 757.92199156459
  20
 398.15379117427
  30
0.0
  11
 757.92199156459
  21
 400.48621479322
  31
0.0
   0
LINE
   5
1DA
 100
AcDbEntity
   8
LEVEL001
 100
AcDbLine
   6
DOT
  62
1
  10
 766.66426102602
  20
 398.98621479323
  30
0.0
  11
 758.15733829664
  21
 400.48621479322
  31
0.0
   0
LINE
   5
1DB
 100
AcDbEntity
   8
LEVEL001
 100
AcDbLine
   6
DOT
  62
1
  10
 766.67263796812
  20
 396.61081611469
  30
0.0
  11
 757.92199156459
  21
 398.15379117427
  31
0.0
   0
LINE
   5
1DC
 100
AcDbEntity
   8
LEVEL001
 100
AcDbLine
   6
DOT
  62
1
  10
 766.76426102601
  20
 395.58621479322
  30
0.0
  11
 766.76426102601
  21
 400.65418001894
  31
0.0
   0
LINE
   5
1DD
 100
AcDbEntity
   8
LEVEL001
 100
AcDbLine
   6
DOT
  62
1
  10
 766.76426102601
  20
 400.65418001894
  30
0.0
  11
 752.37313822554
  21
 401.80187590571
  31
0.0
   0
LINE
   5
1DE
 100
AcDbEntity
   8
LEVEL001
 100
AcDbLine
   6
CONTINUOUS
  62
7
  10
 767.66426102601
  20
 395.58621479322
  30
0.0
  11
 767.66426102601
  21
 401.50918736968
  31
0.0
   0
ARC
   5
1DF
 100
AcDbEntity
   8
LEVEL001
   6
CONTINUOUS
  62
7
 100
AcDbCircle
  10
 767.36426102599
  20
 401.50918736968
  30
0.0
  40
 0.30000000000000
 100
AcDbArc
  50
0.0
  51
 85.440296667079
   0
LINE
   5
1E0
 100
AcDbEntity
   8
LEVEL001
 100
AcDbLine
   6
CONTINUOUS
  62
7
  10
 752.36232451262
  20
 403.00654831685
  30
0.0
  11
 767.38811038413
  21
 401.80823788066
  31
0.0
   0
LINE
   5
1E1
 100
AcDbEntity
   8
LEVEL001
 100
AcDbLine
   6
CONTINUOUS
  62
7
  10
 752.36426102601
  20
 395.58621479322
  30
0.0
  11
 752.36426102601
  21
 403.03083053519
  31
0.0
   0
POINT
   5
1E2
 100
AcDbEntity
   8
LEVEL001
 100
AcDbPoint
  62
7
  10
 752.16426102601
  20
 400.48621479322
  30
0.0
   0
ARC
   5
1E3
 100
AcDbEntity
   8
LEVEL001
   6
CONTINUOUS
  62
7
 100
AcDbCircle
  10
 753.16426102603
  20
 401.48621479319
  30
0.0
  40
 1.0000000000000
 100
AcDbArc
  50
 179.99999999845
  51
 216.86989764392
   0
ARC
   5
1E4
 100
AcDbEntity
   8
LEVEL001
   6
DOT
  62
1
 100
AcDbCircle
  10
 753.16426102600
  20
 401.48621479322
  30
0.0
  40
 1.0000000000000
 100
AcDbArc
  50
 216.86989764649
  51
 270.00000000107
   0
LINE
   5
1E5
 100
AcDbEntity
   8
LEVEL001
 100
AcDbLine
   6
CONTINUOUS
  62
7
  10
 731.66426102601
  20
 395.48621479322
  30
0.0
  11
 730.66426102601
  21
 395.48621479322
  31
0.0
   0
LINE
   5
1E6
 100
AcDbEntity
   8
LEVEL001
 100
AcDbLine
   6
CONTINUOUS
  62
7
  10
 730.66426102601
  20
 393.98621479322
  30
0.0
  11
 730.66426102601
  21
 395.58621479322
  31
0.0
   0
LINE
   5
1E7
 100
AcDbEntity
   8
LEVEL001
 100
AcDbLine
   6
DOT
  62
1
  10
 731.66426102601
  20
 395.48621479322
  30
0.0
  11
 731.66426102601
  21
 398.98621479322
  31
0.0
   0
LINE
   5
1E8
 100
AcDbEntity
   8
LEVEL001
 100
AcDbLine
   6
DOT
  62
1
  10
 731.56426102601
  20
 395.58621479322
  30
0.0
  11
 731.56426102601
  21
 400.65418001894
  31
0.0
   0
LINE
   5
1E9
 100
AcDbEntity
   8
LEVEL001
 100
AcDbLine
   6
CONTINUOUS
  62
7
  10
 730.66426102601
  20
 395.58621479322
  30
0.0
  11
 730.66426102601
  21
 401.50918736968
  31
0.0
   0
ARC
   5
1EA
 100
AcDbEntity
   8
LEVEL001
   6
CONTINUOUS
  62
7
 100
AcDbCircle
  10
 730.96426102608
  20
 401.50918736968
  30
0.0
  40
 0.30000000000000
 100
AcDbArc
  50
 94.559703340697
  51
 180.00000000100
   0
LINE
   5
1EB
 100
AcDbEntity
   8
LEVEL001
 100
AcDbLine
   6
DASHDOT
  62
3
  10
 749.16426102601
  20
 480.98652865944
  30
0.0
  11
 749.16426102601
  21
 384.91574887687
  31
0.0
   0
DIMENSION
   5
1EC
 100
AcDbEntity
   8
LEVEL001
   6
CONTINUOUS
  62
3
 100
AcDbDimension
   2
*D1
  10
 709.99781878113
  20
 393.98621479322
  30
0.0
  11
 709.99781878113
  21
 423.98621479322
  31
0.0
  70
0
   3
GMM001
 100
AcDbAlignedDimension
  13
 723.11997109451
  23
 453.98621479322
  33
0.0
  14
 730.66426102601
  24
 393.98621479322
  34
0.0
  50
 270.00000000000
 100
AcDbRotatedDimension
   0
DIMENSION
   5
1ED
 100
AcDbEntity
   8
LEVEL001
   6
CONTINUOUS
  62
3
 100
AcDbDimension
   2
*D2
  10
 793.65608540846
  20
 471.48621479322
  30
0.0
  11
 793.65608540846
  21
 432.73621479322
  31
0.0
  70
0
   3
GMM001
 100
AcDbAlignedDimension
  13
 767.66426102601
  23
 393.98621479322
  33
0.0
  14
 749.16426102601
  24
 471.48621479322
  34
0.0
  50
 90.000000000000
 100
AcDbRotatedDimension
   0
LINE
   5
1EE
 100
AcDbEntity
   8
LEVEL001
 100
AcDbLine
   6
CONTINUOUS
  62
7
  10
 82.848375336957
  20
 436.48621479322
  30
0.0
  11
 143.84837533696
  21
 436.48621479322
  31
0.0
   0
LINE
   5
1EF
 100
AcDbEntity
   8
LEVEL001
 100
AcDbLine
   6
CONTINUOUS
  62
7
  10
 171.84837533696
  20
 436.48621479322
  30
0.0
  11
 374.51676735939
  21
 436.48621479322
  31
0.0
   0
LINE
   5
1F0
 100
AcDbEntity
   8
LEVEL001
 100
AcDbLine
   6
DIVIDE
  62
3
  10
 144.12610879272
  20
 436.48621479322
  30
0.0
  11
 171.38524640856
  21
 436.48621479322
  31
0.0
   0
LINE
   5
1F1
 100
AcDbEntity
   8
LEVEL001
 100
AcDbLine
   6
DASHDOT
  62
3
  10
 69.093441112588
  20
 453.98621479322
  30
0.0
  11
 632.57512597278
  21
 453.98621479322
  31
0.0
   0
DIMENSION
   5
1F2
 100
AcDbEntity
   8
LEVEL001
   6
CONTINUOUS
  62
3
 100
AcDbDimension
   2
*D3
  10
 645.65533204120
  20
 436.48621479322
  30
0.0
  11
 645.65533204120
  21
 453.98621479322
  31
0.0
  70
0
   3
GMM002
 100
AcDbAlignedDimension
  13
 645.65533204120
  23
 471.48621479322
  33
0.0
  14
 644.58407426980
  24
 436.48621479322
  34
0.0
  50
 270.00000000000
 100
AcDbRotatedDimension
   0
LINE
   5
1F3
 100
AcDbEntity
   8
LEVEL001
 100
AcDbLine
   6
DASHDOT
  62
3
  10
 648.39440888714
  20
 453.98621479322
  30
0.0
  11
 694.42532513711
  21
 453.98621479322
  31
0.0
   0
DIMENSION
   5
1F4
 100
AcDbEntity
   8
LEVEL001
   6
CONTINUOUS
  62
3
 100
AcDbDimension
   2
*D4
  10
 645.65533204120
  20
 436.48621479322
  30
0.0
  11
 645.65533204120
  21
 415.23621479322
  31
0.0
  70
0
   3
GMM001
 100
AcDbAlignedDimension
  13
 621.84837533696
  23
 393.98621479322
  33
0.0
  14
 645.65533204120
  24
 436.48621479322
  34
0.0
  50
 90.000000000000
 100
AcDbRotatedDimension
   0
LINE
   5
1F5
 100
AcDbEntity
   8
LEVEL001
 100
AcDbLine
   6
CONTINUOUS
  62
3
  10
 341.89450387865
  20
 511.11047348863
  30
0.0
  11
 362.66146553057
  21
 511.11047348863
  31
0.0
   0
LINE
   5
1F6
 100
AcDbEntity
   8
LEVEL001
 100
AcDbLine
   6
CONTINUOUS
  62
3
  10
 402.53403190226
  20
 511.11047348863
  30
0.0
  11
 423.30099355418
  21
 511.11047348863
  31
0.0
   0
LINE
   5
1F7
 100
AcDbEntity
   8
LEVEL001
 100
AcDbLine
   6
DASHDOT
  62
3
  10
 600.34837533696
  20
 398.74668305412
  30
0.0
  11
 600.34837533696
  21
 390.69796644840
  31
0.0
   0
LINE
   5
1F8
 100
AcDbEntity
   8
LEVEL001
 100
AcDbLine
   6
DASHDOT
  62
3
  10
 615.34837533696
  20
 398.86446915079
  30
0.0
  11
 615.34837533696
  21
 390.69796644840
  31
0.0
   0
LINE
   5
1F9
 100
AcDbEntity
   8
LEVEL001
 100
AcDbLine
   6
DASHDOT
  62
3
  10
 150.34837533696
  20
 398.74668305412
  30
0.0
  11
 150.34837533696
  21
 390.69796644840
  31
0.0
   0
LINE
   5
1FA
 100
AcDbEntity
   8
LEVEL001
 100
AcDbLine
   6
DASHDOT
  62
3
  10
 165.34837533696
  20
 398.86446915079
  30
0.0
  11
 165.34837533696
  21
 390.69796644840
  31
0.0
   0
DIMENSION
   5
1FB
 100
AcDbEntity
   8
LEVEL001
   6
CONTINUOUS
  62
3
 100
AcDbDimension
   2
*D5
  10
 761.66426102601
  20
 364.89489352388
  30
0.0
  11
 749.16426102601
  21
 364.89489352388
  31
0.0
  70
0
   3
GMM001
 100
AcDbAlignedDimension
  13
 736.66426102601
  23
 390.47578763125
  33
0.0
  14
 761.66426102601
  24
 390.47578763125
  34
0.0
 100
AcDbRotatedDimension
   0
DIMENSION
   5
1FC
 100
AcDbEntity
   8
LEVEL001
   6
CONTINUOUS
  62
3
 100
AcDbDimension
   2
*D6
  10
 767.66426102601
  20
 349.00087557460
  30
0.0
  11
 749.16426102601
  21
 349.00087557460
  31
0.0
  70
0
   3
GMM001
 100
AcDbAlignedDimension
  13
 730.66426102601
  23
 393.98621479322
  33
0.0
  14
 767.66426102601
  24
 393.98621479322
  34
0.0
 100
AcDbRotatedDimension
   0
DIMENSION
   5
1FD
 100
AcDbEntity
   8
LEVEL001
   6
CONTINUOUS
  62
3
 100
AcDbDimension
   2
*D7
  10
 682.84837533696
  20
 508.30830956856
  30
0.0
  11
 382.84837533696
  21
 508.30830956856
  31
0.0
  70
0
   1
\A1;400üE600üE800
   3
GMM003
 100
AcDbAlignedDimension
  13
 82.848375336957
  23
 471.48621479322
  33
0.0
  14
 682.84837533696
  24
 471.48621479322
  34
0.0
 100
AcDbRotatedDimension
   0
LINE
   5
1FE
 100
AcDbEntity
   8
LEVEL001
 100
AcDbLine
   6
CONTINUOUS
  62
3
  10
 341.89450387865
  20
 367.26969742376
  30
0.0
  11
 362.66146553057
  21
 367.26969742376
  31
0.0
   0
LINE
   5
1FF
 100
AcDbEntity
   8
LEVEL001
 100
AcDbLine
   6
CONTINUOUS
  62
3
  10
 402.53403190226
  20
 367.26969742376
  30
0.0
  11
 423.30099355418
  21
 367.26969742376
  31
0.0
   0
DIMENSION
   5
200
 100
AcDbEntity
   8
LEVEL001
   6
CONTINUOUS
  62
3
 100
AcDbDimension
   2
*D8
  10
 607.84837533696
  20
 364.89489352388
  30
0.0
  11
 382.84837533696
  21
 364.89489352388
  31
0.0
  70
0
   1
\A1;250üE450üE600
   3
GMM004
 100
AcDbAlignedDimension
  13
 157.84837533696
  23
 385.71480984063
  33
0.0
  14
 607.84837533696
  24
 385.71480984063
  34
0.0
 100
AcDbRotatedDimension
   0
DIMENSION
   5
201
 100
AcDbEntity
   8
LEVEL001
   6
CONTINUOUS
  62
3
 100
AcDbDimension
   2
*D9
  10
 682.84837533696
  20
 364.89489352388
  30
0.0
  11
 645.34837533696
  21
 364.89489352388
  31
0.0
  70
0
   3
GMM001
 100
AcDbAlignedDimension
  13
 607.84837533696
  23
 364.89489352388
  33
0.0
  14
 682.84837533696
  24
 436.48621479322
  34
0.0
 100
AcDbRotatedDimension
   0
DIMENSION
   5
202
 100
AcDbEntity
   8
LEVEL001
   6
CONTINUOUS
  62
3
 100
AcDbDimension
   2
*D10
  10
 157.84837533696
  20
 364.89489352388
  30
0.0
  11
 120.34837533696
  21
 364.89489352388
  31
0.0
  70
0
   3
GMM001
 100
AcDbAlignedDimension
  13
 82.848375336957
  23
 436.48621479322
  33
0.0
  14
 157.84837533696
  24
 364.89489352388
  34
0.0
 100
AcDbRotatedDimension
   0
CIRCLE
   5
203
 100
AcDbEntity
   8
LEVEL001
 100
AcDbCircle
   6
CONTINUOUS
  62
7
  10
 615.34837533696
  20
 279.30132259735
  30
0.0
  40
 2.3500000000000
   0
CIRCLE
   5
204
 100
AcDbEntity
   8
LEVEL001
 100
AcDbCircle
   6
CONTINUOUS
  62
7
  10
 615.34837533696
  20
 304.30132259735
  30
0.0
  40
 2.3500000000000
   0
CIRCLE
   5
205
 100
AcDbEntity
   8
LEVEL001
 100
AcDbCircle
   6
CONTINUOUS
  62
7
  10
 600.34837533696
  20
 304.30132259735
  30
0.0
  40
 2.3500000000000
   0
CIRCLE
   5
206
 100
AcDbEntity
   8
LEVEL001
 100
AcDbCircle
   6
CONTINUOUS
  62
7
  10
 600.34837533696
  20
 279.30132259735
  30
0.0
  40
 2.3500000000000
   0
ARC
   5
207
 100
AcDbEntity
   8
LEVEL001
   6
CONTINUOUS
  62
7
 100
AcDbCircle
  10
 621.54837533696
  20
 310.00132259729
  30
0.0
  40
 0.30000000000000
 100
AcDbArc
  50
 0.10693448913035E-7
  51
 89.999999999978
   0
POINT
   5
208
 100
AcDbEntity
   8
LEVEL001
 100
AcDbPoint
  62
7
  10
 621.84837533696
  20
 310.30132259735
  30
0.0
   0
ARC
   5
209
 100
AcDbEntity
   8
LEVEL001
   6
CONTINUOUS
  62
7
 100
AcDbCircle
  10
 594.14837533689
  20
 310.00132259735
  30
0.0
  40
 0.30000000000000
 100
AcDbArc
  50
 89.999999986864
  51
 180.00000000000
   0
POINT
   5
20A
 100
AcDbEntity
   8
LEVEL001
 100
AcDbPoint
  62
7
  10
 593.84837533696
  20
 310.30132259735
  30
0.0
   0
ARC
   5
20B
 100
AcDbEntity
   8
LEVEL001
   6
CONTINUOUS
  62
7
 100
AcDbCircle
  10
 594.14837533696
  20
 273.60132259738
  30
0.0
  40
 0.30000000000000
 100
AcDbArc
  50
 180.00000000609
  51
 269.99999999998
   0
POINT
   5
20C
 100
AcDbEntity
   8
LEVEL001
 100
AcDbPoint
  62
7
  10
 593.84837533696
  20
 273.30132259735
  30
0.0
   0
ARC
   5
20D
 100
AcDbEntity
   8
LEVEL001
   6
CONTINUOUS
  62
7
 100
AcDbCircle
  10
 621.54837533696
  20
 273.60132259736
  30
0.0
  40
 0.30000000000000
 100
AcDbArc
  50
 270.00000000002
  51
0.0
   0
POINT
   5
20E
 100
AcDbEntity
   8
LEVEL001
 100
AcDbPoint
  62
7
  10
 621.84837533696
  20
 273.30132259735
  30
0.0
   0
POINT
   5
20F
 100
AcDbEntity
   8
LEVEL001
 100
AcDbPoint
  62
15
  10
 605.88837533696
  20
 301.30132259735
  30
0.0
   0
ARC
   5
210
 100
AcDbEntity
   8
LEVEL001
   6
CONTINUOUS
  62
15
 100
AcDbCircle
  10
 606.84837533694
  20
 302.30132259735
  30
0.0
  40
 1.0000000000000
 100
AcDbArc
  50
 180.00000000000
  51
 270.00000000121
   0
POINT
   5
211
 100
AcDbEntity
   8
LEVEL001
 100
AcDbPoint
  62
15
  10
 609.80837533696
  20
 301.30132259735
  30
0.0
   0
ARC
   5
212
 100
AcDbEntity
   8
LEVEL001
   6
CONTINUOUS
  62
15
 100
AcDbCircle
  10
 608.84837533696
  20
 302.30132259732
  30
0.0
  40
 1.0000000000000
 100
AcDbArc
  50
 270.00000000000
  51
 0.11920210057376E-8
   0
POINT
   5
213
 100
AcDbEntity
   8
LEVEL001
 100
AcDbPoint
  62
15
  10
 609.80837533696
  20
 307.40132259735
  30
0.0
   0
ARC
   5
214
 100
AcDbEntity
   8
LEVEL001
   6
CONTINUOUS
  62
15
 100
AcDbCircle
  10
 608.84837533694
  20
 306.40132259735
  30
0.0
  40
 1.0000000000000
 100
AcDbArc
  50
0.0
  51
 89.999999998880
   0
POINT
   5
215
 100
AcDbEntity
   8
LEVEL001
 100
AcDbPoint
  62
15
  10
 605.88837533696
  20
 307.40132259735
  30
0.0
   0
ARC
   5
216
 100
AcDbEntity
   8
LEVEL001
   6
CONTINUOUS
  62
15
 100
AcDbCircle
  10
 606.84837533696
  20
 306.40132259732
  30
0.0
  40
 1.0000000000000
 100
AcDbArc
  50
 90.000000000000
  51
 179.99999999873
   0
ARC
   5
217
 100
AcDbEntity
   8
LEVEL001
   6
CONTINUOUS
  62
15
 100
AcDbCircle
  10
 610.09837533694
  20
 294.05132259735
  30
0.0
  40
 1.0000000000000
 100
AcDbArc
  50
 180.00000000000
  51
 270.00000000121
   0
POINT
   5
218
 100
AcDbEntity
   8
LEVEL001
 100
AcDbPoint
  62
15
  10
 609.09837533696
  20
 293.05132259735
  30
0.0
   0
ARC
   5
219
 100
AcDbEntity
   8
LEVEL001
   6
CONTINUOUS
  62
15
 100
AcDbCircle
  10
 610.09837533694
  20
 298.30132259735
  30
0.0
  40
 1.0000000000000
 100
AcDbArc
  50
 89.999999998815
  51
 180.00000000000
   0
POINT
   5
21A
 100
AcDbEntity
   8
LEVEL001
 100
AcDbPoint
  62
15
  10
 609.09837533696
  20
 299.30132259735
  30
0.0
   0
ARC
   5
21B
 100
AcDbEntity
   8
LEVEL001
   6
CONTINUOUS
  62
15
 100
AcDbCircle
  10
 610.09837533696
  20
 289.55132259732
  30
0.0
  40
 1.0000000000000
 100
AcDbArc
  50
 90.000000000000
  51
 179.99999999881
   0
POINT
   5
21C
 100
AcDbEntity
   8
LEVEL001
 100
AcDbPoint
  62
15
  10
 609.09837533696
  20
 290.55132259735
  30
0.0
   0
ARC
   5
21D
 100
AcDbEntity
   8
LEVEL001
   6
CONTINUOUS
  62
15
 100
AcDbCircle
  10
 610.09837533694
  20
 285.30132259735
  30
0.0
  40
 1.0000000000000
 100
AcDbArc
  50
 180.00000000000
  51
 270.00000000121
   0
POINT
   5
21E
 100
AcDbEntity
   8
LEVEL001
 100
AcDbPoint
  62
15
  10
 609.09837533696
  20
 284.30132259735
  30
0.0
   0
ARC
   5
21F
 100
AcDbEntity
   8
LEVEL001
   6
CONTINUOUS
  62
15
 100
AcDbCircle
  10
 617.34837533696
  20
 289.55132259734
  30
0.0
  40
 1.0000000000000
 100
AcDbArc
  50
 0.46247809512225E-9
  51
 90.000000000000
   0
POINT
   5
220
 100
AcDbEntity
   8
LEVEL001
 100
AcDbPoint
  62
15
  10
 618.34837533696
  20
 290.55132259735
  30
0.0
   0
ARC
   5
221
 100
AcDbEntity
   8
LEVEL001
   6
CONTINUOUS
  62
15
 100
AcDbCircle
  10
 617.34837533696
  20
 285.30132259735
  30
0.0
  40
 1.0000000000000
 100
AcDbArc
  50
 270.00000000000
  51
0.0
   0
POINT
   5
222
 100
AcDbEntity
   8
LEVEL001
 100
AcDbPoint
  62
15
  10
 618.34837533696
  20
 284.30132259735
  30
0.0
   0
ARC
   5
223
 100
AcDbEntity
   8
LEVEL001
   6
CONTINUOUS
  62
15
 100
AcDbCircle
  10
 617.34837533696
  20
 298.30132259734
  30
0.0
  40
 1.0000000000000
 100
AcDbArc
  50
 0.45596431913461E-9
  51
 90.000000000000
   0
POINT
   5
224
 100
AcDbEntity
   8
LEVEL001
 100
AcDbPoint
  62
15
  10
 618.34837533696
  20
 299.30132259735
  30
0.0
   0
ARC
   5
225
 100
AcDbEntity
   8
LEVEL001
   6
CONTINUOUS
  62
15
 100
AcDbCircle
  10
 617.34837533697
  20
 294.05132259735
  30
0.0
  40
 1.0000000000000
 100
AcDbArc
  50
 269.99999999950
  51
0.0
   0
POINT
   5
226
 100
AcDbEntity
   8
LEVEL001
 100
AcDbPoint
  62
15
  10
 618.34837533696
  20
 293.05132259735
  30
0.0
   0
POINT
   5
227
 100
AcDbEntity
   8
LEVEL001
 100
AcDbPoint
  62
15
  10
 609.80837533696
  20
 282.30132259735
  30
0.0
   0
ARC
   5
228
 100
AcDbEntity
   8
LEVEL001
   6
CONTINUOUS
  62
15
 100
AcDbCircle
  10
 608.84837533696
  20
 281.30132259737
  30
0.0
  40
 1.0000000000000
 100
AcDbArc
  50
0.0
  51
 90.000000000000
   0
POINT
   5
229
 100
AcDbEntity
   8
LEVEL001
 100
AcDbPoint
  62
15
  10
 605.88837533696
  20
 282.30132259735
  30
0.0
   0
ARC
   5
22A
 100
AcDbEntity
   8
LEVEL001
   6
CONTINUOUS
  62
15
 100
AcDbCircle
  10
 606.84837533694
  20
 281.30132259735
  30
0.0
  40
 1.0000000000000
 100
AcDbArc
  50
 89.999999998815
  51
 180.00000000000
   0
POINT
   5
22B
 100
AcDbEntity
   8
LEVEL001
 100
AcDbPoint
  62
15
  10
 605.88837533696
  20
 276.20132259735
  30
0.0
   0
ARC
   5
22C
 100
AcDbEntity
   8
LEVEL001
   6
CONTINUOUS
  62
15
 100
AcDbCircle
  10
 606.84837533696
  20
 277.20132259737
  30
0.0
  40
 1.0000000000000
 100
AcDbArc
  50
 180.00000000130
  51
 270.00000000000
   0
POINT
   5
22D
 100
AcDbEntity
   8
LEVEL001
 100
AcDbPoint
  62
15
  10
 609.80837533696
  20
 276.20132259735
  30
0.0
   0
ARC
   5
22E
 100
AcDbEntity
   8
LEVEL001
   6
CONTINUOUS
  62
15
 100
AcDbCircle
  10
 608.84837533694
  20
 277.20132259735
  30
0.0
  40
 1.0000000000000
 100
AcDbArc
  50
 270.00000000109
  51
0.0
   0
LINE
   5
22F
 100
AcDbEntity
   8
LEVEL001
 100
AcDbLine
   6
CONTINUOUS
  62
15
  10
 605.84837533696
  20
 302.30132259735
  30
0.0
  11
 605.84837533696
  21
 306.40132259735
  31
0.0
   0
LINE
   5
230
 100
AcDbEntity
   8
LEVEL001
 100
AcDbLine
   6
CONTINUOUS
  62
15
  10
 606.84837533695
  20
 301.30132259735
  30
0.0
  11
 608.84837533696
  21
 301.30132259735
  31
0.0
   0
LINE
   5
231
 100
AcDbEntity
   8
LEVEL001
 100
AcDbLine
   6
CONTINUOUS
  62
15
  10
 609.84837533696
  20
 302.30132259734
  30
0.0
  11
 609.84837533696
  21
 306.40132259735
  31
0.0
   0
LINE
   5
232
 100
AcDbEntity
   8
LEVEL001
 100
AcDbLine
   6
CONTINUOUS
  62
15
  10
 606.84837533696
  20
 307.40132259735
  30
0.0
  11
 608.84837533696
  21
 307.40132259735
  31
0.0
   0
LINE
   5
233
 100
AcDbEntity
   8
LEVEL001
 100
AcDbLine
   6
CONTINUOUS
  62
15
  10
 605.84837533696
  20
 281.30132259735
  30
0.0
  11
 605.84837533696
  21
 277.20132259735
  31
0.0
   0
LINE
   5
234
 100
AcDbEntity
   8
LEVEL001
 100
AcDbLine
   6
CONTINUOUS
  62
15
  10
 606.84837533696
  20
 282.30132259735
  30
0.0
  11
 608.84837533696
  21
 282.30132259735
  31
0.0
   0
LINE
   5
235
 100
AcDbEntity
   8
LEVEL001
 100
AcDbLine
   6
CONTINUOUS
  62
15
  10
 609.84837533696
  20
 281.30132259735
  30
0.0
  11
 609.84837533696
  21
 277.20132259735
  31
0.0
   0
LINE
   5
236
 100
AcDbEntity
   8
LEVEL001
 100
AcDbLine
   6
CONTINUOUS
  62
15
  10
 606.84837533696
  20
 276.20132259735
  30
0.0
  11
 608.84837533695
  21
 276.20132259735
  31
0.0
   0
LINE
   5
237
 100
AcDbEntity
   8
LEVEL001
 100
AcDbLine
   6
CONTINUOUS
  62
15
  10
 609.09837533696
  20
 294.05132259735
  30
0.0
  11
 609.09837533696
  21
 298.30132259735
  31
0.0
   0
LINE
   5
238
 100
AcDbEntity
   8
LEVEL001
 100
AcDbLine
   6
CONTINUOUS
  62
15
  10
 610.09837533696
  20
 293.05132259735
  30
0.0
  11
 617.34837533696
  21
 293.05132259735
  31
0.0
   0
LINE
   5
239
 100
AcDbEntity
   8
LEVEL001
 100
AcDbLine
   6
CONTINUOUS
  62
15
  10
 610.09837533696
  20
 299.30132259735
  30
0.0
  11
 617.34837533696
  21
 299.30132259735
  31
0.0
   0
LINE
   5
23A
 100
AcDbEntity
   8
LEVEL001
 100
AcDbLine
   6
CONTINUOUS
  62
15
  10
 618.34837533696
  20
 294.05132259735
  30
0.0
  11
 618.34837533696
  21
 298.30132259735
  31
0.0
   0
LINE
   5
23B
 100
AcDbEntity
   8
LEVEL001
 100
AcDbLine
   6
CONTINUOUS
  62
15
  10
 609.09837533696
  20
 285.30132259735
  30
0.0
  11
 609.09837533696
  21
 289.55132259735
  31
0.0
   0
LINE
   5
23C
 100
AcDbEntity
   8
LEVEL001
 100
AcDbLine
   6
CONTINUOUS
  62
15
  10
 618.34837533696
  20
 285.30132259734
  30
0.0
  11
 618.34837533696
  21
 289.55132259735
  31
0.0
   0
LINE
   5
23D
 100
AcDbEntity
   8
LEVEL001
 100
AcDbLine
   6
CONTINUOUS
  62
15
  10
 610.09837533696
  20
 290.55132259735
  30
0.0
  11
 617.34837533696
  21
 290.55132259735
  31
0.0
   0
LINE
   5
23E
 100
AcDbEntity
   8
LEVEL001
 100
AcDbLine
   6
CONTINUOUS
  62
15
  10
 610.09837533696
  20
 284.30132259735
  30
0.0
  11
 617.34837533696
  21
 284.30132259735
  31
0.0
   0
ARC
   5
23F
 100
AcDbEntity
   8
LEVEL001
   6
CONTINUOUS
  62
15
 100
AcDbCircle
  10
 605.59837533694
  20
 294.05132259735
  30
0.0
  40
 1.0000000000000
 100
AcDbArc
  50
 270.00000000119
  51
0.0
   0
POINT
   5
240
 100
AcDbEntity
   8
LEVEL001
 100
AcDbPoint
  62
15
  10
 606.59837533696
  20
 293.05132259735
  30
0.0
   0
ARC
   5
241
 100
AcDbEntity
   8
LEVEL001
   6
CONTINUOUS
  62
15
 100
AcDbCircle
  10
 605.59837533694
  20
 298.30132259735
  30
0.0
  40
 1.0000000000000
 100
AcDbArc
  50
0.0
  51
 89.999999998788
   0
POINT
   5
242
 100
AcDbEntity
   8
LEVEL001
 100
AcDbPoint
  62
15
  10
 606.59837533696
  20
 299.30132259735
  30
0.0
   0
ARC
   5
243
 100
AcDbEntity
   8
LEVEL001
   6
CONTINUOUS
  62
15
 100
AcDbCircle
  10
 605.59837533696
  20
 289.55132259737
  30
0.0
  40
 1.0000000000000
 100
AcDbArc
  50
0.0
  51
 90.000000000000
   0
POINT
   5
244
 100
AcDbEntity
   8
LEVEL001
 100
AcDbPoint
  62
15
  10
 606.59837533696
  20
 290.55132259735
  30
0.0
   0
ARC
   5
245
 100
AcDbEntity
   8
LEVEL001
   6
CONTINUOUS
  62
15
 100
AcDbCircle
  10
 605.59837533694
  20
 285.30132259735
  30
0.0
  40
 1.0000000000000
 100
AcDbArc
  50
 270.00000000117
  51
0.0
   0
POINT
   5
246
 100
AcDbEntity
   8
LEVEL001
 100
AcDbPoint
  62
15
  10
 606.59837533696
  20
 284.30132259735
  30
0.0
   0
LINE
   5
247
 100
AcDbEntity
   8
LEVEL001
 100
AcDbLine
   6
CONTINUOUS
  62
15
  10
 606.59837533696
  20
 294.05132259735
  30
0.0
  11
 606.59837533696
  21
 298.30132259735
  31
0.0
   0
LINE
   5
248
 100
AcDbEntity
   8
LEVEL001
 100
AcDbLine
   6
CONTINUOUS
  62
15
  10
 605.59837533696
  20
 293.05132259735
  30
0.0
  11
 598.34837533696
  21
 293.05132259735
  31
0.0
   0
LINE
   5
249
 100
AcDbEntity
   8
LEVEL001
 100
AcDbLine
   6
CONTINUOUS
  62
15
  10
 605.59837533696
  20
 299.30132259735
  30
0.0
  11
 598.34837533696
  21
 299.30132259735
  31
0.0
   0
LINE
   5
24A
 100
AcDbEntity
   8
LEVEL001
 100
AcDbLine
   6
CONTINUOUS
  62
15
  10
 606.59837533696
  20
 285.30132259735
  30
0.0
  11
 606.59837533696
  21
 289.55132259735
  31
0.0
   0
LINE
   5
24B
 100
AcDbEntity
   8
LEVEL001
 100
AcDbLine
   6
CONTINUOUS
  62
15
  10
 605.59837533696
  20
 290.55132259735
  30
0.0
  11
 598.34837533696
  21
 290.55132259735
  31
0.0
   0
LINE
   5
24C
 100
AcDbEntity
   8
LEVEL001
 100
AcDbLine
   6
CONTINUOUS
  62
15
  10
 605.59837533696
  20
 284.30132259735
  30
0.0
  11
 598.34837533696
  21
 284.30132259735
  31
0.0
   0
ARC
   5
24D
 100
AcDbEntity
   8
LEVEL001
   6
CONTINUOUS
  62
15
 100
AcDbCircle
  10
 598.34837533696
  20
 289.55132259735
  30
0.0
  40
 1.0000000000000
 100
AcDbArc
  50
 90.000000000000
  51
 180.00000000049
   0
POINT
   5
24E
 100
AcDbEntity
   8
LEVEL001
 100
AcDbPoint
  62
15
  10
 597.34837533696
  20
 290.55132259735
  30
0.0
   0
ARC
   5
24F
 100
AcDbEntity
   8
LEVEL001
   6
CONTINUOUS
  62
15
 100
AcDbCircle
  10
 598.34837533696
  20
 285.30132259734
  30
0.0
  40
 1.0000000000000
 100
AcDbArc
  50
 179.99999999954
  51
 270.00000000000
   0
POINT
   5
250
 100
AcDbEntity
   8
LEVEL001
 100
AcDbPoint
  62
15
  10
 597.34837533696
  20
 284.30132259735
  30
0.0
   0
ARC
   5
251
 100
AcDbEntity
   8
LEVEL001
   6
CONTINUOUS
  62
15
 100
AcDbCircle
  10
 598.34837533696
  20
 298.30132259735
  30
0.0
  40
 1.0000000000000
 100
AcDbArc
  50
 90.000000000000
  51
 180.00000000049
   0
POINT
   5
252
 100
AcDbEntity
   8
LEVEL001
 100
AcDbPoint
  62
15
  10
 597.34837533696
  20
 299.30132259735
  30
0.0
   0
ARC
   5
253
 100
AcDbEntity
   8
LEVEL001
   6
CONTINUOUS
  62
15
 100
AcDbCircle
  10
 598.34837533697
  20
 294.05132259735
  30
0.0
  40
 1.0000000000000
 100
AcDbArc
  50
 180.00000000000
  51
 269.99999999954
   0
POINT
   5
254
 100
AcDbEntity
   8
LEVEL001
 100
AcDbPoint
  62
15
  10
 597.34837533696
  20
 293.05132259735
  30
0.0
   0
LINE
   5
255
 100
AcDbEntity
   8
LEVEL001
 100
AcDbLine
   6
CONTINUOUS
  62
15
  10
 597.34837533696
  20
 294.05132259735
  30
0.0
  11
 597.34837533696
  21
 298.30132259735
  31
0.0
   0
LINE
   5
256
 100
AcDbEntity
   8
LEVEL001
 100
AcDbLine
   6
CONTINUOUS
  62
15
  10
 597.34837533696
  20
 285.30132259734
  30
0.0
  11
 597.34837533696
  21
 289.55132259735
  31
0.0
   0
LINE
   5
257
 100
AcDbEntity
   8
LEVEL001
 100
AcDbLine
   6
DASHDOT
  62
3
  10
 596.32980015517
  20
 304.30132259735
  30
0.0
  11
 619.31190438330
  21
 304.30132259735
  31
0.0
   0
LINE
   5
258
 100
AcDbEntity
   8
LEVEL001
 100
AcDbLine
   6
DASHDOT
  62
3
  10
 596.32980015517
  20
 279.30132259735
  30
0.0
  11
 619.31190438330
  21
 279.30132259735
  31
0.0
   0
LINE
   5
259
 100
AcDbEntity
   8
LEVEL001
 100
AcDbLine
   6
DASHDOT
  62
3
  10
 600.34837533696
  20
 308.39446931954
  30
0.0
  11
 600.34837533696
  21
 275.07503306913
  31
0.0
   0
LINE
   5
25A
 100
AcDbEntity
   8
LEVEL001
 100
AcDbLine
   6
DASHDOT
  62
3
  10
 615.34837533696
  20
 308.39446931954
  30
0.0
  11
 615.34837533696
  21
 275.07503306913
  31
0.0
   0
LINE
   5
25B
 100
AcDbEntity
   8
LEVEL001
 100
AcDbLine
   6
CONTINUOUS
  62
7
  10
 593.84837533696
  20
 273.60132259734
  30
0.0
  11
 593.84837533696
  21
 310.00132259735
  31
0.0
   0
LINE
   5
25C
 100
AcDbEntity
   8
LEVEL001
 100
AcDbLine
   6
CONTINUOUS
  62
7
  10
 594.14837533696
  20
 273.30132259735
  30
0.0
  11
 621.54837533696
  21
 273.30132259735
  31
0.0
   0
LINE
   5
25D
 100
AcDbEntity
   8
LEVEL001
 100
AcDbLine
   6
CONTINUOUS
  62
7
  10
 621.84837533696
  20
 273.60132259735
  30
0.0
  11
 621.84837533696
  21
 310.00132259734
  31
0.0
   0
LINE
   5
25E
 100
AcDbEntity
   8
LEVEL001
 100
AcDbLine
   6
CONTINUOUS
  62
7
  10
 594.14837533696
  20
 310.30132259735
  30
0.0
  11
 621.54837533696
  21
 310.30132259735
  31
0.0
   0
LINE
   5
25F
 100
AcDbEntity
   8
LEVEL001
 100
AcDbLine
   6
DASHDOT
  62
3
  10
 382.84837533696
  20
 319.08920254440
  30
0.0
  11
 382.84837533696
  21
 260.82404434800
  31
0.0
   0
CIRCLE
   5
260
 100
AcDbEntity
   8
LEVEL001
 100
AcDbCircle
   6
CONTINUOUS
  62
7
  10
 150.34837533696
  20
 279.30132259735
  30
0.0
  40
 2.3500000000000
   0
CIRCLE
   5
261
 100
AcDbEntity
   8
LEVEL001
 100
AcDbCircle
   6
CONTINUOUS
  62
7
  10
 150.34837533696
  20
 304.30132259735
  30
0.0
  40
 2.3500000000000
   0
CIRCLE
   5
262
 100
AcDbEntity
   8
LEVEL001
 100
AcDbCircle
   6
CONTINUOUS
  62
7
  10
 165.34837533696
  20
 304.30132259735
  30
0.0
  40
 2.3500000000000
   0
CIRCLE
   5
263
 100
AcDbEntity
   8
LEVEL001
 100
AcDbCircle
   6
CONTINUOUS
  62
7
  10
 165.34837533696
  20
 279.30132259735
  30
0.0
  40
 2.3500000000000
   0
ARC
   5
264
 100
AcDbEntity
   8
LEVEL001
   6
CONTINUOUS
  62
7
 100
AcDbCircle
  10
 144.14837533696
  20
 310.00132259733
  30
0.0
  40
 0.30000000000000
 100
AcDbArc
  50
 90.000000000005
  51
 179.99999999699
   0
POINT
   5
265
 100
AcDbEntity
   8
LEVEL001
 100
AcDbPoint
  62
7
  10
 143.84837533696
  20
 310.30132259735
  30
0.0
   0
ARC
   5
266
 100
AcDbEntity
   8
LEVEL001
   6
CONTINUOUS
  62
7
 100
AcDbCircle
  10
 171.54837533697
  20
 310.00132259735
  30
0.0
  40
 0.30000000000000
 100
AcDbArc
  50
0.0
  51
 90.000000002296
   0
POINT
   5
267
 100
AcDbEntity
   8
LEVEL001
 100
AcDbPoint
  62
7
  10
 171.84837533696
  20
 310.30132259735
  30
0.0
   0
ARC
   5
268
 100
AcDbEntity
   8
LEVEL001
   6
CONTINUOUS
  62
7
 100
AcDbCircle
  10
 171.54837533696
  20
 273.60132259732
  30
0.0
  40
 0.30000000000000
 100
AcDbArc
  50
 270.00000000001
  51
 0.47224875910369E-8
   0
POINT
   5
269
 100
AcDbEntity
   8
LEVEL001
 100
AcDbPoint
  62
7
  10
 171.84837533696
  20
 273.30132259735
  30
0.0
   0
ARC
   5
26A
 100
AcDbEntity
   8
LEVEL001
   6
CONTINUOUS
  62
7
 100
AcDbCircle
  10
 144.14837533696
  20
 273.60132259732
  30
0.0
  40
 0.30000000000000
 100
AcDbArc
  50
 179.99999999597
  51
 269.99999999999
   0
POINT
   5
26B
 100
AcDbEntity
   8
LEVEL001
 100
AcDbPoint
  62
7
  10
 143.84837533696
  20
 273.30132259735
  30
0.0
   0
POINT
   5
26C
 100
AcDbEntity
   8
LEVEL001
 100
AcDbPoint
  62
15
  10
 159.80837533696
  20
 301.30132259735
  30
0.0
   0
ARC
   5
26D
 100
AcDbEntity
   8
LEVEL001
   6
CONTINUOUS
  62
15
 100
AcDbCircle
  10
 158.84837533696
  20
 302.30132259735
  30
0.0
  40
 1.0000000000000
 100
AcDbArc
  50
 269.99999999993
  51
0.0
   0
POINT
   5
26E
 100
AcDbEntity
   8
LEVEL001
 100
AcDbPoint
  62
15
  10
 155.88837533696
  20
 301.30132259735
  30
0.0
   0
ARC
   5
26F
 100
AcDbEntity
   8
LEVEL001
   6
CONTINUOUS
  62
15
 100
AcDbCircle
  10
 156.84837533696
  20
 302.30132259734
  30
0.0
  40
 1.0000000000000
 100
AcDbArc
  50
 179.99999999996
  51
 270.00000000000
   0
POINT
   5
270
 100
AcDbEntity
   8
LEVEL001
 100
AcDbPoint
  62
15
  10
 155.88837533696
  20
 307.40132259735
  30
0.0
   0
ARC
   5
271
 100
AcDbEntity
   8
LEVEL001
   6
CONTINUOUS
  62
15
 100
AcDbCircle
  10
 156.84837533696
  20
 306.40132259735
  30
0.0
  40
 1.0000000000000
 100
AcDbArc
  50
 89.999999999980
  51
 180.00000000000
   0
POINT
   5
272
 100
AcDbEntity
   8
LEVEL001
 100
AcDbPoint
  62
15
  10
 159.80837533696
  20
 307.40132259735
  30
0.0
   0
ARC
   5
273
 100
AcDbEntity
   8
LEVEL001
   6
CONTINUOUS
  62
15
 100
AcDbCircle
  10
 158.84837533696
  20
 306.40132259734
  30
0.0
  40
 1.0000000000000
 100
AcDbArc
  50
 0.12376174376511E-9
  51
 90.000000000000
   0
ARC
   5
274
 100
AcDbEntity
   8
LEVEL001
   6
CONTINUOUS
  62
15
 100
AcDbCircle
  10
 155.59837533696
  20
 294.05132259735
  30
0.0
  40
 1.0000000000000
 100
AcDbArc
  50
 269.99999999993
  51
0.0
   0
POINT
   5
275
 100
AcDbEntity
   8
LEVEL001
 100
AcDbPoint
  62
15
  10
 156.59837533696
  20
 293.05132259735
  30
0.0
   0
ARC
   5
276
 100
AcDbEntity
   8
LEVEL001
   6
CONTINUOUS
  62
15
 100
AcDbCircle
  10
 155.59837533696
  20
 298.30132259735
  30
0.0
  40
 1.0000000000000
 100
AcDbArc
  50
0.0
  51
 90.000000000042
   0
POINT
   5
277
 100
AcDbEntity
   8
LEVEL001
 100
AcDbPoint
  62
15
  10
 156.59837533696
  20
 299.30132259735
  30
0.0
   0
ARC
   5
278
 100
AcDbEntity
   8
LEVEL001
   6
CONTINUOUS
  62
15
 100
AcDbCircle
  10
 155.59837533696
  20
 289.55132259734
  30
0.0
  40
 1.0000000000000
 100
AcDbArc
  50
 0.39082655925824E-10
  51
 90.000000000000
   0
POINT
   5
279
 100
AcDbEntity
   8
LEVEL001
 100
AcDbPoint
  62
15
  10
 156.59837533696
  20
 290.55132259735
  30
0.0
   0
ARC
   5
27A
 100
AcDbEntity
   8
LEVEL001
   6
CONTINUOUS
  62
15
 100
AcDbCircle
  10
 155.59837533696
  20
 285.30132259735
  30
0.0
  40
 1.0000000000000
 100
AcDbArc
  50
 269.99999999993
  51
0.0
   0
POINT
   5
27B
 100
AcDbEntity
   8
LEVEL001
 100
AcDbPoint
  62
15
  10
 156.59837533696
  20
 284.30132259735
  30
0.0
   0
ARC
   5
27C
 100
AcDbEntity
   8
LEVEL001
   6
CONTINUOUS
  62
15
 100
AcDbCircle
  10
 148.34837533696
  20
 289.55132259735
  30
0.0
  40
 1.0000000000000
 100
AcDbArc
  50
 90.000000000000
  51
 180.00000000007
   0
POINT
   5
27D
 100
AcDbEntity
   8
LEVEL001
 100
AcDbPoint
  62
15
  10
 147.34837533696
  20
 290.55132259735
  30
0.0
   0
ARC
   5
27E
 100
AcDbEntity
   8
LEVEL001
   6
CONTINUOUS
  62
15
 100
AcDbCircle
  10
 148.34837533696
  20
 285.30132259734
  30
0.0
  40
 1.0000000000000
 100
AcDbArc
  50
 179.99999999996
  51
 270.00000000000
   0
POINT
   5
27F
 100
AcDbEntity
   8
LEVEL001
 100
AcDbPoint
  62
15
  10
 147.34837533696
  20
 284.30132259735
  30
0.0
   0
ARC
   5
280
 100
AcDbEntity
   8
LEVEL001
   6
CONTINUOUS
  62
15
 100
AcDbCircle
  10
 148.34837533696
  20
 298.30132259735
  30
0.0
  40
 1.0000000000000
 100
AcDbArc
  50
 90.000000000000
  51
 180.00000000007
   0
POINT
   5
281
 100
AcDbEntity
   8
LEVEL001
 100
AcDbPoint
  62
15
  10
 147.34837533696
  20
 299.30132259735
  30
0.0
   0
ARC
   5
282
 100
AcDbEntity
   8
LEVEL001
   6
CONTINUOUS
  62
15
 100
AcDbCircle
  10
 148.34837533696
  20
 294.05132259735
  30
0.0
  40
 1.0000000000000
 100
AcDbArc
  50
 180.00000000000
  51
 269.99999999996
   0
POINT
   5
283
 100
AcDbEntity
   8
LEVEL001
 100
AcDbPoint
  62
15
  10
 147.34837533696
  20
 293.05132259735
  30
0.0
   0
POINT
   5
284
 100
AcDbEntity
   8
LEVEL001
 100
AcDbPoint
  62
15
  10
 155.88837533696
  20
 282.30132259735
  30
0.0
   0
ARC
   5
285
 100
AcDbEntity
   8
LEVEL001
   6
CONTINUOUS
  62
15
 100
AcDbCircle
  10
 156.84837533696
  20
 281.30132259735
  30
0.0
  40
 1.0000000000000
 100
AcDbArc
  50
 90.000000000000
  51
 180.00000000007
   0
POINT
   5
286
 100
AcDbEntity
   8
LEVEL001
 100
AcDbPoint
  62
15
  10
 159.80837533696
  20
 282.30132259735
  30
0.0
   0
ARC
   5
287
 100
AcDbEntity
   8
LEVEL001
   6
CONTINUOUS
  62
15
 100
AcDbCircle
  10
 158.84837533696
  20
 281.30132259735
  30
0.0
  40
 1.0000000000000
 100
AcDbArc
  50
0.0
  51
 90.000000000039
   0
POINT
   5
288
 100
AcDbEntity
   8
LEVEL001
 100
AcDbPoint
  62
15
  10
 159.80837533696
  20
 276.20132259735
  30
0.0
   0
ARC
   5
289
 100
AcDbEntity
   8
LEVEL001
   6
CONTINUOUS
  62
15
 100
AcDbCircle
  10
 158.84837533696
  20
 277.20132259735
  30
0.0
  40
 1.0000000000000
 100
AcDbArc
  50
 270.00000000000
  51
0.0
   0
POINT
   5
28A
 100
AcDbEntity
   8
LEVEL001
 100
AcDbPoint
  62
15
  10
 155.88837533696
  20
 276.20132259735
  30
0.0
   0
ARC
   5
28B
 100
AcDbEntity
   8
LEVEL001
   6
CONTINUOUS
  62
15
 100
AcDbCircle
  10
 156.84837533696
  20
 277.20132259735
  30
0.0
  40
 1.0000000000000
 100
AcDbArc
  50
 180.00000000000
  51
 270.00000000004
   0
LINE
   5
28C
 100
AcDbEntity
   8
LEVEL001
 100
AcDbLine
   6
CONTINUOUS
  62
15
  10
 159.84837533696
  20
 302.30132259735
  30
0.0
  11
 159.84837533696
  21
 306.40132259735
  31
0.0
   0
LINE
   5
28D
 100
AcDbEntity
   8
LEVEL001
 100
AcDbLine
   6
CONTINUOUS
  62
15
  10
 158.84837533696
  20
 301.30132259735
  30
0.0
  11
 156.84837533696
  21
 301.30132259735
  31
0.0
   0
LINE
   5
28E
 100
AcDbEntity
   8
LEVEL001
 100
AcDbLine
   6
CONTINUOUS
  62
15
  10
 155.84837533696
  20
 302.30132259734
  30
0.0
  11
 155.84837533696
  21
 306.40132259735
  31
0.0
   0
LINE
   5
28F
 100
AcDbEntity
   8
LEVEL001
 100
AcDbLine
   6
CONTINUOUS
  62
15
  10
 158.84837533696
  20
 307.40132259735
  30
0.0
  11
 156.84837533696
  21
 307.40132259735
  31
0.0
   0
LINE
   5
290
 100
AcDbEntity
   8
LEVEL001
 100
AcDbLine
   6
CONTINUOUS
  62
15
  10
 159.84837533696
  20
 281.30132259735
  30
0.0
  11
 159.84837533696
  21
 277.20132259735
  31
0.0
   0
LINE
   5
291
 100
AcDbEntity
   8
LEVEL001
 100
AcDbLine
   6
CONTINUOUS
  62
15
  10
 158.84837533696
  20
 282.30132259735
  30
0.0
  11
 156.84837533696
  21
 282.30132259735
  31
0.0
   0
LINE
   5
292
 100
AcDbEntity
   8
LEVEL001
 100
AcDbLine
   6
CONTINUOUS
  62
15
  10
 155.84837533696
  20
 281.30132259735
  30
0.0
  11
 155.84837533696
  21
 277.20132259735
  31
0.0
   0
LINE
   5
293
 100
AcDbEntity
   8
LEVEL001
 100
AcDbLine
   6
CONTINUOUS
  62
15
  10
 158.84837533696
  20
 276.20132259735
  30
0.0
  11
 156.84837533696
  21
 276.20132259735
  31
0.0
   0
LINE
   5
294
 100
AcDbEntity
   8
LEVEL001
 100
AcDbLine
   6
CONTINUOUS
  62
15
  10
 156.59837533696
  20
 294.05132259735
  30
0.0
  11
 156.59837533696
  21
 298.30132259735
  31
0.0
   0
LINE
   5
295
 100
AcDbEntity
   8
LEVEL001
 100
AcDbLine
   6
CONTINUOUS
  62
15
  10
 155.59837533696
  20
 293.05132259735
  30
0.0
  11
 148.34837533696
  21
 293.05132259735
  31
0.0
   0
LINE
   5
296
 100
AcDbEntity
   8
LEVEL001
 100
AcDbLine
   6
CONTINUOUS
  62
15
  10
 155.59837533696
  20
 299.30132259735
  30
0.0
  11
 148.34837533696
  21
 299.30132259735
  31
0.0
   0
LINE
   5
297
 100
AcDbEntity
   8
LEVEL001
 100
AcDbLine
   6
CONTINUOUS
  62
15
  10
 147.34837533696
  20
 294.05132259735
  30
0.0
  11
 147.34837533696
  21
 298.30132259735
  31
0.0
   0
LINE
   5
298
 100
AcDbEntity
   8
LEVEL001
 100
AcDbLine
   6
CONTINUOUS
  62
15
  10
 156.59837533696
  20
 285.30132259735
  30
0.0
  11
 156.59837533696
  21
 289.55132259735
  31
0.0
   0
LINE
   5
299
 100
AcDbEntity
   8
LEVEL001
 100
AcDbLine
   6
CONTINUOUS
  62
15
  10
 147.34837533696
  20
 285.30132259734
  30
0.0
  11
 147.34837533696
  21
 289.55132259735
  31
0.0
   0
LINE
   5
29A
 100
AcDbEntity
   8
LEVEL001
 100
AcDbLine
   6
CONTINUOUS
  62
15
  10
 155.59837533696
  20
 290.55132259735
  30
0.0
  11
 148.34837533696
  21
 290.55132259735
  31
0.0
   0
LINE
   5
29B
 100
AcDbEntity
   8
LEVEL001
 100
AcDbLine
   6
CONTINUOUS
  62
15
  10
 155.59837533696
  20
 284.30132259735
  30
0.0
  11
 148.34837533696
  21
 284.30132259735
  31
0.0
   0
ARC
   5
29C
 100
AcDbEntity
   8
LEVEL001
   6
CONTINUOUS
  62
15
 100
AcDbCircle
  10
 160.09837533696
  20
 294.05132259735
  30
0.0
  40
 1.0000000000000
 100
AcDbArc
  50
 180.00000000000
  51
 269.99999999996
   0
POINT
   5
29D
 100
AcDbEntity
   8
LEVEL001
 100
AcDbPoint
  62
15
  10
 159.09837533696
  20
 293.05132259735
  30
0.0
   0
ARC
   5
29E
 100
AcDbEntity
   8
LEVEL001
   6
CONTINUOUS
  62
15
 100
AcDbCircle
  10
 160.09837533696
  20
 298.30132259735
  30
0.0
  40
 1.0000000000000
 100
AcDbArc
  50
 90.000000000065
  51
 180.00000000000
   0
POINT
   5
29F
 100
AcDbEntity
   8
LEVEL001
 100
AcDbPoint
  62
15
  10
 159.09837533696
  20
 299.30132259735
  30
0.0
   0
ARC
   5
2A0
 100
AcDbEntity
   8
LEVEL001
   6
CONTINUOUS
  62
15
 100
AcDbCircle
  10
 160.09837533696
  20
 289.55132259735
  30
0.0
  40
 1.0000000000000
 100
AcDbArc
  50
 90.000000000000
  51
 180.00000000007
   0
POINT
   5
2A1
 100
AcDbEntity
   8
LEVEL001
 100
AcDbPoint
  62
15
  10
 159.09837533696
  20
 290.55132259735
  30
0.0
   0
ARC
   5
2A2
 100
AcDbEntity
   8
LEVEL001
   6
CONTINUOUS
  62
15
 100
AcDbCircle
  10
 160.09837533696
  20
 285.30132259735
  30
0.0
  40
 1.0000000000000
 100
AcDbArc
  50
 180.00000000000
  51
 269.99999999996
   0
POINT
   5
2A3
 100
AcDbEntity
   8
LEVEL001
 100
AcDbPoint
  62
15
  10
 159.09837533696
  20
 284.30132259735
  30
0.0
   0
LINE
   5
2A4
 100
AcDbEntity
   8
LEVEL001
 100
AcDbLine
   6
CONTINUOUS
  62
15
  10
 159.09837533696
  20
 294.05132259735
  30
0.0
  11
 159.09837533696
  21
 298.30132259735
  31
0.0
   0
LINE
   5
2A5
 100
AcDbEntity
   8
LEVEL001
 100
AcDbLine
   6
CONTINUOUS
  62
15
  10
 160.09837533696
  20
 293.05132259735
  30
0.0
  11
 167.34837533696
  21
 293.05132259735
  31
0.0
   0
LINE
   5
2A6
 100
AcDbEntity
   8
LEVEL001
 100
AcDbLine
   6
CONTINUOUS
  62
15
  10
 160.09837533696
  20
 299.30132259735
  30
0.0
  11
 167.34837533696
  21
 299.30132259735
  31
0.0
   0
LINE
   5
2A7
 100
AcDbEntity
   8
LEVEL001
 100
AcDbLine
   6
CONTINUOUS
  62
15
  10
 159.09837533696
  20
 285.30132259735
  30
0.0
  11
 159.09837533696
  21
 289.55132259735
  31
0.0
   0
LINE
   5
2A8
 100
AcDbEntity
   8
LEVEL001
 100
AcDbLine
   6
CONTINUOUS
  62
15
  10
 160.09837533696
  20
 290.55132259735
  30
0.0
  11
 167.34837533696
  21
 290.55132259735
  31
0.0
   0
LINE
   5
2A9
 100
AcDbEntity
   8
LEVEL001
 100
AcDbLine
   6
CONTINUOUS
  62
15
  10
 160.09837533696
  20
 284.30132259735
  30
0.0
  11
 167.34837533696
  21
 284.30132259735
  31
0.0
   0
ARC
   5
2AA
 100
AcDbEntity
   8
LEVEL001
   6
CONTINUOUS
  62
15
 100
AcDbCircle
  10
 167.34837533696
  20
 289.55132259734
  30
0.0
  40
 1.0000000000000
 100
AcDbArc
  50
 0.39082655925824E-10
  51
 90.000000000000
   0
POINT
   5
2AB
 100
AcDbEntity
   8
LEVEL001
 100
AcDbPoint
  62
15
  10
 168.34837533696
  20
 290.55132259735
  30
0.0
   0
ARC
   5
2AC
 100
AcDbEntity
   8
LEVEL001
   6
CONTINUOUS
  62
15
 100
AcDbCircle
  10
 167.34837533696
  20
 285.30132259735
  30
0.0
  40
 1.0000000000000
 100
AcDbArc
  50
 270.00000000000
  51
0.0
   0
POINT
   5
2AD
 100
AcDbEntity
   8
LEVEL001
 100
AcDbPoint
  62
15
  10
 168.34837533696
  20
 284.30132259735
  30
0.0
   0
ARC
   5
2AE
 100
AcDbEntity
   8
LEVEL001
   6
CONTINUOUS
  62
15
 100
AcDbCircle
  10
 167.34837533696
  20
 298.30132259734
  30
0.0
  40
 1.0000000000000
 100
AcDbArc
  50
 0.39082655925824E-10
  51
 90.000000000000
   0
POINT
   5
2AF
 100
AcDbEntity
   8
LEVEL001
 100
AcDbPoint
  62
15
  10
 168.34837533696
  20
 299.30132259735
  30
0.0
   0
ARC
   5
2B0
 100
AcDbEntity
   8
LEVEL001
   6
CONTINUOUS
  62
15
 100
AcDbCircle
  10
 167.34837533696
  20
 294.05132259735
  30
0.0
  40
 1.0000000000000
 100
AcDbArc
  50
 269.99999999993
  51
0.0
   0
POINT
   5
2B1
 100
AcDbEntity
   8
LEVEL001
 100
AcDbPoint
  62
15
  10
 168.34837533696
  20
 293.05132259735
  30
0.0
   0
LINE
   5
2B2
 100
AcDbEntity
   8
LEVEL001
 100
AcDbLine
   6
CONTINUOUS
  62
15
  10
 168.34837533696
  20
 294.05132259735
  30
0.0
  11
 168.34837533696
  21
 298.30132259735
  31
0.0
   0
LINE
   5
2B3
 100
AcDbEntity
   8
LEVEL001
 100
AcDbLine
   6
CONTINUOUS
  62
15
  10
 168.34837533696
  20
 285.30132259734
  30
0.0
  11
 168.34837533696
  21
 289.55132259735
  31
0.0
   0
LINE
   5
2B4
 100
AcDbEntity
   8
LEVEL001
 100
AcDbLine
   6
DASHDOT
  62
3
  10
 169.36695051874
  20
 304.30132259735
  30
0.0
  11
 146.38484629061
  21
 304.30132259735
  31
0.0
   0
LINE
   5
2B5
 100
AcDbEntity
   8
LEVEL001
 100
AcDbLine
   6
DASHDOT
  62
3
  10
 169.36695051874
  20
 279.30132259735
  30
0.0
  11
 146.38484629061
  21
 279.30132259735
  31
0.0
   0
LINE
   5
2B6
 100
AcDbEntity
   8
LEVEL001
 100
AcDbLine
   6
DASHDOT
  62
3
  10
 165.34837533696
  20
 308.39446931954
  30
0.0
  11
 165.34837533696
  21
 275.07503306913
  31
0.0
   0
LINE
   5
2B7
 100
AcDbEntity
   8
LEVEL001
 100
AcDbLine
   6
DASHDOT
  62
3
  10
 150.34837533696
  20
 308.39446931954
  30
0.0
  11
 150.34837533696
  21
 275.07503306913
  31
0.0
   0
LINE
   5
2B8
 100
AcDbEntity
   8
LEVEL001
 100
AcDbLine
   6
DASHDOT
  62
3
  10
 157.84837533696
  20
 314.98221104357
  30
0.0
  11
 157.84837533696
  21
 269.26028380659
  31
0.0
   0
LINE
   5
2B9
 100
AcDbEntity
   8
LEVEL001
 100
AcDbLine
   6
CONTINUOUS
  62
7
  10
 171.84837533696
  20
 273.60132259734
  30
0.0
  11
 171.84837533696
  21
 310.00132259735
  31
0.0
   0
LINE
   5
2BA
 100
AcDbEntity
   8
LEVEL001
 100
AcDbLine
   6
CONTINUOUS
  62
7
  10
 171.54837533696
  20
 273.30132259735
  30
0.0
  11
 144.14837533696
  21
 273.30132259735
  31
0.0
   0
LINE
   5
2BB
 100
AcDbEntity
   8
LEVEL001
 100
AcDbLine
   6
CONTINUOUS
  62
7
  10
 143.84837533696
  20
 273.60132259735
  30
0.0
  11
 143.84837533696
  21
 310.00132259734
  31
0.0
   0
LINE
   5
2BC
 100
AcDbEntity
   8
LEVEL001
 100
AcDbLine
   6
CONTINUOUS
  62
7
  10
 171.54837533696
  20
 310.30132259735
  30
0.0
  11
 144.14837533696
  21
 310.30132259735
  31
0.0
   0
LINE
   5
2BD
 100
AcDbEntity
   8
LEVEL001
 100
AcDbLine
   6
DASHDOT
  62
3
  10
 69.093441112588
  20
 291.80132259735
  30
0.0
  11
 694.42532513711
  21
 291.80132259735
  31
0.0
   0
LINE
   5
2BE
 100
AcDbEntity
   8
LEVEL001
 100
AcDbLine
   6
CONTINUOUS
  62
15
  10
 621.84837533696
  20
 309.30132259735
  30
0.0
  11
 682.84837533696
  21
 309.30132259735
  31
0.0
   0
LINE
   5
2BF
 100
AcDbEntity
   8
LEVEL001
 100
AcDbLine
   6
CONTINUOUS
  62
15
  10
 621.84837533696
  20
 274.30132259735
  30
0.0
  11
 682.84837533696
  21
 274.30132259735
  31
0.0
   0
LINE
   5
2C0
 100
AcDbEntity
   8
LEVEL001
 100
AcDbLine
   6
CONTINUOUS
  62
15
  10
 82.848375336957
  20
 274.30132259735
  30
0.0
  11
 143.84837533696
  21
 274.30132259735
  31
0.0
   0
LINE
   5
2C1
 100
AcDbEntity
   8
LEVEL001
 100
AcDbLine
   6
CONTINUOUS
  62
15
  10
 82.848375336957
  20
 309.30132259735
  30
0.0
  11
 143.84837533696
  21
 309.30132259735
  31
0.0
   0
LINE
   5
2C2
 100
AcDbEntity
   8
LEVEL001
 100
AcDbLine
   6
CONTINUOUS
  62
15
  10
 82.848375336957
  20
 309.30132259735
  30
0.0
  11
 82.848375336957
  21
 274.30132259735
  31
0.0
   0
LINE
   5
2C3
 100
AcDbEntity
   8
LEVEL001
 100
AcDbLine
   6
CONTINUOUS
  62
15
  10
 682.84837533696
  20
 309.30132259735
  30
0.0
  11
 682.84837533696
  21
 274.30132259735
  31
0.0
   0
ELLIPSE
   5
2C4
 100
AcDbEntity
   8
LEVEL001
   6
CONTINUOUS
  62
15
 100
AcDbEllipse
  10
 391.17998331453
  20
 300.55132259735
  30
0.0
  11
0.0
  21
-8.7500000000000
  31
0.0
  40
 0.62667612265204
  41
0.0
  42
 6.2831853071796
   0
ELLIPSE
   5
2C5
 100
AcDbEntity
   8
LEVEL001
   6
CONTINUOUS
  62
15
 100
AcDbEllipse
  10
 391.17998331453
  20
 283.05132259735
  30
0.0
  11
0.0
  21
-8.7500000000000
  31
0.0
  40
 0.62667612265204
  41
 3.1415926535898
  42
0.0
   0
LINE
   5
2C6
 100
AcDbEntity
   8
LEVEL001
 100
AcDbLine
   6
CONTINUOUS
  62
15
  10
 391.17998331453
  20
 309.30132259735
  30
0.0
  11
 593.84837533696
  21
 309.30132259735
  31
0.0
   0
LINE
   5
2C7
 100
AcDbEntity
   8
LEVEL001
 100
AcDbLine
   6
CONTINUOUS
  62
15
  10
 391.17998331453
  20
 274.30132259735
  30
0.0
  11
 593.84837533696
  21
 274.30132259735
  31
0.0
   0
ELLIPSE
   5
2C8
 100
AcDbEntity
   8
LEVEL001
   6
CONTINUOUS
  62
15
 100
AcDbEllipse
  10
 374.51676735939
  20
 283.05132259735
  30
0.0
  11
0.0
  21
 8.7500000000000
  31
0.0
  40
 0.62667612265204
  41
0.0
  42
 6.2831853071796
   0
ELLIPSE
   5
2C9
 100
AcDbEntity
   8
LEVEL001
   6
CONTINUOUS
  62
15
 100
AcDbEllipse
  10
 374.51676735939
  20
 300.55132259735
  30
0.0
  11
0.0
  21
 8.7500000000000
  31
0.0
  40
 0.62667612265204
  41
 3.1415926535898
  42
 0.22204460492503E-15
   0
LINE
   5
2CA
 100
AcDbEntity
   8
LEVEL001
 100
AcDbLine
   6
CONTINUOUS
  62
15
  10
 171.84837533696
  20
 274.30132259735
  30
0.0
  11
 374.51676735939
  21
 274.30132259735
  31
0.0
   0
LINE
   5
2CB
 100
AcDbEntity
   8
LEVEL001
 100
AcDbLine
   6
CONTINUOUS
  62
15
  10
 171.84837533696
  20
 309.30132259735
  30
0.0
  11
 374.51676735939
  21
 309.30132259735
  31
0.0
   0
LINE
   5
2CC
 100
AcDbEntity
   8
LEVEL001
 100
AcDbLine
   6
DASHDOT
  62
3
  10
 607.84837533696
  20
 314.98221104357
  30
0.0
  11
 607.84837533696
  21
 263.10191653979
  31
0.0
   0
DIMENSION
   5
2CD
 100
AcDbEntity
   8
LEVEL001
   6
CONTINUOUS
  62
3
 100
AcDbDimension
   2
*D11
  10
 621.84837533696
  20
 245.16361362144
  30
0.0
  11
 607.84837533696
  21
 245.16361362144
  31
0.0
  70
0
   3
GMM001
 100
AcDbAlignedDimension
  13
 593.84837533696
  23
 273.30132259735
  33
0.0
  14
 621.84837533696
  24
 273.30132259735
  34
0.0
 100
AcDbRotatedDimension
   0
DIMENSION
   5
2CE
 100
AcDbEntity
   8
LEVEL001
   6
CONTINUOUS
  62
3
 100
AcDbDimension
   2
*D12
  10
 615.34837533696
  20
 338.36108696332
  30
0.0
  11
 607.84837533696
  21
 338.36108696332
  31
0.0
  70
0
   3
GMM001
 100
AcDbAlignedDimension
  13
 600.34837533696
  23
 338.36108696332
  33
0.0
  14
 615.34837533696
  24
 308.39446931954
  34
0.0
 100
AcDbRotatedDimension
   0
DIMENSION
   5
2CF
 100
AcDbEntity
   8
LEVEL001
   6
CONTINUOUS
  62
3
 100
AcDbDimension
   2
*D13
  10
 682.84837533696
  20
 338.36108696332
  30
0.0
  11
 649.09837533696
  21
 338.36108696332
  31
0.0
  70
0
   3
GMM001
 100
AcDbAlignedDimension
  13
 615.34837533696
  23
 338.36108696332
  33
0.0
  14
 682.84837533696
  24
 309.30132259735
  34
0.0
 100
AcDbRotatedDimension
   0
DIMENSION
   5
2D0
 100
AcDbEntity
   8
LEVEL001
   6
CONTINUOUS
  62
3
 100
AcDbDimension
   2
*D14
  10
 165.34837533696
  20
 338.36108696332
  30
0.0
  11
 157.84837533696
  21
 338.36108696332
  31
0.0
  70
0
   3
GMM001
 100
AcDbAlignedDimension
  13
 150.34837533696
  23
 308.39446931954
  33
0.0
  14
 165.34837533696
  24
 338.36108696332
  34
0.0
 100
AcDbRotatedDimension
   0
DIMENSION
   5
2D1
 100
AcDbEntity
   8
LEVEL001
   6
CONTINUOUS
  62
3
 100
AcDbDimension
   2
*D15
  10
 150.34837533696
  20
 338.36108696332
  30
0.0
  11
 116.59837533696
  21
 338.36108696332
  31
0.0
  70
0
   3
GMM001
 100
AcDbAlignedDimension
  13
 82.848375336957
  23
 309.30132259735
  33
0.0
  14
 150.34837533696
  24
 338.36108696332
  34
0.0
 100
AcDbRotatedDimension
   0
DIMENSION
   5
2D2
 100
AcDbEntity
   8
LEVEL001
   6
CONTINUOUS
  62
3
 100
AcDbDimension
   2
*D16
  10
 600.34837533696
  20
 338.36108696332
  30
0.0
  11
 382.84837533696
  21
 338.36108696332
  31
0.0
  70
0
   1
\A1;235üE435üE585
   3
GMM005
 100
AcDbAlignedDimension
  13
 165.34837533696
  23
 308.39446931954
  33
0.0
  14
 600.34837533696
  24
 308.39446931954
  34
0.0
 100
AcDbRotatedDimension
   0
LINE
   5
2D3
 100
AcDbEntity
   8
LEVEL001
 100
AcDbLine
   6
CONTINUOUS
  62
3
  10
 341.89450387865
  20
 340.97353223202
  30
0.0
  11
 362.66146553057
  21
 340.97353223202
  31
0.0
   0
LINE
   5
2D4
 100
AcDbEntity
   8
LEVEL001
 100
AcDbLine
   6
CONTINUOUS
  62
3
  10
 402.53403190226
  20
 340.97353223202
  30
0.0
  11
 423.30099355418
  21
 340.97353223202
  31
0.0
   0
ENDSEC
  0
SECTION
  2
OBJECTS
  0
DICTIONARY
  5
C
100
AcDbDictionary
  3
ACAD_GROUP
350
D
  3
ACAD_MLINESTYLE
350
1B
  0
DICTIONARY
  5
D
102
{ACAD_REACTORS
330
C
102
}
100
AcDbDictionary
  0
DICTIONARY
  5
1B
102
{ACAD_REACTORS
330
C
102
}
100
AcDbDictionary
  3
STANDARD
350
1C
  0
MLINESTYLE
  5
1C
102
{ACAD_REACTORS
330
1B
102
}
100
AcDbMlineStyle
  2
STANDARD
 70
     0
  3

 62
   256
 51
90.0
 52
90.0
 71
     2
 49
0.5
 62
   256
  6
BYLAYER
 49
-0.5
 62
   256
  6
BYLAYER
  0
ENDSEC
   0
EOF
