   0
SECTION
   2
HEADER
   9
$ACADVER
   1
AC1015
   9
$LIMMIN
  10
0.0
  20
0.0
   9
$LIMMAX
  10
 840.00000000000
  20
 594.00000000000
   9
$EXTMIN
  10
0.0
  20
0.0
  30
0.0
   9
$EXTMAX
  10
 840.00000000000
  20
 594.00000000000
  30
0.0
   9
$LTSCALE
  40
 16.800000000000
   9
$HANDSEED
   5
341
   0
ENDSEC
   0
SECTION
   2
TABLES
  0
TABLE
  2
VPORT
  5
8
100
AcDbSymbolTable
 70
     1
  0
VPORT
  5
340
100
AcDbSymbolTableRecord
100
AcDbViewportTableRecord
  2
*ACTIVE
 70
     0
 10
0.0
 20
0.0
 11
1.0
 21
1.0
  12
 420.00000000000
  22
 297.00000000000
 13
0.0
 23
0.0
 14
1.0
 24
1.0
 15
0.0
 25
0.0
 16
0.0
 26
0.0
 36
1.0
 17
0.0
 27
0.0
 37
0.0
  40
 840.00000000000
  41
 1.4787878787879
 42
50.0
 43
0.0
 44
0.0
 50
0.0
 51
0.0
 71
     0
 72
   100
 73
     1
 74
     1
 75
     0
 76
     0
 77
     0
 78
     0
  0
ENDTAB
  0
TABLE
  2
LTYPE
  5
5
100
AcDbSymbolTable
 70
    25
  0
LTYPE
  5
12
100
AcDbSymbolTableRecord
100
AcDbLinetypeTableRecord
  2
BYBLOCK
 70
     0
  3

 72
    65
 73
     0
 40
0.0
  0
LTYPE
  5
13
100
AcDbSymbolTableRecord
100
AcDbLinetypeTableRecord
  2
BYLAYER
 70
     0
  3

 72
    65
 73
     0
 40
0.0
  0
LTYPE
  5
14
100
AcDbSymbolTableRecord
100
AcDbLinetypeTableRecord
  2
CONTINUOUS
 70
     0
  3
Solid line
 72
    65
 73
     0
 40
0.0
  0
LTYPE
  5
20
100
AcDbSymbolTableRecord
100
AcDbLinetypeTableRecord
  2
BORDER
 70
     0
  3
__ __ . __ __ . __ __ . __ __ . __ __ . __ __ .
 72
    65
 73
     6
 40
1.75
 49
0.5
 74
     0
 49
-0.25
 74
     0
 49
0.5
 74
     0
 49
-0.25
 74
     0
 49
0.0
 74
     0
 49
-0.25
 74
     0
  0
LTYPE
  5
21
100
AcDbSymbolTableRecord
100
AcDbLinetypeTableRecord
  2
BORDER2
 70
     0
  3
__.__.__.__.__.__.__.__.__.__.__.__.__.__.__.__
 72
    65
 73
     6
 40
0.875
 49
0.25
 74
     0
 49
-0.125
 74
     0
 49
0.25
 74
     0
 49
-0.125
 74
     0
 49
0.0
 74
     0
 49
-0.125
 74
     0
  0
LTYPE
  5
22
100
AcDbSymbolTableRecord
100
AcDbLinetypeTableRecord
  2
BORDERX2
 70
     0
  3
____  ____  .  ____  ____  .  ____  ____  .  __
 72
    65
 73
     6
 40
3.5
 49
1.0
 74
     0
 49
-0.5
 74
     0
 49
1.0
 74
     0
 49
-0.5
 74
     0
 49
0.0
 74
     0
 49
-0.5
 74
     0
  0
LTYPE
  5
23
100
AcDbSymbolTableRecord
100
AcDbLinetypeTableRecord
  2
CENTER
 70
     0
  3
____ _ ____ _ ____ _ ____ _ ____ _ ____ _ ____ 
 72
    65
 73
     4
 40
2.0
 49
1.25
 74
     0
 49
-0.25
 74
     0
 49
0.25
 74
     0
 49
-0.25
 74
     0
  0
LTYPE
  5
24
100
AcDbSymbolTableRecord
100
AcDbLinetypeTableRecord
  2
CENTER2
 70
     0
  3
___ _ ___ _ ___ _ ___ _ ___ _ ___ _ ___ _ ___ _
 72
    65
 73
     4
 40
1.125
 49
0.75
 74
     0
 49
-0.125
 74
     0
 49
0.125
 74
     0
 49
-0.125
 74
     0
  0
LTYPE
  5
25
100
AcDbSymbolTableRecord
100
AcDbLinetypeTableRecord
  2
CENTERX2
 70
     0
  3
________  __  ________  __  ________  __  _____
 72
    65
 73
     4
 40
4.0
 49
2.5
 74
     0
 49
-0.5
 74
     0
 49
0.5
 74
     0
 49
-0.5
 74
     0
  0
LTYPE
  5
26
100
AcDbSymbolTableRecord
100
AcDbLinetypeTableRecord
  2
DASHDOT
 70
     0
  3
__ . __ . __ . __ . __ . __ . __ . __ . __ . __
 72
    65
 73
     4
 40
1.0
 49
0.5
 74
     0
 49
-0.25
 74
     0
 49
0.0
 74
     0
 49
-0.25
 74
     0
  0
LTYPE
  5
27
100
AcDbSymbolTableRecord
100
AcDbLinetypeTableRecord
  2
DASHDOT2
 70
     0
  3
_._._._._._._._._._._._._._._._._._._._._._._._
 72
    65
 73
     4
 40
0.5
 49
0.25
 74
     0
 49
-0.125
 74
     0
 49
0.0
 74
     0
 49
-0.125
 74
     0
  0
LTYPE
  5
28
100
AcDbSymbolTableRecord
100
AcDbLinetypeTableRecord
  2
DASHDOTX2
 70
     0
  3
____  .  ____  .  ____  .  ____  .  ____  .  __
 72
    65
 73
     4
 40
2.0
 49
1.0
 74
     0
 49
-0.5
 74
     0
 49
0.0
 74
     0
 49
-0.5
 74
     0
  0
LTYPE
  5
29
100
AcDbSymbolTableRecord
100
AcDbLinetypeTableRecord
  2
DASHED
 70
     0
  3
__ __ __ __ __ __ __ __ __ __ __ __ __ __ __ __
 72
    65
 73
     2
 40
0.75
 49
0.5
 74
     0
 49
-0.25
 74
     0
  0
LTYPE
  5
2A
100
AcDbSymbolTableRecord
100
AcDbLinetypeTableRecord
  2
DASHED2
 70
     0
  3
_ _ _ _ _ _ _ _ _ _ _ _ _ _ _ _ _ _ _ _ _ _ _ _
 72
    65
 73
     2
 40
0.375
 49
0.25
 74
     0
 49
-0.125
 74
     0
  0
LTYPE
  5
2B
100
AcDbSymbolTableRecord
100
AcDbLinetypeTableRecord
  2
DASHEDX2
 70
     0
  3
____  ____  ____  ____  ____  ____  ____  ____ 
 72
    65
 73
     2
 40
1.5
 49
1.0
 74
     0
 49
-0.5
 74
     0
  0
LTYPE
  5
2C
100
AcDbSymbolTableRecord
100
AcDbLinetypeTableRecord
  2
DIVIDE
 70
     0
  3
____ . . ____ . . ____ . . ____ . . ____ . . __
 72
    65
 73
     6
 40
1.25
 49
0.5
 74
     0
 49
-0.25
 74
     0
 49
0.0
 74
     0
 49
-0.25
 74
     0
 49
0.0
 74
     0
 49
-0.25
 74
     0
  0
LTYPE
  5
2D
100
AcDbSymbolTableRecord
100
AcDbLinetypeTableRecord
  2
DIVIDE2
 70
     0
  3
__..__..__..__..__..__..__..__..__..__..__..__.
 72
    65
 73
     6
 40
0.625
 49
0.25
 74
     0
 49
-0.125
 74
     0
 49
0.0
 74
     0
 49
-0.125
 74
     0
 49
0.0
 74
     0
 49
-0.125
 74
     0
  0
LTYPE
  5
2E
100
AcDbSymbolTableRecord
100
AcDbLinetypeTableRecord
  2
DIVIDEX2
 70
     0
  3
________  .  .  ________  .  .  ________  .  . 
 72
    65
 73
     6
 40
2.5
 49
1.0
 74
     0
 49
-0.5
 74
     0
 49
0.0
 74
     0
 49
-0.5
 74
     0
 49
0.0
 74
     0
 49
-0.5
 74
     0
  0
LTYPE
  5
2F
100
AcDbSymbolTableRecord
100
AcDbLinetypeTableRecord
  2
DOT
 70
     0
  3
. . . . . . . . . . . . . . . . . . . . . . . .
 72
    65
 73
     2
 40
0.25
 49
0.0
 74
     0
 49
-0.25
 74
     0
  0
LTYPE
  5
30
100
AcDbSymbolTableRecord
100
AcDbLinetypeTableRecord
  2
DOT2
 70
     0
  3
...............................................
 72
    65
 73
     2
 40
0.125
 49
0.0
 74
     0
 49
-0.125
 74
     0
  0
LTYPE
  5
31
100
AcDbSymbolTableRecord
100
AcDbLinetypeTableRecord
  2
DOTX2
 70
     0
  3
.  .  .  .  .  .  .  .  .  .  .  .  .  .  .  . 
 72
    65
 73
     2
 40
0.5
 49
0.0
 74
     0
 49
-0.5
 74
     0
  0
LTYPE
  5
32
100
AcDbSymbolTableRecord
100
AcDbLinetypeTableRecord
  2
HIDDEN
 70
     0
  3
__ __ __ __ __ __ __ __ __ __ __ __ __ __ __ __
 72
    65
 73
     2
 40
0.375
 49
0.25
 74
     0
 49
-0.125
 74
     0
  0
LTYPE
  5
33
100
AcDbSymbolTableRecord
100
AcDbLinetypeTableRecord
  2
HIDDEN2
 70
     0
  3
_ _ _ _ _ _ _ _ _ _ _ _ _ _ _ _ _ _ _ _ _ _ _ _
 72
    65
 73
     2
 40
0.1875
 49
0.125
 74
     0
 49
-0.0625
 74
     0
  0
LTYPE
  5
34
100
AcDbSymbolTableRecord
100
AcDbLinetypeTableRecord
  2
HIDDENX2
 70
     0
  3
____ ____ ____ ____ ____ ____ ____ ____ ____ __
 72
    65
 73
     2
 40
0.75
 49
0.5
 74
     0
 49
-0.25
 74
     0
  0
LTYPE
  5
35
100
AcDbSymbolTableRecord
100
AcDbLinetypeTableRecord
  2
PHANTOM
 70
     0
  3
______  __  __  ______  __  __  ______  __  __ 
 72
    65
 73
     6
 40
2.5
 49
1.25
 74
     0
 49
-0.25
 74
     0
 49
0.25
 74
     0
 49
-0.25
 74
     0
 49
0.25
 74
     0
 49
-0.25
 74
     0
  0
LTYPE
  5
36
100
AcDbSymbolTableRecord
100
AcDbLinetypeTableRecord
  2
PHANTOM2
 70
     0
  3
___ _ _ ___ _ _ ___ _ _ ___ _ _ ___ _ _ ___ _ _
 72
    65
 73
     6
 40
1.25
 49
0.625
 74
     0
 49
-0.125
 74
     0
 49
0.125
 74
     0
 49
-0.125
 74
     0
 49
0.125
 74
     0
 49
-0.125
 74
     0
  0
LTYPE
  5
37
100
AcDbSymbolTableRecord
100
AcDbLinetypeTableRecord
  2
PHANTOMX2
 70
     0
  3
____________    ____    ____    ____________   
 72
    65
 73
     6
 40
5.0
 49
2.5
 74
     0
 49
-0.5
 74
     0
 49
0.5
 74
     0
 49
-0.5
 74
     0
 49
0.5
 74
     0
 49
-0.5
 74
     0
  0
ENDTAB
   0
TABLE
   2
LAYER
   5
2
 100
AcDbSymbolTable
  70
2
   0
LAYER
   5
E
 100
AcDbSymbolTableRecord
 100
AcDbLayerTableRecord
   2
0
  70
0
  62
7
   6
CONTINUOUS
 390
30
   0
LAYER
   5
39
 100
AcDbSymbolTableRecord
 100
AcDbLayerTableRecord
   2
LEVEL001
  70
0
  62
7
   6
CONTINUOUS
 390
30
   0
ENDTAB
  0
TABLE
  2
STYLE
  5
3
100
AcDbSymbolTable
  70
3
  0
STYLE
  5
F
100
AcDbSymbolTableRecord
100
AcDbTextStyleTableRecord
  2
STANDARD
 70
     0
 40
0.0
 41
1.0
 50
0.0
 71
     0
 42
0.2
  3
TXT
  4
BIGFONT
  0
STYLE
  5
38
100
AcDbSymbolTableRecord
100
AcDbTextStyleTableRecord
  2
STANDARD1
 70
     4
 40
0.0
 41
1.0
 50
0.0
 71
     0
 42
0.2
  3
TXT
  4
BIGFONT
   0
STYLE
   5
3A
 100
AcDbSymbolTableRecord
 100
AcDbTextStyleTableRecord
   2
GMM001
  70
0
  40
0.0
  41
 0.95000000000000
  50
0.0
  71
     0
  42
1.0
   3
txt.shx
   4
bigfont.shx
   0
ENDTAB
  0
TABLE
  2
VIEW
  5
6
100
AcDbSymbolTable
 70
     0
  0
ENDTAB
  0
TABLE
  2
UCS
  5
7
100
AcDbSymbolTable
 70
     0
  0
ENDTAB
  0
TABLE
  2
APPID
  5
9
100
AcDbSymbolTable
 70
     1
  0
APPID
  5
10
100
AcDbSymbolTableRecord
100
AcDbRegAppTableRecord
  2
ACAD
 70
     0
  0
ENDTAB
   0
TABLE
   2
DIMSTYLE
   5
A
 100
AcDbSymbolTable
  70
9
 100
AcDbDimStyleTable
  0
DIMSTYLE
105
1D
100
AcDbSymbolTableRecord
100
AcDbDimStyleTableRecord
  2
STANDARD
 70
     0
  3

  4

  5

  6

  7

 40
1.0
 41
0.18
 42
0.0625
 43
0.38
 44
0.18
 45
0.0
 46
0.0
 47
0.0
 48
0.0
140
0.18
141
0.09
142
0.0
143
25.4
144
1.0
145
0.0
146
1.0
147
0.09
 71
     0
 72
     0
 73
     1
 74
     1
 75
     0
 76
     0
 77
     0
 78
     0
170
     0
171
     2
172
     0
173
     0
174
     0
175
     0
176
     0
177
     0
178
     0
270
     2
271
     4
272
     4
273
     2
274
     2
340
F
275
     0
280
     0
281
     0
282
     0
283
     1
284
     0
285
     0
286
     0
287
     3
288
     0
   0
DIMSTYLE
 105
3B
 100
AcDbSymbolTableRecord
 100
AcDbDimStyleTableRecord
   2
GMM001
  70
0
   3

   4

   5

   6
_OPEN30
   7
_OPEN30
  40
 1.0000000000000
  41
 6.0000000000000
  42
 2.0000000000000
  43
 16.000000000000
  44
 2.0000000000000
  45
0.0
  46
0.0
  47
0.0
  48
0.0
 140
 8.0000000000000
 141
 2.0000000000000
 142
0.0
 143
 0.39400000000000E-1
 144
 1.0000000000000
 145
0.0
 146
 0.62500000000000
 147
 3.4285714285714
  71
0
  72
0
  73
0
  74
0
  75
0
  76
0
  77
3
  78
8
 170
0
 171
2
 172
1
 173
1
 174
0
 175
0
 176
3
 177
3
 178
3
 270
2
 271
6
 272
0
 273
2
 274
2
 340
3A
 275
0
 280
0
 281
0
 282
0
 283
1
 284
0
 285
0
 286
0
 287
3
 288
0
   0
DIMSTYLE
 105
3C
 100
AcDbSymbolTableRecord
 100
AcDbDimStyleTableRecord
   2
GMM002
  70
0
   3
%%c<>
   4

   5

   6
_OPEN30
   7
_OPEN30
  40
 1.0000000000000
  41
 6.0000000000000
  42
 2.0000000000000
  43
 16.000000000000
  44
 2.0000000000000
  45
0.0
  46
0.0
  47
0.0
  48
0.0
 140
 8.0000000000000
 141
 2.0000000000000
 142
0.0
 143
 0.39400000000000E-1
 144
 1.0000000000000
 145
0.0
 146
 0.62500000000000
 147
 3.4285714285714
  71
0
  72
0
  73
0
  74
0
  75
0
  76
0
  77
3
  78
8
 170
0
 171
2
 172
1
 173
1
 174
0
 175
0
 176
3
 177
3
 178
3
 270
2
 271
6
 272
0
 273
2
 274
2
 340
3A
 275
0
 280
0
 281
0
 282
0
 283
1
 284
0
 285
0
 286
0
 287
3
 288
0
   0
DIMSTYLE
 105
3D
 100
AcDbSymbolTableRecord
 100
AcDbDimStyleTableRecord
   2
GMM003
  70
0
   3
400üE<>
   4

   5

   6
_OPEN30
   7
_OPEN30
  40
 1.0000000000000
  41
 6.0000000000000
  42
 2.0000000000000
  43
 16.000000000000
  44
 2.0000000000000
  45
0.0
  46
0.0
  47
0.0
  48
0.0
 140
 8.0000000000000
 141
 2.0000000000000
 142
0.0
 143
 0.39400000000000E-1
 144
 1.0000000000000
 145
0.0
 146
 0.62500000000000
 147
 3.4285714285714
  71
0
  72
0
  73
0
  74
0
  75
0
  76
0
  77
3
  78
8
 170
0
 171
2
 172
1
 173
1
 174
0
 175
0
 176
3
 177
3
 178
3
 270
2
 271
6
 272
0
 273
2
 274
2
 340
3A
 275
0
 280
0
 281
0
 282
0
 283
1
 284
0
 285
0
 286
0
 287
3
 288
0
   0
DIMSTYLE
 105
3E
 100
AcDbSymbolTableRecord
 100
AcDbDimStyleTableRecord
   2
GMM004
  70
0
   3
250üE<>
   4

   5

   6
_OPEN30
   7
_OPEN30
  40
 1.0000000000000
  41
 6.0000000000000
  42
 2.0000000000000
  43
 16.000000000000
  44
 2.0000000000000
  45
0.0
  46
0.0
  47
0.0
  48
0.0
 140
 8.0000000000000
 141
 2.0000000000000
 142
0.0
 143
 0.39400000000000E-1
 144
 1.0000000000000
 145
0.0
 146
 0.62500000000000
 147
 3.4285714285714
  71
0
  72
0
  73
0
  74
0
  75
0
  76
0
  77
3
  78
8
 170
0
 171
2
 172
1
 173
1
 174
0
 175
0
 176
3
 177
3
 178
3
 270
2
 271
6
 272
0
 273
2
 274
2
 340
3A
 275
0
 280
0
 281
0
 282
0
 283
1
 284
0
 285
0
 286
0
 287
3
 288
0
   0
DIMSTYLE
 105
3F
 100
AcDbSymbolTableRecord
 100
AcDbDimStyleTableRecord
   2
GMM005
  70
0
   3

   4

   5

   6
_OPEN30
   7
_OPEN30
  40
 1.0000000000000
  41
 6.0000000000000
  42
 2.0000000000000
  43
 16.000000000000
  44
 2.0000000000000
  45
0.0
  46
0.0
  47
0.0
  48
0.0
 140
 8.0000000000000
 141
 2.0000000000000
 142
0.0
 143
 0.39400000000000E-1
 144
 1.0000000000000
 145
0.0
 146
 0.62500000000000
 147
0.0
  71
0
  72
0
  73
0
  74
0
  75
0
  76
0
  77
3
  78
8
 170
0
 171
2
 172
1
 173
1
 174
0
 175
0
 176
3
 177
3
 178
3
 270
2
 271
6
 272
0
 273
2
 274
2
 340
3A
 275
0
 280
0
 281
0
 282
0
 283
1
 284
0
 285
0
 286
0
 287
5
 288
1
   0
DIMSTYLE
 105
40
 100
AcDbSymbolTableRecord
 100
AcDbDimStyleTableRecord
   2
GMM006
  70
0
   3
223üE<>
   4

   5

   6
_OPEN30
   7
_OPEN30
  40
 1.0000000000000
  41
 6.0000000000000
  42
 2.0000000000000
  43
 16.000000000000
  44
 2.0000000000000
  45
0.0
  46
0.0
  47
0.0
  48
0.0
 140
 8.0000000000000
 141
 2.0000000000000
 142
0.0
 143
 0.39400000000000E-1
 144
 1.0000000000000
 145
0.0
 146
 0.62500000000000
 147
 3.4285714285714
  71
0
  72
0
  73
0
  74
0
  75
0
  76
0
  77
3
  78
8
 170
0
 171
2
 172
1
 173
1
 174
0
 175
0
 176
3
 177
3
 178
3
 270
2
 271
6
 272
0
 273
2
 274
2
 340
3A
 275
0
 280
0
 281
0
 282
0
 283
1
 284
0
 285
0
 286
0
 287
3
 288
0
   0
DIMSTYLE
 105
41
 100
AcDbSymbolTableRecord
 100
AcDbDimStyleTableRecord
   2
GMM007
  70
0
   3
241üE<>
   4

   5

   6
_OPEN30
   7
_OPEN30
  40
 1.0000000000000
  41
 6.0000000000000
  42
 2.0000000000000
  43
 16.000000000000
  44
 2.0000000000000
  45
0.0
  46
0.0
  47
0.0
  48
0.0
 140
 8.0000000000000
 141
 2.0000000000000
 142
0.0
 143
 0.39400000000000E-1
 144
 1.0000000000000
 145
0.0
 146
 0.62500000000000
 147
 3.4285714285714
  71
0
  72
0
  73
0
  74
0
  75
0
  76
0
  77
3
  78
8
 170
0
 171
2
 172
1
 173
1
 174
0
 175
0
 176
3
 177
3
 178
3
 270
2
 271
6
 272
0
 273
2
 274
2
 340
3A
 275
0
 280
0
 281
0
 282
0
 283
1
 284
0
 285
0
 286
0
 287
3
 288
0
   0
ENDTAB
  0
TABLE
  2
BLOCK_RECORD
  5
1
100
AcDbSymbolTable
 70
     0
  0
BLOCK_RECORD
  5
18
100
AcDbSymbolTableRecord
100
AcDbBlockTableRecord
  2
*MODEL_SPACE
  0
BLOCK_RECORD
  5
15
100
AcDbSymbolTableRecord
100
AcDbBlockTableRecord
  2
*PAPER_SPACE
   0
BLOCK_RECORD
   5
42
 100
AcDbSymbolTableRecord
 100
AcDbBlockTableRecord
   2
*D1
   0
BLOCK_RECORD
   5
43
 100
AcDbSymbolTableRecord
 100
AcDbBlockTableRecord
   2
*D2
   0
BLOCK_RECORD
   5
44
 100
AcDbSymbolTableRecord
 100
AcDbBlockTableRecord
   2
*D3
   0
BLOCK_RECORD
   5
45
 100
AcDbSymbolTableRecord
 100
AcDbBlockTableRecord
   2
*D4
   0
BLOCK_RECORD
   5
46
 100
AcDbSymbolTableRecord
 100
AcDbBlockTableRecord
   2
*D5
   0
BLOCK_RECORD
   5
47
 100
AcDbSymbolTableRecord
 100
AcDbBlockTableRecord
   2
*D6
   0
BLOCK_RECORD
   5
48
 100
AcDbSymbolTableRecord
 100
AcDbBlockTableRecord
   2
*D7
   0
BLOCK_RECORD
   5
49
 100
AcDbSymbolTableRecord
 100
AcDbBlockTableRecord
   2
*D8
   0
BLOCK_RECORD
   5
4A
 100
AcDbSymbolTableRecord
 100
AcDbBlockTableRecord
   2
*D9
   0
BLOCK_RECORD
   5
4B
 100
AcDbSymbolTableRecord
 100
AcDbBlockTableRecord
   2
*D10
   0
BLOCK_RECORD
   5
4C
 100
AcDbSymbolTableRecord
 100
AcDbBlockTableRecord
   2
*D11
   0
BLOCK_RECORD
   5
4D
 100
AcDbSymbolTableRecord
 100
AcDbBlockTableRecord
   2
*D12
   0
BLOCK_RECORD
   5
4E
 100
AcDbSymbolTableRecord
 100
AcDbBlockTableRecord
   2
*D13
   0
BLOCK_RECORD
   5
4F
 100
AcDbSymbolTableRecord
 100
AcDbBlockTableRecord
   2
*D14
   0
BLOCK_RECORD
   5
50
 100
AcDbSymbolTableRecord
 100
AcDbBlockTableRecord
   2
*D15
   0
BLOCK_RECORD
   5
51
 100
AcDbSymbolTableRecord
 100
AcDbBlockTableRecord
   2
*D16
   0
BLOCK_RECORD
   5
52
 100
AcDbSymbolTableRecord
 100
AcDbBlockTableRecord
   2
*D17
   0
BLOCK_RECORD
   5
53
 100
AcDbSymbolTableRecord
 100
AcDbBlockTableRecord
   2
*D18
   0
BLOCK_RECORD
   5
54
 100
AcDbSymbolTableRecord
 100
AcDbBlockTableRecord
   2
*D19
   0
BLOCK_RECORD
   5
55
 100
AcDbSymbolTableRecord
 100
AcDbBlockTableRecord
   2
*D20
   0
BLOCK_RECORD
   5
56
 100
AcDbSymbolTableRecord
 100
AcDbBlockTableRecord
   2
*D21
   0
BLOCK_RECORD
   5
57
 100
AcDbSymbolTableRecord
 100
AcDbBlockTableRecord
   2
_ARCHTICK
   0
BLOCK_RECORD
   5
58
 100
AcDbSymbolTableRecord
 100
AcDbBlockTableRecord
   2
_BOXBLANK
   0
BLOCK_RECORD
   5
59
 100
AcDbSymbolTableRecord
 100
AcDbBlockTableRecord
   2
_BOXFILLED
   0
BLOCK_RECORD
   5
5A
 100
AcDbSymbolTableRecord
 100
AcDbBlockTableRecord
   2
_CLOSED
   0
BLOCK_RECORD
   5
5B
 100
AcDbSymbolTableRecord
 100
AcDbBlockTableRecord
   2
_CLOSEDBLANK
   0
BLOCK_RECORD
   5
5C
 100
AcDbSymbolTableRecord
 100
AcDbBlockTableRecord
   2
_DATUMBLANK
   0
BLOCK_RECORD
   5
5D
 100
AcDbSymbolTableRecord
 100
AcDbBlockTableRecord
   2
_DATUMFILLED
   0
BLOCK_RECORD
   5
5E
 100
AcDbSymbolTableRecord
 100
AcDbBlockTableRecord
   2
_DOT
   0
BLOCK_RECORD
   5
5F
 100
AcDbSymbolTableRecord
 100
AcDbBlockTableRecord
   2
_DOTBLANK
   0
BLOCK_RECORD
   5
60
 100
AcDbSymbolTableRecord
 100
AcDbBlockTableRecord
   2
_DOTSMALL
   0
BLOCK_RECORD
   5
61
 100
AcDbSymbolTableRecord
 100
AcDbBlockTableRecord
   2
_INTEGRAL
   0
BLOCK_RECORD
   5
62
 100
AcDbSymbolTableRecord
 100
AcDbBlockTableRecord
   2
_NONE
   0
BLOCK_RECORD
   5
63
 100
AcDbSymbolTableRecord
 100
AcDbBlockTableRecord
   2
_OBLIQUE
   0
BLOCK_RECORD
   5
64
 100
AcDbSymbolTableRecord
 100
AcDbBlockTableRecord
   2
_OPEN
   0
BLOCK_RECORD
   5
65
 100
AcDbSymbolTableRecord
 100
AcDbBlockTableRecord
   2
_OPEN30
   0
BLOCK_RECORD
   5
66
 100
AcDbSymbolTableRecord
 100
AcDbBlockTableRecord
   2
_OPEN90
   0
BLOCK_RECORD
   5
67
 100
AcDbSymbolTableRecord
 100
AcDbBlockTableRecord
   2
_ORIGIN
   0
ENDTAB
   0
ENDSEC
  0
SECTION
  2
BLOCKS
  0
BLOCK
  5
19
100
AcDbEntity
  8
0
100
AcDbBlockBegin
  2
*MODEL_SPACE
 70
     0
 10
0.0
 20
0.0
 30
0.0
  3
*MODEL_SPACE
  1

  0
ENDBLK
  5
1A
100
AcDbEntity
  8
0
100
AcDbBlockEnd
  0
BLOCK
  5
16
100
AcDbEntity
 67
     1
  8
0
100
AcDbBlockBegin
  2
*PAPER_SPACE
 70
     0
 10
0.0
 20
0.0
 30
0.0
  3
*PAPER_SPACE
  1

  0
ENDBLK
  5
17
100
AcDbEntity
 67
     1
  8
0
100
AcDbBlockEnd
   0
BLOCK
   5
68
 100
AcDbEntity
   8
0
 100
AcDbBlockBegin
   2
_ARCHTICK
  70
0
  10
0.0
  20
0.0
  30
0.0
   3
_ARCHTICK
   0
POLYLINE
   5
69
 100
AcDbEntity
   8
0
   6
BYBLOCK
  62
0
 100
AcDb2dPolyline
  66
1
  10
0.0
  20
0.0
  30
0.0
  70
1
  40
 0.15000000000000
  41
 0.15000000000000
   0
VERTEX
   5
6A
 100
AcDbEntity
   8
0
   6
BYBLOCK
  62
0
 100
AcDbVertex
 100
AcDb2dVertex
  10
-0.50000000000000
  20
-0.50000000000000
  30
0.0
  40
 0.15000000000000
  41
 0.15000000000000
   0
VERTEX
   5
6B
 100
AcDbEntity
   8
0
   6
BYBLOCK
  62
0
 100
AcDbVertex
 100
AcDb2dVertex
  10
 0.50000000000000
  20
 0.50000000000000
  30
0.0
  40
 0.15000000000000
  41
 0.15000000000000
   0
SEQEND
   5
6C
 100
AcDbEntity
   8
0
   6
BYBLOCK
  62
0
   0
ENDBLK
   5
6D
 100
AcDbEntity
   8
0
 100
AcDbBlockEnd
   0
BLOCK
   5
6E
 100
AcDbEntity
   8
0
 100
AcDbBlockBegin
   2
_OBLIQUE
  70
0
  10
0.0
  20
0.0
  30
0.0
   3
_OBLIQUE
   0
LINE
   5
6F
 100
AcDbEntity
   8
0
 100
AcDbLine
   6
BYBLOCK
  62
0
  10
-0.50000000000000
  20
-0.50000000000000
  30
0.0
  11
 0.50000000000000
  21
 0.50000000000000
  31
0.0
   0
ENDBLK
   5
70
 100
AcDbEntity
   8
0
 100
AcDbBlockEnd
   0
BLOCK
   5
71
 100
AcDbEntity
   8
0
 100
AcDbBlockBegin
   2
_BOXBLANK
  70
0
  10
0.0
  20
0.0
  30
0.0
   3
_BOXBLANK
   0
LINE
   5
72
 100
AcDbEntity
   8
0
 100
AcDbLine
   6
BYBLOCK
  62
0
  10
-0.50000000000000
  20
-0.50000000000000
  30
0.0
  11
 0.50000000000000
  21
-0.50000000000000
  31
0.0
   0
LINE
   5
73
 100
AcDbEntity
   8
0
 100
AcDbLine
   6
BYBLOCK
  62
0
  10
 0.50000000000000
  20
-0.50000000000000
  30
0.0
  11
 0.50000000000000
  21
 0.50000000000000
  31
0.0
   0
LINE
   5
74
 100
AcDbEntity
   8
0
 100
AcDbLine
   6
BYBLOCK
  62
0
  10
 0.50000000000000
  20
 0.50000000000000
  30
0.0
  11
-0.50000000000000
  21
 0.50000000000000
  31
0.0
   0
LINE
   5
75
 100
AcDbEntity
   8
0
 100
AcDbLine
   6
BYBLOCK
  62
0
  10
-0.50000000000000
  20
 0.50000000000000
  30
0.0
  11
-0.50000000000000
  21
-0.50000000000000
  31
0.0
   0
LINE
   5
76
 100
AcDbEntity
   8
0
 100
AcDbLine
   6
BYBLOCK
  62
0
  10
-0.50000000000000
  20
0.0
  30
0.0
  11
-1.0000000000000
  21
0.0
  31
0.0
   0
ENDBLK
   5
77
 100
AcDbEntity
   8
0
 100
AcDbBlockEnd
   0
BLOCK
   5
78
 100
AcDbEntity
   8
0
 100
AcDbBlockBegin
   2
_BOXFILLED
  70
0
  10
0.0
  20
0.0
  30
0.0
   3
_BOXFILLED
   0
SOLID
   5
79
 100
AcDbEntity
   8
0
 100
AcDbTrace
   6
BYBLOCK
  62
0
  10
-0.50000000000000
  20
 0.50000000000000
  30
0.0
  11
 0.50000000000000
  21
 0.50000000000000
  31
0.0
  12
-0.50000000000000
  22
-0.50000000000000
  32
0.0
  13
 0.50000000000000
  23
-0.50000000000000
  33
0.0
   0
LINE
   5
7A
 100
AcDbEntity
   8
0
 100
AcDbLine
   6
BYBLOCK
  62
0
  10
-0.50000000000000
  20
0.0
  30
0.0
  11
-1.0000000000000
  21
0.0
  31
0.0
   0
ENDBLK
   5
7B
 100
AcDbEntity
   8
0
 100
AcDbBlockEnd
   0
BLOCK
   5
7C
 100
AcDbEntity
   8
0
 100
AcDbBlockBegin
   2
_CLOSED
  70
0
  10
0.0
  20
0.0
  30
0.0
   3
_CLOSED
   0
LINE
   5
7D
 100
AcDbEntity
   8
0
 100
AcDbLine
   6
BYBLOCK
  62
0
  10
-1.0000000000000
  20
 0.16666666666667
  30
0.0
  11
0.0
  21
0.0
  31
0.0
   0
LINE
   5
7E
 100
AcDbEntity
   8
0
 100
AcDbLine
   6
BYBLOCK
  62
0
  10
0.0
  20
0.0
  30
0.0
  11
-1.0000000000000
  21
-0.16666666666667
  31
0.0
   0
LINE
   5
7F
 100
AcDbEntity
   8
0
 100
AcDbLine
   6
BYBLOCK
  62
0
  10
-1.0000000000000
  20
 0.16666666666667
  30
0.0
  11
-1.0000000000000
  21
-0.16666666666667
  31
0.0
   0
LINE
   5
80
 100
AcDbEntity
   8
0
 100
AcDbLine
   6
BYBLOCK
  62
0
  10
0.0
  20
0.0
  30
0.0
  11
-1.0000000000000
  21
0.0
  31
0.0
   0
ENDBLK
   5
81
 100
AcDbEntity
   8
0
 100
AcDbBlockEnd
   0
BLOCK
   5
82
 100
AcDbEntity
   8
0
 100
AcDbBlockBegin
   2
_OPEN
  70
0
  10
0.0
  20
0.0
  30
0.0
   3
_OPEN
   0
LINE
   5
83
 100
AcDbEntity
   8
0
 100
AcDbLine
   6
BYBLOCK
  62
0
  10
-1.0000000000000
  20
 0.16666666666667
  30
0.0
  11
0.0
  21
0.0
  31
0.0
   0
LINE
   5
84
 100
AcDbEntity
   8
0
 100
AcDbLine
   6
BYBLOCK
  62
0
  10
0.0
  20
0.0
  30
0.0
  11
-1.0000000000000
  21
-0.16666666666667
  31
0.0
   0
LINE
   5
85
 100
AcDbEntity
   8
0
 100
AcDbLine
   6
BYBLOCK
  62
0
  10
0.0
  20
0.0
  30
0.0
  11
-1.0000000000000
  21
0.0
  31
0.0
   0
ENDBLK
   5
86
 100
AcDbEntity
   8
0
 100
AcDbBlockEnd
   0
BLOCK
   5
87
 100
AcDbEntity
   8
0
 100
AcDbBlockBegin
   2
_OPEN30
  70
0
  10
0.0
  20
0.0
  30
0.0
   3
_OPEN30
   0
LINE
   5
88
 100
AcDbEntity
   8
0
 100
AcDbLine
   6
BYBLOCK
  62
0
  10
-1.0000000000000
  20
 0.26794919243110
  30
0.0
  11
0.0
  21
0.0
  31
0.0
   0
LINE
   5
89
 100
AcDbEntity
   8
0
 100
AcDbLine
   6
BYBLOCK
  62
0
  10
0.0
  20
0.0
  30
0.0
  11
-1.0000000000000
  21
-0.26794919243110
  31
0.0
   0
LINE
   5
8A
 100
AcDbEntity
   8
0
 100
AcDbLine
   6
BYBLOCK
  62
0
  10
0.0
  20
0.0
  30
0.0
  11
-1.0000000000000
  21
0.0
  31
0.0
   0
ENDBLK
   5
8B
 100
AcDbEntity
   8
0
 100
AcDbBlockEnd
   0
BLOCK
   5
8C
 100
AcDbEntity
   8
0
 100
AcDbBlockBegin
   2
_OPEN90
  70
0
  10
0.0
  20
0.0
  30
0.0
   3
_OPEN90
   0
LINE
   5
8D
 100
AcDbEntity
   8
0
 100
AcDbLine
   6
BYBLOCK
  62
0
  10
-0.50000000000000
  20
 0.50000000000000
  30
0.0
  11
0.0
  21
0.0
  31
0.0
   0
LINE
   5
8E
 100
AcDbEntity
   8
0
 100
AcDbLine
   6
BYBLOCK
  62
0
  10
0.0
  20
0.0
  30
0.0
  11
-0.50000000000000
  21
-0.50000000000000
  31
0.0
   0
LINE
   5
8F
 100
AcDbEntity
   8
0
 100
AcDbLine
   6
BYBLOCK
  62
0
  10
0.0
  20
0.0
  30
0.0
  11
-1.0000000000000
  21
0.0
  31
0.0
   0
ENDBLK
   5
90
 100
AcDbEntity
   8
0
 100
AcDbBlockEnd
   0
BLOCK
   5
91
 100
AcDbEntity
   8
0
 100
AcDbBlockBegin
   2
_CLOSEDBLANK
  70
0
  10
0.0
  20
0.0
  30
0.0
   3
_CLOSEDBLANK
   0
LINE
   5
92
 100
AcDbEntity
   8
0
 100
AcDbLine
   6
BYBLOCK
  62
0
  10
-1.0000000000000
  20
 0.16666666666667
  30
0.0
  11
0.0
  21
0.0
  31
0.0
   0
LINE
   5
93
 100
AcDbEntity
   8
0
 100
AcDbLine
   6
BYBLOCK
  62
0
  10
0.0
  20
0.0
  30
0.0
  11
-1.0000000000000
  21
-0.16666666666667
  31
0.0
   0
LINE
   5
94
 100
AcDbEntity
   8
0
 100
AcDbLine
   6
BYBLOCK
  62
0
  10
-1.0000000000000
  20
 0.16666666666667
  30
0.0
  11
-1.0000000000000
  21
-0.16666666666667
  31
0.0
   0
ENDBLK
   5
95
 100
AcDbEntity
   8
0
 100
AcDbBlockEnd
   0
BLOCK
   5
96
 100
AcDbEntity
   8
0
 100
AcDbBlockBegin
   2
_DOT
  70
0
  10
0.0
  20
0.0
  30
0.0
   3
_DOT
   0
POLYLINE
   5
97
 100
AcDbEntity
   8
0
   6
BYBLOCK
  62
0
 100
AcDb2dPolyline
  66
1
  10
0.0
  20
0.0
  30
0.0
  70
1
  40
 0.50000000000000
  41
 0.50000000000000
   0
VERTEX
   5
98
 100
AcDbEntity
   8
0
   6
BYBLOCK
  62
0
 100
AcDbVertex
 100
AcDb2dVertex
  10
-0.25000000000000
  20
0.0
  30
0.0
  42
 1.0000000000000
  40
 0.50000000000000
  41
 0.50000000000000
   0
VERTEX
   5
99
 100
AcDbEntity
   8
0
   6
BYBLOCK
  62
0
 100
AcDbVertex
 100
AcDb2dVertex
  10
 0.25000000000000
  20
0.0
  30
0.0
  42
 1.0000000000000
  40
 0.50000000000000
  41
 0.50000000000000
   0
SEQEND
   5
9A
 100
AcDbEntity
   8
0
   6
BYBLOCK
  62
0
   0
LINE
   5
9B
 100
AcDbEntity
   8
0
 100
AcDbLine
   6
BYBLOCK
  62
0
  10
-0.50000000000000
  20
0.0
  30
0.0
  11
-1.0000000000000
  21
0.0
  31
0.0
   0
ENDBLK
   5
9C
 100
AcDbEntity
   8
0
 100
AcDbBlockEnd
   0
BLOCK
   5
9D
 100
AcDbEntity
   8
0
 100
AcDbBlockBegin
   2
_DOTSMALL
  70
0
  10
0.0
  20
0.0
  30
0.0
   3
_DOTSMALL
   0
POLYLINE
   5
9E
 100
AcDbEntity
   8
0
   6
BYBLOCK
  62
0
 100
AcDb2dPolyline
  66
1
  10
0.0
  20
0.0
  30
0.0
  70
1
  40
 0.50000000000000
  41
 0.50000000000000
   0
VERTEX
   5
9F
 100
AcDbEntity
   8
0
   6
BYBLOCK
  62
0
 100
AcDbVertex
 100
AcDb2dVertex
  10
-0.62500000000000E-1
  20
0.0
  30
0.0
  42
 1.0000000000000
  40
 0.50000000000000
  41
 0.50000000000000
   0
VERTEX
   5
A0
 100
AcDbEntity
   8
0
   6
BYBLOCK
  62
0
 100
AcDbVertex
 100
AcDb2dVertex
  10
 0.62500000000000E-1
  20
0.0
  30
0.0
  42
 1.0000000000000
  40
 0.50000000000000
  41
 0.50000000000000
   0
SEQEND
   5
A1
 100
AcDbEntity
   8
0
   6
BYBLOCK
  62
0
   0
ENDBLK
   5
A2
 100
AcDbEntity
   8
0
 100
AcDbBlockEnd
   0
BLOCK
   5
A3
 100
AcDbEntity
   8
0
 100
AcDbBlockBegin
   2
_DATUMBLANK
  70
0
  10
0.0
  20
0.0
  30
0.0
   3
_DATUMBLANK
   0
LINE
   5
A4
 100
AcDbEntity
   8
0
 100
AcDbLine
   6
BYBLOCK
  62
0
  10
0.0
  20
 0.57735027000000
  30
0.0
  11
-1.0000000000000
  21
0.0
  31
0.0
   0
LINE
   5
A5
 100
AcDbEntity
   8
0
 100
AcDbLine
   6
BYBLOCK
  62
0
  10
-1.0000000000000
  20
0.0
  30
0.0
  11
0.0
  21
-0.57735027000000
  31
0.0
   0
LINE
   5
A6
 100
AcDbEntity
   8
0
 100
AcDbLine
   6
BYBLOCK
  62
0
  10
0.0
  20
-0.57735027000000
  30
0.0
  11
0.0
  21
 0.57735027000000
  31
0.0
   0
ENDBLK
   5
A7
 100
AcDbEntity
   8
0
 100
AcDbBlockEnd
   0
BLOCK
   5
A8
 100
AcDbEntity
   8
0
 100
AcDbBlockBegin
   2
_DATUMFILLED
  70
0
  10
0.0
  20
0.0
  30
0.0
   3
_DATUMFILLED
   0
SOLID
   5
A9
 100
AcDbEntity
   8
0
 100
AcDbTrace
   6
BYBLOCK
  62
0
  10
0.0
  20
 0.57735027000000
  30
0.0
  11
-1.0000000000000
  21
0.0
  31
0.0
  12
0.0
  22
-0.57735027000000
  32
0.0
  13
0.0
  23
-0.57735027000000
  33
0.0
   0
ENDBLK
   5
AA
 100
AcDbEntity
   8
0
 100
AcDbBlockEnd
   0
BLOCK
   5
AB
 100
AcDbEntity
   8
0
 100
AcDbBlockBegin
   2
_ORIGIN
  70
0
  10
0.0
  20
0.0
  30
0.0
   3
_ORIGIN
   0
CIRCLE
   5
AC
 100
AcDbEntity
   8
0
 100
AcDbCircle
   6
BYBLOCK
  62
0
  10
0.0
  20
0.0
  30
0.0
  40
 0.50000000000000
   0
LINE
   5
AD
 100
AcDbEntity
   8
0
 100
AcDbLine
   6
BYBLOCK
  62
0
  10
0.0
  20
0.0
  30
0.0
  11
-1.0000000000000
  21
0.0
  31
0.0
   0
ENDBLK
   5
AE
 100
AcDbEntity
   8
0
 100
AcDbBlockEnd
   0
BLOCK
   5
AF
 100
AcDbEntity
   8
0
 100
AcDbBlockBegin
   2
_NONE
  70
0
  10
0.0
  20
0.0
  30
0.0
   3
_NONE
   0
CIRCLE
   5
B0
 100
AcDbEntity
   8
0
 100
AcDbCircle
   6
BYBLOCK
  62
0
  10
0.0
  20
0.0
  30
0.0
  40
 0.25000000000000
   0
ENDBLK
   5
B1
 100
AcDbEntity
   8
0
 100
AcDbBlockEnd
   0
BLOCK
   5
B2
 100
AcDbEntity
   8
0
 100
AcDbBlockBegin
   2
_DOTBLANK
  70
0
  10
0.0
  20
0.0
  30
0.0
   3
_DOTBLANK
   0
CIRCLE
   5
B3
 100
AcDbEntity
   8
0
 100
AcDbCircle
   6
BYBLOCK
  62
0
  10
0.0
  20
0.0
  30
0.0
  40
 0.50000000000000
   0
LINE
   5
B4
 100
AcDbEntity
   8
0
 100
AcDbLine
   6
BYBLOCK
  62
0
  10
-0.50000000000000
  20
0.0
  30
0.0
  11
-1.0000000000000
  21
0.0
  31
0.0
   0
ENDBLK
   5
B5
 100
AcDbEntity
   8
0
 100
AcDbBlockEnd
   0
BLOCK
   5
B6
 100
AcDbEntity
   8
0
 100
AcDbBlockBegin
   2
_INTEGRAL
  70
0
  10
0.0
  20
0.0
  30
0.0
   3
_INTEGRAL
   0
ARC
   5
B7
 100
AcDbEntity
   8
0
   6
BYBLOCK
  62
0
 100
AcDbCircle
  10
 0.44488800000000
  20
-0.91335000000000E-1
  30
0.0
  40
 0.45416700000000
 100
AcDbArc
  50
 102.00000000000
  51
 168.00000000000
   0
ARC
   5
B8
 100
AcDbEntity
   8
0
   6
BYBLOCK
  62
0
 100
AcDbCircle
  10
-0.44488800000000
  20
 0.91335000000000E-1
  30
0.0
  40
 0.45416700000000
 100
AcDbArc
  50
 282.00000000000
  51
 348.00000000000
   0
ENDBLK
   5
B9
 100
AcDbEntity
   8
0
 100
AcDbBlockEnd
   0
BLOCK
   5
BA
 100
AcDbEntity
   8
0
 100
AcDbBlockBegin
   2
*D1
  70
65
  10
0.0
  20
0.0
  30
0.0
   3
*D1
   0
LINE
   5
BB
 100
AcDbEntity
   8
LEVEL001
 100
AcDbLine
   6
CONTINUOUS
  62
3
  10
 682.84837533696
  20
 434.48621479322
  30
0.0
  11
 682.84837533696
  21
 362.89489352388
  31
0.0
   0
LINE
   5
BC
 100
AcDbEntity
   8
LEVEL001
 100
AcDbLine
   6
CONTINUOUS
  62
3
  10
 607.84837533696
  20
 364.89489352388
  30
0.0
  11
 645.34837533696
  21
 364.89489352388
  31
0.0
   0
LINE
   5
BD
 100
AcDbEntity
   8
LEVEL001
 100
AcDbLine
   6
CONTINUOUS
  62
3
  10
 682.84837533696
  20
 364.89489352388
  30
0.0
  11
 645.34837533696
  21
 364.89489352388
  31
0.0
   0
INSERT
   5
BE
 100
AcDbEntity
   8
LEVEL001
   6
CONTINUOUS
  62
3
 100
AcDbBlockReference
   2
_OPEN30
  10
 607.84837533696
  20
 364.89489352388
  30
0.0
  41
 6.0000000000000
  42
 6.0000000000000
  43
 6.0000000000000
  50
 180.00000000000
   0
INSERT
   5
BF
 100
AcDbEntity
   8
LEVEL001
   6
CONTINUOUS
  62
3
 100
AcDbBlockReference
   2
_OPEN30
  10
 682.84837533696
  20
 364.89489352388
  30
0.0
  41
 6.0000000000000
  42
 6.0000000000000
  43
 6.0000000000000
  50
0.0
   0
MTEXT
   5
C0
 100
AcDbEntity
   8
LEVEL001
  62
3
 100
AcDbMText
  10
 645.34837533696
  20
 368.32346495245
  30
0.0
  40
 8.0000000000000
  41
0.0
  71
8
  72
1
   1
\A1;75
   7
GMM001
   0
ENDBLK
   5
C1
 100
AcDbEntity
   8
0
 100
AcDbBlockEnd
   0
BLOCK
   5
C2
 100
AcDbEntity
   8
0
 100
AcDbBlockBegin
   2
*D2
  70
65
  10
0.0
  20
0.0
  30
0.0
   3
*D2
   0
LINE
   5
C3
 100
AcDbEntity
   8
LEVEL001
 100
AcDbLine
   6
CONTINUOUS
  62
3
  10
 82.848375336957
  20
 434.48621479322
  30
0.0
  11
 82.848375336957
  21
 362.89489352388
  31
0.0
   0
LINE
   5
C4
 100
AcDbEntity
   8
LEVEL001
 100
AcDbLine
   6
CONTINUOUS
  62
3
  10
 82.848375336957
  20
 364.89489352388
  30
0.0
  11
 120.34837533696
  21
 364.89489352388
  31
0.0
   0
LINE
   5
C5
 100
AcDbEntity
   8
LEVEL001
 100
AcDbLine
   6
CONTINUOUS
  62
3
  10
 157.84837533696
  20
 364.89489352388
  30
0.0
  11
 120.34837533696
  21
 364.89489352388
  31
0.0
   0
INSERT
   5
C6
 100
AcDbEntity
   8
LEVEL001
   6
CONTINUOUS
  62
3
 100
AcDbBlockReference
   2
_OPEN30
  10
 82.848375336957
  20
 364.89489352388
  30
0.0
  41
 6.0000000000000
  42
 6.0000000000000
  43
 6.0000000000000
  50
 180.00000000000
   0
INSERT
   5
C7
 100
AcDbEntity
   8
LEVEL001
   6
CONTINUOUS
  62
3
 100
AcDbBlockReference
   2
_OPEN30
  10
 157.84837533696
  20
 364.89489352388
  30
0.0
  41
 6.0000000000000
  42
 6.0000000000000
  43
 6.0000000000000
  50
0.0
   0
MTEXT
   5
C8
 100
AcDbEntity
   8
LEVEL001
  62
3
 100
AcDbMText
  10
 120.34837533696
  20
 368.32346495245
  30
0.0
  40
 8.0000000000000
  41
0.0
  71
8
  72
1
   1
\A1;75
   7
GMM001
   0
ENDBLK
   5
C9
 100
AcDbEntity
   8
0
 100
AcDbBlockEnd
   0
BLOCK
   5
CA
 100
AcDbEntity
   8
0
 100
AcDbBlockBegin
   2
*D3
  70
65
  10
0.0
  20
0.0
  30
0.0
   3
*D3
   0
LINE
   5
CB
 100
AcDbEntity
   8
LEVEL001
 100
AcDbLine
   6
CONTINUOUS
  62
3
  10
 721.11997109451
  20
 453.98621479322
  30
0.0
  11
 707.99781878113
  21
 453.98621479322
  31
0.0
   0
LINE
   5
CC
 100
AcDbEntity
   8
LEVEL001
 100
AcDbLine
   6
CONTINUOUS
  62
3
  10
 732.66426102601
  20
 393.98621479322
  30
0.0
  11
 707.99781878113
  21
 393.98621479322
  31
0.0
   0
LINE
   5
CD
 100
AcDbEntity
   8
LEVEL001
 100
AcDbLine
   6
CONTINUOUS
  62
3
  10
 709.99781878113
  20
 453.98621479322
  30
0.0
  11
 709.99781878113
  21
 423.98621479322
  31
0.0
   0
LINE
   5
CE
 100
AcDbEntity
   8
LEVEL001
 100
AcDbLine
   6
CONTINUOUS
  62
3
  10
 709.99781878113
  20
 393.98621479322
  30
0.0
  11
 709.99781878113
  21
 423.98621479322
  31
0.0
   0
INSERT
   5
CF
 100
AcDbEntity
   8
LEVEL001
   6
CONTINUOUS
  62
3
 100
AcDbBlockReference
   2
_OPEN30
  10
 709.99781878113
  20
 453.98621479322
  30
0.0
  41
 6.0000000000000
  42
 6.0000000000000
  43
 6.0000000000000
  50
 90.000000000000
   0
INSERT
   5
D0
 100
AcDbEntity
   8
LEVEL001
   6
CONTINUOUS
  62
3
 100
AcDbBlockReference
   2
_OPEN30
  10
 709.99781878113
  20
 393.98621479322
  30
0.0
  41
 6.0000000000000
  42
 6.0000000000000
  43
 6.0000000000000
  50
 270.00000000000
   0
MTEXT
   5
D1
 100
AcDbEntity
   8
LEVEL001
  62
3
 100
AcDbMText
  10
 706.56924735256
  20
 423.98621479322
  30
0.0
  40
 8.0000000000000
  41
0.0
  71
8
  72
1
   1
\A1;60
   7
GMM001
  11
0.0
  21
 1.0000000000000
  31
0.0
   0
ENDBLK
   5
D2
 100
AcDbEntity
   8
0
 100
AcDbBlockEnd
   0
BLOCK
   5
D3
 100
AcDbEntity
   8
0
 100
AcDbBlockBegin
   2
*D4
  70
65
  10
0.0
  20
0.0
  30
0.0
   3
*D4
   0
LINE
   5
D4
 100
AcDbEntity
   8
LEVEL001
 100
AcDbLine
   6
CONTINUOUS
  62
3
  10
 751.16426102601
  20
 471.48621479322
  30
0.0
  11
 795.65608540846
  21
 471.48621479322
  31
0.0
   0
LINE
   5
D5
 100
AcDbEntity
   8
LEVEL001
 100
AcDbLine
   6
CONTINUOUS
  62
3
  10
 765.66426102601
  20
 393.98621479322
  30
0.0
  11
 795.65608540846
  21
 393.98621479322
  31
0.0
   0
LINE
   5
D6
 100
AcDbEntity
   8
LEVEL001
 100
AcDbLine
   6
CONTINUOUS
  62
3
  10
 793.65608540846
  20
 471.48621479322
  30
0.0
  11
 793.65608540846
  21
 432.73621479322
  31
0.0
   0
LINE
   5
D7
 100
AcDbEntity
   8
LEVEL001
 100
AcDbLine
   6
CONTINUOUS
  62
3
  10
 793.65608540846
  20
 393.98621479322
  30
0.0
  11
 793.65608540846
  21
 432.73621479322
  31
0.0
   0
INSERT
   5
D8
 100
AcDbEntity
   8
LEVEL001
   6
CONTINUOUS
  62
3
 100
AcDbBlockReference
   2
_OPEN30
  10
 793.65608540846
  20
 471.48621479322
  30
0.0
  41
 6.0000000000000
  42
 6.0000000000000
  43
 6.0000000000000
  50
 90.000000000000
   0
INSERT
   5
D9
 100
AcDbEntity
   8
LEVEL001
   6
CONTINUOUS
  62
3
 100
AcDbBlockReference
   2
_OPEN30
  10
 793.65608540846
  20
 393.98621479322
  30
0.0
  41
 6.0000000000000
  42
 6.0000000000000
  43
 6.0000000000000
  50
 270.00000000000
   0
MTEXT
   5
DA
 100
AcDbEntity
   8
LEVEL001
  62
3
 100
AcDbMText
  10
 790.22751397989
  20
 432.73621479322
  30
0.0
  40
 8.0000000000000
  41
0.0
  71
8
  72
1
   1
\A1;77.5
   7
GMM001
  11
0.0
  21
 1.0000000000000
  31
0.0
   0
ENDBLK
   5
DB
 100
AcDbEntity
   8
0
 100
AcDbBlockEnd
   0
BLOCK
   5
DC
 100
AcDbEntity
   8
0
 100
AcDbBlockBegin
   2
*D5
  70
65
  10
0.0
  20
0.0
  30
0.0
   3
*D5
   0
LINE
   5
DD
 100
AcDbEntity
   8
LEVEL001
 100
AcDbLine
   6
CONTINUOUS
  62
3
  10
 632.85044236013
  20
 393.98621479322
  30
0.0
  11
 656.65739906437
  21
 393.98621479322
  31
0.0
   0
LINE
   5
DE
 100
AcDbEntity
   8
LEVEL001
 100
AcDbLine
   6
CONTINUOUS
  62
3
  10
 654.65739906437
  20
 393.98621479322
  30
0.0
  11
 654.65739906437
  21
 415.23621479322
  31
0.0
   0
LINE
   5
DF
 100
AcDbEntity
   8
LEVEL001
 100
AcDbLine
   6
CONTINUOUS
  62
3
  10
 654.65739906437
  20
 436.48621479322
  30
0.0
  11
 654.65739906437
  21
 415.23621479322
  31
0.0
   0
INSERT
   5
E0
 100
AcDbEntity
   8
LEVEL001
   6
CONTINUOUS
  62
3
 100
AcDbBlockReference
   2
_OPEN30
  10
 654.65739906437
  20
 393.98621479322
  30
0.0
  41
 6.0000000000000
  42
 6.0000000000000
  43
 6.0000000000000
  50
 270.00000000000
   0
INSERT
   5
E1
 100
AcDbEntity
   8
LEVEL001
   6
CONTINUOUS
  62
3
 100
AcDbBlockReference
   2
_OPEN30
  10
 654.65739906437
  20
 436.48621479322
  30
0.0
  41
 6.0000000000000
  42
 6.0000000000000
  43
 6.0000000000000
  50
 90.000000000000
   0
MTEXT
   5
E2
 100
AcDbEntity
   8
LEVEL001
  62
3
 100
AcDbMText
  10
 651.22882763580
  20
 415.23621479322
  30
0.0
  40
 8.0000000000000
  41
0.0
  71
8
  72
1
   1
\A1;42.5
   7
GMM001
  11
0.0
  21
 1.0000000000000
  31
0.0
   0
ENDBLK
   5
E3
 100
AcDbEntity
   8
0
 100
AcDbBlockEnd
   0
BLOCK
   5
E4
 100
AcDbEntity
   8
0
 100
AcDbBlockBegin
   2
*D6
  70
65
  10
0.0
  20
0.0
  30
0.0
   3
*D6
   0
LINE
   5
E5
 100
AcDbEntity
   8
LEVEL001
 100
AcDbLine
   6
CONTINUOUS
  62
3
  10
 654.65739906437
  20
 436.48621479322
  30
0.0
  11
 656.65739906437
  21
 436.48621479322
  31
0.0
   0
LINE
   5
E6
 100
AcDbEntity
   8
LEVEL001
 100
AcDbLine
   6
CONTINUOUS
  62
3
  10
 654.65739906437
  20
 471.48621479322
  30
0.0
  11
 654.65739906437
  21
 453.98621479322
  31
0.0
   0
LINE
   5
E7
 100
AcDbEntity
   8
LEVEL001
 100
AcDbLine
   6
CONTINUOUS
  62
3
  10
 654.65739906437
  20
 436.48621479322
  30
0.0
  11
 654.65739906437
  21
 453.98621479322
  31
0.0
   0
INSERT
   5
E8
 100
AcDbEntity
   8
LEVEL001
   6
CONTINUOUS
  62
3
 100
AcDbBlockReference
   2
_OPEN30
  10
 654.65739906437
  20
 471.48621479322
  30
0.0
  41
 6.0000000000000
  42
 6.0000000000000
  43
 6.0000000000000
  50
 90.000000000000
   0
INSERT
   5
E9
 100
AcDbEntity
   8
LEVEL001
   6
CONTINUOUS
  62
3
 100
AcDbBlockReference
   2
_OPEN30
  10
 654.65739906437
  20
 436.48621479322
  30
0.0
  41
 6.0000000000000
  42
 6.0000000000000
  43
 6.0000000000000
  50
 270.00000000000
   0
MTEXT
   5
EA
 100
AcDbEntity
   8
LEVEL001
  62
3
 100
AcDbMText
  10
 651.22882763580
  20
 453.98621479322
  30
0.0
  40
 8.0000000000000
  41
0.0
  71
8
  72
1
   1
\A1;%%c35
   7
GMM001
  11
0.0
  21
 1.0000000000000
  31
0.0
   0
ENDBLK
   5
EB
 100
AcDbEntity
   8
0
 100
AcDbBlockEnd
   0
BLOCK
   5
EC
 100
AcDbEntity
   8
0
 100
AcDbBlockBegin
   2
*D7
  70
65
  10
0.0
  20
0.0
  30
0.0
   3
*D7
   0
LINE
   5
ED
 100
AcDbEntity
   8
LEVEL001
 100
AcDbLine
   6
CONTINUOUS
  62
3
  10
 740.66426102605
  20
 397.19198615911
  30
0.0
  11
 740.66426102605
  21
 362.89489352388
  31
0.0
   0
LINE
   5
EE
 100
AcDbEntity
   8
LEVEL001
 100
AcDbLine
   6
CONTINUOUS
  62
3
  10
 757.66426102598
  20
 397.19198615911
  30
0.0
  11
 757.66426102598
  21
 362.89489352388
  31
0.0
   0
LINE
   5
EF
 100
AcDbEntity
   8
LEVEL001
 100
AcDbLine
   6
CONTINUOUS
  62
3
  10
 740.66426102605
  20
 364.89489352388
  30
0.0
  11
 749.16426102601
  21
 364.89489352388
  31
0.0
   0
LINE
   5
F0
 100
AcDbEntity
   8
LEVEL001
 100
AcDbLine
   6
CONTINUOUS
  62
3
  10
 757.66426102598
  20
 364.89489352388
  30
0.0
  11
 749.16426102601
  21
 364.89489352388
  31
0.0
   0
INSERT
   5
F1
 100
AcDbEntity
   8
LEVEL001
   6
CONTINUOUS
  62
3
 100
AcDbBlockReference
   2
_OPEN30
  10
 740.66426102605
  20
 364.89489352388
  30
0.0
  41
 6.0000000000000
  42
 6.0000000000000
  43
 6.0000000000000
  50
 180.00000000000
   0
INSERT
   5
F2
 100
AcDbEntity
   8
LEVEL001
   6
CONTINUOUS
  62
3
 100
AcDbBlockReference
   2
_OPEN30
  10
 757.66426102598
  20
 364.89489352388
  30
0.0
  41
 6.0000000000000
  42
 6.0000000000000
  43
 6.0000000000000
  50
0.0
   0
MTEXT
   5
F3
 100
AcDbEntity
   8
LEVEL001
  62
3
 100
AcDbMText
  10
 749.16426102601
  20
 368.32346495245
  30
0.0
  40
 8.0000000000000
  41
0.0
  71
8
  72
1
   1
\A1;17
   7
GMM001
   0
ENDBLK
   5
F4
 100
AcDbEntity
   8
0
 100
AcDbBlockEnd
   0
BLOCK
   5
F5
 100
AcDbEntity
   8
0
 100
AcDbBlockBegin
   2
*D8
  70
65
  10
0.0
  20
0.0
  30
0.0
   3
*D8
   0
LINE
   5
F6
 100
AcDbEntity
   8
LEVEL001
 100
AcDbLine
   6
CONTINUOUS
  62
3
  10
 734.66426102601
  20
 391.98621479322
  30
0.0
  11
 734.66426102601
  21
 344.22360020986
  31
0.0
   0
LINE
   5
F7
 100
AcDbEntity
   8
LEVEL001
 100
AcDbLine
   6
CONTINUOUS
  62
3
  10
 763.66426102601
  20
 391.98621479322
  30
0.0
  11
 763.66426102601
  21
 344.22360020986
  31
0.0
   0
LINE
   5
F8
 100
AcDbEntity
   8
LEVEL001
 100
AcDbLine
   6
CONTINUOUS
  62
3
  10
 734.66426102601
  20
 346.22360020986
  30
0.0
  11
 749.16426102601
  21
 346.22360020986
  31
0.0
   0
LINE
   5
F9
 100
AcDbEntity
   8
LEVEL001
 100
AcDbLine
   6
CONTINUOUS
  62
3
  10
 763.66426102601
  20
 346.22360020986
  30
0.0
  11
 749.16426102601
  21
 346.22360020986
  31
0.0
   0
INSERT
   5
FA
 100
AcDbEntity
   8
LEVEL001
   6
CONTINUOUS
  62
3
 100
AcDbBlockReference
   2
_OPEN30
  10
 734.66426102601
  20
 346.22360020986
  30
0.0
  41
 6.0000000000000
  42
 6.0000000000000
  43
 6.0000000000000
  50
 180.00000000000
   0
INSERT
   5
FB
 100
AcDbEntity
   8
LEVEL001
   6
CONTINUOUS
  62
3
 100
AcDbBlockReference
   2
_OPEN30
  10
 763.66426102601
  20
 346.22360020986
  30
0.0
  41
 6.0000000000000
  42
 6.0000000000000
  43
 6.0000000000000
  50
0.0
   0
MTEXT
   5
FC
 100
AcDbEntity
   8
LEVEL001
  62
3
 100
AcDbMText
  10
 749.16426102601
  20
 349.65217163843
  30
0.0
  40
 8.0000000000000
  41
0.0
  71
8
  72
1
   1
\A1;29
   7
GMM001
   0
ENDBLK
   5
FD
 100
AcDbEntity
   8
0
 100
AcDbBlockEnd
   0
BLOCK
   5
FE
 100
AcDbEntity
   8
0
 100
AcDbBlockBegin
   2
*D9
  70
65
  10
0.0
  20
0.0
  30
0.0
   3
*D9
   0
LINE
   5
FF
 100
AcDbEntity
   8
LEVEL001
 100
AcDbLine
   6
CONTINUOUS
  62
3
  10
 585.34837533696
  20
 414.39781731761
  30
0.0
  11
 585.34837533696
  21
 416.39781731761
  31
0.0
   0
LINE
   5
100
 100
AcDbEntity
   8
LEVEL001
 100
AcDbLine
   6
CONTINUOUS
  62
3
  10
 630.34837533696
  20
 415.20135714062
  30
0.0
  11
 630.34837533696
  21
 412.39781731761
  31
0.0
   0
LINE
   5
101
 100
AcDbEntity
   8
LEVEL001
 100
AcDbLine
   6
CONTINUOUS
  62
3
  10
 585.34837533696
  20
 414.39781731761
  30
0.0
  11
 607.84837533696
  21
 414.39781731761
  31
0.0
   0
LINE
   5
102
 100
AcDbEntity
   8
LEVEL001
 100
AcDbLine
   6
CONTINUOUS
  62
3
  10
 630.34837533696
  20
 414.39781731761
  30
0.0
  11
 607.84837533696
  21
 414.39781731761
  31
0.0
   0
INSERT
   5
103
 100
AcDbEntity
   8
LEVEL001
   6
CONTINUOUS
  62
3
 100
AcDbBlockReference
   2
_OPEN30
  10
 585.34837533696
  20
 414.39781731761
  30
0.0
  41
 6.0000000000000
  42
 6.0000000000000
  43
 6.0000000000000
  50
 180.00000000000
   0
INSERT
   5
104
 100
AcDbEntity
   8
LEVEL001
   6
CONTINUOUS
  62
3
 100
AcDbBlockReference
   2
_OPEN30
  10
 630.34837533696
  20
 414.39781731761
  30
0.0
  41
 6.0000000000000
  42
 6.0000000000000
  43
 6.0000000000000
  50
0.0
   0
MTEXT
   5
105
 100
AcDbEntity
   8
LEVEL001
  62
3
 100
AcDbMText
  10
 607.84837533696
  20
 417.82638874619
  30
0.0
  40
 8.0000000000000
  41
0.0
  71
8
  72
1
   1
\A1;45
   7
GMM001
   0
ENDBLK
   5
106
 100
AcDbEntity
   8
0
 100
AcDbBlockEnd
   0
BLOCK
   5
107
 100
AcDbEntity
   8
0
 100
AcDbBlockBegin
   2
*D10
  70
65
  10
0.0
  20
0.0
  30
0.0
   3
*D10
   0
LINE
   5
108
 100
AcDbEntity
   8
LEVEL001
 100
AcDbLine
   6
CONTINUOUS
  62
3
  10
 82.848375336957
  20
 473.48621479322
  30
0.0
  11
 82.848375336957
  21
 510.30830956856
  31
0.0
   0
LINE
   5
109
 100
AcDbEntity
   8
LEVEL001
 100
AcDbLine
   6
CONTINUOUS
  62
3
  10
 682.84837533696
  20
 473.48621479322
  30
0.0
  11
 682.84837533696
  21
 510.30830956856
  31
0.0
   0
LINE
   5
10A
 100
AcDbEntity
   8
LEVEL001
 100
AcDbLine
   6
CONTINUOUS
  62
3
  10
 82.848375336957
  20
 508.30830956856
  30
0.0
  11
 382.84837533696
  21
 508.30830956856
  31
0.0
   0
LINE
   5
10B
 100
AcDbEntity
   8
LEVEL001
 100
AcDbLine
   6
CONTINUOUS
  62
3
  10
 682.84837533696
  20
 508.30830956856
  30
0.0
  11
 382.84837533696
  21
 508.30830956856
  31
0.0
   0
INSERT
   5
10C
 100
AcDbEntity
   8
LEVEL001
   6
CONTINUOUS
  62
3
 100
AcDbBlockReference
   2
_OPEN30
  10
 82.848375336957
  20
 508.30830956856
  30
0.0
  41
 6.0000000000000
  42
 6.0000000000000
  43
 6.0000000000000
  50
 180.00000000000
   0
INSERT
   5
10D
 100
AcDbEntity
   8
LEVEL001
   6
CONTINUOUS
  62
3
 100
AcDbBlockReference
   2
_OPEN30
  10
 682.84837533696
  20
 508.30830956856
  30
0.0
  41
 6.0000000000000
  42
 6.0000000000000
  43
 6.0000000000000
  50
0.0
   0
MTEXT
   5
10E
 100
AcDbEntity
   8
LEVEL001
  62
3
 100
AcDbMText
  10
 382.84837533696
  20
 511.73688099713
  30
0.0
  40
 8.0000000000000
  41
0.0
  71
8
  72
1
   1
\A1;400üE600üE800
   7
GMM001
   0
ENDBLK
   5
10F
 100
AcDbEntity
   8
0
 100
AcDbBlockEnd
   0
BLOCK
   5
110
 100
AcDbEntity
   8
0
 100
AcDbBlockBegin
   2
*D11
  70
65
  10
0.0
  20
0.0
  30
0.0
   3
*D11
   0
LINE
   5
111
 100
AcDbEntity
   8
LEVEL001
 100
AcDbLine
   6
CONTINUOUS
  62
3
  10
 157.84837533696
  20
 383.71480984063
  30
0.0
  11
 157.84837533696
  21
 362.89489352388
  31
0.0
   0
LINE
   5
112
 100
AcDbEntity
   8
LEVEL001
 100
AcDbLine
   6
CONTINUOUS
  62
3
  10
 607.84837533696
  20
 383.71480984063
  30
0.0
  11
 607.84837533696
  21
 362.89489352388
  31
0.0
   0
LINE
   5
113
 100
AcDbEntity
   8
LEVEL001
 100
AcDbLine
   6
CONTINUOUS
  62
3
  10
 157.84837533696
  20
 364.89489352388
  30
0.0
  11
 382.84837533696
  21
 364.89489352388
  31
0.0
   0
LINE
   5
114
 100
AcDbEntity
   8
LEVEL001
 100
AcDbLine
   6
CONTINUOUS
  62
3
  10
 607.84837533696
  20
 364.89489352388
  30
0.0
  11
 382.84837533696
  21
 364.89489352388
  31
0.0
   0
INSERT
   5
115
 100
AcDbEntity
   8
LEVEL001
   6
CONTINUOUS
  62
3
 100
AcDbBlockReference
   2
_OPEN30
  10
 157.84837533696
  20
 364.89489352388
  30
0.0
  41
 6.0000000000000
  42
 6.0000000000000
  43
 6.0000000000000
  50
 180.00000000000
   0
INSERT
   5
116
 100
AcDbEntity
   8
LEVEL001
   6
CONTINUOUS
  62
3
 100
AcDbBlockReference
   2
_OPEN30
  10
 607.84837533696
  20
 364.89489352388
  30
0.0
  41
 6.0000000000000
  42
 6.0000000000000
  43
 6.0000000000000
  50
0.0
   0
MTEXT
   5
117
 100
AcDbEntity
   8
LEVEL001
  62
3
 100
AcDbMText
  10
 382.84837533696
  20
 368.32346495245
  30
0.0
  40
 8.0000000000000
  41
0.0
  71
8
  72
1
   1
\A1;250üE450üE600
   7
GMM001
   0
ENDBLK
   5
118
 100
AcDbEntity
   8
0
 100
AcDbBlockEnd
   0
BLOCK
   5
119
 100
AcDbEntity
   8
0
 100
AcDbBlockBegin
   2
*D12
  70
65
  10
0.0
  20
0.0
  30
0.0
   3
*D12
   0
LINE
   5
11A
 100
AcDbEntity
   8
LEVEL001
 100
AcDbLine
   6
CONTINUOUS
  62
3
  10
 612.84837533696
  20
 306.56881348591
  30
0.0
  11
 612.84837533696
  21
 340.59972203981
  31
0.0
   0
LINE
   5
11B
 100
AcDbEntity
   8
LEVEL001
 100
AcDbLine
   6
CONTINUOUS
  62
3
  10
 612.84837533696
  20
 338.59972203981
  30
0.0
  11
 603.59837533696
  21
 338.59972203981
  31
0.0
   0
LINE
   5
11C
 100
AcDbEntity
   8
LEVEL001
 100
AcDbLine
   6
CONTINUOUS
  62
3
  10
 594.34837533696
  20
 338.59972203981
  30
0.0
  11
 603.59837533696
  21
 338.59972203981
  31
0.0
   0
INSERT
   5
11D
 100
AcDbEntity
   8
LEVEL001
   6
CONTINUOUS
  62
3
 100
AcDbBlockReference
   2
_OPEN30
  10
 612.84837533696
  20
 338.59972203981
  30
0.0
  41
 6.0000000000000
  42
 6.0000000000000
  43
 6.0000000000000
  50
0.0
   0
INSERT
   5
11E
 100
AcDbEntity
   8
LEVEL001
   6
CONTINUOUS
  62
3
 100
AcDbBlockReference
   2
_OPEN30
  10
 594.34837533696
  20
 338.59972203981
  30
0.0
  41
 6.0000000000000
  42
 6.0000000000000
  43
 6.0000000000000
  50
 180.00000000000
   0
MTEXT
   5
11F
 100
AcDbEntity
   8
LEVEL001
  62
3
 100
AcDbMText
  10
 603.59837533696
  20
 342.02829346838
  30
0.0
  40
 8.0000000000000
  41
0.0
  71
8
  72
1
   1
\A1;18.5
   7
GMM001
   0
ENDBLK
   5
120
 100
AcDbEntity
   8
0
 100
AcDbBlockEnd
   0
BLOCK
   5
121
 100
AcDbEntity
   8
0
 100
AcDbBlockBegin
   2
*D13
  70
65
  10
0.0
  20
0.0
  30
0.0
   3
*D13
   0
LINE
   5
122
 100
AcDbEntity
   8
LEVEL001
 100
AcDbLine
   6
CONTINUOUS
  62
3
  10
 682.84837533696
  20
 310.60043764159
  30
0.0
  11
 682.84837533696
  21
 340.59972203981
  31
0.0
   0
LINE
   5
123
 100
AcDbEntity
   8
LEVEL001
 100
AcDbLine
   6
CONTINUOUS
  62
3
  10
 612.84837533696
  20
 338.59972203981
  30
0.0
  11
 647.84837533696
  21
 338.59972203981
  31
0.0
   0
LINE
   5
124
 100
AcDbEntity
   8
LEVEL001
 100
AcDbLine
   6
CONTINUOUS
  62
3
  10
 682.84837533696
  20
 338.59972203981
  30
0.0
  11
 647.84837533696
  21
 338.59972203981
  31
0.0
   0
INSERT
   5
125
 100
AcDbEntity
   8
LEVEL001
   6
CONTINUOUS
  62
3
 100
AcDbBlockReference
   2
_OPEN30
  10
 612.84837533696
  20
 338.59972203981
  30
0.0
  41
 6.0000000000000
  42
 6.0000000000000
  43
 6.0000000000000
  50
 180.00000000000
   0
INSERT
   5
126
 100
AcDbEntity
   8
LEVEL001
   6
CONTINUOUS
  62
3
 100
AcDbBlockReference
   2
_OPEN30
  10
 682.84837533696
  20
 338.59972203981
  30
0.0
  41
 6.0000000000000
  42
 6.0000000000000
  43
 6.0000000000000
  50
0.0
   0
MTEXT
   5
127
 100
AcDbEntity
   8
LEVEL001
  62
3
 100
AcDbMText
  10
 647.84837533696
  20
 342.02829346838
  30
0.0
  40
 8.0000000000000
  41
0.0
  71
8
  72
1
   1
\A1;70
   7
GMM001
   0
ENDBLK
   5
128
 100
AcDbEntity
   8
0
 100
AcDbBlockEnd
   0
BLOCK
   5
129
 100
AcDbEntity
   8
0
 100
AcDbBlockBegin
   2
*D14
  70
65
  10
0.0
  20
0.0
  30
0.0
   3
*D14
   0
LINE
   5
12A
 100
AcDbEntity
   8
LEVEL001
 100
AcDbLine
   6
CONTINUOUS
  62
3
  10
 152.84837533696
  20
 306.56881348591
  30
0.0
  11
 152.84837533696
  21
 340.59972203981
  31
0.0
   0
LINE
   5
12B
 100
AcDbEntity
   8
LEVEL001
 100
AcDbLine
   6
CONTINUOUS
  62
3
  10
 152.84837533696
  20
 338.59972203981
  30
0.0
  11
 162.09837533696
  21
 338.59972203981
  31
0.0
   0
LINE
   5
12C
 100
AcDbEntity
   8
LEVEL001
 100
AcDbLine
   6
CONTINUOUS
  62
3
  10
 171.34837533696
  20
 338.59972203981
  30
0.0
  11
 162.09837533696
  21
 338.59972203981
  31
0.0
   0
INSERT
   5
12D
 100
AcDbEntity
   8
LEVEL001
   6
CONTINUOUS
  62
3
 100
AcDbBlockReference
   2
_OPEN30
  10
 152.84837533696
  20
 338.59972203981
  30
0.0
  41
 6.0000000000000
  42
 6.0000000000000
  43
 6.0000000000000
  50
 180.00000000000
   0
INSERT
   5
12E
 100
AcDbEntity
   8
LEVEL001
   6
CONTINUOUS
  62
3
 100
AcDbBlockReference
   2
_OPEN30
  10
 171.34837533696
  20
 338.59972203981
  30
0.0
  41
 6.0000000000000
  42
 6.0000000000000
  43
 6.0000000000000
  50
0.0
   0
MTEXT
   5
12F
 100
AcDbEntity
   8
LEVEL001
  62
3
 100
AcDbMText
  10
 162.09837533696
  20
 342.02829346838
  30
0.0
  40
 8.0000000000000
  41
0.0
  71
8
  72
1
   1
\A1;18.5
   7
GMM001
   0
ENDBLK
   5
130
 100
AcDbEntity
   8
0
 100
AcDbBlockEnd
   0
BLOCK
   5
131
 100
AcDbEntity
   8
0
 100
AcDbBlockBegin
   2
*D15
  70
65
  10
0.0
  20
0.0
  30
0.0
   3
*D15
   0
LINE
   5
132
 100
AcDbEntity
   8
LEVEL001
 100
AcDbLine
   6
CONTINUOUS
  62
3
  10
 82.848375336957
  20
 310.60043764159
  30
0.0
  11
 82.848375336957
  21
 340.59972203981
  31
0.0
   0
LINE
   5
133
 100
AcDbEntity
   8
LEVEL001
 100
AcDbLine
   6
CONTINUOUS
  62
3
  10
 82.848375336957
  20
 338.59972203981
  30
0.0
  11
 117.84837533696
  21
 338.59972203981
  31
0.0
   0
LINE
   5
134
 100
AcDbEntity
   8
LEVEL001
 100
AcDbLine
   6
CONTINUOUS
  62
3
  10
 152.84837533696
  20
 338.59972203981
  30
0.0
  11
 117.84837533696
  21
 338.59972203981
  31
0.0
   0
INSERT
   5
135
 100
AcDbEntity
   8
LEVEL001
   6
CONTINUOUS
  62
3
 100
AcDbBlockReference
   2
_OPEN30
  10
 82.848375336957
  20
 338.59972203981
  30
0.0
  41
 6.0000000000000
  42
 6.0000000000000
  43
 6.0000000000000
  50
 180.00000000000
   0
INSERT
   5
136
 100
AcDbEntity
   8
LEVEL001
   6
CONTINUOUS
  62
3
 100
AcDbBlockReference
   2
_OPEN30
  10
 152.84837533696
  20
 338.59972203981
  30
0.0
  41
 6.0000000000000
  42
 6.0000000000000
  43
 6.0000000000000
  50
0.0
   0
MTEXT
   5
137
 100
AcDbEntity
   8
LEVEL001
  62
3
 100
AcDbMText
  10
 117.84837533696
  20
 342.02829346838
  30
0.0
  40
 8.0000000000000
  41
0.0
  71
8
  72
1
   1
\A1;70
   7
GMM001
   0
ENDBLK
   5
138
 100
AcDbEntity
   8
0
 100
AcDbBlockEnd
   0
BLOCK
   5
139
 100
AcDbEntity
   8
0
 100
AcDbBlockBegin
   2
*D16
  70
65
  10
0.0
  20
0.0
  30
0.0
   3
*D16
   0
LINE
   5
13A
 100
AcDbEntity
   8
LEVEL001
 100
AcDbLine
   6
CONTINUOUS
  62
3
  10
 82.848375336957
  20
 271.60043764159
  30
0.0
  11
 82.848375336957
  21
 234.35129929016
  31
0.0
   0
LINE
   5
13B
 100
AcDbEntity
   8
LEVEL001
 100
AcDbLine
   6
CONTINUOUS
  62
3
  10
 143.84837533696
  20
 275.63955316019
  30
0.0
  11
 143.84837533696
  21
 234.35129929016
  31
0.0
   0
LINE
   5
13C
 100
AcDbEntity
   8
LEVEL001
 100
AcDbLine
   6
CONTINUOUS
  62
3
  10
 82.848375336957
  20
 236.35129929016
  30
0.0
  11
 113.34837533696
  21
 236.35129929016
  31
0.0
   0
LINE
   5
13D
 100
AcDbEntity
   8
LEVEL001
 100
AcDbLine
   6
CONTINUOUS
  62
3
  10
 143.84837533696
  20
 236.35129929016
  30
0.0
  11
 113.34837533696
  21
 236.35129929016
  31
0.0
   0
INSERT
   5
13E
 100
AcDbEntity
   8
LEVEL001
   6
CONTINUOUS
  62
3
 100
AcDbBlockReference
   2
_OPEN30
  10
 82.848375336957
  20
 236.35129929016
  30
0.0
  41
 6.0000000000000
  42
 6.0000000000000
  43
 6.0000000000000
  50
 180.00000000000
   0
INSERT
   5
13F
 100
AcDbEntity
   8
LEVEL001
   6
CONTINUOUS
  62
3
 100
AcDbBlockReference
   2
_OPEN30
  10
 143.84837533696
  20
 236.35129929016
  30
0.0
  41
 6.0000000000000
  42
 6.0000000000000
  43
 6.0000000000000
  50
0.0
   0
MTEXT
   5
140
 100
AcDbEntity
   8
LEVEL001
  62
3
 100
AcDbMText
  10
 113.34837533696
  20
 239.77987071873
  30
0.0
  40
 8.0000000000000
  41
0.0
  71
8
  72
1
   1
\A1;61
   7
GMM001
   0
ENDBLK
   5
141
 100
AcDbEntity
   8
0
 100
AcDbBlockEnd
   0
BLOCK
   5
142
 100
AcDbEntity
   8
0
 100
AcDbBlockBegin
   2
*D17
  70
65
  10
0.0
  20
0.0
  30
0.0
   3
*D17
   0
LINE
   5
143
 100
AcDbEntity
   8
LEVEL001
 100
AcDbLine
   6
CONTINUOUS
  62
3
  10
 682.84837533696
  20
 271.60043764159
  30
0.0
  11
 682.84837533696
  21
 234.35129929016
  31
0.0
   0
LINE
   5
144
 100
AcDbEntity
   8
LEVEL001
 100
AcDbLine
   6
CONTINUOUS
  62
3
  10
 621.84837533696
  20
 236.35129929016
  30
0.0
  11
 652.34837533696
  21
 236.35129929016
  31
0.0
   0
LINE
   5
145
 100
AcDbEntity
   8
LEVEL001
 100
AcDbLine
   6
CONTINUOUS
  62
3
  10
 682.84837533696
  20
 236.35129929016
  30
0.0
  11
 652.34837533696
  21
 236.35129929016
  31
0.0
   0
INSERT
   5
146
 100
AcDbEntity
   8
LEVEL001
   6
CONTINUOUS
  62
3
 100
AcDbBlockReference
   2
_OPEN30
  10
 621.84837533696
  20
 236.35129929016
  30
0.0
  41
 6.0000000000000
  42
 6.0000000000000
  43
 6.0000000000000
  50
 180.00000000000
   0
INSERT
   5
147
 100
AcDbEntity
   8
LEVEL001
   6
CONTINUOUS
  62
3
 100
AcDbBlockReference
   2
_OPEN30
  10
 682.84837533696
  20
 236.35129929016
  30
0.0
  41
 6.0000000000000
  42
 6.0000000000000
  43
 6.0000000000000
  50
0.0
   0
MTEXT
   5
148
 100
AcDbEntity
   8
LEVEL001
  62
3
 100
AcDbMText
  10
 652.34837533696
  20
 239.77987071873
  30
0.0
  40
 8.0000000000000
  41
0.0
  71
8
  72
1
   1
\A1;61
   7
GMM001
   0
ENDBLK
   5
149
 100
AcDbEntity
   8
0
 100
AcDbBlockEnd
   0
BLOCK
   5
14A
 100
AcDbEntity
   8
0
 100
AcDbBlockBegin
   2
*D18
  70
65
  10
0.0
  20
0.0
  30
0.0
   3
*D18
   0
LINE
   5
14B
 100
AcDbEntity
   8
LEVEL001
 100
AcDbLine
   6
CONTINUOUS
  62
3
  10
 621.84837533696
  20
 275.63955316019
  30
0.0
  11
 621.84837533696
  21
 234.35129929016
  31
0.0
   0
LINE
   5
14C
 100
AcDbEntity
   8
LEVEL001
 100
AcDbLine
   6
CONTINUOUS
  62
3
  10
 625.89837533696
  20
 236.35129929016
  30
0.0
  11
 612.59837533696
  21
 236.35129929016
  31
0.0
   0
LINE
   5
14D
 100
AcDbEntity
   8
LEVEL001
 100
AcDbLine
   6
CONTINUOUS
  62
3
  10
 599.29837533696
  20
 236.35129929016
  30
0.0
  11
 612.59837533696
  21
 236.35129929016
  31
0.0
   0
INSERT
   5
14E
 100
AcDbEntity
   8
LEVEL001
   6
CONTINUOUS
  62
3
 100
AcDbBlockReference
   2
_OPEN30
  10
 621.84837533696
  20
 236.35129929016
  30
0.0
  41
 6.0000000000000
  42
 6.0000000000000
  43
 6.0000000000000
  50
0.0
   0
INSERT
   5
14F
 100
AcDbEntity
   8
LEVEL001
   6
CONTINUOUS
  62
3
 100
AcDbBlockReference
   2
_OPEN30
  10
 603.34837533696
  20
 236.35129929016
  30
0.0
  41
 6.0000000000000
  42
 6.0000000000000
  43
 6.0000000000000
  50
 180.00000000000
   0
MTEXT
   5
150
 100
AcDbEntity
   8
LEVEL001
  62
3
 100
AcDbMText
  10
 612.59837533696
  20
 222.64712735590
  30
0.0
  40
 8.0000000000000
  41
0.0
  71
8
  72
1
   1
\A1;18.5
   7
GMM001
   0
ENDBLK
   5
151
 100
AcDbEntity
   8
0
 100
AcDbBlockEnd
   0
BLOCK
   5
152
 100
AcDbEntity
   8
0
 100
AcDbBlockBegin
   2
*D19
  70
65
  10
0.0
  20
0.0
  30
0.0
   3
*D19
   0
LINE
   5
153
 100
AcDbEntity
   8
LEVEL001
 100
AcDbLine
   6
CONTINUOUS
  62
3
  10
 143.84837533696
  20
 275.63955316019
  30
0.0
  11
 143.84837533696
  21
 234.35129929016
  31
0.0
   0
LINE
   5
154
 100
AcDbEntity
   8
LEVEL001
 100
AcDbLine
   6
CONTINUOUS
  62
3
  10
 162.34837533696
  20
 275.63955316019
  30
0.0
  11
 162.34837533696
  21
 234.35129929016
  31
0.0
   0
LINE
   5
155
 100
AcDbEntity
   8
LEVEL001
 100
AcDbLine
   6
CONTINUOUS
  62
3
  10
 139.79837533696
  20
 236.35129929016
  30
0.0
  11
 153.09837533696
  21
 236.35129929016
  31
0.0
   0
LINE
   5
156
 100
AcDbEntity
   8
LEVEL001
 100
AcDbLine
   6
CONTINUOUS
  62
3
  10
 166.39837533696
  20
 236.35129929016
  30
0.0
  11
 153.09837533696
  21
 236.35129929016
  31
0.0
   0
INSERT
   5
157
 100
AcDbEntity
   8
LEVEL001
   6
CONTINUOUS
  62
3
 100
AcDbBlockReference
   2
_OPEN30
  10
 143.84837533696
  20
 236.35129929016
  30
0.0
  41
 6.0000000000000
  42
 6.0000000000000
  43
 6.0000000000000
  50
 180.00000000000
   0
INSERT
   5
158
 100
AcDbEntity
   8
LEVEL001
   6
CONTINUOUS
  62
3
 100
AcDbBlockReference
   2
_OPEN30
  10
 162.34837533696
  20
 236.35129929016
  30
0.0
  41
 6.0000000000000
  42
 6.0000000000000
  43
 6.0000000000000
  50
0.0
   0
MTEXT
   5
159
 100
AcDbEntity
   8
LEVEL001
  62
3
 100
AcDbMText
  10
 153.09837533696
  20
 222.64712735590
  30
0.0
  40
 8.0000000000000
  41
0.0
  71
8
  72
1
   1
\A1;18.5
   7
GMM001
   0
ENDBLK
   5
15A
 100
AcDbEntity
   8
0
 100
AcDbBlockEnd
   0
BLOCK
   5
15B
 100
AcDbEntity
   8
0
 100
AcDbBlockBegin
   2
*D20
  70
65
  10
0.0
  20
0.0
  30
0.0
   3
*D20
   0
LINE
   5
15C
 100
AcDbEntity
   8
LEVEL001
 100
AcDbLine
   6
CONTINUOUS
  62
3
  10
 171.34837533696
  20
 306.56881348591
  30
0.0
  11
 171.34837533696
  21
 340.59972203981
  31
0.0
   0
LINE
   5
15D
 100
AcDbEntity
   8
LEVEL001
 100
AcDbLine
   6
CONTINUOUS
  62
3
  10
 594.34837533696
  20
 306.56881348591
  30
0.0
  11
 594.34837533696
  21
 340.59972203981
  31
0.0
   0
LINE
   5
15E
 100
AcDbEntity
   8
LEVEL001
 100
AcDbLine
   6
CONTINUOUS
  62
3
  10
 171.34837533696
  20
 338.59972203981
  30
0.0
  11
 382.84837533696
  21
 338.59972203981
  31
0.0
   0
LINE
   5
15F
 100
AcDbEntity
   8
LEVEL001
 100
AcDbLine
   6
CONTINUOUS
  62
3
  10
 594.34837533696
  20
 338.59972203981
  30
0.0
  11
 382.84837533696
  21
 338.59972203981
  31
0.0
   0
INSERT
   5
160
 100
AcDbEntity
   8
LEVEL001
   6
CONTINUOUS
  62
3
 100
AcDbBlockReference
   2
_OPEN30
  10
 171.34837533696
  20
 338.59972203981
  30
0.0
  41
 6.0000000000000
  42
 6.0000000000000
  43
 6.0000000000000
  50
 180.00000000000
   0
INSERT
   5
161
 100
AcDbEntity
   8
LEVEL001
   6
CONTINUOUS
  62
3
 100
AcDbBlockReference
   2
_OPEN30
  10
 594.34837533696
  20
 338.59972203981
  30
0.0
  41
 6.0000000000000
  42
 6.0000000000000
  43
 6.0000000000000
  50
0.0
   0
MTEXT
   5
162
 100
AcDbEntity
   8
LEVEL001
  62
3
 100
AcDbMText
  10
 382.84837533696
  20
 342.02829346838
  30
0.0
  40
 8.0000000000000
  41
0.0
  71
8
  72
1
   1
\A1;223üE423üE573
   7
GMM001
   0
ENDBLK
   5
163
 100
AcDbEntity
   8
0
 100
AcDbBlockEnd
   0
BLOCK
   5
164
 100
AcDbEntity
   8
0
 100
AcDbBlockBegin
   2
*D21
  70
65
  10
0.0
  20
0.0
  30
0.0
   3
*D21
   0
LINE
   5
165
 100
AcDbEntity
   8
LEVEL001
 100
AcDbLine
   6
CONTINUOUS
  62
3
  10
 603.34837533696
  20
 275.63955316019
  30
0.0
  11
 603.34837533696
  21
 234.35129929016
  31
0.0
   0
LINE
   5
166
 100
AcDbEntity
   8
LEVEL001
 100
AcDbLine
   6
CONTINUOUS
  62
3
  10
 162.34837533696
  20
 236.35129929016
  30
0.0
  11
 382.84837533696
  21
 236.35129929016
  31
0.0
   0
LINE
   5
167
 100
AcDbEntity
   8
LEVEL001
 100
AcDbLine
   6
CONTINUOUS
  62
3
  10
 603.34837533696
  20
 236.35129929016
  30
0.0
  11
 382.84837533696
  21
 236.35129929016
  31
0.0
   0
INSERT
   5
168
 100
AcDbEntity
   8
LEVEL001
   6
CONTINUOUS
  62
3
 100
AcDbBlockReference
   2
_OPEN30
  10
 162.34837533696
  20
 236.35129929016
  30
0.0
  41
 6.0000000000000
  42
 6.0000000000000
  43
 6.0000000000000
  50
 180.00000000000
   0
INSERT
   5
169
 100
AcDbEntity
   8
LEVEL001
   6
CONTINUOUS
  62
3
 100
AcDbBlockReference
   2
_OPEN30
  10
 603.34837533696
  20
 236.35129929016
  30
0.0
  41
 6.0000000000000
  42
 6.0000000000000
  43
 6.0000000000000
  50
0.0
   0
MTEXT
   5
16A
 100
AcDbEntity
   8
LEVEL001
  62
3
 100
AcDbMText
  10
 382.84837533696
  20
 239.77987071873
  30
0.0
  40
 8.0000000000000
  41
0.0
  71
8
  72
1
   1
\A1;241üE441üE591
   7
GMM001
   0
ENDBLK
   5
16B
 100
AcDbEntity
   8
0
 100
AcDbBlockEnd
   0
ENDSEC
   0
SECTION
   2
ENTITIES
   0
LINE
   5
16C
 100
AcDbEntity
   8
LEVEL001
 100
AcDbLine
   6
DASHDOT
  62
3
  10
 382.84837533696
  20
 486.45605227630
  30
0.0
  11
 382.84837533696
  21
 417.40257093529
  31
0.0
   0
LINE
   5
16D
 100
AcDbEntity
   8
LEVEL001
 100
AcDbLine
   6
CONTINUOUS
  62
7
  10
 82.848375336957
  20
 471.48621479322
  30
0.0
  11
 82.848375336957
  21
 436.48621479322
  31
0.0
   0
LINE
   5
16E
 100
AcDbEntity
   8
LEVEL001
 100
AcDbLine
   6
CONTINUOUS
  62
7
  10
 682.84837533696
  20
 471.48621479322
  30
0.0
  11
 682.84837533696
  21
 436.48621479322
  31
0.0
   0
LINE
   5
16F
 100
AcDbEntity
   8
LEVEL001
 100
AcDbLine
   6
DASHDOT
  62
3
  10
 607.84837533696
  20
 451.99872278919
  30
0.0
  11
 607.84837533696
  21
 385.71480984063
  31
0.0
   0
LINE
   5
170
 100
AcDbEntity
   8
LEVEL001
 100
AcDbLine
   6
DASHDOT
  62
3
  10
 157.84837533696
  20
 451.99872278919
  30
0.0
  11
 157.84837533696
  21
 385.71480984063
  31
0.0
   0
ELLIPSE
   5
171
 100
AcDbEntity
   8
LEVEL001
   6
CONTINUOUS
  62
7
 100
AcDbEllipse
  10
 391.17998331453
  20
 462.73621479322
  30
0.0
  11
0.0
  21
-8.7500000000000
  31
0.0
  40
 0.62667612265204
  41
0.0
  42
 6.2831853071796
   0
ELLIPSE
   5
172
 100
AcDbEntity
   8
LEVEL001
   6
CONTINUOUS
  62
7
 100
AcDbEllipse
  10
 391.17998331453
  20
 445.23621479322
  30
0.0
  11
0.0
  21
-8.7500000000000
  31
0.0
  40
 0.62667612265204
  41
 3.1415926535898
  42
0.0
   0
ELLIPSE
   5
173
 100
AcDbEntity
   8
LEVEL001
   6
CONTINUOUS
  62
7
 100
AcDbEllipse
  10
 374.51676735939
  20
 462.73621479322
  30
0.0
  11
0.0
  21
 8.7500000000000
  31
0.0
  40
 0.62667612265204
  41
 3.1415926535898
  42
 0.22204460492503E-15
   0
ELLIPSE
   5
174
 100
AcDbEntity
   8
LEVEL001
   6
CONTINUOUS
  62
7
 100
AcDbEllipse
  10
 374.51676735939
  20
 445.23621479322
  30
0.0
  11
0.0
  21
 8.7500000000000
  31
0.0
  40
 0.62667612265204
  41
0.0
  42
 6.2831853071796
   0
LINE
   5
175
 100
AcDbEntity
   8
LEVEL001
 100
AcDbLine
   6
CONTINUOUS
  62
7
  10
 82.848375336957
  20
 471.48621479322
  30
0.0
  11
 374.51676735939
  21
 471.48621479322
  31
0.0
   0
LINE
   5
176
 100
AcDbEntity
   8
LEVEL001
 100
AcDbLine
   6
CONTINUOUS
  62
7
  10
 391.17998331453
  20
 471.48621479322
  30
0.0
  11
 682.84837533696
  21
 471.48621479322
  31
0.0
   0
CIRCLE
   5
177
 100
AcDbEntity
   8
LEVEL001
 100
AcDbCircle
   6
CONTINUOUS
  62
7
  10
 749.16426102601
  20
 453.98621479322
  30
0.0
  40
 17.500000000000
   0
LINE
   5
178
 100
AcDbEntity
   8
LEVEL001
 100
AcDbLine
   6
DASHDOT
  62
3
  10
 775.20855095752
  20
 453.98621479322
  30
0.0
  11
 723.11997109451
  21
 453.98621479322
  31
0.0
   0
LINE
   5
179
 100
AcDbEntity
   8
LEVEL001
 100
AcDbLine
   6
DASHDOT
  62
3
  10
 749.16426102601
  20
 480.98652865944
  30
0.0
  11
 749.16426102601
  21
 384.91574887687
  31
0.0
   0
DIMENSION
   5
17A
 100
AcDbEntity
   8
LEVEL001
   6
CONTINUOUS
  62
3
 100
AcDbDimension
   2
*D1
  10
 682.84837533696
  20
 364.89489352388
  30
0.0
  11
 645.34837533696
  21
 364.89489352388
  31
0.0
  70
0
   3
GMM001
 100
AcDbAlignedDimension
  13
 607.84837533696
  23
 364.89489352388
  33
0.0
  14
 682.84837533696
  24
 436.48621479322
  34
0.0
 100
AcDbRotatedDimension
   0
DIMENSION
   5
17B
 100
AcDbEntity
   8
LEVEL001
   6
CONTINUOUS
  62
3
 100
AcDbDimension
   2
*D2
  10
 157.84837533696
  20
 364.89489352388
  30
0.0
  11
 120.34837533696
  21
 364.89489352388
  31
0.0
  70
0
   3
GMM001
 100
AcDbAlignedDimension
  13
 82.848375336957
  23
 436.48621479322
  33
0.0
  14
 157.84837533696
  24
 364.89489352388
  34
0.0
 100
AcDbRotatedDimension
   0
LINE
   5
17C
 100
AcDbEntity
   8
LEVEL001
 100
AcDbLine
   6
CONTINUOUS
  62
3
  10
 341.89450387865
  20
 511.11047348863
  30
0.0
  11
 362.66146553057
  21
 511.11047348863
  31
0.0
   0
LINE
   5
17D
 100
AcDbEntity
   8
LEVEL001
 100
AcDbLine
   6
CONTINUOUS
  62
3
  10
 402.53403190226
  20
 511.11047348863
  30
0.0
  11
 423.30099355418
  21
 511.11047348863
  31
0.0
   0
LINE
   5
17E
 100
AcDbEntity
   8
LEVEL001
 100
AcDbLine
   6
CONTINUOUS
  62
3
  10
 341.89450387865
  20
 367.32091158861
  30
0.0
  11
 362.66146553057
  21
 367.32091158861
  31
0.0
   0
LINE
   5
17F
 100
AcDbEntity
   8
LEVEL001
 100
AcDbLine
   6
CONTINUOUS
  62
3
  10
 402.53403190226
  20
 367.32091158861
  30
0.0
  11
 423.30099355418
  21
 367.32091158861
  31
0.0
   0
LINE
   5
180
 100
AcDbEntity
   8
LEVEL001
 100
AcDbLine
   6
CONTINUOUS
  62
7
  10
 734.66426102601
  20
 393.98621479322
  30
0.0
  11
 749.16426102601
  21
 393.98621479322
  31
0.0
   0
LINE
   5
181
 100
AcDbEntity
   8
LEVEL001
 100
AcDbLine
   6
CONTINUOUS
  62
7
  10
 749.16426102601
  20
 393.98621479322
  30
0.0
  11
 763.66426102601
  21
 393.98621479322
  31
0.0
   0
LINE
   5
182
 100
AcDbEntity
   8
LEVEL001
 100
AcDbLine
   6
CONTINUOUS
  62
7
  10
 736.62273001901
  20
 440.38621479322
  30
0.0
  11
 738.15108709658
  21
 440.38621479322
  31
0.0
   0
POINT
   5
183
 100
AcDbEntity
   8
LEVEL001
 100
AcDbPoint
  62
7
  10
 734.66426102601
  20
 440.38621479322
  30
0.0
   0
LINE
   5
184
 100
AcDbEntity
   8
LEVEL001
 100
AcDbLine
   6
CONTINUOUS
  62
7
  10
 760.17743495545
  20
 440.38621479322
  30
0.0
  11
 761.70579203303
  21
 440.38621479322
  31
0.0
   0
POINT
   5
185
 100
AcDbEntity
   8
LEVEL001
 100
AcDbPoint
  62
7
  10
 763.66426102601
  20
 440.38621479322
  30
0.0
   0
ARC
   5
186
 100
AcDbEntity
   8
LEVEL001
   6
CONTINUOUS
  62
7
 100
AcDbCircle
  10
 749.16426102601
  20
 453.98621479322
  30
0.0
  40
 17.500000000000
 100
AcDbArc
  50
 230.99971737201
  51
 309.00028262799
   0
LINE
   5
187
 100
AcDbEntity
   8
LEVEL001
 100
AcDbLine
   6
DASHDOT
  62
3
  10
 751.19944203576
  20
 458.35067455325
  30
0.0
  11
 739.46944869165
  21
 433.19562264928
  31
0.0
   0
LINE
   5
188
 100
AcDbEntity
   8
LEVEL001
 100
AcDbLine
   6
DASHDOT
  62
3
  10
 747.12272971300
  20
 458.36429282255
  30
0.0
  11
 758.78017792562
  21
 433.36481445512
  31
0.0
   0
LINE
   5
189
 100
AcDbEntity
   8
LEVEL001
 100
AcDbLine
   6
DASHDOT
  62
3
  10
 739.92125267863
  20
 401.96493106216
  30
0.0
  11
 742.94087689539
  21
 390.69554006541
  31
0.0
   0
LINE
   5
18A
 100
AcDbEntity
   8
LEVEL001
 100
AcDbLine
   6
DASHDOT
  62
3
  10
 758.40050959014
  20
 401.93970320757
  30
0.0
  11
 755.42226416927
  21
 390.82473997948
  31
0.0
   0
LINE
   5
18B
 100
AcDbEntity
   8
LEVEL001
 100
AcDbLine
   6
DOT
  62
1
  10
 736.16426102601
  20
 438.48621479322
  30
0.0
  11
 737.66426102601
  21
 438.48621479322
  31
0.0
   0
LINE
   5
18C
 100
AcDbEntity
   8
LEVEL001
 100
AcDbLine
   6
DOT
  62
1
  10
 736.16426102601
  20
 438.48621479322
  30
0.0
  11
 736.16426102601
  21
 440.34803309624
  31
0.0
   0
ARC
   5
18D
 100
AcDbEntity
   8
LEVEL001
   6
DOT
  62
1
 100
AcDbCircle
  10
 744.91426102603
  20
 431.38228814318
  30
0.0
  40
 3.0000000000000
 100
AcDbArc
  50
 0.53195837232633E-10
  51
 79.351541721646
   0
ARC
   5
18E
 100
AcDbEntity
   8
LEVEL001
   6
DOT
  62
1
 100
AcDbCircle
  10
 753.41426102601
  20
 431.38228814318
  30
0.0
  40
 3.0000000000000
 100
AcDbArc
  50
 100.64845827845
  51
 179.99999999996
   0
LINE
   5
18F
 100
AcDbEntity
   8
LEVEL001
 100
AcDbLine
   6
DOT
  62
1
  10
 738.85537223839
  20
 436.84775477009
  30
0.0
  11
 739.90244436714
  21
 439.09320819647
  31
0.0
   0
LINE
   5
190
 100
AcDbEntity
   8
LEVEL001
 100
AcDbLine
   6
DOT
  62
1
  10
 742.66186494389
  20
 435.07275807079
  30
0.0
  11
 743.75424357247
  21
 437.41537159959
  31
0.0
   0
LINE
   5
191
 100
AcDbEntity
   8
LEVEL001
 100
AcDbLine
   6
DOT
  62
1
  10
 755.66665710814
  20
 435.07275807079
  30
0.0
  11
 754.60596923055
  21
 437.34741056478
  31
0.0
   0
LINE
   5
192
 100
AcDbEntity
   8
LEVEL001
 100
AcDbLine
   6
DOT
  62
1
  10
 759.47314981364
  20
 436.84775477009
  30
0.0
  11
 758.41270249114
  21
 439.12189139203
  31
0.0
   0
LINE
   5
193
 100
AcDbEntity
   8
LEVEL001
 100
AcDbLine
   6
DOT
  62
1
  10
 736.16426102601
  20
 421.98621479322
  30
0.0
  11
 736.66426102601
  21
 421.98621479322
  31
0.0
   0
LINE
   5
194
 100
AcDbEntity
   8
LEVEL001
 100
AcDbLine
   6
DOT
  62
1
  10
 736.66426102601
  20
 418.98621479322
  30
0.0
  11
 736.66426102601
  21
 421.98621479322
  31
0.0
   0
LINE
   5
195
 100
AcDbEntity
   8
LEVEL001
 100
AcDbLine
   6
DOT
  62
1
  10
 736.66426102601
  20
 415.98621479322
  30
0.0
  11
 736.66426102601
  21
 418.98621479322
  31
0.0
   0
LINE
   5
196
 100
AcDbEntity
   8
LEVEL001
 100
AcDbLine
   6
DOT
  62
1
  10
 736.16426102604
  20
 415.98621479322
  30
0.0
  11
 736.66426102601
  21
 415.98621479322
  31
0.0
   0
LINE
   5
197
 100
AcDbEntity
   8
LEVEL001
 100
AcDbLine
   6
DOT
  62
1
  10
 761.66426102601
  20
 421.98621479322
  30
0.0
  11
 762.16426102601
  21
 421.98621479322
  31
0.0
   0
LINE
   5
198
 100
AcDbEntity
   8
LEVEL001
 100
AcDbLine
   6
DOT
  62
1
  10
 761.66426102601
  20
 415.98621479322
  30
0.0
  11
 761.66426102601
  21
 418.98621479322
  31
0.0
   0
LINE
   5
199
 100
AcDbEntity
   8
LEVEL001
 100
AcDbLine
   6
DOT
  62
1
  10
 761.66426102601
  20
 415.98621479322
  30
0.0
  11
 762.16426102599
  21
 415.98621479322
  31
0.0
   0
LINE
   5
19A
 100
AcDbEntity
   8
LEVEL001
 100
AcDbLine
   6
DOT
  62
1
  10
 761.66426102601
  20
 418.98621479322
  30
0.0
  11
 761.66426102601
  21
 421.98621479322
  31
0.0
   0
LINE
   5
19B
 100
AcDbEntity
   8
LEVEL001
 100
AcDbLine
   6
DOT
  62
1
  10
 736.16426102601
  20
 395.48621479322
  30
0.0
  11
 736.16426102601
  21
 436.98621479322
  31
0.0
   0
LINE
   5
19C
 100
AcDbEntity
   8
LEVEL001
 100
AcDbLine
   6
DOT
  62
1
  10
 736.16426102601
  20
 436.98621479322
  30
0.0
  11
 736.66426102601
  21
 436.98621479322
  31
0.0
   0
LINE
   5
19D
 100
AcDbEntity
   8
LEVEL001
 100
AcDbLine
   6
DOT
  62
1
  10
 736.66426102601
  20
 436.98621479322
  30
0.0
  11
 737.66426102601
  21
 437.98621479322
  31
0.0
   0
POINT
   5
19E
 100
AcDbEntity
   8
LEVEL001
 100
AcDbPoint
  62
1
  10
 737.66426102601
  20
 436.98621479322
  30
0.0
   0
LINE
   5
19F
 100
AcDbEntity
   8
LEVEL001
 100
AcDbLine
   6
DOT
  62
1
  10
 737.66426102601
  20
 437.98621479322
  30
0.0
  11
 737.66426102601
  21
 438.28621479322
  31
0.0
   0
LINE
   5
1A0
 100
AcDbEntity
   8
LEVEL001
 100
AcDbLine
   6
DOT
  62
1
  10
 736.16426102601
  20
 438.28621479322
  30
0.0
  11
 737.66426102601
  21
 438.28621479322
  31
0.0
   0
LINE
   5
1A1
 100
AcDbEntity
   8
LEVEL001
 100
AcDbLine
   6
DOT
  62
1
  10
 736.16426102601
  20
 438.28621479322
  30
0.0
  11
 736.16426102601
  21
 438.48621479322
  31
0.0
   0
ARC
   5
1A2
 100
AcDbEntity
   8
LEVEL001
   6
DOT
  62
1
 100
AcDbCircle
  10
 749.16426102601
  20
 453.98621479322
  30
0.0
  40
 20.000000000000
 100
AcDbArc
  50
 234.90036780462
  51
 259.35154172136
   0
LINE
   5
1A3
 100
AcDbEntity
   8
LEVEL001
 100
AcDbLine
   6
DOT
  62
1
  10
 737.66426102601
  20
 437.98621479322
  30
0.0
  11
 737.66426102601
  21
 437.62314662126
  31
0.0
   0
LINE
   5
1A4
 100
AcDbEntity
   8
LEVEL001
 100
AcDbLine
   6
DOT
  62
1
  10
 737.66426102601
  20
 438.28621479322
  30
0.0
  11
 737.66426102601
  21
 438.48621479322
  31
0.0
   0
LINE
   5
1A5
 100
AcDbEntity
   8
LEVEL001
 100
AcDbLine
   6
DOT
  62
1
  10
 762.16426102601
  20
 395.48621479322
  30
0.0
  11
 762.16426102601
  21
 436.98621479322
  31
0.0
   0
LINE
   5
1A6
 100
AcDbEntity
   8
LEVEL001
 100
AcDbLine
   6
DOT
  62
1
  10
 760.66426102601
  20
 437.98621479322
  30
0.0
  11
 761.66426102601
  21
 436.98621479322
  31
0.0
   0
LINE
   5
1A7
 100
AcDbEntity
   8
LEVEL001
 100
AcDbLine
   6
DOT
  62
1
  10
 762.16426102601
  20
 436.98621479322
  30
0.0
  11
 761.66426102601
  21
 436.98621479322
  31
0.0
   0
LINE
   5
1A8
 100
AcDbEntity
   8
LEVEL001
 100
AcDbLine
   6
DOT
  62
1
  10
 760.66426102601
  20
 437.98621479322
  30
0.0
  11
 760.66426102601
  21
 438.28621479322
  31
0.0
   0
LINE
   5
1A9
 100
AcDbEntity
   8
LEVEL001
 100
AcDbLine
   6
DOT
  62
1
  10
 760.66426102601
  20
 438.28621479322
  30
0.0
  11
 762.16426102601
  21
 438.28621479322
  31
0.0
   0
LINE
   5
1AA
 100
AcDbEntity
   8
LEVEL001
 100
AcDbLine
   6
DOT
  62
1
  10
 762.16426102601
  20
 438.28621479322
  30
0.0
  11
 762.16426102601
  21
 438.48621479322
  31
0.0
   0
ARC
   5
1AB
 100
AcDbEntity
   8
LEVEL001
   6
DOT
  62
1
 100
AcDbCircle
  10
 749.16426102601
  20
 453.98621479322
  30
0.0
  40
 20.000000000000
 100
AcDbArc
  50
 280.64845827865
  51
 305.09963219539
   0
LINE
   5
1AC
 100
AcDbEntity
   8
LEVEL001
 100
AcDbLine
   6
DOT
  62
1
  10
 762.16426102601
  20
 438.48621479322
  30
0.0
  11
 760.66426102601
  21
 438.48621479322
  31
0.0
   0
LINE
   5
1AD
 100
AcDbEntity
   8
LEVEL001
 100
AcDbLine
   6
DOT
  62
1
  10
 762.16426102601
  20
 438.48621479322
  30
0.0
  11
 762.16426102601
  21
 440.34803309624
  31
0.0
   0
LINE
   5
1AE
 100
AcDbEntity
   8
LEVEL001
 100
AcDbLine
   6
DOT
  62
1
  10
 760.66426102601
  20
 437.98621479322
  30
0.0
  11
 760.66426102601
  21
 437.62314662126
  31
0.0
   0
LINE
   5
1AF
 100
AcDbEntity
   8
LEVEL001
 100
AcDbLine
   6
DOT
  62
1
  10
 760.66426102601
  20
 438.28621479322
  30
0.0
  11
 760.66426102601
  21
 438.48621479322
  31
0.0
   0
LINE
   5
1B0
 100
AcDbEntity
   8
LEVEL001
 100
AcDbLine
   6
DOT
  62
1
  10
 750.41426102601
  20
 401.90194479221
  30
0.0
  11
 750.41426102602
  21
 431.38228814319
  31
0.0
   0
LINE
   5
1B1
 100
AcDbEntity
   8
LEVEL001
 100
AcDbLine
   6
DOT
  62
1
  10
 747.91426102601
  20
 401.90194479221
  30
0.0
  11
 747.91426102601
  21
 431.38228814319
  31
0.0
   0
ARC
   5
1B2
 100
AcDbEntity
   8
LEVEL001
   6
DOT
  62
1
 100
AcDbCircle
  10
 751.41426102601
  20
 397.76084007056
  30
0.0
  40
 1.0000000000000
 100
AcDbArc
  50
 75.000000000049
  51
 179.99999999983
   0
ARC
   5
1B3
 100
AcDbEntity
   8
LEVEL001
   6
DOT
  62
1
 100
AcDbCircle
  10
 751.41426102601
  20
 401.90194479217
  30
0.0
  40
 1.0000000000000
 100
AcDbArc
  50
 179.99999999804
  51
 254.99999999948
   0
ARC
   5
1B4
 100
AcDbEntity
   8
LEVEL001
   6
DOT
  62
1
 100
AcDbCircle
  10
 746.91426102601
  20
 401.90194479223
  30
0.0
  40
 1.0000000000000
 100
AcDbArc
  50
 284.99999999970
  51
0.0
   0
ARC
   5
1B5
 100
AcDbEntity
   8
LEVEL001
   6
DOT
  62
1
 100
AcDbCircle
  10
 746.91426102601
  20
 397.76084007050
  30
0.0
  40
 1.0000000000000
 100
AcDbArc
  50
 0.39343206965329E-8
  51
 104.99999999898
   0
LINE
   5
1B6
 100
AcDbEntity
   8
LEVEL001
 100
AcDbLine
   6
DOT
  62
1
  10
 747.91426102601
  20
 395.48621479322
  30
0.0
  11
 747.91426102601
  21
 397.76084007057
  31
0.0
   0
LINE
   5
1B7
 100
AcDbEntity
   8
LEVEL001
 100
AcDbLine
   6
DOT
  62
1
  10
 750.41426102601
  20
 395.48621479322
  30
0.0
  11
 750.41426102601
  21
 397.76084007057
  31
0.0
   0
LINE
   5
1B8
 100
AcDbEntity
   8
LEVEL001
 100
AcDbLine
   6
DOT
  62
1
  10
 736.16426102622
  20
 397.98621479322
  30
0.0
  11
 747.17308007112
  21
 400.93601896592
  31
0.0
   0
LINE
   5
1B9
 100
AcDbEntity
   8
LEVEL001
 100
AcDbLine
   6
DOT
  62
1
  10
 762.15785981751
  20
 397.98792999181
  30
0.0
  11
 751.15544198091
  21
 400.93601896592
  31
0.0
   0
LINE
   5
1BA
 100
AcDbEntity
   8
LEVEL001
 100
AcDbLine
   6
DOT
  62
1
  10
 739.00856600712
  20
 396.67779165506
  30
0.0
  11
 738.49092791691
  21
 398.60964330763
  31
0.0
   0
LINE
   5
1BB
 100
AcDbEntity
   8
LEVEL001
 100
AcDbLine
   6
DOT
  62
1
  10
 743.35523222545
  20
 397.84247735803
  30
0.0
  11
 742.83759413524
  21
 399.77432901060
  31
0.0
   0
LINE
   5
1BC
 100
AcDbEntity
   8
LEVEL001
 100
AcDbLine
   6
DOT
  62
1
  10
 754.97328982658
  20
 397.84247735803
  30
0.0
  11
 755.49092791679
  21
 399.77432901060
  31
0.0
   0
LINE
   5
1BD
 100
AcDbEntity
   8
LEVEL001
 100
AcDbLine
   6
DOT
  62
1
  10
 759.31995604491
  20
 396.67779165506
  30
0.0
  11
 759.83759413512
  21
 398.60964330763
  31
0.0
   0
LINE
   5
1BE
 100
AcDbEntity
   8
LEVEL001
 100
AcDbLine
   6
DOT
  62
1
  10
 760.16426102601
  20
 396.45156081720
  30
0.0
  11
 751.67308007112
  21
 398.72676589686
  31
0.0
   0
LINE
   5
1BF
 100
AcDbEntity
   8
LEVEL001
 100
AcDbLine
   6
DOT
  62
1
  10
 760.16426102601
  20
 393.98621479322
  30
0.0
  11
 760.16426102601
  21
 396.45156081720
  31
0.0
   0
LINE
   5
1C0
 100
AcDbEntity
   8
LEVEL001
 100
AcDbLine
   6
DOT
  62
1
  10
 734.66426102601
  20
 395.48621479322
  30
0.0
  11
 763.66426102601
  21
 395.48621479322
  31
0.0
   0
LINE
   5
1C1
 100
AcDbEntity
   8
LEVEL001
 100
AcDbLine
   6
DOT
  62
1
  10
 738.16426102601
  20
 396.45156081720
  30
0.0
  11
 746.65544198091
  21
 398.72676589686
  31
0.0
   0
LINE
   5
1C2
 100
AcDbEntity
   8
LEVEL001
 100
AcDbLine
   6
DOT
  62
1
  10
 738.16426102601
  20
 393.98621479322
  30
0.0
  11
 738.16426102601
  21
 396.45156081720
  31
0.0
   0
ARC
   5
1C3
 100
AcDbEntity
   8
LEVEL001
   6
CONTINUOUS
  62
7
 100
AcDbCircle
  10
 749.16426102602
  20
 453.98621479322
  30
0.0
  40
 18.500000000000
 100
AcDbArc
  50
 269.99999999997
  51
 312.68136391982
   0
ARC
   5
1C4
 100
AcDbEntity
   8
LEVEL001
   6
CONTINUOUS
  62
7
 100
AcDbCircle
  10
 749.16426102601
  20
 453.98621479322
  30
0.0
  40
 18.500000000000
 100
AcDbArc
  50
 227.31863608017
  51
 270.00000000002
   0
LINE
   5
1C5
 100
AcDbEntity
   8
LEVEL001
 100
AcDbLine
   6
CONTINUOUS
  62
7
  10
 734.96426102601
  20
 440.38621479322
  30
0.0
  11
 736.62273001901
  21
 440.38621479322
  31
0.0
   0
ARC
   5
1C6
 100
AcDbEntity
   8
LEVEL001
   6
CONTINUOUS
  62
7
 100
AcDbCircle
  10
 734.96426102601
  20
 440.08621479327
  30
0.0
  40
 0.30000000000000
 100
AcDbArc
  50
 90.000000000000
  51
 180.00000000961
   0
LINE
   5
1C7
 100
AcDbEntity
   8
LEVEL001
 100
AcDbLine
   6
CONTINUOUS
  62
7
  10
 734.66426102601
  20
 393.98621479322
  30
0.0
  11
 734.66426102601
  21
 440.08621479322
  31
0.0
   0
LINE
   5
1C8
 100
AcDbEntity
   8
LEVEL001
 100
AcDbLine
   6
CONTINUOUS
  62
7
  10
 761.70579203303
  20
 440.38621479322
  30
0.0
  11
 763.36426102601
  21
 440.38621479322
  31
0.0
   0
ARC
   5
1C9
 100
AcDbEntity
   8
LEVEL001
   6
CONTINUOUS
  62
7
 100
AcDbCircle
  10
 763.36426102601
  20
 440.08621479323
  30
0.0
  40
 0.30000000000000
 100
AcDbArc
  50
0.0
  51
 90.000000000000
   0
LINE
   5
1CA
 100
AcDbEntity
   8
LEVEL001
 100
AcDbLine
   6
CONTINUOUS
  62
7
  10
 763.66426102601
  20
 393.98621479322
  30
0.0
  11
 763.66426102601
  21
 440.08621479322
  31
0.0
   0
DIMENSION
   5
1CB
 100
AcDbEntity
   8
LEVEL001
   6
CONTINUOUS
  62
3
 100
AcDbDimension
   2
*D3
  10
 709.99781878113
  20
 393.98621479322
  30
0.0
  11
 709.99781878113
  21
 423.98621479322
  31
0.0
  70
0
   3
GMM001
 100
AcDbAlignedDimension
  13
 723.11997109451
  23
 453.98621479322
  33
0.0
  14
 734.66426102601
  24
 393.98621479322
  34
0.0
  50
 270.00000000000
 100
AcDbRotatedDimension
   0
DIMENSION
   5
1CC
 100
AcDbEntity
   8
LEVEL001
   6
CONTINUOUS
  62
3
 100
AcDbDimension
   2
*D4
  10
 793.65608540846
  20
 393.98621479322
  30
0.0
  11
 793.65608540846
  21
 432.73621479322
  31
0.0
  70
0
   3
GMM001
 100
AcDbAlignedDimension
  13
 749.16426102601
  23
 471.48621479322
  33
0.0
  14
 763.66426102601
  24
 393.98621479322
  34
0.0
  50
 270.00000000000
 100
AcDbRotatedDimension
   0
LINE
   5
1CD
 100
AcDbEntity
   8
LEVEL001
 100
AcDbLine
   6
CONTINUOUS
  62
7
  10
 585.34837533696
  20
 393.98621479322
  30
0.0
  11
 585.34837533696
  21
 395.48621479322
  31
0.0
   0
LINE
   5
1CE
 100
AcDbEntity
   8
LEVEL001
 100
AcDbLine
   6
CONTINUOUS
  62
7
  10
 630.34837533696
  20
 393.98621479322
  30
0.0
  11
 630.34837533696
  21
 395.48621479322
  31
0.0
   0
LINE
   5
1CF
 100
AcDbEntity
   8
LEVEL001
 100
AcDbLine
   6
DASHDOT
  62
3
  10
 594.34837533696
  20
 398.97887752524
  30
0.0
  11
 594.34837533696
  21
 389.90138907762
  31
0.0
   0
LINE
   5
1D0
 100
AcDbEntity
   8
LEVEL001
 100
AcDbLine
   6
DASHDOT
  62
3
  10
 603.34837533696
  20
 398.97887752524
  30
0.0
  11
 603.34837533696
  21
 389.90138907762
  31
0.0
   0
LINE
   5
1D1
 100
AcDbEntity
   8
LEVEL001
 100
AcDbLine
   6
DASHDOT
  62
3
  10
 612.84837533696
  20
 398.78144993507
  30
0.0
  11
 612.84837533696
  21
 389.90138907762
  31
0.0
   0
LINE
   5
1D2
 100
AcDbEntity
   8
LEVEL001
 100
AcDbLine
   6
DASHDOT
  62
3
  10
 621.84837533696
  20
 398.78144993507
  30
0.0
  11
 621.84837533696
  21
 389.90138907762
  31
0.0
   0
LINE
   5
1D3
 100
AcDbEntity
   8
LEVEL001
 100
AcDbLine
   6
CONTINUOUS
  62
7
  10
 391.17998331453
  20
 436.48621479322
  30
0.0
  11
 585.34837533696
  21
 436.48621479322
  31
0.0
   0
LINE
   5
1D4
 100
AcDbEntity
   8
LEVEL001
 100
AcDbLine
   6
CONTINUOUS
  62
7
  10
 630.34837533696
  20
 436.48621479322
  30
0.0
  11
 682.84837533696
  21
 436.48621479322
  31
0.0
   0
DIMENSION
   5
1D5
 100
AcDbEntity
   8
LEVEL001
   6
CONTINUOUS
  62
3
 100
AcDbDimension
   2
*D5
  10
 654.65739906437
  20
 436.48621479322
  30
0.0
  11
 654.65739906437
  21
 415.23621479322
  31
0.0
  70
0
   3
GMM001
 100
AcDbAlignedDimension
  13
 630.85044236013
  23
 393.98621479322
  33
0.0
  14
 654.65739906437
  24
 436.48621479322
  34
0.0
  50
 90.000000000000
 100
AcDbRotatedDimension
   0
DIMENSION
   5
1D6
 100
AcDbEntity
   8
LEVEL001
   6
CONTINUOUS
  62
3
 100
AcDbDimension
   2
*D6
  10
 654.65739906437
  20
 436.48621479322
  30
0.0
  11
 654.65739906437
  21
 453.98621479322
  31
0.0
  70
0
   3
GMM002
 100
AcDbAlignedDimension
  13
 654.65739906437
  23
 471.48621479322
  33
0.0
  14
 653.58614129297
  24
 436.48621479322
  34
0.0
  50
 270.00000000000
 100
AcDbRotatedDimension
   0
LINE
   5
1D7
 100
AcDbEntity
   8
LEVEL001
 100
AcDbLine
   6
DASHDOT
  62
3
  10
 69.093441112588
  20
 453.98621479322
  30
0.0
  11
 640.99434587623
  21
 453.98621479322
  31
0.0
   0
LINE
   5
1D8
 100
AcDbEntity
   8
LEVEL001
 100
AcDbLine
   6
DASHDOT
  62
3
  10
 657.09419651383
  20
 453.98621479322
  30
0.0
  11
 694.42532513711
  21
 453.98621479322
  31
0.0
   0
LINE
   5
1D9
 100
AcDbEntity
   8
LEVEL001
 100
AcDbLine
   6
CONTINUOUS
  62
7
  10
 585.34837533696
  20
 395.48621479322
  30
0.0
  11
 585.34837533696
  21
 441.61567263386
  31
0.0
   0
ARC
   5
1DA
 100
AcDbEntity
   8
LEVEL001
   6
CONTINUOUS
  62
7
 100
AcDbCircle
  10
 585.64837533692
  20
 441.61567263386
  30
0.0
  40
 0.30000000000000
 100
AcDbArc
  50
 89.999999992943
  51
 179.99999999999
   0
POINT
   5
1DB
 100
AcDbEntity
   8
LEVEL001
 100
AcDbPoint
  62
7
  10
 585.34837533696
  20
 441.91567263386
  30
0.0
   0
LINE
   5
1DC
 100
AcDbEntity
   8
LEVEL001
 100
AcDbLine
   6
CONTINUOUS
  62
7
  10
 630.04837533696
  20
 441.91567263386
  30
0.0
  11
 585.64837533696
  21
 441.91567263386
  31
0.0
   0
ARC
   5
1DD
 100
AcDbEntity
   8
LEVEL001
   6
CONTINUOUS
  62
7
 100
AcDbCircle
  10
 630.04837533696
  20
 441.61567263384
  30
0.0
  40
 0.30000000000000
 100
AcDbArc
  50
 0.46356372445359E-8
  51
 90.000000000000
   0
POINT
   5
1DE
 100
AcDbEntity
   8
LEVEL001
 100
AcDbPoint
  62
7
  10
 630.34837533696
  20
 441.91567263386
  30
0.0
   0
LINE
   5
1DF
 100
AcDbEntity
   8
LEVEL001
 100
AcDbLine
   6
CONTINUOUS
  62
7
  10
 630.34837533696
  20
 395.48621479322
  30
0.0
  11
 630.34837533696
  21
 441.61567263386
  31
0.0
   0
LINE
   5
1E0
 100
AcDbEntity
   8
LEVEL001
 100
AcDbLine
   6
CONTINUOUS
  62
7
  10
 630.34837533696
  20
 393.98621479322
  30
0.0
  11
 585.34837533696
  21
 393.98621479322
  31
0.0
   0
LINE
   5
1E1
 100
AcDbEntity
   8
LEVEL001
 100
AcDbLine
   6
CONTINUOUS
  62
7
  10
 585.34837533696
  20
 395.48621479322
  30
0.0
  11
 630.34837533696
  21
 395.48621479322
  31
0.0
   0
LINE
   5
1E2
 100
AcDbEntity
   8
LEVEL001
 100
AcDbLine
   6
CONTINUOUS
  62
7
  10
 180.34837533696
  20
 393.98621479322
  30
0.0
  11
 180.34837533696
  21
 395.48621479322
  31
0.0
   0
LINE
   5
1E3
 100
AcDbEntity
   8
LEVEL001
 100
AcDbLine
   6
DASHDOT
  62
3
  10
 171.34837533696
  20
 398.97887752524
  30
0.0
  11
 171.34837533696
  21
 389.90138907762
  31
0.0
   0
LINE
   5
1E4
 100
AcDbEntity
   8
LEVEL001
 100
AcDbLine
   6
DASHDOT
  62
3
  10
 162.34837533696
  20
 398.97887752524
  30
0.0
  11
 162.34837533696
  21
 389.90138907762
  31
0.0
   0
LINE
   5
1E5
 100
AcDbEntity
   8
LEVEL001
 100
AcDbLine
   6
CONTINUOUS
  62
7
  10
 180.34837533696
  20
 395.48621479322
  30
0.0
  11
 180.34837533696
  21
 441.61567263386
  31
0.0
   0
LINE
   5
1E6
 100
AcDbEntity
   8
LEVEL001
 100
AcDbLine
   6
CONTINUOUS
  62
7
  10
 135.34837533696
  20
 393.98621479322
  30
0.0
  11
 180.34837533696
  21
 393.98621479322
  31
0.0
   0
LINE
   5
1E7
 100
AcDbEntity
   8
LEVEL001
 100
AcDbLine
   6
CONTINUOUS
  62
7
  10
 180.34837533696
  20
 395.48621479322
  30
0.0
  11
 135.34837533696
  21
 395.48621479322
  31
0.0
   0
LINE
   5
1E8
 100
AcDbEntity
   8
LEVEL001
 100
AcDbLine
   6
DASHDOT
  62
3
  10
 152.84837533696
  20
 398.78144993507
  30
0.0
  11
 152.84837533696
  21
 389.90138907762
  31
0.0
   0
LINE
   5
1E9
 100
AcDbEntity
   8
LEVEL001
 100
AcDbLine
   6
DASHDOT
  62
3
  10
 143.84837533696
  20
 398.78144993507
  30
0.0
  11
 143.84837533696
  21
 389.90138907762
  31
0.0
   0
LINE
   5
1EA
 100
AcDbEntity
   8
LEVEL001
 100
AcDbLine
   6
CONTINUOUS
  62
7
  10
 135.34837533696
  20
 395.48621479322
  30
0.0
  11
 135.34837533696
  21
 441.61567263386
  31
0.0
   0
LINE
   5
1EB
 100
AcDbEntity
   8
LEVEL001
 100
AcDbLine
   6
CONTINUOUS
  62
7
  10
 135.64837533696
  20
 441.91567263386
  30
0.0
  11
 180.04837533696
  21
 441.91567263386
  31
0.0
   0
ARC
   5
1EC
 100
AcDbEntity
   8
LEVEL001
   6
CONTINUOUS
  62
7
 100
AcDbCircle
  10
 135.64837533696
  20
 441.61567263385
  30
0.0
  40
 0.30000000000000
 100
AcDbArc
  50
 90.000000000011
  51
 179.99999999845
   0
POINT
   5
1ED
 100
AcDbEntity
   8
LEVEL001
 100
AcDbPoint
  62
7
  10
 135.34837533696
  20
 441.91567263386
  30
0.0
   0
ARC
   5
1EE
 100
AcDbEntity
   8
LEVEL001
   6
CONTINUOUS
  62
7
 100
AcDbCircle
  10
 180.04837533696
  20
 441.61567263386
  30
0.0
  40
 0.30000000000000
 100
AcDbArc
  50
0.0
  51
 90.000000000869
   0
POINT
   5
1EF
 100
AcDbEntity
   8
LEVEL001
 100
AcDbPoint
  62
7
  10
 180.34837533696
  20
 441.91567263386
  30
0.0
   0
LINE
   5
1F0
 100
AcDbEntity
   8
LEVEL001
 100
AcDbLine
   6
CONTINUOUS
  62
7
  10
 135.34837533696
  20
 393.98621479322
  30
0.0
  11
 135.34837533696
  21
 395.48621479322
  31
0.0
   0
LINE
   5
1F1
 100
AcDbEntity
   8
LEVEL001
 100
AcDbLine
   6
CONTINUOUS
  62
7
  10
 82.848375336957
  20
 436.48621479322
  30
0.0
  11
 135.34837533696
  21
 436.48621479322
  31
0.0
   0
LINE
   5
1F2
 100
AcDbEntity
   8
LEVEL001
 100
AcDbLine
   6
CONTINUOUS
  62
7
  10
 180.34837533696
  20
 436.48621479322
  30
0.0
  11
 374.51676735939
  21
 436.48621479322
  31
0.0
   0
DIMENSION
   5
1F3
 100
AcDbEntity
   8
LEVEL001
   6
CONTINUOUS
  62
3
 100
AcDbDimension
   2
*D7
  10
 757.66426102598
  20
 364.89489352388
  30
0.0
  11
 749.16426102601
  21
 364.89489352388
  31
0.0
  70
0
   3
GMM001
 100
AcDbAlignedDimension
  13
 740.66426102605
  23
 399.19198615911
  33
0.0
  14
 757.66426102598
  24
 399.19198615911
  34
0.0
 100
AcDbRotatedDimension
   0
DIMENSION
   5
1F4
 100
AcDbEntity
   8
LEVEL001
   6
CONTINUOUS
  62
3
 100
AcDbDimension
   2
*D8
  10
 763.66426102601
  20
 346.22360020986
  30
0.0
  11
 749.16426102601
  21
 346.22360020986
  31
0.0
  70
0
   3
GMM001
 100
AcDbAlignedDimension
  13
 734.66426102601
  23
 393.98621479322
  33
0.0
  14
 763.66426102601
  24
 393.98621479322
  34
0.0
 100
AcDbRotatedDimension
   0
DIMENSION
   5
1F5
 100
AcDbEntity
   8
LEVEL001
   6
CONTINUOUS
  62
3
 100
AcDbDimension
   2
*D9
  10
 630.34837533696
  20
 414.39781731761
  30
0.0
  11
 607.84837533696
  21
 414.39781731761
  31
0.0
  70
0
   3
GMM001
 100
AcDbAlignedDimension
  13
 585.34837533696
  23
 412.52879076894
  33
0.0
  14
 630.34837533696
  24
 417.20135714062
  34
0.0
 100
AcDbRotatedDimension
   0
DIMENSION
   5
1F6
 100
AcDbEntity
   8
LEVEL001
   6
CONTINUOUS
  62
3
 100
AcDbDimension
   2
*D10
  10
 682.84837533696
  20
 508.30830956856
  30
0.0
  11
 382.84837533696
  21
 508.30830956856
  31
0.0
  70
0
   1
\A1;400üE600üE800
   3
GMM003
 100
AcDbAlignedDimension
  13
 82.848375336957
  23
 471.48621479322
  33
0.0
  14
 682.84837533696
  24
 471.48621479322
  34
0.0
 100
AcDbRotatedDimension
   0
DIMENSION
   5
1F7
 100
AcDbEntity
   8
LEVEL001
   6
CONTINUOUS
  62
3
 100
AcDbDimension
   2
*D11
  10
 607.84837533696
  20
 364.89489352388
  30
0.0
  11
 382.84837533696
  21
 364.89489352388
  31
0.0
  70
0
   1
\A1;250üE450üE600
   3
GMM004
 100
AcDbAlignedDimension
  13
 157.84837533696
  23
 385.71480984063
  33
0.0
  14
 607.84837533696
  24
 385.71480984063
  34
0.0
 100
AcDbRotatedDimension
   0
LINE
   5
1F8
 100
AcDbEntity
   8
LEVEL001
 100
AcDbLine
   6
DASHDOT
  62
3
  10
 382.84837533696
  20
 318.38831758865
  30
0.0
  11
 382.84837533696
  21
 260.12315939225
  31
0.0
   0
LINE
   5
1F9
 100
AcDbEntity
   8
LEVEL001
 100
AcDbLine
   6
DASHDOT
  62
3
  10
 69.093441112588
  20
 291.10043764159
  30
0.0
  11
 694.42532513711
  21
 291.10043764159
  31
0.0
   0
LINE
   5
1FA
 100
AcDbEntity
   8
LEVEL001
 100
AcDbLine
   6
CONTINUOUS
  62
15
  10
 82.848375336957
  20
 308.60043764159
  30
0.0
  11
 82.848375336957
  21
 273.60043764159
  31
0.0
   0
LINE
   5
1FB
 100
AcDbEntity
   8
LEVEL001
 100
AcDbLine
   6
CONTINUOUS
  62
15
  10
 682.84837533696
  20
 308.60043764159
  30
0.0
  11
 682.84837533696
  21
 273.60043764159
  31
0.0
   0
ELLIPSE
   5
1FC
 100
AcDbEntity
   8
LEVEL001
   6
CONTINUOUS
  62
15
 100
AcDbEllipse
  10
 391.17998331453
  20
 299.85043764159
  30
0.0
  11
0.0
  21
-8.7500000000000
  31
0.0
  40
 0.62667612265204
  41
0.0
  42
 6.2831853071796
   0
ELLIPSE
   5
1FD
 100
AcDbEntity
   8
LEVEL001
   6
CONTINUOUS
  62
15
 100
AcDbEllipse
  10
 391.17998331453
  20
 282.35043764159
  30
0.0
  11
0.0
  21
-8.7500000000000
  31
0.0
  40
 0.62667612265204
  41
 3.1415926535898
  42
0.0
   0
ELLIPSE
   5
1FE
 100
AcDbEntity
   8
LEVEL001
   6
CONTINUOUS
  62
15
 100
AcDbEllipse
  10
 374.51676735939
  20
 282.35043764159
  30
0.0
  11
0.0
  21
 8.7500000000000
  31
0.0
  40
 0.62667612265204
  41
0.0
  42
 6.2831853071796
   0
ELLIPSE
   5
1FF
 100
AcDbEntity
   8
LEVEL001
   6
CONTINUOUS
  62
15
 100
AcDbEllipse
  10
 374.51676735939
  20
 299.85043764159
  30
0.0
  11
0.0
  21
 8.7500000000000
  31
0.0
  40
 0.62667612265204
  41
 3.1415926535898
  42
 0.22204460492503E-15
   0
ELLIPSE
   5
200
 100
AcDbEntity
   8
LEVEL001
   6
CONTINUOUS
  62
7
 100
AcDbEllipse
  10
 594.34837533696
  20
 296.57043764159
  30
0.0
  11
0.0
  21
-2.5000000000000
  31
0.0
  40
 0.90000000000000
  41
0.0
  42
 6.2831853071796
   0
ELLIPSE
   5
201
 100
AcDbEntity
   8
LEVEL001
   6
CONTINUOUS
  62
7
 100
AcDbEllipse
  10
 594.34837533696
  20
 299.40043764159
  30
0.0
  11
0.0
  21
-2.5000000000000
  31
0.0
  40
 0.90000000000000
  41
-0.96915058189576
  42
 0.96915058189576
   0
ELLIPSE
   5
202
 100
AcDbEntity
   8
LEVEL001
   6
CONTINUOUS
  62
7
 100
AcDbEllipse
  10
 612.84837533696
  20
 296.57043764159
  30
0.0
  11
0.0
  21
-2.5000000000000
  31
0.0
  40
 0.90000000000000
  41
0.0
  42
 6.2831853071796
   0
ELLIPSE
   5
203
 100
AcDbEntity
   8
LEVEL001
   6
CONTINUOUS
  62
7
 100
AcDbEllipse
  10
 612.84837533696
  20
 299.40043764159
  30
0.0
  11
0.0
  21
-2.5000000000000
  31
0.0
  40
 0.90000000000000
  41
-0.96915058189576
  42
 0.96915058189576
   0
ELLIPSE
   5
204
 100
AcDbEntity
   8
LEVEL001
   6
CONTINUOUS
  62
7
 100
AcDbEllipse
  10
 603.34837533696
  20
 285.63043764159
  30
0.0
  11
0.0
  21
 2.5000000000000
  31
0.0
  40
 0.90000000000000
  41
0.0
  42
 6.2831853071796
   0
ELLIPSE
   5
205
 100
AcDbEntity
   8
LEVEL001
   6
CONTINUOUS
  62
7
 100
AcDbEllipse
  10
 603.34837533696
  20
 282.80043764159
  30
0.0
  11
0.0
  21
 2.5000000000000
  31
0.0
  40
 0.90000000000000
  41
-0.96915058189576
  42
 0.96915058189576
   0
ELLIPSE
   5
206
 100
AcDbEntity
   8
LEVEL001
   6
CONTINUOUS
  62
7
 100
AcDbEllipse
  10
 621.84837533696
  20
 285.63043764159
  30
0.0
  11
0.0
  21
 2.5000000000000
  31
0.0
  40
 0.90000000000000
  41
0.0
  42
 6.2831853071796
   0
ELLIPSE
   5
207
 100
AcDbEntity
   8
LEVEL001
   6
CONTINUOUS
  62
7
 100
AcDbEllipse
  10
 621.84837533696
  20
 282.80043764159
  30
0.0
  11
0.0
  21
 2.5000000000000
  31
0.0
  40
 0.90000000000000
  41
-0.96915058189576
  42
 0.96915058189576
   0
ELLIPSE
   5
208
 100
AcDbEntity
   8
LEVEL001
   6
DOT
  62
1
 100
AcDbEllipse
  10
 594.34837533696
  20
 299.40043764159
  30
0.0
  11
0.0
  21
-2.5000000000000
  31
0.0
  40
 0.90000000000000
  41
 0.96915058189576
  42
-0.96915058189576
   0
ELLIPSE
   5
209
 100
AcDbEntity
   8
LEVEL001
   6
DOT
  62
1
 100
AcDbEllipse
  10
 612.84837533696
  20
 299.40043764159
  30
0.0
  11
0.0
  21
-2.5000000000000
  31
0.0
  40
 0.90000000000000
  41
 0.96915058189576
  42
-0.96915058189576
   0
ELLIPSE
   5
20A
 100
AcDbEntity
   8
LEVEL001
   6
DOT
  62
1
 100
AcDbEllipse
  10
 621.84837533696
  20
 282.80043764159
  30
0.0
  11
0.0
  21
 2.5000000000000
  31
0.0
  40
 0.90000000000000
  41
 0.96915058189576
  42
-0.96915058189576
   0
ELLIPSE
   5
20B
 100
AcDbEntity
   8
LEVEL001
   6
DOT
  62
1
 100
AcDbEllipse
  10
 603.34837533696
  20
 282.80043764159
  30
0.0
  11
0.0
  21
 2.5000000000000
  31
0.0
  40
 0.90000000000000
  41
 0.96915058189576
  42
-0.96915058189576
   0
ARC
   5
20C
 100
AcDbEntity
   8
LEVEL001
   6
CONTINUOUS
  62
7
 100
AcDbCircle
  10
 585.64837533696
  20
 305.30043764156
  30
0.0
  40
 0.30000000000000
 100
AcDbArc
  50
 90.000000000000
  51
 179.99999999337
   0
POINT
   5
20D
 100
AcDbEntity
   8
LEVEL001
 100
AcDbPoint
  62
7
  10
 585.34837533696
  20
 305.60043764159
  30
0.0
   0
LINE
   5
20E
 100
AcDbEntity
   8
LEVEL001
 100
AcDbLine
   6
CONTINUOUS
  62
7
  10
 585.34837533696
  20
 276.90043764159
  30
0.0
  11
 585.34837533696
  21
 305.30043764159
  31
0.0
   0
ARC
   5
20F
 100
AcDbEntity
   8
LEVEL001
   6
CONTINUOUS
  62
7
 100
AcDbCircle
  10
 585.64837533694
  20
 276.90043764159
  30
0.0
  40
 0.30000000000000
 100
AcDbArc
  50
 180.00000000001
  51
 270.00000000276
   0
POINT
   5
210
 100
AcDbEntity
   8
LEVEL001
 100
AcDbPoint
  62
7
  10
 585.34837533696
  20
 276.60043764159
  30
0.0
   0
LINE
   5
211
 100
AcDbEntity
   8
LEVEL001
 100
AcDbLine
   6
CONTINUOUS
  62
7
  10
 585.64837533696
  20
 276.60043764159
  30
0.0
  11
 630.04837533696
  21
 276.60043764159
  31
0.0
   0
ARC
   5
212
 100
AcDbEntity
   8
LEVEL001
   6
CONTINUOUS
  62
7
 100
AcDbCircle
  10
 630.04837533696
  20
 276.90043764159
  30
0.0
  40
 0.30000000000000
 100
AcDbArc
  50
 270.00000000000
  51
0.0
   0
POINT
   5
213
 100
AcDbEntity
   8
LEVEL001
 100
AcDbPoint
  62
7
  10
 630.34837533696
  20
 276.60043764159
  30
0.0
   0
LINE
   5
214
 100
AcDbEntity
   8
LEVEL001
 100
AcDbLine
   6
CONTINUOUS
  62
7
  10
 585.64837533696
  20
 305.60043764159
  30
0.0
  11
 630.04837533696
  21
 305.60043764159
  31
0.0
   0
ARC
   5
215
 100
AcDbEntity
   8
LEVEL001
   6
CONTINUOUS
  62
7
 100
AcDbCircle
  10
 630.04837533696
  20
 305.30043764157
  30
0.0
  40
 0.30000000000000
 100
AcDbArc
  50
 0.42013855120267E-8
  51
 90.000000000000
   0
POINT
   5
216
 100
AcDbEntity
   8
LEVEL001
 100
AcDbPoint
  62
7
  10
 630.34837533696
  20
 305.60043764159
  30
0.0
   0
LINE
   5
217
 100
AcDbEntity
   8
LEVEL001
 100
AcDbLine
   6
CONTINUOUS
  62
7
  10
 630.34837533696
  20
 276.90043764159
  30
0.0
  11
 630.34837533696
  21
 305.30043764159
  31
0.0
   0
ARC
   5
218
 100
AcDbEntity
   8
LEVEL001
   6
CONTINUOUS
  62
15
 100
AcDbCircle
  10
 619.09837533697
  20
 302.10043764159
  30
0.0
  40
 0.50000000000000
 100
AcDbArc
  50
 90.000000000964
  51
 180.00000000000
   0
POINT
   5
219
 100
AcDbEntity
   8
LEVEL001
 100
AcDbPoint
  62
15
  10
 618.59837533696
  20
 302.60043764159
  30
0.0
   0
ARC
   5
21A
 100
AcDbEntity
   8
LEVEL001
   6
CONTINUOUS
  62
15
 100
AcDbCircle
  10
 619.09837533696
  20
 292.60043764158
  30
0.0
  40
 0.50000000000000
 100
AcDbArc
  50
 179.99999999909
  51
 270.00000000000
   0
POINT
   5
21B
 100
AcDbEntity
   8
LEVEL001
 100
AcDbPoint
  62
15
  10
 618.59837533696
  20
 292.10043764159
  30
0.0
   0
LINE
   5
21C
 100
AcDbEntity
   8
LEVEL001
 100
AcDbLine
   6
CONTINUOUS
  62
15
  10
 618.59837533696
  20
 292.60043764159
  30
0.0
  11
 618.59837533696
  21
 302.10043764159
  31
0.0
   0
LINE
   5
21D
 100
AcDbEntity
   8
LEVEL001
 100
AcDbLine
   6
CONTINUOUS
  62
15
  10
 627.64837533696
  20
 292.10043764159
  30
0.0
  11
 619.09837533696
  21
 292.10043764159
  31
0.0
   0
ARC
   5
21E
 100
AcDbEntity
   8
LEVEL001
   6
CONTINUOUS
  62
15
 100
AcDbCircle
  10
 627.64837533696
  20
 292.60043764159
  30
0.0
  40
 0.50000000000000
 100
AcDbArc
  50
 270.00000000000
  51
 0.36477145530769E-9
   0
POINT
   5
21F
 100
AcDbEntity
   8
LEVEL001
 100
AcDbPoint
  62
15
  10
 628.14837533696
  20
 292.10043764159
  30
0.0
   0
LINE
   5
220
 100
AcDbEntity
   8
LEVEL001
 100
AcDbLine
   6
CONTINUOUS
  62
15
  10
 627.64837533696
  20
 302.60043764159
  30
0.0
  11
 619.09837533696
  21
 302.60043764159
  31
0.0
   0
ARC
   5
221
 100
AcDbEntity
   8
LEVEL001
   6
CONTINUOUS
  62
15
 100
AcDbCircle
  10
 627.64837533696
  20
 302.10043764160
  30
0.0
  40
 0.50000000000000
 100
AcDbArc
  50
0.0
  51
 90.000000000000
   0
POINT
   5
222
 100
AcDbEntity
   8
LEVEL001
 100
AcDbPoint
  62
15
  10
 628.14837533696
  20
 302.60043764159
  30
0.0
   0
LINE
   5
223
 100
AcDbEntity
   8
LEVEL001
 100
AcDbLine
   6
CONTINUOUS
  62
15
  10
 628.14837533696
  20
 302.10043764159
  30
0.0
  11
 628.14837533696
  21
 292.60043764159
  31
0.0
   0
ARC
   5
224
 100
AcDbEntity
   8
LEVEL001
   6
CONTINUOUS
  62
15
 100
AcDbCircle
  10
 610.09837533697
  20
 302.10043764159
  30
0.0
  40
 0.50000000000000
 100
AcDbArc
  50
 90.000000000938
  51
 180.00000000000
   0
POINT
   5
225
 100
AcDbEntity
   8
LEVEL001
 100
AcDbPoint
  62
15
  10
 609.59837533696
  20
 302.60043764159
  30
0.0
   0
LINE
   5
226
 100
AcDbEntity
   8
LEVEL001
 100
AcDbLine
   6
CONTINUOUS
  62
15
  10
 610.09837533696
  20
 302.60043764159
  30
0.0
  11
 615.59837533696
  21
 302.60043764159
  31
0.0
   0
ARC
   5
227
 100
AcDbEntity
   8
LEVEL001
   6
CONTINUOUS
  62
15
 100
AcDbCircle
  10
 615.59837533696
  20
 302.10043764158
  30
0.0
  40
 0.50000000000000
 100
AcDbArc
  50
 0.91192863826922E-9
  51
 90.000000000000
   0
POINT
   5
228
 100
AcDbEntity
   8
LEVEL001
 100
AcDbPoint
  62
15
  10
 616.09837533696
  20
 302.60043764159
  30
0.0
   0
LINE
   5
229
 100
AcDbEntity
   8
LEVEL001
 100
AcDbLine
   6
CONTINUOUS
  62
15
  10
 616.09837533696
  20
 302.10043764159
  30
0.0
  11
 616.09837533696
  21
 292.60043764159
  31
0.0
   0
ARC
   5
22A
 100
AcDbEntity
   8
LEVEL001
   6
CONTINUOUS
  62
15
 100
AcDbCircle
  10
 615.59837533697
  20
 292.60043764159
  30
0.0
  40
 0.50000000000000
 100
AcDbArc
  50
 269.99999999904
  51
0.0
   0
POINT
   5
22B
 100
AcDbEntity
   8
LEVEL001
 100
AcDbPoint
  62
15
  10
 616.09837533696
  20
 292.10043764159
  30
0.0
   0
LINE
   5
22C
 100
AcDbEntity
   8
LEVEL001
 100
AcDbLine
   6
CONTINUOUS
  62
15
  10
 610.09837533696
  20
 292.10043764159
  30
0.0
  11
 615.59837533696
  21
 292.10043764159
  31
0.0
   0
ARC
   5
22D
 100
AcDbEntity
   8
LEVEL001
   6
CONTINUOUS
  62
15
 100
AcDbCircle
  10
 610.09837533696
  20
 292.60043764158
  30
0.0
  40
 0.50000000000000
 100
AcDbArc
  50
 179.99999999909
  51
 270.00000000000
   0
POINT
   5
22E
 100
AcDbEntity
   8
LEVEL001
 100
AcDbPoint
  62
15
  10
 609.59837533696
  20
 292.10043764159
  30
0.0
   0
LINE
   5
22F
 100
AcDbEntity
   8
LEVEL001
 100
AcDbLine
   6
CONTINUOUS
  62
15
  10
 609.59837533696
  20
 292.60043764159
  30
0.0
  11
 609.59837533696
  21
 302.10043764159
  31
0.0
   0
ARC
   5
230
 100
AcDbEntity
   8
LEVEL001
   6
CONTINUOUS
  62
15
 100
AcDbCircle
  10
 588.04837533692
  20
 302.10043764159
  30
0.0
  40
 0.50000000000000
 100
AcDbArc
  50
 89.999999995623
  51
 180.00000000000
   0
POINT
   5
231
 100
AcDbEntity
   8
LEVEL001
 100
AcDbPoint
  62
15
  10
 587.54837533696
  20
 302.60043764159
  30
0.0
   0
ARC
   5
232
 100
AcDbEntity
   8
LEVEL001
   6
CONTINUOUS
  62
15
 100
AcDbCircle
  10
 589.09837533697
  20
 302.10043764159
  30
0.0
  40
 0.50000000000000
 100
AcDbArc
  50
0.0
  51
 90.000000000912
   0
POINT
   5
233
 100
AcDbEntity
   8
LEVEL001
 100
AcDbPoint
  62
15
  10
 589.59837533696
  20
 302.60043764159
  30
0.0
   0
LINE
   5
234
 100
AcDbEntity
   8
LEVEL001
 100
AcDbLine
   6
CONTINUOUS
  62
15
  10
 588.04837533696
  20
 302.60043764159
  30
0.0
  11
 589.09837533696
  21
 302.60043764159
  31
0.0
   0
ARC
   5
235
 100
AcDbEntity
   8
LEVEL001
   6
CONTINUOUS
  62
15
 100
AcDbCircle
  10
 591.59837533697
  20
 302.10043764159
  30
0.0
  40
 0.50000000000000
 100
AcDbArc
  50
 90.000000000964
  51
 180.00000000000
   0
POINT
   5
236
 100
AcDbEntity
   8
LEVEL001
 100
AcDbPoint
  62
15
  10
 591.09837533696
  20
 302.60043764159
  30
0.0
   0
ARC
   5
237
 100
AcDbEntity
   8
LEVEL001
   6
CONTINUOUS
  62
15
 100
AcDbCircle
  10
 597.09837533697
  20
 302.10043764159
  30
0.0
  40
 0.50000000000000
 100
AcDbArc
  50
0.0
  51
 90.000000000912
   0
POINT
   5
238
 100
AcDbEntity
   8
LEVEL001
 100
AcDbPoint
  62
15
  10
 597.59837533696
  20
 302.60043764159
  30
0.0
   0
LINE
   5
239
 100
AcDbEntity
   8
LEVEL001
 100
AcDbLine
   6
CONTINUOUS
  62
15
  10
 591.59837533696
  20
 302.60043764159
  30
0.0
  11
 597.09837533696
  21
 302.60043764159
  31
0.0
   0
ARC
   5
23A
 100
AcDbEntity
   8
LEVEL001
   6
CONTINUOUS
  62
15
 100
AcDbCircle
  10
 600.59837533697
  20
 302.10043764159
  30
0.0
  40
 0.50000000000000
 100
AcDbArc
  50
 90.000000000938
  51
 180.00000000000
   0
POINT
   5
23B
 100
AcDbEntity
   8
LEVEL001
 100
AcDbPoint
  62
15
  10
 600.09837533696
  20
 302.60043764159
  30
0.0
   0
LINE
   5
23C
 100
AcDbEntity
   8
LEVEL001
 100
AcDbLine
   6
CONTINUOUS
  62
15
  10
 600.59837533696
  20
 302.60043764159
  30
0.0
  11
 606.09837533696
  21
 302.60043764159
  31
0.0
   0
ARC
   5
23D
 100
AcDbEntity
   8
LEVEL001
   6
CONTINUOUS
  62
15
 100
AcDbCircle
  10
 606.09837533696
  20
 302.10043764158
  30
0.0
  40
 0.50000000000000
 100
AcDbArc
  50
 0.91192863826922E-9
  51
 90.000000000000
   0
POINT
   5
23E
 100
AcDbEntity
   8
LEVEL001
 100
AcDbPoint
  62
15
  10
 606.59837533696
  20
 302.60043764159
  30
0.0
   0
ARC
   5
23F
 100
AcDbEntity
   8
LEVEL001
   6
CONTINUOUS
  62
15
 100
AcDbCircle
  10
 606.09837533696
  20
 292.60043764160
  30
0.0
  40
 0.50000000000000
 100
AcDbArc
  50
 270.00000000000
  51
0.0
   0
POINT
   5
240
 100
AcDbEntity
   8
LEVEL001
 100
AcDbPoint
  62
15
  10
 606.59837533696
  20
 292.10043764159
  30
0.0
   0
LINE
   5
241
 100
AcDbEntity
   8
LEVEL001
 100
AcDbLine
   6
CONTINUOUS
  62
15
  10
 606.59837533696
  20
 302.10043764159
  30
0.0
  11
 606.59837533696
  21
 292.60043764159
  31
0.0
   0
LINE
   5
242
 100
AcDbEntity
   8
LEVEL001
 100
AcDbLine
   6
CONTINUOUS
  62
15
  10
 600.59837533696
  20
 292.10043764159
  30
0.0
  11
 606.09837533696
  21
 292.10043764159
  31
0.0
   0
ARC
   5
243
 100
AcDbEntity
   8
LEVEL001
   6
CONTINUOUS
  62
15
 100
AcDbCircle
  10
 600.59837533696
  20
 292.60043764158
  30
0.0
  40
 0.50000000000000
 100
AcDbArc
  50
 179.99999999909
  51
 270.00000000000
   0
POINT
   5
244
 100
AcDbEntity
   8
LEVEL001
 100
AcDbPoint
  62
15
  10
 600.09837533696
  20
 292.10043764159
  30
0.0
   0
LINE
   5
245
 100
AcDbEntity
   8
LEVEL001
 100
AcDbLine
   6
CONTINUOUS
  62
15
  10
 600.09837533696
  20
 292.60043764159
  30
0.0
  11
 600.09837533696
  21
 302.10043764159
  31
0.0
   0
ARC
   5
246
 100
AcDbEntity
   8
LEVEL001
   6
CONTINUOUS
  62
15
 100
AcDbCircle
  10
 597.09837533696
  20
 292.60043764160
  30
0.0
  40
 0.50000000000000
 100
AcDbArc
  50
 270.00000000000
  51
0.0
   0
POINT
   5
247
 100
AcDbEntity
   8
LEVEL001
 100
AcDbPoint
  62
15
  10
 597.59837533696
  20
 292.10043764159
  30
0.0
   0
LINE
   5
248
 100
AcDbEntity
   8
LEVEL001
 100
AcDbLine
   6
CONTINUOUS
  62
15
  10
 597.59837533696
  20
 302.10043764159
  30
0.0
  11
 597.59837533696
  21
 292.60043764159
  31
0.0
   0
LINE
   5
249
 100
AcDbEntity
   8
LEVEL001
 100
AcDbLine
   6
CONTINUOUS
  62
15
  10
 591.09837533696
  20
 292.60043764159
  30
0.0
  11
 591.09837533696
  21
 302.10043764159
  31
0.0
   0
ARC
   5
24A
 100
AcDbEntity
   8
LEVEL001
   6
CONTINUOUS
  62
15
 100
AcDbCircle
  10
 591.59837533697
  20
 292.60043764159
  30
0.0
  40
 0.50000000000000
 100
AcDbArc
  50
 180.00000000000
  51
 269.99999999909
   0
POINT
   5
24B
 100
AcDbEntity
   8
LEVEL001
 100
AcDbPoint
  62
15
  10
 591.09837533696
  20
 292.10043764159
  30
0.0
   0
LINE
   5
24C
 100
AcDbEntity
   8
LEVEL001
 100
AcDbLine
   6
CONTINUOUS
  62
15
  10
 591.59837533696
  20
 292.10043764159
  30
0.0
  11
 597.09837533696
  21
 292.10043764159
  31
0.0
   0
LINE
   5
24D
 100
AcDbEntity
   8
LEVEL001
 100
AcDbLine
   6
CONTINUOUS
  62
15
  10
 589.59837533696
  20
 302.10043764159
  30
0.0
  11
 589.59837533696
  21
 292.60043764159
  31
0.0
   0
ARC
   5
24E
 100
AcDbEntity
   8
LEVEL001
   6
CONTINUOUS
  62
15
 100
AcDbCircle
  10
 589.09837533697
  20
 292.60043764159
  30
0.0
  40
 0.50000000000000
 100
AcDbArc
  50
 269.99999999904
  51
0.0
   0
POINT
   5
24F
 100
AcDbEntity
   8
LEVEL001
 100
AcDbPoint
  62
15
  10
 589.59837533696
  20
 292.10043764159
  30
0.0
   0
LINE
   5
250
 100
AcDbEntity
   8
LEVEL001
 100
AcDbLine
   6
CONTINUOUS
  62
15
  10
 587.54837533696
  20
 292.60043764159
  30
0.0
  11
 587.54837533696
  21
 302.10043764159
  31
0.0
   0
ARC
   5
251
 100
AcDbEntity
   8
LEVEL001
   6
CONTINUOUS
  62
15
 100
AcDbCircle
  10
 588.04837533692
  20
 292.60043764159
  30
0.0
  40
 0.50000000000000
 100
AcDbArc
  50
 180.00000000000
  51
 270.00000000443
   0
POINT
   5
252
 100
AcDbEntity
   8
LEVEL001
 100
AcDbPoint
  62
15
  10
 587.54837533696
  20
 292.10043764159
  30
0.0
   0
LINE
   5
253
 100
AcDbEntity
   8
LEVEL001
 100
AcDbLine
   6
CONTINUOUS
  62
15
  10
 588.04837533696
  20
 292.10043764159
  30
0.0
  11
 589.09837533696
  21
 292.10043764159
  31
0.0
   0
LINE
   5
254
 100
AcDbEntity
   8
LEVEL001
 100
AcDbLine
   6
DASHDOT
  62
3
  10
 599.16118980609
  20
 282.60043764159
  30
0.0
  11
 625.97540243396
  21
 282.60043764159
  31
0.0
   0
LINE
   5
255
 100
AcDbEntity
   8
LEVEL001
 100
AcDbLine
   6
DASHDOT
  62
3
  10
 589.97427809724
  20
 299.60043764159
  30
0.0
  11
 617.46062678811
  21
 299.60043764159
  31
0.0
   0
LINE
   5
256
 100
AcDbEntity
   8
LEVEL001
 100
AcDbLine
   6
DASHDOT
  62
3
  10
 603.34837533696
  20
 291.83493242578
  30
0.0
  11
 603.34837533696
  21
 277.63955316019
  31
0.0
   0
LINE
   5
257
 100
AcDbEntity
   8
LEVEL001
 100
AcDbLine
   6
DASHDOT
  62
3
  10
 612.84837533696
  20
 304.56881348591
  30
0.0
  11
 612.84837533696
  21
 290.39550312013
  31
0.0
   0
LINE
   5
258
 100
AcDbEntity
   8
LEVEL001
 100
AcDbLine
   6
DASHDOT
  62
3
  10
 594.34837533696
  20
 304.56881348591
  30
0.0
  11
 594.34837533696
  21
 290.36130723400
  31
0.0
   0
LINE
   5
259
 100
AcDbEntity
   8
LEVEL001
 100
AcDbLine
   6
DASHDOT
  62
3
  10
 621.84837533696
  20
 291.76333856525
  30
0.0
  11
 621.84837533696
  21
 277.63955316019
  31
0.0
   0
ARC
   5
25A
 100
AcDbEntity
   8
LEVEL001
   6
CONTINUOUS
  62
15
 100
AcDbCircle
  10
 588.04837533696
  20
 289.60043764155
  30
0.0
  40
 0.50000000000000
 100
AcDbArc
  50
 90.000000000000
  51
 179.99999999565
   0
POINT
   5
25B
 100
AcDbEntity
   8
LEVEL001
 100
AcDbPoint
  62
15
  10
 587.54837533696
  20
 290.10043764159
  30
0.0
   0
LINE
   5
25C
 100
AcDbEntity
   8
LEVEL001
 100
AcDbLine
   6
CONTINUOUS
  62
15
  10
 587.54837533696
  20
 280.10043764159
  30
0.0
  11
 587.54837533696
  21
 289.60043764159
  31
0.0
   0
ARC
   5
25D
 100
AcDbEntity
   8
LEVEL001
   6
CONTINUOUS
  62
15
 100
AcDbCircle
  10
 588.04837533692
  20
 280.10043764159
  30
0.0
  40
 0.50000000000000
 100
AcDbArc
  50
 180.00000000000
  51
 270.00000000443
   0
POINT
   5
25E
 100
AcDbEntity
   8
LEVEL001
 100
AcDbPoint
  62
15
  10
 587.54837533696
  20
 279.60043764159
  30
0.0
   0
LINE
   5
25F
 100
AcDbEntity
   8
LEVEL001
 100
AcDbLine
   6
CONTINUOUS
  62
15
  10
 588.04837533696
  20
 279.60043764159
  30
0.0
  11
 597.09837533696
  21
 279.60043764159
  31
0.0
   0
ARC
   5
260
 100
AcDbEntity
   8
LEVEL001
   6
CONTINUOUS
  62
15
 100
AcDbCircle
  10
 597.09837533696
  20
 280.10043764160
  30
0.0
  40
 0.50000000000000
 100
AcDbArc
  50
 270.00000000000
  51
0.0
   0
POINT
   5
261
 100
AcDbEntity
   8
LEVEL001
 100
AcDbPoint
  62
15
  10
 597.59837533696
  20
 279.60043764159
  30
0.0
   0
LINE
   5
262
 100
AcDbEntity
   8
LEVEL001
 100
AcDbLine
   6
CONTINUOUS
  62
15
  10
 588.04837533696
  20
 290.10043764159
  30
0.0
  11
 597.09837533696
  21
 290.10043764159
  31
0.0
   0
ARC
   5
263
 100
AcDbEntity
   8
LEVEL001
   6
CONTINUOUS
  62
15
 100
AcDbCircle
  10
 597.09837533696
  20
 289.60043764158
  30
0.0
  40
 0.50000000000000
 100
AcDbArc
  50
 0.91192863826922E-9
  51
 90.000000000000
   0
POINT
   5
264
 100
AcDbEntity
   8
LEVEL001
 100
AcDbPoint
  62
15
  10
 597.59837533696
  20
 290.10043764159
  30
0.0
   0
LINE
   5
265
 100
AcDbEntity
   8
LEVEL001
 100
AcDbLine
   6
CONTINUOUS
  62
15
  10
 597.59837533696
  20
 289.60043764159
  30
0.0
  11
 597.59837533696
  21
 280.10043764159
  31
0.0
   0
ARC
   5
266
 100
AcDbEntity
   8
LEVEL001
   6
CONTINUOUS
  62
15
 100
AcDbCircle
  10
 600.59837533697
  20
 289.60043764159
  30
0.0
  40
 0.50000000000000
 100
AcDbArc
  50
 90.000000000964
  51
 180.00000000000
   0
POINT
   5
267
 100
AcDbEntity
   8
LEVEL001
 100
AcDbPoint
  62
15
  10
 600.09837533696
  20
 290.10043764159
  30
0.0
   0
ARC
   5
268
 100
AcDbEntity
   8
LEVEL001
   6
CONTINUOUS
  62
15
 100
AcDbCircle
  10
 600.59837533696
  20
 280.10043764158
  30
0.0
  40
 0.50000000000000
 100
AcDbArc
  50
 179.99999999910
  51
 270.00000000000
   0
POINT
   5
269
 100
AcDbEntity
   8
LEVEL001
 100
AcDbPoint
  62
15
  10
 600.09837533696
  20
 279.60043764159
  30
0.0
   0
LINE
   5
26A
 100
AcDbEntity
   8
LEVEL001
 100
AcDbLine
   6
CONTINUOUS
  62
15
  10
 600.09837533696
  20
 280.10043764159
  30
0.0
  11
 600.09837533696
  21
 289.60043764159
  31
0.0
   0
ARC
   5
26B
 100
AcDbEntity
   8
LEVEL001
   6
CONTINUOUS
  62
15
 100
AcDbCircle
  10
 606.09837533697
  20
 280.10043764159
  30
0.0
  40
 0.50000000000000
 100
AcDbArc
  50
 269.99999999904
  51
0.0
   0
POINT
   5
26C
 100
AcDbEntity
   8
LEVEL001
 100
AcDbPoint
  62
15
  10
 606.59837533696
  20
 279.60043764159
  30
0.0
   0
LINE
   5
26D
 100
AcDbEntity
   8
LEVEL001
 100
AcDbLine
   6
CONTINUOUS
  62
15
  10
 600.59837533696
  20
 279.60043764159
  30
0.0
  11
 606.09837533696
  21
 279.60043764159
  31
0.0
   0
LINE
   5
26E
 100
AcDbEntity
   8
LEVEL001
 100
AcDbLine
   6
CONTINUOUS
  62
15
  10
 600.59837533696
  20
 290.10043764159
  30
0.0
  11
 606.09837533696
  21
 290.10043764159
  31
0.0
   0
ARC
   5
26F
 100
AcDbEntity
   8
LEVEL001
   6
CONTINUOUS
  62
15
 100
AcDbCircle
  10
 606.09837533696
  20
 289.60043764158
  30
0.0
  40
 0.50000000000000
 100
AcDbArc
  50
 0.91192863826922E-9
  51
 90.000000000000
   0
POINT
   5
270
 100
AcDbEntity
   8
LEVEL001
 100
AcDbPoint
  62
15
  10
 606.59837533696
  20
 290.10043764159
  30
0.0
   0
LINE
   5
271
 100
AcDbEntity
   8
LEVEL001
 100
AcDbLine
   6
CONTINUOUS
  62
15
  10
 606.59837533696
  20
 289.60043764159
  30
0.0
  11
 606.59837533696
  21
 280.10043764159
  31
0.0
   0
ARC
   5
272
 100
AcDbEntity
   8
LEVEL001
   6
CONTINUOUS
  62
15
 100
AcDbCircle
  10
 610.09837533696
  20
 289.60043764160
  30
0.0
  40
 0.50000000000000
 100
AcDbArc
  50
 90.000000000000
  51
 180.00000000096
   0
POINT
   5
273
 100
AcDbEntity
   8
LEVEL001
 100
AcDbPoint
  62
15
  10
 609.59837533696
  20
 290.10043764159
  30
0.0
   0
LINE
   5
274
 100
AcDbEntity
   8
LEVEL001
 100
AcDbLine
   6
CONTINUOUS
  62
15
  10
 609.59837533696
  20
 280.10043764159
  30
0.0
  11
 609.59837533696
  21
 289.60043764159
  31
0.0
   0
ARC
   5
275
 100
AcDbEntity
   8
LEVEL001
   6
CONTINUOUS
  62
15
 100
AcDbCircle
  10
 610.09837533697
  20
 280.10043764159
  30
0.0
  40
 0.50000000000000
 100
AcDbArc
  50
 180.00000000000
  51
 269.99999999909
   0
POINT
   5
276
 100
AcDbEntity
   8
LEVEL001
 100
AcDbPoint
  62
15
  10
 609.59837533696
  20
 279.60043764159
  30
0.0
   0
LINE
   5
277
 100
AcDbEntity
   8
LEVEL001
 100
AcDbLine
   6
CONTINUOUS
  62
15
  10
 615.59837533696
  20
 279.60043764159
  30
0.0
  11
 610.09837533696
  21
 279.60043764159
  31
0.0
   0
ARC
   5
278
 100
AcDbEntity
   8
LEVEL001
   6
CONTINUOUS
  62
15
 100
AcDbCircle
  10
 615.59837533696
  20
 280.10043764160
  30
0.0
  40
 0.50000000000000
 100
AcDbArc
  50
 270.00000000000
  51
0.0
   0
POINT
   5
279
 100
AcDbEntity
   8
LEVEL001
 100
AcDbPoint
  62
15
  10
 616.09837533696
  20
 279.60043764159
  30
0.0
   0
LINE
   5
27A
 100
AcDbEntity
   8
LEVEL001
 100
AcDbLine
   6
CONTINUOUS
  62
15
  10
 616.09837533696
  20
 289.60043764159
  30
0.0
  11
 616.09837533696
  21
 280.10043764159
  31
0.0
   0
ARC
   5
27B
 100
AcDbEntity
   8
LEVEL001
   6
CONTINUOUS
  62
15
 100
AcDbCircle
  10
 615.59837533697
  20
 289.60043764159
  30
0.0
  40
 0.50000000000000
 100
AcDbArc
  50
0.0
  51
 90.000000000912
   0
POINT
   5
27C
 100
AcDbEntity
   8
LEVEL001
 100
AcDbPoint
  62
15
  10
 616.09837533696
  20
 290.10043764159
  30
0.0
   0
LINE
   5
27D
 100
AcDbEntity
   8
LEVEL001
 100
AcDbLine
   6
CONTINUOUS
  62
15
  10
 615.59837533696
  20
 290.10043764159
  30
0.0
  11
 610.09837533696
  21
 290.10043764159
  31
0.0
   0
ARC
   5
27E
 100
AcDbEntity
   8
LEVEL001
   6
CONTINUOUS
  62
15
 100
AcDbCircle
  10
 619.09837533697
  20
 289.60043764159
  30
0.0
  40
 0.50000000000000
 100
AcDbArc
  50
 90.000000000964
  51
 180.00000000000
   0
POINT
   5
27F
 100
AcDbEntity
   8
LEVEL001
 100
AcDbPoint
  62
15
  10
 618.59837533696
  20
 290.10043764159
  30
0.0
   0
LINE
   5
280
 100
AcDbEntity
   8
LEVEL001
 100
AcDbLine
   6
CONTINUOUS
  62
15
  10
 624.59837533696
  20
 290.10043764159
  30
0.0
  11
 619.09837533696
  21
 290.10043764159
  31
0.0
   0
ARC
   5
281
 100
AcDbEntity
   8
LEVEL001
   6
CONTINUOUS
  62
15
 100
AcDbCircle
  10
 624.59837533696
  20
 289.60043764158
  30
0.0
  40
 0.50000000000000
 100
AcDbArc
  50
 0.91192863826922E-9
  51
 90.000000000000
   0
POINT
   5
282
 100
AcDbEntity
   8
LEVEL001
 100
AcDbPoint
  62
15
  10
 625.09837533696
  20
 290.10043764159
  30
0.0
   0
ARC
   5
283
 100
AcDbEntity
   8
LEVEL001
   6
CONTINUOUS
  62
15
 100
AcDbCircle
  10
 624.59837533696
  20
 280.10043764160
  30
0.0
  40
 0.50000000000000
 100
AcDbArc
  50
 270.00000000000
  51
0.0
   0
POINT
   5
284
 100
AcDbEntity
   8
LEVEL001
 100
AcDbPoint
  62
15
  10
 625.09837533696
  20
 279.60043764159
  30
0.0
   0
LINE
   5
285
 100
AcDbEntity
   8
LEVEL001
 100
AcDbLine
   6
CONTINUOUS
  62
15
  10
 625.09837533696
  20
 289.60043764159
  30
0.0
  11
 625.09837533696
  21
 280.10043764159
  31
0.0
   0
LINE
   5
286
 100
AcDbEntity
   8
LEVEL001
 100
AcDbLine
   6
CONTINUOUS
  62
15
  10
 618.59837533696
  20
 280.10043764159
  30
0.0
  11
 618.59837533696
  21
 289.60043764159
  31
0.0
   0
ARC
   5
287
 100
AcDbEntity
   8
LEVEL001
   6
CONTINUOUS
  62
15
 100
AcDbCircle
  10
 619.09837533697
  20
 280.10043764159
  30
0.0
  40
 0.50000000000000
 100
AcDbArc
  50
 180.00000000000
  51
 269.99999999909
   0
POINT
   5
288
 100
AcDbEntity
   8
LEVEL001
 100
AcDbPoint
  62
15
  10
 618.59837533696
  20
 279.60043764159
  30
0.0
   0
LINE
   5
289
 100
AcDbEntity
   8
LEVEL001
 100
AcDbLine
   6
CONTINUOUS
  62
15
  10
 624.59837533696
  20
 279.60043764159
  30
0.0
  11
 619.09837533696
  21
 279.60043764159
  31
0.0
   0
ARC
   5
28A
 100
AcDbEntity
   8
LEVEL001
   6
CONTINUOUS
  62
15
 100
AcDbCircle
  10
 627.09837533697
  20
 280.10043764159
  30
0.0
  40
 0.50000000000000
 100
AcDbArc
  50
 180.00000000000
  51
 269.99999999909
   0
POINT
   5
28B
 100
AcDbEntity
   8
LEVEL001
 100
AcDbPoint
  62
15
  10
 626.59837533696
  20
 279.60043764159
  30
0.0
   0
LINE
   5
28C
 100
AcDbEntity
   8
LEVEL001
 100
AcDbLine
   6
CONTINUOUS
  62
15
  10
 627.64837533696
  20
 279.60043764159
  30
0.0
  11
 627.09837533696
  21
 279.60043764159
  31
0.0
   0
ARC
   5
28D
 100
AcDbEntity
   8
LEVEL001
   6
CONTINUOUS
  62
15
 100
AcDbCircle
  10
 627.64837533696
  20
 280.10043764159
  30
0.0
  40
 0.50000000000000
 100
AcDbArc
  50
 270.00000000000
  51
 0.36477145530769E-9
   0
POINT
   5
28E
 100
AcDbEntity
   8
LEVEL001
 100
AcDbPoint
  62
15
  10
 628.14837533696
  20
 279.60043764159
  30
0.0
   0
ARC
   5
28F
 100
AcDbEntity
   8
LEVEL001
   6
CONTINUOUS
  62
15
 100
AcDbCircle
  10
 627.64837533696
  20
 289.60043764160
  30
0.0
  40
 0.50000000000000
 100
AcDbArc
  50
0.0
  51
 90.000000000000
   0
POINT
   5
290
 100
AcDbEntity
   8
LEVEL001
 100
AcDbPoint
  62
15
  10
 628.14837533696
  20
 290.10043764159
  30
0.0
   0
LINE
   5
291
 100
AcDbEntity
   8
LEVEL001
 100
AcDbLine
   6
CONTINUOUS
  62
15
  10
 628.14837533696
  20
 289.60043764159
  30
0.0
  11
 628.14837533696
  21
 280.10043764159
  31
0.0
   0
LINE
   5
292
 100
AcDbEntity
   8
LEVEL001
 100
AcDbLine
   6
CONTINUOUS
  62
15
  10
 626.59837533696
  20
 280.10043764159
  30
0.0
  11
 626.59837533696
  21
 289.60043764159
  31
0.0
   0
ARC
   5
293
 100
AcDbEntity
   8
LEVEL001
   6
CONTINUOUS
  62
15
 100
AcDbCircle
  10
 627.09837533697
  20
 289.60043764159
  30
0.0
  40
 0.50000000000000
 100
AcDbArc
  50
 90.000000000964
  51
 180.00000000000
   0
POINT
   5
294
 100
AcDbEntity
   8
LEVEL001
 100
AcDbPoint
  62
15
  10
 626.59837533696
  20
 290.10043764159
  30
0.0
   0
LINE
   5
295
 100
AcDbEntity
   8
LEVEL001
 100
AcDbLine
   6
CONTINUOUS
  62
15
  10
 627.64837533696
  20
 290.10043764159
  30
0.0
  11
 627.09837533696
  21
 290.10043764159
  31
0.0
   0
LINE
   5
296
 100
AcDbEntity
   8
LEVEL001
 100
AcDbLine
   6
CONTINUOUS
  62
15
  10
 391.17998331453
  20
 308.60043764159
  30
0.0
  11
 682.84837533696
  21
 308.60043764159
  31
0.0
   0
LINE
   5
297
 100
AcDbEntity
   8
LEVEL001
 100
AcDbLine
   6
CONTINUOUS
  62
15
  10
 391.17998331453
  20
 273.60043764159
  30
0.0
  11
 682.84837533696
  21
 273.60043764159
  31
0.0
   0
LINE
   5
298
 100
AcDbEntity
   8
LEVEL001
 100
AcDbLine
   6
DASHDOT
  62
3
  10
 607.84837533696
  20
 314.28132608781
  30
0.0
  11
 607.84837533696
  21
 267.29629500530
  31
0.0
   0
ELLIPSE
   5
299
 100
AcDbEntity
   8
LEVEL001
   6
CONTINUOUS
  62
7
 100
AcDbEllipse
  10
 171.34837533696
  20
 296.57043764159
  30
0.0
  11
0.0
  21
-2.5000000000000
  31
0.0
  40
 0.90000000000000
  41
0.0
  42
 6.2831853071796
   0
ELLIPSE
   5
29A
 100
AcDbEntity
   8
LEVEL001
   6
CONTINUOUS
  62
7
 100
AcDbEllipse
  10
 171.34837533696
  20
 299.40043764159
  30
0.0
  11
0.0
  21
-2.5000000000000
  31
0.0
  40
 0.90000000000000
  41
-0.96915058189576
  42
 0.96915058189576
   0
ELLIPSE
   5
29B
 100
AcDbEntity
   8
LEVEL001
   6
CONTINUOUS
  62
7
 100
AcDbEllipse
  10
 152.84837533696
  20
 296.57043764159
  30
0.0
  11
0.0
  21
-2.5000000000000
  31
0.0
  40
 0.90000000000000
  41
0.0
  42
 6.2831853071796
   0
ELLIPSE
   5
29C
 100
AcDbEntity
   8
LEVEL001
   6
CONTINUOUS
  62
7
 100
AcDbEllipse
  10
 152.84837533696
  20
 299.40043764159
  30
0.0
  11
0.0
  21
-2.5000000000000
  31
0.0
  40
 0.90000000000000
  41
-0.96915058189576
  42
 0.96915058189576
   0
ELLIPSE
   5
29D
 100
AcDbEntity
   8
LEVEL001
   6
CONTINUOUS
  62
7
 100
AcDbEllipse
  10
 162.34837533696
  20
 285.63043764159
  30
0.0
  11
0.0
  21
 2.5000000000000
  31
0.0
  40
 0.90000000000000
  41
0.0
  42
 6.2831853071796
   0
ELLIPSE
   5
29E
 100
AcDbEntity
   8
LEVEL001
   6
CONTINUOUS
  62
7
 100
AcDbEllipse
  10
 162.34837533696
  20
 282.80043764159
  30
0.0
  11
0.0
  21
 2.5000000000000
  31
0.0
  40
 0.90000000000000
  41
-0.96915058189576
  42
 0.96915058189576
   0
ELLIPSE
   5
29F
 100
AcDbEntity
   8
LEVEL001
   6
CONTINUOUS
  62
7
 100
AcDbEllipse
  10
 143.84837533696
  20
 285.63043764159
  30
0.0
  11
0.0
  21
 2.5000000000000
  31
0.0
  40
 0.90000000000000
  41
0.0
  42
 6.2831853071796
   0
ELLIPSE
   5
2A0
 100
AcDbEntity
   8
LEVEL001
   6
CONTINUOUS
  62
7
 100
AcDbEllipse
  10
 143.84837533696
  20
 282.80043764159
  30
0.0
  11
0.0
  21
 2.5000000000000
  31
0.0
  40
 0.90000000000000
  41
-0.96915058189576
  42
 0.96915058189576
   0
ELLIPSE
   5
2A1
 100
AcDbEntity
   8
LEVEL001
   6
DOT
  62
1
 100
AcDbEllipse
  10
 171.34837533696
  20
 299.40043764159
  30
0.0
  11
0.0
  21
-2.5000000000000
  31
0.0
  40
 0.90000000000000
  41
 0.96915058189576
  42
-0.96915058189576
   0
ELLIPSE
   5
2A2
 100
AcDbEntity
   8
LEVEL001
   6
DOT
  62
1
 100
AcDbEllipse
  10
 152.84837533696
  20
 299.40043764159
  30
0.0
  11
0.0
  21
-2.5000000000000
  31
0.0
  40
 0.90000000000000
  41
 0.96915058189576
  42
-0.96915058189576
   0
ELLIPSE
   5
2A3
 100
AcDbEntity
   8
LEVEL001
   6
DOT
  62
1
 100
AcDbEllipse
  10
 143.84837533696
  20
 282.80043764159
  30
0.0
  11
0.0
  21
 2.5000000000000
  31
0.0
  40
 0.90000000000000
  41
 0.96915058189576
  42
-0.96915058189576
   0
ELLIPSE
   5
2A4
 100
AcDbEntity
   8
LEVEL001
   6
DOT
  62
1
 100
AcDbEllipse
  10
 162.34837533696
  20
 282.80043764159
  30
0.0
  11
0.0
  21
 2.5000000000000
  31
0.0
  40
 0.90000000000000
  41
 0.96915058189576
  42
-0.96915058189576
   0
ARC
   5
2A5
 100
AcDbEntity
   8
LEVEL001
   6
CONTINUOUS
  62
7
 100
AcDbCircle
  10
 180.04837533696
  20
 305.30043764159
  30
0.0
  40
 0.30000000000000
 100
AcDbArc
  50
 0.43425173250914E-9
  51
 89.999999999989
   0
POINT
   5
2A6
 100
AcDbEntity
   8
LEVEL001
 100
AcDbPoint
  62
7
  10
 180.34837533696
  20
 305.60043764159
  30
0.0
   0
LINE
   5
2A7
 100
AcDbEntity
   8
LEVEL001
 100
AcDbLine
   6
CONTINUOUS
  62
7
  10
 180.34837533696
  20
 276.90043764159
  30
0.0
  11
 180.34837533696
  21
 305.30043764159
  31
0.0
   0
ARC
   5
2A8
 100
AcDbEntity
   8
LEVEL001
   6
CONTINUOUS
  62
7
 100
AcDbCircle
  10
 180.04837533696
  20
 276.90043764159
  30
0.0
  40
 0.30000000000000
 100
AcDbArc
  50
 269.99999999881
  51
0.0
   0
POINT
   5
2A9
 100
AcDbEntity
   8
LEVEL001
 100
AcDbPoint
  62
7
  10
 180.34837533696
  20
 276.60043764159
  30
0.0
   0
LINE
   5
2AA
 100
AcDbEntity
   8
LEVEL001
 100
AcDbLine
   6
CONTINUOUS
  62
7
  10
 180.04837533696
  20
 276.60043764159
  30
0.0
  11
 135.64837533696
  21
 276.60043764159
  31
0.0
   0
ARC
   5
2AB
 100
AcDbEntity
   8
LEVEL001
   6
CONTINUOUS
  62
7
 100
AcDbCircle
  10
 135.64837533696
  20
 276.90043764160
  30
0.0
  40
 0.30000000000000
 100
AcDbArc
  50
 180.00000000190
  51
 269.99999999999
   0
POINT
   5
2AC
 100
AcDbEntity
   8
LEVEL001
 100
AcDbPoint
  62
7
  10
 135.34837533696
  20
 276.60043764159
  30
0.0
   0
LINE
   5
2AD
 100
AcDbEntity
   8
LEVEL001
 100
AcDbLine
   6
CONTINUOUS
  62
7
  10
 180.04837533696
  20
 305.60043764159
  30
0.0
  11
 135.64837533696
  21
 305.60043764159
  31
0.0
   0
ARC
   5
2AE
 100
AcDbEntity
   8
LEVEL001
   6
CONTINUOUS
  62
7
 100
AcDbCircle
  10
 135.64837533696
  20
 305.30043764159
  30
0.0
  40
 0.30000000000000
 100
AcDbArc
  50
 90.000000000011
  51
 179.99999999887
   0
POINT
   5
2AF
 100
AcDbEntity
   8
LEVEL001
 100
AcDbPoint
  62
7
  10
 135.34837533696
  20
 305.60043764159
  30
0.0
   0
LINE
   5
2B0
 100
AcDbEntity
   8
LEVEL001
 100
AcDbLine
   6
CONTINUOUS
  62
7
  10
 135.34837533696
  20
 276.90043764159
  30
0.0
  11
 135.34837533696
  21
 305.30043764159
  31
0.0
   0
ARC
   5
2B1
 100
AcDbEntity
   8
LEVEL001
   6
CONTINUOUS
  62
15
 100
AcDbCircle
  10
 146.59837533695
  20
 302.10043764159
  30
0.0
  40
 0.50000000000000
 100
AcDbArc
  50
0.0
  51
 89.999999999244
   0
POINT
   5
2B2
 100
AcDbEntity
   8
LEVEL001
 100
AcDbPoint
  62
15
  10
 147.09837533696
  20
 302.60043764159
  30
0.0
   0
ARC
   5
2B3
 100
AcDbEntity
   8
LEVEL001
   6
CONTINUOUS
  62
15
 100
AcDbCircle
  10
 146.59837533696
  20
 292.60043764159
  30
0.0
  40
 0.50000000000000
 100
AcDbArc
  50
 270.00000000000
  51
 0.70348780666483E-9
   0
POINT
   5
2B4
 100
AcDbEntity
   8
LEVEL001
 100
AcDbPoint
  62
15
  10
 147.09837533696
  20
 292.10043764159
  30
0.0
   0
LINE
   5
2B5
 100
AcDbEntity
   8
LEVEL001
 100
AcDbLine
   6
CONTINUOUS
  62
15
  10
 147.09837533696
  20
 292.60043764159
  30
0.0
  11
 147.09837533696
  21
 302.10043764159
  31
0.0
   0
LINE
   5
2B6
 100
AcDbEntity
   8
LEVEL001
 100
AcDbLine
   6
CONTINUOUS
  62
15
  10
 138.04837533696
  20
 292.10043764159
  30
0.0
  11
 146.59837533696
  21
 292.10043764159
  31
0.0
   0
ARC
   5
2B7
 100
AcDbEntity
   8
LEVEL001
   6
CONTINUOUS
  62
15
 100
AcDbCircle
  10
 138.04837533696
  20
 292.60043764159
  30
0.0
  40
 0.50000000000000
 100
AcDbArc
  50
 179.99999999943
  51
 270.00000000000
   0
POINT
   5
2B8
 100
AcDbEntity
   8
LEVEL001
 100
AcDbPoint
  62
15
  10
 137.54837533696
  20
 292.10043764159
  30
0.0
   0
LINE
   5
2B9
 100
AcDbEntity
   8
LEVEL001
 100
AcDbLine
   6
CONTINUOUS
  62
15
  10
 138.04837533696
  20
 302.60043764159
  30
0.0
  11
 146.59837533696
  21
 302.60043764159
  31
0.0
   0
ARC
   5
2BA
 100
AcDbEntity
   8
LEVEL001
   6
CONTINUOUS
  62
15
 100
AcDbCircle
  10
 138.04837533696
  20
 302.10043764160
  30
0.0
  40
 0.50000000000000
 100
AcDbArc
  50
 90.000000000000
  51
 180.00000000063
   0
POINT
   5
2BB
 100
AcDbEntity
   8
LEVEL001
 100
AcDbPoint
  62
15
  10
 137.54837533696
  20
 302.60043764159
  30
0.0
   0
LINE
   5
2BC
 100
AcDbEntity
   8
LEVEL001
 100
AcDbLine
   6
CONTINUOUS
  62
15
  10
 137.54837533696
  20
 302.10043764159
  30
0.0
  11
 137.54837533696
  21
 292.60043764159
  31
0.0
   0
ARC
   5
2BD
 100
AcDbEntity
   8
LEVEL001
   6
CONTINUOUS
  62
15
 100
AcDbCircle
  10
 155.59837533695
  20
 302.10043764159
  30
0.0
  40
 0.50000000000000
 100
AcDbArc
  50
0.0
  51
 89.999999999244
   0
POINT
   5
2BE
 100
AcDbEntity
   8
LEVEL001
 100
AcDbPoint
  62
15
  10
 156.09837533696
  20
 302.60043764159
  30
0.0
   0
LINE
   5
2BF
 100
AcDbEntity
   8
LEVEL001
 100
AcDbLine
   6
CONTINUOUS
  62
15
  10
 155.59837533696
  20
 302.60043764159
  30
0.0
  11
 150.09837533696
  21
 302.60043764159
  31
0.0
   0
ARC
   5
2C0
 100
AcDbEntity
   8
LEVEL001
   6
CONTINUOUS
  62
15
 100
AcDbCircle
  10
 150.09837533696
  20
 302.10043764159
  30
0.0
  40
 0.50000000000000
 100
AcDbArc
  50
 90.000000000000
  51
 179.99999999930
   0
POINT
   5
2C1
 100
AcDbEntity
   8
LEVEL001
 100
AcDbPoint
  62
15
  10
 149.59837533696
  20
 302.60043764159
  30
0.0
   0
LINE
   5
2C2
 100
AcDbEntity
   8
LEVEL001
 100
AcDbLine
   6
CONTINUOUS
  62
15
  10
 149.59837533696
  20
 302.10043764159
  30
0.0
  11
 149.59837533696
  21
 292.60043764159
  31
0.0
   0
ARC
   5
2C3
 100
AcDbEntity
   8
LEVEL001
   6
CONTINUOUS
  62
15
 100
AcDbCircle
  10
 150.09837533695
  20
 292.60043764159
  30
0.0
  40
 0.50000000000000
 100
AcDbArc
  50
 180.00000000000
  51
 270.00000000076
   0
POINT
   5
2C4
 100
AcDbEntity
   8
LEVEL001
 100
AcDbPoint
  62
15
  10
 149.59837533696
  20
 292.10043764159
  30
0.0
   0
LINE
   5
2C5
 100
AcDbEntity
   8
LEVEL001
 100
AcDbLine
   6
CONTINUOUS
  62
15
  10
 155.59837533696
  20
 292.10043764159
  30
0.0
  11
 150.09837533696
  21
 292.10043764159
  31
0.0
   0
ARC
   5
2C6
 100
AcDbEntity
   8
LEVEL001
   6
CONTINUOUS
  62
15
 100
AcDbCircle
  10
 155.59837533696
  20
 292.60043764159
  30
0.0
  40
 0.50000000000000
 100
AcDbArc
  50
 270.00000000000
  51
 0.70348780666483E-9
   0
POINT
   5
2C7
 100
AcDbEntity
   8
LEVEL001
 100
AcDbPoint
  62
15
  10
 156.09837533696
  20
 292.10043764159
  30
0.0
   0
LINE
   5
2C8
 100
AcDbEntity
   8
LEVEL001
 100
AcDbLine
   6
CONTINUOUS
  62
15
  10
 156.09837533696
  20
 292.60043764159
  30
0.0
  11
 156.09837533696
  21
 302.10043764159
  31
0.0
   0
ARC
   5
2C9
 100
AcDbEntity
   8
LEVEL001
   6
CONTINUOUS
  62
15
 100
AcDbCircle
  10
 177.64837533695
  20
 302.10043764159
  30
0.0
  40
 0.50000000000000
 100
AcDbArc
  50
0.0
  51
 89.999999999583
   0
POINT
   5
2CA
 100
AcDbEntity
   8
LEVEL001
 100
AcDbPoint
  62
15
  10
 178.14837533696
  20
 302.60043764159
  30
0.0
   0
ARC
   5
2CB
 100
AcDbEntity
   8
LEVEL001
   6
CONTINUOUS
  62
15
 100
AcDbCircle
  10
 176.59837533695
  20
 302.10043764159
  30
0.0
  40
 0.50000000000000
 100
AcDbArc
  50
 89.999999999297
  51
 180.00000000000
   0
POINT
   5
2CC
 100
AcDbEntity
   8
LEVEL001
 100
AcDbPoint
  62
15
  10
 176.09837533696
  20
 302.60043764159
  30
0.0
   0
LINE
   5
2CD
 100
AcDbEntity
   8
LEVEL001
 100
AcDbLine
   6
CONTINUOUS
  62
15
  10
 177.64837533696
  20
 302.60043764159
  30
0.0
  11
 176.59837533696
  21
 302.60043764159
  31
0.0
   0
ARC
   5
2CE
 100
AcDbEntity
   8
LEVEL001
   6
CONTINUOUS
  62
15
 100
AcDbCircle
  10
 174.09837533695
  20
 302.10043764159
  30
0.0
  40
 0.50000000000000
 100
AcDbArc
  50
0.0
  51
 89.999999999244
   0
POINT
   5
2CF
 100
AcDbEntity
   8
LEVEL001
 100
AcDbPoint
  62
15
  10
 174.59837533696
  20
 302.60043764159
  30
0.0
   0
ARC
   5
2D0
 100
AcDbEntity
   8
LEVEL001
   6
CONTINUOUS
  62
15
 100
AcDbCircle
  10
 168.59837533695
  20
 302.10043764159
  30
0.0
  40
 0.50000000000000
 100
AcDbArc
  50
 89.999999999297
  51
 180.00000000000
   0
POINT
   5
2D1
 100
AcDbEntity
   8
LEVEL001
 100
AcDbPoint
  62
15
  10
 168.09837533696
  20
 302.60043764159
  30
0.0
   0
LINE
   5
2D2
 100
AcDbEntity
   8
LEVEL001
 100
AcDbLine
   6
CONTINUOUS
  62
15
  10
 174.09837533696
  20
 302.60043764159
  30
0.0
  11
 168.59837533696
  21
 302.60043764159
  31
0.0
   0
ARC
   5
2D3
 100
AcDbEntity
   8
LEVEL001
   6
CONTINUOUS
  62
15
 100
AcDbCircle
  10
 165.09837533695
  20
 302.10043764159
  30
0.0
  40
 0.50000000000000
 100
AcDbArc
  50
0.0
  51
 89.999999999244
   0
POINT
   5
2D4
 100
AcDbEntity
   8
LEVEL001
 100
AcDbPoint
  62
15
  10
 165.59837533696
  20
 302.60043764159
  30
0.0
   0
LINE
   5
2D5
 100
AcDbEntity
   8
LEVEL001
 100
AcDbLine
   6
CONTINUOUS
  62
15
  10
 165.09837533696
  20
 302.60043764159
  30
0.0
  11
 159.59837533696
  21
 302.60043764159
  31
0.0
   0
ARC
   5
2D6
 100
AcDbEntity
   8
LEVEL001
   6
CONTINUOUS
  62
15
 100
AcDbCircle
  10
 159.59837533696
  20
 302.10043764159
  30
0.0
  40
 0.50000000000000
 100
AcDbArc
  50
 90.000000000000
  51
 179.99999999930
   0
POINT
   5
2D7
 100
AcDbEntity
   8
LEVEL001
 100
AcDbPoint
  62
15
  10
 159.09837533696
  20
 302.60043764159
  30
0.0
   0
ARC
   5
2D8
 100
AcDbEntity
   8
LEVEL001
   6
CONTINUOUS
  62
15
 100
AcDbCircle
  10
 159.59837533696
  20
 292.60043764160
  30
0.0
  40
 0.50000000000000
 100
AcDbArc
  50
 180.00000000076
  51
 270.00000000000
   0
POINT
   5
2D9
 100
AcDbEntity
   8
LEVEL001
 100
AcDbPoint
  62
15
  10
 159.09837533696
  20
 292.10043764159
  30
0.0
   0
LINE
   5
2DA
 100
AcDbEntity
   8
LEVEL001
 100
AcDbLine
   6
CONTINUOUS
  62
15
  10
 159.09837533696
  20
 302.10043764159
  30
0.0
  11
 159.09837533696
  21
 292.60043764159
  31
0.0
   0
LINE
   5
2DB
 100
AcDbEntity
   8
LEVEL001
 100
AcDbLine
   6
CONTINUOUS
  62
15
  10
 165.09837533696
  20
 292.10043764159
  30
0.0
  11
 159.59837533696
  21
 292.10043764159
  31
0.0
   0
ARC
   5
2DC
 100
AcDbEntity
   8
LEVEL001
   6
CONTINUOUS
  62
15
 100
AcDbCircle
  10
 165.09837533696
  20
 292.60043764159
  30
0.0
  40
 0.50000000000000
 100
AcDbArc
  50
 270.00000000000
  51
 0.70348780666483E-9
   0
POINT
   5
2DD
 100
AcDbEntity
   8
LEVEL001
 100
AcDbPoint
  62
15
  10
 165.59837533696
  20
 292.10043764159
  30
0.0
   0
LINE
   5
2DE
 100
AcDbEntity
   8
LEVEL001
 100
AcDbLine
   6
CONTINUOUS
  62
15
  10
 165.59837533696
  20
 292.60043764159
  30
0.0
  11
 165.59837533696
  21
 302.10043764159
  31
0.0
   0
ARC
   5
2DF
 100
AcDbEntity
   8
LEVEL001
   6
CONTINUOUS
  62
15
 100
AcDbCircle
  10
 168.59837533696
  20
 292.60043764160
  30
0.0
  40
 0.50000000000000
 100
AcDbArc
  50
 180.00000000076
  51
 270.00000000000
   0
POINT
   5
2E0
 100
AcDbEntity
   8
LEVEL001
 100
AcDbPoint
  62
15
  10
 168.09837533696
  20
 292.10043764159
  30
0.0
   0
LINE
   5
2E1
 100
AcDbEntity
   8
LEVEL001
 100
AcDbLine
   6
CONTINUOUS
  62
15
  10
 168.09837533696
  20
 302.10043764159
  30
0.0
  11
 168.09837533696
  21
 292.60043764159
  31
0.0
   0
LINE
   5
2E2
 100
AcDbEntity
   8
LEVEL001
 100
AcDbLine
   6
CONTINUOUS
  62
15
  10
 174.59837533696
  20
 292.60043764159
  30
0.0
  11
 174.59837533696
  21
 302.10043764159
  31
0.0
   0
ARC
   5
2E3
 100
AcDbEntity
   8
LEVEL001
   6
CONTINUOUS
  62
15
 100
AcDbCircle
  10
 174.09837533695
  20
 292.60043764159
  30
0.0
  40
 0.50000000000000
 100
AcDbArc
  50
 270.00000000071
  51
0.0
   0
POINT
   5
2E4
 100
AcDbEntity
   8
LEVEL001
 100
AcDbPoint
  62
15
  10
 174.59837533696
  20
 292.10043764159
  30
0.0
   0
LINE
   5
2E5
 100
AcDbEntity
   8
LEVEL001
 100
AcDbLine
   6
CONTINUOUS
  62
15
  10
 174.09837533696
  20
 292.10043764159
  30
0.0
  11
 168.59837533696
  21
 292.10043764159
  31
0.0
   0
LINE
   5
2E6
 100
AcDbEntity
   8
LEVEL001
 100
AcDbLine
   6
CONTINUOUS
  62
15
  10
 176.09837533696
  20
 302.10043764159
  30
0.0
  11
 176.09837533696
  21
 292.60043764159
  31
0.0
   0
ARC
   5
2E7
 100
AcDbEntity
   8
LEVEL001
   6
CONTINUOUS
  62
15
 100
AcDbCircle
  10
 176.59837533695
  20
 292.60043764159
  30
0.0
  40
 0.50000000000000
 100
AcDbArc
  50
 180.00000000000
  51
 270.00000000076
   0
POINT
   5
2E8
 100
AcDbEntity
   8
LEVEL001
 100
AcDbPoint
  62
15
  10
 176.09837533696
  20
 292.10043764159
  30
0.0
   0
LINE
   5
2E9
 100
AcDbEntity
   8
LEVEL001
 100
AcDbLine
   6
CONTINUOUS
  62
15
  10
 178.14837533696
  20
 292.60043764159
  30
0.0
  11
 178.14837533696
  21
 302.10043764159
  31
0.0
   0
ARC
   5
2EA
 100
AcDbEntity
   8
LEVEL001
   6
CONTINUOUS
  62
15
 100
AcDbCircle
  10
 177.64837533695
  20
 292.60043764159
  30
0.0
  40
 0.50000000000000
 100
AcDbArc
  50
 270.00000000036
  51
0.0
   0
POINT
   5
2EB
 100
AcDbEntity
   8
LEVEL001
 100
AcDbPoint
  62
15
  10
 178.14837533696
  20
 292.10043764159
  30
0.0
   0
LINE
   5
2EC
 100
AcDbEntity
   8
LEVEL001
 100
AcDbLine
   6
CONTINUOUS
  62
15
  10
 177.64837533696
  20
 292.10043764159
  30
0.0
  11
 176.59837533696
  21
 292.10043764159
  31
0.0
   0
LINE
   5
2ED
 100
AcDbEntity
   8
LEVEL001
 100
AcDbLine
   6
DASHDOT
  62
3
  10
 166.53556086782
  20
 282.60043764159
  30
0.0
  11
 139.72134823996
  21
 282.60043764159
  31
0.0
   0
LINE
   5
2EE
 100
AcDbEntity
   8
LEVEL001
 100
AcDbLine
   6
DASHDOT
  62
3
  10
 175.72247257668
  20
 299.60043764159
  30
0.0
  11
 148.23612388581
  21
 299.60043764159
  31
0.0
   0
LINE
   5
2EF
 100
AcDbEntity
   8
LEVEL001
 100
AcDbLine
   6
DASHDOT
  62
3
  10
 162.34837533696
  20
 291.83493242578
  30
0.0
  11
 162.34837533696
  21
 277.63955316019
  31
0.0
   0
LINE
   5
2F0
 100
AcDbEntity
   8
LEVEL001
 100
AcDbLine
   6
DASHDOT
  62
3
  10
 152.84837533696
  20
 304.56881348591
  30
0.0
  11
 152.84837533696
  21
 290.39550312013
  31
0.0
   0
LINE
   5
2F1
 100
AcDbEntity
   8
LEVEL001
 100
AcDbLine
   6
DASHDOT
  62
3
  10
 171.34837533696
  20
 304.56881348591
  30
0.0
  11
 171.34837533696
  21
 290.36130723400
  31
0.0
   0
LINE
   5
2F2
 100
AcDbEntity
   8
LEVEL001
 100
AcDbLine
   6
DASHDOT
  62
3
  10
 143.84837533696
  20
 291.76333856525
  30
0.0
  11
 143.84837533696
  21
 277.63955316019
  31
0.0
   0
ARC
   5
2F3
 100
AcDbEntity
   8
LEVEL001
   6
CONTINUOUS
  62
15
 100
AcDbCircle
  10
 177.64837533696
  20
 289.60043764160
  30
0.0
  40
 0.50000000000000
 100
AcDbArc
  50
0.0
  51
 90.000000000000
   0
POINT
   5
2F4
 100
AcDbEntity
   8
LEVEL001
 100
AcDbPoint
  62
15
  10
 178.14837533696
  20
 290.10043764159
  30
0.0
   0
LINE
   5
2F5
 100
AcDbEntity
   8
LEVEL001
 100
AcDbLine
   6
CONTINUOUS
  62
15
  10
 178.14837533696
  20
 280.10043764159
  30
0.0
  11
 178.14837533696
  21
 289.60043764159
  31
0.0
   0
ARC
   5
2F6
 100
AcDbEntity
   8
LEVEL001
   6
CONTINUOUS
  62
15
 100
AcDbCircle
  10
 177.64837533695
  20
 280.10043764159
  30
0.0
  40
 0.50000000000000
 100
AcDbArc
  50
 270.00000000036
  51
0.0
   0
POINT
   5
2F7
 100
AcDbEntity
   8
LEVEL001
 100
AcDbPoint
  62
15
  10
 178.14837533696
  20
 279.60043764159
  30
0.0
   0
LINE
   5
2F8
 100
AcDbEntity
   8
LEVEL001
 100
AcDbLine
   6
CONTINUOUS
  62
15
  10
 177.64837533696
  20
 279.60043764159
  30
0.0
  11
 168.59837533696
  21
 279.60043764159
  31
0.0
   0
ARC
   5
2F9
 100
AcDbEntity
   8
LEVEL001
   6
CONTINUOUS
  62
15
 100
AcDbCircle
  10
 168.59837533696
  20
 280.10043764160
  30
0.0
  40
 0.50000000000000
 100
AcDbArc
  50
 180.00000000076
  51
 270.00000000000
   0
POINT
   5
2FA
 100
AcDbEntity
   8
LEVEL001
 100
AcDbPoint
  62
15
  10
 168.09837533696
  20
 279.60043764159
  30
0.0
   0
LINE
   5
2FB
 100
AcDbEntity
   8
LEVEL001
 100
AcDbLine
   6
CONTINUOUS
  62
15
  10
 177.64837533696
  20
 290.10043764159
  30
0.0
  11
 168.59837533696
  21
 290.10043764159
  31
0.0
   0
ARC
   5
2FC
 100
AcDbEntity
   8
LEVEL001
   6
CONTINUOUS
  62
15
 100
AcDbCircle
  10
 168.59837533696
  20
 289.60043764159
  30
0.0
  40
 0.50000000000000
 100
AcDbArc
  50
 90.000000000000
  51
 179.99999999930
   0
POINT
   5
2FD
 100
AcDbEntity
   8
LEVEL001
 100
AcDbPoint
  62
15
  10
 168.09837533696
  20
 290.10043764159
  30
0.0
   0
LINE
   5
2FE
 100
AcDbEntity
   8
LEVEL001
 100
AcDbLine
   6
CONTINUOUS
  62
15
  10
 168.09837533696
  20
 289.60043764159
  30
0.0
  11
 168.09837533696
  21
 280.10043764159
  31
0.0
   0
ARC
   5
2FF
 100
AcDbEntity
   8
LEVEL001
   6
CONTINUOUS
  62
15
 100
AcDbCircle
  10
 165.09837533695
  20
 289.60043764159
  30
0.0
  40
 0.50000000000000
 100
AcDbArc
  50
0.0
  51
 89.999999999244
   0
POINT
   5
300
 100
AcDbEntity
   8
LEVEL001
 100
AcDbPoint
  62
15
  10
 165.59837533696
  20
 290.10043764159
  30
0.0
   0
ARC
   5
301
 100
AcDbEntity
   8
LEVEL001
   6
CONTINUOUS
  62
15
 100
AcDbCircle
  10
 165.09837533696
  20
 280.10043764159
  30
0.0
  40
 0.50000000000000
 100
AcDbArc
  50
 270.00000000000
  51
 0.70348780666483E-9
   0
POINT
   5
302
 100
AcDbEntity
   8
LEVEL001
 100
AcDbPoint
  62
15
  10
 165.59837533696
  20
 279.60043764159
  30
0.0
   0
LINE
   5
303
 100
AcDbEntity
   8
LEVEL001
 100
AcDbLine
   6
CONTINUOUS
  62
15
  10
 165.59837533696
  20
 280.10043764159
  30
0.0
  11
 165.59837533696
  21
 289.60043764159
  31
0.0
   0
ARC
   5
304
 100
AcDbEntity
   8
LEVEL001
   6
CONTINUOUS
  62
15
 100
AcDbCircle
  10
 159.59837533695
  20
 280.10043764159
  30
0.0
  40
 0.50000000000000
 100
AcDbArc
  50
 180.00000000000
  51
 270.00000000076
   0
POINT
   5
305
 100
AcDbEntity
   8
LEVEL001
 100
AcDbPoint
  62
15
  10
 159.09837533696
  20
 279.60043764159
  30
0.0
   0
LINE
   5
306
 100
AcDbEntity
   8
LEVEL001
 100
AcDbLine
   6
CONTINUOUS
  62
15
  10
 165.09837533696
  20
 279.60043764159
  30
0.0
  11
 159.59837533696
  21
 279.60043764159
  31
0.0
   0
LINE
   5
307
 100
AcDbEntity
   8
LEVEL001
 100
AcDbLine
   6
CONTINUOUS
  62
15
  10
 165.09837533696
  20
 290.10043764159
  30
0.0
  11
 159.59837533696
  21
 290.10043764159
  31
0.0
   0
ARC
   5
308
 100
AcDbEntity
   8
LEVEL001
   6
CONTINUOUS
  62
15
 100
AcDbCircle
  10
 159.59837533696
  20
 289.60043764159
  30
0.0
  40
 0.50000000000000
 100
AcDbArc
  50
 90.000000000000
  51
 179.99999999930
   0
POINT
   5
309
 100
AcDbEntity
   8
LEVEL001
 100
AcDbPoint
  62
15
  10
 159.09837533696
  20
 290.10043764159
  30
0.0
   0
LINE
   5
30A
 100
AcDbEntity
   8
LEVEL001
 100
AcDbLine
   6
CONTINUOUS
  62
15
  10
 159.09837533696
  20
 289.60043764159
  30
0.0
  11
 159.09837533696
  21
 280.10043764159
  31
0.0
   0
ARC
   5
30B
 100
AcDbEntity
   8
LEVEL001
   6
CONTINUOUS
  62
15
 100
AcDbCircle
  10
 155.59837533696
  20
 289.60043764160
  30
0.0
  40
 0.50000000000000
 100
AcDbArc
  50
0.0
  51
 90.000000000000
   0
POINT
   5
30C
 100
AcDbEntity
   8
LEVEL001
 100
AcDbPoint
  62
15
  10
 156.09837533696
  20
 290.10043764159
  30
0.0
   0
LINE
   5
30D
 100
AcDbEntity
   8
LEVEL001
 100
AcDbLine
   6
CONTINUOUS
  62
15
  10
 156.09837533696
  20
 280.10043764159
  30
0.0
  11
 156.09837533696
  21
 289.60043764159
  31
0.0
   0
ARC
   5
30E
 100
AcDbEntity
   8
LEVEL001
   6
CONTINUOUS
  62
15
 100
AcDbCircle
  10
 155.59837533695
  20
 280.10043764159
  30
0.0
  40
 0.50000000000000
 100
AcDbArc
  50
 270.00000000070
  51
0.0
   0
POINT
   5
30F
 100
AcDbEntity
   8
LEVEL001
 100
AcDbPoint
  62
15
  10
 156.09837533696
  20
 279.60043764159
  30
0.0
   0
LINE
   5
310
 100
AcDbEntity
   8
LEVEL001
 100
AcDbLine
   6
CONTINUOUS
  62
15
  10
 150.09837533696
  20
 279.60043764159
  30
0.0
  11
 155.59837533696
  21
 279.60043764159
  31
0.0
   0
ARC
   5
311
 100
AcDbEntity
   8
LEVEL001
   6
CONTINUOUS
  62
15
 100
AcDbCircle
  10
 150.09837533696
  20
 280.10043764160
  30
0.0
  40
 0.50000000000000
 100
AcDbArc
  50
 180.00000000076
  51
 270.00000000000
   0
POINT
   5
312
 100
AcDbEntity
   8
LEVEL001
 100
AcDbPoint
  62
15
  10
 149.59837533696
  20
 279.60043764159
  30
0.0
   0
LINE
   5
313
 100
AcDbEntity
   8
LEVEL001
 100
AcDbLine
   6
CONTINUOUS
  62
15
  10
 149.59837533696
  20
 289.60043764159
  30
0.0
  11
 149.59837533696
  21
 280.10043764159
  31
0.0
   0
ARC
   5
314
 100
AcDbEntity
   8
LEVEL001
   6
CONTINUOUS
  62
15
 100
AcDbCircle
  10
 150.09837533695
  20
 289.60043764159
  30
0.0
  40
 0.50000000000000
 100
AcDbArc
  50
 89.999999999297
  51
 180.00000000000
   0
POINT
   5
315
 100
AcDbEntity
   8
LEVEL001
 100
AcDbPoint
  62
15
  10
 149.59837533696
  20
 290.10043764159
  30
0.0
   0
LINE
   5
316
 100
AcDbEntity
   8
LEVEL001
 100
AcDbLine
   6
CONTINUOUS
  62
15
  10
 150.09837533696
  20
 290.10043764159
  30
0.0
  11
 155.59837533696
  21
 290.10043764159
  31
0.0
   0
ARC
   5
317
 100
AcDbEntity
   8
LEVEL001
   6
CONTINUOUS
  62
15
 100
AcDbCircle
  10
 146.59837533695
  20
 289.60043764159
  30
0.0
  40
 0.50000000000000
 100
AcDbArc
  50
0.0
  51
 89.999999999244
   0
POINT
   5
318
 100
AcDbEntity
   8
LEVEL001
 100
AcDbPoint
  62
15
  10
 147.09837533696
  20
 290.10043764159
  30
0.0
   0
LINE
   5
319
 100
AcDbEntity
   8
LEVEL001
 100
AcDbLine
   6
CONTINUOUS
  62
15
  10
 141.09837533696
  20
 290.10043764159
  30
0.0
  11
 146.59837533696
  21
 290.10043764159
  31
0.0
   0
ARC
   5
31A
 100
AcDbEntity
   8
LEVEL001
   6
CONTINUOUS
  62
15
 100
AcDbCircle
  10
 141.09837533696
  20
 289.60043764159
  30
0.0
  40
 0.50000000000000
 100
AcDbArc
  50
 90.000000000000
  51
 179.99999999930
   0
POINT
   5
31B
 100
AcDbEntity
   8
LEVEL001
 100
AcDbPoint
  62
15
  10
 140.59837533696
  20
 290.10043764159
  30
0.0
   0
ARC
   5
31C
 100
AcDbEntity
   8
LEVEL001
   6
CONTINUOUS
  62
15
 100
AcDbCircle
  10
 141.09837533696
  20
 280.10043764160
  30
0.0
  40
 0.50000000000000
 100
AcDbArc
  50
 180.00000000077
  51
 270.00000000000
   0
POINT
   5
31D
 100
AcDbEntity
   8
LEVEL001
 100
AcDbPoint
  62
15
  10
 140.59837533696
  20
 279.60043764159
  30
0.0
   0
LINE
   5
31E
 100
AcDbEntity
   8
LEVEL001
 100
AcDbLine
   6
CONTINUOUS
  62
15
  10
 140.59837533696
  20
 289.60043764159
  30
0.0
  11
 140.59837533696
  21
 280.10043764159
  31
0.0
   0
LINE
   5
31F
 100
AcDbEntity
   8
LEVEL001
 100
AcDbLine
   6
CONTINUOUS
  62
15
  10
 147.09837533696
  20
 280.10043764159
  30
0.0
  11
 147.09837533696
  21
 289.60043764159
  31
0.0
   0
ARC
   5
320
 100
AcDbEntity
   8
LEVEL001
   6
CONTINUOUS
  62
15
 100
AcDbCircle
  10
 146.59837533695
  20
 280.10043764159
  30
0.0
  40
 0.50000000000000
 100
AcDbArc
  50
 270.00000000070
  51
0.0
   0
POINT
   5
321
 100
AcDbEntity
   8
LEVEL001
 100
AcDbPoint
  62
15
  10
 147.09837533696
  20
 279.60043764159
  30
0.0
   0
LINE
   5
322
 100
AcDbEntity
   8
LEVEL001
 100
AcDbLine
   6
CONTINUOUS
  62
15
  10
 141.09837533696
  20
 279.60043764159
  30
0.0
  11
 146.59837533696
  21
 279.60043764159
  31
0.0
   0
ARC
   5
323
 100
AcDbEntity
   8
LEVEL001
   6
CONTINUOUS
  62
15
 100
AcDbCircle
  10
 138.59837533695
  20
 280.10043764159
  30
0.0
  40
 0.50000000000000
 100
AcDbArc
  50
 270.00000000070
  51
0.0
   0
POINT
   5
324
 100
AcDbEntity
   8
LEVEL001
 100
AcDbPoint
  62
15
  10
 139.09837533696
  20
 279.60043764159
  30
0.0
   0
LINE
   5
325
 100
AcDbEntity
   8
LEVEL001
 100
AcDbLine
   6
CONTINUOUS
  62
15
  10
 138.04837533696
  20
 279.60043764159
  30
0.0
  11
 138.59837533696
  21
 279.60043764159
  31
0.0
   0
ARC
   5
326
 100
AcDbEntity
   8
LEVEL001
   6
CONTINUOUS
  62
15
 100
AcDbCircle
  10
 138.04837533696
  20
 280.10043764159
  30
0.0
  40
 0.50000000000000
 100
AcDbArc
  50
 179.99999999943
  51
 270.00000000000
   0
POINT
   5
327
 100
AcDbEntity
   8
LEVEL001
 100
AcDbPoint
  62
15
  10
 137.54837533696
  20
 279.60043764159
  30
0.0
   0
ARC
   5
328
 100
AcDbEntity
   8
LEVEL001
   6
CONTINUOUS
  62
15
 100
AcDbCircle
  10
 138.04837533696
  20
 289.60043764160
  30
0.0
  40
 0.50000000000000
 100
AcDbArc
  50
 90.000000000000
  51
 180.00000000063
   0
POINT
   5
329
 100
AcDbEntity
   8
LEVEL001
 100
AcDbPoint
  62
15
  10
 137.54837533696
  20
 290.10043764159
  30
0.0
   0
LINE
   5
32A
 100
AcDbEntity
   8
LEVEL001
 100
AcDbLine
   6
CONTINUOUS
  62
15
  10
 137.54837533696
  20
 289.60043764159
  30
0.0
  11
 137.54837533696
  21
 280.10043764159
  31
0.0
   0
LINE
   5
32B
 100
AcDbEntity
   8
LEVEL001
 100
AcDbLine
   6
CONTINUOUS
  62
15
  10
 139.09837533696
  20
 280.10043764159
  30
0.0
  11
 139.09837533696
  21
 289.60043764159
  31
0.0
   0
ARC
   5
32C
 100
AcDbEntity
   8
LEVEL001
   6
CONTINUOUS
  62
15
 100
AcDbCircle
  10
 138.59837533695
  20
 289.60043764159
  30
0.0
  40
 0.50000000000000
 100
AcDbArc
  50
0.0
  51
 89.999999999244
   0
POINT
   5
32D
 100
AcDbEntity
   8
LEVEL001
 100
AcDbPoint
  62
15
  10
 139.09837533696
  20
 290.10043764159
  30
0.0
   0
LINE
   5
32E
 100
AcDbEntity
   8
LEVEL001
 100
AcDbLine
   6
CONTINUOUS
  62
15
  10
 138.04837533696
  20
 290.10043764159
  30
0.0
  11
 138.59837533696
  21
 290.10043764159
  31
0.0
   0
LINE
   5
32F
 100
AcDbEntity
   8
LEVEL001
 100
AcDbLine
   6
DASHDOT
  62
3
  10
 157.84837533696
  20
 314.28132608781
  30
0.0
  11
 157.84837533696
  21
 267.29629500530
  31
0.0
   0
LINE
   5
330
 100
AcDbEntity
   8
LEVEL001
 100
AcDbLine
   6
CONTINUOUS
  62
15
  10
 82.848375336957
  20
 308.60043764159
  30
0.0
  11
 374.51676735939
  21
 308.60043764159
  31
0.0
   0
LINE
   5
331
 100
AcDbEntity
   8
LEVEL001
 100
AcDbLine
   6
CONTINUOUS
  62
15
  10
 82.848375336957
  20
 273.60043764159
  30
0.0
  11
 374.51676735939
  21
 273.60043764159
  31
0.0
   0
DIMENSION
   5
332
 100
AcDbEntity
   8
LEVEL001
   6
CONTINUOUS
  62
3
 100
AcDbDimension
   2
*D12
  10
 594.34837533696
  20
 338.59972203981
  30
0.0
  11
 603.59837533696
  21
 338.59972203981
  31
0.0
  70
0
   3
GMM001
 100
AcDbAlignedDimension
  13
 612.84837533696
  23
 304.56881348591
  33
0.0
  14
 594.34837533696
  24
 338.59972203981
  34
0.0
  50
 180.00000000000
 100
AcDbRotatedDimension
   0
DIMENSION
   5
333
 100
AcDbEntity
   8
LEVEL001
   6
CONTINUOUS
  62
3
 100
AcDbDimension
   2
*D13
  10
 682.84837533696
  20
 338.59972203981
  30
0.0
  11
 647.84837533696
  21
 338.59972203981
  31
0.0
  70
0
   3
GMM001
 100
AcDbAlignedDimension
  13
 612.84837533696
  23
 338.59972203981
  33
0.0
  14
 682.84837533696
  24
 308.60043764159
  34
0.0
 100
AcDbRotatedDimension
   0
DIMENSION
   5
334
 100
AcDbEntity
   8
LEVEL001
   6
CONTINUOUS
  62
3
 100
AcDbDimension
   2
*D14
  10
 171.34837533696
  20
 338.59972203981
  30
0.0
  11
 162.09837533696
  21
 338.59972203981
  31
0.0
  70
0
   3
GMM001
 100
AcDbAlignedDimension
  13
 152.84837533696
  23
 304.56881348591
  33
0.0
  14
 171.34837533696
  24
 338.59972203981
  34
0.0
 100
AcDbRotatedDimension
   0
DIMENSION
   5
335
 100
AcDbEntity
   8
LEVEL001
   6
CONTINUOUS
  62
3
 100
AcDbDimension
   2
*D15
  10
 152.84837533696
  20
 338.59972203981
  30
0.0
  11
 117.84837533696
  21
 338.59972203981
  31
0.0
  70
0
   3
GMM001
 100
AcDbAlignedDimension
  13
 82.848375336957
  23
 308.60043764159
  33
0.0
  14
 152.84837533696
  24
 338.59972203981
  34
0.0
 100
AcDbRotatedDimension
   0
DIMENSION
   5
336
 100
AcDbEntity
   8
LEVEL001
   6
CONTINUOUS
  62
3
 100
AcDbDimension
   2
*D16
  10
 143.84837533696
  20
 236.35129929016
  30
0.0
  11
 113.34837533696
  21
 236.35129929016
  31
0.0
  70
0
   3
GMM001
 100
AcDbAlignedDimension
  13
 82.848375336957
  23
 273.60043764159
  33
0.0
  14
 143.84837533696
  24
 277.63955316019
  34
0.0
 100
AcDbRotatedDimension
   0
DIMENSION
   5
337
 100
AcDbEntity
   8
LEVEL001
   6
CONTINUOUS
  62
3
 100
AcDbDimension
   2
*D17
  10
 682.84837533696
  20
 236.35129929016
  30
0.0
  11
 652.34837533696
  21
 236.35129929016
  31
0.0
  70
0
   3
GMM001
 100
AcDbAlignedDimension
  13
 621.84837533696
  23
 236.35129929016
  33
0.0
  14
 682.84837533696
  24
 273.60043764159
  34
0.0
 100
AcDbRotatedDimension
   0
DIMENSION
   5
338
 100
AcDbEntity
   8
LEVEL001
   6
CONTINUOUS
  62
3
 100
AcDbDimension
   2
*D18
  10
 603.34837533696
  20
 236.35129929016
  30
0.0
  11
 612.59837533696
  21
 222.64712735590
  31
0.0
  70
128
   3
GMM005
 100
AcDbAlignedDimension
  13
 621.84837533696
  23
 277.63955316019
  33
0.0
  14
 603.34837533696
  24
 236.35129929016
  34
0.0
  50
 180.00000000000
 100
AcDbRotatedDimension
   0
DIMENSION
   5
339
 100
AcDbEntity
   8
LEVEL001
   6
CONTINUOUS
  62
3
 100
AcDbDimension
   2
*D19
  10
 162.34837533696
  20
 236.35129929016
  30
0.0
  11
 153.09837533696
  21
 222.64712735590
  31
0.0
  70
128
   3
GMM005
 100
AcDbAlignedDimension
  13
 143.84837533696
  23
 277.63955316019
  33
0.0
  14
 162.34837533696
  24
 277.63955316019
  34
0.0
 100
AcDbRotatedDimension
   0
DIMENSION
   5
33A
 100
AcDbEntity
   8
LEVEL001
   6
CONTINUOUS
  62
3
 100
AcDbDimension
   2
*D20
  10
 594.34837533696
  20
 338.59972203981
  30
0.0
  11
 382.84837533696
  21
 338.59972203981
  31
0.0
  70
0
   1
\A1;223üE423üE573
   3
GMM006
 100
AcDbAlignedDimension
  13
 171.34837533696
  23
 304.56881348591
  33
0.0
  14
 594.34837533696
  24
 304.56881348591
  34
0.0
 100
AcDbRotatedDimension
   0
LINE
   5
33B
 100
AcDbEntity
   8
LEVEL001
 100
AcDbLine
   6
CONTINUOUS
  62
3
  10
 341.89450387865
  20
 341.01609349618
  30
0.0
  11
 362.66146553057
  21
 341.01609349618
  31
0.0
   0
LINE
   5
33C
 100
AcDbEntity
   8
LEVEL001
 100
AcDbLine
   6
CONTINUOUS
  62
3
  10
 402.53403190226
  20
 341.01609349618
  30
0.0
  11
 423.30099355418
  21
 341.01609349618
  31
0.0
   0
DIMENSION
   5
33D
 100
AcDbEntity
   8
LEVEL001
   6
CONTINUOUS
  62
3
 100
AcDbDimension
   2
*D21
  10
 603.34837533696
  20
 236.35129929016
  30
0.0
  11
 382.84837533696
  21
 236.35129929016
  31
0.0
  70
0
   1
\A1;241üE441üE591
   3
GMM007
 100
AcDbAlignedDimension
  13
 162.34837533696
  23
 236.35129929016
  33
0.0
  14
 603.34837533696
  24
 277.63955316019
  34
0.0
 100
AcDbRotatedDimension
   0
LINE
   5
33E
 100
AcDbEntity
   8
LEVEL001
 100
AcDbLine
   6
CONTINUOUS
  62
3
  10
 402.53403190226
  20
 238.53113774397
  30
0.0
  11
 423.30099355418
  21
 238.53113774397
  31
0.0
   0
LINE
   5
33F
 100
AcDbEntity
   8
LEVEL001
 100
AcDbLine
   6
CONTINUOUS
  62
3
  10
 341.89450387865
  20
 238.53113774397
  30
0.0
  11
 362.66146553057
  21
 238.53113774397
  31
0.0
   0
ENDSEC
  0
SECTION
  2
OBJECTS
  0
DICTIONARY
  5
C
100
AcDbDictionary
  3
ACAD_GROUP
350
D
  3
ACAD_MLINESTYLE
350
1B
  0
DICTIONARY
  5
D
102
{ACAD_REACTORS
330
C
102
}
100
AcDbDictionary
  0
DICTIONARY
  5
1B
102
{ACAD_REACTORS
330
C
102
}
100
AcDbDictionary
  3
STANDARD
350
1C
  0
MLINESTYLE
  5
1C
102
{ACAD_REACTORS
330
1B
102
}
100
AcDbMlineStyle
  2
STANDARD
 70
     0
  3

 62
   256
 51
90.0
 52
90.0
 71
     2
 49
0.5
 62
   256
  6
BYLAYER
 49
-0.5
 62
   256
  6
BYLAYER
  0
ENDSEC
   0
EOF
