   0
SECTION
   2
HEADER
   9
$ACADVER
   1
AC1015
   9
$LIMMIN
  10
0.0
  20
0.0
   9
$LIMMAX
  10
 840.00000000000
  20
 594.00000000000
   9
$EXTMIN
  10
0.0
  20
0.0
  30
0.0
   9
$EXTMAX
  10
 840.00000000000
  20
 594.00000000000
  30
0.0
   9
$LTSCALE
  40
 16.800000000000
   9
$HANDSEED
   5
2DA
   0
ENDSEC
   0
SECTION
   2
TABLES
  0
TABLE
  2
VPORT
  5
8
100
AcDbSymbolTable
 70
     1
  0
VPORT
  5
2D9
100
AcDbSymbolTableRecord
100
AcDbViewportTableRecord
  2
*ACTIVE
 70
     0
 10
0.0
 20
0.0
 11
1.0
 21
1.0
  12
 420.00000000000
  22
 297.00000000000
 13
0.0
 23
0.0
 14
1.0
 24
1.0
 15
0.0
 25
0.0
 16
0.0
 26
0.0
 36
1.0
 17
0.0
 27
0.0
 37
0.0
  40
 840.00000000000
  41
 1.4787878787879
 42
50.0
 43
0.0
 44
0.0
 50
0.0
 51
0.0
 71
     0
 72
   100
 73
     1
 74
     1
 75
     0
 76
     0
 77
     0
 78
     0
  0
ENDTAB
  0
TABLE
  2
LTYPE
  5
5
100
AcDbSymbolTable
 70
    25
  0
LTYPE
  5
12
100
AcDbSymbolTableRecord
100
AcDbLinetypeTableRecord
  2
BYBLOCK
 70
     0
  3

 72
    65
 73
     0
 40
0.0
  0
LTYPE
  5
13
100
AcDbSymbolTableRecord
100
AcDbLinetypeTableRecord
  2
BYLAYER
 70
     0
  3

 72
    65
 73
     0
 40
0.0
  0
LTYPE
  5
14
100
AcDbSymbolTableRecord
100
AcDbLinetypeTableRecord
  2
CONTINUOUS
 70
     0
  3
Solid line
 72
    65
 73
     0
 40
0.0
  0
LTYPE
  5
20
100
AcDbSymbolTableRecord
100
AcDbLinetypeTableRecord
  2
BORDER
 70
     0
  3
__ __ . __ __ . __ __ . __ __ . __ __ . __ __ .
 72
    65
 73
     6
 40
1.75
 49
0.5
 74
     0
 49
-0.25
 74
     0
 49
0.5
 74
     0
 49
-0.25
 74
     0
 49
0.0
 74
     0
 49
-0.25
 74
     0
  0
LTYPE
  5
21
100
AcDbSymbolTableRecord
100
AcDbLinetypeTableRecord
  2
BORDER2
 70
     0
  3
__.__.__.__.__.__.__.__.__.__.__.__.__.__.__.__
 72
    65
 73
     6
 40
0.875
 49
0.25
 74
     0
 49
-0.125
 74
     0
 49
0.25
 74
     0
 49
-0.125
 74
     0
 49
0.0
 74
     0
 49
-0.125
 74
     0
  0
LTYPE
  5
22
100
AcDbSymbolTableRecord
100
AcDbLinetypeTableRecord
  2
BORDERX2
 70
     0
  3
____  ____  .  ____  ____  .  ____  ____  .  __
 72
    65
 73
     6
 40
3.5
 49
1.0
 74
     0
 49
-0.5
 74
     0
 49
1.0
 74
     0
 49
-0.5
 74
     0
 49
0.0
 74
     0
 49
-0.5
 74
     0
  0
LTYPE
  5
23
100
AcDbSymbolTableRecord
100
AcDbLinetypeTableRecord
  2
CENTER
 70
     0
  3
____ _ ____ _ ____ _ ____ _ ____ _ ____ _ ____ 
 72
    65
 73
     4
 40
2.0
 49
1.25
 74
     0
 49
-0.25
 74
     0
 49
0.25
 74
     0
 49
-0.25
 74
     0
  0
LTYPE
  5
24
100
AcDbSymbolTableRecord
100
AcDbLinetypeTableRecord
  2
CENTER2
 70
     0
  3
___ _ ___ _ ___ _ ___ _ ___ _ ___ _ ___ _ ___ _
 72
    65
 73
     4
 40
1.125
 49
0.75
 74
     0
 49
-0.125
 74
     0
 49
0.125
 74
     0
 49
-0.125
 74
     0
  0
LTYPE
  5
25
100
AcDbSymbolTableRecord
100
AcDbLinetypeTableRecord
  2
CENTERX2
 70
     0
  3
________  __  ________  __  ________  __  _____
 72
    65
 73
     4
 40
4.0
 49
2.5
 74
     0
 49
-0.5
 74
     0
 49
0.5
 74
     0
 49
-0.5
 74
     0
  0
LTYPE
  5
26
100
AcDbSymbolTableRecord
100
AcDbLinetypeTableRecord
  2
DASHDOT
 70
     0
  3
__ . __ . __ . __ . __ . __ . __ . __ . __ . __
 72
    65
 73
     4
 40
1.0
 49
0.5
 74
     0
 49
-0.25
 74
     0
 49
0.0
 74
     0
 49
-0.25
 74
     0
  0
LTYPE
  5
27
100
AcDbSymbolTableRecord
100
AcDbLinetypeTableRecord
  2
DASHDOT2
 70
     0
  3
_._._._._._._._._._._._._._._._._._._._._._._._
 72
    65
 73
     4
 40
0.5
 49
0.25
 74
     0
 49
-0.125
 74
     0
 49
0.0
 74
     0
 49
-0.125
 74
     0
  0
LTYPE
  5
28
100
AcDbSymbolTableRecord
100
AcDbLinetypeTableRecord
  2
DASHDOTX2
 70
     0
  3
____  .  ____  .  ____  .  ____  .  ____  .  __
 72
    65
 73
     4
 40
2.0
 49
1.0
 74
     0
 49
-0.5
 74
     0
 49
0.0
 74
     0
 49
-0.5
 74
     0
  0
LTYPE
  5
29
100
AcDbSymbolTableRecord
100
AcDbLinetypeTableRecord
  2
DASHED
 70
     0
  3
__ __ __ __ __ __ __ __ __ __ __ __ __ __ __ __
 72
    65
 73
     2
 40
0.75
 49
0.5
 74
     0
 49
-0.25
 74
     0
  0
LTYPE
  5
2A
100
AcDbSymbolTableRecord
100
AcDbLinetypeTableRecord
  2
DASHED2
 70
     0
  3
_ _ _ _ _ _ _ _ _ _ _ _ _ _ _ _ _ _ _ _ _ _ _ _
 72
    65
 73
     2
 40
0.375
 49
0.25
 74
     0
 49
-0.125
 74
     0
  0
LTYPE
  5
2B
100
AcDbSymbolTableRecord
100
AcDbLinetypeTableRecord
  2
DASHEDX2
 70
     0
  3
____  ____  ____  ____  ____  ____  ____  ____ 
 72
    65
 73
     2
 40
1.5
 49
1.0
 74
     0
 49
-0.5
 74
     0
  0
LTYPE
  5
2C
100
AcDbSymbolTableRecord
100
AcDbLinetypeTableRecord
  2
DIVIDE
 70
     0
  3
____ . . ____ . . ____ . . ____ . . ____ . . __
 72
    65
 73
     6
 40
1.25
 49
0.5
 74
     0
 49
-0.25
 74
     0
 49
0.0
 74
     0
 49
-0.25
 74
     0
 49
0.0
 74
     0
 49
-0.25
 74
     0
  0
LTYPE
  5
2D
100
AcDbSymbolTableRecord
100
AcDbLinetypeTableRecord
  2
DIVIDE2
 70
     0
  3
__..__..__..__..__..__..__..__..__..__..__..__.
 72
    65
 73
     6
 40
0.625
 49
0.25
 74
     0
 49
-0.125
 74
     0
 49
0.0
 74
     0
 49
-0.125
 74
     0
 49
0.0
 74
     0
 49
-0.125
 74
     0
  0
LTYPE
  5
2E
100
AcDbSymbolTableRecord
100
AcDbLinetypeTableRecord
  2
DIVIDEX2
 70
     0
  3
________  .  .  ________  .  .  ________  .  . 
 72
    65
 73
     6
 40
2.5
 49
1.0
 74
     0
 49
-0.5
 74
     0
 49
0.0
 74
     0
 49
-0.5
 74
     0
 49
0.0
 74
     0
 49
-0.5
 74
     0
  0
LTYPE
  5
2F
100
AcDbSymbolTableRecord
100
AcDbLinetypeTableRecord
  2
DOT
 70
     0
  3
. . . . . . . . . . . . . . . . . . . . . . . .
 72
    65
 73
     2
 40
0.25
 49
0.0
 74
     0
 49
-0.25
 74
     0
  0
LTYPE
  5
30
100
AcDbSymbolTableRecord
100
AcDbLinetypeTableRecord
  2
DOT2
 70
     0
  3
...............................................
 72
    65
 73
     2
 40
0.125
 49
0.0
 74
     0
 49
-0.125
 74
     0
  0
LTYPE
  5
31
100
AcDbSymbolTableRecord
100
AcDbLinetypeTableRecord
  2
DOTX2
 70
     0
  3
.  .  .  .  .  .  .  .  .  .  .  .  .  .  .  . 
 72
    65
 73
     2
 40
0.5
 49
0.0
 74
     0
 49
-0.5
 74
     0
  0
LTYPE
  5
32
100
AcDbSymbolTableRecord
100
AcDbLinetypeTableRecord
  2
HIDDEN
 70
     0
  3
__ __ __ __ __ __ __ __ __ __ __ __ __ __ __ __
 72
    65
 73
     2
 40
0.375
 49
0.25
 74
     0
 49
-0.125
 74
     0
  0
LTYPE
  5
33
100
AcDbSymbolTableRecord
100
AcDbLinetypeTableRecord
  2
HIDDEN2
 70
     0
  3
_ _ _ _ _ _ _ _ _ _ _ _ _ _ _ _ _ _ _ _ _ _ _ _
 72
    65
 73
     2
 40
0.1875
 49
0.125
 74
     0
 49
-0.0625
 74
     0
  0
LTYPE
  5
34
100
AcDbSymbolTableRecord
100
AcDbLinetypeTableRecord
  2
HIDDENX2
 70
     0
  3
____ ____ ____ ____ ____ ____ ____ ____ ____ __
 72
    65
 73
     2
 40
0.75
 49
0.5
 74
     0
 49
-0.25
 74
     0
  0
LTYPE
  5
35
100
AcDbSymbolTableRecord
100
AcDbLinetypeTableRecord
  2
PHANTOM
 70
     0
  3
______  __  __  ______  __  __  ______  __  __ 
 72
    65
 73
     6
 40
2.5
 49
1.25
 74
     0
 49
-0.25
 74
     0
 49
0.25
 74
     0
 49
-0.25
 74
     0
 49
0.25
 74
     0
 49
-0.25
 74
     0
  0
LTYPE
  5
36
100
AcDbSymbolTableRecord
100
AcDbLinetypeTableRecord
  2
PHANTOM2
 70
     0
  3
___ _ _ ___ _ _ ___ _ _ ___ _ _ ___ _ _ ___ _ _
 72
    65
 73
     6
 40
1.25
 49
0.625
 74
     0
 49
-0.125
 74
     0
 49
0.125
 74
     0
 49
-0.125
 74
     0
 49
0.125
 74
     0
 49
-0.125
 74
     0
  0
LTYPE
  5
37
100
AcDbSymbolTableRecord
100
AcDbLinetypeTableRecord
  2
PHANTOMX2
 70
     0
  3
____________    ____    ____    ____________   
 72
    65
 73
     6
 40
5.0
 49
2.5
 74
     0
 49
-0.5
 74
     0
 49
0.5
 74
     0
 49
-0.5
 74
     0
 49
0.5
 74
     0
 49
-0.5
 74
     0
  0
ENDTAB
   0
TABLE
   2
LAYER
   5
2
 100
AcDbSymbolTable
  70
2
   0
LAYER
   5
E
 100
AcDbSymbolTableRecord
 100
AcDbLayerTableRecord
   2
0
  70
0
  62
7
   6
CONTINUOUS
 390
30
   0
LAYER
   5
39
 100
AcDbSymbolTableRecord
 100
AcDbLayerTableRecord
   2
LEVEL001
  70
0
  62
7
   6
CONTINUOUS
 390
30
   0
ENDTAB
  0
TABLE
  2
STYLE
  5
3
100
AcDbSymbolTable
  70
3
  0
STYLE
  5
F
100
AcDbSymbolTableRecord
100
AcDbTextStyleTableRecord
  2
STANDARD
 70
     0
 40
0.0
 41
1.0
 50
0.0
 71
     0
 42
0.2
  3
TXT
  4
BIGFONT
  0
STYLE
  5
38
100
AcDbSymbolTableRecord
100
AcDbTextStyleTableRecord
  2
STANDARD1
 70
     4
 40
0.0
 41
1.0
 50
0.0
 71
     0
 42
0.2
  3
TXT
  4
BIGFONT
   0
STYLE
   5
3A
 100
AcDbSymbolTableRecord
 100
AcDbTextStyleTableRecord
   2
GMM001
  70
0
  40
0.0
  41
 0.95000000000000
  50
0.0
  71
     0
  42
1.0
   3
txt.shx
   4
bigfont.shx
   0
ENDTAB
  0
TABLE
  2
VIEW
  5
6
100
AcDbSymbolTable
 70
     0
  0
ENDTAB
  0
TABLE
  2
UCS
  5
7
100
AcDbSymbolTable
 70
     0
  0
ENDTAB
  0
TABLE
  2
APPID
  5
9
100
AcDbSymbolTable
 70
     1
  0
APPID
  5
10
100
AcDbSymbolTableRecord
100
AcDbRegAppTableRecord
  2
ACAD
 70
     0
  0
ENDTAB
   0
TABLE
   2
DIMSTYLE
   5
A
 100
AcDbSymbolTable
  70
8
 100
AcDbDimStyleTable
  0
DIMSTYLE
105
1D
100
AcDbSymbolTableRecord
100
AcDbDimStyleTableRecord
  2
STANDARD
 70
     0
  3

  4

  5

  6

  7

 40
1.0
 41
0.18
 42
0.0625
 43
0.38
 44
0.18
 45
0.0
 46
0.0
 47
0.0
 48
0.0
140
0.18
141
0.09
142
0.0
143
25.4
144
1.0
145
0.0
146
1.0
147
0.09
 71
     0
 72
     0
 73
     1
 74
     1
 75
     0
 76
     0
 77
     0
 78
     0
170
     0
171
     2
172
     0
173
     0
174
     0
175
     0
176
     0
177
     0
178
     0
270
     2
271
     4
272
     4
273
     2
274
     2
340
F
275
     0
280
     0
281
     0
282
     0
283
     1
284
     0
285
     0
286
     0
287
     3
288
     0
   0
DIMSTYLE
 105
3B
 100
AcDbSymbolTableRecord
 100
AcDbDimStyleTableRecord
   2
GMM001
  70
0
   3
%%c<>
   4

   5

   6
_OPEN30
   7
_OPEN30
  40
 1.0000000000000
  41
 6.0000000000000
  42
 2.0000000000000
  43
 16.000000000000
  44
 2.0000000000000
  45
0.0
  46
0.0
  47
0.0
  48
0.0
 140
 8.0000000000000
 141
 2.0000000000000
 142
0.0
 143
 0.39400000000000E-1
 144
 1.0000000000000
 145
0.0
 146
 0.62500000000000
 147
 3.4285714285714
  71
0
  72
0
  73
0
  74
0
  75
0
  76
0
  77
3
  78
8
 170
0
 171
2
 172
1
 173
1
 174
0
 175
0
 176
3
 177
3
 178
3
 270
2
 271
6
 272
0
 273
2
 274
2
 340
3A
 275
0
 280
0
 281
0
 282
0
 283
1
 284
0
 285
0
 286
0
 287
3
 288
0
   0
DIMSTYLE
 105
3C
 100
AcDbSymbolTableRecord
 100
AcDbDimStyleTableRecord
   2
GMM002
  70
0
   3

   4

   5

   6
_OPEN30
   7
_OPEN30
  40
 1.0000000000000
  41
 6.0000000000000
  42
 2.0000000000000
  43
 16.000000000000
  44
 2.0000000000000
  45
0.0
  46
0.0
  47
0.0
  48
0.0
 140
 8.0000000000000
 141
 2.0000000000000
 142
0.0
 143
 0.39400000000000E-1
 144
 1.0000000000000
 145
0.0
 146
 0.62500000000000
 147
 3.4285714285714
  71
0
  72
0
  73
0
  74
0
  75
0
  76
0
  77
3
  78
8
 170
0
 171
2
 172
1
 173
1
 174
0
 175
0
 176
3
 177
3
 178
3
 270
2
 271
6
 272
0
 273
2
 274
2
 340
3A
 275
0
 280
0
 281
0
 282
0
 283
1
 284
0
 285
0
 286
0
 287
3
 288
0
   0
DIMSTYLE
 105
3D
 100
AcDbSymbolTableRecord
 100
AcDbDimStyleTableRecord
   2
GMM003
  70
0
   3

   4

   5

   6
_OPEN30
   7
_OPEN30
  40
 1.0000000000000
  41
 6.0000000000000
  42
 2.0000000000000
  43
 16.000000000000
  44
 2.0000000000000
  45
0.0
  46
0.0
  47
0.0
  48
0.0
 140
 8.0000000000000
 141
 2.0000000000000
 142
0.0
 143
 0.39400000000000E-1
 144
 1.0000000000000
 145
0.0
 146
 0.62500000000000
 147
0.0
  71
0
  72
0
  73
0
  74
0
  75
0
  76
0
  77
3
  78
8
 170
0
 171
2
 172
1
 173
1
 174
0
 175
0
 176
3
 177
3
 178
3
 270
2
 271
6
 272
0
 273
2
 274
2
 340
3A
 275
0
 280
0
 281
0
 282
0
 283
1
 284
0
 285
0
 286
0
 287
5
 288
1
   0
DIMSTYLE
 105
3E
 100
AcDbSymbolTableRecord
 100
AcDbDimStyleTableRecord
   2
GMM004
  70
0
   3
400üE<>
   4

   5

   6
_OPEN30
   7
_OPEN30
  40
 1.0000000000000
  41
 6.0000000000000
  42
 2.0000000000000
  43
 16.000000000000
  44
 2.0000000000000
  45
0.0
  46
0.0
  47
0.0
  48
0.0
 140
 8.0000000000000
 141
 2.0000000000000
 142
0.0
 143
 0.39400000000000E-1
 144
 1.0000000000000
 145
0.0
 146
 0.62500000000000
 147
 3.4285714285714
  71
0
  72
0
  73
0
  74
0
  75
0
  76
0
  77
3
  78
8
 170
0
 171
2
 172
1
 173
1
 174
0
 175
0
 176
3
 177
3
 178
3
 270
2
 271
6
 272
0
 273
2
 274
2
 340
3A
 275
0
 280
0
 281
0
 282
0
 283
1
 284
0
 285
0
 286
0
 287
3
 288
0
   0
DIMSTYLE
 105
3F
 100
AcDbSymbolTableRecord
 100
AcDbDimStyleTableRecord
   2
GMM005
  70
0
   3
250üE<>
   4

   5

   6
_OPEN30
   7
_OPEN30
  40
 1.0000000000000
  41
 6.0000000000000
  42
 2.0000000000000
  43
 16.000000000000
  44
 2.0000000000000
  45
0.0
  46
0.0
  47
0.0
  48
0.0
 140
 8.0000000000000
 141
 2.0000000000000
 142
0.0
 143
 0.39400000000000E-1
 144
 1.0000000000000
 145
0.0
 146
 0.62500000000000
 147
 3.4285714285714
  71
0
  72
0
  73
0
  74
0
  75
0
  76
0
  77
3
  78
8
 170
0
 171
2
 172
1
 173
1
 174
0
 175
0
 176
3
 177
3
 178
3
 270
2
 271
6
 272
0
 273
2
 274
2
 340
3A
 275
0
 280
0
 281
0
 282
0
 283
1
 284
0
 285
0
 286
0
 287
3
 288
0
   0
DIMSTYLE
 105
40
 100
AcDbSymbolTableRecord
 100
AcDbDimStyleTableRecord
   2
GMM006
  70
0
   3
236.5üE<>
   4

   5

   6
_OPEN30
   7
_OPEN30
  40
 1.0000000000000
  41
 6.0000000000000
  42
 2.0000000000000
  43
 16.000000000000
  44
 2.0000000000000
  45
0.0
  46
0.0
  47
0.0
  48
0.0
 140
 8.0000000000000
 141
 2.0000000000000
 142
0.0
 143
 0.39400000000000E-1
 144
 1.0000000000000
 145
0.0
 146
 0.62500000000000
 147
 3.4285714285714
  71
0
  72
0
  73
0
  74
0
  75
0
  76
0
  77
3
  78
8
 170
0
 171
2
 172
1
 173
1
 174
0
 175
0
 176
3
 177
3
 178
3
 270
2
 271
6
 272
0
 273
2
 274
2
 340
3A
 275
0
 280
0
 281
0
 282
0
 283
1
 284
0
 285
0
 286
0
 287
3
 288
0
   0
ENDTAB
  0
TABLE
  2
BLOCK_RECORD
  5
1
100
AcDbSymbolTable
 70
     0
  0
BLOCK_RECORD
  5
18
100
AcDbSymbolTableRecord
100
AcDbBlockTableRecord
  2
*MODEL_SPACE
  0
BLOCK_RECORD
  5
15
100
AcDbSymbolTableRecord
100
AcDbBlockTableRecord
  2
*PAPER_SPACE
   0
BLOCK_RECORD
   5
41
 100
AcDbSymbolTableRecord
 100
AcDbBlockTableRecord
   2
*D1
   0
BLOCK_RECORD
   5
42
 100
AcDbSymbolTableRecord
 100
AcDbBlockTableRecord
   2
*D2
   0
BLOCK_RECORD
   5
43
 100
AcDbSymbolTableRecord
 100
AcDbBlockTableRecord
   2
*D3
   0
BLOCK_RECORD
   5
44
 100
AcDbSymbolTableRecord
 100
AcDbBlockTableRecord
   2
*D4
   0
BLOCK_RECORD
   5
45
 100
AcDbSymbolTableRecord
 100
AcDbBlockTableRecord
   2
*D5
   0
BLOCK_RECORD
   5
46
 100
AcDbSymbolTableRecord
 100
AcDbBlockTableRecord
   2
*D6
   0
BLOCK_RECORD
   5
47
 100
AcDbSymbolTableRecord
 100
AcDbBlockTableRecord
   2
*D7
   0
BLOCK_RECORD
   5
48
 100
AcDbSymbolTableRecord
 100
AcDbBlockTableRecord
   2
*D8
   0
BLOCK_RECORD
   5
49
 100
AcDbSymbolTableRecord
 100
AcDbBlockTableRecord
   2
*D9
   0
BLOCK_RECORD
   5
4A
 100
AcDbSymbolTableRecord
 100
AcDbBlockTableRecord
   2
*D10
   0
BLOCK_RECORD
   5
4B
 100
AcDbSymbolTableRecord
 100
AcDbBlockTableRecord
   2
*D11
   0
BLOCK_RECORD
   5
4C
 100
AcDbSymbolTableRecord
 100
AcDbBlockTableRecord
   2
*D12
   0
BLOCK_RECORD
   5
4D
 100
AcDbSymbolTableRecord
 100
AcDbBlockTableRecord
   2
*D13
   0
BLOCK_RECORD
   5
4E
 100
AcDbSymbolTableRecord
 100
AcDbBlockTableRecord
   2
*D14
   0
BLOCK_RECORD
   5
4F
 100
AcDbSymbolTableRecord
 100
AcDbBlockTableRecord
   2
*D15
   0
BLOCK_RECORD
   5
50
 100
AcDbSymbolTableRecord
 100
AcDbBlockTableRecord
   2
_ARCHTICK
   0
BLOCK_RECORD
   5
51
 100
AcDbSymbolTableRecord
 100
AcDbBlockTableRecord
   2
_BOXBLANK
   0
BLOCK_RECORD
   5
52
 100
AcDbSymbolTableRecord
 100
AcDbBlockTableRecord
   2
_BOXFILLED
   0
BLOCK_RECORD
   5
53
 100
AcDbSymbolTableRecord
 100
AcDbBlockTableRecord
   2
_CLOSED
   0
BLOCK_RECORD
   5
54
 100
AcDbSymbolTableRecord
 100
AcDbBlockTableRecord
   2
_CLOSEDBLANK
   0
BLOCK_RECORD
   5
55
 100
AcDbSymbolTableRecord
 100
AcDbBlockTableRecord
   2
_DATUMBLANK
   0
BLOCK_RECORD
   5
56
 100
AcDbSymbolTableRecord
 100
AcDbBlockTableRecord
   2
_DATUMFILLED
   0
BLOCK_RECORD
   5
57
 100
AcDbSymbolTableRecord
 100
AcDbBlockTableRecord
   2
_DOT
   0
BLOCK_RECORD
   5
58
 100
AcDbSymbolTableRecord
 100
AcDbBlockTableRecord
   2
_DOTBLANK
   0
BLOCK_RECORD
   5
59
 100
AcDbSymbolTableRecord
 100
AcDbBlockTableRecord
   2
_DOTSMALL
   0
BLOCK_RECORD
   5
5A
 100
AcDbSymbolTableRecord
 100
AcDbBlockTableRecord
   2
_INTEGRAL
   0
BLOCK_RECORD
   5
5B
 100
AcDbSymbolTableRecord
 100
AcDbBlockTableRecord
   2
_NONE
   0
BLOCK_RECORD
   5
5C
 100
AcDbSymbolTableRecord
 100
AcDbBlockTableRecord
   2
_OBLIQUE
   0
BLOCK_RECORD
   5
5D
 100
AcDbSymbolTableRecord
 100
AcDbBlockTableRecord
   2
_OPEN
   0
BLOCK_RECORD
   5
5E
 100
AcDbSymbolTableRecord
 100
AcDbBlockTableRecord
   2
_OPEN30
   0
BLOCK_RECORD
   5
5F
 100
AcDbSymbolTableRecord
 100
AcDbBlockTableRecord
   2
_OPEN90
   0
BLOCK_RECORD
   5
60
 100
AcDbSymbolTableRecord
 100
AcDbBlockTableRecord
   2
_ORIGIN
   0
ENDTAB
   0
ENDSEC
  0
SECTION
  2
BLOCKS
  0
BLOCK
  5
19
100
AcDbEntity
  8
0
100
AcDbBlockBegin
  2
*MODEL_SPACE
 70
     0
 10
0.0
 20
0.0
 30
0.0
  3
*MODEL_SPACE
  1

  0
ENDBLK
  5
1A
100
AcDbEntity
  8
0
100
AcDbBlockEnd
  0
BLOCK
  5
16
100
AcDbEntity
 67
     1
  8
0
100
AcDbBlockBegin
  2
*PAPER_SPACE
 70
     0
 10
0.0
 20
0.0
 30
0.0
  3
*PAPER_SPACE
  1

  0
ENDBLK
  5
17
100
AcDbEntity
 67
     1
  8
0
100
AcDbBlockEnd
   0
BLOCK
   5
61
 100
AcDbEntity
   8
0
 100
AcDbBlockBegin
   2
_ARCHTICK
  70
0
  10
0.0
  20
0.0
  30
0.0
   3
_ARCHTICK
   0
POLYLINE
   5
62
 100
AcDbEntity
   8
0
   6
BYBLOCK
  62
0
 100
AcDb2dPolyline
  66
1
  10
0.0
  20
0.0
  30
0.0
  70
1
  40
 0.15000000000000
  41
 0.15000000000000
   0
VERTEX
   5
63
 100
AcDbEntity
   8
0
   6
BYBLOCK
  62
0
 100
AcDbVertex
 100
AcDb2dVertex
  10
-0.50000000000000
  20
-0.50000000000000
  30
0.0
  40
 0.15000000000000
  41
 0.15000000000000
   0
VERTEX
   5
64
 100
AcDbEntity
   8
0
   6
BYBLOCK
  62
0
 100
AcDbVertex
 100
AcDb2dVertex
  10
 0.50000000000000
  20
 0.50000000000000
  30
0.0
  40
 0.15000000000000
  41
 0.15000000000000
   0
SEQEND
   5
65
 100
AcDbEntity
   8
0
   6
BYBLOCK
  62
0
   0
ENDBLK
   5
66
 100
AcDbEntity
   8
0
 100
AcDbBlockEnd
   0
BLOCK
   5
67
 100
AcDbEntity
   8
0
 100
AcDbBlockBegin
   2
_OBLIQUE
  70
0
  10
0.0
  20
0.0
  30
0.0
   3
_OBLIQUE
   0
LINE
   5
68
 100
AcDbEntity
   8
0
 100
AcDbLine
   6
BYBLOCK
  62
0
  10
-0.50000000000000
  20
-0.50000000000000
  30
0.0
  11
 0.50000000000000
  21
 0.50000000000000
  31
0.0
   0
ENDBLK
   5
69
 100
AcDbEntity
   8
0
 100
AcDbBlockEnd
   0
BLOCK
   5
6A
 100
AcDbEntity
   8
0
 100
AcDbBlockBegin
   2
_BOXBLANK
  70
0
  10
0.0
  20
0.0
  30
0.0
   3
_BOXBLANK
   0
LINE
   5
6B
 100
AcDbEntity
   8
0
 100
AcDbLine
   6
BYBLOCK
  62
0
  10
-0.50000000000000
  20
-0.50000000000000
  30
0.0
  11
 0.50000000000000
  21
-0.50000000000000
  31
0.0
   0
LINE
   5
6C
 100
AcDbEntity
   8
0
 100
AcDbLine
   6
BYBLOCK
  62
0
  10
 0.50000000000000
  20
-0.50000000000000
  30
0.0
  11
 0.50000000000000
  21
 0.50000000000000
  31
0.0
   0
LINE
   5
6D
 100
AcDbEntity
   8
0
 100
AcDbLine
   6
BYBLOCK
  62
0
  10
 0.50000000000000
  20
 0.50000000000000
  30
0.0
  11
-0.50000000000000
  21
 0.50000000000000
  31
0.0
   0
LINE
   5
6E
 100
AcDbEntity
   8
0
 100
AcDbLine
   6
BYBLOCK
  62
0
  10
-0.50000000000000
  20
 0.50000000000000
  30
0.0
  11
-0.50000000000000
  21
-0.50000000000000
  31
0.0
   0
LINE
   5
6F
 100
AcDbEntity
   8
0
 100
AcDbLine
   6
BYBLOCK
  62
0
  10
-0.50000000000000
  20
0.0
  30
0.0
  11
-1.0000000000000
  21
0.0
  31
0.0
   0
ENDBLK
   5
70
 100
AcDbEntity
   8
0
 100
AcDbBlockEnd
   0
BLOCK
   5
71
 100
AcDbEntity
   8
0
 100
AcDbBlockBegin
   2
_BOXFILLED
  70
0
  10
0.0
  20
0.0
  30
0.0
   3
_BOXFILLED
   0
SOLID
   5
72
 100
AcDbEntity
   8
0
 100
AcDbTrace
   6
BYBLOCK
  62
0
  10
-0.50000000000000
  20
 0.50000000000000
  30
0.0
  11
 0.50000000000000
  21
 0.50000000000000
  31
0.0
  12
-0.50000000000000
  22
-0.50000000000000
  32
0.0
  13
 0.50000000000000
  23
-0.50000000000000
  33
0.0
   0
LINE
   5
73
 100
AcDbEntity
   8
0
 100
AcDbLine
   6
BYBLOCK
  62
0
  10
-0.50000000000000
  20
0.0
  30
0.0
  11
-1.0000000000000
  21
0.0
  31
0.0
   0
ENDBLK
   5
74
 100
AcDbEntity
   8
0
 100
AcDbBlockEnd
   0
BLOCK
   5
75
 100
AcDbEntity
   8
0
 100
AcDbBlockBegin
   2
_CLOSED
  70
0
  10
0.0
  20
0.0
  30
0.0
   3
_CLOSED
   0
LINE
   5
76
 100
AcDbEntity
   8
0
 100
AcDbLine
   6
BYBLOCK
  62
0
  10
-1.0000000000000
  20
 0.16666666666667
  30
0.0
  11
0.0
  21
0.0
  31
0.0
   0
LINE
   5
77
 100
AcDbEntity
   8
0
 100
AcDbLine
   6
BYBLOCK
  62
0
  10
0.0
  20
0.0
  30
0.0
  11
-1.0000000000000
  21
-0.16666666666667
  31
0.0
   0
LINE
   5
78
 100
AcDbEntity
   8
0
 100
AcDbLine
   6
BYBLOCK
  62
0
  10
-1.0000000000000
  20
 0.16666666666667
  30
0.0
  11
-1.0000000000000
  21
-0.16666666666667
  31
0.0
   0
LINE
   5
79
 100
AcDbEntity
   8
0
 100
AcDbLine
   6
BYBLOCK
  62
0
  10
0.0
  20
0.0
  30
0.0
  11
-1.0000000000000
  21
0.0
  31
0.0
   0
ENDBLK
   5
7A
 100
AcDbEntity
   8
0
 100
AcDbBlockEnd
   0
BLOCK
   5
7B
 100
AcDbEntity
   8
0
 100
AcDbBlockBegin
   2
_OPEN
  70
0
  10
0.0
  20
0.0
  30
0.0
   3
_OPEN
   0
LINE
   5
7C
 100
AcDbEntity
   8
0
 100
AcDbLine
   6
BYBLOCK
  62
0
  10
-1.0000000000000
  20
 0.16666666666667
  30
0.0
  11
0.0
  21
0.0
  31
0.0
   0
LINE
   5
7D
 100
AcDbEntity
   8
0
 100
AcDbLine
   6
BYBLOCK
  62
0
  10
0.0
  20
0.0
  30
0.0
  11
-1.0000000000000
  21
-0.16666666666667
  31
0.0
   0
LINE
   5
7E
 100
AcDbEntity
   8
0
 100
AcDbLine
   6
BYBLOCK
  62
0
  10
0.0
  20
0.0
  30
0.0
  11
-1.0000000000000
  21
0.0
  31
0.0
   0
ENDBLK
   5
7F
 100
AcDbEntity
   8
0
 100
AcDbBlockEnd
   0
BLOCK
   5
80
 100
AcDbEntity
   8
0
 100
AcDbBlockBegin
   2
_OPEN30
  70
0
  10
0.0
  20
0.0
  30
0.0
   3
_OPEN30
   0
LINE
   5
81
 100
AcDbEntity
   8
0
 100
AcDbLine
   6
BYBLOCK
  62
0
  10
-1.0000000000000
  20
 0.26794919243110
  30
0.0
  11
0.0
  21
0.0
  31
0.0
   0
LINE
   5
82
 100
AcDbEntity
   8
0
 100
AcDbLine
   6
BYBLOCK
  62
0
  10
0.0
  20
0.0
  30
0.0
  11
-1.0000000000000
  21
-0.26794919243110
  31
0.0
   0
LINE
   5
83
 100
AcDbEntity
   8
0
 100
AcDbLine
   6
BYBLOCK
  62
0
  10
0.0
  20
0.0
  30
0.0
  11
-1.0000000000000
  21
0.0
  31
0.0
   0
ENDBLK
   5
84
 100
AcDbEntity
   8
0
 100
AcDbBlockEnd
   0
BLOCK
   5
85
 100
AcDbEntity
   8
0
 100
AcDbBlockBegin
   2
_OPEN90
  70
0
  10
0.0
  20
0.0
  30
0.0
   3
_OPEN90
   0
LINE
   5
86
 100
AcDbEntity
   8
0
 100
AcDbLine
   6
BYBLOCK
  62
0
  10
-0.50000000000000
  20
 0.50000000000000
  30
0.0
  11
0.0
  21
0.0
  31
0.0
   0
LINE
   5
87
 100
AcDbEntity
   8
0
 100
AcDbLine
   6
BYBLOCK
  62
0
  10
0.0
  20
0.0
  30
0.0
  11
-0.50000000000000
  21
-0.50000000000000
  31
0.0
   0
LINE
   5
88
 100
AcDbEntity
   8
0
 100
AcDbLine
   6
BYBLOCK
  62
0
  10
0.0
  20
0.0
  30
0.0
  11
-1.0000000000000
  21
0.0
  31
0.0
   0
ENDBLK
   5
89
 100
AcDbEntity
   8
0
 100
AcDbBlockEnd
   0
BLOCK
   5
8A
 100
AcDbEntity
   8
0
 100
AcDbBlockBegin
   2
_CLOSEDBLANK
  70
0
  10
0.0
  20
0.0
  30
0.0
   3
_CLOSEDBLANK
   0
LINE
   5
8B
 100
AcDbEntity
   8
0
 100
AcDbLine
   6
BYBLOCK
  62
0
  10
-1.0000000000000
  20
 0.16666666666667
  30
0.0
  11
0.0
  21
0.0
  31
0.0
   0
LINE
   5
8C
 100
AcDbEntity
   8
0
 100
AcDbLine
   6
BYBLOCK
  62
0
  10
0.0
  20
0.0
  30
0.0
  11
-1.0000000000000
  21
-0.16666666666667
  31
0.0
   0
LINE
   5
8D
 100
AcDbEntity
   8
0
 100
AcDbLine
   6
BYBLOCK
  62
0
  10
-1.0000000000000
  20
 0.16666666666667
  30
0.0
  11
-1.0000000000000
  21
-0.16666666666667
  31
0.0
   0
ENDBLK
   5
8E
 100
AcDbEntity
   8
0
 100
AcDbBlockEnd
   0
BLOCK
   5
8F
 100
AcDbEntity
   8
0
 100
AcDbBlockBegin
   2
_DOT
  70
0
  10
0.0
  20
0.0
  30
0.0
   3
_DOT
   0
POLYLINE
   5
90
 100
AcDbEntity
   8
0
   6
BYBLOCK
  62
0
 100
AcDb2dPolyline
  66
1
  10
0.0
  20
0.0
  30
0.0
  70
1
  40
 0.50000000000000
  41
 0.50000000000000
   0
VERTEX
   5
91
 100
AcDbEntity
   8
0
   6
BYBLOCK
  62
0
 100
AcDbVertex
 100
AcDb2dVertex
  10
-0.25000000000000
  20
0.0
  30
0.0
  42
 1.0000000000000
  40
 0.50000000000000
  41
 0.50000000000000
   0
VERTEX
   5
92
 100
AcDbEntity
   8
0
   6
BYBLOCK
  62
0
 100
AcDbVertex
 100
AcDb2dVertex
  10
 0.25000000000000
  20
0.0
  30
0.0
  42
 1.0000000000000
  40
 0.50000000000000
  41
 0.50000000000000
   0
SEQEND
   5
93
 100
AcDbEntity
   8
0
   6
BYBLOCK
  62
0
   0
LINE
   5
94
 100
AcDbEntity
   8
0
 100
AcDbLine
   6
BYBLOCK
  62
0
  10
-0.50000000000000
  20
0.0
  30
0.0
  11
-1.0000000000000
  21
0.0
  31
0.0
   0
ENDBLK
   5
95
 100
AcDbEntity
   8
0
 100
AcDbBlockEnd
   0
BLOCK
   5
96
 100
AcDbEntity
   8
0
 100
AcDbBlockBegin
   2
_DOTSMALL
  70
0
  10
0.0
  20
0.0
  30
0.0
   3
_DOTSMALL
   0
POLYLINE
   5
97
 100
AcDbEntity
   8
0
   6
BYBLOCK
  62
0
 100
AcDb2dPolyline
  66
1
  10
0.0
  20
0.0
  30
0.0
  70
1
  40
 0.50000000000000
  41
 0.50000000000000
   0
VERTEX
   5
98
 100
AcDbEntity
   8
0
   6
BYBLOCK
  62
0
 100
AcDbVertex
 100
AcDb2dVertex
  10
-0.62500000000000E-1
  20
0.0
  30
0.0
  42
 1.0000000000000
  40
 0.50000000000000
  41
 0.50000000000000
   0
VERTEX
   5
99
 100
AcDbEntity
   8
0
   6
BYBLOCK
  62
0
 100
AcDbVertex
 100
AcDb2dVertex
  10
 0.62500000000000E-1
  20
0.0
  30
0.0
  42
 1.0000000000000
  40
 0.50000000000000
  41
 0.50000000000000
   0
SEQEND
   5
9A
 100
AcDbEntity
   8
0
   6
BYBLOCK
  62
0
   0
ENDBLK
   5
9B
 100
AcDbEntity
   8
0
 100
AcDbBlockEnd
   0
BLOCK
   5
9C
 100
AcDbEntity
   8
0
 100
AcDbBlockBegin
   2
_DATUMBLANK
  70
0
  10
0.0
  20
0.0
  30
0.0
   3
_DATUMBLANK
   0
LINE
   5
9D
 100
AcDbEntity
   8
0
 100
AcDbLine
   6
BYBLOCK
  62
0
  10
0.0
  20
 0.57735027000000
  30
0.0
  11
-1.0000000000000
  21
0.0
  31
0.0
   0
LINE
   5
9E
 100
AcDbEntity
   8
0
 100
AcDbLine
   6
BYBLOCK
  62
0
  10
-1.0000000000000
  20
0.0
  30
0.0
  11
0.0
  21
-0.57735027000000
  31
0.0
   0
LINE
   5
9F
 100
AcDbEntity
   8
0
 100
AcDbLine
   6
BYBLOCK
  62
0
  10
0.0
  20
-0.57735027000000
  30
0.0
  11
0.0
  21
 0.57735027000000
  31
0.0
   0
ENDBLK
   5
A0
 100
AcDbEntity
   8
0
 100
AcDbBlockEnd
   0
BLOCK
   5
A1
 100
AcDbEntity
   8
0
 100
AcDbBlockBegin
   2
_DATUMFILLED
  70
0
  10
0.0
  20
0.0
  30
0.0
   3
_DATUMFILLED
   0
SOLID
   5
A2
 100
AcDbEntity
   8
0
 100
AcDbTrace
   6
BYBLOCK
  62
0
  10
0.0
  20
 0.57735027000000
  30
0.0
  11
-1.0000000000000
  21
0.0
  31
0.0
  12
0.0
  22
-0.57735027000000
  32
0.0
  13
0.0
  23
-0.57735027000000
  33
0.0
   0
ENDBLK
   5
A3
 100
AcDbEntity
   8
0
 100
AcDbBlockEnd
   0
BLOCK
   5
A4
 100
AcDbEntity
   8
0
 100
AcDbBlockBegin
   2
_ORIGIN
  70
0
  10
0.0
  20
0.0
  30
0.0
   3
_ORIGIN
   0
CIRCLE
   5
A5
 100
AcDbEntity
   8
0
 100
AcDbCircle
   6
BYBLOCK
  62
0
  10
0.0
  20
0.0
  30
0.0
  40
 0.50000000000000
   0
LINE
   5
A6
 100
AcDbEntity
   8
0
 100
AcDbLine
   6
BYBLOCK
  62
0
  10
0.0
  20
0.0
  30
0.0
  11
-1.0000000000000
  21
0.0
  31
0.0
   0
ENDBLK
   5
A7
 100
AcDbEntity
   8
0
 100
AcDbBlockEnd
   0
BLOCK
   5
A8
 100
AcDbEntity
   8
0
 100
AcDbBlockBegin
   2
_NONE
  70
0
  10
0.0
  20
0.0
  30
0.0
   3
_NONE
   0
CIRCLE
   5
A9
 100
AcDbEntity
   8
0
 100
AcDbCircle
   6
BYBLOCK
  62
0
  10
0.0
  20
0.0
  30
0.0
  40
 0.25000000000000
   0
ENDBLK
   5
AA
 100
AcDbEntity
   8
0
 100
AcDbBlockEnd
   0
BLOCK
   5
AB
 100
AcDbEntity
   8
0
 100
AcDbBlockBegin
   2
_DOTBLANK
  70
0
  10
0.0
  20
0.0
  30
0.0
   3
_DOTBLANK
   0
CIRCLE
   5
AC
 100
AcDbEntity
   8
0
 100
AcDbCircle
   6
BYBLOCK
  62
0
  10
0.0
  20
0.0
  30
0.0
  40
 0.50000000000000
   0
LINE
   5
AD
 100
AcDbEntity
   8
0
 100
AcDbLine
   6
BYBLOCK
  62
0
  10
-0.50000000000000
  20
0.0
  30
0.0
  11
-1.0000000000000
  21
0.0
  31
0.0
   0
ENDBLK
   5
AE
 100
AcDbEntity
   8
0
 100
AcDbBlockEnd
   0
BLOCK
   5
AF
 100
AcDbEntity
   8
0
 100
AcDbBlockBegin
   2
_INTEGRAL
  70
0
  10
0.0
  20
0.0
  30
0.0
   3
_INTEGRAL
   0
ARC
   5
B0
 100
AcDbEntity
   8
0
   6
BYBLOCK
  62
0
 100
AcDbCircle
  10
 0.44488800000000
  20
-0.91335000000000E-1
  30
0.0
  40
 0.45416700000000
 100
AcDbArc
  50
 102.00000000000
  51
 168.00000000000
   0
ARC
   5
B1
 100
AcDbEntity
   8
0
   6
BYBLOCK
  62
0
 100
AcDbCircle
  10
-0.44488800000000
  20
 0.91335000000000E-1
  30
0.0
  40
 0.45416700000000
 100
AcDbArc
  50
 282.00000000000
  51
 348.00000000000
   0
ENDBLK
   5
B2
 100
AcDbEntity
   8
0
 100
AcDbBlockEnd
   0
BLOCK
   5
B3
 100
AcDbEntity
   8
0
 100
AcDbBlockBegin
   2
*D1
  70
65
  10
0.0
  20
0.0
  30
0.0
   3
*D1
   0
LINE
   5
B4
 100
AcDbEntity
   8
LEVEL001
 100
AcDbLine
   6
CONTINUOUS
  62
3
  10
 639.93881499357
  20
 450.51571331829
  30
0.0
  11
 641.93881499357
  21
 450.51571331829
  31
0.0
   0
LINE
   5
B5
 100
AcDbEntity
   8
LEVEL001
 100
AcDbLine
   6
CONTINUOUS
  62
3
  10
 639.93881499357
  20
 485.51571331829
  30
0.0
  11
 639.93881499357
  21
 468.01571331829
  31
0.0
   0
LINE
   5
B6
 100
AcDbEntity
   8
LEVEL001
 100
AcDbLine
   6
CONTINUOUS
  62
3
  10
 639.93881499357
  20
 450.51571331829
  30
0.0
  11
 639.93881499357
  21
 468.01571331829
  31
0.0
   0
INSERT
   5
B7
 100
AcDbEntity
   8
LEVEL001
   6
CONTINUOUS
  62
3
 100
AcDbBlockReference
   2
_OPEN30
  10
 639.93881499357
  20
 485.51571331829
  30
0.0
  41
 6.0000000000000
  42
 6.0000000000000
  43
 6.0000000000000
  50
 90.000000000000
   0
INSERT
   5
B8
 100
AcDbEntity
   8
LEVEL001
   6
CONTINUOUS
  62
3
 100
AcDbBlockReference
   2
_OPEN30
  10
 639.93881499357
  20
 450.51571331829
  30
0.0
  41
 6.0000000000000
  42
 6.0000000000000
  43
 6.0000000000000
  50
 270.00000000000
   0
MTEXT
   5
B9
 100
AcDbEntity
   8
LEVEL001
  62
3
 100
AcDbMText
  10
 636.51024356500
  20
 468.01571331829
  30
0.0
  40
 8.0000000000000
  41
0.0
  71
8
  72
1
   1
\A1;%%c35
   7
GMM001
  11
0.0
  21
 1.0000000000000
  31
0.0
   0
ENDBLK
   5
BA
 100
AcDbEntity
   8
0
 100
AcDbBlockEnd
   0
BLOCK
   5
BB
 100
AcDbEntity
   8
0
 100
AcDbBlockBegin
   2
*D2
  70
65
  10
0.0
  20
0.0
  30
0.0
   3
*D2
   0
LINE
   5
BC
 100
AcDbEntity
   8
LEVEL001
 100
AcDbLine
   6
CONTINUOUS
  62
3
  10
 588.92448153165
  20
 372.54499651524
  30
0.0
  11
 588.92448153165
  21
 356.75758282473
  31
0.0
   0
LINE
   5
BD
 100
AcDbEntity
   8
LEVEL001
 100
AcDbLine
   6
CONTINUOUS
  62
3
  10
 663.92448153165
  20
 448.51571331829
  30
0.0
  11
 663.92448153165
  21
 356.75758282473
  31
0.0
   0
LINE
   5
BE
 100
AcDbEntity
   8
LEVEL001
 100
AcDbLine
   6
CONTINUOUS
  62
3
  10
 588.92448153165
  20
 358.75758282473
  30
0.0
  11
 626.42448153165
  21
 358.75758282473
  31
0.0
   0
LINE
   5
BF
 100
AcDbEntity
   8
LEVEL001
 100
AcDbLine
   6
CONTINUOUS
  62
3
  10
 663.92448153165
  20
 358.75758282473
  30
0.0
  11
 626.42448153165
  21
 358.75758282473
  31
0.0
   0
INSERT
   5
C0
 100
AcDbEntity
   8
LEVEL001
   6
CONTINUOUS
  62
3
 100
AcDbBlockReference
   2
_OPEN30
  10
 588.92448153165
  20
 358.75758282473
  30
0.0
  41
 6.0000000000000
  42
 6.0000000000000
  43
 6.0000000000000
  50
 180.00000000000
   0
INSERT
   5
C1
 100
AcDbEntity
   8
LEVEL001
   6
CONTINUOUS
  62
3
 100
AcDbBlockReference
   2
_OPEN30
  10
 663.92448153165
  20
 358.75758282473
  30
0.0
  41
 6.0000000000000
  42
 6.0000000000000
  43
 6.0000000000000
  50
0.0
   0
MTEXT
   5
C2
 100
AcDbEntity
   8
LEVEL001
  62
3
 100
AcDbMText
  10
 626.42448153165
  20
 362.18615425330
  30
0.0
  40
 8.0000000000000
  41
0.0
  71
8
  72
1
   1
\A1;75
   7
GMM001
   0
ENDBLK
   5
C3
 100
AcDbEntity
   8
0
 100
AcDbBlockEnd
   0
BLOCK
   5
C4
 100
AcDbEntity
   8
0
 100
AcDbBlockBegin
   2
*D3
  70
65
  10
0.0
  20
0.0
  30
0.0
   3
*D3
   0
LINE
   5
C5
 100
AcDbEntity
   8
LEVEL001
 100
AcDbLine
   6
CONTINUOUS
  62
3
  10
 63.924481531648
  20
 448.51571331829
  30
0.0
  11
 63.924481531648
  21
 356.75758282473
  31
0.0
   0
LINE
   5
C6
 100
AcDbEntity
   8
LEVEL001
 100
AcDbLine
   6
CONTINUOUS
  62
3
  10
 138.92448153165
  20
 372.54499651524
  30
0.0
  11
 138.92448153165
  21
 356.75758282473
  31
0.0
   0
LINE
   5
C7
 100
AcDbEntity
   8
LEVEL001
 100
AcDbLine
   6
CONTINUOUS
  62
3
  10
 63.924481531648
  20
 358.75758282473
  30
0.0
  11
 101.42448153165
  21
 358.75758282473
  31
0.0
   0
LINE
   5
C8
 100
AcDbEntity
   8
LEVEL001
 100
AcDbLine
   6
CONTINUOUS
  62
3
  10
 138.92448153165
  20
 358.75758282473
  30
0.0
  11
 101.42448153165
  21
 358.75758282473
  31
0.0
   0
INSERT
   5
C9
 100
AcDbEntity
   8
LEVEL001
   6
CONTINUOUS
  62
3
 100
AcDbBlockReference
   2
_OPEN30
  10
 63.924481531648
  20
 358.75758282473
  30
0.0
  41
 6.0000000000000
  42
 6.0000000000000
  43
 6.0000000000000
  50
 180.00000000000
   0
INSERT
   5
CA
 100
AcDbEntity
   8
LEVEL001
   6
CONTINUOUS
  62
3
 100
AcDbBlockReference
   2
_OPEN30
  10
 138.92448153165
  20
 358.75758282473
  30
0.0
  41
 6.0000000000000
  42
 6.0000000000000
  43
 6.0000000000000
  50
0.0
   0
MTEXT
   5
CB
 100
AcDbEntity
   8
LEVEL001
  62
3
 100
AcDbMText
  10
 101.42448153165
  20
 362.18615425330
  30
0.0
  40
 8.0000000000000
  41
0.0
  71
8
  72
1
   1
\A1;75
   7
GMM001
   0
ENDBLK
   5
CC
 100
AcDbEntity
   8
0
 100
AcDbBlockEnd
   0
BLOCK
   5
CD
 100
AcDbEntity
   8
0
 100
AcDbBlockBegin
   2
*D4
  70
65
  10
0.0
  20
0.0
  30
0.0
   3
*D4
   0
LINE
   5
CE
 100
AcDbEntity
   8
LEVEL001
 100
AcDbLine
   6
CONTINUOUS
  62
3
  10
 601.37561878121
  20
 386.01571331829
  30
0.0
  11
 624.33178999739
  21
 386.01571331829
  31
0.0
   0
LINE
   5
CF
 100
AcDbEntity
   8
LEVEL001
 100
AcDbLine
   6
CONTINUOUS
  62
3
  10
 601.37561878121
  20
 409.01571331829
  30
0.0
  11
 624.33178999739
  21
 409.01571331829
  31
0.0
   0
LINE
   5
D0
 100
AcDbEntity
   8
LEVEL001
 100
AcDbLine
   6
CONTINUOUS
  62
3
  10
 622.33178999739
  20
 386.01571331829
  30
0.0
  11
 622.33178999739
  21
 397.51571331829
  31
0.0
   0
LINE
   5
D1
 100
AcDbEntity
   8
LEVEL001
 100
AcDbLine
   6
CONTINUOUS
  62
3
  10
 622.33178999739
  20
 409.01571331829
  30
0.0
  11
 622.33178999739
  21
 397.51571331829
  31
0.0
   0
INSERT
   5
D2
 100
AcDbEntity
   8
LEVEL001
   6
CONTINUOUS
  62
3
 100
AcDbBlockReference
   2
_OPEN30
  10
 622.33178999739
  20
 386.01571331829
  30
0.0
  41
 6.0000000000000
  42
 6.0000000000000
  43
 6.0000000000000
  50
 270.00000000000
   0
INSERT
   5
D3
 100
AcDbEntity
   8
LEVEL001
   6
CONTINUOUS
  62
3
 100
AcDbBlockReference
   2
_OPEN30
  10
 622.33178999739
  20
 409.01571331829
  30
0.0
  41
 6.0000000000000
  42
 6.0000000000000
  43
 6.0000000000000
  50
 90.000000000000
   0
MTEXT
   5
D4
 100
AcDbEntity
   8
LEVEL001
  62
3
 100
AcDbMText
  10
 618.90321856882
  20
 397.51571331829
  30
0.0
  40
 8.0000000000000
  41
0.0
  71
8
  72
1
   1
\A1;23
   7
GMM001
  11
0.0
  21
 1.0000000000000
  31
0.0
   0
ENDBLK
   5
D5
 100
AcDbEntity
   8
0
 100
AcDbBlockEnd
   0
BLOCK
   5
D6
 100
AcDbEntity
   8
0
 100
AcDbBlockBegin
   2
*D5
  70
65
  10
0.0
  20
0.0
  30
0.0
   3
*D5
   0
LINE
   5
D7
 100
AcDbEntity
   8
LEVEL001
 100
AcDbLine
   6
CONTINUOUS
  62
3
  10
 709.27163565729
  20
 425.01571331829
  30
0.0
  11
 690.85094588575
  21
 425.01571331829
  31
0.0
   0
LINE
   5
D8
 100
AcDbEntity
   8
LEVEL001
 100
AcDbLine
   6
CONTINUOUS
  62
3
  10
 709.27163565729
  20
 381.01571331829
  30
0.0
  11
 690.85094588575
  21
 381.01571331829
  31
0.0
   0
LINE
   5
D9
 100
AcDbEntity
   8
LEVEL001
 100
AcDbLine
   6
CONTINUOUS
  62
3
  10
 692.85094588575
  20
 425.01571331829
  30
0.0
  11
 692.85094588575
  21
 403.01571331829
  31
0.0
   0
LINE
   5
DA
 100
AcDbEntity
   8
LEVEL001
 100
AcDbLine
   6
CONTINUOUS
  62
3
  10
 692.85094588575
  20
 381.01571331829
  30
0.0
  11
 692.85094588575
  21
 403.01571331829
  31
0.0
   0
INSERT
   5
DB
 100
AcDbEntity
   8
LEVEL001
   6
CONTINUOUS
  62
3
 100
AcDbBlockReference
   2
_OPEN30
  10
 692.85094588575
  20
 425.01571331829
  30
0.0
  41
 6.0000000000000
  42
 6.0000000000000
  43
 6.0000000000000
  50
 90.000000000000
   0
INSERT
   5
DC
 100
AcDbEntity
   8
LEVEL001
   6
CONTINUOUS
  62
3
 100
AcDbBlockReference
   2
_OPEN30
  10
 692.85094588575
  20
 381.01571331829
  30
0.0
  41
 6.0000000000000
  42
 6.0000000000000
  43
 6.0000000000000
  50
 270.00000000000
   0
MTEXT
   5
DD
 100
AcDbEntity
   8
LEVEL001
  62
3
 100
AcDbMText
  10
 689.42237445718
  20
 403.01571331829
  30
0.0
  40
 8.0000000000000
  41
0.0
  71
8
  72
1
   1
\A1;44
   7
GMM001
  11
0.0
  21
 1.0000000000000
  31
0.0
   0
ENDBLK
   5
DE
 100
AcDbEntity
   8
0
 100
AcDbBlockEnd
   0
BLOCK
   5
DF
 100
AcDbEntity
   8
0
 100
AcDbBlockBegin
   2
*D6
  70
65
  10
0.0
  20
0.0
  30
0.0
   3
*D6
   0
LINE
   5
E0
 100
AcDbEntity
   8
LEVEL001
 100
AcDbLine
   6
CONTINUOUS
  62
3
  10
 743.22734572578
  20
 468.01571331829
  30
0.0
  11
 690.85094588575
  21
 468.01571331829
  31
0.0
   0
LINE
   5
E1
 100
AcDbEntity
   8
LEVEL001
 100
AcDbLine
   6
CONTINUOUS
  62
3
  10
 692.85094588575
  20
 425.01571331829
  30
0.0
  11
 692.85094588575
  21
 446.51571331829
  31
0.0
   0
LINE
   5
E2
 100
AcDbEntity
   8
LEVEL001
 100
AcDbLine
   6
CONTINUOUS
  62
3
  10
 692.85094588575
  20
 468.01571331829
  30
0.0
  11
 692.85094588575
  21
 446.51571331829
  31
0.0
   0
INSERT
   5
E3
 100
AcDbEntity
   8
LEVEL001
   6
CONTINUOUS
  62
3
 100
AcDbBlockReference
   2
_OPEN30
  10
 692.85094588575
  20
 425.01571331829
  30
0.0
  41
 6.0000000000000
  42
 6.0000000000000
  43
 6.0000000000000
  50
 270.00000000000
   0
INSERT
   5
E4
 100
AcDbEntity
   8
LEVEL001
   6
CONTINUOUS
  62
3
 100
AcDbBlockReference
   2
_OPEN30
  10
 692.85094588575
  20
 468.01571331829
  30
0.0
  41
 6.0000000000000
  42
 6.0000000000000
  43
 6.0000000000000
  50
 90.000000000000
   0
MTEXT
   5
E5
 100
AcDbEntity
   8
LEVEL001
  62
3
 100
AcDbMText
  10
 689.42237445718
  20
 446.51571331829
  30
0.0
  40
 8.0000000000000
  41
0.0
  71
8
  72
1
   1
\A1;43
   7
GMM001
  11
0.0
  21
 1.0000000000000
  31
0.0
   0
ENDBLK
   5
E6
 100
AcDbEntity
   8
0
 100
AcDbBlockEnd
   0
BLOCK
   5
E7
 100
AcDbEntity
   8
0
 100
AcDbBlockBegin
   2
*D7
  70
65
  10
0.0
  20
0.0
  30
0.0
   3
*D7
   0
LINE
   5
E8
 100
AcDbEntity
   8
LEVEL001
 100
AcDbLine
   6
CONTINUOUS
  62
3
  10
 711.27163565729
  20
 379.01571331829
  30
0.0
  11
 711.27163565729
  21
 356.75758282473
  31
0.0
   0
LINE
   5
E9
 100
AcDbEntity
   8
LEVEL001
 100
AcDbLine
   6
CONTINUOUS
  62
3
  10
 771.27163565729
  20
 409.51459082522
  30
0.0
  11
 771.27163565729
  21
 356.75758282473
  31
0.0
   0
LINE
   5
EA
 100
AcDbEntity
   8
LEVEL001
 100
AcDbLine
   6
CONTINUOUS
  62
3
  10
 711.27163565729
  20
 358.75758282473
  30
0.0
  11
 741.27163565729
  21
 358.75758282473
  31
0.0
   0
LINE
   5
EB
 100
AcDbEntity
   8
LEVEL001
 100
AcDbLine
   6
CONTINUOUS
  62
3
  10
 771.27163565729
  20
 358.75758282473
  30
0.0
  11
 741.27163565729
  21
 358.75758282473
  31
0.0
   0
INSERT
   5
EC
 100
AcDbEntity
   8
LEVEL001
   6
CONTINUOUS
  62
3
 100
AcDbBlockReference
   2
_OPEN30
  10
 711.27163565729
  20
 358.75758282473
  30
0.0
  41
 6.0000000000000
  42
 6.0000000000000
  43
 6.0000000000000
  50
 180.00000000000
   0
INSERT
   5
ED
 100
AcDbEntity
   8
LEVEL001
   6
CONTINUOUS
  62
3
 100
AcDbBlockReference
   2
_OPEN30
  10
 771.27163565729
  20
 358.75758282473
  30
0.0
  41
 6.0000000000000
  42
 6.0000000000000
  43
 6.0000000000000
  50
0.0
   0
MTEXT
   5
EE
 100
AcDbEntity
   8
LEVEL001
  62
3
 100
AcDbMText
  10
 741.27163565729
  20
 362.18615425330
  30
0.0
  40
 8.0000000000000
  41
0.0
  71
8
  72
1
   1
\A1;60
   7
GMM001
   0
ENDBLK
   5
EF
 100
AcDbEntity
   8
0
 100
AcDbBlockEnd
   0
BLOCK
   5
F0
 100
AcDbEntity
   8
0
 100
AcDbBlockBegin
   2
*D8
  70
65
  10
0.0
  20
0.0
  30
0.0
   3
*D8
   0
LINE
   5
F1
 100
AcDbEntity
   8
LEVEL001
 100
AcDbLine
   6
CONTINUOUS
  62
3
  10
 63.924481531648
  20
 292.80397746460
  30
0.0
  11
 63.924481531648
  21
 228.46381062572
  31
0.0
   0
LINE
   5
F2
 100
AcDbEntity
   8
LEVEL001
 100
AcDbLine
   6
CONTINUOUS
  62
3
  10
 132.17448153165
  20
 230.46381062572
  30
0.0
  11
 98.049481531648
  21
 230.46381062572
  31
0.0
   0
LINE
   5
F3
 100
AcDbEntity
   8
LEVEL001
 100
AcDbLine
   6
CONTINUOUS
  62
3
  10
 63.924481531648
  20
 230.46381062572
  30
0.0
  11
 98.049481531648
  21
 230.46381062572
  31
0.0
   0
INSERT
   5
F4
 100
AcDbEntity
   8
LEVEL001
   6
CONTINUOUS
  62
3
 100
AcDbBlockReference
   2
_OPEN30
  10
 132.17448153165
  20
 230.46381062572
  30
0.0
  41
 6.0000000000000
  42
 6.0000000000000
  43
 6.0000000000000
  50
0.0
   0
INSERT
   5
F5
 100
AcDbEntity
   8
LEVEL001
   6
CONTINUOUS
  62
3
 100
AcDbBlockReference
   2
_OPEN30
  10
 63.924481531648
  20
 230.46381062572
  30
0.0
  41
 6.0000000000000
  42
 6.0000000000000
  43
 6.0000000000000
  50
 180.00000000000
   0
MTEXT
   5
F6
 100
AcDbEntity
   8
LEVEL001
  62
3
 100
AcDbMText
  10
 98.049481531648
  20
 233.89238205429
  30
0.0
  40
 8.0000000000000
  41
0.0
  71
8
  72
1
   1
\A1;68.25
   7
GMM001
   0
ENDBLK
   5
F7
 100
AcDbEntity
   8
0
 100
AcDbBlockEnd
   0
BLOCK
   5
F8
 100
AcDbEntity
   8
0
 100
AcDbBlockBegin
   2
*D9
  70
65
  10
0.0
  20
0.0
  30
0.0
   3
*D9
   0
LINE
   5
F9
 100
AcDbEntity
   8
LEVEL001
 100
AcDbLine
   6
CONTINUOUS
  62
3
  10
 145.67448153165
  20
 247.02016777985
  30
0.0
  11
 145.67448153165
  21
 228.46381062572
  31
0.0
   0
LINE
   5
FA
 100
AcDbEntity
   8
LEVEL001
 100
AcDbLine
   6
CONTINUOUS
  62
3
  10
 132.17448153165
  20
 247.02016777985
  30
0.0
  11
 132.17448153165
  21
 228.46381062572
  31
0.0
   0
LINE
   5
FB
 100
AcDbEntity
   8
LEVEL001
 100
AcDbLine
   6
CONTINUOUS
  62
3
  10
 153.17448153165
  20
 230.46381062572
  30
0.0
  11
 138.92448153165
  21
 230.46381062572
  31
0.0
   0
LINE
   5
FC
 100
AcDbEntity
   8
LEVEL001
 100
AcDbLine
   6
CONTINUOUS
  62
3
  10
 124.67448153165
  20
 230.46381062572
  30
0.0
  11
 138.92448153165
  21
 230.46381062572
  31
0.0
   0
INSERT
   5
FD
 100
AcDbEntity
   8
LEVEL001
   6
CONTINUOUS
  62
3
 100
AcDbBlockReference
   2
_OPEN30
  10
 145.67448153165
  20
 230.46381062572
  30
0.0
  41
 6.0000000000000
  42
 6.0000000000000
  43
 6.0000000000000
  50
 180.00000000000
   0
INSERT
   5
FE
 100
AcDbEntity
   8
LEVEL001
   6
CONTINUOUS
  62
3
 100
AcDbBlockReference
   2
_OPEN30
  10
 132.17448153165
  20
 230.46381062572
  30
0.0
  41
 6.0000000000000
  42
 6.0000000000000
  43
 6.0000000000000
  50
0.0
   0
MTEXT
   5
FF
 100
AcDbEntity
   8
LEVEL001
  62
3
 100
AcDbMText
  10
 138.92448153165
  20
 217.97104478782
  30
0.0
  40
 8.0000000000000
  41
0.0
  71
8
  72
1
   1
\A1;13.5
   7
GMM001
   0
ENDBLK
   5
100
 100
AcDbEntity
   8
0
 100
AcDbBlockEnd
   0
BLOCK
   5
101
 100
AcDbEntity
   8
0
 100
AcDbBlockBegin
   2
*D10
  70
65
  10
0.0
  20
0.0
  30
0.0
   3
*D10
   0
LINE
   5
102
 100
AcDbEntity
   8
LEVEL001
 100
AcDbLine
   6
CONTINUOUS
  62
3
  10
 663.92448153165
  20
 292.80397746460
  30
0.0
  11
 663.92448153165
  21
 228.46381062572
  31
0.0
   0
LINE
   5
103
 100
AcDbEntity
   8
LEVEL001
 100
AcDbLine
   6
CONTINUOUS
  62
3
  10
 595.67448153165
  20
 230.46381062572
  30
0.0
  11
 629.79948153165
  21
 230.46381062572
  31
0.0
   0
LINE
   5
104
 100
AcDbEntity
   8
LEVEL001
 100
AcDbLine
   6
CONTINUOUS
  62
3
  10
 663.92448153165
  20
 230.46381062572
  30
0.0
  11
 629.79948153165
  21
 230.46381062572
  31
0.0
   0
INSERT
   5
105
 100
AcDbEntity
   8
LEVEL001
   6
CONTINUOUS
  62
3
 100
AcDbBlockReference
   2
_OPEN30
  10
 595.67448153165
  20
 230.46381062572
  30
0.0
  41
 6.0000000000000
  42
 6.0000000000000
  43
 6.0000000000000
  50
 180.00000000000
   0
INSERT
   5
106
 100
AcDbEntity
   8
LEVEL001
   6
CONTINUOUS
  62
3
 100
AcDbBlockReference
   2
_OPEN30
  10
 663.92448153165
  20
 230.46381062572
  30
0.0
  41
 6.0000000000000
  42
 6.0000000000000
  43
 6.0000000000000
  50
0.0
   0
MTEXT
   5
107
 100
AcDbEntity
   8
LEVEL001
  62
3
 100
AcDbMText
  10
 629.79948153165
  20
 233.89238205429
  30
0.0
  40
 8.0000000000000
  41
0.0
  71
8
  72
1
   1
\A1;68.25
   7
GMM001
   0
ENDBLK
   5
108
 100
AcDbEntity
   8
0
 100
AcDbBlockEnd
   0
BLOCK
   5
109
 100
AcDbEntity
   8
0
 100
AcDbBlockBegin
   2
*D11
  70
65
  10
0.0
  20
0.0
  30
0.0
   3
*D11
   0
LINE
   5
10A
 100
AcDbEntity
   8
LEVEL001
 100
AcDbLine
   6
CONTINUOUS
  62
3
  10
 582.17448153165
  20
 247.02016777985
  30
0.0
  11
 582.17448153165
  21
 228.46381062572
  31
0.0
   0
LINE
   5
10B
 100
AcDbEntity
   8
LEVEL001
 100
AcDbLine
   6
CONTINUOUS
  62
3
  10
 595.67448153165
  20
 247.02016777985
  30
0.0
  11
 595.67448153165
  21
 228.46381062572
  31
0.0
   0
LINE
   5
10C
 100
AcDbEntity
   8
LEVEL001
 100
AcDbLine
   6
CONTINUOUS
  62
3
  10
 574.67448153165
  20
 230.46381062572
  30
0.0
  11
 588.92448153165
  21
 230.46381062572
  31
0.0
   0
LINE
   5
10D
 100
AcDbEntity
   8
LEVEL001
 100
AcDbLine
   6
CONTINUOUS
  62
3
  10
 603.17448153165
  20
 230.46381062572
  30
0.0
  11
 588.92448153165
  21
 230.46381062572
  31
0.0
   0
INSERT
   5
10E
 100
AcDbEntity
   8
LEVEL001
   6
CONTINUOUS
  62
3
 100
AcDbBlockReference
   2
_OPEN30
  10
 582.17448153165
  20
 230.46381062572
  30
0.0
  41
 6.0000000000000
  42
 6.0000000000000
  43
 6.0000000000000
  50
0.0
   0
INSERT
   5
10F
 100
AcDbEntity
   8
LEVEL001
   6
CONTINUOUS
  62
3
 100
AcDbBlockReference
   2
_OPEN30
  10
 595.67448153165
  20
 230.46381062572
  30
0.0
  41
 6.0000000000000
  42
 6.0000000000000
  43
 6.0000000000000
  50
 180.00000000000
   0
MTEXT
   5
110
 100
AcDbEntity
   8
LEVEL001
  62
3
 100
AcDbMText
  10
 588.92448153165
  20
 217.97104478782
  30
0.0
  40
 8.0000000000000
  41
0.0
  71
8
  72
1
   1
\A1;13.5
   7
GMM001
   0
ENDBLK
   5
111
 100
AcDbEntity
   8
0
 100
AcDbBlockEnd
   0
BLOCK
   5
112
 100
AcDbEntity
   8
0
 100
AcDbBlockBegin
   2
*D12
  70
65
  10
0.0
  20
0.0
  30
0.0
   3
*D12
   0
LINE
   5
113
 100
AcDbEntity
   8
LEVEL001
 100
AcDbLine
   6
CONTINUOUS
  62
3
  10
 576.92448153165
  20
 278.19735659860
  30
0.0
  11
 576.92448153165
  21
 281.46815305878
  31
0.0
   0
LINE
   5
114
 100
AcDbEntity
   8
LEVEL001
 100
AcDbLine
   6
CONTINUOUS
  62
3
  10
 600.92448153165
  20
 277.26284332426
  30
0.0
  11
 600.92448153165
  21
 281.46815305878
  31
0.0
   0
LINE
   5
115
 100
AcDbEntity
   8
LEVEL001
 100
AcDbLine
   6
CONTINUOUS
  62
3
  10
 576.92448153165
  20
 279.46815305878
  30
0.0
  11
 588.92448153165
  21
 279.46815305878
  31
0.0
   0
LINE
   5
116
 100
AcDbEntity
   8
LEVEL001
 100
AcDbLine
   6
CONTINUOUS
  62
3
  10
 600.92448153165
  20
 279.46815305878
  30
0.0
  11
 588.92448153165
  21
 279.46815305878
  31
0.0
   0
INSERT
   5
117
 100
AcDbEntity
   8
LEVEL001
   6
CONTINUOUS
  62
3
 100
AcDbBlockReference
   2
_OPEN30
  10
 576.92448153165
  20
 279.46815305878
  30
0.0
  41
 6.0000000000000
  42
 6.0000000000000
  43
 6.0000000000000
  50
 180.00000000000
   0
INSERT
   5
118
 100
AcDbEntity
   8
LEVEL001
   6
CONTINUOUS
  62
3
 100
AcDbBlockReference
   2
_OPEN30
  10
 600.92448153165
  20
 279.46815305878
  30
0.0
  41
 6.0000000000000
  42
 6.0000000000000
  43
 6.0000000000000
  50
0.0
   0
MTEXT
   5
119
 100
AcDbEntity
   8
LEVEL001
  62
3
 100
AcDbMText
  10
 588.92448153165
  20
 282.89672448735
  30
0.0
  40
 8.0000000000000
  41
0.0
  71
8
  72
1
   1
\A1;24
   7
GMM001
   0
ENDBLK
   5
11A
 100
AcDbEntity
   8
0
 100
AcDbBlockEnd
   0
BLOCK
   5
11B
 100
AcDbEntity
   8
0
 100
AcDbBlockBegin
   2
*D13
  70
65
  10
0.0
  20
0.0
  30
0.0
   3
*D13
   0
LINE
   5
11C
 100
AcDbEntity
   8
LEVEL001
 100
AcDbLine
   6
CONTINUOUS
  62
3
  10
 63.924481531648
  20
 487.51571331829
  30
0.0
  11
 63.924481531648
  21
 524.33780809363
  31
0.0
   0
LINE
   5
11D
 100
AcDbEntity
   8
LEVEL001
 100
AcDbLine
   6
CONTINUOUS
  62
3
  10
 663.92448153165
  20
 487.51571331829
  30
0.0
  11
 663.92448153165
  21
 524.33780809363
  31
0.0
   0
LINE
   5
11E
 100
AcDbEntity
   8
LEVEL001
 100
AcDbLine
   6
CONTINUOUS
  62
3
  10
 63.924481531648
  20
 522.33780809363
  30
0.0
  11
 363.92448153165
  21
 522.33780809363
  31
0.0
   0
LINE
   5
11F
 100
AcDbEntity
   8
LEVEL001
 100
AcDbLine
   6
CONTINUOUS
  62
3
  10
 663.92448153165
  20
 522.33780809363
  30
0.0
  11
 363.92448153165
  21
 522.33780809363
  31
0.0
   0
INSERT
   5
120
 100
AcDbEntity
   8
LEVEL001
   6
CONTINUOUS
  62
3
 100
AcDbBlockReference
   2
_OPEN30
  10
 63.924481531648
  20
 522.33780809363
  30
0.0
  41
 6.0000000000000
  42
 6.0000000000000
  43
 6.0000000000000
  50
 180.00000000000
   0
INSERT
   5
121
 100
AcDbEntity
   8
LEVEL001
   6
CONTINUOUS
  62
3
 100
AcDbBlockReference
   2
_OPEN30
  10
 663.92448153165
  20
 522.33780809363
  30
0.0
  41
 6.0000000000000
  42
 6.0000000000000
  43
 6.0000000000000
  50
0.0
   0
MTEXT
   5
122
 100
AcDbEntity
   8
LEVEL001
  62
3
 100
AcDbMText
  10
 363.92448153165
  20
 525.76637952220
  30
0.0
  40
 8.0000000000000
  41
0.0
  71
8
  72
1
   1
\A1;400üE600üE800
   7
GMM001
   0
ENDBLK
   5
123
 100
AcDbEntity
   8
0
 100
AcDbBlockEnd
   0
BLOCK
   5
124
 100
AcDbEntity
   8
0
 100
AcDbBlockBegin
   2
*D14
  70
65
  10
0.0
  20
0.0
  30
0.0
   3
*D14
   0
LINE
   5
125
 100
AcDbEntity
   8
LEVEL001
 100
AcDbLine
   6
CONTINUOUS
  62
3
  10
 138.92448153165
  20
 372.54499651524
  30
0.0
  11
 138.92448153165
  21
 356.75758282473
  31
0.0
   0
LINE
   5
126
 100
AcDbEntity
   8
LEVEL001
 100
AcDbLine
   6
CONTINUOUS
  62
3
  10
 138.92448153165
  20
 358.75758282473
  30
0.0
  11
 363.92448153165
  21
 358.75758282473
  31
0.0
   0
LINE
   5
127
 100
AcDbEntity
   8
LEVEL001
 100
AcDbLine
   6
CONTINUOUS
  62
3
  10
 588.92448153165
  20
 358.75758282473
  30
0.0
  11
 363.92448153165
  21
 358.75758282473
  31
0.0
   0
INSERT
   5
128
 100
AcDbEntity
   8
LEVEL001
   6
CONTINUOUS
  62
3
 100
AcDbBlockReference
   2
_OPEN30
  10
 138.92448153165
  20
 358.75758282473
  30
0.0
  41
 6.0000000000000
  42
 6.0000000000000
  43
 6.0000000000000
  50
 180.00000000000
   0
INSERT
   5
129
 100
AcDbEntity
   8
LEVEL001
   6
CONTINUOUS
  62
3
 100
AcDbBlockReference
   2
_OPEN30
  10
 588.92448153165
  20
 358.75758282473
  30
0.0
  41
 6.0000000000000
  42
 6.0000000000000
  43
 6.0000000000000
  50
0.0
   0
MTEXT
   5
12A
 100
AcDbEntity
   8
LEVEL001
  62
3
 100
AcDbMText
  10
 363.92448153165
  20
 362.18615425330
  30
0.0
  40
 8.0000000000000
  41
0.0
  71
8
  72
1
   1
\A1;250üE450üE600
   7
GMM001
   0
ENDBLK
   5
12B
 100
AcDbEntity
   8
0
 100
AcDbBlockEnd
   0
BLOCK
   5
12C
 100
AcDbEntity
   8
0
 100
AcDbBlockBegin
   2
*D15
  70
65
  10
0.0
  20
0.0
  30
0.0
   3
*D15
   0
LINE
   5
12D
 100
AcDbEntity
   8
LEVEL001
 100
AcDbLine
   6
CONTINUOUS
  62
3
  10
 145.67448153165
  20
 247.02016777985
  30
0.0
  11
 145.67448153165
  21
 228.46381062572
  31
0.0
   0
LINE
   5
12E
 100
AcDbEntity
   8
LEVEL001
 100
AcDbLine
   6
CONTINUOUS
  62
3
  10
 582.17448153165
  20
 247.02016777985
  30
0.0
  11
 582.17448153165
  21
 228.46381062572
  31
0.0
   0
LINE
   5
12F
 100
AcDbEntity
   8
LEVEL001
 100
AcDbLine
   6
CONTINUOUS
  62
3
  10
 145.67448153165
  20
 230.46381062572
  30
0.0
  11
 363.92448153165
  21
 230.46381062572
  31
0.0
   0
LINE
   5
130
 100
AcDbEntity
   8
LEVEL001
 100
AcDbLine
   6
CONTINUOUS
  62
3
  10
 582.17448153165
  20
 230.46381062572
  30
0.0
  11
 363.92448153165
  21
 230.46381062572
  31
0.0
   0
INSERT
   5
131
 100
AcDbEntity
   8
LEVEL001
   6
CONTINUOUS
  62
3
 100
AcDbBlockReference
   2
_OPEN30
  10
 145.67448153165
  20
 230.46381062572
  30
0.0
  41
 6.0000000000000
  42
 6.0000000000000
  43
 6.0000000000000
  50
 180.00000000000
   0
INSERT
   5
132
 100
AcDbEntity
   8
LEVEL001
   6
CONTINUOUS
  62
3
 100
AcDbBlockReference
   2
_OPEN30
  10
 582.17448153165
  20
 230.46381062572
  30
0.0
  41
 6.0000000000000
  42
 6.0000000000000
  43
 6.0000000000000
  50
0.0
   0
MTEXT
   5
133
 100
AcDbEntity
   8
LEVEL001
  62
3
 100
AcDbMText
  10
 363.92448153165
  20
 233.89238205429
  30
0.0
  40
 8.0000000000000
  41
0.0
  71
8
  72
1
   1
\A1;236.5üE436.5üE586.5
   7
GMM001
   0
ENDBLK
   5
134
 100
AcDbEntity
   8
0
 100
AcDbBlockEnd
   0
ENDSEC
   0
SECTION
   2
ENTITIES
   0
LINE
   5
135
 100
AcDbEntity
   8
LEVEL001
 100
AcDbLine
   6
DASHDOT
  62
3
  10
 363.92448153165
  20
 339.59185741166
  30
0.0
  11
 363.92448153165
  21
 281.32669921525
  31
0.0
   0
LINE
   5
136
 100
AcDbEntity
   8
LEVEL001
 100
AcDbLine
   6
DASHDOT
  62
3
  10
 50.169547307278
  20
 312.30397746460
  30
0.0
  11
 675.50143133180
  21
 312.30397746460
  31
0.0
   0
LINE
   5
137
 100
AcDbEntity
   8
LEVEL001
 100
AcDbLine
   6
CONTINUOUS
  62
15
  10
 663.92448153165
  20
 329.80397746460
  30
0.0
  11
 663.92448153165
  21
 294.80397746460
  31
0.0
   0
ELLIPSE
   5
138
 100
AcDbEntity
   8
LEVEL001
   6
CONTINUOUS
  62
15
 100
AcDbEllipse
  10
 372.25608950922
  20
 321.05397746460
  30
0.0
  11
0.0
  21
-8.7500000000000
  31
0.0
  40
 0.62667612265204
  41
0.0
  42
 6.2831853071796
   0
ELLIPSE
   5
139
 100
AcDbEntity
   8
LEVEL001
   6
CONTINUOUS
  62
15
 100
AcDbEllipse
  10
 372.25608950922
  20
 303.55397746460
  30
0.0
  11
0.0
  21
-8.7500000000000
  31
0.0
  40
 0.62667612265204
  41
 3.1415926535898
  42
0.0
   0
ELLIPSE
   5
13A
 100
AcDbEntity
   8
LEVEL001
   6
CONTINUOUS
  62
15
 100
AcDbEllipse
  10
 355.59287355408
  20
 303.55397746460
  30
0.0
  11
0.0
  21
 8.7500000000000
  31
0.0
  40
 0.62667612265204
  41
0.0
  42
 6.2831853071796
   0
ELLIPSE
   5
13B
 100
AcDbEntity
   8
LEVEL001
   6
CONTINUOUS
  62
15
 100
AcDbEllipse
  10
 355.59287355408
  20
 321.05397746460
  30
0.0
  11
0.0
  21
 8.7500000000000
  31
0.0
  40
 0.62667612265204
  41
 3.1415926535898
  42
 0.22204460492503E-15
   0
LINE
   5
13C
 100
AcDbEntity
   8
LEVEL001
 100
AcDbLine
   6
CONTINUOUS
  62
15
  10
 372.25608950922
  20
 329.80397746460
  30
0.0
  11
 663.92448153165
  21
 329.80397746460
  31
0.0
   0
LINE
   5
13D
 100
AcDbEntity
   8
LEVEL001
 100
AcDbLine
   6
CONTINUOUS
  62
15
  10
 63.924481531648
  20
 329.80397746460
  30
0.0
  11
 355.59287355408
  21
 329.80397746460
  31
0.0
   0
LINE
   5
13E
 100
AcDbEntity
   8
LEVEL001
 100
AcDbLine
   6
CONTINUOUS
  62
15
  10
 63.924481531648
  20
 329.80397746460
  30
0.0
  11
 63.924481531648
  21
 294.80397746460
  31
0.0
   0
LINE
   5
13F
 100
AcDbEntity
   8
LEVEL001
 100
AcDbLine
   6
CONTINUOUS
  62
15
  10
 372.25608950922
  20
 294.80397746460
  30
0.0
  11
 576.92448153165
  21
 294.80397746460
  31
0.0
   0
LINE
   5
140
 100
AcDbEntity
   8
LEVEL001
 100
AcDbLine
   6
CONTINUOUS
  62
15
  10
 600.92448153165
  20
 294.80397746460
  30
0.0
  11
 663.92448153165
  21
 294.80397746460
  31
0.0
   0
LINE
   5
141
 100
AcDbEntity
   8
LEVEL001
 100
AcDbLine
   6
DASHDOT
  62
3
  10
 588.92448153165
  20
 245.03124288796
  30
0.0
  11
 588.92448153165
  21
 335.40823889188
  31
0.0
   0
LINE
   5
142
 100
AcDbEntity
   8
LEVEL001
 100
AcDbLine
   6
DASHDOT
  62
3
  10
 138.92448153165
  20
 245.03124288796
  30
0.0
  11
 138.92448153165
  21
 335.40823889188
  31
0.0
   0
LINE
   5
143
 100
AcDbEntity
   8
LEVEL001
 100
AcDbLine
   6
CONTINUOUS
  62
3
  10
 322.97061007334
  20
 361.18360088947
  30
0.0
  11
 343.73757172526
  21
 361.18360088947
  31
0.0
   0
LINE
   5
144
 100
AcDbEntity
   8
LEVEL001
 100
AcDbLine
   6
CONTINUOUS
  62
3
  10
 383.61013809695
  20
 361.18360088947
  30
0.0
  11
 404.37709974887
  21
 361.18360088947
  31
0.0
   0
LINE
   5
145
 100
AcDbEntity
   8
LEVEL001
 100
AcDbLine
   6
DASHDOT
  62
3
  10
 363.92448153165
  20
 500.48555080137
  30
0.0
  11
 363.92448153165
  21
 431.43206946035
  31
0.0
   0
LINE
   5
146
 100
AcDbEntity
   8
LEVEL001
 100
AcDbLine
   6
CONTINUOUS
  62
7
  10
 63.924481531648
  20
 485.51571331829
  30
0.0
  11
 63.924481531648
  21
 450.51571331829
  31
0.0
   0
LINE
   5
147
 100
AcDbEntity
   8
LEVEL001
 100
AcDbLine
   6
CONTINUOUS
  62
7
  10
 663.92448153165
  20
 485.51571331829
  30
0.0
  11
 663.92448153165
  21
 450.51571331829
  31
0.0
   0
ELLIPSE
   5
148
 100
AcDbEntity
   8
LEVEL001
   6
CONTINUOUS
  62
7
 100
AcDbEllipse
  10
 372.25608950922
  20
 476.76571331829
  30
0.0
  11
0.0
  21
-8.7500000000000
  31
0.0
  40
 0.62667612265204
  41
0.0
  42
 6.2831853071796
   0
ELLIPSE
   5
149
 100
AcDbEntity
   8
LEVEL001
   6
CONTINUOUS
  62
7
 100
AcDbEllipse
  10
 372.25608950922
  20
 459.26571331829
  30
0.0
  11
0.0
  21
-8.7500000000000
  31
0.0
  40
 0.62667612265204
  41
 3.1415926535898
  42
0.0
   0
ELLIPSE
   5
14A
 100
AcDbEntity
   8
LEVEL001
   6
CONTINUOUS
  62
7
 100
AcDbEllipse
  10
 355.59287355408
  20
 476.76571331829
  30
0.0
  11
0.0
  21
 8.7500000000000
  31
0.0
  40
 0.62667612265204
  41
 3.1415926535898
  42
 0.22204460492503E-15
   0
ELLIPSE
   5
14B
 100
AcDbEntity
   8
LEVEL001
   6
CONTINUOUS
  62
7
 100
AcDbEllipse
  10
 355.59287355408
  20
 459.26571331829
  30
0.0
  11
0.0
  21
 8.7500000000000
  31
0.0
  40
 0.62667612265204
  41
0.0
  42
 6.2831853071796
   0
LINE
   5
14C
 100
AcDbEntity
   8
LEVEL001
 100
AcDbLine
   6
CONTINUOUS
  62
7
  10
 63.924481531648
  20
 485.51571331829
  30
0.0
  11
 355.59287355408
  21
 485.51571331829
  31
0.0
   0
LINE
   5
14D
 100
AcDbEntity
   8
LEVEL001
 100
AcDbLine
   6
CONTINUOUS
  62
7
  10
 372.25608950922
  20
 485.51571331829
  30
0.0
  11
 663.92448153165
  21
 485.51571331829
  31
0.0
   0
LINE
   5
14E
 100
AcDbEntity
   8
LEVEL001
 100
AcDbLine
   6
CONTINUOUS
  62
3
  10
 322.97061007334
  20
 525.13997201370
  30
0.0
  11
 343.73757172526
  21
 525.13997201370
  31
0.0
   0
LINE
   5
14F
 100
AcDbEntity
   8
LEVEL001
 100
AcDbLine
   6
CONTINUOUS
  62
3
  10
 383.61013809695
  20
 525.13997201370
  30
0.0
  11
 404.37709974887
  21
 525.13997201370
  31
0.0
   0
LINE
   5
150
 100
AcDbEntity
   8
LEVEL001
 100
AcDbLine
   6
CONTINUOUS
  62
7
  10
 588.92448153165
  20
 448.01571331829
  30
0.0
  11
 601.42448153165
  21
 448.01571331829
  31
0.0
   0
LINE
   5
151
 100
AcDbEntity
   8
LEVEL001
 100
AcDbLine
   6
CONTINUOUS
  62
7
  10
 576.42448153165
  20
 448.01571331829
  30
0.0
  11
 588.92448153165
  21
 448.01571331829
  31
0.0
   0
ARC
   5
152
 100
AcDbEntity
   8
LEVEL001
   6
CONTINUOUS
  62
7
 100
AcDbCircle
  10
 601.92448153165
  20
 447.01571331831
  30
0.0
  40
 1.0000000000000
 100
AcDbArc
  50
 90.000000000000
  51
 180.00000000141
   0
ARC
   5
153
 100
AcDbEntity
   8
LEVEL001
   6
CONTINUOUS
  62
7
 100
AcDbCircle
  10
 575.92448153165
  20
 447.01571331831
  30
0.0
  40
 1.0000000000000
 100
AcDbArc
  50
0.0
  51
 90.000000000000
   0
LINE
   5
154
 100
AcDbEntity
   8
LEVEL001
 100
AcDbLine
   6
CONTINUOUS
  62
7
  10
 582.67448153165
  20
 417.01571331829
  30
0.0
  11
 588.92448153165
  21
 417.01571331829
  31
0.0
   0
LINE
   5
155
 100
AcDbEntity
   8
LEVEL001
 100
AcDbLine
   6
CONTINUOUS
  62
7
  10
 588.92448153165
  20
 417.01571331829
  30
0.0
  11
 595.17448153165
  21
 417.01571331829
  31
0.0
   0
LINE
   5
156
 100
AcDbEntity
   8
LEVEL001
 100
AcDbLine
   6
CONTINUOUS
  62
7
  10
 567.92448153165
  20
 448.01571331829
  30
0.0
  11
 567.92448153165
  21
 451.20897274286
  31
0.0
   0
LINE
   5
157
 100
AcDbEntity
   8
LEVEL001
 100
AcDbLine
   6
CONTINUOUS
  62
7
  10
 609.92448153165
  20
 448.01571331829
  30
0.0
  11
 609.92448153165
  21
 451.20897274286
  31
0.0
   0
LINE
   5
158
 100
AcDbEntity
   8
LEVEL001
 100
AcDbLine
   6
CONTINUOUS
  62
7
  10
 567.92448153165
  20
 448.01571331829
  30
0.0
  11
 576.42448153165
  21
 448.01571331829
  31
0.0
   0
LINE
   5
159
 100
AcDbEntity
   8
LEVEL001
 100
AcDbLine
   6
CONTINUOUS
  62
7
  10
 601.42448153165
  20
 448.01571331829
  30
0.0
  11
 609.92448153165
  21
 448.01571331829
  31
0.0
   0
ARC
   5
15A
 100
AcDbEntity
   8
LEVEL001
   6
CONTINUOUS
  62
7
 100
AcDbCircle
  10
 577.42448153166
  20
 381.51571331829
  30
0.0
  40
 0.50000000000000
 100
AcDbArc
  50
 180.00000000001
  51
 269.99999999841
   0
POINT
   5
15B
 100
AcDbEntity
   8
LEVEL001
 100
AcDbPoint
  62
7
  10
 576.92448153165
  20
 381.01571331829
  30
0.0
   0
LINE
   5
15C
 100
AcDbEntity
   8
LEVEL001
 100
AcDbLine
   6
CONTINUOUS
  62
7
  10
 577.42448153165
  20
 381.01571331829
  30
0.0
  11
 588.92448153165
  21
 381.01571331829
  31
0.0
   0
LINE
   5
15D
 100
AcDbEntity
   8
LEVEL001
 100
AcDbLine
   6
CONTINUOUS
  62
7
  10
 588.92448153165
  20
 381.01571331829
  30
0.0
  11
 600.42448153165
  21
 381.01571331829
  31
0.0
   0
ARC
   5
15E
 100
AcDbEntity
   8
LEVEL001
   6
CONTINUOUS
  62
7
 100
AcDbCircle
  10
 600.42448153165
  20
 381.51571331830
  30
0.0
  40
 0.50000000000000
 100
AcDbArc
  50
 270.00000000000
  51
0.0
   0
POINT
   5
15F
 100
AcDbEntity
   8
LEVEL001
 100
AcDbPoint
  62
7
  10
 600.92448153165
  20
 381.01571331829
  30
0.0
   0
LINE
   5
160
 100
AcDbEntity
   8
LEVEL001
 100
AcDbLine
   6
CONTINUOUS
  62
7
  10
 577.92448153165
  20
 413.51571331829
  30
0.0
  11
 582.67448153165
  21
 413.51571331829
  31
0.0
   0
LINE
   5
161
 100
AcDbEntity
   8
LEVEL001
 100
AcDbLine
   6
CONTINUOUS
  62
7
  10
 576.92448153165
  20
 413.51571331829
  30
0.0
  11
 577.92448153165
  21
 413.51571331829
  31
0.0
   0
LINE
   5
162
 100
AcDbEntity
   8
LEVEL001
 100
AcDbLine
   6
CONTINUOUS
  62
7
  10
 582.67448153165
  20
 413.51571331829
  30
0.0
  11
 588.92448153165
  21
 413.51571331829
  31
0.0
   0
LINE
   5
163
 100
AcDbEntity
   8
LEVEL001
 100
AcDbLine
   6
CONTINUOUS
  62
7
  10
 588.92448153165
  20
 413.51571331829
  30
0.0
  11
 595.17448153165
  21
 413.51571331829
  31
0.0
   0
LINE
   5
164
 100
AcDbEntity
   8
LEVEL001
 100
AcDbLine
   6
CONTINUOUS
  62
7
  10
 595.17448153165
  20
 413.51571331829
  30
0.0
  11
 599.92448153165
  21
 413.51571331829
  31
0.0
   0
LINE
   5
165
 100
AcDbEntity
   8
LEVEL001
 100
AcDbLine
   6
CONTINUOUS
  62
7
  10
 599.92448153165
  20
 413.51571331829
  30
0.0
  11
 600.92448153165
  21
 413.51571331829
  31
0.0
   0
ARC
   5
166
 100
AcDbEntity
   8
LEVEL001
   6
CONTINUOUS
  62
7
 100
AcDbCircle
  10
 577.72448153165
  20
 417.81571331829
  30
0.0
  40
 0.80000000000000
 100
AcDbArc
  50
 180.00000000000
  51
 269.99999999986
   0
POINT
   5
167
 100
AcDbEntity
   8
LEVEL001
 100
AcDbPoint
  62
7
  10
 576.92448153165
  20
 417.01571331829
  30
0.0
   0
LINE
   5
168
 100
AcDbEntity
   8
LEVEL001
 100
AcDbLine
   6
CONTINUOUS
  62
7
  10
 577.72448153165
  20
 417.01571331829
  30
0.0
  11
 582.67448153165
  21
 417.01571331829
  31
0.0
   0
ARC
   5
169
 100
AcDbEntity
   8
LEVEL001
   6
CONTINUOUS
  62
7
 100
AcDbCircle
  10
 600.12448153166
  20
 417.81571331829
  30
0.0
  40
 0.80000000000000
 100
AcDbArc
  50
 269.99999999915
  51
0.0
   0
POINT
   5
16A
 100
AcDbEntity
   8
LEVEL001
 100
AcDbPoint
  62
7
  10
 600.92448153165
  20
 417.01571331829
  30
0.0
   0
LINE
   5
16B
 100
AcDbEntity
   8
LEVEL001
 100
AcDbLine
   6
CONTINUOUS
  62
7
  10
 595.17448153165
  20
 417.01571331829
  30
0.0
  11
 600.12448153165
  21
 417.01571331829
  31
0.0
   0
LINE
   5
16C
 100
AcDbEntity
   8
LEVEL001
 100
AcDbLine
   6
CONTINUOUS
  62
7
  10
 576.92448153165
  20
 417.81571331829
  30
0.0
  11
 576.92448153165
  21
 447.01571331829
  31
0.0
   0
LINE
   5
16D
 100
AcDbEntity
   8
LEVEL001
 100
AcDbLine
   6
CONTINUOUS
  62
7
  10
 600.92448153165
  20
 417.81571331829
  30
0.0
  11
 600.92448153165
  21
 447.01571331828
  31
0.0
   0
LINE
   5
16E
 100
AcDbEntity
   8
LEVEL001
 100
AcDbLine
   6
CONTINUOUS
  62
7
  10
 576.92448153165
  20
 381.51571331829
  30
0.0
  11
 576.92448153165
  21
 417.01571331829
  31
0.0
   0
LINE
   5
16F
 100
AcDbEntity
   8
LEVEL001
 100
AcDbLine
   6
CONTINUOUS
  62
7
  10
 600.92448153165
  20
 381.51571331829
  30
0.0
  11
 600.92448153165
  21
 417.01571331829
  31
0.0
   0
LINE
   5
170
 100
AcDbEntity
   8
LEVEL001
 100
AcDbLine
   6
CONTINUOUS
  62
7
  10
 567.92448153165
  20
 451.20897274286
  30
0.0
  11
 567.92448153165
  21
 452.58823516930
  31
0.0
   0
ARC
   5
171
 100
AcDbEntity
   8
LEVEL001
   6
CONTINUOUS
  62
7
 100
AcDbCircle
  10
 568.92448153163
  20
 452.58823516930
  30
0.0
  40
 1.0000000000000
 100
AcDbArc
  50
 89.999999998906
  51
 180.00000000000
   0
POINT
   5
172
 100
AcDbEntity
   8
LEVEL001
 100
AcDbPoint
  62
7
  10
 567.92448153165
  20
 453.58823516930
  30
0.0
   0
LINE
   5
173
 100
AcDbEntity
   8
LEVEL001
 100
AcDbLine
   6
CONTINUOUS
  62
7
  10
 568.92448153165
  20
 453.58823516930
  30
0.0
  11
 608.92448153165
  21
 453.58823516930
  31
0.0
   0
ARC
   5
174
 100
AcDbEntity
   8
LEVEL001
   6
CONTINUOUS
  62
7
 100
AcDbCircle
  10
 608.92448153165
  20
 452.58823516931
  30
0.0
  40
 1.0000000000000
 100
AcDbArc
  50
0.0
  51
 90.000000000000
   0
POINT
   5
175
 100
AcDbEntity
   8
LEVEL001
 100
AcDbPoint
  62
7
  10
 609.92448153165
  20
 453.58823516930
  30
0.0
   0
LINE
   5
176
 100
AcDbEntity
   8
LEVEL001
 100
AcDbLine
   6
CONTINUOUS
  62
7
  10
 609.92448153165
  20
 451.20897274286
  30
0.0
  11
 609.92448153165
  21
 452.58823516930
  31
0.0
   0
LINE
   5
177
 100
AcDbEntity
   8
LEVEL001
 100
AcDbLine
   6
DASHDOT
  62
3
  10
 588.92448153165
  20
 464.86910972609
  30
0.0
  11
 588.92448153165
  21
 374.54499651524
  31
0.0
   0
CIRCLE
   5
178
 100
AcDbEntity
   8
LEVEL001
 100
AcDbCircle
   6
DOT
  62
1
  10
 582.17448153165
  20
 386.01571331829
  30
0.0
  40
 2.2500000000000
   0
CIRCLE
   5
179
 100
AcDbEntity
   8
LEVEL001
 100
AcDbCircle
   6
DOT
  62
1
  10
 595.67448153165
  20
 386.01571331829
  30
0.0
  40
 2.2500000000000
   0
CIRCLE
   5
17A
 100
AcDbEntity
   8
LEVEL001
 100
AcDbCircle
   6
DOT
  62
1
  10
 582.17448153165
  20
 409.01571331829
  30
0.0
  40
 2.2500000000000
   0
CIRCLE
   5
17B
 100
AcDbEntity
   8
LEVEL001
 100
AcDbCircle
   6
DOT
  62
1
  10
 595.67448153165
  20
 409.01571331829
  30
0.0
  40
 2.2500000000000
   0
LINE
   5
17C
 100
AcDbEntity
   8
LEVEL001
 100
AcDbLine
   6
DASHDOT
  62
3
  10
 572.63690490596
  20
 397.51571331829
  30
0.0
  11
 605.42168480603
  21
 397.51571331829
  31
0.0
   0
ARC
   5
17D
 100
AcDbEntity
   8
LEVEL001
   6
DOT
  62
1
 100
AcDbCircle
  10
 600.12448153165
  20
 424.21571331830
  30
0.0
  40
 0.80000000000000
 100
AcDbArc
  50
0.0
  51
 90.000000000000
   0
POINT
   5
17E
 100
AcDbEntity
   8
LEVEL001
 100
AcDbPoint
  62
1
  10
 600.92448153165
  20
 425.01571331829
  30
0.0
   0
LINE
   5
17F
 100
AcDbEntity
   8
LEVEL001
 100
AcDbLine
   6
DOT
  62
1
  10
 577.72448153165
  20
 425.01571331829
  30
0.0
  11
 600.12448153165
  21
 425.01571331829
  31
0.0
   0
ARC
   5
180
 100
AcDbEntity
   8
LEVEL001
   6
DOT
  62
1
 100
AcDbCircle
  10
 577.72448153165
  20
 424.21571331831
  30
0.0
  40
 0.80000000000000
 100
AcDbArc
  50
 89.999999999984
  51
 180.00000000178
   0
POINT
   5
181
 100
AcDbEntity
   8
LEVEL001
 100
AcDbPoint
  62
1
  10
 576.92448153165
  20
 425.01571331829
  30
0.0
   0
LINE
   5
182
 100
AcDbEntity
   8
LEVEL001
 100
AcDbLine
   6
CONTINUOUS
  62
15
  10
 609.92448153165
  20
 451.20897274286
  30
0.0
  11
 574.58813318203
  21
 451.20897274286
  31
0.0
   0
LINE
   5
183
 100
AcDbEntity
   8
LEVEL001
 100
AcDbLine
   6
DASHDOT
  62
3
  10
 605.42448153165
  20
 455.50830701269
  30
0.0
  11
 605.42448153165
  21
 446.79200965364
  31
0.0
   0
LINE
   5
184
 100
AcDbEntity
   8
LEVEL001
 100
AcDbLine
   6
DASHDOT
  62
3
  10
 572.42448153165
  20
 455.50830701269
  30
0.0
  11
 572.42448153165
  21
 446.79200965364
  31
0.0
   0
ELLIPSE
   5
185
 100
AcDbEntity
   8
LEVEL001
   6
CONTINUOUS
  62
7
 100
AcDbEllipse
  10
 572.42448153165
  20
 450.00906767009
  30
0.0
  11
 3.6000000000000
  21
0.0
  31
0.0
  40
 0.41703080580885
  41
0.0
  42
 6.2831853071796
   0
LINE
   5
186
 100
AcDbEntity
   8
LEVEL001
 100
AcDbLine
   6
CONTINUOUS
  62
15
  10
 570.26082988126
  20
 451.20897274286
  30
0.0
  11
 567.92448153165
  21
 451.20897274286
  31
0.0
   0
LINE
   5
187
 100
AcDbEntity
   8
LEVEL001
 100
AcDbLine
   6
DASHDOT
  62
3
  10
 578.23946669992
  20
 409.01571331829
  30
0.0
  11
 599.37561878121
  21
 409.01571331829
  31
0.0
   0
LINE
   5
188
 100
AcDbEntity
   8
LEVEL001
 100
AcDbLine
   6
DASHDOT
  62
3
  10
 582.17448153165
  20
 412.39256411454
  30
0.0
  11
 582.17448153165
  21
 382.21124651375
  31
0.0
   0
LINE
   5
189
 100
AcDbEntity
   8
LEVEL001
 100
AcDbLine
   6
DASHDOT
  62
3
  10
 578.23946669992
  20
 386.01571331829
  30
0.0
  11
 599.37561878121
  21
 386.01571331829
  31
0.0
   0
LINE
   5
18A
 100
AcDbEntity
   8
LEVEL001
 100
AcDbLine
   6
DASHDOT
  62
3
  10
 595.67448153165
  20
 412.39256411454
  30
0.0
  11
 595.67448153165
  21
 382.21124651375
  31
0.0
   0
DIMENSION
   5
18B
 100
AcDbEntity
   8
LEVEL001
   6
CONTINUOUS
  62
3
 100
AcDbDimension
   2
*D1
  10
 639.93881499357
  20
 450.51571331829
  30
0.0
  11
 639.93881499357
  21
 468.01571331829
  31
0.0
  70
0
   3
GMM001
 100
AcDbAlignedDimension
  13
 639.93881499357
  23
 485.51571331829
  33
0.0
  14
 638.86755722217
  24
 450.51571331829
  34
0.0
  50
 270.00000000000
 100
AcDbRotatedDimension
   0
LINE
   5
18C
 100
AcDbEntity
   8
LEVEL001
 100
AcDbLine
   6
DASHDOT
  62
3
  10
 50.169547307278
  20
 468.01571331829
  30
0.0
  11
 626.27576180543
  21
 468.01571331829
  31
0.0
   0
LINE
   5
18D
 100
AcDbEntity
   8
LEVEL001
 100
AcDbLine
   6
DASHDOT
  62
3
  10
 642.37561244303
  20
 468.01571331829
  30
0.0
  11
 675.50143133180
  21
 468.01571331829
  31
0.0
   0
DIMENSION
   5
18E
 100
AcDbEntity
   8
LEVEL001
   6
CONTINUOUS
  62
3
 100
AcDbDimension
   2
*D2
  10
 663.92448153165
  20
 358.75758282473
  30
0.0
  11
 626.42448153165
  21
 358.75758282473
  31
0.0
  70
0
   3
GMM002
 100
AcDbAlignedDimension
  13
 588.92448153165
  23
 374.54499651524
  33
0.0
  14
 663.92448153165
  24
 450.51571331829
  34
0.0
 100
AcDbRotatedDimension
   0
LINE
   5
18F
 100
AcDbEntity
   8
LEVEL001
 100
AcDbLine
   6
CONTINUOUS
  62
7
  10
 372.25608950922
  20
 450.51571331829
  30
0.0
  11
 567.92448153165
  21
 450.51571331829
  31
0.0
   0
LINE
   5
190
 100
AcDbEntity
   8
LEVEL001
 100
AcDbLine
   6
CONTINUOUS
  62
7
  10
 609.92448153165
  20
 450.51571331829
  30
0.0
  11
 663.92448153165
  21
 450.51571331829
  31
0.0
   0
LINE
   5
191
 100
AcDbEntity
   8
LEVEL001
 100
AcDbLine
   6
CONTINUOUS
  62
7
  10
 138.92448153165
  20
 448.01571331829
  30
0.0
  11
 126.42448153165
  21
 448.01571331829
  31
0.0
   0
LINE
   5
192
 100
AcDbEntity
   8
LEVEL001
 100
AcDbLine
   6
CONTINUOUS
  62
7
  10
 151.42448153165
  20
 448.01571331829
  30
0.0
  11
 138.92448153165
  21
 448.01571331829
  31
0.0
   0
ARC
   5
193
 100
AcDbEntity
   8
LEVEL001
   6
CONTINUOUS
  62
7
 100
AcDbCircle
  10
 125.92448153165
  20
 447.01571331829
  30
0.0
  40
 1.0000000000000
 100
AcDbArc
  50
0.0
  51
 90.000000000000
   0
ARC
   5
194
 100
AcDbEntity
   8
LEVEL001
   6
CONTINUOUS
  62
7
 100
AcDbCircle
  10
 151.92448153165
  20
 447.01571331830
  30
0.0
  40
 1.0000000000000
 100
AcDbArc
  50
 90.000000000000
  51
 180.00000000058
   0
LINE
   5
195
 100
AcDbEntity
   8
LEVEL001
 100
AcDbLine
   6
CONTINUOUS
  62
7
  10
 159.92448153165
  20
 448.01571331829
  30
0.0
  11
 159.92448153165
  21
 451.20897274286
  31
0.0
   0
LINE
   5
196
 100
AcDbEntity
   8
LEVEL001
 100
AcDbLine
   6
CONTINUOUS
  62
7
  10
 117.92448153165
  20
 448.01571331829
  30
0.0
  11
 117.92448153165
  21
 451.20897274286
  31
0.0
   0
LINE
   5
197
 100
AcDbEntity
   8
LEVEL001
 100
AcDbLine
   6
CONTINUOUS
  62
7
  10
 159.92448153165
  20
 448.01571331829
  30
0.0
  11
 151.42448153165
  21
 448.01571331829
  31
0.0
   0
LINE
   5
198
 100
AcDbEntity
   8
LEVEL001
 100
AcDbLine
   6
CONTINUOUS
  62
7
  10
 126.42448153165
  20
 448.01571331829
  30
0.0
  11
 117.92448153165
  21
 448.01571331829
  31
0.0
   0
LINE
   5
199
 100
AcDbEntity
   8
LEVEL001
 100
AcDbLine
   6
CONTINUOUS
  62
7
  10
 150.92448153165
  20
 417.81571331829
  30
0.0
  11
 150.92448153165
  21
 447.01571331829
  31
0.0
   0
LINE
   5
19A
 100
AcDbEntity
   8
LEVEL001
 100
AcDbLine
   6
CONTINUOUS
  62
7
  10
 126.92448153165
  20
 417.81571331829
  30
0.0
  11
 126.92448153165
  21
 447.01571331828
  31
0.0
   0
LINE
   5
19B
 100
AcDbEntity
   8
LEVEL001
 100
AcDbLine
   6
CONTINUOUS
  62
7
  10
 159.92448153165
  20
 451.20897274286
  30
0.0
  11
 159.92448153165
  21
 452.58823516930
  31
0.0
   0
ARC
   5
19C
 100
AcDbEntity
   8
LEVEL001
   6
CONTINUOUS
  62
7
 100
AcDbCircle
  10
 158.92448153165
  20
 452.58823516930
  30
0.0
  40
 1.0000000000000
 100
AcDbArc
  50
0.0
  51
 90.000000000407
   0
POINT
   5
19D
 100
AcDbEntity
   8
LEVEL001
 100
AcDbPoint
  62
7
  10
 159.92448153165
  20
 453.58823516930
  30
0.0
   0
LINE
   5
19E
 100
AcDbEntity
   8
LEVEL001
 100
AcDbLine
   6
CONTINUOUS
  62
7
  10
 158.92448153165
  20
 453.58823516930
  30
0.0
  11
 118.92448153165
  21
 453.58823516930
  31
0.0
   0
ARC
   5
19F
 100
AcDbEntity
   8
LEVEL001
   6
CONTINUOUS
  62
7
 100
AcDbCircle
  10
 118.92448153165
  20
 452.58823516930
  30
0.0
  40
 1.0000000000000
 100
AcDbArc
  50
 90.000000000000
  51
 179.99999999974
   0
POINT
   5
1A0
 100
AcDbEntity
   8
LEVEL001
 100
AcDbPoint
  62
7
  10
 117.92448153165
  20
 453.58823516930
  30
0.0
   0
LINE
   5
1A1
 100
AcDbEntity
   8
LEVEL001
 100
AcDbLine
   6
CONTINUOUS
  62
7
  10
 117.92448153165
  20
 451.20897274286
  30
0.0
  11
 117.92448153165
  21
 452.58823516930
  31
0.0
   0
LINE
   5
1A2
 100
AcDbEntity
   8
LEVEL001
 100
AcDbLine
   6
CONTINUOUS
  62
7
  10
 145.17448153165
  20
 417.01571331829
  30
0.0
  11
 138.92448153165
  21
 417.01571331829
  31
0.0
   0
LINE
   5
1A3
 100
AcDbEntity
   8
LEVEL001
 100
AcDbLine
   6
CONTINUOUS
  62
7
  10
 138.92448153165
  20
 417.01571331829
  30
0.0
  11
 132.67448153165
  21
 417.01571331829
  31
0.0
   0
ARC
   5
1A4
 100
AcDbEntity
   8
LEVEL001
   6
CONTINUOUS
  62
7
 100
AcDbCircle
  10
 150.42448153165
  20
 381.51571331829
  30
0.0
  40
 0.50000000000000
 100
AcDbArc
  50
 269.99999999967
  51
0.0
   0
POINT
   5
1A5
 100
AcDbEntity
   8
LEVEL001
 100
AcDbPoint
  62
7
  10
 150.92448153165
  20
 381.01571331829
  30
0.0
   0
LINE
   5
1A6
 100
AcDbEntity
   8
LEVEL001
 100
AcDbLine
   6
CONTINUOUS
  62
7
  10
 150.42448153165
  20
 381.01571331829
  30
0.0
  11
 138.92448153165
  21
 381.01571331829
  31
0.0
   0
LINE
   5
1A7
 100
AcDbEntity
   8
LEVEL001
 100
AcDbLine
   6
CONTINUOUS
  62
7
  10
 138.92448153165
  20
 381.01571331829
  30
0.0
  11
 127.42448153165
  21
 381.01571331829
  31
0.0
   0
ARC
   5
1A8
 100
AcDbEntity
   8
LEVEL001
   6
CONTINUOUS
  62
7
 100
AcDbCircle
  10
 127.42448153165
  20
 381.51571331829
  30
0.0
  40
 0.50000000000000
 100
AcDbArc
  50
 180.00000000005
  51
 270.00000000000
   0
POINT
   5
1A9
 100
AcDbEntity
   8
LEVEL001
 100
AcDbPoint
  62
7
  10
 126.92448153165
  20
 381.01571331829
  30
0.0
   0
LINE
   5
1AA
 100
AcDbEntity
   8
LEVEL001
 100
AcDbLine
   6
CONTINUOUS
  62
7
  10
 149.92448153165
  20
 413.51571331829
  30
0.0
  11
 145.17448153165
  21
 413.51571331829
  31
0.0
   0
LINE
   5
1AB
 100
AcDbEntity
   8
LEVEL001
 100
AcDbLine
   6
CONTINUOUS
  62
7
  10
 150.92448153165
  20
 413.51571331829
  30
0.0
  11
 149.92448153165
  21
 413.51571331829
  31
0.0
   0
LINE
   5
1AC
 100
AcDbEntity
   8
LEVEL001
 100
AcDbLine
   6
CONTINUOUS
  62
7
  10
 145.17448153165
  20
 413.51571331829
  30
0.0
  11
 138.92448153165
  21
 413.51571331829
  31
0.0
   0
LINE
   5
1AD
 100
AcDbEntity
   8
LEVEL001
 100
AcDbLine
   6
CONTINUOUS
  62
7
  10
 138.92448153165
  20
 413.51571331829
  30
0.0
  11
 132.67448153165
  21
 413.51571331829
  31
0.0
   0
LINE
   5
1AE
 100
AcDbEntity
   8
LEVEL001
 100
AcDbLine
   6
CONTINUOUS
  62
7
  10
 132.67448153165
  20
 413.51571331829
  30
0.0
  11
 127.92448153165
  21
 413.51571331829
  31
0.0
   0
LINE
   5
1AF
 100
AcDbEntity
   8
LEVEL001
 100
AcDbLine
   6
CONTINUOUS
  62
7
  10
 127.92448153165
  20
 413.51571331829
  30
0.0
  11
 126.92448153165
  21
 413.51571331829
  31
0.0
   0
ARC
   5
1B0
 100
AcDbEntity
   8
LEVEL001
   6
CONTINUOUS
  62
7
 100
AcDbCircle
  10
 150.12448153166
  20
 417.81571331829
  30
0.0
  40
 0.80000000000000
 100
AcDbArc
  50
 269.99999999879
  51
0.0
   0
POINT
   5
1B1
 100
AcDbEntity
   8
LEVEL001
 100
AcDbPoint
  62
7
  10
 150.92448153165
  20
 417.01571331829
  30
0.0
   0
LINE
   5
1B2
 100
AcDbEntity
   8
LEVEL001
 100
AcDbLine
   6
CONTINUOUS
  62
7
  10
 150.12448153165
  20
 417.01571331829
  30
0.0
  11
 145.17448153165
  21
 417.01571331829
  31
0.0
   0
ARC
   5
1B3
 100
AcDbEntity
   8
LEVEL001
   6
CONTINUOUS
  62
7
 100
AcDbCircle
  10
 127.72448153162
  20
 417.81571331829
  30
0.0
  40
 0.80000000000000
 100
AcDbArc
  50
 180.00000000000
  51
 270.00000000163
   0
POINT
   5
1B4
 100
AcDbEntity
   8
LEVEL001
 100
AcDbPoint
  62
7
  10
 126.92448153165
  20
 417.01571331829
  30
0.0
   0
LINE
   5
1B5
 100
AcDbEntity
   8
LEVEL001
 100
AcDbLine
   6
CONTINUOUS
  62
7
  10
 132.67448153165
  20
 417.01571331829
  30
0.0
  11
 127.72448153165
  21
 417.01571331829
  31
0.0
   0
LINE
   5
1B6
 100
AcDbEntity
   8
LEVEL001
 100
AcDbLine
   6
CONTINUOUS
  62
7
  10
 150.92448153165
  20
 381.51571331829
  30
0.0
  11
 150.92448153165
  21
 417.01571331829
  31
0.0
   0
LINE
   5
1B7
 100
AcDbEntity
   8
LEVEL001
 100
AcDbLine
   6
CONTINUOUS
  62
7
  10
 126.92448153165
  20
 381.51571331829
  30
0.0
  11
 126.92448153165
  21
 417.01571331829
  31
0.0
   0
CIRCLE
   5
1B8
 100
AcDbEntity
   8
LEVEL001
 100
AcDbCircle
   6
DOT
  62
1
  10
 145.67448153165
  20
 386.01571331829
  30
0.0
  40
 2.2500000000000
   0
CIRCLE
   5
1B9
 100
AcDbEntity
   8
LEVEL001
 100
AcDbCircle
   6
DOT
  62
1
  10
 132.17448153165
  20
 386.01571331829
  30
0.0
  40
 2.2500000000000
   0
CIRCLE
   5
1BA
 100
AcDbEntity
   8
LEVEL001
 100
AcDbCircle
   6
DOT
  62
1
  10
 145.67448153165
  20
 409.01571331829
  30
0.0
  40
 2.2500000000000
   0
CIRCLE
   5
1BB
 100
AcDbEntity
   8
LEVEL001
 100
AcDbCircle
   6
DOT
  62
1
  10
 132.17448153165
  20
 409.01571331829
  30
0.0
  40
 2.2500000000000
   0
LINE
   5
1BC
 100
AcDbEntity
   8
LEVEL001
 100
AcDbLine
   6
DASHDOT
  62
3
  10
 155.21205815734
  20
 397.51571331829
  30
0.0
  11
 122.42727825726
  21
 397.51571331829
  31
0.0
   0
LINE
   5
1BD
 100
AcDbEntity
   8
LEVEL001
 100
AcDbLine
   6
DASHDOT
  62
3
  10
 149.60949636338
  20
 409.01571331829
  30
0.0
  11
 128.47334428209
  21
 409.01571331829
  31
0.0
   0
LINE
   5
1BE
 100
AcDbEntity
   8
LEVEL001
 100
AcDbLine
   6
DASHDOT
  62
3
  10
 145.67448153165
  20
 412.39256411454
  30
0.0
  11
 145.67448153165
  21
 382.21124651375
  31
0.0
   0
LINE
   5
1BF
 100
AcDbEntity
   8
LEVEL001
 100
AcDbLine
   6
DASHDOT
  62
3
  10
 149.60949636338
  20
 386.01571331829
  30
0.0
  11
 128.47334428209
  21
 386.01571331829
  31
0.0
   0
LINE
   5
1C0
 100
AcDbEntity
   8
LEVEL001
 100
AcDbLine
   6
DASHDOT
  62
3
  10
 132.17448153165
  20
 412.39256411454
  30
0.0
  11
 132.17448153165
  21
 382.21124651375
  31
0.0
   0
ARC
   5
1C1
 100
AcDbEntity
   8
LEVEL001
   6
DOT
  62
1
 100
AcDbCircle
  10
 127.72448153165
  20
 424.21571331829
  30
0.0
  40
 0.80000000000000
 100
AcDbArc
  50
 90.000000000003
  51
 180.00000000000
   0
POINT
   5
1C2
 100
AcDbEntity
   8
LEVEL001
 100
AcDbPoint
  62
1
  10
 126.92448153165
  20
 425.01571331829
  30
0.0
   0
LINE
   5
1C3
 100
AcDbEntity
   8
LEVEL001
 100
AcDbLine
   6
DOT
  62
1
  10
 150.12448153165
  20
 425.01571331829
  30
0.0
  11
 127.72448153165
  21
 425.01571331829
  31
0.0
   0
ARC
   5
1C4
 100
AcDbEntity
   8
LEVEL001
   6
DOT
  62
1
 100
AcDbCircle
  10
 150.12448153165
  20
 424.21571331829
  30
0.0
  40
 0.80000000000000
 100
AcDbArc
  50
0.0
  51
 90.000000000014
   0
POINT
   5
1C5
 100
AcDbEntity
   8
LEVEL001
 100
AcDbPoint
  62
1
  10
 150.92448153165
  20
 425.01571331829
  30
0.0
   0
LINE
   5
1C6
 100
AcDbEntity
   8
LEVEL001
 100
AcDbLine
   6
DASHDOT
  62
3
  10
 138.92448153165
  20
 464.86910972609
  30
0.0
  11
 138.92448153165
  21
 374.54499651524
  31
0.0
   0
LINE
   5
1C7
 100
AcDbEntity
   8
LEVEL001
 100
AcDbLine
   6
CONTINUOUS
  62
15
  10
 159.92448153165
  20
 451.20897274286
  30
0.0
  11
 124.58813318203
  21
 451.20897274286
  31
0.0
   0
LINE
   5
1C8
 100
AcDbEntity
   8
LEVEL001
 100
AcDbLine
   6
DASHDOT
  62
3
  10
 155.42448153165
  20
 455.50830701269
  30
0.0
  11
 155.42448153165
  21
 446.79200965364
  31
0.0
   0
LINE
   5
1C9
 100
AcDbEntity
   8
LEVEL001
 100
AcDbLine
   6
DASHDOT
  62
3
  10
 122.42448153165
  20
 455.50830701269
  30
0.0
  11
 122.42448153165
  21
 446.79200965364
  31
0.0
   0
ELLIPSE
   5
1CA
 100
AcDbEntity
   8
LEVEL001
   6
CONTINUOUS
  62
7
 100
AcDbEllipse
  10
 122.42448153165
  20
 450.00906767009
  30
0.0
  11
 3.6000000000000
  21
0.0
  31
0.0
  40
 0.41703080580885
  41
0.0
  42
 6.2831853071796
   0
LINE
   5
1CB
 100
AcDbEntity
   8
LEVEL001
 100
AcDbLine
   6
CONTINUOUS
  62
15
  10
 120.26082988126
  20
 451.20897274286
  30
0.0
  11
 117.92448153165
  21
 451.20897274286
  31
0.0
   0
DIMENSION
   5
1CC
 100
AcDbEntity
   8
LEVEL001
   6
CONTINUOUS
  62
3
 100
AcDbDimension
   2
*D3
  10
 138.92448153165
  20
 358.75758282473
  30
0.0
  11
 101.42448153165
  21
 358.75758282473
  31
0.0
  70
0
   3
GMM002
 100
AcDbAlignedDimension
  13
 63.924481531648
  23
 450.51571331829
  33
0.0
  14
 138.92448153165
  24
 374.54499651524
  34
0.0
 100
AcDbRotatedDimension
   0
DIMENSION
   5
1CD
 100
AcDbEntity
   8
LEVEL001
   6
CONTINUOUS
  62
3
 100
AcDbDimension
   2
*D4
  10
 622.33178999739
  20
 409.01571331829
  30
0.0
  11
 622.33178999739
  21
 397.51571331829
  31
0.0
  70
0
   3
GMM002
 100
AcDbAlignedDimension
  13
 599.37561878121
  23
 386.01571331829
  33
0.0
  14
 599.37561878121
  24
 409.01571331829
  34
0.0
  50
 90.000000000000
 100
AcDbRotatedDimension
   0
LINE
   5
1CE
 100
AcDbEntity
   8
LEVEL001
 100
AcDbLine
   6
CONTINUOUS
  62
7
  10
 63.924481531648
  20
 450.51571331829
  30
0.0
  11
 117.92448153165
  21
 450.51571331829
  31
0.0
   0
LINE
   5
1CF
 100
AcDbEntity
   8
LEVEL001
 100
AcDbLine
   6
CONTINUOUS
  62
7
  10
 159.92448153165
  20
 450.51571331829
  30
0.0
  11
 355.59287355408
  21
 450.51571331829
  31
0.0
   0
CIRCLE
   5
1D0
 100
AcDbEntity
   8
LEVEL001
 100
AcDbCircle
   6
CONTINUOUS
  62
7
  10
 771.27163565729
  20
 468.01571331829
  30
0.0
  40
 17.500000000000
   0
LINE
   5
1D1
 100
AcDbEntity
   8
LEVEL001
 100
AcDbLine
   6
DASHDOT
  62
3
  10
 797.31592558879
  20
 468.01571331829
  30
0.0
  11
 745.22734572578
  21
 468.01571331829
  31
0.0
   0
ARC
   5
1D2
 100
AcDbEntity
   8
LEVEL001
   6
CONTINUOUS
  62
7
 100
AcDbCircle
  10
 765.27163565729
  20
 445.81211000712
  30
0.0
  40
 3.0000000000000
 100
AcDbArc
  50
0.0
  51
 74.878334685045
   0
ARC
   5
1D3
 100
AcDbEntity
   8
LEVEL001
   6
CONTINUOUS
  62
7
 100
AcDbCircle
  10
 766.77163565557
  20
 446.99191727702
  30
0.0
  40
 1.5000000000000
 100
AcDbArc
  50
 77.462181048254
  51
 77.918530048394
   0
LINE
   5
1D4
 100
AcDbEntity
   8
LEVEL001
 100
AcDbLine
   6
CONTINUOUS
  62
7
  10
 711.27163565729
  20
 417.01571331829
  30
0.0
  11
 711.27163565729
  21
 420.01571331829
  31
0.0
   0
POINT
   5
1D5
 100
AcDbEntity
   8
LEVEL001
 100
AcDbPoint
  62
7
  10
 723.77163565724
  20
 417.01571331829
  30
0.0
   0
LINE
   5
1D6
 100
AcDbEntity
   8
LEVEL001
 100
AcDbLine
   6
CONTINUOUS
  62
7
  10
 725.01427634436
  20
 417.01571331829
  30
0.0
  11
 753.77163565729
  21
 417.01571331829
  31
0.0
   0
POINT
   5
1D7
 100
AcDbEntity
   8
LEVEL001
 100
AcDbPoint
  62
7
  10
 717.27163565729
  20
 404.01571331829
  30
0.0
   0
LINE
   5
1D8
 100
AcDbEntity
   8
LEVEL001
 100
AcDbLine
   6
CONTINUOUS
  62
7
  10
 711.27163565729
  20
 381.01571331829
  30
0.0
  11
 715.63527202092
  21
 381.01571331829
  31
0.0
   0
LINE
   5
1D9
 100
AcDbEntity
   8
LEVEL001
 100
AcDbLine
   6
CONTINUOUS
  62
7
  10
 711.27163565729
  20
 381.01571331829
  30
0.0
  11
 711.27163565729
  21
 425.01571331829
  31
0.0
   0
LINE
   5
1DA
 100
AcDbEntity
   8
LEVEL001
 100
AcDbLine
   6
CONTINUOUS
  62
7
  10
 715.63527202092
  20
 381.01571331829
  30
0.0
  11
 715.77163565729
  21
 381.01571331829
  31
0.0
   0
ARC
   5
1DB
 100
AcDbEntity
   8
LEVEL001
   6
CONTINUOUS
  62
7
 100
AcDbCircle
  10
 763.27163565728
  20
 454.15930685774
  30
0.0
  40
 4.0000000000000
 100
AcDbArc
  50
 173.46734586650
  51
 240.00000000004
   0
ARC
   5
1DC
 100
AcDbEntity
   8
LEVEL001
   6
CONTINUOUS
  62
7
 100
AcDbCircle
  10
 771.27163565729
  20
 468.01571331829
  30
0.0
  40
 17.500000000000
 100
AcDbArc
  50
 229.00799287654
  51
 310.99200712343
   0
ARC
   5
1DD
 100
AcDbEntity
   8
LEVEL001
   6
CONTINUOUS
  62
7
 100
AcDbCircle
  10
 759.59565910127
  20
 454.58025383734
  30
0.0
  40
 0.30000000000000
 100
AcDbArc
  50
 49.007992879783
  51
 173.46734586077
   0
ARC
   5
1DE
 100
AcDbEntity
   8
LEVEL001
   6
CONTINUOUS
  62
7
 100
AcDbCircle
  10
 777.27163565729
  20
 445.81211000712
  30
0.0
  40
 3.0000000000000
 100
AcDbArc
  50
 105.12166531496
  51
 180.00000000022
   0
ARC
   5
1DF
 100
AcDbEntity
   8
LEVEL001
   6
CONTINUOUS
  62
7
 100
AcDbCircle
  10
 779.27163565730
  20
 454.15930685774
  30
0.0
  40
 4.0000000000000
 100
AcDbArc
  50
 299.99999999980
  51
 6.5326541333693
   0
ARC
   5
1E0
 100
AcDbEntity
   8
LEVEL001
   6
CONTINUOUS
  62
7
 100
AcDbCircle
  10
 782.94761221330
  20
 454.58025383728
  30
0.0
  40
 0.30000000000000
 100
AcDbArc
  50
 6.5326541498460
  51
 130.99200711417
   0
LINE
   5
1E1
 100
AcDbEntity
   8
LEVEL001
 100
AcDbLine
   6
CONTINUOUS
  62
7
  10
 711.27163565729
  20
 425.01571331829
  30
0.0
  11
 761.02899497017
  21
 425.01571331829
  31
0.0
   0
ARC
   5
1E2
 100
AcDbEntity
   8
LEVEL001
   6
CONTINUOUS
  62
7
 100
AcDbCircle
  10
 761.02899497017
  20
 428.01571331829
  30
0.0
  40
 3.0000000000000
 100
AcDbArc
  50
 269.99999999991
  51
 314.99999999987
   0
POINT
   5
1E3
 100
AcDbEntity
   8
LEVEL001
 100
AcDbPoint
  62
7
  10
 762.27163565729
  20
 425.01571331829
  30
0.0
   0
LINE
   5
1E4
 100
AcDbEntity
   8
LEVEL001
 100
AcDbLine
   6
CONTINUOUS
  62
7
  10
 763.15031531373
  20
 425.89439297473
  30
0.0
  11
 767.39295600084
  21
 430.13703366185
  31
0.0
   0
ARC
   5
1E5
 100
AcDbEntity
   8
LEVEL001
   6
CONTINUOUS
  62
7
 100
AcDbCircle
  10
 765.27163565729
  20
 432.25835400540
  30
0.0
  40
 3.0000000000000
 100
AcDbArc
  50
 315.00000000001
  51
 0.17370069300366E-10
   0
POINT
   5
1E6
 100
AcDbEntity
   8
LEVEL001
 100
AcDbPoint
  62
7
  10
 768.27163565729
  20
 431.01571331829
  30
0.0
   0
LINE
   5
1E7
 100
AcDbEntity
   8
LEVEL001
 100
AcDbLine
   6
CONTINUOUS
  62
7
  10
 768.27163565729
  20
 432.25835400540
  30
0.0
  11
 768.27163565729
  21
 445.81211000711
  31
0.0
   0
ARC
   5
1E8
 100
AcDbEntity
   8
LEVEL001
   6
CONTINUOUS
  62
7
 100
AcDbCircle
  10
 771.27163565729
  20
 426.25835400539
  30
0.0
  40
 3.0000000000000
 100
AcDbArc
  50
 315.00000000022
  51
 0.31591813540041E-9
   0
POINT
   5
1E9
 100
AcDbEntity
   8
LEVEL001
 100
AcDbPoint
  62
7
  10
 774.27163565729
  20
 425.01571331829
  30
0.0
   0
LINE
   5
1EA
 100
AcDbEntity
   8
LEVEL001
 100
AcDbLine
   6
CONTINUOUS
  62
7
  10
 774.27163565729
  20
 426.25835400540
  30
0.0
  11
 774.27163565729
  21
 445.81211000711
  31
0.0
   0
LINE
   5
1EB
 100
AcDbEntity
   8
LEVEL001
 100
AcDbLine
   6
CONTINUOUS
  62
7
  10
 753.77163565729
  20
 417.01571331829
  30
0.0
  11
 765.02899497017
  21
 417.01571331829
  31
0.0
   0
ARC
   5
1EC
 100
AcDbEntity
   8
LEVEL001
   6
CONTINUOUS
  62
7
 100
AcDbCircle
  10
 765.02899497016
  20
 420.01571331828
  30
0.0
  40
 3.0000000000000
 100
AcDbArc
  50
 270.00000000019
  51
 315.00000000026
   0
POINT
   5
1ED
 100
AcDbEntity
   8
LEVEL001
 100
AcDbPoint
  62
7
  10
 766.27163565729
  20
 417.01571331829
  30
0.0
   0
LINE
   5
1EE
 100
AcDbEntity
   8
LEVEL001
 100
AcDbLine
   6
CONTINUOUS
  62
7
  10
 767.15031531373
  20
 417.89439297473
  30
0.0
  11
 773.39295600084
  21
 424.13703366185
  31
0.0
   0
LINE
   5
1EF
 100
AcDbEntity
   8
LEVEL001
 100
AcDbLine
   6
CONTINUOUS
  62
7
  10
 722.07163565729
  20
 415.01571331833
  30
0.0
  11
 723.19295600080
  21
 416.13703366185
  31
0.0
   0
ARC
   5
1F0
 100
AcDbEntity
   8
LEVEL001
   6
CONTINUOUS
  62
7
 100
AcDbCircle
  10
 725.31427634437
  20
 414.01571331829
  30
0.0
  40
 3.0000000000000
 100
AcDbArc
  50
 90.000000000263
  51
 135.00000000019
   0
LINE
   5
1F1
 100
AcDbEntity
   8
LEVEL001
 100
AcDbLine
   6
DASHDOT
  62
3
  10
 772.68764320627
  20
 471.35161805247
  30
0.0
  11
 762.45688237902
  21
 447.24945595340
  31
0.0
   0
LINE
   5
1F2
 100
AcDbEntity
   8
LEVEL001
 100
AcDbLine
   6
DASHDOT
  62
3
  10
 769.55667771994
  20
 472.05590103213
  30
0.0
  11
 780.48424481744
  21
 446.31216623278
  31
0.0
   0
LINE
   5
1F3
 100
AcDbEntity
   8
LEVEL001
 100
AcDbLine
   6
DOT
  62
1
  10
 762.46921803242
  20
 452.39712626213
  30
0.0
  11
 760.27444047983
  21
 451.51037857100
  31
0.0
   0
LINE
   5
1F4
 100
AcDbEntity
   8
LEVEL001
 100
AcDbLine
   6
DOT
  62
1
  10
 762.46921803242
  20
 452.39712626213
  30
0.0
  11
 766.15123744623
  21
 450.83420174816
  31
0.0
   0
LINE
   5
1F5
 100
AcDbEntity
   8
LEVEL001
 100
AcDbLine
   6
DOT
  62
1
  10
 762.46921803244
  20
 452.39712626214
  30
0.0
  11
 762.63763296028
  21
 452.79388696833
  31
0.0
   0
LINE
   5
1F6
 100
AcDbEntity
   8
LEVEL001
 100
AcDbLine
   6
DOT
  62
1
  10
 766.15123744624
  20
 450.83420174814
  30
0.0
  11
 766.31965237410
  21
 451.23096245439
  31
0.0
   0
LINE
   5
1F7
 100
AcDbEntity
   8
LEVEL001
 100
AcDbLine
   6
DOT
  62
1
  10
 766.15123744623
  20
 450.83420174816
  30
0.0
  11
 767.11340184111
  21
 448.45276130357
  31
0.0
   0
LINE
   5
1F8
 100
AcDbEntity
   8
LEVEL001
 100
AcDbLine
   6
DOT
  62
1
  10
 776.39203386836
  20
 450.83420174821
  30
0.0
  11
 775.42986947346
  21
 448.45276130357
  31
0.0
   0
LINE
   5
1F9
 100
AcDbEntity
   8
LEVEL001
 100
AcDbLine
   6
DOT
  62
1
  10
 776.39203386836
  20
 450.83420174821
  30
0.0
  11
 780.07405328219
  21
 452.39712626211
  31
0.0
   0
LINE
   5
1FA
 100
AcDbEntity
   8
LEVEL001
 100
AcDbLine
   6
DOT
  62
1
  10
 776.39203386836
  20
 450.83420174821
  30
0.0
  11
 776.22361894051
  21
 451.23096245440
  31
0.0
   0
LINE
   5
1FB
 100
AcDbEntity
   8
LEVEL001
 100
AcDbLine
   6
DOT
  62
1
  10
 780.07405328219
  20
 452.39712626211
  30
0.0
  11
 782.26883083474
  21
 451.51037857100
  31
0.0
   0
LINE
   5
1FC
 100
AcDbEntity
   8
LEVEL001
 100
AcDbLine
   6
DOT
  62
1
  10
 780.07405328219
  20
 452.39712626211
  30
0.0
  11
 779.90563835433
  21
 452.79388696835
  31
0.0
   0
LINE
   5
1FD
 100
AcDbEntity
   8
LEVEL001
 100
AcDbLine
   6
DOT
  62
1
  10
 767.01213595673
  20
 448.25560314351
  30
0.0
  11
 767.09728198957
  21
 448.45619462644
  31
0.0
   0
LINE
   5
1FE
 100
AcDbEntity
   8
LEVEL001
 100
AcDbLine
   6
DOT
  62
1
  10
 775.53113535784
  20
 448.25560314351
  30
0.0
  11
 775.44598932500
  21
 448.45619462644
  31
0.0
   0
ARC
   5
1FF
 100
AcDbEntity
   8
LEVEL001
   6
CONTINUOUS
  62
7
 100
AcDbCircle
  10
 771.27163565728
  20
 468.01571331828
  30
0.0
  40
 20.000000000000
 100
AcDbArc
  50
 240.00000000000
  51
 300.00000000000
   0
LINE
   5
200
 100
AcDbEntity
   8
LEVEL001
 100
AcDbLine
   6
DOT
  62
1
  10
 711.27163565729
  20
 423.01571331829
  30
0.0
  11
 713.77163565729
  21
 423.01571331829
  31
0.0
   0
LINE
   5
201
 100
AcDbEntity
   8
LEVEL001
 100
AcDbLine
   6
DOT
  62
1
  10
 711.27163565729
  20
 414.01571331829
  30
0.0
  11
 713.77163565729
  21
 414.01571331829
  31
0.0
   0
LINE
   5
202
 100
AcDbEntity
   8
LEVEL001
 100
AcDbLine
   6
DOT
  62
1
  10
 713.77163565729
  20
 414.01571331829
  30
0.0
  11
 713.77163565729
  21
 423.01571331829
  31
0.0
   0
LINE
   5
203
 100
AcDbEntity
   8
LEVEL001
 100
AcDbLine
   6
DOT
  62
1
  10
 711.27163565729
  20
 411.26571331829
  30
0.0
  11
 717.27163565729
  21
 411.26571331829
  31
0.0
   0
LINE
   5
204
 100
AcDbEntity
   8
LEVEL001
 100
AcDbLine
   6
DOT
  62
1
  10
 711.27163565729
  20
 406.76571331829
  30
0.0
  11
 717.27163565729
  21
 406.76571331829
  31
0.0
   0
LINE
   5
205
 100
AcDbEntity
   8
LEVEL001
 100
AcDbLine
   6
DOT
  62
1
  10
 711.27163565729
  20
 404.01571331829
  30
0.0
  11
 716.77163565729
  21
 404.01571331829
  31
0.0
   0
POINT
   5
206
 100
AcDbEntity
   8
LEVEL001
 100
AcDbPoint
  62
1
  10
 717.27163565729
  20
 404.01571331829
  30
0.0
   0
ARC
   5
207
 100
AcDbEntity
   8
LEVEL001
   6
DOT
  62
1
 100
AcDbCircle
  10
 716.77163565729
  20
 403.51571331828
  30
0.0
  40
 0.50000000000000
 100
AcDbArc
  50
 0.40385411123351E-9
  51
 90.000000000000
   0
LINE
   5
208
 100
AcDbEntity
   8
LEVEL001
 100
AcDbLine
   6
DOT
  62
1
  10
 711.27163565729
  20
 390.51571331829
  30
0.0
  11
 716.77163565729
  21
 390.51571331829
  31
0.0
   0
ARC
   5
209
 100
AcDbEntity
   8
LEVEL001
   6
DOT
  62
1
 100
AcDbCircle
  10
 716.77163565730
  20
 391.01571331829
  30
0.0
  40
 0.50000000000000
 100
AcDbArc
  50
 269.99999999846
  51
 0.65137759878120E-11
   0
POINT
   5
20A
 100
AcDbEntity
   8
LEVEL001
 100
AcDbPoint
  62
1
  10
 717.27163565729
  20
 390.51571331829
  30
0.0
   0
LINE
   5
20B
 100
AcDbEntity
   8
LEVEL001
 100
AcDbLine
   6
DOT
  62
1
  10
 717.27163565729
  20
 391.01571331829
  30
0.0
  11
 717.27163565729
  21
 395.51571331829
  31
0.0
   0
ARC
   5
20C
 100
AcDbEntity
   8
LEVEL001
   6
DOT
  62
1
 100
AcDbCircle
  10
 716.77163565729
  20
 384.51571331829
  30
0.0
  40
 0.50000000000000
 100
AcDbArc
  50
0.0
  51
 90.000000000000
   0
POINT
   5
20D
 100
AcDbEntity
   8
LEVEL001
 100
AcDbPoint
  62
1
  10
 717.27163565729
  20
 385.01571331829
  30
0.0
   0
LINE
   5
20E
 100
AcDbEntity
   8
LEVEL001
 100
AcDbLine
   6
DOT
  62
1
  10
 711.27163565729
  20
 383.76571331829
  30
0.0
  11
 717.27163565729
  21
 383.76571331829
  31
0.0
   0
ARC
   5
20F
 100
AcDbEntity
   8
LEVEL001
   6
DOT
  62
1
 100
AcDbCircle
  10
 716.77163565729
  20
 383.51571331829
  30
0.0
  40
 0.50000000000000
 100
AcDbArc
  50
 270.00000000000
  51
 0.24335467089813E-7
   0
LINE
   5
210
 100
AcDbEntity
   8
LEVEL001
 100
AcDbLine
   6
DOT
  62
1
  10
 711.27163565729
  20
 388.26571331829
  30
0.0
  11
 717.27163565729
  21
 388.26571331829
  31
0.0
   0
LINE
   5
211
 100
AcDbEntity
   8
LEVEL001
 100
AcDbLine
   6
DOT
  62
1
  10
 711.27163565729
  20
 385.01571331829
  30
0.0
  11
 716.77163565729
  21
 385.01571331829
  31
0.0
   0
LINE
   5
212
 100
AcDbEntity
   8
LEVEL001
 100
AcDbLine
   6
DOT
  62
1
  10
 711.27163565729
  20
 383.01571331829
  30
0.0
  11
 716.77163565729
  21
 383.01571331829
  31
0.0
   0
LINE
   5
213
 100
AcDbEntity
   8
LEVEL001
 100
AcDbLine
   6
CONTINUOUS
  62
7
  10
 715.77163565729
  20
 413.51571331829
  30
0.0
  11
 715.77163565729
  21
 381.01571331829
  31
0.0
   0
LINE
   5
214
 100
AcDbEntity
   8
LEVEL001
 100
AcDbLine
   6
CONTINUOUS
  62
7
  10
 715.77163565729
  20
 413.51571331829
  30
0.0
  11
 721.27163565729
  21
 413.51571331829
  31
0.0
   0
LINE
   5
215
 100
AcDbEntity
   8
LEVEL001
 100
AcDbLine
   6
CONTINUOUS
  62
7
  10
 721.27163565729
  20
 381.01571331829
  30
0.0
  11
 721.27163565729
  21
 413.51571331829
  31
0.0
   0
LINE
   5
216
 100
AcDbEntity
   8
LEVEL001
 100
AcDbLine
   6
CONTINUOUS
  62
7
  10
 715.63527202092
  20
 381.01571331829
  30
0.0
  11
 721.27163565729
  21
 381.01571331829
  31
0.0
   0
LINE
   5
217
 100
AcDbEntity
   8
LEVEL001
 100
AcDbLine
   6
DOT
  62
1
  10
 719.57163565729
  20
 411.27307263121
  30
0.0
  11
 719.57163565729
  21
 381.01571331829
  31
0.0
   0
LINE
   5
218
 100
AcDbEntity
   8
LEVEL001
 100
AcDbLine
   6
DOT
  62
1
  10
 717.27163565729
  20
 382.41571331829
  30
0.0
  11
 719.57163565729
  21
 382.41571331829
  31
0.0
   0
LINE
   5
219
 100
AcDbEntity
   8
LEVEL001
 100
AcDbLine
   6
DOT
  62
1
  10
 717.27163565729
  20
 389.61571331829
  30
0.0
  11
 719.57163565729
  21
 389.61571331829
  31
0.0
   0
LINE
   5
21A
 100
AcDbEntity
   8
LEVEL001
 100
AcDbLine
   6
DOT
  62
1
  10
 717.27163565729
  20
 382.41571331829
  30
0.0
  11
 717.27163565729
  21
 389.61571331829
  31
0.0
   0
LINE
   5
21B
 100
AcDbEntity
   8
LEVEL001
 100
AcDbLine
   6
DOT
  62
1
  10
 715.77163565729
  20
 399.51571331829
  30
0.0
  11
 717.27163565729
  21
 399.51571331829
  31
0.0
   0
LINE
   5
21C
 100
AcDbEntity
   8
LEVEL001
 100
AcDbLine
   6
DOT
  62
1
  10
 717.27163565729
  20
 399.51571331829
  30
0.0
  11
 717.27163565729
  21
 395.51571331829
  31
0.0
   0
LINE
   5
21D
 100
AcDbEntity
   8
LEVEL001
 100
AcDbLine
   6
DOT
  62
1
  10
 717.27163565729
  20
 399.51571331829
  30
0.0
  11
 717.27163565729
  21
 403.51571331829
  31
0.0
   0
LINE
   5
21E
 100
AcDbEntity
   8
LEVEL001
 100
AcDbLine
   6
DOT
  62
1
  10
 715.77163565729
  20
 395.51571331829
  30
0.0
  11
 717.27163565729
  21
 395.51571331829
  31
0.0
   0
LINE
   5
21F
 100
AcDbEntity
   8
LEVEL001
 100
AcDbLine
   6
DOT
  62
1
  10
 717.27163565729
  20
 405.41571331829
  30
0.0
  11
 719.57163565729
  21
 405.41571331829
  31
0.0
   0
LINE
   5
220
 100
AcDbEntity
   8
LEVEL001
 100
AcDbLine
   6
DOT
  62
1
  10
 717.27163565729
  20
 412.61571331829
  30
0.0
  11
 719.88785296168
  21
 412.61571331829
  31
0.0
   0
LINE
   5
221
 100
AcDbEntity
   8
LEVEL001
 100
AcDbLine
   6
DOT
  62
1
  10
 717.27163565729
  20
 405.41571331829
  30
0.0
  11
 717.27163565729
  21
 412.61571331829
  31
0.0
   0
LINE
   5
222
 100
AcDbEntity
   8
LEVEL001
 100
AcDbLine
   6
CONTINUOUS
  62
7
  10
 720.57163565724
  20
 413.51571331829
  30
0.0
  11
 722.07163565724
  21
 415.01571331829
  31
0.0
   0
ARC
   5
223
 100
AcDbEntity
   8
LEVEL001
   6
DOT
  62
1
 100
AcDbCircle
  10
 722.57163565729
  20
 411.27307263121
  30
0.0
  40
 3.0000000000000
 100
AcDbArc
  50
 132.55609519963
  51
 179.99999999996
   0
LINE
   5
224
 100
AcDbEntity
   8
LEVEL001
 100
AcDbLine
   6
DASHDOT
  62
3
  10
 708.30926811790
  20
 409.01571331829
  30
0.0
  11
 723.36085964753
  21
 409.01571331829
  31
0.0
   0
LINE
   5
225
 100
AcDbEntity
   8
LEVEL001
 100
AcDbLine
   6
DASHDOT
  62
3
  10
 708.62276791275
  20
 397.51571331829
  30
0.0
  11
 724.09932507378
  21
 397.51571331829
  31
0.0
   0
LINE
   5
226
 100
AcDbEntity
   8
LEVEL001
 100
AcDbLine
   6
DASHDOT
  62
3
  10
 708.30926811790
  20
 386.01571331829
  30
0.0
  11
 723.02519354469
  21
 386.01571331829
  31
0.0
   0
LINE
   5
227
 100
AcDbEntity
   8
LEVEL001
 100
AcDbLine
   6
CONTINUOUS
  62
7
  10
 760.27444047983
  20
 451.51037857100
  30
0.0
  11
 767.09728198957
  21
 448.45619462644
  31
0.0
   0
LINE
   5
228
 100
AcDbEntity
   8
LEVEL001
 100
AcDbLine
   6
CONTINUOUS
  62
7
  10
 762.63763296028
  20
 452.79388696833
  30
0.0
  11
 766.31965237410
  21
 451.23096245439
  31
0.0
   0
LINE
   5
229
 100
AcDbEntity
   8
LEVEL001
 100
AcDbLine
   6
DASHDOT
  62
3
  10
 771.27163565729
  20
 495.01602718451
  30
0.0
  11
 771.27163565729
  21
 411.51459082522
  31
0.0
   0
DIMENSION
   5
22A
 100
AcDbEntity
   8
LEVEL001
   6
CONTINUOUS
  62
3
 100
AcDbDimension
   2
*D5
  10
 692.85094588575
  20
 381.01571331829
  30
0.0
  11
 692.85094588575
  21
 403.01571331829
  31
0.0
  70
0
   3
GMM002
 100
AcDbAlignedDimension
  13
 711.27163565729
  23
 425.01571331829
  33
0.0
  14
 711.27163565729
  24
 381.01571331829
  34
0.0
  50
 270.00000000000
 100
AcDbRotatedDimension
   0
DIMENSION
   5
22B
 100
AcDbEntity
   8
LEVEL001
   6
CONTINUOUS
  62
3
 100
AcDbDimension
   2
*D6
  10
 692.85094588575
  20
 468.01571331829
  30
0.0
  11
 692.85094588575
  21
 446.51571331829
  31
0.0
  70
0
   3
GMM002
 100
AcDbAlignedDimension
  13
 692.85094588575
  23
 425.01571331829
  33
0.0
  14
 745.22734572578
  24
 468.01571331829
  34
0.0
  50
 90.000000000000
 100
AcDbRotatedDimension
   0
DIMENSION
   5
22C
 100
AcDbEntity
   8
LEVEL001
   6
CONTINUOUS
  62
3
 100
AcDbDimension
   2
*D7
  10
 771.27163565729
  20
 358.75758282473
  30
0.0
  11
 741.27163565729
  21
 358.75758282473
  31
0.0
  70
0
   3
GMM002
 100
AcDbAlignedDimension
  13
 711.27163565729
  23
 381.01571331829
  33
0.0
  14
 771.27163565729
  24
 411.51459082522
  34
0.0
 100
AcDbRotatedDimension
   0
LINE
   5
22D
 100
AcDbEntity
   8
LEVEL001
 100
AcDbLine
   6
CONTINUOUS
  62
7
  10
 568.92448153165
  20
 300.30397746460
  30
0.0
  11
 576.92448153165
  21
 300.30397746460
  31
0.0
   0
ARC
   5
22E
 100
AcDbEntity
   8
LEVEL001
   6
CONTINUOUS
  62
7
 100
AcDbCircle
  10
 568.92448153165
  20
 301.30397746462
  30
0.0
  40
 1.0000000000000
 100
AcDbArc
  50
 180.00000000090
  51
 270.00000000000
   0
POINT
   5
22F
 100
AcDbEntity
   8
LEVEL001
 100
AcDbPoint
  62
7
  10
 567.92448153165
  20
 300.30397746460
  30
0.0
   0
LINE
   5
230
 100
AcDbEntity
   8
LEVEL001
 100
AcDbLine
   6
CONTINUOUS
  62
7
  10
 567.92448153165
  20
 301.30397746460
  30
0.0
  11
 567.92448153165
  21
 323.30397746460
  31
0.0
   0
ARC
   5
231
 100
AcDbEntity
   8
LEVEL001
   6
CONTINUOUS
  62
7
 100
AcDbCircle
  10
 568.92448153164
  20
 323.30397746460
  30
0.0
  40
 1.0000000000000
 100
AcDbArc
  50
 89.999999999362
  51
 180.00000000000
   0
POINT
   5
232
 100
AcDbEntity
   8
LEVEL001
 100
AcDbPoint
  62
7
  10
 567.92448153165
  20
 324.30397746460
  30
0.0
   0
LINE
   5
233
 100
AcDbEntity
   8
LEVEL001
 100
AcDbLine
   6
CONTINUOUS
  62
7
  10
 568.92448153165
  20
 324.30397746460
  30
0.0
  11
 608.92448153165
  21
 324.30397746460
  31
0.0
   0
LINE
   5
234
 100
AcDbEntity
   8
LEVEL001
 100
AcDbLine
   6
CONTINUOUS
  62
7
  10
 588.92448153165
  20
 252.30397746460
  30
0.0
  11
 576.92448153165
  21
 252.30397746460
  31
0.0
   0
LINE
   5
235
 100
AcDbEntity
   8
LEVEL001
 100
AcDbLine
   6
CONTINUOUS
  62
7
  10
 600.92448153165
  20
 252.30397746460
  30
0.0
  11
 588.92448153165
  21
 252.30397746460
  31
0.0
   0
LINE
   5
236
 100
AcDbEntity
   8
LEVEL001
 100
AcDbLine
   6
CONTINUOUS
  62
7
  10
 588.92448153165
  20
 307.30397746460
  30
0.0
  11
 576.92448153165
  21
 307.30397746460
  31
0.0
   0
LINE
   5
237
 100
AcDbEntity
   8
LEVEL001
 100
AcDbLine
   6
CONTINUOUS
  62
7
  10
 600.92448153165
  20
 307.30397746460
  30
0.0
  11
 588.92448153165
  21
 307.30397746460
  31
0.0
   0
LINE
   5
238
 100
AcDbEntity
   8
LEVEL001
 100
AcDbLine
   6
CONTINUOUS
  62
7
  10
 588.92448153165
  20
 315.30397746460
  30
0.0
  11
 577.92448153165
  21
 315.30397746460
  31
0.0
   0
LINE
   5
239
 100
AcDbEntity
   8
LEVEL001
 100
AcDbLine
   6
CONTINUOUS
  62
7
  10
 600.92448153165
  20
 256.80397746460
  30
0.0
  11
 599.72448153165
  21
 256.80397746460
  31
0.0
   0
LINE
   5
23A
 100
AcDbEntity
   8
LEVEL001
 100
AcDbLine
   6
CONTINUOUS
  62
7
  10
 609.92448153165
  20
 301.30397746460
  30
0.0
  11
 609.92448153165
  21
 323.30397746460
  31
0.0
   0
ARC
   5
23B
 100
AcDbEntity
   8
LEVEL001
   6
CONTINUOUS
  62
7
 100
AcDbCircle
  10
 608.92448153164
  20
 301.30397746460
  30
0.0
  40
 1.0000000000000
 100
AcDbArc
  50
 270.00000000064
  51
0.0
   0
POINT
   5
23C
 100
AcDbEntity
   8
LEVEL001
 100
AcDbPoint
  62
7
  10
 609.92448153165
  20
 300.30397746460
  30
0.0
   0
LINE
   5
23D
 100
AcDbEntity
   8
LEVEL001
 100
AcDbLine
   6
CONTINUOUS
  62
7
  10
 600.92448153165
  20
 300.30397746460
  30
0.0
  11
 608.92448153165
  21
 300.30397746460
  31
0.0
   0
ARC
   5
23E
 100
AcDbEntity
   8
LEVEL001
   6
CONTINUOUS
  62
7
 100
AcDbCircle
  10
 577.72448153164
  20
 314.50397746460
  30
0.0
  40
 0.80000000000000
 100
AcDbArc
  50
 89.999999999365
  51
 180.00000000000
   0
POINT
   5
23F
 100
AcDbEntity
   8
LEVEL001
 100
AcDbPoint
  62
7
  10
 576.92448153165
  20
 315.30397746460
  30
0.0
   0
LINE
   5
240
 100
AcDbEntity
   8
LEVEL001
 100
AcDbLine
   6
CONTINUOUS
  62
7
  10
 588.92448153165
  20
 315.30397746460
  30
0.0
  11
 577.72448153165
  21
 315.30397746460
  31
0.0
   0
ARC
   5
241
 100
AcDbEntity
   8
LEVEL001
   6
CONTINUOUS
  62
7
 100
AcDbCircle
  10
 600.12448153164
  20
 314.50397746460
  30
0.0
  40
 0.80000000000000
 100
AcDbArc
  50
0.0
  51
 89.999999999487
   0
POINT
   5
242
 100
AcDbEntity
   8
LEVEL001
 100
AcDbPoint
  62
7
  10
 600.92448153165
  20
 315.30397746460
  30
0.0
   0
LINE
   5
243
 100
AcDbEntity
   8
LEVEL001
 100
AcDbLine
   6
CONTINUOUS
  62
7
  10
 600.12448153165
  20
 315.30397746460
  30
0.0
  11
 588.92448153165
  21
 315.30397746460
  31
0.0
   0
LINE
   5
244
 100
AcDbEntity
   8
LEVEL001
 100
AcDbLine
   6
DASHDOT
  62
3
  10
 582.17448153165
  20
 249.02016777985
  30
0.0
  11
 582.17448153165
  21
 263.87660748964
  31
0.0
   0
LINE
   5
245
 100
AcDbEntity
   8
LEVEL001
 100
AcDbLine
   6
DOT
  62
1
  10
 579.92448153165
  20
 252.30397746460
  30
0.0
  11
 579.92448153165
  21
 258.30397746460
  31
0.0
   0
LINE
   5
246
 100
AcDbEntity
   8
LEVEL001
 100
AcDbLine
   6
DOT
  62
1
  10
 584.42448153165
  20
 252.30397746460
  30
0.0
  11
 584.42448153165
  21
 258.30397746460
  31
0.0
   0
LINE
   5
247
 100
AcDbEntity
   8
LEVEL001
 100
AcDbLine
   6
DOT
  62
1
  10
 578.42448153165
  20
 256.80397746460
  30
0.0
  11
 578.42448153165
  21
 258.30397746460
  31
0.0
   0
LINE
   5
248
 100
AcDbEntity
   8
LEVEL001
 100
AcDbLine
   6
DOT
  62
1
  10
 578.42448153165
  20
 256.80397746460
  30
0.0
  11
 578.12448153165
  21
 256.80397746460
  31
0.0
   0
LINE
   5
249
 100
AcDbEntity
   8
LEVEL001
 100
AcDbLine
   6
CONTINUOUS
  62
7
  10
 578.12448153165
  20
 256.80397746460
  30
0.0
  11
 576.92448153165
  21
 256.80397746460
  31
0.0
   0
LINE
   5
24A
 100
AcDbEntity
   8
LEVEL001
 100
AcDbLine
   6
DOT
  62
1
  10
 585.77448153165
  20
 258.30397746460
  30
0.0
  11
 578.12448153165
  21
 258.30397746460
  31
0.0
   0
LINE
   5
24B
 100
AcDbEntity
   8
LEVEL001
 100
AcDbLine
   6
DOT
  62
1
  10
 585.77448153165
  20
 258.30397746460
  30
0.0
  11
 585.77448153165
  21
 260.60397746460
  31
0.0
   0
LINE
   5
24C
 100
AcDbEntity
   8
LEVEL001
 100
AcDbLine
   6
DOT
  62
1
  10
 597.92448153165
  20
 252.30397746460
  30
0.0
  11
 597.92448153165
  21
 258.30397746460
  31
0.0
   0
LINE
   5
24D
 100
AcDbEntity
   8
LEVEL001
 100
AcDbLine
   6
DOT
  62
1
  10
 592.07448153165
  20
 258.30397746460
  30
0.0
  11
 599.72448153165
  21
 258.30397746460
  31
0.0
   0
LINE
   5
24E
 100
AcDbEntity
   8
LEVEL001
 100
AcDbLine
   6
DOT
  62
1
  10
 599.42448153165
  20
 256.80397746460
  30
0.0
  11
 599.42448153165
  21
 258.30397746460
  31
0.0
   0
LINE
   5
24F
 100
AcDbEntity
   8
LEVEL001
 100
AcDbLine
   6
DOT
  62
1
  10
 599.42448153165
  20
 256.80397746460
  30
0.0
  11
 599.72448153165
  21
 256.80397746460
  31
0.0
   0
LINE
   5
250
 100
AcDbEntity
   8
LEVEL001
 100
AcDbLine
   6
DOT
  62
1
  10
 593.42448153165
  20
 252.30397746460
  30
0.0
  11
 593.42448153165
  21
 258.30397746460
  31
0.0
   0
LINE
   5
251
 100
AcDbEntity
   8
LEVEL001
 100
AcDbLine
   6
DOT
  62
1
  10
 592.07448153165
  20
 258.30397746460
  30
0.0
  11
 592.07448153165
  21
 260.60397746460
  31
0.0
   0
LINE
   5
252
 100
AcDbEntity
   8
LEVEL001
 100
AcDbLine
   6
DASHDOT
  62
3
  10
 605.42448153165
  20
 296.96998383611
  30
0.0
  11
 605.42448153165
  21
 310.90119870257
  31
0.0
   0
LINE
   5
253
 100
AcDbEntity
   8
LEVEL001
 100
AcDbLine
   6
DOT
  62
1
  10
 588.92448153165
  20
 300.30397746460
  30
0.0
  11
 576.92448153165
  21
 300.30397746460
  31
0.0
   0
ARC
   5
254
 100
AcDbEntity
   8
LEVEL001
   6
DOT
  62
1
 100
AcDbCircle
  10
 577.72448153165
  20
 310.10397746461
  30
0.0
  40
 0.80000000000000
 100
AcDbArc
  50
 180.00000000051
  51
 270.00000000000
   0
POINT
   5
255
 100
AcDbEntity
   8
LEVEL001
 100
AcDbPoint
  62
1
  10
 576.92448153165
  20
 309.30397746460
  30
0.0
   0
LINE
   5
256
 100
AcDbEntity
   8
LEVEL001
 100
AcDbLine
   6
DOT
  62
1
  10
 588.92448153165
  20
 309.30397746460
  30
0.0
  11
 577.72448153165
  21
 309.30397746460
  31
0.0
   0
LINE
   5
257
 100
AcDbEntity
   8
LEVEL001
 100
AcDbLine
   6
DOT
  62
1
  10
 600.92448153165
  20
 300.30397746460
  30
0.0
  11
 588.92448153165
  21
 300.30397746460
  31
0.0
   0
LINE
   5
258
 100
AcDbEntity
   8
LEVEL001
 100
AcDbLine
   6
DOT
  62
1
  10
 600.12448153165
  20
 309.30397746460
  30
0.0
  11
 588.92448153165
  21
 309.30397746460
  31
0.0
   0
ARC
   5
259
 100
AcDbEntity
   8
LEVEL001
   6
DOT
  62
1
 100
AcDbCircle
  10
 600.12448153165
  20
 310.10397746459
  30
0.0
  40
 0.80000000000000
 100
AcDbArc
  50
 269.99999999999
  51
 0.63916426878694E-9
   0
POINT
   5
25A
 100
AcDbEntity
   8
LEVEL001
 100
AcDbPoint
  62
1
  10
 600.92448153165
  20
 309.30397746460
  30
0.0
   0
LINE
   5
25B
 100
AcDbEntity
   8
LEVEL001
 100
AcDbLine
   6
CONTINUOUS
  62
7
  10
 576.92448153165
  20
 252.30397746460
  30
0.0
  11
 576.92448153165
  21
 314.50397746460
  31
0.0
   0
LINE
   5
25C
 100
AcDbEntity
   8
LEVEL001
 100
AcDbLine
   6
CONTINUOUS
  62
7
  10
 600.92448153165
  20
 252.30397746460
  30
0.0
  11
 600.92448153165
  21
 314.50397746460
  31
0.0
   0
ARC
   5
25D
 100
AcDbEntity
   8
LEVEL001
   6
CONTINUOUS
  62
7
 100
AcDbCircle
  10
 608.92448153163
  20
 323.30397746460
  30
0.0
  40
 1.0000000000000
 100
AcDbArc
  50
0.0
  51
 89.999999999101
   0
POINT
   5
25E
 100
AcDbEntity
   8
LEVEL001
 100
AcDbPoint
  62
7
  10
 609.92448153165
  20
 324.30397746460
  30
0.0
   0
LINE
   5
25F
 100
AcDbEntity
   8
LEVEL001
 100
AcDbLine
   6
DASHDOT
  62
3
  10
 595.67448153165
  20
 249.02016777985
  30
0.0
  11
 595.67448153165
  21
 263.87660748964
  31
0.0
   0
LINE
   5
260
 100
AcDbEntity
   8
LEVEL001
 100
AcDbLine
   6
CONTINUOUS
  62
7
  10
 599.92448153165
  20
 256.90397746460
  30
0.0
  11
 600.92448153165
  21
 256.90397746460
  31
0.0
   0
LINE
   5
261
 100
AcDbEntity
   8
LEVEL001
 100
AcDbLine
   6
CONTINUOUS
  62
7
  10
 599.92448153165
  20
 258.20397746460
  30
0.0
  11
 599.92448153165
  21
 260.80397746460
  31
0.0
   0
LINE
   5
262
 100
AcDbEntity
   8
LEVEL001
 100
AcDbLine
   6
CONTINUOUS
  62
7
  10
 599.92448153165
  20
 260.80397746460
  30
0.0
  11
 577.92448153165
  21
 260.80397746460
  31
0.0
   0
LINE
   5
263
 100
AcDbEntity
   8
LEVEL001
 100
AcDbLine
   6
CONTINUOUS
  62
7
  10
 577.92448153165
  20
 258.20397746460
  30
0.0
  11
 577.92448153165
  21
 260.80397746460
  31
0.0
   0
LINE
   5
264
 100
AcDbEntity
   8
LEVEL001
 100
AcDbLine
   6
CONTINUOUS
  62
7
  10
 577.92448153165
  20
 256.90397746460
  30
0.0
  11
 576.92448153165
  21
 256.90397746460
  31
0.0
   0
LINE
   5
265
 100
AcDbEntity
   8
LEVEL001
 100
AcDbLine
   6
CONTINUOUS
  62
7
  10
 599.72448153165
  20
 256.80397746460
  30
0.0
  11
 599.72448153165
  21
 260.10397746460
  31
0.0
   0
ARC
   5
266
 100
AcDbEntity
   8
LEVEL001
   6
CONTINUOUS
  62
7
 100
AcDbCircle
  10
 599.22448153165
  20
 260.10397746460
  30
0.0
  40
 0.50000000000000
 100
AcDbArc
  50
0.0
  51
 90.000000000703
   0
POINT
   5
267
 100
AcDbEntity
   8
LEVEL001
 100
AcDbPoint
  62
7
  10
 599.72448153165
  20
 260.60397746460
  30
0.0
   0
LINE
   5
268
 100
AcDbEntity
   8
LEVEL001
 100
AcDbLine
   6
CONTINUOUS
  62
7
  10
 578.12448153165
  20
 256.80397746460
  30
0.0
  11
 578.12448153165
  21
 260.10397746460
  31
0.0
   0
ARC
   5
269
 100
AcDbEntity
   8
LEVEL001
   6
CONTINUOUS
  62
7
 100
AcDbCircle
  10
 578.62448153167
  20
 260.10397746460
  30
0.0
  40
 0.50000000000000
 100
AcDbArc
  50
 90.000000002892
  51
 180.00000000000
   0
POINT
   5
26A
 100
AcDbEntity
   8
LEVEL001
 100
AcDbPoint
  62
7
  10
 578.12448153165
  20
 260.60397746460
  30
0.0
   0
LINE
   5
26B
 100
AcDbEntity
   8
LEVEL001
 100
AcDbLine
   6
CONTINUOUS
  62
7
  10
 578.62448153165
  20
 260.60397746460
  30
0.0
  11
 599.22448153165
  21
 260.60397746460
  31
0.0
   0
ARC
   5
26C
 100
AcDbEntity
   8
LEVEL001
   6
CONTINUOUS
  62
7
 100
AcDbCircle
  10
 577.92448153167
  20
 257.30397746461
  30
0.0
  40
 0.40000000000000
 100
AcDbArc
  50
 269.99999999746
  51
 299.99999999705
   0
ARC
   5
26D
 100
AcDbEntity
   8
LEVEL001
   6
CONTINUOUS
  62
7
 100
AcDbCircle
  10
 577.92448153167
  20
 257.80397746460
  30
0.0
  40
 0.40000000000000
 100
AcDbArc
  50
 60.000000002758
  51
 90.000000002980
   0
LINE
   5
26E
 100
AcDbEntity
   8
LEVEL001
 100
AcDbLine
   6
DOT
  62
15
  10
 578.32448153165
  20
 257.30397746460
  30
0.0
  11
 578.32448153165
  21
 257.80397746460
  31
0.0
   0
ARC
   5
26F
 100
AcDbEntity
   8
LEVEL001
   6
DOT
  62
15
 100
AcDbCircle
  10
 577.92448153165
  20
 257.30397746461
  30
0.0
  40
 0.40000000000000
 100
AcDbArc
  50
 299.99999999971
  51
0.0
   0
ARC
   5
270
 100
AcDbEntity
   8
LEVEL001
   6
DOT
  62
15
 100
AcDbCircle
  10
 577.92448153166
  20
 257.80397746460
  30
0.0
  40
 0.40000000000000
 100
AcDbArc
  50
 0.47224875911527E-9
  51
 60.000000001626
   0
ARC
   5
271
 100
AcDbEntity
   8
LEVEL001
   6
CONTINUOUS
  62
7
 100
AcDbCircle
  10
 599.92448153165
  20
 257.30397746460
  30
0.0
  40
 0.40000000000000
 100
AcDbArc
  50
 240.00000000044
  51
 270.00000000036
   0
ARC
   5
272
 100
AcDbEntity
   8
LEVEL001
   6
CONTINUOUS
  62
7
 100
AcDbCircle
  10
 599.92448153164
  20
 257.80397746460
  30
0.0
  40
 0.40000000000000
 100
AcDbArc
  50
 89.999999999528
  51
 119.99999999940
   0
LINE
   5
273
 100
AcDbEntity
   8
LEVEL001
 100
AcDbLine
   6
DOT
  62
15
  10
 599.52448153165
  20
 257.30397746460
  30
0.0
  11
 599.52448153165
  21
 257.80397746460
  31
0.0
   0
ARC
   5
274
 100
AcDbEntity
   8
LEVEL001
   6
DOT
  62
15
 100
AcDbCircle
  10
 599.92448153165
  20
 257.30397746462
  30
0.0
  40
 0.40000000000000
 100
AcDbArc
  50
 180.00000000254
  51
 240.00000000131
   0
ARC
   5
275
 100
AcDbEntity
   8
LEVEL001
   6
DOT
  62
15
 100
AcDbCircle
  10
 599.92448153163
  20
 257.80397746459
  30
0.0
  40
 0.40000000000000
 100
AcDbArc
  50
 119.99999999635
  51
 179.99999999852
   0
ELLIPSE
   5
276
 100
AcDbEntity
   8
LEVEL001
   6
CONTINUOUS
  62
7
 100
AcDbEllipse
  10
 605.42448153165
  20
 305.34255983976
  30
0.0
  11
 2.2500000000000
  21
0.0
  31
0.0
  40
 0.81822222222223
  41
0.0
  42
 6.2831853071796
   0
ELLIPSE
   5
277
 100
AcDbEntity
   8
LEVEL001
   6
CONTINUOUS
  62
7
 100
AcDbEllipse
  10
 605.42448153165
  20
 304.72065314208
  30
0.0
  11
 4.0000000000000
  21
0.0
  31
0.0
  40
 0.85346771373719
  41
0.0
  42
 6.2831853071796
   0
LINE
   5
278
 100
AcDbEntity
   8
LEVEL001
 100
AcDbLine
   6
DASHDOT
  62
3
  10
 572.42448153165
  20
 327.63797109309
  30
0.0
  11
 572.42448153165
  21
 313.70675622663
  31
0.0
   0
ELLIPSE
   5
279
 100
AcDbEntity
   8
LEVEL001
   6
CONTINUOUS
  62
7
 100
AcDbEllipse
  10
 572.42448153165
  20
 319.26539508944
  30
0.0
  11
-2.2500000000000
  21
0.0
  31
0.0
  40
 0.81822222222223
  41
0.0
  42
 6.2831853071796
   0
ELLIPSE
   5
27A
 100
AcDbEntity
   8
LEVEL001
   6
CONTINUOUS
  62
7
 100
AcDbEllipse
  10
 572.42448153165
  20
 319.88730178713
  30
0.0
  11
-4.0000000000000
  21
0.0
  31
0.0
  40
 0.85346771373719
  41
0.0
  42
 6.2831853071796
   0
LINE
   5
27B
 100
AcDbEntity
   8
LEVEL001
 100
AcDbLine
   6
CONTINUOUS
  62
7
  10
 600.92448153165
  20
 262.30397746460
  30
0.0
  11
 576.92448153165
  21
 262.30397746460
  31
0.0
   0
LINE
   5
27C
 100
AcDbEntity
   8
LEVEL001
 100
AcDbLine
   6
CONTINUOUS
  62
15
  10
 600.92448153165
  20
 264.80397746455
  30
0.0
  11
 576.92448153165
  21
 264.80397746455
  31
0.0
   0
LINE
   5
27D
 100
AcDbEntity
   8
LEVEL001
 100
AcDbLine
   6
CONTINUOUS
  62
7
  10
 118.92448153165
  20
 300.30397746460
  30
0.0
  11
 126.92448153165
  21
 300.30397746460
  31
0.0
   0
ARC
   5
27E
 100
AcDbEntity
   8
LEVEL001
   6
CONTINUOUS
  62
7
 100
AcDbCircle
  10
 118.92448153165
  20
 301.30397746460
  30
0.0
  40
 1.0000000000000
 100
AcDbArc
  50
 180.00000000006
  51
 270.00000000000
   0
POINT
   5
27F
 100
AcDbEntity
   8
LEVEL001
 100
AcDbPoint
  62
7
  10
 117.92448153165
  20
 300.30397746460
  30
0.0
   0
LINE
   5
280
 100
AcDbEntity
   8
LEVEL001
 100
AcDbLine
   6
CONTINUOUS
  62
7
  10
 117.92448153165
  20
 301.30397746460
  30
0.0
  11
 117.92448153165
  21
 323.30397746460
  31
0.0
   0
ARC
   5
281
 100
AcDbEntity
   8
LEVEL001
   6
CONTINUOUS
  62
7
 100
AcDbCircle
  10
 118.92448153165
  20
 323.30397746460
  30
0.0
  40
 1.0000000000000
 100
AcDbArc
  50
 90.000000000202
  51
 180.00000000000
   0
POINT
   5
282
 100
AcDbEntity
   8
LEVEL001
 100
AcDbPoint
  62
7
  10
 117.92448153165
  20
 324.30397746460
  30
0.0
   0
LINE
   5
283
 100
AcDbEntity
   8
LEVEL001
 100
AcDbLine
   6
CONTINUOUS
  62
7
  10
 118.92448153165
  20
 324.30397746460
  30
0.0
  11
 158.92448153165
  21
 324.30397746460
  31
0.0
   0
LINE
   5
284
 100
AcDbEntity
   8
LEVEL001
 100
AcDbLine
   6
CONTINUOUS
  62
7
  10
 138.92448153165
  20
 252.30397746460
  30
0.0
  11
 126.92448153165
  21
 252.30397746460
  31
0.0
   0
LINE
   5
285
 100
AcDbEntity
   8
LEVEL001
 100
AcDbLine
   6
CONTINUOUS
  62
7
  10
 150.92448153165
  20
 252.30397746460
  30
0.0
  11
 138.92448153165
  21
 252.30397746460
  31
0.0
   0
LINE
   5
286
 100
AcDbEntity
   8
LEVEL001
 100
AcDbLine
   6
CONTINUOUS
  62
7
  10
 138.92448153165
  20
 307.30397746460
  30
0.0
  11
 126.92448153165
  21
 307.30397746460
  31
0.0
   0
LINE
   5
287
 100
AcDbEntity
   8
LEVEL001
 100
AcDbLine
   6
CONTINUOUS
  62
7
  10
 150.92448153165
  20
 307.30397746460
  30
0.0
  11
 138.92448153165
  21
 307.30397746460
  31
0.0
   0
LINE
   5
288
 100
AcDbEntity
   8
LEVEL001
 100
AcDbLine
   6
CONTINUOUS
  62
7
  10
 138.92448153165
  20
 315.30397746460
  30
0.0
  11
 127.92448153165
  21
 315.30397746460
  31
0.0
   0
LINE
   5
289
 100
AcDbEntity
   8
LEVEL001
 100
AcDbLine
   6
CONTINUOUS
  62
7
  10
 150.92448153165
  20
 256.80397746460
  30
0.0
  11
 149.72448153165
  21
 256.80397746460
  31
0.0
   0
LINE
   5
28A
 100
AcDbEntity
   8
LEVEL001
 100
AcDbLine
   6
CONTINUOUS
  62
7
  10
 159.92448153165
  20
 301.30397746460
  30
0.0
  11
 159.92448153165
  21
 323.30397746460
  31
0.0
   0
ARC
   5
28B
 100
AcDbEntity
   8
LEVEL001
   6
CONTINUOUS
  62
7
 100
AcDbCircle
  10
 158.92448153165
  20
 301.30397746460
  30
0.0
  40
 1.0000000000000
 100
AcDbArc
  50
 269.99999999980
  51
0.0
   0
POINT
   5
28C
 100
AcDbEntity
   8
LEVEL001
 100
AcDbPoint
  62
7
  10
 159.92448153165
  20
 300.30397746460
  30
0.0
   0
LINE
   5
28D
 100
AcDbEntity
   8
LEVEL001
 100
AcDbLine
   6
CONTINUOUS
  62
7
  10
 150.92448153165
  20
 300.30397746460
  30
0.0
  11
 158.92448153165
  21
 300.30397746460
  31
0.0
   0
ARC
   5
28E
 100
AcDbEntity
   8
LEVEL001
   6
CONTINUOUS
  62
7
 100
AcDbCircle
  10
 127.72448153164
  20
 314.50397746460
  30
0.0
  40
 0.80000000000000
 100
AcDbArc
  50
 89.999999999500
  51
 180.00000000000
   0
POINT
   5
28F
 100
AcDbEntity
   8
LEVEL001
 100
AcDbPoint
  62
7
  10
 126.92448153165
  20
 315.30397746460
  30
0.0
   0
LINE
   5
290
 100
AcDbEntity
   8
LEVEL001
 100
AcDbLine
   6
CONTINUOUS
  62
7
  10
 138.92448153165
  20
 315.30397746460
  30
0.0
  11
 127.72448153165
  21
 315.30397746460
  31
0.0
   0
ARC
   5
291
 100
AcDbEntity
   8
LEVEL001
   6
CONTINUOUS
  62
7
 100
AcDbCircle
  10
 150.12448153165
  20
 314.50397746460
  30
0.0
  40
 0.80000000000000
 100
AcDbArc
  50
0.0
  51
 90.000000000293
   0
POINT
   5
292
 100
AcDbEntity
   8
LEVEL001
 100
AcDbPoint
  62
7
  10
 150.92448153165
  20
 315.30397746460
  30
0.0
   0
LINE
   5
293
 100
AcDbEntity
   8
LEVEL001
 100
AcDbLine
   6
CONTINUOUS
  62
7
  10
 150.12448153165
  20
 315.30397746460
  30
0.0
  11
 138.92448153165
  21
 315.30397746460
  31
0.0
   0
LINE
   5
294
 100
AcDbEntity
   8
LEVEL001
 100
AcDbLine
   6
DASHDOT
  62
3
  10
 132.17448153165
  20
 249.02016777985
  30
0.0
  11
 132.17448153165
  21
 263.87660748964
  31
0.0
   0
LINE
   5
295
 100
AcDbEntity
   8
LEVEL001
 100
AcDbLine
   6
DOT
  62
1
  10
 129.92448153165
  20
 252.30397746460
  30
0.0
  11
 129.92448153165
  21
 258.30397746460
  31
0.0
   0
LINE
   5
296
 100
AcDbEntity
   8
LEVEL001
 100
AcDbLine
   6
DOT
  62
1
  10
 134.42448153165
  20
 252.30397746460
  30
0.0
  11
 134.42448153165
  21
 258.30397746460
  31
0.0
   0
LINE
   5
297
 100
AcDbEntity
   8
LEVEL001
 100
AcDbLine
   6
DOT
  62
1
  10
 128.42448153165
  20
 256.80397746460
  30
0.0
  11
 128.42448153165
  21
 258.30397746460
  31
0.0
   0
LINE
   5
298
 100
AcDbEntity
   8
LEVEL001
 100
AcDbLine
   6
DOT
  62
1
  10
 128.42448153165
  20
 256.80397746460
  30
0.0
  11
 128.12448153165
  21
 256.80397746460
  31
0.0
   0
LINE
   5
299
 100
AcDbEntity
   8
LEVEL001
 100
AcDbLine
   6
CONTINUOUS
  62
7
  10
 128.12448153165
  20
 256.80397746460
  30
0.0
  11
 126.92448153165
  21
 256.80397746460
  31
0.0
   0
LINE
   5
29A
 100
AcDbEntity
   8
LEVEL001
 100
AcDbLine
   6
DOT
  62
1
  10
 135.77448153165
  20
 258.30397746460
  30
0.0
  11
 128.12448153165
  21
 258.30397746460
  31
0.0
   0
LINE
   5
29B
 100
AcDbEntity
   8
LEVEL001
 100
AcDbLine
   6
DOT
  62
1
  10
 135.77448153165
  20
 258.30397746460
  30
0.0
  11
 135.77448153165
  21
 260.60397746460
  31
0.0
   0
LINE
   5
29C
 100
AcDbEntity
   8
LEVEL001
 100
AcDbLine
   6
DOT
  62
1
  10
 147.92448153165
  20
 252.30397746460
  30
0.0
  11
 147.92448153165
  21
 258.30397746460
  31
0.0
   0
LINE
   5
29D
 100
AcDbEntity
   8
LEVEL001
 100
AcDbLine
   6
DOT
  62
1
  10
 142.07448153165
  20
 258.30397746460
  30
0.0
  11
 149.72448153165
  21
 258.30397746460
  31
0.0
   0
LINE
   5
29E
 100
AcDbEntity
   8
LEVEL001
 100
AcDbLine
   6
DOT
  62
1
  10
 149.42448153165
  20
 256.80397746460
  30
0.0
  11
 149.42448153165
  21
 258.30397746460
  31
0.0
   0
LINE
   5
29F
 100
AcDbEntity
   8
LEVEL001
 100
AcDbLine
   6
DOT
  62
1
  10
 149.42448153165
  20
 256.80397746460
  30
0.0
  11
 149.72448153165
  21
 256.80397746460
  31
0.0
   0
LINE
   5
2A0
 100
AcDbEntity
   8
LEVEL001
 100
AcDbLine
   6
DOT
  62
1
  10
 143.42448153165
  20
 252.30397746460
  30
0.0
  11
 143.42448153165
  21
 258.30397746460
  31
0.0
   0
LINE
   5
2A1
 100
AcDbEntity
   8
LEVEL001
 100
AcDbLine
   6
DOT
  62
1
  10
 142.07448153165
  20
 258.30397746460
  30
0.0
  11
 142.07448153165
  21
 260.60397746460
  31
0.0
   0
LINE
   5
2A2
 100
AcDbEntity
   8
LEVEL001
 100
AcDbLine
   6
DASHDOT
  62
3
  10
 155.42448153165
  20
 296.96998383611
  30
0.0
  11
 155.42448153165
  21
 310.90119870257
  31
0.0
   0
LINE
   5
2A3
 100
AcDbEntity
   8
LEVEL001
 100
AcDbLine
   6
DOT
  62
1
  10
 138.92448153165
  20
 300.30397746460
  30
0.0
  11
 126.92448153165
  21
 300.30397746460
  31
0.0
   0
ARC
   5
2A4
 100
AcDbEntity
   8
LEVEL001
   6
DOT
  62
1
 100
AcDbCircle
  10
 127.72448153165
  20
 310.10397746461
  30
0.0
  40
 0.80000000000000
 100
AcDbArc
  50
 180.00000000038
  51
 270.00000000000
   0
POINT
   5
2A5
 100
AcDbEntity
   8
LEVEL001
 100
AcDbPoint
  62
1
  10
 126.92448153165
  20
 309.30397746460
  30
0.0
   0
LINE
   5
2A6
 100
AcDbEntity
   8
LEVEL001
 100
AcDbLine
   6
DOT
  62
1
  10
 138.92448153165
  20
 309.30397746460
  30
0.0
  11
 127.72448153165
  21
 309.30397746460
  31
0.0
   0
LINE
   5
2A7
 100
AcDbEntity
   8
LEVEL001
 100
AcDbLine
   6
DOT
  62
1
  10
 150.92448153165
  20
 300.30397746460
  30
0.0
  11
 138.92448153165
  21
 300.30397746460
  31
0.0
   0
LINE
   5
2A8
 100
AcDbEntity
   8
LEVEL001
 100
AcDbLine
   6
DOT
  62
1
  10
 150.12448153165
  20
 309.30397746460
  30
0.0
  11
 138.92448153165
  21
 309.30397746460
  31
0.0
   0
ARC
   5
2A9
 100
AcDbEntity
   8
LEVEL001
   6
DOT
  62
1
 100
AcDbCircle
  10
 150.12448153165
  20
 310.10397746461
  30
0.0
  40
 0.80000000000000
 100
AcDbArc
  50
 270.00000000000
  51
0.0
   0
POINT
   5
2AA
 100
AcDbEntity
   8
LEVEL001
 100
AcDbPoint
  62
1
  10
 150.92448153165
  20
 309.30397746460
  30
0.0
   0
LINE
   5
2AB
 100
AcDbEntity
   8
LEVEL001
 100
AcDbLine
   6
CONTINUOUS
  62
7
  10
 126.92448153165
  20
 252.30397746460
  30
0.0
  11
 126.92448153165
  21
 314.50397746460
  31
0.0
   0
LINE
   5
2AC
 100
AcDbEntity
   8
LEVEL001
 100
AcDbLine
   6
CONTINUOUS
  62
7
  10
 150.92448153165
  20
 252.30397746460
  30
0.0
  11
 150.92448153165
  21
 314.50397746460
  31
0.0
   0
ARC
   5
2AD
 100
AcDbEntity
   8
LEVEL001
   6
CONTINUOUS
  62
7
 100
AcDbCircle
  10
 158.92448153165
  20
 323.30397746460
  30
0.0
  40
 1.0000000000000
 100
AcDbArc
  50
0.0
  51
 89.999999999941
   0
POINT
   5
2AE
 100
AcDbEntity
   8
LEVEL001
 100
AcDbPoint
  62
7
  10
 159.92448153165
  20
 324.30397746460
  30
0.0
   0
LINE
   5
2AF
 100
AcDbEntity
   8
LEVEL001
 100
AcDbLine
   6
DASHDOT
  62
3
  10
 145.67448153165
  20
 249.02016777985
  30
0.0
  11
 145.67448153165
  21
 263.87660748964
  31
0.0
   0
LINE
   5
2B0
 100
AcDbEntity
   8
LEVEL001
 100
AcDbLine
   6
CONTINUOUS
  62
7
  10
 149.92448153165
  20
 256.90397746460
  30
0.0
  11
 150.92448153165
  21
 256.90397746460
  31
0.0
   0
LINE
   5
2B1
 100
AcDbEntity
   8
LEVEL001
 100
AcDbLine
   6
CONTINUOUS
  62
7
  10
 149.92448153165
  20
 258.20397746460
  30
0.0
  11
 149.92448153165
  21
 260.80397746460
  31
0.0
   0
LINE
   5
2B2
 100
AcDbEntity
   8
LEVEL001
 100
AcDbLine
   6
CONTINUOUS
  62
7
  10
 149.92448153165
  20
 260.80397746460
  30
0.0
  11
 127.92448153165
  21
 260.80397746460
  31
0.0
   0
LINE
   5
2B3
 100
AcDbEntity
   8
LEVEL001
 100
AcDbLine
   6
CONTINUOUS
  62
7
  10
 127.92448153165
  20
 258.20397746460
  30
0.0
  11
 127.92448153165
  21
 260.80397746460
  31
0.0
   0
LINE
   5
2B4
 100
AcDbEntity
   8
LEVEL001
 100
AcDbLine
   6
CONTINUOUS
  62
7
  10
 127.92448153165
  20
 256.90397746460
  30
0.0
  11
 126.92448153165
  21
 256.90397746460
  31
0.0
   0
LINE
   5
2B5
 100
AcDbEntity
   8
LEVEL001
 100
AcDbLine
   6
CONTINUOUS
  62
7
  10
 149.72448153165
  20
 256.80397746460
  30
0.0
  11
 149.72448153165
  21
 260.10397746460
  31
0.0
   0
ARC
   5
2B6
 100
AcDbEntity
   8
LEVEL001
   6
CONTINUOUS
  62
7
 100
AcDbCircle
  10
 149.22448153165
  20
 260.10397746460
  30
0.0
  40
 0.50000000000000
 100
AcDbArc
  50
0.0
  51
 89.999999999883
   0
POINT
   5
2B7
 100
AcDbEntity
   8
LEVEL001
 100
AcDbPoint
  62
7
  10
 149.72448153165
  20
 260.60397746460
  30
0.0
   0
LINE
   5
2B8
 100
AcDbEntity
   8
LEVEL001
 100
AcDbLine
   6
CONTINUOUS
  62
7
  10
 128.12448153165
  20
 256.80397746460
  30
0.0
  11
 128.12448153165
  21
 260.10397746460
  31
0.0
   0
ARC
   5
2B9
 100
AcDbEntity
   8
LEVEL001
   6
CONTINUOUS
  62
7
 100
AcDbCircle
  10
 128.62448153164
  20
 260.10397746460
  30
0.0
  40
 0.50000000000000
 100
AcDbArc
  50
 89.999999999564
  51
 180.00000000000
   0
POINT
   5
2BA
 100
AcDbEntity
   8
LEVEL001
 100
AcDbPoint
  62
7
  10
 128.12448153165
  20
 260.60397746460
  30
0.0
   0
LINE
   5
2BB
 100
AcDbEntity
   8
LEVEL001
 100
AcDbLine
   6
CONTINUOUS
  62
7
  10
 128.62448153165
  20
 260.60397746460
  30
0.0
  11
 149.22448153165
  21
 260.60397746460
  31
0.0
   0
ARC
   5
2BC
 100
AcDbEntity
   8
LEVEL001
   6
CONTINUOUS
  62
7
 100
AcDbCircle
  10
 127.92448153166
  20
 257.30397746461
  30
0.0
  40
 0.40000000000000
 100
AcDbArc
  50
 269.99999999842
  51
 299.99999999817
   0
ARC
   5
2BD
 100
AcDbEntity
   8
LEVEL001
   6
CONTINUOUS
  62
7
 100
AcDbCircle
  10
 127.92448153166
  20
 257.80397746460
  30
0.0
  40
 0.40000000000000
 100
AcDbArc
  50
 60.000000001787
  51
 90.000000001858
   0
LINE
   5
2BE
 100
AcDbEntity
   8
LEVEL001
 100
AcDbLine
   6
DOT
  62
15
  10
 128.32448153165
  20
 257.30397746460
  30
0.0
  11
 128.32448153165
  21
 257.80397746460
  31
0.0
   0
ARC
   5
2BF
 100
AcDbEntity
   8
LEVEL001
   6
DOT
  62
15
 100
AcDbCircle
  10
 127.92448153165
  20
 257.30397746460
  30
0.0
  40
 0.40000000000000
 100
AcDbArc
  50
 299.99999999998
  51
 0.32568879938187E-10
   0
ARC
   5
2C0
 100
AcDbEntity
   8
LEVEL001
   6
DOT
  62
15
 100
AcDbCircle
  10
 127.92448153165
  20
 257.80397746460
  30
0.0
  40
 0.40000000000000
 100
AcDbArc
  50
 0.19541327963228E-9
  51
 60.000000001075
   0
ARC
   5
2C1
 100
AcDbEntity
   8
LEVEL001
   6
CONTINUOUS
  62
7
 100
AcDbCircle
  10
 149.92448153165
  20
 257.30397746460
  30
0.0
  40
 0.40000000000000
 100
AcDbArc
  50
 239.99999999914
  51
 269.99999999923
   0
ARC
   5
2C2
 100
AcDbEntity
   8
LEVEL001
   6
CONTINUOUS
  62
7
 100
AcDbCircle
  10
 149.92448153164
  20
 257.80397746460
  30
0.0
  40
 0.40000000000000
 100
AcDbArc
  50
 89.999999998241
  51
 119.99999999829
   0
LINE
   5
2C3
 100
AcDbEntity
   8
LEVEL001
 100
AcDbLine
   6
DOT
  62
15
  10
 149.52448153165
  20
 257.30397746460
  30
0.0
  11
 149.52448153165
  21
 257.80397746460
  31
0.0
   0
ARC
   5
2C4
 100
AcDbEntity
   8
LEVEL001
   6
DOT
  62
15
 100
AcDbCircle
  10
 149.92448153165
  20
 257.30397746460
  30
0.0
  40
 0.40000000000000
 100
AcDbArc
  50
 179.99999999999
  51
 240.00000000005
   0
ARC
   5
2C5
 100
AcDbEntity
   8
LEVEL001
   6
DOT
  62
15
 100
AcDbCircle
  10
 149.92448153164
  20
 257.80397746460
  30
0.0
  40
 0.40000000000000
 100
AcDbArc
  50
 119.99999999890
  51
 179.99999999979
   0
ELLIPSE
   5
2C6
 100
AcDbEntity
   8
LEVEL001
   6
CONTINUOUS
  62
7
 100
AcDbEllipse
  10
 155.42448153165
  20
 305.34255983976
  30
0.0
  11
 2.2500000000000
  21
0.0
  31
0.0
  40
 0.81822222222223
  41
0.0
  42
 6.2831853071796
   0
ELLIPSE
   5
2C7
 100
AcDbEntity
   8
LEVEL001
   6
CONTINUOUS
  62
7
 100
AcDbEllipse
  10
 155.42448153165
  20
 304.72065314208
  30
0.0
  11
 4.0000000000000
  21
0.0
  31
0.0
  40
 0.85346771373719
  41
0.0
  42
 6.2831853071796
   0
LINE
   5
2C8
 100
AcDbEntity
   8
LEVEL001
 100
AcDbLine
   6
DASHDOT
  62
3
  10
 122.42448153165
  20
 327.63797109309
  30
0.0
  11
 122.42448153165
  21
 313.70675622663
  31
0.0
   0
ELLIPSE
   5
2C9
 100
AcDbEntity
   8
LEVEL001
   6
CONTINUOUS
  62
7
 100
AcDbEllipse
  10
 122.42448153165
  20
 319.26539508944
  30
0.0
  11
-2.2500000000000
  21
0.0
  31
0.0
  40
 0.81822222222223
  41
0.0
  42
 6.2831853071796
   0
ELLIPSE
   5
2CA
 100
AcDbEntity
   8
LEVEL001
   6
CONTINUOUS
  62
7
 100
AcDbEllipse
  10
 122.42448153165
  20
 319.88730178713
  30
0.0
  11
-4.0000000000000
  21
0.0
  31
0.0
  40
 0.85346771373719
  41
0.0
  42
 6.2831853071796
   0
LINE
   5
2CB
 100
AcDbEntity
   8
LEVEL001
 100
AcDbLine
   6
CONTINUOUS
  62
7
  10
 150.92448153165
  20
 262.30397746460
  30
0.0
  11
 126.92448153165
  21
 262.30397746460
  31
0.0
   0
LINE
   5
2CC
 100
AcDbEntity
   8
LEVEL001
 100
AcDbLine
   6
CONTINUOUS
  62
15
  10
 150.92448153165
  20
 264.80397746455
  30
0.0
  11
 126.92448153165
  21
 264.80397746455
  31
0.0
   0
LINE
   5
2CD
 100
AcDbEntity
   8
LEVEL001
 100
AcDbLine
   6
CONTINUOUS
  62
15
  10
 63.924481531648
  20
 294.80397746460
  30
0.0
  11
 126.92448153165
  21
 294.80397746460
  31
0.0
   0
LINE
   5
2CE
 100
AcDbEntity
   8
LEVEL001
 100
AcDbLine
   6
CONTINUOUS
  62
15
  10
 150.92448153165
  20
 294.80397746460
  30
0.0
  11
 355.59287355408
  21
 294.80397746460
  31
0.0
   0
DIMENSION
   5
2CF
 100
AcDbEntity
   8
LEVEL001
   6
CONTINUOUS
  62
3
 100
AcDbDimension
   2
*D8
  10
 63.924481531648
  20
 230.46381062572
  30
0.0
  11
 98.049481531648
  21
 230.46381062572
  31
0.0
  70
0
   3
GMM002
 100
AcDbAlignedDimension
  13
 132.17448153165
  23
 230.46381062572
  33
0.0
  14
 63.924481531648
  24
 294.80397746460
  34
0.0
  50
 180.00000000000
 100
AcDbRotatedDimension
   0
DIMENSION
   5
2D0
 100
AcDbEntity
   8
LEVEL001
   6
CONTINUOUS
  62
3
 100
AcDbDimension
   2
*D9
  10
 132.17448153165
  20
 230.46381062572
  30
0.0
  11
 138.92448153165
  21
 217.97104478782
  31
0.0
  70
128
   3
GMM003
 100
AcDbAlignedDimension
  13
 145.67448153165
  23
 249.02016777985
  33
0.0
  14
 132.17448153165
  24
 249.02016777985
  34
0.0
  50
 180.00000000000
 100
AcDbRotatedDimension
   0
DIMENSION
   5
2D1
 100
AcDbEntity
   8
LEVEL001
   6
CONTINUOUS
  62
3
 100
AcDbDimension
   2
*D10
  10
 663.92448153165
  20
 230.46381062572
  30
0.0
  11
 629.79948153165
  21
 230.46381062572
  31
0.0
  70
0
   3
GMM002
 100
AcDbAlignedDimension
  13
 595.67448153165
  23
 230.46381062572
  33
0.0
  14
 663.92448153165
  24
 294.80397746460
  34
0.0
 100
AcDbRotatedDimension
   0
DIMENSION
   5
2D2
 100
AcDbEntity
   8
LEVEL001
   6
CONTINUOUS
  62
3
 100
AcDbDimension
   2
*D11
  10
 595.67448153165
  20
 230.46381062572
  30
0.0
  11
 588.92448153165
  21
 217.97104478782
  31
0.0
  70
128
   3
GMM003
 100
AcDbAlignedDimension
  13
 582.17448153165
  23
 249.02016777985
  33
0.0
  14
 595.67448153165
  24
 249.02016777985
  34
0.0
 100
AcDbRotatedDimension
   0
DIMENSION
   5
2D3
 100
AcDbEntity
   8
LEVEL001
   6
CONTINUOUS
  62
3
 100
AcDbDimension
   2
*D12
  10
 600.92448153165
  20
 279.46815305878
  30
0.0
  11
 588.92448153165
  21
 279.46815305878
  31
0.0
  70
0
   3
GMM002
 100
AcDbAlignedDimension
  13
 576.92448153165
  23
 276.19735659860
  33
0.0
  14
 600.92448153165
  24
 275.26284332426
  34
0.0
 100
AcDbRotatedDimension
   0
DIMENSION
   5
2D4
 100
AcDbEntity
   8
LEVEL001
   6
CONTINUOUS
  62
3
 100
AcDbDimension
   2
*D13
  10
 663.92448153165
  20
 522.33780809363
  30
0.0
  11
 363.92448153165
  21
 522.33780809363
  31
0.0
  70
0
   1
\A1;400üE600üE800
   3
GMM004
 100
AcDbAlignedDimension
  13
 63.924481531648
  23
 485.51571331829
  33
0.0
  14
 663.92448153165
  24
 485.51571331829
  34
0.0
 100
AcDbRotatedDimension
   0
DIMENSION
   5
2D5
 100
AcDbEntity
   8
LEVEL001
   6
CONTINUOUS
  62
3
 100
AcDbDimension
   2
*D14
  10
 588.92448153165
  20
 358.75758282473
  30
0.0
  11
 363.92448153165
  21
 358.75758282473
  31
0.0
  70
0
   1
\A1;250üE450üE600
   3
GMM005
 100
AcDbAlignedDimension
  13
 138.92448153165
  23
 374.54499651524
  33
0.0
  14
 588.92448153165
  24
 358.75758282473
  34
0.0
 100
AcDbRotatedDimension
   0
DIMENSION
   5
2D6
 100
AcDbEntity
   8
LEVEL001
   6
CONTINUOUS
  62
3
 100
AcDbDimension
   2
*D15
  10
 582.17448153165
  20
 230.46381062572
  30
0.0
  11
 363.92448153165
  21
 230.46381062572
  31
0.0
  70
0
   1
\A1;236.5üE436.5üE586.5
   3
GMM006
 100
AcDbAlignedDimension
  13
 145.67448153165
  23
 249.02016777985
  33
0.0
  14
 582.17448153165
  24
 249.02016777985
  34
0.0
 100
AcDbRotatedDimension
   0
LINE
   5
2D7
 100
AcDbEntity
   8
LEVEL001
 100
AcDbLine
   6
CONTINUOUS
  62
3
  10
 305.78798864645
  20
 232.75054601805
  30
0.0
  11
 337.76910959040
  21
 232.75054601805
  31
0.0
   0
LINE
   5
2D8
 100
AcDbEntity
   8
LEVEL001
 100
AcDbLine
   6
CONTINUOUS
  62
3
  10
 389.68651372020
  20
 232.75054601805
  30
0.0
  11
 421.66763466415
  21
 232.75054601805
  31
0.0
   0
ENDSEC
  0
SECTION
  2
OBJECTS
  0
DICTIONARY
  5
C
100
AcDbDictionary
  3
ACAD_GROUP
350
D
  3
ACAD_MLINESTYLE
350
1B
  0
DICTIONARY
  5
D
102
{ACAD_REACTORS
330
C
102
}
100
AcDbDictionary
  0
DICTIONARY
  5
1B
102
{ACAD_REACTORS
330
C
102
}
100
AcDbDictionary
  3
STANDARD
350
1C
  0
MLINESTYLE
  5
1C
102
{ACAD_REACTORS
330
1B
102
}
100
AcDbMlineStyle
  2
STANDARD
 70
     0
  3

 62
   256
 51
90.0
 52
90.0
 71
     2
 49
0.5
 62
   256
  6
BYLAYER
 49
-0.5
 62
   256
  6
BYLAYER
  0
ENDSEC
   0
EOF
