   0
SECTION
   2
HEADER
   9
$ACADVER
   1
AC1015
   9
$LIMMIN
  10
0.0
  20
0.0
   9
$LIMMAX
  10
 420.00000000000
  20
 297.00000000000
   9
$EXTMIN
  10
0.0
  20
0.0
  30
0.0
   9
$EXTMAX
  10
 420.00000000000
  20
 297.00000000000
  30
0.0
   9
$LTSCALE
  40
 8.4000000000000
   9
$HANDSEED
   5
288
   0
ENDSEC
   0
SECTION
   2
TABLES
  0
TABLE
  2
VPORT
  5
8
100
AcDbSymbolTable
 70
     1
  0
VPORT
  5
287
100
AcDbSymbolTableRecord
100
AcDbViewportTableRecord
  2
*ACTIVE
 70
     0
 10
0.0
 20
0.0
 11
1.0
 21
1.0
  12
 210.00000000000
  22
 148.50000000000
 13
0.0
 23
0.0
 14
1.0
 24
1.0
 15
0.0
 25
0.0
 16
0.0
 26
0.0
 36
1.0
 17
0.0
 27
0.0
 37
0.0
  40
 420.00000000000
  41
 1.4787878787879
 42
50.0
 43
0.0
 44
0.0
 50
0.0
 51
0.0
 71
     0
 72
   100
 73
     1
 74
     1
 75
     0
 76
     0
 77
     0
 78
     0
  0
ENDTAB
  0
TABLE
  2
LTYPE
  5
5
100
AcDbSymbolTable
 70
    25
  0
LTYPE
  5
12
100
AcDbSymbolTableRecord
100
AcDbLinetypeTableRecord
  2
BYBLOCK
 70
     0
  3

 72
    65
 73
     0
 40
0.0
  0
LTYPE
  5
13
100
AcDbSymbolTableRecord
100
AcDbLinetypeTableRecord
  2
BYLAYER
 70
     0
  3

 72
    65
 73
     0
 40
0.0
  0
LTYPE
  5
14
100
AcDbSymbolTableRecord
100
AcDbLinetypeTableRecord
  2
CONTINUOUS
 70
     0
  3
Solid line
 72
    65
 73
     0
 40
0.0
  0
LTYPE
  5
20
100
AcDbSymbolTableRecord
100
AcDbLinetypeTableRecord
  2
BORDER
 70
     0
  3
__ __ . __ __ . __ __ . __ __ . __ __ . __ __ .
 72
    65
 73
     6
 40
1.75
 49
0.5
 74
     0
 49
-0.25
 74
     0
 49
0.5
 74
     0
 49
-0.25
 74
     0
 49
0.0
 74
     0
 49
-0.25
 74
     0
  0
LTYPE
  5
21
100
AcDbSymbolTableRecord
100
AcDbLinetypeTableRecord
  2
BORDER2
 70
     0
  3
__.__.__.__.__.__.__.__.__.__.__.__.__.__.__.__
 72
    65
 73
     6
 40
0.875
 49
0.25
 74
     0
 49
-0.125
 74
     0
 49
0.25
 74
     0
 49
-0.125
 74
     0
 49
0.0
 74
     0
 49
-0.125
 74
     0
  0
LTYPE
  5
22
100
AcDbSymbolTableRecord
100
AcDbLinetypeTableRecord
  2
BORDERX2
 70
     0
  3
____  ____  .  ____  ____  .  ____  ____  .  __
 72
    65
 73
     6
 40
3.5
 49
1.0
 74
     0
 49
-0.5
 74
     0
 49
1.0
 74
     0
 49
-0.5
 74
     0
 49
0.0
 74
     0
 49
-0.5
 74
     0
  0
LTYPE
  5
23
100
AcDbSymbolTableRecord
100
AcDbLinetypeTableRecord
  2
CENTER
 70
     0
  3
____ _ ____ _ ____ _ ____ _ ____ _ ____ _ ____ 
 72
    65
 73
     4
 40
2.0
 49
1.25
 74
     0
 49
-0.25
 74
     0
 49
0.25
 74
     0
 49
-0.25
 74
     0
  0
LTYPE
  5
24
100
AcDbSymbolTableRecord
100
AcDbLinetypeTableRecord
  2
CENTER2
 70
     0
  3
___ _ ___ _ ___ _ ___ _ ___ _ ___ _ ___ _ ___ _
 72
    65
 73
     4
 40
1.125
 49
0.75
 74
     0
 49
-0.125
 74
     0
 49
0.125
 74
     0
 49
-0.125
 74
     0
  0
LTYPE
  5
25
100
AcDbSymbolTableRecord
100
AcDbLinetypeTableRecord
  2
CENTERX2
 70
     0
  3
________  __  ________  __  ________  __  _____
 72
    65
 73
     4
 40
4.0
 49
2.5
 74
     0
 49
-0.5
 74
     0
 49
0.5
 74
     0
 49
-0.5
 74
     0
  0
LTYPE
  5
26
100
AcDbSymbolTableRecord
100
AcDbLinetypeTableRecord
  2
DASHDOT
 70
     0
  3
__ . __ . __ . __ . __ . __ . __ . __ . __ . __
 72
    65
 73
     4
 40
1.0
 49
0.5
 74
     0
 49
-0.25
 74
     0
 49
0.0
 74
     0
 49
-0.25
 74
     0
  0
LTYPE
  5
27
100
AcDbSymbolTableRecord
100
AcDbLinetypeTableRecord
  2
DASHDOT2
 70
     0
  3
_._._._._._._._._._._._._._._._._._._._._._._._
 72
    65
 73
     4
 40
0.5
 49
0.25
 74
     0
 49
-0.125
 74
     0
 49
0.0
 74
     0
 49
-0.125
 74
     0
  0
LTYPE
  5
28
100
AcDbSymbolTableRecord
100
AcDbLinetypeTableRecord
  2
DASHDOTX2
 70
     0
  3
____  .  ____  .  ____  .  ____  .  ____  .  __
 72
    65
 73
     4
 40
2.0
 49
1.0
 74
     0
 49
-0.5
 74
     0
 49
0.0
 74
     0
 49
-0.5
 74
     0
  0
LTYPE
  5
29
100
AcDbSymbolTableRecord
100
AcDbLinetypeTableRecord
  2
DASHED
 70
     0
  3
__ __ __ __ __ __ __ __ __ __ __ __ __ __ __ __
 72
    65
 73
     2
 40
0.75
 49
0.5
 74
     0
 49
-0.25
 74
     0
  0
LTYPE
  5
2A
100
AcDbSymbolTableRecord
100
AcDbLinetypeTableRecord
  2
DASHED2
 70
     0
  3
_ _ _ _ _ _ _ _ _ _ _ _ _ _ _ _ _ _ _ _ _ _ _ _
 72
    65
 73
     2
 40
0.375
 49
0.25
 74
     0
 49
-0.125
 74
     0
  0
LTYPE
  5
2B
100
AcDbSymbolTableRecord
100
AcDbLinetypeTableRecord
  2
DASHEDX2
 70
     0
  3
____  ____  ____  ____  ____  ____  ____  ____ 
 72
    65
 73
     2
 40
1.5
 49
1.0
 74
     0
 49
-0.5
 74
     0
  0
LTYPE
  5
2C
100
AcDbSymbolTableRecord
100
AcDbLinetypeTableRecord
  2
DIVIDE
 70
     0
  3
____ . . ____ . . ____ . . ____ . . ____ . . __
 72
    65
 73
     6
 40
1.25
 49
0.5
 74
     0
 49
-0.25
 74
     0
 49
0.0
 74
     0
 49
-0.25
 74
     0
 49
0.0
 74
     0
 49
-0.25
 74
     0
  0
LTYPE
  5
2D
100
AcDbSymbolTableRecord
100
AcDbLinetypeTableRecord
  2
DIVIDE2
 70
     0
  3
__..__..__..__..__..__..__..__..__..__..__..__.
 72
    65
 73
     6
 40
0.625
 49
0.25
 74
     0
 49
-0.125
 74
     0
 49
0.0
 74
     0
 49
-0.125
 74
     0
 49
0.0
 74
     0
 49
-0.125
 74
     0
  0
LTYPE
  5
2E
100
AcDbSymbolTableRecord
100
AcDbLinetypeTableRecord
  2
DIVIDEX2
 70
     0
  3
________  .  .  ________  .  .  ________  .  . 
 72
    65
 73
     6
 40
2.5
 49
1.0
 74
     0
 49
-0.5
 74
     0
 49
0.0
 74
     0
 49
-0.5
 74
     0
 49
0.0
 74
     0
 49
-0.5
 74
     0
  0
LTYPE
  5
2F
100
AcDbSymbolTableRecord
100
AcDbLinetypeTableRecord
  2
DOT
 70
     0
  3
. . . . . . . . . . . . . . . . . . . . . . . .
 72
    65
 73
     2
 40
0.25
 49
0.0
 74
     0
 49
-0.25
 74
     0
  0
LTYPE
  5
30
100
AcDbSymbolTableRecord
100
AcDbLinetypeTableRecord
  2
DOT2
 70
     0
  3
...............................................
 72
    65
 73
     2
 40
0.125
 49
0.0
 74
     0
 49
-0.125
 74
     0
  0
LTYPE
  5
31
100
AcDbSymbolTableRecord
100
AcDbLinetypeTableRecord
  2
DOTX2
 70
     0
  3
.  .  .  .  .  .  .  .  .  .  .  .  .  .  .  . 
 72
    65
 73
     2
 40
0.5
 49
0.0
 74
     0
 49
-0.5
 74
     0
  0
LTYPE
  5
32
100
AcDbSymbolTableRecord
100
AcDbLinetypeTableRecord
  2
HIDDEN
 70
     0
  3
__ __ __ __ __ __ __ __ __ __ __ __ __ __ __ __
 72
    65
 73
     2
 40
0.375
 49
0.25
 74
     0
 49
-0.125
 74
     0
  0
LTYPE
  5
33
100
AcDbSymbolTableRecord
100
AcDbLinetypeTableRecord
  2
HIDDEN2
 70
     0
  3
_ _ _ _ _ _ _ _ _ _ _ _ _ _ _ _ _ _ _ _ _ _ _ _
 72
    65
 73
     2
 40
0.1875
 49
0.125
 74
     0
 49
-0.0625
 74
     0
  0
LTYPE
  5
34
100
AcDbSymbolTableRecord
100
AcDbLinetypeTableRecord
  2
HIDDENX2
 70
     0
  3
____ ____ ____ ____ ____ ____ ____ ____ ____ __
 72
    65
 73
     2
 40
0.75
 49
0.5
 74
     0
 49
-0.25
 74
     0
  0
LTYPE
  5
35
100
AcDbSymbolTableRecord
100
AcDbLinetypeTableRecord
  2
PHANTOM
 70
     0
  3
______  __  __  ______  __  __  ______  __  __ 
 72
    65
 73
     6
 40
2.5
 49
1.25
 74
     0
 49
-0.25
 74
     0
 49
0.25
 74
     0
 49
-0.25
 74
     0
 49
0.25
 74
     0
 49
-0.25
 74
     0
  0
LTYPE
  5
36
100
AcDbSymbolTableRecord
100
AcDbLinetypeTableRecord
  2
PHANTOM2
 70
     0
  3
___ _ _ ___ _ _ ___ _ _ ___ _ _ ___ _ _ ___ _ _
 72
    65
 73
     6
 40
1.25
 49
0.625
 74
     0
 49
-0.125
 74
     0
 49
0.125
 74
     0
 49
-0.125
 74
     0
 49
0.125
 74
     0
 49
-0.125
 74
     0
  0
LTYPE
  5
37
100
AcDbSymbolTableRecord
100
AcDbLinetypeTableRecord
  2
PHANTOMX2
 70
     0
  3
____________    ____    ____    ____________   
 72
    65
 73
     6
 40
5.0
 49
2.5
 74
     0
 49
-0.5
 74
     0
 49
0.5
 74
     0
 49
-0.5
 74
     0
 49
0.5
 74
     0
 49
-0.5
 74
     0
  0
ENDTAB
   0
TABLE
   2
LAYER
   5
2
 100
AcDbSymbolTable
  70
2
   0
LAYER
   5
E
 100
AcDbSymbolTableRecord
 100
AcDbLayerTableRecord
   2
0
  70
0
  62
7
   6
CONTINUOUS
 390
30
   0
LAYER
   5
39
 100
AcDbSymbolTableRecord
 100
AcDbLayerTableRecord
   2
LEVEL001
  70
0
  62
7
   6
CONTINUOUS
 390
30
   0
ENDTAB
  0
TABLE
  2
STYLE
  5
3
100
AcDbSymbolTable
  70
3
  0
STYLE
  5
F
100
AcDbSymbolTableRecord
100
AcDbTextStyleTableRecord
  2
STANDARD
 70
     0
 40
0.0
 41
1.0
 50
0.0
 71
     0
 42
0.2
  3
TXT
  4
BIGFONT
  0
STYLE
  5
38
100
AcDbSymbolTableRecord
100
AcDbTextStyleTableRecord
  2
STANDARD1
 70
     4
 40
0.0
 41
1.0
 50
0.0
 71
     0
 42
0.2
  3
TXT
  4
BIGFONT
   0
STYLE
   5
3A
 100
AcDbSymbolTableRecord
 100
AcDbTextStyleTableRecord
   2
GMM001
  70
0
  40
0.0
  41
 1.0000000000000
  50
0.0
  71
     0
  42
1.0
   3
txt.shx
   4
bigfont.shx
   0
ENDTAB
  0
TABLE
  2
VIEW
  5
6
100
AcDbSymbolTable
 70
     0
  0
ENDTAB
  0
TABLE
  2
UCS
  5
7
100
AcDbSymbolTable
 70
     0
  0
ENDTAB
  0
TABLE
  2
APPID
  5
9
100
AcDbSymbolTable
 70
     1
  0
APPID
  5
10
100
AcDbSymbolTableRecord
100
AcDbRegAppTableRecord
  2
ACAD
 70
     0
  0
ENDTAB
   0
TABLE
   2
DIMSTYLE
   5
A
 100
AcDbSymbolTable
  70
6
 100
AcDbDimStyleTable
  0
DIMSTYLE
105
1D
100
AcDbSymbolTableRecord
100
AcDbDimStyleTableRecord
  2
STANDARD
 70
     0
  3

  4

  5

  6

  7

 40
1.0
 41
0.18
 42
0.0625
 43
0.38
 44
0.18
 45
0.0
 46
0.0
 47
0.0
 48
0.0
140
0.18
141
0.09
142
0.0
143
25.4
144
1.0
145
0.0
146
1.0
147
0.09
 71
     0
 72
     0
 73
     1
 74
     1
 75
     0
 76
     0
 77
     0
 78
     0
170
     0
171
     2
172
     0
173
     0
174
     0
175
     0
176
     0
177
     0
178
     0
270
     2
271
     4
272
     4
273
     2
274
     2
340
F
275
     0
280
     0
281
     0
282
     0
283
     1
284
     0
285
     0
286
     0
287
     3
288
     0
   0
DIMSTYLE
 105
3B
 100
AcDbSymbolTableRecord
 100
AcDbDimStyleTableRecord
   2
GMM001
  70
0
   3

   4

   5

   6
_OPEN30
   7
_OPEN30
  40
 1.0000000000000
  41
 3.0000000000000
  42
 1.5000000000000
  43
 8.0000000000000
  44
 1.5000000000000
  45
0.0
  46
0.0
  47
0.0
  48
0.0
 140
 4.0000000000000
 141
 1.0000000000000
 142
0.0
 143
 0.39400000000000E-1
 144
 1.0000000000000
 145
0.0
 146
 0.62500000000000
 147
 1.7142857142857
  71
0
  72
0
  73
0
  74
0
  75
0
  76
0
  77
3
  78
8
 170
0
 171
2
 172
1
 173
1
 174
0
 175
0
 176
3
 177
3
 178
3
 270
2
 271
6
 272
0
 273
2
 274
2
 340
3A
 275
1
 280
0
 281
0
 282
0
 283
1
 284
0
 285
0
 286
0
 287
3
 288
0
   0
DIMSTYLE
 105
3C
 100
AcDbSymbolTableRecord
 100
AcDbDimStyleTableRecord
   2
GMM002
  70
0
   3
%%c<>
   4

   5

   6
_OPEN30
   7
_OPEN30
  40
 1.0000000000000
  41
 3.0000000000000
  42
 1.5000000000000
  43
 8.0000000000000
  44
 1.5000000000000
  45
0.0
  46
0.0
  47
0.0
  48
0.0
 140
 4.0000000000000
 141
 1.0000000000000
 142
0.0
 143
 0.39400000000000E-1
 144
 1.0000000000000
 145
0.0
 146
 0.62500000000000
 147
 1.7142857142857
  71
0
  72
0
  73
0
  74
0
  75
0
  76
0
  77
3
  78
8
 170
0
 171
2
 172
1
 173
1
 174
0
 175
0
 176
3
 177
3
 178
3
 270
2
 271
6
 272
0
 273
2
 274
2
 340
3A
 275
1
 280
0
 281
0
 282
0
 283
1
 284
0
 285
0
 286
0
 287
3
 288
0
   0
DIMSTYLE
 105
3D
 100
AcDbSymbolTableRecord
 100
AcDbDimStyleTableRecord
   2
GMM003
  70
0
   3
R<>
   4

   5

   6
_NONE
   7
_OPEN30
  40
 1.0000000000000
  41
 3.0000000000000
  42
 1.5000000000000
  43
 8.0000000000000
  44
 1.5000000000000
  45
0.0
  46
0.0
  47
0.0
  48
0.0
 140
 4.0000000000000
 141
 1.0000000000000
 142
0.0
 143
 0.39400000000000E-1
 144
 1.0000000000000
 145
0.0
 146
 0.62500000000000
 147
 1.7142857142857
  71
0
  72
0
  73
0
  74
0
  75
0
  76
0
  77
3
  78
8
 170
0
 171
2
 172
1
 173
1
 174
0
 175
0
 176
3
 177
3
 178
3
 270
2
 271
6
 272
0
 273
2
 274
2
 340
3A
 275
1
 280
0
 281
0
 282
0
 283
1
 284
0
 285
0
 286
0
 287
3
 288
1
   0
DIMSTYLE
 105
3E
 100
AcDbSymbolTableRecord
 100
AcDbDimStyleTableRecord
   2
GMM004
  70
0
   3

   4

   5

   6
_OPEN30
   7
_OPEN30
  40
 1.0000000000000
  41
 3.0000000000000
  42
 1.5000000000000
  43
 8.0000000000000
  44
 1.5000000000000
  45
0.0
  46
0.0
  47
0.0
  48
0.0
 140
 4.0000000000000
 141
 1.0000000000000
 142
0.0
 143
 0.39400000000000E-1
 144
 1.0000000000000
 145
0.0
 146
 0.62500000000000
 147
 1.7142857142857
  71
0
  72
0
  73
0
  74
0
  75
0
  76
0
  77
3
  78
8
 170
0
 171
2
 172
1
 173
1
 174
0
 175
0
 176
3
 177
3
 178
3
 270
2
 271
4
 272
0
 273
2
 274
2
 340
3A
 275
1
 280
0
 281
0
 282
0
 283
1
 284
0
 285
0
 286
0
 287
3
 288
0
   0
ENDTAB
  0
TABLE
  2
BLOCK_RECORD
  5
1
100
AcDbSymbolTable
 70
     0
  0
BLOCK_RECORD
  5
18
100
AcDbSymbolTableRecord
100
AcDbBlockTableRecord
  2
*MODEL_SPACE
  0
BLOCK_RECORD
  5
15
100
AcDbSymbolTableRecord
100
AcDbBlockTableRecord
  2
*PAPER_SPACE
   0
BLOCK_RECORD
   5
3F
 100
AcDbSymbolTableRecord
 100
AcDbBlockTableRecord
   2
*D1
   0
BLOCK_RECORD
   5
40
 100
AcDbSymbolTableRecord
 100
AcDbBlockTableRecord
   2
*D2
   0
BLOCK_RECORD
   5
41
 100
AcDbSymbolTableRecord
 100
AcDbBlockTableRecord
   2
*D3
   0
BLOCK_RECORD
   5
42
 100
AcDbSymbolTableRecord
 100
AcDbBlockTableRecord
   2
*D4
   0
BLOCK_RECORD
   5
43
 100
AcDbSymbolTableRecord
 100
AcDbBlockTableRecord
   2
*D5
   0
BLOCK_RECORD
   5
44
 100
AcDbSymbolTableRecord
 100
AcDbBlockTableRecord
   2
*D6
   0
BLOCK_RECORD
   5
45
 100
AcDbSymbolTableRecord
 100
AcDbBlockTableRecord
   2
*D7
   0
BLOCK_RECORD
   5
46
 100
AcDbSymbolTableRecord
 100
AcDbBlockTableRecord
   2
*D8
   0
BLOCK_RECORD
   5
47
 100
AcDbSymbolTableRecord
 100
AcDbBlockTableRecord
   2
*D9
   0
BLOCK_RECORD
   5
48
 100
AcDbSymbolTableRecord
 100
AcDbBlockTableRecord
   2
*D10
   0
BLOCK_RECORD
   5
49
 100
AcDbSymbolTableRecord
 100
AcDbBlockTableRecord
   2
*D11
   0
BLOCK_RECORD
   5
4A
 100
AcDbSymbolTableRecord
 100
AcDbBlockTableRecord
   2
*D12
   0
BLOCK_RECORD
   5
4B
 100
AcDbSymbolTableRecord
 100
AcDbBlockTableRecord
   2
*D13
   0
BLOCK_RECORD
   5
4C
 100
AcDbSymbolTableRecord
 100
AcDbBlockTableRecord
   2
*D14
   0
BLOCK_RECORD
   5
4D
 100
AcDbSymbolTableRecord
 100
AcDbBlockTableRecord
   2
*D15
   0
BLOCK_RECORD
   5
4E
 100
AcDbSymbolTableRecord
 100
AcDbBlockTableRecord
   2
*D16
   0
BLOCK_RECORD
   5
4F
 100
AcDbSymbolTableRecord
 100
AcDbBlockTableRecord
   2
*D17
   0
BLOCK_RECORD
   5
50
 100
AcDbSymbolTableRecord
 100
AcDbBlockTableRecord
   2
*D18
   0
BLOCK_RECORD
   5
51
 100
AcDbSymbolTableRecord
 100
AcDbBlockTableRecord
   2
*D19
   0
BLOCK_RECORD
   5
52
 100
AcDbSymbolTableRecord
 100
AcDbBlockTableRecord
   2
_ARCHTICK
   0
BLOCK_RECORD
   5
53
 100
AcDbSymbolTableRecord
 100
AcDbBlockTableRecord
   2
_BOXBLANK
   0
BLOCK_RECORD
   5
54
 100
AcDbSymbolTableRecord
 100
AcDbBlockTableRecord
   2
_BOXFILLED
   0
BLOCK_RECORD
   5
55
 100
AcDbSymbolTableRecord
 100
AcDbBlockTableRecord
   2
_CLOSED
   0
BLOCK_RECORD
   5
56
 100
AcDbSymbolTableRecord
 100
AcDbBlockTableRecord
   2
_CLOSEDBLANK
   0
BLOCK_RECORD
   5
57
 100
AcDbSymbolTableRecord
 100
AcDbBlockTableRecord
   2
_DATUMBLANK
   0
BLOCK_RECORD
   5
58
 100
AcDbSymbolTableRecord
 100
AcDbBlockTableRecord
   2
_DATUMFILLED
   0
BLOCK_RECORD
   5
59
 100
AcDbSymbolTableRecord
 100
AcDbBlockTableRecord
   2
_DOT
   0
BLOCK_RECORD
   5
5A
 100
AcDbSymbolTableRecord
 100
AcDbBlockTableRecord
   2
_DOTBLANK
   0
BLOCK_RECORD
   5
5B
 100
AcDbSymbolTableRecord
 100
AcDbBlockTableRecord
   2
_DOTSMALL
   0
BLOCK_RECORD
   5
5C
 100
AcDbSymbolTableRecord
 100
AcDbBlockTableRecord
   2
_INTEGRAL
   0
BLOCK_RECORD
   5
5D
 100
AcDbSymbolTableRecord
 100
AcDbBlockTableRecord
   2
_NONE
   0
BLOCK_RECORD
   5
5E
 100
AcDbSymbolTableRecord
 100
AcDbBlockTableRecord
   2
_OBLIQUE
   0
BLOCK_RECORD
   5
5F
 100
AcDbSymbolTableRecord
 100
AcDbBlockTableRecord
   2
_OPEN
   0
BLOCK_RECORD
   5
60
 100
AcDbSymbolTableRecord
 100
AcDbBlockTableRecord
   2
_OPEN30
   0
BLOCK_RECORD
   5
61
 100
AcDbSymbolTableRecord
 100
AcDbBlockTableRecord
   2
_OPEN90
   0
BLOCK_RECORD
   5
62
 100
AcDbSymbolTableRecord
 100
AcDbBlockTableRecord
   2
_ORIGIN
   0
ENDTAB
   0
ENDSEC
  0
SECTION
  2
BLOCKS
  0
BLOCK
  5
19
100
AcDbEntity
  8
0
100
AcDbBlockBegin
  2
*MODEL_SPACE
 70
     0
 10
0.0
 20
0.0
 30
0.0
  3
*MODEL_SPACE
  1

  0
ENDBLK
  5
1A
100
AcDbEntity
  8
0
100
AcDbBlockEnd
  0
BLOCK
  5
16
100
AcDbEntity
 67
     1
  8
0
100
AcDbBlockBegin
  2
*PAPER_SPACE
 70
     0
 10
0.0
 20
0.0
 30
0.0
  3
*PAPER_SPACE
  1

  0
ENDBLK
  5
17
100
AcDbEntity
 67
     1
  8
0
100
AcDbBlockEnd
   0
BLOCK
   5
63
 100
AcDbEntity
   8
0
 100
AcDbBlockBegin
   2
_ARCHTICK
  70
0
  10
0.0
  20
0.0
  30
0.0
   3
_ARCHTICK
   0
POLYLINE
   5
64
 100
AcDbEntity
   8
0
   6
BYBLOCK
  62
0
 100
AcDb2dPolyline
  66
1
  10
0.0
  20
0.0
  30
0.0
  70
1
  40
 0.15000000000000
  41
 0.15000000000000
   0
VERTEX
   5
65
 100
AcDbEntity
   8
0
   6
BYBLOCK
  62
0
 100
AcDbVertex
 100
AcDb2dVertex
  10
-0.50000000000000
  20
-0.50000000000000
  30
0.0
  40
 0.15000000000000
  41
 0.15000000000000
   0
VERTEX
   5
66
 100
AcDbEntity
   8
0
   6
BYBLOCK
  62
0
 100
AcDbVertex
 100
AcDb2dVertex
  10
 0.50000000000000
  20
 0.50000000000000
  30
0.0
  40
 0.15000000000000
  41
 0.15000000000000
   0
SEQEND
   5
67
 100
AcDbEntity
   8
0
   6
BYBLOCK
  62
0
   0
ENDBLK
   5
68
 100
AcDbEntity
   8
0
 100
AcDbBlockEnd
   0
BLOCK
   5
69
 100
AcDbEntity
   8
0
 100
AcDbBlockBegin
   2
_OBLIQUE
  70
0
  10
0.0
  20
0.0
  30
0.0
   3
_OBLIQUE
   0
LINE
   5
6A
 100
AcDbEntity
   8
0
 100
AcDbLine
   6
BYBLOCK
  62
0
  10
-0.50000000000000
  20
-0.50000000000000
  30
0.0
  11
 0.50000000000000
  21
 0.50000000000000
  31
0.0
   0
ENDBLK
   5
6B
 100
AcDbEntity
   8
0
 100
AcDbBlockEnd
   0
BLOCK
   5
6C
 100
AcDbEntity
   8
0
 100
AcDbBlockBegin
   2
_BOXBLANK
  70
0
  10
0.0
  20
0.0
  30
0.0
   3
_BOXBLANK
   0
LINE
   5
6D
 100
AcDbEntity
   8
0
 100
AcDbLine
   6
BYBLOCK
  62
0
  10
-0.50000000000000
  20
-0.50000000000000
  30
0.0
  11
 0.50000000000000
  21
-0.50000000000000
  31
0.0
   0
LINE
   5
6E
 100
AcDbEntity
   8
0
 100
AcDbLine
   6
BYBLOCK
  62
0
  10
 0.50000000000000
  20
-0.50000000000000
  30
0.0
  11
 0.50000000000000
  21
 0.50000000000000
  31
0.0
   0
LINE
   5
6F
 100
AcDbEntity
   8
0
 100
AcDbLine
   6
BYBLOCK
  62
0
  10
 0.50000000000000
  20
 0.50000000000000
  30
0.0
  11
-0.50000000000000
  21
 0.50000000000000
  31
0.0
   0
LINE
   5
70
 100
AcDbEntity
   8
0
 100
AcDbLine
   6
BYBLOCK
  62
0
  10
-0.50000000000000
  20
 0.50000000000000
  30
0.0
  11
-0.50000000000000
  21
-0.50000000000000
  31
0.0
   0
LINE
   5
71
 100
AcDbEntity
   8
0
 100
AcDbLine
   6
BYBLOCK
  62
0
  10
-0.50000000000000
  20
0.0
  30
0.0
  11
-1.0000000000000
  21
0.0
  31
0.0
   0
ENDBLK
   5
72
 100
AcDbEntity
   8
0
 100
AcDbBlockEnd
   0
BLOCK
   5
73
 100
AcDbEntity
   8
0
 100
AcDbBlockBegin
   2
_BOXFILLED
  70
0
  10
0.0
  20
0.0
  30
0.0
   3
_BOXFILLED
   0
SOLID
   5
74
 100
AcDbEntity
   8
0
 100
AcDbTrace
   6
BYBLOCK
  62
0
  10
-0.50000000000000
  20
 0.50000000000000
  30
0.0
  11
 0.50000000000000
  21
 0.50000000000000
  31
0.0
  12
-0.50000000000000
  22
-0.50000000000000
  32
0.0
  13
 0.50000000000000
  23
-0.50000000000000
  33
0.0
   0
LINE
   5
75
 100
AcDbEntity
   8
0
 100
AcDbLine
   6
BYBLOCK
  62
0
  10
-0.50000000000000
  20
0.0
  30
0.0
  11
-1.0000000000000
  21
0.0
  31
0.0
   0
ENDBLK
   5
76
 100
AcDbEntity
   8
0
 100
AcDbBlockEnd
   0
BLOCK
   5
77
 100
AcDbEntity
   8
0
 100
AcDbBlockBegin
   2
_CLOSED
  70
0
  10
0.0
  20
0.0
  30
0.0
   3
_CLOSED
   0
LINE
   5
78
 100
AcDbEntity
   8
0
 100
AcDbLine
   6
BYBLOCK
  62
0
  10
-1.0000000000000
  20
 0.16666666666667
  30
0.0
  11
0.0
  21
0.0
  31
0.0
   0
LINE
   5
79
 100
AcDbEntity
   8
0
 100
AcDbLine
   6
BYBLOCK
  62
0
  10
0.0
  20
0.0
  30
0.0
  11
-1.0000000000000
  21
-0.16666666666667
  31
0.0
   0
LINE
   5
7A
 100
AcDbEntity
   8
0
 100
AcDbLine
   6
BYBLOCK
  62
0
  10
-1.0000000000000
  20
 0.16666666666667
  30
0.0
  11
-1.0000000000000
  21
-0.16666666666667
  31
0.0
   0
LINE
   5
7B
 100
AcDbEntity
   8
0
 100
AcDbLine
   6
BYBLOCK
  62
0
  10
0.0
  20
0.0
  30
0.0
  11
-1.0000000000000
  21
0.0
  31
0.0
   0
ENDBLK
   5
7C
 100
AcDbEntity
   8
0
 100
AcDbBlockEnd
   0
BLOCK
   5
7D
 100
AcDbEntity
   8
0
 100
AcDbBlockBegin
   2
_OPEN
  70
0
  10
0.0
  20
0.0
  30
0.0
   3
_OPEN
   0
LINE
   5
7E
 100
AcDbEntity
   8
0
 100
AcDbLine
   6
BYBLOCK
  62
0
  10
-1.0000000000000
  20
 0.16666666666667
  30
0.0
  11
0.0
  21
0.0
  31
0.0
   0
LINE
   5
7F
 100
AcDbEntity
   8
0
 100
AcDbLine
   6
BYBLOCK
  62
0
  10
0.0
  20
0.0
  30
0.0
  11
-1.0000000000000
  21
-0.16666666666667
  31
0.0
   0
LINE
   5
80
 100
AcDbEntity
   8
0
 100
AcDbLine
   6
BYBLOCK
  62
0
  10
0.0
  20
0.0
  30
0.0
  11
-1.0000000000000
  21
0.0
  31
0.0
   0
ENDBLK
   5
81
 100
AcDbEntity
   8
0
 100
AcDbBlockEnd
   0
BLOCK
   5
82
 100
AcDbEntity
   8
0
 100
AcDbBlockBegin
   2
_OPEN30
  70
0
  10
0.0
  20
0.0
  30
0.0
   3
_OPEN30
   0
LINE
   5
83
 100
AcDbEntity
   8
0
 100
AcDbLine
   6
BYBLOCK
  62
0
  10
-1.0000000000000
  20
 0.26794919243110
  30
0.0
  11
0.0
  21
0.0
  31
0.0
   0
LINE
   5
84
 100
AcDbEntity
   8
0
 100
AcDbLine
   6
BYBLOCK
  62
0
  10
0.0
  20
0.0
  30
0.0
  11
-1.0000000000000
  21
-0.26794919243110
  31
0.0
   0
LINE
   5
85
 100
AcDbEntity
   8
0
 100
AcDbLine
   6
BYBLOCK
  62
0
  10
0.0
  20
0.0
  30
0.0
  11
-1.0000000000000
  21
0.0
  31
0.0
   0
ENDBLK
   5
86
 100
AcDbEntity
   8
0
 100
AcDbBlockEnd
   0
BLOCK
   5
87
 100
AcDbEntity
   8
0
 100
AcDbBlockBegin
   2
_OPEN90
  70
0
  10
0.0
  20
0.0
  30
0.0
   3
_OPEN90
   0
LINE
   5
88
 100
AcDbEntity
   8
0
 100
AcDbLine
   6
BYBLOCK
  62
0
  10
-0.50000000000000
  20
 0.50000000000000
  30
0.0
  11
0.0
  21
0.0
  31
0.0
   0
LINE
   5
89
 100
AcDbEntity
   8
0
 100
AcDbLine
   6
BYBLOCK
  62
0
  10
0.0
  20
0.0
  30
0.0
  11
-0.50000000000000
  21
-0.50000000000000
  31
0.0
   0
LINE
   5
8A
 100
AcDbEntity
   8
0
 100
AcDbLine
   6
BYBLOCK
  62
0
  10
0.0
  20
0.0
  30
0.0
  11
-1.0000000000000
  21
0.0
  31
0.0
   0
ENDBLK
   5
8B
 100
AcDbEntity
   8
0
 100
AcDbBlockEnd
   0
BLOCK
   5
8C
 100
AcDbEntity
   8
0
 100
AcDbBlockBegin
   2
_CLOSEDBLANK
  70
0
  10
0.0
  20
0.0
  30
0.0
   3
_CLOSEDBLANK
   0
LINE
   5
8D
 100
AcDbEntity
   8
0
 100
AcDbLine
   6
BYBLOCK
  62
0
  10
-1.0000000000000
  20
 0.16666666666667
  30
0.0
  11
0.0
  21
0.0
  31
0.0
   0
LINE
   5
8E
 100
AcDbEntity
   8
0
 100
AcDbLine
   6
BYBLOCK
  62
0
  10
0.0
  20
0.0
  30
0.0
  11
-1.0000000000000
  21
-0.16666666666667
  31
0.0
   0
LINE
   5
8F
 100
AcDbEntity
   8
0
 100
AcDbLine
   6
BYBLOCK
  62
0
  10
-1.0000000000000
  20
 0.16666666666667
  30
0.0
  11
-1.0000000000000
  21
-0.16666666666667
  31
0.0
   0
ENDBLK
   5
90
 100
AcDbEntity
   8
0
 100
AcDbBlockEnd
   0
BLOCK
   5
91
 100
AcDbEntity
   8
0
 100
AcDbBlockBegin
   2
_DOT
  70
0
  10
0.0
  20
0.0
  30
0.0
   3
_DOT
   0
POLYLINE
   5
92
 100
AcDbEntity
   8
0
   6
BYBLOCK
  62
0
 100
AcDb2dPolyline
  66
1
  10
0.0
  20
0.0
  30
0.0
  70
1
  40
 0.50000000000000
  41
 0.50000000000000
   0
VERTEX
   5
93
 100
AcDbEntity
   8
0
   6
BYBLOCK
  62
0
 100
AcDbVertex
 100
AcDb2dVertex
  10
-0.25000000000000
  20
0.0
  30
0.0
  42
 1.0000000000000
  40
 0.50000000000000
  41
 0.50000000000000
   0
VERTEX
   5
94
 100
AcDbEntity
   8
0
   6
BYBLOCK
  62
0
 100
AcDbVertex
 100
AcDb2dVertex
  10
 0.25000000000000
  20
0.0
  30
0.0
  42
 1.0000000000000
  40
 0.50000000000000
  41
 0.50000000000000
   0
SEQEND
   5
95
 100
AcDbEntity
   8
0
   6
BYBLOCK
  62
0
   0
LINE
   5
96
 100
AcDbEntity
   8
0
 100
AcDbLine
   6
BYBLOCK
  62
0
  10
-0.50000000000000
  20
0.0
  30
0.0
  11
-1.0000000000000
  21
0.0
  31
0.0
   0
ENDBLK
   5
97
 100
AcDbEntity
   8
0
 100
AcDbBlockEnd
   0
BLOCK
   5
98
 100
AcDbEntity
   8
0
 100
AcDbBlockBegin
   2
_DOTSMALL
  70
0
  10
0.0
  20
0.0
  30
0.0
   3
_DOTSMALL
   0
POLYLINE
   5
99
 100
AcDbEntity
   8
0
   6
BYBLOCK
  62
0
 100
AcDb2dPolyline
  66
1
  10
0.0
  20
0.0
  30
0.0
  70
1
  40
 0.50000000000000
  41
 0.50000000000000
   0
VERTEX
   5
9A
 100
AcDbEntity
   8
0
   6
BYBLOCK
  62
0
 100
AcDbVertex
 100
AcDb2dVertex
  10
-0.62500000000000E-1
  20
0.0
  30
0.0
  42
 1.0000000000000
  40
 0.50000000000000
  41
 0.50000000000000
   0
VERTEX
   5
9B
 100
AcDbEntity
   8
0
   6
BYBLOCK
  62
0
 100
AcDbVertex
 100
AcDb2dVertex
  10
 0.62500000000000E-1
  20
0.0
  30
0.0
  42
 1.0000000000000
  40
 0.50000000000000
  41
 0.50000000000000
   0
SEQEND
   5
9C
 100
AcDbEntity
   8
0
   6
BYBLOCK
  62
0
   0
ENDBLK
   5
9D
 100
AcDbEntity
   8
0
 100
AcDbBlockEnd
   0
BLOCK
   5
9E
 100
AcDbEntity
   8
0
 100
AcDbBlockBegin
   2
_DATUMBLANK
  70
0
  10
0.0
  20
0.0
  30
0.0
   3
_DATUMBLANK
   0
LINE
   5
9F
 100
AcDbEntity
   8
0
 100
AcDbLine
   6
BYBLOCK
  62
0
  10
0.0
  20
 0.57735027000000
  30
0.0
  11
-1.0000000000000
  21
0.0
  31
0.0
   0
LINE
   5
A0
 100
AcDbEntity
   8
0
 100
AcDbLine
   6
BYBLOCK
  62
0
  10
-1.0000000000000
  20
0.0
  30
0.0
  11
0.0
  21
-0.57735027000000
  31
0.0
   0
LINE
   5
A1
 100
AcDbEntity
   8
0
 100
AcDbLine
   6
BYBLOCK
  62
0
  10
0.0
  20
-0.57735027000000
  30
0.0
  11
0.0
  21
 0.57735027000000
  31
0.0
   0
ENDBLK
   5
A2
 100
AcDbEntity
   8
0
 100
AcDbBlockEnd
   0
BLOCK
   5
A3
 100
AcDbEntity
   8
0
 100
AcDbBlockBegin
   2
_DATUMFILLED
  70
0
  10
0.0
  20
0.0
  30
0.0
   3
_DATUMFILLED
   0
SOLID
   5
A4
 100
AcDbEntity
   8
0
 100
AcDbTrace
   6
BYBLOCK
  62
0
  10
0.0
  20
 0.57735027000000
  30
0.0
  11
-1.0000000000000
  21
0.0
  31
0.0
  12
0.0
  22
-0.57735027000000
  32
0.0
  13
0.0
  23
-0.57735027000000
  33
0.0
   0
ENDBLK
   5
A5
 100
AcDbEntity
   8
0
 100
AcDbBlockEnd
   0
BLOCK
   5
A6
 100
AcDbEntity
   8
0
 100
AcDbBlockBegin
   2
_ORIGIN
  70
0
  10
0.0
  20
0.0
  30
0.0
   3
_ORIGIN
   0
CIRCLE
   5
A7
 100
AcDbEntity
   8
0
 100
AcDbCircle
   6
BYBLOCK
  62
0
  10
0.0
  20
0.0
  30
0.0
  40
 0.50000000000000
   0
LINE
   5
A8
 100
AcDbEntity
   8
0
 100
AcDbLine
   6
BYBLOCK
  62
0
  10
0.0
  20
0.0
  30
0.0
  11
-1.0000000000000
  21
0.0
  31
0.0
   0
ENDBLK
   5
A9
 100
AcDbEntity
   8
0
 100
AcDbBlockEnd
   0
BLOCK
   5
AA
 100
AcDbEntity
   8
0
 100
AcDbBlockBegin
   2
_NONE
  70
0
  10
0.0
  20
0.0
  30
0.0
   3
_NONE
   0
CIRCLE
   5
AB
 100
AcDbEntity
   8
0
 100
AcDbCircle
   6
BYBLOCK
  62
0
  10
0.0
  20
0.0
  30
0.0
  40
 0.25000000000000
   0
ENDBLK
   5
AC
 100
AcDbEntity
   8
0
 100
AcDbBlockEnd
   0
BLOCK
   5
AD
 100
AcDbEntity
   8
0
 100
AcDbBlockBegin
   2
_DOTBLANK
  70
0
  10
0.0
  20
0.0
  30
0.0
   3
_DOTBLANK
   0
CIRCLE
   5
AE
 100
AcDbEntity
   8
0
 100
AcDbCircle
   6
BYBLOCK
  62
0
  10
0.0
  20
0.0
  30
0.0
  40
 0.50000000000000
   0
LINE
   5
AF
 100
AcDbEntity
   8
0
 100
AcDbLine
   6
BYBLOCK
  62
0
  10
-0.50000000000000
  20
0.0
  30
0.0
  11
-1.0000000000000
  21
0.0
  31
0.0
   0
ENDBLK
   5
B0
 100
AcDbEntity
   8
0
 100
AcDbBlockEnd
   0
BLOCK
   5
B1
 100
AcDbEntity
   8
0
 100
AcDbBlockBegin
   2
_INTEGRAL
  70
0
  10
0.0
  20
0.0
  30
0.0
   3
_INTEGRAL
   0
ARC
   5
B2
 100
AcDbEntity
   8
0
   6
BYBLOCK
  62
0
 100
AcDbCircle
  10
 0.44488800000000
  20
-0.91335000000000E-1
  30
0.0
  40
 0.45416700000000
 100
AcDbArc
  50
 102.00000000000
  51
 168.00000000000
   0
ARC
   5
B3
 100
AcDbEntity
   8
0
   6
BYBLOCK
  62
0
 100
AcDbCircle
  10
-0.44488800000000
  20
 0.91335000000000E-1
  30
0.0
  40
 0.45416700000000
 100
AcDbArc
  50
 282.00000000000
  51
 348.00000000000
   0
ENDBLK
   5
B4
 100
AcDbEntity
   8
0
 100
AcDbBlockEnd
   0
BLOCK
   5
B5
 100
AcDbEntity
   8
0
 100
AcDbBlockBegin
   2
*D1
  70
65
  10
0.0
  20
0.0
  30
0.0
   3
*D1
   0
LINE
   5
B6
 100
AcDbEntity
   8
LEVEL001
 100
AcDbLine
   6
CONTINUOUS
  62
3
  10
 106.29986501946
  20
 239.06351408022
  30
0.0
  11
 84.522114737712
  21
 239.06351408022
  31
0.0
   0
LINE
   5
B7
 100
AcDbEntity
   8
LEVEL001
 100
AcDbLine
   6
CONTINUOUS
  62
3
  10
 106.29986501946
  20
 201.06351408022
  30
0.0
  11
 84.522114737712
  21
 201.06351408022
  31
0.0
   0
LINE
   5
B8
 100
AcDbEntity
   8
LEVEL001
 100
AcDbLine
   6
CONTINUOUS
  62
3
  10
 86.022114737712
  20
 239.06351408022
  30
0.0
  11
 86.022114737712
  21
 220.06351408022
  31
0.0
   0
LINE
   5
B9
 100
AcDbEntity
   8
LEVEL001
 100
AcDbLine
   6
CONTINUOUS
  62
3
  10
 86.022114737712
  20
 201.06351408022
  30
0.0
  11
 86.022114737712
  21
 220.06351408022
  31
0.0
   0
INSERT
   5
BA
 100
AcDbEntity
   8
LEVEL001
   6
CONTINUOUS
  62
3
 100
AcDbBlockReference
   2
_OPEN30
  10
 86.022114737712
  20
 239.06351408022
  30
0.0
  41
 3.0000000000000
  42
 3.0000000000000
  43
 3.0000000000000
  50
 90.000000000000
   0
INSERT
   5
BB
 100
AcDbEntity
   8
LEVEL001
   6
CONTINUOUS
  62
3
 100
AcDbBlockReference
   2
_OPEN30
  10
 86.022114737712
  20
 201.06351408022
  30
0.0
  41
 3.0000000000000
  42
 3.0000000000000
  43
 3.0000000000000
  50
 270.00000000000
   0
MTEXT
   5
BC
 100
AcDbEntity
   8
LEVEL001
  62
3
 100
AcDbMText
  10
 84.307829023426
  20
 220.06351408022
  30
0.0
  40
 4.0000000000000
  41
0.0
  71
8
  72
1
   1
\A1;38
   7
GMM001
  11
0.0
  21
 1.0000000000000
  31
0.0
   0
ENDBLK
   5
BD
 100
AcDbEntity
   8
0
 100
AcDbBlockEnd
   0
BLOCK
   5
BE
 100
AcDbEntity
   8
0
 100
AcDbBlockBegin
   2
*D2
  70
65
  10
0.0
  20
0.0
  30
0.0
   3
*D2
   0
LINE
   5
BF
 100
AcDbEntity
   8
LEVEL001
 100
AcDbLine
   6
CONTINUOUS
  62
3
  10
 106.29986501946
  20
 237.76351408022
  30
0.0
  11
 93.451908248037
  21
 237.76351408022
  31
0.0
   0
LINE
   5
C0
 100
AcDbEntity
   8
LEVEL001
 100
AcDbLine
   6
CONTINUOUS
  62
3
  10
 106.29986501946
  20
 202.36351408022
  30
0.0
  11
 93.451908248037
  21
 202.36351408022
  31
0.0
   0
LINE
   5
C1
 100
AcDbEntity
   8
LEVEL001
 100
AcDbLine
   6
CONTINUOUS
  62
3
  10
 94.951908248037
  20
 237.76351408022
  30
0.0
  11
 94.951908248037
  21
 220.06351408022
  31
0.0
   0
LINE
   5
C2
 100
AcDbEntity
   8
LEVEL001
 100
AcDbLine
   6
CONTINUOUS
  62
3
  10
 94.951908248037
  20
 202.36351408022
  30
0.0
  11
 94.951908248037
  21
 220.06351408022
  31
0.0
   0
INSERT
   5
C3
 100
AcDbEntity
   8
LEVEL001
   6
CONTINUOUS
  62
3
 100
AcDbBlockReference
   2
_OPEN30
  10
 94.951908248037
  20
 237.76351408022
  30
0.0
  41
 3.0000000000000
  42
 3.0000000000000
  43
 3.0000000000000
  50
 90.000000000000
   0
INSERT
   5
C4
 100
AcDbEntity
   8
LEVEL001
   6
CONTINUOUS
  62
3
 100
AcDbBlockReference
   2
_OPEN30
  10
 94.951908248037
  20
 202.36351408022
  30
0.0
  41
 3.0000000000000
  42
 3.0000000000000
  43
 3.0000000000000
  50
 270.00000000000
   0
MTEXT
   5
C5
 100
AcDbEntity
   8
LEVEL001
  62
3
 100
AcDbMText
  10
 93.237622533751
  20
 220.06351408022
  30
0.0
  40
 4.0000000000000
  41
0.0
  71
8
  72
1
   1
\A1;%%c35.4
   7
GMM001
  11
0.0
  21
 1.0000000000000
  31
0.0
   0
ENDBLK
   5
C6
 100
AcDbEntity
   8
0
 100
AcDbBlockEnd
   0
BLOCK
   5
C7
 100
AcDbEntity
   8
0
 100
AcDbBlockBegin
   2
*D3
  70
65
  10
0.0
  20
0.0
  30
0.0
   3
*D3
   0
LINE
   5
C8
 100
AcDbEntity
   8
LEVEL001
 100
AcDbLine
   6
CONTINUOUS
  62
3
  10
 107.79986501946
  20
 240.56351408022
  30
0.0
  11
 107.79986501946
  21
 250.45990181056
  31
0.0
   0
LINE
   5
C9
 100
AcDbEntity
   8
LEVEL001
 100
AcDbLine
   6
CONTINUOUS
  62
3
  10
 132.79986501946
  20
 239.26351408022
  30
0.0
  11
 132.79986501946
  21
 250.45990181056
  31
0.0
   0
LINE
   5
CA
 100
AcDbEntity
   8
LEVEL001
 100
AcDbLine
   6
CONTINUOUS
  62
3
  10
 107.79986501946
  20
 248.95990181056
  30
0.0
  11
 120.29986501946
  21
 248.95990181056
  31
0.0
   0
LINE
   5
CB
 100
AcDbEntity
   8
LEVEL001
 100
AcDbLine
   6
CONTINUOUS
  62
3
  10
 132.79986501946
  20
 248.95990181056
  30
0.0
  11
 120.29986501946
  21
 248.95990181056
  31
0.0
   0
INSERT
   5
CC
 100
AcDbEntity
   8
LEVEL001
   6
CONTINUOUS
  62
3
 100
AcDbBlockReference
   2
_OPEN30
  10
 107.79986501946
  20
 248.95990181056
  30
0.0
  41
 3.0000000000000
  42
 3.0000000000000
  43
 3.0000000000000
  50
 180.00000000000
   0
INSERT
   5
CD
 100
AcDbEntity
   8
LEVEL001
   6
CONTINUOUS
  62
3
 100
AcDbBlockReference
   2
_OPEN30
  10
 132.79986501946
  20
 248.95990181056
  30
0.0
  41
 3.0000000000000
  42
 3.0000000000000
  43
 3.0000000000000
  50
0.0
   0
MTEXT
   5
CE
 100
AcDbEntity
   8
LEVEL001
  62
3
 100
AcDbMText
  10
 120.29986501946
  20
 250.67418752485
  30
0.0
  40
 4.0000000000000
  41
0.0
  71
8
  72
1
   1
\A1;25
   7
GMM001
   0
ENDBLK
   5
CF
 100
AcDbEntity
   8
0
 100
AcDbBlockEnd
   0
BLOCK
   5
D0
 100
AcDbEntity
   8
0
 100
AcDbBlockBegin
   2
*D4
  70
65
  10
0.0
  20
0.0
  30
0.0
   3
*D4
   0
LINE
   5
D1
 100
AcDbEntity
   8
LEVEL001
 100
AcDbLine
   6
CONTINUOUS
  62
3
  10
 107.79986501946
  20
 251.95990181056
  30
0.0
  11
 107.79986501946
  21
 259.70119974567
  31
0.0
   0
LINE
   5
D2
 100
AcDbEntity
   8
LEVEL001
 100
AcDbLine
   6
CONTINUOUS
  62
3
  10
 145.79986501946
  20
 243.14897793405
  30
0.0
  11
 145.79986501946
  21
 259.70119974567
  31
0.0
   0
LINE
   5
D3
 100
AcDbEntity
   8
LEVEL001
 100
AcDbLine
   6
CONTINUOUS
  62
3
  10
 107.79986501946
  20
 258.20119974567
  30
0.0
  11
 126.79986501946
  21
 258.20119974567
  31
0.0
   0
LINE
   5
D4
 100
AcDbEntity
   8
LEVEL001
 100
AcDbLine
   6
CONTINUOUS
  62
3
  10
 145.79986501946
  20
 258.20119974567
  30
0.0
  11
 126.79986501946
  21
 258.20119974567
  31
0.0
   0
INSERT
   5
D5
 100
AcDbEntity
   8
LEVEL001
   6
CONTINUOUS
  62
3
 100
AcDbBlockReference
   2
_OPEN30
  10
 107.79986501946
  20
 258.20119974567
  30
0.0
  41
 3.0000000000000
  42
 3.0000000000000
  43
 3.0000000000000
  50
 180.00000000000
   0
INSERT
   5
D6
 100
AcDbEntity
   8
LEVEL001
   6
CONTINUOUS
  62
3
 100
AcDbBlockReference
   2
_OPEN30
  10
 145.79986501946
  20
 258.20119974567
  30
0.0
  41
 3.0000000000000
  42
 3.0000000000000
  43
 3.0000000000000
  50
0.0
   0
MTEXT
   5
D7
 100
AcDbEntity
   8
LEVEL001
  62
3
 100
AcDbMText
  10
 126.79986501946
  20
 259.91548545995
  30
0.0
  40
 4.0000000000000
  41
0.0
  71
8
  72
1
   1
\A1;38
   7
GMM001
   0
ENDBLK
   5
D8
 100
AcDbEntity
   8
0
 100
AcDbBlockEnd
   0
BLOCK
   5
D9
 100
AcDbEntity
   8
0
 100
AcDbBlockBegin
   2
*D5
  70
65
  10
0.0
  20
0.0
  30
0.0
   3
*D5
   0
LINE
   5
DA
 100
AcDbEntity
   8
LEVEL001
 100
AcDbLine
   6
CONTINUOUS
  62
3
  10
 171.76724089869
  20
 220.06351408022
  30
0.0
  11
 194.50019251669
  21
 220.06351408022
  31
0.0
   0
LINE
   5
DB
 100
AcDbEntity
   8
LEVEL001
 100
AcDbLine
   6
CONTINUOUS
  62
3
  10
 178.29986501946
  20
 170.06351408022
  30
0.0
  11
 194.50019251669
  21
 170.06351408022
  31
0.0
   0
LINE
   5
DC
 100
AcDbEntity
   8
LEVEL001
 100
AcDbLine
   6
CONTINUOUS
  62
3
  10
 193.00019251669
  20
 220.06351408022
  30
0.0
  11
 193.00019251669
  21
 195.06351408022
  31
0.0
   0
LINE
   5
DD
 100
AcDbEntity
   8
LEVEL001
 100
AcDbLine
   6
CONTINUOUS
  62
3
  10
 193.00019251669
  20
 170.06351408022
  30
0.0
  11
 193.00019251669
  21
 195.06351408022
  31
0.0
   0
INSERT
   5
DE
 100
AcDbEntity
   8
LEVEL001
   6
CONTINUOUS
  62
3
 100
AcDbBlockReference
   2
_OPEN30
  10
 193.00019251669
  20
 220.06351408022
  30
0.0
  41
 3.0000000000000
  42
 3.0000000000000
  43
 3.0000000000000
  50
 90.000000000000
   0
INSERT
   5
DF
 100
AcDbEntity
   8
LEVEL001
   6
CONTINUOUS
  62
3
 100
AcDbBlockReference
   2
_OPEN30
  10
 193.00019251669
  20
 170.06351408022
  30
0.0
  41
 3.0000000000000
  42
 3.0000000000000
  43
 3.0000000000000
  50
 270.00000000000
   0
MTEXT
   5
E0
 100
AcDbEntity
   8
LEVEL001
  62
3
 100
AcDbMText
  10
 191.28590680240
  20
 195.06351408022
  30
0.0
  40
 4.0000000000000
  41
0.0
  71
8
  72
1
   1
\A1;50
   7
GMM001
  11
0.0
  21
 1.0000000000000
  31
0.0
   0
ENDBLK
   5
E1
 100
AcDbEntity
   8
0
 100
AcDbBlockEnd
   0
BLOCK
   5
E2
 100
AcDbEntity
   8
0
 100
AcDbBlockBegin
   2
*D6
  70
65
  10
0.0
  20
0.0
  30
0.0
   3
*D6
   0
LINE
   5
E3
 100
AcDbEntity
   8
LEVEL001
 100
AcDbLine
   6
CONTINUOUS
  62
3
  10
 145.79986501946
  20
 220.06351408022
  30
0.0
  11
 151.53498378325
  21
 227.63704778420
  31
0.0
   0
LINE
   5
E4
 100
AcDbEntity
   8
LEVEL001
 100
AcDbLine
   6
CONTINUOUS
  62
3
  10
 151.53498378325
  20
 227.63704778420
  30
0.0
  11
 168.65895724641
  21
 250.25017848139
  31
0.0
   0
INSERT
   5
E5
 100
AcDbEntity
   8
LEVEL001
   6
CONTINUOUS
  62
3
 100
AcDbBlockReference
   2
_OPEN30
  10
 157.27010254703
  20
 235.21058148818
  30
0.0
  41
 3.0000000000000
  42
 3.0000000000000
  43
 3.0000000000000
  50
 232.86488353396
   0
MTEXT
   5
E6
 100
AcDbEntity
   8
LEVEL001
  62
3
 100
AcDbMText
  10
 160.04794400423
  20
 241.71851824126
  30
0.0
  40
 4.0000000000000
  41
0.0
  71
7
  72
1
   1
\A1;R19
   7
GMM001
  11
 0.60369671197719
  21
 0.79721407410301
  31
0.0
   0
ENDBLK
   5
E7
 100
AcDbEntity
   8
0
 100
AcDbBlockEnd
   0
BLOCK
   5
E8
 100
AcDbEntity
   8
0
 100
AcDbBlockBegin
   2
*D7
  70
65
  10
0.0
  20
0.0
  30
0.0
   3
*D7
   0
LINE
   5
E9
 100
AcDbEntity
   8
LEVEL001
 100
AcDbLine
   6
CONTINUOUS
  62
3
  10
 107.79986501946
  20
 199.56351408022
  30
0.0
  11
 107.79986501946
  21
 188.23493959578
  31
0.0
   0
LINE
   5
EA
 100
AcDbEntity
   8
LEVEL001
 100
AcDbLine
   6
CONTINUOUS
  62
3
  10
 114.79986501946
  20
 196.30659692648
  30
0.0
  11
 114.79986501946
  21
 188.23493959578
  31
0.0
   0
LINE
   5
EB
 100
AcDbEntity
   8
LEVEL001
 100
AcDbLine
   6
CONTINUOUS
  62
3
  10
 107.79986501946
  20
 189.73493959578
  30
0.0
  11
 111.29986501946
  21
 189.73493959578
  31
0.0
   0
LINE
   5
EC
 100
AcDbEntity
   8
LEVEL001
 100
AcDbLine
   6
CONTINUOUS
  62
3
  10
 114.79986501946
  20
 189.73493959578
  30
0.0
  11
 111.29986501946
  21
 189.73493959578
  31
0.0
   0
INSERT
   5
ED
 100
AcDbEntity
   8
LEVEL001
   6
CONTINUOUS
  62
3
 100
AcDbBlockReference
   2
_OPEN30
  10
 107.79986501946
  20
 189.73493959578
  30
0.0
  41
 3.0000000000000
  42
 3.0000000000000
  43
 3.0000000000000
  50
 180.00000000000
   0
INSERT
   5
EE
 100
AcDbEntity
   8
LEVEL001
   6
CONTINUOUS
  62
3
 100
AcDbBlockReference
   2
_OPEN30
  10
 114.79986501946
  20
 189.73493959578
  30
0.0
  41
 3.0000000000000
  42
 3.0000000000000
  43
 3.0000000000000
  50
0.0
   0
MTEXT
   5
EF
 100
AcDbEntity
   8
LEVEL001
  62
3
 100
AcDbMText
  10
 111.29986501946
  20
 191.44922531006
  30
0.0
  40
 4.0000000000000
  41
0.0
  71
8
  72
1
   1
\A1;7
   7
GMM001
   0
ENDBLK
   5
F0
 100
AcDbEntity
   8
0
 100
AcDbBlockEnd
   0
BLOCK
   5
F1
 100
AcDbEntity
   8
0
 100
AcDbBlockBegin
   2
*D8
  70
65
  10
0.0
  20
0.0
  30
0.0
   3
*D8
   0
LINE
   5
F2
 100
AcDbEntity
   8
LEVEL001
 100
AcDbLine
   6
CONTINUOUS
  62
3
  10
 137.29986501946
  20
 170.06351408022
  30
0.0
  11
 128.00152890736
  21
 170.06351408022
  31
0.0
   0
LINE
   5
F3
 100
AcDbEntity
   8
LEVEL001
 100
AcDbLine
   6
CONTINUOUS
  62
3
  10
 134.08116135651
  20
 177.06351408022
  30
0.0
  11
 128.00152890736
  21
 177.06351408022
  31
0.0
   0
LINE
   5
F4
 100
AcDbEntity
   8
LEVEL001
 100
AcDbLine
   6
CONTINUOUS
  62
3
  10
 129.50152890736
  20
 170.06351408022
  30
0.0
  11
 129.50152890736
  21
 173.56351408022
  31
0.0
   0
LINE
   5
F5
 100
AcDbEntity
   8
LEVEL001
 100
AcDbLine
   6
CONTINUOUS
  62
3
  10
 129.50152890736
  20
 177.06351408022
  30
0.0
  11
 129.50152890736
  21
 173.56351408022
  31
0.0
   0
INSERT
   5
F6
 100
AcDbEntity
   8
LEVEL001
   6
CONTINUOUS
  62
3
 100
AcDbBlockReference
   2
_OPEN30
  10
 129.50152890736
  20
 170.06351408022
  30
0.0
  41
 3.0000000000000
  42
 3.0000000000000
  43
 3.0000000000000
  50
 270.00000000000
   0
INSERT
   5
F7
 100
AcDbEntity
   8
LEVEL001
   6
CONTINUOUS
  62
3
 100
AcDbBlockReference
   2
_OPEN30
  10
 129.50152890736
  20
 177.06351408022
  30
0.0
  41
 3.0000000000000
  42
 3.0000000000000
  43
 3.0000000000000
  50
 90.000000000000
   0
MTEXT
   5
F8
 100
AcDbEntity
   8
LEVEL001
  62
3
 100
AcDbMText
  10
 127.78724319307
  20
 173.56351408022
  30
0.0
  40
 4.0000000000000
  41
0.0
  71
8
  72
1
   1
\A1;7
   7
GMM001
  11
0.0
  21
 1.0000000000000
  31
0.0
   0
ENDBLK
   5
F9
 100
AcDbEntity
   8
0
 100
AcDbBlockEnd
   0
BLOCK
   5
FA
 100
AcDbEntity
   8
0
 100
AcDbBlockBegin
   2
*D9
  70
65
  10
0.0
  20
0.0
  30
0.0
   3
*D9
   0
LINE
   5
FB
 100
AcDbEntity
   8
LEVEL001
 100
AcDbLine
   6
CONTINUOUS
  62
3
  10
 138.79986501946
  20
 168.56351408022
  30
0.0
  11
 138.79986501946
  21
 145.87464898840
  31
0.0
   0
LINE
   5
FC
 100
AcDbEntity
   8
LEVEL001
 100
AcDbLine
   6
CONTINUOUS
  62
3
  10
 176.79986501946
  20
 168.56351408022
  30
0.0
  11
 176.79986501946
  21
 145.87464898840
  31
0.0
   0
LINE
   5
FD
 100
AcDbEntity
   8
LEVEL001
 100
AcDbLine
   6
CONTINUOUS
  62
3
  10
 138.79986501946
  20
 147.37464898840
  30
0.0
  11
 157.79986501946
  21
 147.37464898840
  31
0.0
   0
LINE
   5
FE
 100
AcDbEntity
   8
LEVEL001
 100
AcDbLine
   6
CONTINUOUS
  62
3
  10
 176.79986501946
  20
 147.37464898840
  30
0.0
  11
 157.79986501946
  21
 147.37464898840
  31
0.0
   0
INSERT
   5
FF
 100
AcDbEntity
   8
LEVEL001
   6
CONTINUOUS
  62
3
 100
AcDbBlockReference
   2
_OPEN30
  10
 138.79986501946
  20
 147.37464898840
  30
0.0
  41
 3.0000000000000
  42
 3.0000000000000
  43
 3.0000000000000
  50
 180.00000000000
   0
INSERT
   5
100
 100
AcDbEntity
   8
LEVEL001
   6
CONTINUOUS
  62
3
 100
AcDbBlockReference
   2
_OPEN30
  10
 176.79986501946
  20
 147.37464898840
  30
0.0
  41
 3.0000000000000
  42
 3.0000000000000
  43
 3.0000000000000
  50
0.0
   0
MTEXT
   5
101
 100
AcDbEntity
   8
LEVEL001
  62
3
 100
AcDbMText
  10
 157.79986501946
  20
 149.08893470268
  30
0.0
  40
 4.0000000000000
  41
0.0
  71
8
  72
1
   1
\A1;38
   7
GMM001
   0
ENDBLK
   5
102
 100
AcDbEntity
   8
0
 100
AcDbBlockEnd
   0
BLOCK
   5
103
 100
AcDbEntity
   8
0
 100
AcDbBlockBegin
   2
*D10
  70
65
  10
0.0
  20
0.0
  30
0.0
   3
*D10
   0
LINE
   5
104
 100
AcDbEntity
   8
LEVEL001
 100
AcDbLine
   6
CONTINUOUS
  62
3
  10
 140.09986501946
  20
 168.56351408022
  30
0.0
  11
 140.09986501946
  21
 153.81801182026
  31
0.0
   0
LINE
   5
105
 100
AcDbEntity
   8
LEVEL001
 100
AcDbLine
   6
CONTINUOUS
  62
3
  10
 175.49986501946
  20
 168.56351408022
  30
0.0
  11
 175.49986501946
  21
 153.81801182026
  31
0.0
   0
LINE
   5
106
 100
AcDbEntity
   8
LEVEL001
 100
AcDbLine
   6
CONTINUOUS
  62
3
  10
 140.09986501946
  20
 155.31801182026
  30
0.0
  11
 157.79986501946
  21
 155.31801182026
  31
0.0
   0
LINE
   5
107
 100
AcDbEntity
   8
LEVEL001
 100
AcDbLine
   6
CONTINUOUS
  62
3
  10
 175.49986501946
  20
 155.31801182026
  30
0.0
  11
 157.79986501946
  21
 155.31801182026
  31
0.0
   0
INSERT
   5
108
 100
AcDbEntity
   8
LEVEL001
   6
CONTINUOUS
  62
3
 100
AcDbBlockReference
   2
_OPEN30
  10
 140.09986501946
  20
 155.31801182026
  30
0.0
  41
 3.0000000000000
  42
 3.0000000000000
  43
 3.0000000000000
  50
 180.00000000000
   0
INSERT
   5
109
 100
AcDbEntity
   8
LEVEL001
   6
CONTINUOUS
  62
3
 100
AcDbBlockReference
   2
_OPEN30
  10
 175.49986501946
  20
 155.31801182026
  30
0.0
  41
 3.0000000000000
  42
 3.0000000000000
  43
 3.0000000000000
  50
0.0
   0
MTEXT
   5
10A
 100
AcDbEntity
   8
LEVEL001
  62
3
 100
AcDbMText
  10
 157.79986501946
  20
 157.03229753454
  30
0.0
  40
 4.0000000000000
  41
0.0
  71
8
  72
1
   1
\A1;%%c35.4
   7
GMM001
   0
ENDBLK
   5
10B
 100
AcDbEntity
   8
0
 100
AcDbBlockEnd
   0
BLOCK
   5
10C
 100
AcDbEntity
   8
0
 100
AcDbBlockBegin
   2
*D11
  70
65
  10
0.0
  20
0.0
  30
0.0
   3
*D11
   0
LINE
   5
10D
 100
AcDbEntity
   8
LEVEL001
 100
AcDbLine
   6
CONTINUOUS
  62
3
  10
 126.50152890736
  20
 170.06351408022
  30
0.0
  11
 120.01919649362
  21
 170.06351408022
  31
0.0
   0
LINE
   5
10E
 100
AcDbEntity
   8
LEVEL001
 100
AcDbLine
   6
CONTINUOUS
  62
3
  10
 138.59986501946
  20
 195.06351408022
  30
0.0
  11
 120.01919649362
  21
 195.06351408022
  31
0.0
   0
LINE
   5
10F
 100
AcDbEntity
   8
LEVEL001
 100
AcDbLine
   6
CONTINUOUS
  62
3
  10
 121.51919649362
  20
 170.06351408022
  30
0.0
  11
 121.51919649362
  21
 182.56351408022
  31
0.0
   0
LINE
   5
110
 100
AcDbEntity
   8
LEVEL001
 100
AcDbLine
   6
CONTINUOUS
  62
3
  10
 121.51919649362
  20
 195.06351408022
  30
0.0
  11
 121.51919649362
  21
 182.56351408022
  31
0.0
   0
INSERT
   5
111
 100
AcDbEntity
   8
LEVEL001
   6
CONTINUOUS
  62
3
 100
AcDbBlockReference
   2
_OPEN30
  10
 121.51919649362
  20
 170.06351408022
  30
0.0
  41
 3.0000000000000
  42
 3.0000000000000
  43
 3.0000000000000
  50
 270.00000000000
   0
INSERT
   5
112
 100
AcDbEntity
   8
LEVEL001
   6
CONTINUOUS
  62
3
 100
AcDbBlockReference
   2
_OPEN30
  10
 121.51919649362
  20
 195.06351408022
  30
0.0
  41
 3.0000000000000
  42
 3.0000000000000
  43
 3.0000000000000
  50
 90.000000000000
   0
MTEXT
   5
113
 100
AcDbEntity
   8
LEVEL001
  62
3
 100
AcDbMText
  10
 119.80491077933
  20
 182.56351408022
  30
0.0
  40
 4.0000000000000
  41
0.0
  71
8
  72
1
   1
\A1;25
   7
GMM001
  11
0.0
  21
 1.0000000000000
  31
0.0
   0
ENDBLK
   5
114
 100
AcDbEntity
   8
0
 100
AcDbBlockEnd
   0
BLOCK
   5
115
 100
AcDbEntity
   8
0
 100
AcDbBlockBegin
   2
*D12
  70
65
  10
0.0
  20
0.0
  30
0.0
   3
*D12
   0
LINE
   5
116
 100
AcDbEntity
   8
LEVEL001
 100
AcDbLine
   6
CONTINUOUS
  62
3
  10
 107.79986501946
  20
 101.26262912447
  30
0.0
  11
 107.79986501946
  21
 110.47185653085
  31
0.0
   0
LINE
   5
117
 100
AcDbEntity
   8
LEVEL001
 100
AcDbLine
   6
CONTINUOUS
  62
3
  10
 132.79986501946
  20
 99.962629124465
  30
0.0
  11
 132.79986501946
  21
 110.47185653085
  31
0.0
   0
LINE
   5
118
 100
AcDbEntity
   8
LEVEL001
 100
AcDbLine
   6
CONTINUOUS
  62
3
  10
 107.79986501946
  20
 108.97185653085
  30
0.0
  11
 120.29986501946
  21
 108.97185653085
  31
0.0
   0
LINE
   5
119
 100
AcDbEntity
   8
LEVEL001
 100
AcDbLine
   6
CONTINUOUS
  62
3
  10
 132.79986501946
  20
 108.97185653085
  30
0.0
  11
 120.29986501946
  21
 108.97185653085
  31
0.0
   0
INSERT
   5
11A
 100
AcDbEntity
   8
LEVEL001
   6
CONTINUOUS
  62
3
 100
AcDbBlockReference
   2
_OPEN30
  10
 107.79986501946
  20
 108.97185653085
  30
0.0
  41
 3.0000000000000
  42
 3.0000000000000
  43
 3.0000000000000
  50
 180.00000000000
   0
INSERT
   5
11B
 100
AcDbEntity
   8
LEVEL001
   6
CONTINUOUS
  62
3
 100
AcDbBlockReference
   2
_OPEN30
  10
 132.79986501946
  20
 108.97185653085
  30
0.0
  41
 3.0000000000000
  42
 3.0000000000000
  43
 3.0000000000000
  50
0.0
   0
MTEXT
   5
11C
 100
AcDbEntity
   8
LEVEL001
  62
3
 100
AcDbMText
  10
 120.29986501946
  20
 110.68614224513
  30
0.0
  40
 4.0000000000000
  41
0.0
  71
8
  72
1
   1
\A1;25
   7
GMM001
   0
ENDBLK
   5
11D
 100
AcDbEntity
   8
0
 100
AcDbBlockEnd
   0
BLOCK
   5
11E
 100
AcDbEntity
   8
0
 100
AcDbBlockBegin
   2
*D13
  70
65
  10
0.0
  20
0.0
  30
0.0
   3
*D13
   0
LINE
   5
11F
 100
AcDbEntity
   8
LEVEL001
 100
AcDbLine
   6
CONTINUOUS
  62
3
  10
 107.79986501946
  20
 111.97185653085
  30
0.0
  11
 107.79986501946
  21
 119.99221051315
  31
0.0
   0
LINE
   5
120
 100
AcDbEntity
   8
LEVEL001
 100
AcDbLine
   6
CONTINUOUS
  62
3
  10
 145.79986501946
  20
 105.45291423886
  30
0.0
  11
 145.79986501946
  21
 119.99221051315
  31
0.0
   0
LINE
   5
121
 100
AcDbEntity
   8
LEVEL001
 100
AcDbLine
   6
CONTINUOUS
  62
3
  10
 107.79986501946
  20
 118.49221051315
  30
0.0
  11
 126.79986501946
  21
 118.49221051315
  31
0.0
   0
LINE
   5
122
 100
AcDbEntity
   8
LEVEL001
 100
AcDbLine
   6
CONTINUOUS
  62
3
  10
 145.79986501946
  20
 118.49221051315
  30
0.0
  11
 126.79986501946
  21
 118.49221051315
  31
0.0
   0
INSERT
   5
123
 100
AcDbEntity
   8
LEVEL001
   6
CONTINUOUS
  62
3
 100
AcDbBlockReference
   2
_OPEN30
  10
 107.79986501946
  20
 118.49221051315
  30
0.0
  41
 3.0000000000000
  42
 3.0000000000000
  43
 3.0000000000000
  50
 180.00000000000
   0
INSERT
   5
124
 100
AcDbEntity
   8
LEVEL001
   6
CONTINUOUS
  62
3
 100
AcDbBlockReference
   2
_OPEN30
  10
 145.79986501946
  20
 118.49221051315
  30
0.0
  41
 3.0000000000000
  42
 3.0000000000000
  43
 3.0000000000000
  50
0.0
   0
MTEXT
   5
125
 100
AcDbEntity
   8
LEVEL001
  62
3
 100
AcDbMText
  10
 126.79986501946
  20
 120.20649622743
  30
0.0
  40
 4.0000000000000
  41
0.0
  71
8
  72
1
   1
\A1;38
   7
GMM001
   0
ENDBLK
   5
126
 100
AcDbEntity
   8
0
 100
AcDbBlockEnd
   0
BLOCK
   5
127
 100
AcDbEntity
   8
0
 100
AcDbBlockBegin
   2
*D14
  70
65
  10
0.0
  20
0.0
  30
0.0
   3
*D14
   0
LINE
   5
128
 100
AcDbEntity
   8
LEVEL001
 100
AcDbLine
   6
CONTINUOUS
  62
3
  10
 107.79986501946
  20
 60.262629124465
  30
0.0
  11
 107.79986501946
  21
 48.210134775945
  31
0.0
   0
LINE
   5
129
 100
AcDbEntity
   8
LEVEL001
 100
AcDbLine
   6
CONTINUOUS
  62
3
  10
 114.79986501946
  20
 57.005711970725
  30
0.0
  11
 114.79986501946
  21
 48.210134775945
  31
0.0
   0
LINE
   5
12A
 100
AcDbEntity
   8
LEVEL001
 100
AcDbLine
   6
CONTINUOUS
  62
3
  10
 107.79986501946
  20
 49.710134775945
  30
0.0
  11
 111.29986501946
  21
 49.710134775945
  31
0.0
   0
LINE
   5
12B
 100
AcDbEntity
   8
LEVEL001
 100
AcDbLine
   6
CONTINUOUS
  62
3
  10
 114.79986501946
  20
 49.710134775945
  30
0.0
  11
 111.29986501946
  21
 49.710134775945
  31
0.0
   0
INSERT
   5
12C
 100
AcDbEntity
   8
LEVEL001
   6
CONTINUOUS
  62
3
 100
AcDbBlockReference
   2
_OPEN30
  10
 107.79986501946
  20
 49.710134775945
  30
0.0
  41
 3.0000000000000
  42
 3.0000000000000
  43
 3.0000000000000
  50
 180.00000000000
   0
INSERT
   5
12D
 100
AcDbEntity
   8
LEVEL001
   6
CONTINUOUS
  62
3
 100
AcDbBlockReference
   2
_OPEN30
  10
 114.79986501946
  20
 49.710134775945
  30
0.0
  41
 3.0000000000000
  42
 3.0000000000000
  43
 3.0000000000000
  50
0.0
   0
MTEXT
   5
12E
 100
AcDbEntity
   8
LEVEL001
  62
3
 100
AcDbMText
  10
 111.29986501946
  20
 51.424420490230
  30
0.0
  40
 4.0000000000000
  41
0.0
  71
8
  72
1
   1
\A1;7
   7
GMM001
   0
ENDBLK
   5
12F
 100
AcDbEntity
   8
0
 100
AcDbBlockEnd
   0
BLOCK
   5
130
 100
AcDbEntity
   8
0
 100
AcDbBlockBegin
   2
*D15
  70
65
  10
0.0
  20
0.0
  30
0.0
   3
*D15
   0
LINE
   5
131
 100
AcDbEntity
   8
LEVEL001
 100
AcDbLine
   6
CONTINUOUS
  62
3
  10
 106.29986501946
  20
 63.062629124465
  30
0.0
  11
 93.451908248037
  21
 63.062629124465
  31
0.0
   0
LINE
   5
132
 100
AcDbEntity
   8
LEVEL001
 100
AcDbLine
   6
CONTINUOUS
  62
3
  10
 106.29986501946
  20
 98.462629124465
  30
0.0
  11
 93.451908248037
  21
 98.462629124465
  31
0.0
   0
LINE
   5
133
 100
AcDbEntity
   8
LEVEL001
 100
AcDbLine
   6
CONTINUOUS
  62
3
  10
 94.951908248037
  20
 63.062629124465
  30
0.0
  11
 94.951908248037
  21
 80.762629124465
  31
0.0
   0
LINE
   5
134
 100
AcDbEntity
   8
LEVEL001
 100
AcDbLine
   6
CONTINUOUS
  62
3
  10
 94.951908248037
  20
 98.462629124465
  30
0.0
  11
 94.951908248037
  21
 80.762629124465
  31
0.0
   0
INSERT
   5
135
 100
AcDbEntity
   8
LEVEL001
   6
CONTINUOUS
  62
3
 100
AcDbBlockReference
   2
_OPEN30
  10
 94.951908248037
  20
 63.062629124465
  30
0.0
  41
 3.0000000000000
  42
 3.0000000000000
  43
 3.0000000000000
  50
 270.00000000000
   0
INSERT
   5
136
 100
AcDbEntity
   8
LEVEL001
   6
CONTINUOUS
  62
3
 100
AcDbBlockReference
   2
_OPEN30
  10
 94.951908248037
  20
 98.462629124465
  30
0.0
  41
 3.0000000000000
  42
 3.0000000000000
  43
 3.0000000000000
  50
 90.000000000000
   0
MTEXT
   5
137
 100
AcDbEntity
   8
LEVEL001
  62
3
 100
AcDbMText
  10
 93.237622533751
  20
 80.762629124465
  30
0.0
  40
 4.0000000000000
  41
0.0
  71
8
  72
1
   1
\A1;35.4
   7
GMM001
  11
0.0
  21
 1.0000000000000
  31
0.0
   0
ENDBLK
   5
138
 100
AcDbEntity
   8
0
 100
AcDbBlockEnd
   0
BLOCK
   5
139
 100
AcDbEntity
   8
0
 100
AcDbBlockBegin
   2
*D16
  70
65
  10
0.0
  20
0.0
  30
0.0
   3
*D16
   0
LINE
   5
13A
 100
AcDbEntity
   8
LEVEL001
 100
AcDbLine
   6
CONTINUOUS
  62
3
  10
 106.29986501946
  20
 99.762629124465
  30
0.0
  11
 84.522114737712
  21
 99.762629124465
  31
0.0
   0
LINE
   5
13B
 100
AcDbEntity
   8
LEVEL001
 100
AcDbLine
   6
CONTINUOUS
  62
3
  10
 106.29986501946
  20
 61.762629124465
  30
0.0
  11
 84.522114737712
  21
 61.762629124465
  31
0.0
   0
LINE
   5
13C
 100
AcDbEntity
   8
LEVEL001
 100
AcDbLine
   6
CONTINUOUS
  62
3
  10
 86.022114737712
  20
 99.762629124465
  30
0.0
  11
 86.022114737712
  21
 80.762629124465
  31
0.0
   0
LINE
   5
13D
 100
AcDbEntity
   8
LEVEL001
 100
AcDbLine
   6
CONTINUOUS
  62
3
  10
 86.022114737712
  20
 61.762629124465
  30
0.0
  11
 86.022114737712
  21
 80.762629124465
  31
0.0
   0
INSERT
   5
13E
 100
AcDbEntity
   8
LEVEL001
   6
CONTINUOUS
  62
3
 100
AcDbBlockReference
   2
_OPEN30
  10
 86.022114737712
  20
 99.762629124465
  30
0.0
  41
 3.0000000000000
  42
 3.0000000000000
  43
 3.0000000000000
  50
 90.000000000000
   0
INSERT
   5
13F
 100
AcDbEntity
   8
LEVEL001
   6
CONTINUOUS
  62
3
 100
AcDbBlockReference
   2
_OPEN30
  10
 86.022114737712
  20
 61.762629124465
  30
0.0
  41
 3.0000000000000
  42
 3.0000000000000
  43
 3.0000000000000
  50
 270.00000000000
   0
MTEXT
   5
140
 100
AcDbEntity
   8
LEVEL001
  62
3
 100
AcDbMText
  10
 84.307829023426
  20
 80.762629124465
  30
0.0
  40
 4.0000000000000
  41
0.0
  71
8
  72
1
   1
\A1;38
   7
GMM001
  11
0.0
  21
 1.0000000000000
  31
0.0
   0
ENDBLK
   5
141
 100
AcDbEntity
   8
0
 100
AcDbBlockEnd
   0
BLOCK
   5
142
 100
AcDbEntity
   8
0
 100
AcDbBlockBegin
   2
*D17
  70
65
  10
0.0
  20
0.0
  30
0.0
   3
*D17
   0
LINE
   5
143
 100
AcDbEntity
   8
LEVEL001
 100
AcDbLine
   6
CONTINUOUS
  62
3
  10
 163.85050011408
  20
 62.027246217216
  30
0.0
  11
 157.33283107674
  21
 50.738312297625
  31
0.0
   0
LINE
   5
144
 100
AcDbEntity
   8
LEVEL001
 100
AcDbLine
   6
CONTINUOUS
  62
3
  10
 185.50113520869
  20
 49.527246217216
  30
0.0
  11
 178.98346617135
  21
 38.238312297625
  31
0.0
   0
LINE
   5
145
 100
AcDbEntity
   8
LEVEL001
 100
AcDbLine
   6
CONTINUOUS
  62
3
  10
 158.08283107674
  20
 52.037350403302
  30
0.0
  11
 168.90814862404
  21
 45.787350403302
  31
0.0
   0
LINE
   5
146
 100
AcDbEntity
   8
LEVEL001
 100
AcDbLine
   6
CONTINUOUS
  62
3
  10
 179.73346617135
  20
 39.537350403302
  30
0.0
  11
 168.90814862404
  21
 45.787350403302
  31
0.0
   0
INSERT
   5
147
 100
AcDbEntity
   8
LEVEL001
   6
CONTINUOUS
  62
3
 100
AcDbBlockReference
   2
_OPEN30
  10
 158.08283107674
  20
 52.037350403302
  30
0.0
  41
 3.0000000000000
  42
 3.0000000000000
  43
 3.0000000000000
  50
 150.00000000000
   0
INSERT
   5
148
 100
AcDbEntity
   8
LEVEL001
   6
CONTINUOUS
  62
3
 100
AcDbBlockReference
   2
_OPEN30
  10
 179.73346617135
  20
 39.537350403302
  30
0.0
  41
 3.0000000000000
  42
 3.0000000000000
  43
 3.0000000000000
  50
 330.00000000000
   0
MTEXT
   5
149
 100
AcDbEntity
   8
LEVEL001
  62
3
 100
AcDbMText
  10
 169.76529148118
  20
 47.271965381218
  30
0.0
  40
 4.0000000000000
  41
0.0
  71
8
  72
1
   1
\A1;25
   7
GMM001
  11
 0.86602540378444
  21
-0.49999999999999
  31
0.0
   0
ENDBLK
   5
14A
 100
AcDbEntity
   8
0
 100
AcDbBlockEnd
   0
BLOCK
   5
14B
 100
AcDbEntity
   8
0
 100
AcDbBlockBegin
   2
*D18
  70
65
  10
0.0
  20
0.0
  30
0.0
   3
*D18
   0
LINE
   5
14C
 100
AcDbEntity
   8
LEVEL001
 100
AcDbLine
   6
CONTINUOUS
  62
3
  10
 187.55017331436
  20
 50.076284322893
  30
0.0
  11
 200.00119774189
  21
 42.887682017975
  31
0.0
   0
LINE
   5
14D
 100
AcDbEntity
   8
LEVEL001
 100
AcDbLine
   6
CONTINUOUS
  62
3
  10
 205.25017331436
  20
 80.733583616862
  30
0.0
  11
 217.70119774189
  21
 73.544981311944
  31
0.0
   0
LINE
   5
14E
 100
AcDbEntity
   8
LEVEL001
 100
AcDbLine
   6
CONTINUOUS
  62
3
  10
 198.70215963621
  20
 43.637682017975
  30
0.0
  11
 207.55215963621
  21
 58.966331664960
  31
0.0
   0
LINE
   5
14F
 100
AcDbEntity
   8
LEVEL001
 100
AcDbLine
   6
CONTINUOUS
  62
3
  10
 216.40215963621
  20
 74.294981311944
  30
0.0
  11
 207.55215963621
  21
 58.966331664960
  31
0.0
   0
INSERT
   5
150
 100
AcDbEntity
   8
LEVEL001
   6
CONTINUOUS
  62
3
 100
AcDbBlockReference
   2
_OPEN30
  10
 198.70215963621
  20
 43.637682017975
  30
0.0
  41
 3.0000000000000
  42
 3.0000000000000
  43
 3.0000000000000
  50
 240.00000000000
   0
INSERT
   5
151
 100
AcDbEntity
   8
LEVEL001
   6
CONTINUOUS
  62
3
 100
AcDbBlockReference
   2
_OPEN30
  10
 216.40215963621
  20
 74.294981311944
  30
0.0
  41
 3.0000000000000
  42
 3.0000000000000
  43
 3.0000000000000
  50
 60.000000000000
   0
MTEXT
   5
152
 100
AcDbEntity
   8
LEVEL001
  62
3
 100
AcDbMText
  10
 206.06754465829
  20
 59.823474522103
  30
0.0
  40
 4.0000000000000
  41
0.0
  71
8
  72
1
   1
\A1;%%c35.4
   7
GMM001
  11
 0.50000000000000
  21
 0.86602540378444
  31
0.0
   0
ENDBLK
   5
153
 100
AcDbEntity
   8
0
 100
AcDbBlockEnd
   0
BLOCK
   5
154
 100
AcDbEntity
   8
0
 100
AcDbBlockBegin
   2
*D19
  70
65
  10
0.0
  20
0.0
  30
0.0
   3
*D19
   0
LINE
   5
155
 100
AcDbEntity
   8
LEVEL001
 100
AcDbLine
   6
CONTINUOUS
  62
3
  10
 119.03174091778
  20
 80.762629124465
  30
0.0
  11
 119.03174091778
  21
 80.762629124465
  31
0.0
   0
LINE
   5
156
 100
AcDbEntity
   8
LEVEL001
 100
AcDbLine
   6
CONTINUOUS
  62
3
  10
 212.56430047628
  20
 56.072570801727
  30
0.0
  11
 215.06538829968
  21
 54.628567073622
  31
0.0
   0
ARC
   5
157
 100
AcDbEntity
   8
LEVEL001
   6
CONTINUOUS
  62
3
 100
AcDbCircle
  10
 169.79986501946
  20
 80.762629124465
  30
0.0
  40
 50.768124101687
 100
AcDbArc
  50
 180.00000000000
  51
 255.00000000000
   0
ARC
   5
158
 100
AcDbEntity
   8
LEVEL001
   6
CONTINUOUS
  62
3
 100
AcDbCircle
  10
 169.79986501946
  20
 80.762629124465
  30
0.0
  40
 50.768124101687
 100
AcDbArc
  50
 255.00000000000
  51
 330.00000000000
   0
INSERT
   5
159
 100
AcDbEntity
   8
LEVEL001
   6
CONTINUOUS
  62
3
 100
AcDbBlockReference
   2
_OPEN30
  10
 119.03174091778
  20
 80.762629124465
  30
0.0
  41
 3.0000000000000
  42
 3.0000000000000
  43
 3.0000000000000
  50
 450.00000000000
   0
INSERT
   5
15A
 100
AcDbEntity
   8
LEVEL001
   6
CONTINUOUS
  62
3
 100
AcDbBlockReference
   2
_OPEN30
  10
 213.76635019401
  20
 55.378567073622
  30
0.0
  41
 3.0000000000000
  42
 3.0000000000000
  43
 3.0000000000000
  50
 60.000000000000
   0
MTEXT
   5
15B
 100
AcDbEntity
   8
LEVEL001
  62
3
 100
AcDbMText
  10
 157.10379740942
  20
 33.380259747464
  30
0.0
  40
 4.0000000000000
  41
0.0
  71
8
  72
1
   1
\A1;150%%d
   7
GMM001
  11
 0.96592582628907
  21
-0.25881904510252
  31
0.0
   0
ENDBLK
   5
15C
 100
AcDbEntity
   8
0
 100
AcDbBlockEnd
   0
ENDSEC
   0
SECTION
   2
ENTITIES
   0
LINE
   5
15D
 100
AcDbEntity
   8
LEVEL001
 100
AcDbLine
   6
CONTINUOUS
  62
7
  10
 163.36090537467
  20
 228.93714645321
  30
0.0
  11
 139.04232586422
  21
 200.71630380768
  31
0.0
   0
ARC
   5
15E
 100
AcDbEntity
   8
LEVEL001
   6
CONTINUOUS
  62
7
 100
AcDbCircle
  10
 163.96693669887
  20
 228.41491467125
  30
0.0
  40
 0.80000000000000
 100
AcDbArc
  50
 41.478033354783
  51
 139.24773290764
   0
ARC
   5
15F
 100
AcDbEntity
   8
LEVEL001
   6
CONTINUOUS
  62
7
 100
AcDbCircle
  10
 139.79986501946
  20
 200.06351408022
  30
0.0
  40
 1.0000000000000
 100
AcDbArc
  50
 139.24773290725
  51
 180.00000000012
   0
LINE
   5
160
 100
AcDbEntity
   8
LEVEL001
 100
AcDbLine
   6
DOT
  62
7
  10
 142.31601124134
  20
 198.06351408022
  30
0.0
  11
 142.29986501946
  21
 198.08657327480
  31
0.0
   0
ARC
   5
161
 100
AcDbEntity
   8
LEVEL001
   6
CONTINUOUS
  62
7
 100
AcDbCircle
  10
 145.79986501946
  20
 220.06351408022
  30
0.0
  40
 19.000000000000
 100
AcDbArc
  50
 25.963508171941
  51
 89.999999999998
   0
LINE
   5
162
 100
AcDbEntity
   8
LEVEL001
 100
AcDbLine
   6
DASHDOT
  62
2
  10
 135.58116135651
  20
 177.06351408022
  30
0.0
  11
 142.50348190715
  21
 177.06351408022
  31
0.0
   0
ARC
   5
163
 100
AcDbEntity
   8
LEVEL001
   6
CONTINUOUS
  62
7
 100
AcDbCircle
  10
 108.59986501946
  20
 238.26351408022
  30
0.0
  40
 0.80000000000000
 100
AcDbArc
  50
 89.999999999856
  51
 180.00000000000
   0
POINT
   5
164
 100
AcDbEntity
   8
LEVEL001
 100
AcDbPoint
  62
7
  10
 107.79986501946
  20
 239.06351408022
  30
0.0
   0
ARC
   5
165
 100
AcDbEntity
   8
LEVEL001
   6
CONTINUOUS
  62
7
 100
AcDbCircle
  10
 108.59986501946
  20
 201.86351408022
  30
0.0
  40
 0.80000000000000
 100
AcDbArc
  50
 180.00000000000
  51
 270.00000000013
   0
POINT
   5
166
 100
AcDbEntity
   8
LEVEL001
 100
AcDbPoint
  62
7
  10
 107.79986501946
  20
 201.06351408022
  30
0.0
   0
LINE
   5
167
 100
AcDbEntity
   8
LEVEL001
 100
AcDbLine
   6
DASHDOT
  62
2
  10
 157.79986501946
  20
 195.90484317070
  30
0.0
  11
 157.79986501946
  21
 163.39156883440
  31
0.0
   0
LINE
   5
168
 100
AcDbEntity
   8
LEVEL001
 100
AcDbLine
   6
DASHDOT
  62
2
  10
 100.17970310582
  20
 220.06351408022
  30
0.0
  11
 170.26724089869
  21
 220.06351408022
  31
0.0
   0
LINE
   5
169
 100
AcDbEntity
   8
LEVEL001
 100
AcDbLine
   6
DOT
  62
1
  10
 116.79986501955
  20
 202.36351408022
  30
0.0
  11
 117.89986501946
  21
 201.26351408030
  31
0.0
   0
LINE
   5
16A
 100
AcDbEntity
   8
LEVEL001
 100
AcDbLine
   6
DOT
  62
1
  10
 117.89986501946
  20
 201.06351408022
  30
0.0
  11
 117.89986501946
  21
 201.26351408022
  31
0.0
   0
LINE
   5
16B
 100
AcDbEntity
   8
LEVEL001
 100
AcDbLine
   6
DOT
  62
1
  10
 112.79986501938
  20
 202.36351408022
  30
0.0
  11
 111.69986501946
  21
 201.26351408030
  31
0.0
   0
LINE
   5
16C
 100
AcDbEntity
   8
LEVEL001
 100
AcDbLine
   6
DOT
  62
1
  10
 111.69986501946
  20
 201.06351408022
  30
0.0
  11
 111.69986501946
  21
 201.26351408022
  31
0.0
   0
LINE
   5
16D
 100
AcDbEntity
   8
LEVEL001
 100
AcDbLine
   6
DOT
  62
1
  10
 111.69986501946
  20
 201.26351408022
  30
0.0
  11
 117.89986501946
  21
 201.26351408022
  31
0.0
   0
LINE
   5
16E
 100
AcDbEntity
   8
LEVEL001
 100
AcDbLine
   6
CONTINUOUS
  62
7
  10
 108.59986501946
  20
 239.06351408022
  30
0.0
  11
 145.79986501946
  21
 239.06351408022
  31
0.0
   0
LINE
   5
16F
 100
AcDbEntity
   8
LEVEL001
 100
AcDbLine
   6
DOT
  62
1
  10
 132.79986501946
  20
 202.36351408022
  30
0.0
  11
 132.79986501946
  21
 237.76351408022
  31
0.0
   0
LINE
   5
170
 100
AcDbEntity
   8
LEVEL001
 100
AcDbLine
   6
CONTINUOUS
  62
7
  10
 139.37148039582
  20
 201.06351408022
  30
0.0
  11
 108.59986501946
  21
 201.06351408022
  31
0.0
   0
LINE
   5
171
 100
AcDbEntity
   8
LEVEL001
 100
AcDbLine
   6
DOT
  62
1
  10
 139.37148039582
  20
 201.06351408022
  30
0.0
  11
 145.79986501946
  21
 201.06351408022
  31
0.0
   0
ARC
   5
172
 100
AcDbEntity
   8
LEVEL001
   6
DOT
  62
1
 100
AcDbCircle
  10
 145.79986501946
  20
 220.06351408022
  30
0.0
  40
 19.000000000000
 100
AcDbArc
  50
 270.00000000000
  51
 25.963508171941
   0
LINE
   5
173
 100
AcDbEntity
   8
LEVEL001
 100
AcDbLine
   6
DASHDOT
  62
2
  10
 145.79986501946
  20
 241.64897793405
  30
0.0
  11
 145.79986501946
  21
 199.31033486619
  31
0.0
   0
LINE
   5
174
 100
AcDbEntity
   8
LEVEL001
 100
AcDbLine
   6
DOT
  62
1
  10
 108.29986501946
  20
 202.36351408022
  30
0.0
  11
 132.79986501946
  21
 202.36351408022
  31
0.0
   0
ARC
   5
175
 100
AcDbEntity
   8
LEVEL001
   6
DOT
  62
1
 100
AcDbCircle
  10
 108.29986501946
  20
 201.86351408022
  30
0.0
  40
 0.50000000000000
 100
AcDbArc
  50
 90.000000000000
  51
 180.00000000026
   0
POINT
   5
176
 100
AcDbEntity
   8
LEVEL001
 100
AcDbPoint
  62
1
  10
 107.79986501946
  20
 202.36351408022
  30
0.0
   0
LINE
   5
177
 100
AcDbEntity
   8
LEVEL001
 100
AcDbLine
   6
DOT
  62
1
  10
 108.29986501946
  20
 237.76351408022
  30
0.0
  11
 132.79986501946
  21
 237.76351408022
  31
0.0
   0
ARC
   5
178
 100
AcDbEntity
   8
LEVEL001
   6
DOT
  62
1
 100
AcDbCircle
  10
 108.29986501946
  20
 238.26351408022
  30
0.0
  40
 0.50000000000000
 100
AcDbArc
  50
 180.00000000033
  51
 270.00000000000
   0
POINT
   5
179
 100
AcDbEntity
   8
LEVEL001
 100
AcDbPoint
  62
1
  10
 107.79986501946
  20
 237.76351408022
  30
0.0
   0
LINE
   5
17A
 100
AcDbEntity
   8
LEVEL001
 100
AcDbLine
   6
CONTINUOUS
  62
7
  10
 107.79986501946
  20
 201.86351408022
  30
0.0
  11
 107.79986501946
  21
 238.26351408022
  31
0.0
   0
ARC
   5
17B
 100
AcDbEntity
   8
LEVEL001
   6
DOT
  62
1
 100
AcDbCircle
  10
 139.59986501946
  20
 170.56351408022
  30
0.0
  40
 0.50000000000000
 100
AcDbArc
  50
 270.00000000000
  51
0.0
   0
POINT
   5
17C
 100
AcDbEntity
   8
LEVEL001
 100
AcDbPoint
  62
1
  10
 140.09986501946
  20
 170.06351408022
  30
0.0
   0
LINE
   5
17D
 100
AcDbEntity
   8
LEVEL001
 100
AcDbLine
   6
DOT
  62
1
  10
 140.09986501946
  20
 170.56351408022
  30
0.0
  11
 140.09986501946
  21
 195.06351408022
  31
0.0
   0
ARC
   5
17E
 100
AcDbEntity
   8
LEVEL001
   6
DOT
  62
1
 100
AcDbCircle
  10
 175.99986501946
  20
 170.56351408022
  30
0.0
  40
 0.50000000000000
 100
AcDbArc
  50
 180.00000000000
  51
 270.00000000016
   0
POINT
   5
17F
 100
AcDbEntity
   8
LEVEL001
 100
AcDbPoint
  62
1
  10
 175.49986501946
  20
 170.06351408022
  30
0.0
   0
ARC
   5
180
 100
AcDbEntity
   8
LEVEL001
   6
CONTINUOUS
  62
7
 100
AcDbCircle
  10
 175.99986501946
  20
 170.86351408022
  30
0.0
  40
 0.80000000000000
 100
AcDbArc
  50
 270.00000000000
  51
0.0
   0
POINT
   5
181
 100
AcDbEntity
   8
LEVEL001
 100
AcDbPoint
  62
7
  10
 176.79986501946
  20
 170.06351408022
  30
0.0
   0
ARC
   5
182
 100
AcDbEntity
   8
LEVEL001
   6
CONTINUOUS
  62
7
 100
AcDbCircle
  10
 139.59986501946
  20
 170.86351408022
  30
0.0
  40
 0.80000000000000
 100
AcDbArc
  50
 180.00000000000
  51
 270.00000000000
   0
POINT
   5
183
 100
AcDbEntity
   8
LEVEL001
 100
AcDbPoint
  62
7
  10
 138.79986501946
  20
 170.06351408022
  30
0.0
   0
LINE
   5
184
 100
AcDbEntity
   8
LEVEL001
 100
AcDbLine
   6
CONTINUOUS
  62
7
  10
 139.59986501946
  20
 170.06351408022
  30
0.0
  11
 175.99986501946
  21
 170.06351408022
  31
0.0
   0
LINE
   5
185
 100
AcDbEntity
   8
LEVEL001
 100
AcDbLine
   6
DOT
  62
1
  10
 140.09986501946
  20
 178.93225488910
  30
0.0
  11
 138.99986501955
  21
 180.03225488902
  31
0.0
   0
LINE
   5
186
 100
AcDbEntity
   8
LEVEL001
 100
AcDbLine
   6
DOT
  62
1
  10
 138.79986501946
  20
 180.03225488902
  30
0.0
  11
 138.99986501955
  21
 180.03225488902
  31
0.0
   0
LINE
   5
187
 100
AcDbEntity
   8
LEVEL001
 100
AcDbLine
   6
DOT
  62
1
  10
 138.99986501955
  20
 173.83225488902
  30
0.0
  11
 138.99986501955
  21
 180.03225488902
  31
0.0
   0
LINE
   5
188
 100
AcDbEntity
   8
LEVEL001
 100
AcDbLine
   6
DOT
  62
1
  10
 140.09986501946
  20
 174.93225488893
  30
0.0
  11
 138.99986501955
  21
 173.83225488902
  31
0.0
   0
LINE
   5
189
 100
AcDbEntity
   8
LEVEL001
 100
AcDbLine
   6
DOT
  62
1
  10
 138.79986501946
  20
 173.83225488902
  30
0.0
  11
 138.99986501955
  21
 173.83225488902
  31
0.0
   0
LINE
   5
18A
 100
AcDbEntity
   8
LEVEL001
 100
AcDbLine
   6
DASHDOT
  62
2
  10
 114.79986501946
  20
 204.66135400565
  30
0.0
  11
 114.79986501946
  21
 197.80659692648
  31
0.0
   0
LINE
   5
18B
 100
AcDbEntity
   8
LEVEL001
 100
AcDbLine
   6
DOT
  62
1
  10
 157.71542099866
  20
 195.06351408022
  30
0.0
  11
 161.99986501946
  21
 198.06351408063
  31
0.0
   0
LINE
   5
18C
 100
AcDbEntity
   8
LEVEL001
 100
AcDbLine
   6
DOT
  62
1
  10
 161.99986501946
  20
 198.06351408022
  30
0.0
  11
 175.49986501946
  21
 198.06351408022
  31
0.0
   0
LINE
   5
18D
 100
AcDbEntity
   8
LEVEL001
 100
AcDbLine
   6
DOT
  62
1
  10
 166.49986501946
  20
 203.53725443557
  30
0.0
  11
 166.49986501946
  21
 198.06351408022
  31
0.0
   0
LINE
   5
18E
 100
AcDbEntity
   8
LEVEL001
 100
AcDbLine
   6
DOT
  62
1
  10
 166.99986501946
  20
 203.53725443557
  30
0.0
  11
 166.99986501946
  21
 201.53725443557
  31
0.0
   0
LINE
   5
18F
 100
AcDbEntity
   8
LEVEL001
 100
AcDbLine
   6
DOT
  62
1
  10
 169.99986501946
  20
 203.53725443557
  30
0.0
  11
 169.99986501946
  21
 201.53725443557
  31
0.0
   0
LINE
   5
190
 100
AcDbEntity
   8
LEVEL001
 100
AcDbLine
   6
DOT
  62
1
  10
 170.49986501946
  20
 203.53725443557
  30
0.0
  11
 170.49986501946
  21
 198.06351408022
  31
0.0
   0
LINE
   5
191
 100
AcDbEntity
   8
LEVEL001
 100
AcDbLine
   6
DASHDOT
  62
3
  10
 168.49986501946
  20
 205.74653528881
  30
0.0
  11
 168.49986501946
  21
 195.50150087386
  31
0.0
   0
ARC
   5
192
 100
AcDbEntity
   8
LEVEL001
   6
DOT
  62
1
 100
AcDbCircle
  10
 139.79986501946
  20
 199.41351408023
  30
0.0
  40
 1.0000000000000
 100
AcDbArc
  50
 41.284751583287
  51
 180.00000000030
   0
LINE
   5
193
 100
AcDbEntity
   8
LEVEL001
 100
AcDbLine
   6
DOT
  62
1
  10
 142.31601124134
  20
 198.06351408022
  30
0.0
  11
 140.55130477595
  21
 200.07331578707
  31
0.0
   0
LINE
   5
194
 100
AcDbEntity
   8
LEVEL001
 100
AcDbLine
   6
DOT
  62
1
  10
 174.49986501946
  20
 201.53725443557
  30
0.0
  11
 174.49986501946
  21
 203.53725443557
  31
0.0
   0
ARC
   5
195
 100
AcDbEntity
   8
LEVEL001
   6
CONTINUOUS
  62
7
 100
AcDbCircle
  10
 156.79986501946
  20
 201.35456778005
  30
0.0
  40
 20.000000000000
 100
AcDbArc
  50
0.0
  51
 11.945540610278
   0
ARC
   5
196
 100
AcDbEntity
   8
LEVEL001
   6
CONTINUOUS
  62
7
 100
AcDbCircle
  10
 125.98200451203
  20
 194.83463881233
  30
0.0
  40
 51.500000000000
 100
AcDbArc
  50
 11.945540610279
  51
 41.478033354841
   0
ARC
   5
197
 100
AcDbEntity
   8
LEVEL001
   6
DOT
  62
1
 100
AcDbCircle
  10
 145.79986501947
  20
 220.06351408022
  30
0.0
  40
 19.650000000000
 100
AcDbArc
  50
 23.031859699409
  51
 26.776670375891
   0
LINE
   5
198
 100
AcDbEntity
   8
LEVEL001
 100
AcDbLine
   6
DOT
  62
1
  10
 175.49986501946
  20
 170.56351408022
  30
0.0
  11
 175.49986501946
  21
 201.35456778005
  31
0.0
   0
LINE
   5
199
 100
AcDbEntity
   8
LEVEL001
 100
AcDbLine
   6
DOT
  62
1
  10
 162.60226339467
  20
 201.53725443557
  30
0.0
  11
 175.49897263416
  21
 201.53725443557
  31
0.0
   0
ARC
   5
19A
 100
AcDbEntity
   8
LEVEL001
   6
DOT
  62
1
 100
AcDbCircle
  10
 156.79986501946
  20
 201.35456778005
  30
0.0
  40
 18.700000000000
 100
AcDbArc
  50
 0.14804036335539E-11
  51
 11.945540610281
   0
ARC
   5
19B
 100
AcDbEntity
   8
LEVEL001
   6
DOT
  62
1
 100
AcDbCircle
  10
 125.98200451203
  20
 194.83463881233
  30
0.0
  40
 50.200000000000
 100
AcDbArc
  50
 11.945540610279
  51
 40.973744689896
   0
LINE
   5
19C
 100
AcDbEntity
   8
LEVEL001
 100
AcDbLine
   6
CONTINUOUS
  62
15
  10
 146.66600657941
  20
 209.56331289185
  30
0.0
  11
 152.56300474031
  21
 199.34941246503
  31
0.0
   0
ARC
   5
19D
 100
AcDbEntity
   8
LEVEL001
   6
CONTINUOUS
  62
15
 100
AcDbCircle
  10
 147.79986501949
  20
 196.59941246503
  30
0.0
  40
 5.5000000000000
 100
AcDbArc
  50
0.0
  51
 29.999999999994
   0
POINT
   5
19E
 100
AcDbEntity
   8
LEVEL001
 100
AcDbPoint
  62
15
  10
 153.29986501949
  20
 198.07313302340
  30
0.0
   0
ARC
   5
19F
 100
AcDbEntity
   8
LEVEL001
   6
CONTINUOUS
  62
15
 100
AcDbCircle
  10
 157.79986501949
  20
 199.27890438934
  30
0.0
  40
 4.5000000000000
 100
AcDbArc
  50
 0.72375288751525E-12
  51
 30.000000000000
   0
POINT
   5
1A0
 100
AcDbEntity
   8
LEVEL001
 100
AcDbPoint
  62
15
  10
 162.29986501949
  20
 200.48467575528
  30
0.0
   0
LINE
   5
1A1
 100
AcDbEntity
   8
LEVEL001
 100
AcDbLine
   6
CONTINUOUS
  62
15
  10
 153.29986501949
  20
 196.59941246503
  30
0.0
  11
 153.29986501949
  21
 170.06351408022
  31
0.0
   0
LINE
   5
1A2
 100
AcDbEntity
   8
LEVEL001
 100
AcDbLine
   6
CONTINUOUS
  62
15
  10
 162.29986501949
  20
 199.27890438934
  30
0.0
  11
 162.29986501949
  21
 170.06351408022
  31
0.0
   0
LINE
   5
1A3
 100
AcDbEntity
   8
LEVEL001
 100
AcDbLine
   6
CONTINUOUS
  62
15
  10
 152.88896463166
  20
 216.78483337198
  30
0.0
  11
 161.69697933652
  21
 201.52890438934
  31
0.0
   0
LINE
   5
1A4
 100
AcDbEntity
   8
LEVEL001
 100
AcDbLine
   6
DOT
  62
1
  10
 140.09986501946
  20
 195.06351408022
  30
0.0
  11
 157.85098912182
  21
 195.06351408022
  31
0.0
   0
LINE
   5
1A5
 100
AcDbEntity
   8
LEVEL001
 100
AcDbLine
   6
DOT
  62
1
  10
 142.31601124134
  20
 198.06351408022
  30
0.0
  11
 157.64124802983
  21
 198.06351408022
  31
0.0
   0
LINE
   5
1A6
 100
AcDbEntity
   8
LEVEL001
 100
AcDbLine
   6
DOT
  62
1
  10
 157.64124802983
  20
 198.06351408022
  30
0.0
  11
 162.60226339453
  21
 201.53725443576
  31
0.0
   0
LINE
   5
1A7
 100
AcDbEntity
   8
LEVEL001
 100
AcDbLine
   6
CONTINUOUS
  62
15
  10
 107.79986501946
  20
 215.56351408022
  30
0.0
  11
 145.79986501946
  21
 215.56351408022
  31
0.0
   0
ARC
   5
1A8
 100
AcDbEntity
   8
LEVEL001
   6
CONTINUOUS
  62
15
 100
AcDbCircle
  10
 145.79986501946
  20
 220.06351408022
  30
0.0
  40
 4.5000000000000
 100
AcDbArc
  50
 270.00000000000
  51
 90.000000000000
   0
LINE
   5
1A9
 100
AcDbEntity
   8
LEVEL001
 100
AcDbLine
   6
CONTINUOUS
  62
15
  10
 107.79986501946
  20
 224.56351408022
  30
0.0
  11
 145.79986501946
  21
 224.56351408022
  31
0.0
   0
LINE
   5
1AA
 100
AcDbEntity
   8
LEVEL001
 100
AcDbLine
   6
DOT
  62
1
  10
 132.79986501947
  20
 222.06351408022
  30
0.0
  11
 145.79986501946
  21
 222.06351408022
  31
0.0
   0
ARC
   5
1AB
 100
AcDbEntity
   8
LEVEL001
   6
DOT
  62
1
 100
AcDbCircle
  10
 145.79986501947
  20
 220.06351408022
  30
0.0
  40
 4.5000000000000
 100
AcDbArc
  50
 101.55621998882
  51
 269.99999999996
   0
CIRCLE
   5
1AC
 100
AcDbEntity
   8
LEVEL001
 100
AcDbCircle
   6
DOT
  62
1
  10
 145.79986501946
  20
 220.06351408022
  30
0.0
  40
 2.0000000000000
   0
LINE
   5
1AD
 100
AcDbEntity
   8
LEVEL001
 100
AcDbLine
   6
DOT
  62
1
  10
 149.21664988203
  20
 223.00666805681
  30
0.0
  11
 163.88790536945
  21
 203.53725443557
  31
0.0
   0
LINE
   5
1AE
 100
AcDbEntity
   8
LEVEL001
 100
AcDbLine
   6
DOT
  62
1
  10
 150.50462139872
  20
 217.97419184294
  30
0.0
  11
 162.89074215333
  21
 201.53725443557
  31
0.0
   0
LINE
   5
1AF
 100
AcDbEntity
   8
LEVEL001
 100
AcDbLine
   6
DOT
  62
1
  10
 150.62315601115
  20
 218.06351408022
  30
0.0
  11
 152.10189241882
  21
 219.17782188925
  31
0.0
   0
LINE
   5
1B0
 100
AcDbEntity
   8
LEVEL001
 100
AcDbLine
   6
DOT
  62
1
  10
 163.88790536945
  20
 203.53725443557
  30
0.0
  11
 174.49986501946
  21
 203.53725443557
  31
0.0
   0
LINE
   5
1B1
 100
AcDbEntity
   8
LEVEL001
 100
AcDbLine
   6
CONTINUOUS
  62
7
  10
 176.79986501946
  20
 201.35456778005
  30
0.0
  11
 176.79986501946
  21
 170.86351408022
  31
0.0
   0
LINE
   5
1B2
 100
AcDbEntity
   8
LEVEL001
 100
AcDbLine
   6
CONTINUOUS
  62
7
  10
 138.79986501946
  20
 200.06351408022
  30
0.0
  11
 138.79986501946
  21
 170.86351408022
  31
0.0
   0
DIMENSION
   5
1B3
 100
AcDbEntity
   8
LEVEL001
   6
CONTINUOUS
  62
3
 100
AcDbDimension
   2
*D1
  10
 86.022114737712
  20
 201.06351408022
  30
0.0
  11
 86.022114737712
  21
 220.06351408022
  31
0.0
  70
0
   3
GMM001
 100
AcDbAlignedDimension
  13
 107.79986501946
  23
 239.06351408022
  33
0.0
  14
 107.79986501946
  24
 201.06351408022
  34
0.0
  50
 270.00000000000
 100
AcDbRotatedDimension
   0
DIMENSION
   5
1B4
 100
AcDbEntity
   8
LEVEL001
   6
CONTINUOUS
  62
3
 100
AcDbDimension
   2
*D2
  10
 94.951908248037
  20
 202.36351408022
  30
0.0
  11
 94.951908248037
  21
 220.06351408022
  31
0.0
  70
0
   3
GMM002
 100
AcDbAlignedDimension
  13
 107.79986501946
  23
 237.76351408022
  33
0.0
  14
 107.79986501946
  24
 202.36351408022
  34
0.0
  50
 270.00000000000
 100
AcDbRotatedDimension
   0
DIMENSION
   5
1B5
 100
AcDbEntity
   8
LEVEL001
   6
CONTINUOUS
  62
3
 100
AcDbDimension
   2
*D3
  10
 132.79986501946
  20
 248.95990181056
  30
0.0
  11
 120.29986501946
  21
 248.95990181056
  31
0.0
  70
0
   3
GMM001
 100
AcDbAlignedDimension
  13
 107.79986501946
  23
 239.06351408022
  33
0.0
  14
 132.79986501946
  24
 237.76351408022
  34
0.0
 100
AcDbRotatedDimension
   0
DIMENSION
   5
1B6
 100
AcDbEntity
   8
LEVEL001
   6
CONTINUOUS
  62
3
 100
AcDbDimension
   2
*D4
  10
 145.79986501946
  20
 258.20119974567
  30
0.0
  11
 126.79986501946
  21
 258.20119974567
  31
0.0
  70
0
   3
GMM001
 100
AcDbAlignedDimension
  13
 107.79986501946
  23
 250.45990181056
  33
0.0
  14
 145.79986501946
  24
 241.64897793405
  34
0.0
 100
AcDbRotatedDimension
   0
DIMENSION
   5
1B7
 100
AcDbEntity
   8
LEVEL001
   6
CONTINUOUS
  62
3
 100
AcDbDimension
   2
*D5
  10
 193.00019251669
  20
 170.06351408022
  30
0.0
  11
 193.00019251669
  21
 195.06351408022
  31
0.0
  70
0
   3
GMM001
 100
AcDbAlignedDimension
  13
 170.26724089869
  23
 220.06351408022
  33
0.0
  14
 176.79986501946
  24
 170.06351408022
  34
0.0
  50
 270.00000000000
 100
AcDbRotatedDimension
   0
DIMENSION
   5
1B8
 100
AcDbEntity
   8
LEVEL001
   6
CONTINUOUS
  62
3
 100
AcDbDimension
   2
*D6
  10
 145.79986501946
  20
 220.06351408022
  30
0.0
  11
 161.41459670269
  21
 240.68360959215
  31
0.0
  70
132
   3
GMM003
 100
AcDbRadialDimension
  15
 157.27010254703
  25
 235.21058148818
  35
0.0
  40
 7.0759906686898
   0
DIMENSION
   5
1B9
 100
AcDbEntity
   8
LEVEL001
   6
CONTINUOUS
  62
3
 100
AcDbDimension
   2
*D7
  10
 114.79986501946
  20
 189.73493959578
  30
0.0
  11
 111.29986501946
  21
 189.73493959578
  31
0.0
  70
0
   3
GMM001
 100
AcDbAlignedDimension
  13
 107.79986501946
  23
 201.06351408022
  33
0.0
  14
 114.79986501946
  24
 197.80659692648
  34
0.0
 100
AcDbRotatedDimension
   0
DIMENSION
   5
1BA
 100
AcDbEntity
   8
LEVEL001
   6
CONTINUOUS
  62
3
 100
AcDbDimension
   2
*D8
  10
 129.50152890736
  20
 177.06351408022
  30
0.0
  11
 129.50152890736
  21
 173.56351408022
  31
0.0
  70
0
   3
GMM001
 100
AcDbAlignedDimension
  13
 138.79986501946
  23
 170.06351408022
  33
0.0
  14
 135.58116135651
  24
 177.06351408022
  34
0.0
  50
 90.000000000000
 100
AcDbRotatedDimension
   0
DIMENSION
   5
1BB
 100
AcDbEntity
   8
LEVEL001
   6
CONTINUOUS
  62
3
 100
AcDbDimension
   2
*D9
  10
 176.79986501946
  20
 147.37464898840
  30
0.0
  11
 157.79986501946
  21
 147.37464898840
  31
0.0
  70
0
   3
GMM001
 100
AcDbAlignedDimension
  13
 138.79986501946
  23
 170.06351408022
  33
0.0
  14
 176.79986501946
  24
 170.06351408022
  34
0.0
 100
AcDbRotatedDimension
   0
DIMENSION
   5
1BC
 100
AcDbEntity
   8
LEVEL001
   6
CONTINUOUS
  62
3
 100
AcDbDimension
   2
*D10
  10
 175.49986501946
  20
 155.31801182026
  30
0.0
  11
 157.79986501946
  21
 155.31801182026
  31
0.0
  70
0
   3
GMM002
 100
AcDbAlignedDimension
  13
 140.09986501946
  23
 170.06351408022
  33
0.0
  14
 175.49986501946
  24
 170.06351408022
  34
0.0
 100
AcDbRotatedDimension
   0
LINE
   5
1BD
 100
AcDbEntity
   8
LEVEL001
 100
AcDbLine
   6
CONTINUOUS
  62
7
  10
 59.996606782459
  20
 171.40727621563
  30
0.0
  11
 86.863863419632
  21
 171.40727621563
  31
0.0
   0
TEXT
   5
1BE
 100
AcDbEntity
   8
LEVEL001
  62
7
 100
AcDbText
  10
 61.767851216814
  20
 172.78396017699
  30
0.0
  40
 4.0000000000000
   1
９０%%dの場合
   7
STANDARD
 100
AcDbText
   0
TEXT
   5
1BF
 100
AcDbEntity
   8
LEVEL001
  62
7
 100
AcDbText
  10
 60.140666482300
  20
 40.218750000000
  30
0.0
  40
 4.0000000000000
   1
最大１５０%%dの場合
   7
STANDARD
 100
AcDbText
   0
LINE
   5
1C0
 100
AcDbEntity
   8
LEVEL001
 100
AcDbLine
   6
CONTINUOUS
  62
7
  10
 59.996606782459
  20
 38.239134622690
  30
0.0
  11
 96.846319082276
  21
 38.239134622690
  31
0.0
   0
DIMENSION
   5
1C1
 100
AcDbEntity
   8
LEVEL001
   6
CONTINUOUS
  62
3
 100
AcDbDimension
   2
*D11
  10
 121.51919649362
  20
 195.06351408022
  30
0.0
  11
 121.51919649362
  21
 182.56351408022
  31
0.0
  70
0
   3
GMM001
 100
AcDbAlignedDimension
  13
 128.00152890736
  23
 170.06351408022
  33
0.0
  14
 140.09986501946
  24
 195.06351408022
  34
0.0
  50
 90.000000000000
 100
AcDbRotatedDimension
   0
LINE
   5
1C2
 100
AcDbEntity
   8
LEVEL001
 100
AcDbLine
   6
CONTINUOUS
  62
7
  10
 277.70811190164
  20
 195.06351408022
  30
0.0
  11
 277.70811190164
  21
 197.06351408011
  31
0.0
   0
ARC
   5
1C3
 100
AcDbEntity
   8
LEVEL001
   6
CONTINUOUS
  62
7
 100
AcDbCircle
  10
 276.90811190164
  20
 170.86351408023
  30
0.0
  40
 0.80000000000000
 100
AcDbArc
  50
 270.00000000000
  51
0.0
   0
POINT
   5
1C4
 100
AcDbEntity
   8
LEVEL001
 100
AcDbPoint
  62
7
  10
 277.70811190164
  20
 170.06351408022
  30
0.0
   0
LINE
   5
1C5
 100
AcDbEntity
   8
LEVEL001
 100
AcDbLine
   6
CONTINUOUS
  62
7
  10
 239.70811190164
  20
 170.86351408022
  30
0.0
  11
 239.70811190164
  21
 195.06351408022
  31
0.0
   0
ARC
   5
1C6
 100
AcDbEntity
   8
LEVEL001
   6
CONTINUOUS
  62
7
 100
AcDbCircle
  10
 240.50811190164
  20
 170.86351408022
  30
0.0
  40
 0.80000000000000
 100
AcDbArc
  50
 180.00000000000
  51
 269.99999999991
   0
POINT
   5
1C7
 100
AcDbEntity
   8
LEVEL001
 100
AcDbPoint
  62
7
  10
 239.70811190164
  20
 170.06351408022
  30
0.0
   0
LINE
   5
1C8
 100
AcDbEntity
   8
LEVEL001
 100
AcDbLine
   6
CONTINUOUS
  62
7
  10
 240.50811190164
  20
 170.06351408022
  30
0.0
  11
 276.90811190164
  21
 170.06351408022
  31
0.0
   0
LINE
   5
1C9
 100
AcDbEntity
   8
LEVEL001
 100
AcDbLine
   6
DASHDOT
  62
2
  10
 236.19459695300
  20
 220.06351408022
  30
0.0
  11
 281.25890373767
  21
 220.06351408022
  31
0.0
   0
CIRCLE
   5
1CA
 100
AcDbEntity
   8
LEVEL001
 100
AcDbCircle
   6
DOT
  62
1
  10
 258.70811190164
  20
 220.06351408022
  30
0.0
  40
 17.700000000000
   0
CIRCLE
   5
1CB
 100
AcDbEntity
   8
LEVEL001
 100
AcDbCircle
   6
CONTINUOUS
  62
7
  10
 258.70811190164
  20
 130.56321072768
  30
0.0
  40
 17.700000000000
   0
ARC
   5
1CC
 100
AcDbEntity
   8
LEVEL001
   6
CONTINUOUS
  62
7
 100
AcDbCircle
  10
 258.70811190164
  20
 130.56321072768
  30
0.0
  40
 19.500000000000
 100
AcDbArc
  50
 103.34236379709
  51
 166.99717553320
   0
ARC
   5
1CD
 100
AcDbEntity
   8
LEVEL001
   6
CONTINUOUS
  62
7
 100
AcDbCircle
  10
 258.70811190164
  20
 130.56321072768
  30
0.0
  40
 19.500000000000
 100
AcDbArc
  50
 193.00282446680
  51
 256.65763620291
   0
LINE
   5
1CE
 100
AcDbEntity
   8
LEVEL001
 100
AcDbLine
   6
CONTINUOUS
  62
7
  10
 254.20811190164
  20
 149.53687668869
  30
0.0
  11
 263.20811190164
  21
 149.53687668869
  31
0.0
   0
LINE
   5
1CF
 100
AcDbEntity
   8
LEVEL001
 100
AcDbLine
   6
CONTINUOUS
  62
7
  10
 239.70811190164
  20
 134.95069292138
  30
0.0
  11
 239.70811190164
  21
 126.17572853399
  31
0.0
   0
LINE
   5
1D0
 100
AcDbEntity
   8
LEVEL001
 100
AcDbLine
   6
CONTINUOUS
  62
7
  10
 254.20811190164
  20
 111.58954476667
  30
0.0
  11
 263.20811190164
  21
 111.58954476667
  31
0.0
   0
LINE
   5
1D1
 100
AcDbEntity
   8
LEVEL001
 100
AcDbLine
   6
CONTINUOUS
  62
15
  10
 241.00811190164
  20
 130.56321072768
  30
0.0
  11
 276.40811190164
  21
 130.56321072768
  31
0.0
   0
CIRCLE
   5
1D2
 100
AcDbEntity
   8
LEVEL001
 100
AcDbCircle
   6
CONTINUOUS
  62
15
  10
 250.70811190164
  20
 141.26321072768
  30
0.0
  40
 2.1000000000000
   0
LINE
   5
1D3
 100
AcDbEntity
   8
LEVEL001
 100
AcDbLine
   6
CONTINUOUS
  62
15
  10
 241.58970076041
  20
 135.06321072768
  30
0.0
  11
 275.82652304286
  21
 135.06321072768
  31
0.0
   0
LINE
   5
1D4
 100
AcDbEntity
   8
LEVEL001
 100
AcDbLine
   6
DASHDOT
  62
2
  10
 235.08281311125
  20
 130.56321072768
  30
0.0
  11
 283.20996298048
  21
 130.56321072768
  31
0.0
   0
ARC
   5
1D5
 100
AcDbEntity
   8
LEVEL001
   6
CONTINUOUS
  62
15
 100
AcDbCircle
  10
 240.50811190164
  20
 81.363210727681
  30
0.0
  40
 0.80000000000000
 100
AcDbArc
  50
 180.00000000000
  51
 269.99999999990
   0
POINT
   5
1D6
 100
AcDbEntity
   8
LEVEL001
 100
AcDbPoint
  62
15
  10
 239.70811190164
  20
 80.563210727681
  30
0.0
   0
LINE
   5
1D7
 100
AcDbEntity
   8
LEVEL001
 100
AcDbLine
   6
CONTINUOUS
  62
15
  10
 240.50811190164
  20
 80.563210727681
  30
0.0
  11
 276.90811190164
  21
 80.563210727681
  31
0.0
   0
LINE
   5
1D8
 100
AcDbEntity
   8
LEVEL001
 100
AcDbLine
   6
CONTINUOUS
  62
15
  10
 239.70811190164
  20
 81.363210727681
  30
0.0
  11
 239.70811190164
  21
 125.63532399156
  31
0.0
   0
ARC
   5
1D9
 100
AcDbEntity
   8
LEVEL001
   6
CONTINUOUS
  62
7
 100
AcDbCircle
  10
 258.70811190164
  20
 130.56321072768
  30
0.0
  40
 19.500000000000
 100
AcDbArc
  50
 283.34236379709
  51
 346.99717553320
   0
ARC
   5
1DA
 100
AcDbEntity
   8
LEVEL001
   6
CONTINUOUS
  62
7
 100
AcDbCircle
  10
 258.70811190164
  20
 130.56321072768
  30
0.0
  40
 19.500000000000
 100
AcDbArc
  50
 13.002824466800
  51
 76.657636202913
   0
LINE
   5
1DB
 100
AcDbEntity
   8
LEVEL001
 100
AcDbLine
   6
CONTINUOUS
  62
7
  10
 277.70811190164
  20
 134.95069292138
  30
0.0
  11
 277.70811190164
  21
 126.17572853399
  31
0.0
   0
CIRCLE
   5
1DC
 100
AcDbEntity
   8
LEVEL001
 100
AcDbCircle
   6
CONTINUOUS
  62
15
  10
 266.70811190164
  20
 141.26321072768
  30
0.0
  40
 2.1000000000000
   0
ARC
   5
1DD
 100
AcDbEntity
   8
LEVEL001
   6
CONTINUOUS
  62
15
 100
AcDbCircle
  10
 276.90811190164
  20
 81.363210727690
  30
0.0
  40
 0.80000000000000
 100
AcDbArc
  50
 270.00000000000
  51
0.0
   0
POINT
   5
1DE
 100
AcDbEntity
   8
LEVEL001
 100
AcDbPoint
  62
15
  10
 277.70811190164
  20
 80.563210727681
  30
0.0
   0
LINE
   5
1DF
 100
AcDbEntity
   8
LEVEL001
 100
AcDbLine
   6
CONTINUOUS
  62
15
  10
 277.70811190164
  20
 81.363210727681
  30
0.0
  11
 277.70811190164
  21
 125.15076155301
  31
0.0
   0
LINE
   5
1E0
 100
AcDbEntity
   8
LEVEL001
 100
AcDbLine
   6
DASHDOT
  62
2
  10
 250.70811190164
  20
 144.44121670896
  30
0.0
  11
 250.70811190164
  21
 137.84962925130
  31
0.0
   0
LINE
   5
1E1
 100
AcDbEntity
   8
LEVEL001
 100
AcDbLine
   6
DASHDOT
  62
2
  10
 266.70811190164
  20
 144.44121670896
  30
0.0
  11
 266.70811190164
  21
 137.84962925130
  31
0.0
   0
LINE
   5
1E2
 100
AcDbEntity
   8
LEVEL001
 100
AcDbLine
   6
DASHDOT
  62
2
  10
 270.40974504940
  20
 141.26321072768
  30
0.0
  11
 247.33534321393
  21
 141.26321072768
  31
0.0
   0
LINE
   5
1E3
 100
AcDbEntity
   8
LEVEL001
 100
AcDbLine
   6
CONTINUOUS
  62
15
  10
 254.20811190164
  20
 111.58954476667
  30
0.0
  11
 254.20811190164
  21
 80.563210727681
  31
0.0
   0
LINE
   5
1E4
 100
AcDbEntity
   8
LEVEL001
 100
AcDbLine
   6
CONTINUOUS
  62
15
  10
 263.20811190164
  20
 111.58954476667
  30
0.0
  11
 263.20811190164
  21
 80.563210727681
  31
0.0
   0
CIRCLE
   5
1E5
 100
AcDbEntity
   8
LEVEL001
 100
AcDbCircle
   6
CONTINUOUS
  62
15
  10
 250.70811190164
  20
 141.26321072768
  30
0.0
  40
 1.6000000000000
   0
CIRCLE
   5
1E6
 100
AcDbEntity
   8
LEVEL001
 100
AcDbCircle
   6
CONTINUOUS
  62
15
  10
 266.70811190164
  20
 141.26321072768
  30
0.0
  40
 1.6000000000000
   0
LINE
   5
1E7
 100
AcDbEntity
   8
LEVEL001
 100
AcDbLine
   6
DASHDOT
  62
2
  10
 258.70811190164
  20
 245.17366353232
  30
0.0
  11
 258.70811190164
  21
 70.568233435598
  31
0.0
   0
ARC
   5
1E8
 100
AcDbEntity
   8
LEVEL001
   6
CONTINUOUS
  62
15
 100
AcDbCircle
  10
 258.70811190171
  20
 220.06351408010
  30
0.0
  40
 19.500000000000
 100
AcDbArc
  50
 103.00282446525
  51
 166.99717553414
   0
ARC
   5
1E9
 100
AcDbEntity
   8
LEVEL001
   6
CONTINUOUS
  62
15
 100
AcDbCircle
  10
 258.70811190156
  20
 220.06351408010
  30
0.0
  40
 19.500000000000
 100
AcDbArc
  50
 13.002824465862
  51
 76.997175534752
   0
LINE
   5
1EA
 100
AcDbEntity
   8
LEVEL001
 100
AcDbLine
   6
CONTINUOUS
  62
15
  10
 263.09559409475
  20
 239.06351408022
  30
0.0
  11
 254.32062970853
  21
 239.06351408022
  31
0.0
   0
ARC
   5
1EB
 100
AcDbEntity
   8
LEVEL001
   6
CONTINUOUS
  62
7
 100
AcDbCircle
  10
 258.70811190164
  20
 210.26351408022
  30
0.0
  40
 19.500000000000
 100
AcDbArc
  50
 103.00282446680
  51
 166.99717553320
   0
LINE
   5
1EC
 100
AcDbEntity
   8
LEVEL001
 100
AcDbLine
   6
CONTINUOUS
  62
7
  10
 239.70811190164
  20
 195.06351408022
  30
0.0
  11
 239.70811190164
  21
 214.65099627392
  31
0.0
   0
ARC
   5
1ED
 100
AcDbEntity
   8
LEVEL001
   6
CONTINUOUS
  62
7
 100
AcDbCircle
  10
 258.70811190178
  20
 210.26351408022
  30
0.0
  40
 19.500000000000
 100
AcDbArc
  50
 13.002824466799
  51
 76.997175533200
   0
LINE
   5
1EE
 100
AcDbEntity
   8
LEVEL001
 100
AcDbLine
   6
CONTINUOUS
  62
7
  10
 254.32062970794
  20
 229.26351408022
  30
0.0
  11
 263.09559409548
  21
 229.26351408022
  31
0.0
   0
LINE
   5
1EF
 100
AcDbEntity
   8
LEVEL001
 100
AcDbLine
   6
CONTINUOUS
  62
7
  10
 277.70811190164
  20
 170.86351408022
  30
0.0
  11
 277.70811190164
  21
 214.65099627455
  31
0.0
   0
ARC
   5
1F0
 100
AcDbEntity
   8
LEVEL001
   6
DOT
  62
1
 100
AcDbCircle
  10
 258.70811190171
  20
 220.06351408010
  30
0.0
  40
 19.500000000000
 100
AcDbArc
  50
 194.55339034269
  51
 256.99717553165
   0
ARC
   5
1F1
 100
AcDbEntity
   8
LEVEL001
   6
CONTINUOUS
  62
15
 100
AcDbCircle
  10
 258.70811190171
  20
 220.06351408009
  30
0.0
  40
 19.500000000000
 100
AcDbArc
  50
 193.00282446582
  51
 194.55339034267
   0
LINE
   5
1F2
 100
AcDbEntity
   8
LEVEL001
 100
AcDbLine
   6
CONTINUOUS
  62
15
  10
 239.70811190164
  20
 215.67603188672
  30
0.0
  11
 239.70811190164
  21
 224.45099627349
  31
0.0
   0
ARC
   5
1F3
 100
AcDbEntity
   8
LEVEL001
   6
DOT
  62
1
 100
AcDbCircle
  10
 240.50811190164
  20
 170.56351408023
  30
0.0
  40
 0.50000000000000
 100
AcDbArc
  50
 270.00000000000
  51
0.0
   0
POINT
   5
1F4
 100
AcDbEntity
   8
LEVEL001
 100
AcDbPoint
  62
1
  10
 241.00811190164
  20
 170.06351408022
  30
0.0
   0
ARC
   5
1F5
 100
AcDbEntity
   8
LEVEL001
   6
DOT
  62
1
 100
AcDbCircle
  10
 276.90811190163
  20
 170.56351408022
  30
0.0
  40
 0.50000000000000
 100
AcDbArc
  50
 180.00000000000
  51
 270.00000000053
   0
POINT
   5
1F6
 100
AcDbEntity
   8
LEVEL001
 100
AcDbPoint
  62
1
  10
 276.40811190164
  20
 170.06351408022
  30
0.0
   0
ARC
   5
1F7
 100
AcDbEntity
   8
LEVEL001
   6
DOT
  62
1
 100
AcDbCircle
  10
 258.70811190156
  20
 220.06351408010
  30
0.0
  40
 19.500000000000
 100
AcDbArc
  50
 283.00282446835
  51
 345.44660965731
   0
ARC
   5
1F8
 100
AcDbEntity
   8
LEVEL001
   6
CONTINUOUS
  62
15
 100
AcDbCircle
  10
 258.70811190156
  20
 220.06351408010
  30
0.0
  40
 19.500000000000
 100
AcDbArc
  50
 345.44660965731
  51
 346.99717553416
   0
LINE
   5
1F9
 100
AcDbEntity
   8
LEVEL001
 100
AcDbLine
   6
DOT
  62
1
  10
 254.32062970750
  20
 201.06351408022
  30
0.0
  11
 263.09559409579
  21
 201.06351408022
  31
0.0
   0
LINE
   5
1FA
 100
AcDbEntity
   8
LEVEL001
 100
AcDbLine
   6
CONTINUOUS
  62
15
  10
 277.70811190164
  20
 215.67603188672
  30
0.0
  11
 277.70811190164
  21
 224.45099627349
  31
0.0
   0
LINE
   5
1FB
 100
AcDbEntity
   8
LEVEL001
 100
AcDbLine
   6
CONTINUOUS
  62
15
  10
 254.20811190164
  20
 170.06351408022
  30
0.0
  11
 254.20811190164
  21
 229.23718004123
  31
0.0
   0
LINE
   5
1FC
 100
AcDbEntity
   8
LEVEL001
 100
AcDbLine
   6
CONTINUOUS
  62
15
  10
 263.20811190164
  20
 170.06351408022
  30
0.0
  11
 263.20811190164
  21
 229.23718004126
  31
0.0
   0
LINE
   5
1FD
 100
AcDbEntity
   8
LEVEL001
 100
AcDbLine
   6
DOT
  62
1
  10
 241.00811190164
  20
 170.56351408022
  30
0.0
  11
 241.00811190164
  21
 198.06351408022
  31
0.0
   0
LINE
   5
1FE
 100
AcDbEntity
   8
LEVEL001
 100
AcDbLine
   6
DOT
  62
1
  10
 276.40811190164
  20
 170.56351408022
  30
0.0
  11
 276.40811190164
  21
 198.06351408022
  31
0.0
   0
ARC
   5
1FF
 100
AcDbEntity
   8
LEVEL001
   6
DOT
  62
1
 100
AcDbCircle
  10
 258.70811190178
  20
 210.26351408022
  30
0.0
  40
 17.500000000000
 100
AcDbArc
  50
0.0
  51
 180.00000000000
   0
LINE
   5
200
 100
AcDbEntity
   8
LEVEL001
 100
AcDbLine
   6
DOT
  62
1
  10
 241.20811190164
  20
 198.06351408022
  30
0.0
  11
 241.20811190164
  21
 210.26351408022
  31
0.0
   0
LINE
   5
201
 100
AcDbEntity
   8
LEVEL001
 100
AcDbLine
   6
DOT
  62
1
  10
 241.20811190164
  20
 201.53725443557
  30
0.0
  11
 276.20811190164
  21
 201.53725443557
  31
0.0
   0
LINE
   5
202
 100
AcDbEntity
   8
LEVEL001
 100
AcDbLine
   6
DOT
  62
1
  10
 243.70811190164
  20
 203.53725443557
  30
0.0
  11
 243.70811190164
  21
 201.53725443557
  31
0.0
   0
LINE
   5
203
 100
AcDbEntity
   8
LEVEL001
 100
AcDbLine
   6
DOT
  62
1
  10
 243.70811190164
  20
 203.53725443557
  30
0.0
  11
 273.70811190164
  21
 203.53725443557
  31
0.0
   0
LINE
   5
204
 100
AcDbEntity
   8
LEVEL001
 100
AcDbLine
   6
DOT
  62
1
  10
 241.00811190164
  20
 198.06351408022
  30
0.0
  11
 276.40811190164
  21
 198.06351408022
  31
0.0
   0
LINE
   5
205
 100
AcDbEntity
   8
LEVEL001
 100
AcDbLine
   6
DOT
  62
1
  10
 273.70811190164
  20
 203.53725443557
  30
0.0
  11
 273.70811190164
  21
 201.53725443557
  31
0.0
   0
LINE
   5
206
 100
AcDbEntity
   8
LEVEL001
 100
AcDbLine
   6
DOT
  62
1
  10
 276.20811190164
  20
 198.06351408022
  30
0.0
  11
 276.20811190164
  21
 210.26351408022
  31
0.0
   0
LINE
   5
207
 100
AcDbEntity
   8
LEVEL001
 100
AcDbLine
   6
DOT
  62
1
  10
 248.70811190164
  20
 203.53725443557
  30
0.0
  11
 248.70811190164
  21
 198.06351408022
  31
0.0
   0
LINE
   5
208
 100
AcDbEntity
   8
LEVEL001
 100
AcDbLine
   6
DOT
  62
1
  10
 249.20811190164
  20
 203.53725443557
  30
0.0
  11
 249.20811190164
  21
 201.53725443557
  31
0.0
   0
LINE
   5
209
 100
AcDbEntity
   8
LEVEL001
 100
AcDbLine
   6
DOT
  62
1
  10
 252.20811190164
  20
 203.53725443557
  30
0.0
  11
 252.20811190164
  21
 201.53725443557
  31
0.0
   0
LINE
   5
20A
 100
AcDbEntity
   8
LEVEL001
 100
AcDbLine
   6
DOT
  62
1
  10
 252.70811190164
  20
 203.53725443557
  30
0.0
  11
 252.70811190164
  21
 198.06351408022
  31
0.0
   0
LINE
   5
20B
 100
AcDbEntity
   8
LEVEL001
 100
AcDbLine
   6
DASHDOT
  62
3
  10
 250.70811190164
  20
 205.74653528881
  30
0.0
  11
 250.70811190164
  21
 195.50150087386
  31
0.0
   0
LINE
   5
20C
 100
AcDbEntity
   8
LEVEL001
 100
AcDbLine
   6
DOT
  62
1
  10
 268.70811190164
  20
 203.53725443557
  30
0.0
  11
 268.70811190164
  21
 198.06351408022
  31
0.0
   0
LINE
   5
20D
 100
AcDbEntity
   8
LEVEL001
 100
AcDbLine
   6
DOT
  62
1
  10
 264.70811190164
  20
 203.53725443557
  30
0.0
  11
 264.70811190164
  21
 198.06351408022
  31
0.0
   0
LINE
   5
20E
 100
AcDbEntity
   8
LEVEL001
 100
AcDbLine
   6
DASHDOT
  62
3
  10
 266.70811190164
  20
 205.74653528881
  30
0.0
  11
 266.70811190164
  21
 195.50150087386
  31
0.0
   0
LINE
   5
20F
 100
AcDbEntity
   8
LEVEL001
 100
AcDbLine
   6
DOT
  62
1
  10
 268.20811190164
  20
 203.53725443557
  30
0.0
  11
 268.20811190164
  21
 201.53725443557
  31
0.0
   0
LINE
   5
210
 100
AcDbEntity
   8
LEVEL001
 100
AcDbLine
   6
DOT
  62
1
  10
 265.20811190164
  20
 203.53725443557
  30
0.0
  11
 265.20811190164
  21
 201.53725443557
  31
0.0
   0
LINE
   5
211
 100
AcDbEntity
   8
LEVEL001
 100
AcDbLine
   6
DOT
  62
1
  10
 254.70811190164
  20
 224.56351408022
  30
0.0
  11
 254.70811190164
  21
 203.53725443557
  31
0.0
   0
LINE
   5
212
 100
AcDbEntity
   8
LEVEL001
 100
AcDbLine
   6
DOT
  62
1
  10
 254.70811190164
  20
 224.56351408022
  30
0.0
  11
 262.70811190164
  21
 224.56351408022
  31
0.0
   0
LINE
   5
213
 100
AcDbEntity
   8
LEVEL001
 100
AcDbLine
   6
DOT
  62
1
  10
 256.70811190164
  20
 224.56351408022
  30
0.0
  11
 256.70811190164
  21
 215.56351408022
  31
0.0
   0
LINE
   5
214
 100
AcDbEntity
   8
LEVEL001
 100
AcDbLine
   6
DOT
  62
1
  10
 252.83811190164
  20
 222.06351408022
  30
0.0
  11
 264.57811190164
  21
 222.06351408022
  31
0.0
   0
LINE
   5
215
 100
AcDbEntity
   8
LEVEL001
 100
AcDbLine
   6
DOT
  62
1
  10
 252.70811190164
  20
 222.19351408022
  30
0.0
  11
 254.60811190164
  21
 222.19351408022
  31
0.0
   0
LINE
   5
216
 100
AcDbEntity
   8
LEVEL001
 100
AcDbLine
   6
DOT
  62
1
  10
 254.60811190164
  20
 222.06351408022
  30
0.0
  11
 254.60811190164
  21
 227.06351408022
  31
0.0
   0
LINE
   5
217
 100
AcDbEntity
   8
LEVEL001
 100
AcDbLine
   6
DOT
  62
1
  10
 254.70811190164
  20
 215.56351408022
  30
0.0
  11
 256.70811190164
  21
 215.56351408022
  31
0.0
   0
LINE
   5
218
 100
AcDbEntity
   8
LEVEL001
 100
AcDbLine
   6
DOT
  62
1
  10
 252.83811190164
  20
 218.06351408022
  30
0.0
  11
 252.83811190164
  21
 222.06351408022
  31
0.0
   0
LINE
   5
219
 100
AcDbEntity
   8
LEVEL001
 100
AcDbLine
   6
DOT
  62
1
  10
 252.83811190164
  20
 218.06351408022
  30
0.0
  11
 264.57811190164
  21
 218.06351408022
  31
0.0
   0
LINE
   5
21A
 100
AcDbEntity
   8
LEVEL001
 100
AcDbLine
   6
DOT
  62
1
  10
 252.70811190164
  20
 211.06351408022
  30
0.0
  11
 252.70811190164
  21
 222.19351408022
  31
0.0
   0
LINE
   5
21B
 100
AcDbEntity
   8
LEVEL001
 100
AcDbLine
   6
DOT
  62
1
  10
 252.70811190164
  20
 211.06351408022
  30
0.0
  11
 254.60811190164
  21
 211.06351408022
  31
0.0
   0
LINE
   5
21C
 100
AcDbEntity
   8
LEVEL001
 100
AcDbLine
   6
DOT
  62
1
  10
 264.70811190164
  20
 211.06351408022
  30
0.0
  11
 262.80811190164
  21
 211.06351408022
  31
0.0
   0
LINE
   5
21D
 100
AcDbEntity
   8
LEVEL001
 100
AcDbLine
   6
DOT
  62
1
  10
 264.70811190164
  20
 211.06351408022
  30
0.0
  11
 264.70811190164
  21
 222.19351408022
  31
0.0
   0
LINE
   5
21E
 100
AcDbEntity
   8
LEVEL001
 100
AcDbLine
   6
DOT
  62
1
  10
 262.70811190164
  20
 224.56351408022
  30
0.0
  11
 262.70811190164
  21
 203.53725443557
  31
0.0
   0
LINE
   5
21F
 100
AcDbEntity
   8
LEVEL001
 100
AcDbLine
   6
DOT
  62
1
  10
 260.70811190164
  20
 224.56351408022
  30
0.0
  11
 260.70811190164
  21
 215.56351408022
  31
0.0
   0
LINE
   5
220
 100
AcDbEntity
   8
LEVEL001
 100
AcDbLine
   6
DOT
  62
1
  10
 260.70811190164
  20
 215.56351408022
  30
0.0
  11
 262.70811190164
  21
 215.56351408022
  31
0.0
   0
LINE
   5
221
 100
AcDbEntity
   8
LEVEL001
 100
AcDbLine
   6
DOT
  62
1
  10
 264.57811190164
  20
 218.06351408022
  30
0.0
  11
 264.57811190164
  21
 222.06351408022
  31
0.0
   0
LINE
   5
222
 100
AcDbEntity
   8
LEVEL001
 100
AcDbLine
   6
DOT
  62
1
  10
 264.70811190164
  20
 222.19351408022
  30
0.0
  11
 262.80811190164
  21
 222.19351408022
  31
0.0
   0
LINE
   5
223
 100
AcDbEntity
   8
LEVEL001
 100
AcDbLine
   6
DOT
  62
1
  10
 254.60811190164
  20
 227.06351408022
  30
0.0
  11
 262.80811190164
  21
 227.06351408022
  31
0.0
   0
LINE
   5
224
 100
AcDbEntity
   8
LEVEL001
 100
AcDbLine
   6
DOT
  62
1
  10
 262.80811190164
  20
 222.06351408022
  30
0.0
  11
 262.80811190164
  21
 227.06351408022
  31
0.0
   0
LINE
   5
225
 100
AcDbEntity
   8
LEVEL001
 100
AcDbLine
   6
DOT
  62
1
  10
 254.70811190164
  20
 206.06351408022
  30
0.0
  11
 262.70811190164
  21
 206.06351408022
  31
0.0
   0
ARC
   5
226
 100
AcDbEntity
   8
LEVEL001
   6
CONTINUOUS
  62
7
 100
AcDbCircle
  10
 108.59986501946
  20
 98.962629124465
  30
0.0
  40
 0.80000000000000
 100
AcDbArc
  50
 89.999999999951
  51
 180.00000000000
   0
POINT
   5
227
 100
AcDbEntity
   8
LEVEL001
 100
AcDbPoint
  62
7
  10
 107.79986501946
  20
 99.762629124465
  30
0.0
   0
ARC
   5
228
 100
AcDbEntity
   8
LEVEL001
   6
CONTINUOUS
  62
7
 100
AcDbCircle
  10
 108.59986501946
  20
 62.562629124465
  30
0.0
  40
 0.80000000000000
 100
AcDbArc
  50
 180.00000000000
  51
 270.00000000004
   0
POINT
   5
229
 100
AcDbEntity
   8
LEVEL001
 100
AcDbPoint
  62
7
  10
 107.79986501946
  20
 61.762629124465
  30
0.0
   0
LINE
   5
22A
 100
AcDbEntity
   8
LEVEL001
 100
AcDbLine
   6
DASHDOT
  62
2
  10
 100.17970310582
  20
 80.762629124465
  30
0.0
  11
 170.26724089869
  21
 80.762629124465
  31
0.0
   0
LINE
   5
22B
 100
AcDbEntity
   8
LEVEL001
 100
AcDbLine
   6
DOT
  62
1
  10
 116.79986501955
  20
 63.062629124465
  30
0.0
  11
 117.89986501946
  21
 61.962629124550
  31
0.0
   0
LINE
   5
22C
 100
AcDbEntity
   8
LEVEL001
 100
AcDbLine
   6
DOT
  62
1
  10
 117.89986501946
  20
 61.762629124465
  30
0.0
  11
 117.89986501946
  21
 61.962629124465
  31
0.0
   0
LINE
   5
22D
 100
AcDbEntity
   8
LEVEL001
 100
AcDbLine
   6
DOT
  62
1
  10
 112.79986501938
  20
 63.062629124465
  30
0.0
  11
 111.69986501946
  21
 61.962629124550
  31
0.0
   0
LINE
   5
22E
 100
AcDbEntity
   8
LEVEL001
 100
AcDbLine
   6
DOT
  62
1
  10
 111.69986501946
  20
 61.762629124465
  30
0.0
  11
 111.69986501946
  21
 61.962629124465
  31
0.0
   0
LINE
   5
22F
 100
AcDbEntity
   8
LEVEL001
 100
AcDbLine
   6
DOT
  62
1
  10
 111.69986501946
  20
 61.962629124465
  30
0.0
  11
 117.89986501946
  21
 61.962629124465
  31
0.0
   0
LINE
   5
230
 100
AcDbEntity
   8
LEVEL001
 100
AcDbLine
   6
CONTINUOUS
  62
7
  10
 108.59986501946
  20
 99.762629124465
  30
0.0
  11
 145.79986501946
  21
 99.762629124465
  31
0.0
   0
LINE
   5
231
 100
AcDbEntity
   8
LEVEL001
 100
AcDbLine
   6
DOT
  62
1
  10
 132.79986501946
  20
 63.062629124465
  30
0.0
  11
 132.79986501946
  21
 98.462629124465
  31
0.0
   0
LINE
   5
232
 100
AcDbEntity
   8
LEVEL001
 100
AcDbLine
   6
DOT
  62
1
  10
 108.29986501946
  20
 63.062629124465
  30
0.0
  11
 132.79986501946
  21
 63.062629124465
  31
0.0
   0
ARC
   5
233
 100
AcDbEntity
   8
LEVEL001
   6
DOT
  62
1
 100
AcDbCircle
  10
 108.29986501946
  20
 62.562629124463
  30
0.0
  40
 0.50000000000000
 100
AcDbArc
  50
 90.000000000000
  51
 179.99999999982
   0
POINT
   5
234
 100
AcDbEntity
   8
LEVEL001
 100
AcDbPoint
  62
1
  10
 107.79986501946
  20
 63.062629124465
  30
0.0
   0
LINE
   5
235
 100
AcDbEntity
   8
LEVEL001
 100
AcDbLine
   6
DOT
  62
1
  10
 108.29986501946
  20
 98.462629124465
  30
0.0
  11
 132.79986501946
  21
 98.462629124465
  31
0.0
   0
ARC
   5
236
 100
AcDbEntity
   8
LEVEL001
   6
DOT
  62
1
 100
AcDbCircle
  10
 108.29986501946
  20
 98.962629124465
  30
0.0
  40
 0.50000000000000
 100
AcDbArc
  50
 180.00000000005
  51
 270.00000000000
   0
POINT
   5
237
 100
AcDbEntity
   8
LEVEL001
 100
AcDbPoint
  62
1
  10
 107.79986501946
  20
 98.462629124465
  30
0.0
   0
LINE
   5
238
 100
AcDbEntity
   8
LEVEL001
 100
AcDbLine
   6
CONTINUOUS
  62
7
  10
 107.79986501946
  20
 62.562629124465
  30
0.0
  11
 107.79986501946
  21
 98.962629124465
  31
0.0
   0
LINE
   5
239
 100
AcDbEntity
   8
LEVEL001
 100
AcDbLine
   6
DASHDOT
  62
2
  10
 114.79986501946
  20
 65.360469049894
  30
0.0
  11
 114.79986501946
  21
 58.505711970725
  31
0.0
   0
LINE
   5
23A
 100
AcDbEntity
   8
LEVEL001
 100
AcDbLine
   6
CONTINUOUS
  62
15
  10
 107.79986501946
  20
 76.262629124465
  30
0.0
  11
 145.79986501946
  21
 76.262629124465
  31
0.0
   0
ARC
   5
23B
 100
AcDbEntity
   8
LEVEL001
   6
CONTINUOUS
  62
15
 100
AcDbCircle
  10
 145.79986501946
  20
 80.762629124465
  30
0.0
  40
 4.5000000000000
 100
AcDbArc
  50
 270.00000000000
  51
 90.000000000000
   0
LINE
   5
23C
 100
AcDbEntity
   8
LEVEL001
 100
AcDbLine
   6
CONTINUOUS
  62
15
  10
 107.79986501946
  20
 85.262629124465
  30
0.0
  11
 145.79986501946
  21
 85.262629124465
  31
0.0
   0
LINE
   5
23D
 100
AcDbEntity
   8
LEVEL001
 100
AcDbLine
   6
DOT
  62
1
  10
 132.79986501947
  20
 82.762629124466
  30
0.0
  11
 145.79986501946
  21
 82.762629124466
  31
0.0
   0
ARC
   5
23E
 100
AcDbEntity
   8
LEVEL001
   6
DOT
  62
1
 100
AcDbCircle
  10
 145.79986501946
  20
 80.762629124465
  30
0.0
  40
 4.5000000000000
 100
AcDbArc
  50
 101.55621998877
  51
 270.00000000001
   0
CIRCLE
   5
23F
 100
AcDbEntity
   8
LEVEL001
 100
AcDbCircle
   6
DOT
  62
1
  10
 145.79986501946
  20
 80.762629124466
  30
0.0
  40
 2.0000000000000
   0
LINE
   5
240
 100
AcDbEntity
   8
LEVEL001
 100
AcDbLine
   6
CONTINUOUS
  62
7
  10
 176.50786846895
  20
 54.950451297973
  30
0.0
  11
 159.62037309515
  21
 64.700451297973
  31
0.0
   0
LINE
   5
241
 100
AcDbEntity
   8
LEVEL001
 100
AcDbLine
   6
DASHDOT
  62
2
  10
 177.92960555072
  20
 50.412972158598
  30
0.0
  11
 181.39076582604
  21
 56.407877608592
  31
0.0
   0
ARC
   5
242
 100
AcDbEntity
   8
LEVEL001
   6
DOT
  62
1
 100
AcDbCircle
  10
 185.56812250679
  20
 50.643271621001
  30
0.0
  40
 0.50000000000000
 100
AcDbArc
  50
 330.00000000000
  51
 59.999999999985
   0
POINT
   5
243
 100
AcDbEntity
   8
LEVEL001
 100
AcDbPoint
  62
1
  10
 186.25113520869
  20
 50.826284322893
  30
0.0
   0
LINE
   5
244
 100
AcDbEntity
   8
LEVEL001
 100
AcDbLine
   6
DOT
  62
1
  10
 185.81812250679
  20
 51.076284322893
  30
0.0
  11
 164.60050011408
  21
 63.326284322893
  31
0.0
   0
ARC
   5
245
 100
AcDbEntity
   8
LEVEL001
   6
DOT
  62
1
 100
AcDbCircle
  10
 203.76812250679
  20
 82.166596318750
  30
0.0
  40
 0.50000000000000
 100
AcDbArc
  50
 240.00000000000
  51
 330.00000000050
   0
POINT
   5
246
 100
AcDbEntity
   8
LEVEL001
 100
AcDbPoint
  62
1
  10
 203.95113520869
  20
 81.483583616862
  30
0.0
   0
ARC
   5
247
 100
AcDbEntity
   8
LEVEL001
   6
CONTINUOUS
  62
7
 100
AcDbCircle
  10
 203.50831488566
  20
 82.316596318752
  30
0.0
  40
 0.80000000000000
 100
AcDbArc
  50
 330.00000000000
  51
 60.000000000253
   0
POINT
   5
248
 100
AcDbEntity
   8
LEVEL001
 100
AcDbPoint
  62
7
  10
 204.60113520869
  20
 82.609416641782
  30
0.0
   0
LINE
   5
249
 100
AcDbEntity
   8
LEVEL001
 100
AcDbLine
   6
CONTINUOUS
  62
7
  10
 175.55177001766
  20
 55.502454996195
  30
0.0
  11
 184.90831488566
  21
 50.100451297973
  31
0.0
   0
ARC
   5
24A
 100
AcDbEntity
   8
LEVEL001
   6
CONTINUOUS
  62
7
 100
AcDbCircle
  10
 185.30831488566
  20
 50.793271621001
  30
0.0
  40
 0.80000000000000
 100
AcDbArc
  50
 240.00000000000
  51
 329.99999999997
   0
POINT
   5
24B
 100
AcDbEntity
   8
LEVEL001
 100
AcDbPoint
  62
7
  10
 185.60113520869
  20
 49.700451297973
  30
0.0
   0
LINE
   5
24C
 100
AcDbEntity
   8
LEVEL001
 100
AcDbLine
   6
CONTINUOUS
  62
7
  10
 186.00113520869
  20
 50.393271621001
  30
0.0
  11
 204.20113520869
  21
 81.916596318754
  31
0.0
   0
LINE
   5
24D
 100
AcDbEntity
   8
LEVEL001
 100
AcDbLine
   6
DOT
  62
1
  10
 178.57058036861
  20
 55.260654727334
  30
0.0
  11
 177.06795242457
  21
 54.858026783202
  31
0.0
   0
LINE
   5
24E
 100
AcDbEntity
   8
LEVEL001
 100
AcDbLine
   6
DOT
  62
1
  10
 176.96795242453
  20
 54.684821702372
  30
0.0
  11
 177.06795242457
  21
 54.858026783202
  31
0.0
   0
LINE
   5
24F
 100
AcDbEntity
   8
LEVEL001
 100
AcDbLine
   6
DOT
  62
1
  10
 182.43730992803
  20
 51.758026783202
  30
0.0
  11
 177.06795242457
  21
 54.858026783202
  31
0.0
   0
LINE
   5
250
 100
AcDbEntity
   8
LEVEL001
 100
AcDbLine
   6
DOT
  62
1
  10
 182.03468198390
  20
 53.260654727249
  30
0.0
  11
 182.43730992803
  21
 51.758026783202
  31
0.0
   0
LINE
   5
251
 100
AcDbEntity
   8
LEVEL001
 100
AcDbLine
   6
DOT
  62
1
  10
 182.33730992799
  20
 51.584821702372
  30
0.0
  11
 182.43730992803
  21
 51.758026783202
  31
0.0
   0
LINE
   5
252
 100
AcDbEntity
   8
LEVEL001
 100
AcDbLine
   6
DOT
  62
1
  10
 203.51812250679
  20
 81.733583616862
  30
0.0
  11
 176.85228779345
  21
 97.129110466775
  31
0.0
   0
LINE
   5
253
 100
AcDbEntity
   8
LEVEL001
 100
AcDbLine
   6
CONTINUOUS
  62
15
  10
 169.87037309521
  20
 75.525768845278
  30
0.0
  11
 192.85113520870
  21
 62.257819652873
  31
0.0
   0
LINE
   5
254
 100
AcDbEntity
   8
LEVEL001
 100
AcDbLine
   6
CONTINUOUS
  62
15
  10
 172.04986501952
  20
 84.659743441494
  30
0.0
  11
 197.35113520870
  21
 70.052048286932
  31
0.0
   0
LINE
   5
255
 100
AcDbEntity
   8
LEVEL001
 100
AcDbLine
   6
DOT
  62
7
  10
 163.11049701366
  20
 66.745523249536
  30
0.0
  11
 163.08245405442
  21
 66.743069808511
  31
0.0
   0
LINE
   5
256
 100
AcDbEntity
   8
LEVEL001
 100
AcDbLine
   6
DOT
  62
1
  10
 173.40827810367
  20
 78.581803302663
  30
0.0
  11
 172.95242390237
  21
 83.792240665975
  31
0.0
   0
LINE
   5
257
 100
AcDbEntity
   8
LEVEL001
 100
AcDbLine
   6
DOT
  62
1
  10
 172.95242390272
  20
 83.792240665772
  30
0.0
  11
 179.70242390272
  21
 95.483583616862
  31
0.0
   0
LINE
   5
258
 100
AcDbEntity
   8
LEVEL001
 100
AcDbLine
   6
DOT
  62
1
  10
 170.46202570127
  20
 90.426225160476
  30
0.0
  11
 175.20242390272
  21
 87.689354982802
  31
0.0
   0
LINE
   5
259
 100
AcDbEntity
   8
LEVEL001
 100
AcDbLine
   6
DOT
  62
1
  10
 172.46202570127
  20
 93.890326775613
  30
0.0
  11
 177.20242390272
  21
 91.153456597940
  31
0.0
   0
LINE
   5
25A
 100
AcDbEntity
   8
LEVEL001
 100
AcDbLine
   6
DASHDOT
  62
3
  10
 169.54873235827
  20
 93.262916394667
  30
0.0
  11
 178.42119242426
  21
 88.140399187191
  31
0.0
   0
LINE
   5
25B
 100
AcDbEntity
   8
LEVEL001
 100
AcDbLine
   6
DOT
  62
1
  10
 163.11049701366
  20
 66.745523249536
  30
0.0
  11
 160.48760444626
  21
 66.222143473718
  31
0.0
   0
ARC
   5
25C
 100
AcDbEntity
   8
LEVEL001
   6
CONTINUOUS
  62
15
 100
AcDbCircle
  10
 167.12037309521
  20
 70.762629124464
  30
0.0
  40
 5.5000000000000
 100
AcDbArc
  50
 59.999999999993
  51
 89.999999999994
   0
POINT
   5
25D
 100
AcDbEntity
   8
LEVEL001
 100
AcDbPoint
  62
15
  10
 168.59409365358
  20
 76.262629124464
  30
0.0
   0
LINE
   5
25E
 100
AcDbEntity
   8
LEVEL001
 100
AcDbLine
   6
DOT
  62
1
  10
 164.60050011408
  20
 63.326284322893
  30
0.0
  11
 173.47606216525
  21
 78.699208741262
  31
0.0
   0
LINE
   5
25F
 100
AcDbEntity
   8
LEVEL001
 100
AcDbLine
   6
DOT
  62
1
  10
 163.11049701366
  20
 66.745523249536
  30
0.0
  11
 170.77311540791
  21
 80.017567627385
  31
0.0
   0
LINE
   5
260
 100
AcDbEntity
   8
LEVEL001
 100
AcDbLine
   6
DOT
  62
1
  10
 170.77311540791
  20
 80.017567627385
  30
0.0
  11
 170.24527569621
  21
 86.050803139550
  31
0.0
   0
LINE
   5
261
 100
AcDbEntity
   8
LEVEL001
 100
AcDbLine
   6
DOT
  62
1
  10
 170.71202570127
  20
 90.859237862368
  30
0.0
  11
 172.44407650884
  21
 89.859237862368
  31
0.0
   0
LINE
   5
262
 100
AcDbEntity
   8
LEVEL001
 100
AcDbLine
   6
DOT
  62
1
  10
 172.21202570127
  20
 93.457314073721
  30
0.0
  11
 173.94407650884
  21
 92.457314073721
  31
0.0
   0
LINE
   5
263
 100
AcDbEntity
   8
LEVEL001
 100
AcDbLine
   6
DOT
  62
1
  10
 176.19407650884
  20
 96.354428390751
  30
0.0
  11
 174.46202570127
  21
 97.354428390751
  31
0.0
   0
ARC
   5
264
 100
AcDbEntity
   8
LEVEL001
   6
CONTINUOUS
  62
7
 100
AcDbCircle
  10
 167.50228779345
  20
 80.934435416006
  30
0.0
  40
 20.000000000000
 100
AcDbArc
  50
 60.000000000000
  51
 71.945540610280
   0
ARC
   5
265
 100
AcDbEntity
   8
LEVEL001
   6
CONTINUOUS
  62
7
 100
AcDbCircle
  10
 157.73978165665
  20
 50.985420842421
  30
0.0
  40
 51.500000000000
 100
AcDbArc
  50
 71.945540610279
  51
 101.47803335484
   0
LINE
   5
266
 100
AcDbEntity
   8
LEVEL001
 100
AcDbLine
   6
DOT
  62
1
  10
 170.24527569644
  20
 86.050803139570
  30
0.0
  11
 176.69363031619
  21
 97.219680966190
  31
0.0
   0
ARC
   5
267
 100
AcDbEntity
   8
LEVEL001
   6
DOT
  62
1
 100
AcDbCircle
  10
 167.50228779345
  20
 80.934435416006
  30
0.0
  40
 18.700000000000
 100
AcDbArc
  50
 60.000000000000
  51
 71.945540610280
   0
ARC
   5
268
 100
AcDbEntity
   8
LEVEL001
   6
DOT
  62
1
 100
AcDbCircle
  10
 157.73978165665
  20
 50.985420842421
  30
0.0
  40
 50.200000000000
 100
AcDbArc
  50
 71.945540610279
  51
 100.97374468990
   0
ARC
   5
269
 100
AcDbEntity
   8
LEVEL001
   6
CONTINUOUS
  62
15
 100
AcDbCircle
  10
 169.79986501952
  20
 80.762629124464
  30
0.0
  40
 4.5000000000000
 100
AcDbArc
  50
 59.999999999996
  51
 89.999999999996
   0
POINT
   5
26A
 100
AcDbEntity
   8
LEVEL001
 100
AcDbPoint
  62
15
  10
 171.00563638546
  20
 85.262629124464
  30
0.0
   0
LINE
   5
26B
 100
AcDbEntity
   8
LEVEL001
 100
AcDbLine
   6
CONTINUOUS
  62
15
  10
 152.18383560980
  20
 85.262629124464
  30
0.0
  11
 169.79986501952
  21
 85.262629124464
  31
0.0
   0
LINE
   5
26C
 100
AcDbEntity
   8
LEVEL001
 100
AcDbLine
   6
DOT
  62
1
  10
 144.95941133978
  20
 85.193228603010
  30
0.0
  11
 169.15604587626
  21
 88.164201749901
  31
0.0
   0
LINE
   5
26D
 100
AcDbEntity
   8
LEVEL001
 100
AcDbLine
   6
DOT
  62
1
  10
 149.96164934327
  20
 83.792406548877
  30
0.0
  11
 170.38951507577
  21
 86.300633073027
  31
0.0
   0
LINE
   5
26E
 100
AcDbEntity
   8
LEVEL001
 100
AcDbLine
   6
DOT
  62
1
  10
 169.15604587626
  20
 88.164201749901
  30
0.0
  11
 174.46202570127
  21
 97.354428390751
  31
0.0
   0
LINE
   5
26F
 100
AcDbEntity
   8
LEVEL001
 100
AcDbLine
   6
CONTINUOUS
  62
15
  10
 155.32637677341
  20
 76.262629124464
  30
0.0
  11
 167.12037309521
  21
 76.262629124464
  31
0.0
   0
ARC
   5
270
 100
AcDbEntity
   8
LEVEL001
   6
CONTINUOUS
  62
7
 100
AcDbCircle
  10
 160.12037309515
  20
 65.566476701760
  30
0.0
  40
 1.0000000000000
 100
AcDbArc
  50
 199.24773290741
  51
 240.00000000033
   0
ARC
   5
271
 100
AcDbEntity
   8
LEVEL001
   6
DOT
  62
1
 100
AcDbCircle
  10
 160.68328960761
  20
 65.241476701757
  30
0.0
  40
 1.0000000000000
 100
AcDbArc
  50
 101.28475158357
  51
 239.99999999993
   0
LINE
   5
272
 100
AcDbEntity
   8
LEVEL001
 100
AcDbLine
   6
CONTINUOUS
  62
7
  10
 146.89559413821
  20
 100.40775237545
  30
0.0
  11
 159.17627103022
  21
 65.236823412683
  31
0.0
   0
LINE
   5
273
 100
AcDbEntity
   8
LEVEL001
 100
AcDbLine
   6
DOT
  62
1
  10
 149.94356132288
  20
 83.939721653113
  30
0.0
  11
 149.71791065646
  21
 85.777498852165
  31
0.0
   0
ARC
   5
274
 100
AcDbEntity
   8
LEVEL001
   6
CONTINUOUS
  62
7
 100
AcDbCircle
  10
 147.65087579015
  20
 100.67147500671
  30
0.0
  40
 0.80000000000000
 100
AcDbArc
  50
 101.47803335475
  51
 199.24773290764
   0
ARC
   5
275
 100
AcDbEntity
   8
LEVEL001
   6
DOT
  62
1
 100
AcDbCircle
  10
 145.79986501947
  20
 80.762629124464
  30
0.0
  40
 19.650000000000
 100
AcDbArc
  50
 83.031859699402
  51
 86.776670375885
   0
LINE
   5
276
 100
AcDbEntity
   8
LEVEL001
 100
AcDbLine
   6
CONTINUOUS
  62
7
  10
 177.50228779345
  20
 98.254943491695
  30
0.0
  11
 203.90831488566
  21
 83.009416641782
  31
0.0
   0
ARC
   5
277
 100
AcDbEntity
   8
LEVEL001
   6
CONTINUOUS
  62
7
 100
AcDbCircle
  10
 145.79986501946
  20
 80.762629124465
  30
0.0
  40
 19.000000000000
 100
AcDbArc
  50
 85.963508171940
  51
 89.999999999998
   0
ARC
   5
278
 100
AcDbEntity
   8
LEVEL001
   6
DOT
  62
1
 100
AcDbCircle
  10
 145.79986501946
  20
 80.762629124465
  30
0.0
  40
 19.000000000000
 100
AcDbArc
  50
 312.53195764331
  51
 85.963508171939
   0
ARC
   5
279
 100
AcDbEntity
   8
LEVEL001
   6
CONTINUOUS
  62
7
 100
AcDbCircle
  10
 145.79986501946
  20
 80.762629124465
  30
0.0
  40
 19.000000000000
 100
AcDbArc
  50
 270.00000000000
  51
 312.53195764331
   0
LINE
   5
27A
 100
AcDbEntity
   8
LEVEL001
 100
AcDbLine
   6
CONTINUOUS
  62
7
  10
 145.79986501946
  20
 61.762629124465
  30
0.0
  11
 108.59986501946
  21
 61.762629124465
  31
0.0
   0
LINE
   5
27B
 100
AcDbEntity
   8
LEVEL001
 100
AcDbLine
   6
DASHDOT
  62
2
  10
 145.79986501946
  20
 103.95291423886
  30
0.0
  11
 145.79986501946
  21
 57.157905014051
  31
0.0
   0
LINE
   5
27C
 100
AcDbEntity
   8
LEVEL001
 100
AcDbLine
   6
DASHDOT
  62
2
  10
 157.79986501946
  20
 110.82519715299
  30
0.0
  11
 157.79986501946
  21
 84.277870801349
  31
0.0
   0
DIMENSION
   5
27D
 100
AcDbEntity
   8
LEVEL001
   6
CONTINUOUS
  62
3
 100
AcDbDimension
   2
*D12
  10
 132.79986501946
  20
 108.97185653085
  30
0.0
  11
 120.29986501946
  21
 108.97185653085
  31
0.0
  70
0
   3
GMM001
 100
AcDbAlignedDimension
  13
 107.79986501946
  23
 99.762629124465
  33
0.0
  14
 132.79986501946
  24
 98.462629124465
  34
0.0
 100
AcDbRotatedDimension
   0
DIMENSION
   5
27E
 100
AcDbEntity
   8
LEVEL001
   6
CONTINUOUS
  62
3
 100
AcDbDimension
   2
*D13
  10
 145.79986501946
  20
 118.49221051315
  30
0.0
  11
 126.79986501946
  21
 118.49221051315
  31
0.0
  70
0
   3
GMM001
 100
AcDbAlignedDimension
  13
 107.79986501946
  23
 110.47185653085
  33
0.0
  14
 145.79986501946
  24
 103.95291423886
  34
0.0
 100
AcDbRotatedDimension
   0
DIMENSION
   5
27F
 100
AcDbEntity
   8
LEVEL001
   6
CONTINUOUS
  62
3
 100
AcDbDimension
   2
*D14
  10
 114.79986501946
  20
 49.710134775945
  30
0.0
  11
 111.29986501946
  21
 49.710134775945
  31
0.0
  70
0
   3
GMM001
 100
AcDbAlignedDimension
  13
 107.79986501946
  23
 61.762629124465
  33
0.0
  14
 114.79986501946
  24
 58.505711970725
  34
0.0
 100
AcDbRotatedDimension
   0
DIMENSION
   5
280
 100
AcDbEntity
   8
LEVEL001
   6
CONTINUOUS
  62
3
 100
AcDbDimension
   2
*D15
  10
 94.951908248037
  20
 98.462629124465
  30
0.0
  11
 94.951908248037
  21
 80.762629124465
  31
0.0
  70
0
   3
GMM001
 100
AcDbAlignedDimension
  13
 107.79986501946
  23
 63.062629124465
  33
0.0
  14
 107.79986501946
  24
 98.462629124465
  34
0.0
  50
 90.000000000000
 100
AcDbRotatedDimension
   0
DIMENSION
   5
281
 100
AcDbEntity
   8
LEVEL001
   6
CONTINUOUS
  62
3
 100
AcDbDimension
   2
*D16
  10
 86.022114737712
  20
 61.762629124465
  30
0.0
  11
 86.022114737712
  21
 80.762629124465
  31
0.0
  70
0
   3
GMM001
 100
AcDbAlignedDimension
  13
 107.79986501946
  23
 99.762629124465
  33
0.0
  14
 107.79986501946
  24
 61.762629124465
  34
0.0
  50
 270.00000000000
 100
AcDbRotatedDimension
   0
DIMENSION
   5
282
 100
AcDbEntity
   8
LEVEL001
   6
CONTINUOUS
  62
3
 100
AcDbDimension
   2
*D17
  10
 179.73346617135
  20
 39.537350403302
  30
0.0
  11
 168.90814862404
  21
 45.787350403302
  31
0.0
  70
0
   3
GMM001
 100
AcDbAlignedDimension
  13
 164.60050011408
  23
 63.326284322893
  33
0.0
  14
 186.25113520869
  24
 50.826284322893
  34
0.0
  50
 330.00000000000
 100
AcDbRotatedDimension
   0
DIMENSION
   5
283
 100
AcDbEntity
   8
LEVEL001
   6
CONTINUOUS
  62
3
 100
AcDbDimension
   2
*D18
  10
 216.40215963621
  20
 74.294981311944
  30
0.0
  11
 207.55215963621
  21
 58.966331664960
  31
0.0
  70
0
   3
GMM002
 100
AcDbAlignedDimension
  13
 186.25113520869
  23
 50.826284322893
  33
0.0
  14
 203.95113520869
  24
 81.483583616862
  34
0.0
  50
 60.000000000000
 100
AcDbRotatedDimension
   0
DIMENSION
   5
284
 100
AcDbEntity
   8
LEVEL001
   6
CONTINUOUS
  62
3
 100
AcDbDimension
   2
*D19
  10
 211.26526237061
  20
 56.822570801727
  30
0.0
  11
 156.66010761782
  21
 31.724386902397
  31
0.0
  70
2
   3
GMM004
 100
AcDb2LineAngularDimension
  13
 100.17970310582
  23
 80.762629124465
  33
0.0
  14
 170.26724089869
  24
 80.762629124465
  34
0.0
  15
 172.72188774878
  25
 79.075598515116
  35
0.0
  16
 213.76609635119
  26
 55.378127410039
  36
0.0
   0
LINE
   5
285
 100
AcDbEntity
   8
LEVEL001
 100
AcDbLine
   6
DASHDOT
  62
2
  10
 172.72188774878
  20
 79.075598515116
  30
0.0
  11
 200.85316841500
  21
 62.833996049827
  31
0.0
   0
LINE
   5
286
 100
AcDbEntity
   8
LEVEL001
 100
AcDbLine
   6
DASHDOT
  62
2
  10
 206.79418923023
  20
 59.403946082890
  30
0.0
  11
 211.26526237061
  21
 56.822570801727
  31
0.0
   0
ENDSEC
  0
SECTION
  2
OBJECTS
  0
DICTIONARY
  5
C
100
AcDbDictionary
  3
ACAD_GROUP
350
D
  3
ACAD_MLINESTYLE
350
1B
  0
DICTIONARY
  5
D
102
{ACAD_REACTORS
330
C
102
}
100
AcDbDictionary
  0
DICTIONARY
  5
1B
102
{ACAD_REACTORS
330
C
102
}
100
AcDbDictionary
  3
STANDARD
350
1C
  0
MLINESTYLE
  5
1C
102
{ACAD_REACTORS
330
1B
102
}
100
AcDbMlineStyle
  2
STANDARD
 70
     0
  3

 62
   256
 51
90.0
 52
90.0
 71
     2
 49
0.5
 62
   256
  6
BYLAYER
 49
-0.5
 62
   256
  6
BYLAYER
  0
ENDSEC
   0
EOF
