   0
SECTION
   2
HEADER
   9
$ACADVER
   1
AC1015
   9
$LIMMIN
  10
0.0
  20
0.0
   9
$LIMMAX
  10
 420.00000000000
  20
 297.00000000000
   9
$EXTMIN
  10
0.0
  20
0.0
  30
0.0
   9
$EXTMAX
  10
 420.00000000000
  20
 297.00000000000
  30
0.0
   9
$LTSCALE
  40
 8.4000000000000
   9
$HANDSEED
   5
304
   0
ENDSEC
   0
SECTION
   2
TABLES
  0
TABLE
  2
VPORT
  5
8
100
AcDbSymbolTable
 70
     1
  0
VPORT
  5
303
100
AcDbSymbolTableRecord
100
AcDbViewportTableRecord
  2
*ACTIVE
 70
     0
 10
0.0
 20
0.0
 11
1.0
 21
1.0
  12
 210.00000000000
  22
 148.50000000000
 13
0.0
 23
0.0
 14
1.0
 24
1.0
 15
0.0
 25
0.0
 16
0.0
 26
0.0
 36
1.0
 17
0.0
 27
0.0
 37
0.0
  40
 420.00000000000
  41
 1.4787878787879
 42
50.0
 43
0.0
 44
0.0
 50
0.0
 51
0.0
 71
     0
 72
   100
 73
     1
 74
     1
 75
     0
 76
     0
 77
     0
 78
     0
  0
ENDTAB
  0
TABLE
  2
LTYPE
  5
5
100
AcDbSymbolTable
 70
    25
  0
LTYPE
  5
12
100
AcDbSymbolTableRecord
100
AcDbLinetypeTableRecord
  2
BYBLOCK
 70
     0
  3

 72
    65
 73
     0
 40
0.0
  0
LTYPE
  5
13
100
AcDbSymbolTableRecord
100
AcDbLinetypeTableRecord
  2
BYLAYER
 70
     0
  3

 72
    65
 73
     0
 40
0.0
  0
LTYPE
  5
14
100
AcDbSymbolTableRecord
100
AcDbLinetypeTableRecord
  2
CONTINUOUS
 70
     0
  3
Solid line
 72
    65
 73
     0
 40
0.0
  0
LTYPE
  5
20
100
AcDbSymbolTableRecord
100
AcDbLinetypeTableRecord
  2
BORDER
 70
     0
  3
__ __ . __ __ . __ __ . __ __ . __ __ . __ __ .
 72
    65
 73
     6
 40
1.75
 49
0.5
 74
     0
 49
-0.25
 74
     0
 49
0.5
 74
     0
 49
-0.25
 74
     0
 49
0.0
 74
     0
 49
-0.25
 74
     0
  0
LTYPE
  5
21
100
AcDbSymbolTableRecord
100
AcDbLinetypeTableRecord
  2
BORDER2
 70
     0
  3
__.__.__.__.__.__.__.__.__.__.__.__.__.__.__.__
 72
    65
 73
     6
 40
0.875
 49
0.25
 74
     0
 49
-0.125
 74
     0
 49
0.25
 74
     0
 49
-0.125
 74
     0
 49
0.0
 74
     0
 49
-0.125
 74
     0
  0
LTYPE
  5
22
100
AcDbSymbolTableRecord
100
AcDbLinetypeTableRecord
  2
BORDERX2
 70
     0
  3
____  ____  .  ____  ____  .  ____  ____  .  __
 72
    65
 73
     6
 40
3.5
 49
1.0
 74
     0
 49
-0.5
 74
     0
 49
1.0
 74
     0
 49
-0.5
 74
     0
 49
0.0
 74
     0
 49
-0.5
 74
     0
  0
LTYPE
  5
23
100
AcDbSymbolTableRecord
100
AcDbLinetypeTableRecord
  2
CENTER
 70
     0
  3
____ _ ____ _ ____ _ ____ _ ____ _ ____ _ ____ 
 72
    65
 73
     4
 40
2.0
 49
1.25
 74
     0
 49
-0.25
 74
     0
 49
0.25
 74
     0
 49
-0.25
 74
     0
  0
LTYPE
  5
24
100
AcDbSymbolTableRecord
100
AcDbLinetypeTableRecord
  2
CENTER2
 70
     0
  3
___ _ ___ _ ___ _ ___ _ ___ _ ___ _ ___ _ ___ _
 72
    65
 73
     4
 40
1.125
 49
0.75
 74
     0
 49
-0.125
 74
     0
 49
0.125
 74
     0
 49
-0.125
 74
     0
  0
LTYPE
  5
25
100
AcDbSymbolTableRecord
100
AcDbLinetypeTableRecord
  2
CENTERX2
 70
     0
  3
________  __  ________  __  ________  __  _____
 72
    65
 73
     4
 40
4.0
 49
2.5
 74
     0
 49
-0.5
 74
     0
 49
0.5
 74
     0
 49
-0.5
 74
     0
  0
LTYPE
  5
26
100
AcDbSymbolTableRecord
100
AcDbLinetypeTableRecord
  2
DASHDOT
 70
     0
  3
__ . __ . __ . __ . __ . __ . __ . __ . __ . __
 72
    65
 73
     4
 40
1.0
 49
0.5
 74
     0
 49
-0.25
 74
     0
 49
0.0
 74
     0
 49
-0.25
 74
     0
  0
LTYPE
  5
27
100
AcDbSymbolTableRecord
100
AcDbLinetypeTableRecord
  2
DASHDOT2
 70
     0
  3
_._._._._._._._._._._._._._._._._._._._._._._._
 72
    65
 73
     4
 40
0.5
 49
0.25
 74
     0
 49
-0.125
 74
     0
 49
0.0
 74
     0
 49
-0.125
 74
     0
  0
LTYPE
  5
28
100
AcDbSymbolTableRecord
100
AcDbLinetypeTableRecord
  2
DASHDOTX2
 70
     0
  3
____  .  ____  .  ____  .  ____  .  ____  .  __
 72
    65
 73
     4
 40
2.0
 49
1.0
 74
     0
 49
-0.5
 74
     0
 49
0.0
 74
     0
 49
-0.5
 74
     0
  0
LTYPE
  5
29
100
AcDbSymbolTableRecord
100
AcDbLinetypeTableRecord
  2
DASHED
 70
     0
  3
__ __ __ __ __ __ __ __ __ __ __ __ __ __ __ __
 72
    65
 73
     2
 40
0.75
 49
0.5
 74
     0
 49
-0.25
 74
     0
  0
LTYPE
  5
2A
100
AcDbSymbolTableRecord
100
AcDbLinetypeTableRecord
  2
DASHED2
 70
     0
  3
_ _ _ _ _ _ _ _ _ _ _ _ _ _ _ _ _ _ _ _ _ _ _ _
 72
    65
 73
     2
 40
0.375
 49
0.25
 74
     0
 49
-0.125
 74
     0
  0
LTYPE
  5
2B
100
AcDbSymbolTableRecord
100
AcDbLinetypeTableRecord
  2
DASHEDX2
 70
     0
  3
____  ____  ____  ____  ____  ____  ____  ____ 
 72
    65
 73
     2
 40
1.5
 49
1.0
 74
     0
 49
-0.5
 74
     0
  0
LTYPE
  5
2C
100
AcDbSymbolTableRecord
100
AcDbLinetypeTableRecord
  2
DIVIDE
 70
     0
  3
____ . . ____ . . ____ . . ____ . . ____ . . __
 72
    65
 73
     6
 40
1.25
 49
0.5
 74
     0
 49
-0.25
 74
     0
 49
0.0
 74
     0
 49
-0.25
 74
     0
 49
0.0
 74
     0
 49
-0.25
 74
     0
  0
LTYPE
  5
2D
100
AcDbSymbolTableRecord
100
AcDbLinetypeTableRecord
  2
DIVIDE2
 70
     0
  3
__..__..__..__..__..__..__..__..__..__..__..__.
 72
    65
 73
     6
 40
0.625
 49
0.25
 74
     0
 49
-0.125
 74
     0
 49
0.0
 74
     0
 49
-0.125
 74
     0
 49
0.0
 74
     0
 49
-0.125
 74
     0
  0
LTYPE
  5
2E
100
AcDbSymbolTableRecord
100
AcDbLinetypeTableRecord
  2
DIVIDEX2
 70
     0
  3
________  .  .  ________  .  .  ________  .  . 
 72
    65
 73
     6
 40
2.5
 49
1.0
 74
     0
 49
-0.5
 74
     0
 49
0.0
 74
     0
 49
-0.5
 74
     0
 49
0.0
 74
     0
 49
-0.5
 74
     0
  0
LTYPE
  5
2F
100
AcDbSymbolTableRecord
100
AcDbLinetypeTableRecord
  2
DOT
 70
     0
  3
. . . . . . . . . . . . . . . . . . . . . . . .
 72
    65
 73
     2
 40
0.25
 49
0.0
 74
     0
 49
-0.25
 74
     0
  0
LTYPE
  5
30
100
AcDbSymbolTableRecord
100
AcDbLinetypeTableRecord
  2
DOT2
 70
     0
  3
...............................................
 72
    65
 73
     2
 40
0.125
 49
0.0
 74
     0
 49
-0.125
 74
     0
  0
LTYPE
  5
31
100
AcDbSymbolTableRecord
100
AcDbLinetypeTableRecord
  2
DOTX2
 70
     0
  3
.  .  .  .  .  .  .  .  .  .  .  .  .  .  .  . 
 72
    65
 73
     2
 40
0.5
 49
0.0
 74
     0
 49
-0.5
 74
     0
  0
LTYPE
  5
32
100
AcDbSymbolTableRecord
100
AcDbLinetypeTableRecord
  2
HIDDEN
 70
     0
  3
__ __ __ __ __ __ __ __ __ __ __ __ __ __ __ __
 72
    65
 73
     2
 40
0.375
 49
0.25
 74
     0
 49
-0.125
 74
     0
  0
LTYPE
  5
33
100
AcDbSymbolTableRecord
100
AcDbLinetypeTableRecord
  2
HIDDEN2
 70
     0
  3
_ _ _ _ _ _ _ _ _ _ _ _ _ _ _ _ _ _ _ _ _ _ _ _
 72
    65
 73
     2
 40
0.1875
 49
0.125
 74
     0
 49
-0.0625
 74
     0
  0
LTYPE
  5
34
100
AcDbSymbolTableRecord
100
AcDbLinetypeTableRecord
  2
HIDDENX2
 70
     0
  3
____ ____ ____ ____ ____ ____ ____ ____ ____ __
 72
    65
 73
     2
 40
0.75
 49
0.5
 74
     0
 49
-0.25
 74
     0
  0
LTYPE
  5
35
100
AcDbSymbolTableRecord
100
AcDbLinetypeTableRecord
  2
PHANTOM
 70
     0
  3
______  __  __  ______  __  __  ______  __  __ 
 72
    65
 73
     6
 40
2.5
 49
1.25
 74
     0
 49
-0.25
 74
     0
 49
0.25
 74
     0
 49
-0.25
 74
     0
 49
0.25
 74
     0
 49
-0.25
 74
     0
  0
LTYPE
  5
36
100
AcDbSymbolTableRecord
100
AcDbLinetypeTableRecord
  2
PHANTOM2
 70
     0
  3
___ _ _ ___ _ _ ___ _ _ ___ _ _ ___ _ _ ___ _ _
 72
    65
 73
     6
 40
1.25
 49
0.625
 74
     0
 49
-0.125
 74
     0
 49
0.125
 74
     0
 49
-0.125
 74
     0
 49
0.125
 74
     0
 49
-0.125
 74
     0
  0
LTYPE
  5
37
100
AcDbSymbolTableRecord
100
AcDbLinetypeTableRecord
  2
PHANTOMX2
 70
     0
  3
____________    ____    ____    ____________   
 72
    65
 73
     6
 40
5.0
 49
2.5
 74
     0
 49
-0.5
 74
     0
 49
0.5
 74
     0
 49
-0.5
 74
     0
 49
0.5
 74
     0
 49
-0.5
 74
     0
  0
ENDTAB
   0
TABLE
   2
LAYER
   5
2
 100
AcDbSymbolTable
  70
2
   0
LAYER
   5
E
 100
AcDbSymbolTableRecord
 100
AcDbLayerTableRecord
   2
0
  70
0
  62
7
   6
CONTINUOUS
 390
30
   0
LAYER
   5
39
 100
AcDbSymbolTableRecord
 100
AcDbLayerTableRecord
   2
LEVEL001
  70
0
  62
7
   6
CONTINUOUS
 390
30
   0
ENDTAB
  0
TABLE
  2
STYLE
  5
3
100
AcDbSymbolTable
  70
3
  0
STYLE
  5
F
100
AcDbSymbolTableRecord
100
AcDbTextStyleTableRecord
  2
STANDARD
 70
     0
 40
0.0
 41
1.0
 50
0.0
 71
     0
 42
0.2
  3
TXT
  4
BIGFONT
  0
STYLE
  5
38
100
AcDbSymbolTableRecord
100
AcDbTextStyleTableRecord
  2
STANDARD1
 70
     4
 40
0.0
 41
1.0
 50
0.0
 71
     0
 42
0.2
  3
TXT
  4
BIGFONT
   0
STYLE
   5
3A
 100
AcDbSymbolTableRecord
 100
AcDbTextStyleTableRecord
   2
GMM001
  70
0
  40
0.0
  41
 1.0000000000000
  50
0.0
  71
     0
  42
1.0
   3
txt.shx
   4
bigfont.shx
   0
ENDTAB
  0
TABLE
  2
VIEW
  5
6
100
AcDbSymbolTable
 70
     0
  0
ENDTAB
  0
TABLE
  2
UCS
  5
7
100
AcDbSymbolTable
 70
     0
  0
ENDTAB
  0
TABLE
  2
APPID
  5
9
100
AcDbSymbolTable
 70
     1
  0
APPID
  5
10
100
AcDbSymbolTableRecord
100
AcDbRegAppTableRecord
  2
ACAD
 70
     0
  0
ENDTAB
   0
TABLE
   2
DIMSTYLE
   5
A
 100
AcDbSymbolTable
  70
4
 100
AcDbDimStyleTable
  0
DIMSTYLE
105
1D
100
AcDbSymbolTableRecord
100
AcDbDimStyleTableRecord
  2
STANDARD
 70
     0
  3

  4

  5

  6

  7

 40
1.0
 41
0.18
 42
0.0625
 43
0.38
 44
0.18
 45
0.0
 46
0.0
 47
0.0
 48
0.0
140
0.18
141
0.09
142
0.0
143
25.4
144
1.0
145
0.0
146
1.0
147
0.09
 71
     0
 72
     0
 73
     1
 74
     1
 75
     0
 76
     0
 77
     0
 78
     0
170
     0
171
     2
172
     0
173
     0
174
     0
175
     0
176
     0
177
     0
178
     0
270
     2
271
     4
272
     4
273
     2
274
     2
340
F
275
     0
280
     0
281
     0
282
     0
283
     1
284
     0
285
     0
286
     0
287
     3
288
     0
   0
DIMSTYLE
 105
3B
 100
AcDbSymbolTableRecord
 100
AcDbDimStyleTableRecord
   2
GMM001
  70
0
   3

   4

   5

   6
_OPEN30
   7
_OPEN30
  40
 1.0000000000000
  41
 3.0000000000000
  42
0.0
  43
 8.0000000000000
  44
 2.0000000000000
  45
0.0
  46
0.0
  47
0.0
  48
0.0
 140
 4.0000000000000
 141
 1.0000000000000
 142
0.0
 143
 0.39400000000000E-1
 144
 1.0000000000000
 145
0.0
 146
 0.62500000000000
 147
 1.7142857142857
  71
0
  72
0
  73
0
  74
0
  75
0
  76
0
  77
3
  78
8
 170
0
 171
2
 172
1
 173
1
 174
0
 175
0
 176
2
 177
2
 178
2
 270
2
 271
6
 272
0
 273
2
 274
2
 340
3A
 275
1
 280
0
 281
0
 282
0
 283
1
 284
0
 285
0
 286
0
 287
3
 288
0
   0
DIMSTYLE
 105
3C
 100
AcDbSymbolTableRecord
 100
AcDbDimStyleTableRecord
   2
GMM002
  70
0
   3

   4

   5

   6
_OPEN30
   7
_OPEN30
  40
 1.0000000000000
  41
 3.0000000000000
  42
0.0
  43
 8.0000000000000
  44
 2.0000000000000
  45
0.0
  46
0.0
  47
0.0
  48
0.0
 140
 4.0000000000000
 141
 1.0000000000000
 142
0.0
 143
 0.39400000000000E-1
 144
 1.0000000000000
 145
0.0
 146
 0.62500000000000
 147
 1.7142857142857
  71
0
  72
0
  73
0
  74
0
  75
0
  76
0
  77
3
  78
8
 170
0
 171
2
 172
1
 173
1
 174
0
 175
0
 176
2
 177
2
 178
2
 270
2
 271
6
 272
0
 273
2
 274
2
 340
3A
 275
1
 280
0
 281
0
 282
0
 283
1
 284
0
 285
0
 286
0
 287
3
 288
1
   0
ENDTAB
  0
TABLE
  2
BLOCK_RECORD
  5
1
100
AcDbSymbolTable
 70
     0
  0
BLOCK_RECORD
  5
18
100
AcDbSymbolTableRecord
100
AcDbBlockTableRecord
  2
*MODEL_SPACE
  0
BLOCK_RECORD
  5
15
100
AcDbSymbolTableRecord
100
AcDbBlockTableRecord
  2
*PAPER_SPACE
   0
BLOCK_RECORD
   5
3D
 100
AcDbSymbolTableRecord
 100
AcDbBlockTableRecord
   2
*D1
   0
BLOCK_RECORD
   5
3E
 100
AcDbSymbolTableRecord
 100
AcDbBlockTableRecord
   2
*D2
   0
BLOCK_RECORD
   5
3F
 100
AcDbSymbolTableRecord
 100
AcDbBlockTableRecord
   2
*D3
   0
BLOCK_RECORD
   5
40
 100
AcDbSymbolTableRecord
 100
AcDbBlockTableRecord
   2
*D4
   0
BLOCK_RECORD
   5
41
 100
AcDbSymbolTableRecord
 100
AcDbBlockTableRecord
   2
*D5
   0
BLOCK_RECORD
   5
42
 100
AcDbSymbolTableRecord
 100
AcDbBlockTableRecord
   2
*D6
   0
BLOCK_RECORD
   5
43
 100
AcDbSymbolTableRecord
 100
AcDbBlockTableRecord
   2
*D7
   0
BLOCK_RECORD
   5
44
 100
AcDbSymbolTableRecord
 100
AcDbBlockTableRecord
   2
*D8
   0
BLOCK_RECORD
   5
45
 100
AcDbSymbolTableRecord
 100
AcDbBlockTableRecord
   2
*D9
   0
BLOCK_RECORD
   5
46
 100
AcDbSymbolTableRecord
 100
AcDbBlockTableRecord
   2
*D10
   0
BLOCK_RECORD
   5
47
 100
AcDbSymbolTableRecord
 100
AcDbBlockTableRecord
   2
*D11
   0
BLOCK_RECORD
   5
48
 100
AcDbSymbolTableRecord
 100
AcDbBlockTableRecord
   2
*D12
   0
BLOCK_RECORD
   5
49
 100
AcDbSymbolTableRecord
 100
AcDbBlockTableRecord
   2
*D13
   0
BLOCK_RECORD
   5
4A
 100
AcDbSymbolTableRecord
 100
AcDbBlockTableRecord
   2
*D14
   0
BLOCK_RECORD
   5
4B
 100
AcDbSymbolTableRecord
 100
AcDbBlockTableRecord
   2
*D15
   0
BLOCK_RECORD
   5
4C
 100
AcDbSymbolTableRecord
 100
AcDbBlockTableRecord
   2
*D16
   0
BLOCK_RECORD
   5
4D
 100
AcDbSymbolTableRecord
 100
AcDbBlockTableRecord
   2
*D17
   0
BLOCK_RECORD
   5
4E
 100
AcDbSymbolTableRecord
 100
AcDbBlockTableRecord
   2
*D18
   0
BLOCK_RECORD
   5
4F
 100
AcDbSymbolTableRecord
 100
AcDbBlockTableRecord
   2
*D19
   0
BLOCK_RECORD
   5
50
 100
AcDbSymbolTableRecord
 100
AcDbBlockTableRecord
   2
*D20
   0
BLOCK_RECORD
   5
51
 100
AcDbSymbolTableRecord
 100
AcDbBlockTableRecord
   2
*D21
   0
BLOCK_RECORD
   5
52
 100
AcDbSymbolTableRecord
 100
AcDbBlockTableRecord
   2
*D22
   0
BLOCK_RECORD
   5
53
 100
AcDbSymbolTableRecord
 100
AcDbBlockTableRecord
   2
*D23
   0
BLOCK_RECORD
   5
54
 100
AcDbSymbolTableRecord
 100
AcDbBlockTableRecord
   2
*D24
   0
BLOCK_RECORD
   5
55
 100
AcDbSymbolTableRecord
 100
AcDbBlockTableRecord
   2
_ARCHTICK
   0
BLOCK_RECORD
   5
56
 100
AcDbSymbolTableRecord
 100
AcDbBlockTableRecord
   2
_BOXBLANK
   0
BLOCK_RECORD
   5
57
 100
AcDbSymbolTableRecord
 100
AcDbBlockTableRecord
   2
_BOXFILLED
   0
BLOCK_RECORD
   5
58
 100
AcDbSymbolTableRecord
 100
AcDbBlockTableRecord
   2
_CLOSED
   0
BLOCK_RECORD
   5
59
 100
AcDbSymbolTableRecord
 100
AcDbBlockTableRecord
   2
_CLOSEDBLANK
   0
BLOCK_RECORD
   5
5A
 100
AcDbSymbolTableRecord
 100
AcDbBlockTableRecord
   2
_DATUMBLANK
   0
BLOCK_RECORD
   5
5B
 100
AcDbSymbolTableRecord
 100
AcDbBlockTableRecord
   2
_DATUMFILLED
   0
BLOCK_RECORD
   5
5C
 100
AcDbSymbolTableRecord
 100
AcDbBlockTableRecord
   2
_DOT
   0
BLOCK_RECORD
   5
5D
 100
AcDbSymbolTableRecord
 100
AcDbBlockTableRecord
   2
_DOTBLANK
   0
BLOCK_RECORD
   5
5E
 100
AcDbSymbolTableRecord
 100
AcDbBlockTableRecord
   2
_DOTSMALL
   0
BLOCK_RECORD
   5
5F
 100
AcDbSymbolTableRecord
 100
AcDbBlockTableRecord
   2
_INTEGRAL
   0
BLOCK_RECORD
   5
60
 100
AcDbSymbolTableRecord
 100
AcDbBlockTableRecord
   2
_NONE
   0
BLOCK_RECORD
   5
61
 100
AcDbSymbolTableRecord
 100
AcDbBlockTableRecord
   2
_OBLIQUE
   0
BLOCK_RECORD
   5
62
 100
AcDbSymbolTableRecord
 100
AcDbBlockTableRecord
   2
_OPEN
   0
BLOCK_RECORD
   5
63
 100
AcDbSymbolTableRecord
 100
AcDbBlockTableRecord
   2
_OPEN30
   0
BLOCK_RECORD
   5
64
 100
AcDbSymbolTableRecord
 100
AcDbBlockTableRecord
   2
_OPEN90
   0
BLOCK_RECORD
   5
65
 100
AcDbSymbolTableRecord
 100
AcDbBlockTableRecord
   2
_ORIGIN
   0
ENDTAB
   0
ENDSEC
  0
SECTION
  2
BLOCKS
  0
BLOCK
  5
19
100
AcDbEntity
  8
0
100
AcDbBlockBegin
  2
*MODEL_SPACE
 70
     0
 10
0.0
 20
0.0
 30
0.0
  3
*MODEL_SPACE
  1

  0
ENDBLK
  5
1A
100
AcDbEntity
  8
0
100
AcDbBlockEnd
  0
BLOCK
  5
16
100
AcDbEntity
 67
     1
  8
0
100
AcDbBlockBegin
  2
*PAPER_SPACE
 70
     0
 10
0.0
 20
0.0
 30
0.0
  3
*PAPER_SPACE
  1

  0
ENDBLK
  5
17
100
AcDbEntity
 67
     1
  8
0
100
AcDbBlockEnd
   0
BLOCK
   5
66
 100
AcDbEntity
   8
0
 100
AcDbBlockBegin
   2
_ARCHTICK
  70
0
  10
0.0
  20
0.0
  30
0.0
   3
_ARCHTICK
   0
POLYLINE
   5
67
 100
AcDbEntity
   8
0
   6
BYBLOCK
  62
0
 100
AcDb2dPolyline
  66
1
  10
0.0
  20
0.0
  30
0.0
  70
1
  40
 0.15000000000000
  41
 0.15000000000000
   0
VERTEX
   5
68
 100
AcDbEntity
   8
0
   6
BYBLOCK
  62
0
 100
AcDbVertex
 100
AcDb2dVertex
  10
-0.50000000000000
  20
-0.50000000000000
  30
0.0
  40
 0.15000000000000
  41
 0.15000000000000
   0
VERTEX
   5
69
 100
AcDbEntity
   8
0
   6
BYBLOCK
  62
0
 100
AcDbVertex
 100
AcDb2dVertex
  10
 0.50000000000000
  20
 0.50000000000000
  30
0.0
  40
 0.15000000000000
  41
 0.15000000000000
   0
SEQEND
   5
6A
 100
AcDbEntity
   8
0
   6
BYBLOCK
  62
0
   0
ENDBLK
   5
6B
 100
AcDbEntity
   8
0
 100
AcDbBlockEnd
   0
BLOCK
   5
6C
 100
AcDbEntity
   8
0
 100
AcDbBlockBegin
   2
_OBLIQUE
  70
0
  10
0.0
  20
0.0
  30
0.0
   3
_OBLIQUE
   0
LINE
   5
6D
 100
AcDbEntity
   8
0
 100
AcDbLine
   6
BYBLOCK
  62
0
  10
-0.50000000000000
  20
-0.50000000000000
  30
0.0
  11
 0.50000000000000
  21
 0.50000000000000
  31
0.0
   0
ENDBLK
   5
6E
 100
AcDbEntity
   8
0
 100
AcDbBlockEnd
   0
BLOCK
   5
6F
 100
AcDbEntity
   8
0
 100
AcDbBlockBegin
   2
_BOXBLANK
  70
0
  10
0.0
  20
0.0
  30
0.0
   3
_BOXBLANK
   0
LINE
   5
70
 100
AcDbEntity
   8
0
 100
AcDbLine
   6
BYBLOCK
  62
0
  10
-0.50000000000000
  20
-0.50000000000000
  30
0.0
  11
 0.50000000000000
  21
-0.50000000000000
  31
0.0
   0
LINE
   5
71
 100
AcDbEntity
   8
0
 100
AcDbLine
   6
BYBLOCK
  62
0
  10
 0.50000000000000
  20
-0.50000000000000
  30
0.0
  11
 0.50000000000000
  21
 0.50000000000000
  31
0.0
   0
LINE
   5
72
 100
AcDbEntity
   8
0
 100
AcDbLine
   6
BYBLOCK
  62
0
  10
 0.50000000000000
  20
 0.50000000000000
  30
0.0
  11
-0.50000000000000
  21
 0.50000000000000
  31
0.0
   0
LINE
   5
73
 100
AcDbEntity
   8
0
 100
AcDbLine
   6
BYBLOCK
  62
0
  10
-0.50000000000000
  20
 0.50000000000000
  30
0.0
  11
-0.50000000000000
  21
-0.50000000000000
  31
0.0
   0
LINE
   5
74
 100
AcDbEntity
   8
0
 100
AcDbLine
   6
BYBLOCK
  62
0
  10
-0.50000000000000
  20
0.0
  30
0.0
  11
-1.0000000000000
  21
0.0
  31
0.0
   0
ENDBLK
   5
75
 100
AcDbEntity
   8
0
 100
AcDbBlockEnd
   0
BLOCK
   5
76
 100
AcDbEntity
   8
0
 100
AcDbBlockBegin
   2
_BOXFILLED
  70
0
  10
0.0
  20
0.0
  30
0.0
   3
_BOXFILLED
   0
SOLID
   5
77
 100
AcDbEntity
   8
0
 100
AcDbTrace
   6
BYBLOCK
  62
0
  10
-0.50000000000000
  20
 0.50000000000000
  30
0.0
  11
 0.50000000000000
  21
 0.50000000000000
  31
0.0
  12
-0.50000000000000
  22
-0.50000000000000
  32
0.0
  13
 0.50000000000000
  23
-0.50000000000000
  33
0.0
   0
LINE
   5
78
 100
AcDbEntity
   8
0
 100
AcDbLine
   6
BYBLOCK
  62
0
  10
-0.50000000000000
  20
0.0
  30
0.0
  11
-1.0000000000000
  21
0.0
  31
0.0
   0
ENDBLK
   5
79
 100
AcDbEntity
   8
0
 100
AcDbBlockEnd
   0
BLOCK
   5
7A
 100
AcDbEntity
   8
0
 100
AcDbBlockBegin
   2
_CLOSED
  70
0
  10
0.0
  20
0.0
  30
0.0
   3
_CLOSED
   0
LINE
   5
7B
 100
AcDbEntity
   8
0
 100
AcDbLine
   6
BYBLOCK
  62
0
  10
-1.0000000000000
  20
 0.16666666666667
  30
0.0
  11
0.0
  21
0.0
  31
0.0
   0
LINE
   5
7C
 100
AcDbEntity
   8
0
 100
AcDbLine
   6
BYBLOCK
  62
0
  10
0.0
  20
0.0
  30
0.0
  11
-1.0000000000000
  21
-0.16666666666667
  31
0.0
   0
LINE
   5
7D
 100
AcDbEntity
   8
0
 100
AcDbLine
   6
BYBLOCK
  62
0
  10
-1.0000000000000
  20
 0.16666666666667
  30
0.0
  11
-1.0000000000000
  21
-0.16666666666667
  31
0.0
   0
LINE
   5
7E
 100
AcDbEntity
   8
0
 100
AcDbLine
   6
BYBLOCK
  62
0
  10
0.0
  20
0.0
  30
0.0
  11
-1.0000000000000
  21
0.0
  31
0.0
   0
ENDBLK
   5
7F
 100
AcDbEntity
   8
0
 100
AcDbBlockEnd
   0
BLOCK
   5
80
 100
AcDbEntity
   8
0
 100
AcDbBlockBegin
   2
_OPEN
  70
0
  10
0.0
  20
0.0
  30
0.0
   3
_OPEN
   0
LINE
   5
81
 100
AcDbEntity
   8
0
 100
AcDbLine
   6
BYBLOCK
  62
0
  10
-1.0000000000000
  20
 0.16666666666667
  30
0.0
  11
0.0
  21
0.0
  31
0.0
   0
LINE
   5
82
 100
AcDbEntity
   8
0
 100
AcDbLine
   6
BYBLOCK
  62
0
  10
0.0
  20
0.0
  30
0.0
  11
-1.0000000000000
  21
-0.16666666666667
  31
0.0
   0
LINE
   5
83
 100
AcDbEntity
   8
0
 100
AcDbLine
   6
BYBLOCK
  62
0
  10
0.0
  20
0.0
  30
0.0
  11
-1.0000000000000
  21
0.0
  31
0.0
   0
ENDBLK
   5
84
 100
AcDbEntity
   8
0
 100
AcDbBlockEnd
   0
BLOCK
   5
85
 100
AcDbEntity
   8
0
 100
AcDbBlockBegin
   2
_OPEN30
  70
0
  10
0.0
  20
0.0
  30
0.0
   3
_OPEN30
   0
LINE
   5
86
 100
AcDbEntity
   8
0
 100
AcDbLine
   6
BYBLOCK
  62
0
  10
-1.0000000000000
  20
 0.26794919243110
  30
0.0
  11
0.0
  21
0.0
  31
0.0
   0
LINE
   5
87
 100
AcDbEntity
   8
0
 100
AcDbLine
   6
BYBLOCK
  62
0
  10
0.0
  20
0.0
  30
0.0
  11
-1.0000000000000
  21
-0.26794919243110
  31
0.0
   0
LINE
   5
88
 100
AcDbEntity
   8
0
 100
AcDbLine
   6
BYBLOCK
  62
0
  10
0.0
  20
0.0
  30
0.0
  11
-1.0000000000000
  21
0.0
  31
0.0
   0
ENDBLK
   5
89
 100
AcDbEntity
   8
0
 100
AcDbBlockEnd
   0
BLOCK
   5
8A
 100
AcDbEntity
   8
0
 100
AcDbBlockBegin
   2
_OPEN90
  70
0
  10
0.0
  20
0.0
  30
0.0
   3
_OPEN90
   0
LINE
   5
8B
 100
AcDbEntity
   8
0
 100
AcDbLine
   6
BYBLOCK
  62
0
  10
-0.50000000000000
  20
 0.50000000000000
  30
0.0
  11
0.0
  21
0.0
  31
0.0
   0
LINE
   5
8C
 100
AcDbEntity
   8
0
 100
AcDbLine
   6
BYBLOCK
  62
0
  10
0.0
  20
0.0
  30
0.0
  11
-0.50000000000000
  21
-0.50000000000000
  31
0.0
   0
LINE
   5
8D
 100
AcDbEntity
   8
0
 100
AcDbLine
   6
BYBLOCK
  62
0
  10
0.0
  20
0.0
  30
0.0
  11
-1.0000000000000
  21
0.0
  31
0.0
   0
ENDBLK
   5
8E
 100
AcDbEntity
   8
0
 100
AcDbBlockEnd
   0
BLOCK
   5
8F
 100
AcDbEntity
   8
0
 100
AcDbBlockBegin
   2
_CLOSEDBLANK
  70
0
  10
0.0
  20
0.0
  30
0.0
   3
_CLOSEDBLANK
   0
LINE
   5
90
 100
AcDbEntity
   8
0
 100
AcDbLine
   6
BYBLOCK
  62
0
  10
-1.0000000000000
  20
 0.16666666666667
  30
0.0
  11
0.0
  21
0.0
  31
0.0
   0
LINE
   5
91
 100
AcDbEntity
   8
0
 100
AcDbLine
   6
BYBLOCK
  62
0
  10
0.0
  20
0.0
  30
0.0
  11
-1.0000000000000
  21
-0.16666666666667
  31
0.0
   0
LINE
   5
92
 100
AcDbEntity
   8
0
 100
AcDbLine
   6
BYBLOCK
  62
0
  10
-1.0000000000000
  20
 0.16666666666667
  30
0.0
  11
-1.0000000000000
  21
-0.16666666666667
  31
0.0
   0
ENDBLK
   5
93
 100
AcDbEntity
   8
0
 100
AcDbBlockEnd
   0
BLOCK
   5
94
 100
AcDbEntity
   8
0
 100
AcDbBlockBegin
   2
_DOT
  70
0
  10
0.0
  20
0.0
  30
0.0
   3
_DOT
   0
POLYLINE
   5
95
 100
AcDbEntity
   8
0
   6
BYBLOCK
  62
0
 100
AcDb2dPolyline
  66
1
  10
0.0
  20
0.0
  30
0.0
  70
1
  40
 0.50000000000000
  41
 0.50000000000000
   0
VERTEX
   5
96
 100
AcDbEntity
   8
0
   6
BYBLOCK
  62
0
 100
AcDbVertex
 100
AcDb2dVertex
  10
-0.25000000000000
  20
0.0
  30
0.0
  42
 1.0000000000000
  40
 0.50000000000000
  41
 0.50000000000000
   0
VERTEX
   5
97
 100
AcDbEntity
   8
0
   6
BYBLOCK
  62
0
 100
AcDbVertex
 100
AcDb2dVertex
  10
 0.25000000000000
  20
0.0
  30
0.0
  42
 1.0000000000000
  40
 0.50000000000000
  41
 0.50000000000000
   0
SEQEND
   5
98
 100
AcDbEntity
   8
0
   6
BYBLOCK
  62
0
   0
LINE
   5
99
 100
AcDbEntity
   8
0
 100
AcDbLine
   6
BYBLOCK
  62
0
  10
-0.50000000000000
  20
0.0
  30
0.0
  11
-1.0000000000000
  21
0.0
  31
0.0
   0
ENDBLK
   5
9A
 100
AcDbEntity
   8
0
 100
AcDbBlockEnd
   0
BLOCK
   5
9B
 100
AcDbEntity
   8
0
 100
AcDbBlockBegin
   2
_DOTSMALL
  70
0
  10
0.0
  20
0.0
  30
0.0
   3
_DOTSMALL
   0
POLYLINE
   5
9C
 100
AcDbEntity
   8
0
   6
BYBLOCK
  62
0
 100
AcDb2dPolyline
  66
1
  10
0.0
  20
0.0
  30
0.0
  70
1
  40
 0.50000000000000
  41
 0.50000000000000
   0
VERTEX
   5
9D
 100
AcDbEntity
   8
0
   6
BYBLOCK
  62
0
 100
AcDbVertex
 100
AcDb2dVertex
  10
-0.62500000000000E-1
  20
0.0
  30
0.0
  42
 1.0000000000000
  40
 0.50000000000000
  41
 0.50000000000000
   0
VERTEX
   5
9E
 100
AcDbEntity
   8
0
   6
BYBLOCK
  62
0
 100
AcDbVertex
 100
AcDb2dVertex
  10
 0.62500000000000E-1
  20
0.0
  30
0.0
  42
 1.0000000000000
  40
 0.50000000000000
  41
 0.50000000000000
   0
SEQEND
   5
9F
 100
AcDbEntity
   8
0
   6
BYBLOCK
  62
0
   0
ENDBLK
   5
A0
 100
AcDbEntity
   8
0
 100
AcDbBlockEnd
   0
BLOCK
   5
A1
 100
AcDbEntity
   8
0
 100
AcDbBlockBegin
   2
_DATUMBLANK
  70
0
  10
0.0
  20
0.0
  30
0.0
   3
_DATUMBLANK
   0
LINE
   5
A2
 100
AcDbEntity
   8
0
 100
AcDbLine
   6
BYBLOCK
  62
0
  10
0.0
  20
 0.57735027000000
  30
0.0
  11
-1.0000000000000
  21
0.0
  31
0.0
   0
LINE
   5
A3
 100
AcDbEntity
   8
0
 100
AcDbLine
   6
BYBLOCK
  62
0
  10
-1.0000000000000
  20
0.0
  30
0.0
  11
0.0
  21
-0.57735027000000
  31
0.0
   0
LINE
   5
A4
 100
AcDbEntity
   8
0
 100
AcDbLine
   6
BYBLOCK
  62
0
  10
0.0
  20
-0.57735027000000
  30
0.0
  11
0.0
  21
 0.57735027000000
  31
0.0
   0
ENDBLK
   5
A5
 100
AcDbEntity
   8
0
 100
AcDbBlockEnd
   0
BLOCK
   5
A6
 100
AcDbEntity
   8
0
 100
AcDbBlockBegin
   2
_DATUMFILLED
  70
0
  10
0.0
  20
0.0
  30
0.0
   3
_DATUMFILLED
   0
SOLID
   5
A7
 100
AcDbEntity
   8
0
 100
AcDbTrace
   6
BYBLOCK
  62
0
  10
0.0
  20
 0.57735027000000
  30
0.0
  11
-1.0000000000000
  21
0.0
  31
0.0
  12
0.0
  22
-0.57735027000000
  32
0.0
  13
0.0
  23
-0.57735027000000
  33
0.0
   0
ENDBLK
   5
A8
 100
AcDbEntity
   8
0
 100
AcDbBlockEnd
   0
BLOCK
   5
A9
 100
AcDbEntity
   8
0
 100
AcDbBlockBegin
   2
_ORIGIN
  70
0
  10
0.0
  20
0.0
  30
0.0
   3
_ORIGIN
   0
CIRCLE
   5
AA
 100
AcDbEntity
   8
0
 100
AcDbCircle
   6
BYBLOCK
  62
0
  10
0.0
  20
0.0
  30
0.0
  40
 0.50000000000000
   0
LINE
   5
AB
 100
AcDbEntity
   8
0
 100
AcDbLine
   6
BYBLOCK
  62
0
  10
0.0
  20
0.0
  30
0.0
  11
-1.0000000000000
  21
0.0
  31
0.0
   0
ENDBLK
   5
AC
 100
AcDbEntity
   8
0
 100
AcDbBlockEnd
   0
BLOCK
   5
AD
 100
AcDbEntity
   8
0
 100
AcDbBlockBegin
   2
_NONE
  70
0
  10
0.0
  20
0.0
  30
0.0
   3
_NONE
   0
CIRCLE
   5
AE
 100
AcDbEntity
   8
0
 100
AcDbCircle
   6
BYBLOCK
  62
0
  10
0.0
  20
0.0
  30
0.0
  40
 0.25000000000000
   0
ENDBLK
   5
AF
 100
AcDbEntity
   8
0
 100
AcDbBlockEnd
   0
BLOCK
   5
B0
 100
AcDbEntity
   8
0
 100
AcDbBlockBegin
   2
_DOTBLANK
  70
0
  10
0.0
  20
0.0
  30
0.0
   3
_DOTBLANK
   0
CIRCLE
   5
B1
 100
AcDbEntity
   8
0
 100
AcDbCircle
   6
BYBLOCK
  62
0
  10
0.0
  20
0.0
  30
0.0
  40
 0.50000000000000
   0
LINE
   5
B2
 100
AcDbEntity
   8
0
 100
AcDbLine
   6
BYBLOCK
  62
0
  10
-0.50000000000000
  20
0.0
  30
0.0
  11
-1.0000000000000
  21
0.0
  31
0.0
   0
ENDBLK
   5
B3
 100
AcDbEntity
   8
0
 100
AcDbBlockEnd
   0
BLOCK
   5
B4
 100
AcDbEntity
   8
0
 100
AcDbBlockBegin
   2
_INTEGRAL
  70
0
  10
0.0
  20
0.0
  30
0.0
   3
_INTEGRAL
   0
ARC
   5
B5
 100
AcDbEntity
   8
0
   6
BYBLOCK
  62
0
 100
AcDbCircle
  10
 0.44488800000000
  20
-0.91335000000000E-1
  30
0.0
  40
 0.45416700000000
 100
AcDbArc
  50
 102.00000000000
  51
 168.00000000000
   0
ARC
   5
B6
 100
AcDbEntity
   8
0
   6
BYBLOCK
  62
0
 100
AcDbCircle
  10
-0.44488800000000
  20
 0.91335000000000E-1
  30
0.0
  40
 0.45416700000000
 100
AcDbArc
  50
 282.00000000000
  51
 348.00000000000
   0
ENDBLK
   5
B7
 100
AcDbEntity
   8
0
 100
AcDbBlockEnd
   0
BLOCK
   5
B8
 100
AcDbEntity
   8
0
 100
AcDbBlockBegin
   2
*D1
  70
65
  10
0.0
  20
0.0
  30
0.0
   3
*D1
   0
POLYLINE
   5
B9
 100
AcDbEntity
   8
LEVEL001
   6
CONTINUOUS
  62
2
 100
AcDb2dPolyline
  66
1
  10
0.0
  20
0.0
  30
0.0
  70
0
   0
VERTEX
   5
BA
 100
AcDbEntity
   8
LEVEL001
   6
CONTINUOUS
  62
2
 100
AcDbVertex
 100
AcDb2dVertex
  10
 68.156140064331
  20
 53.921038653551
  30
0.0
   0
VERTEX
   5
BB
 100
AcDbEntity
   8
LEVEL001
   6
CONTINUOUS
  62
2
 100
AcDbVertex
 100
AcDb2dVertex
  10
 74.455947015747
  20
 34.958568465229
  30
0.0
   0
VERTEX
   5
BC
 100
AcDbEntity
   8
LEVEL001
   6
CONTINUOUS
  62
2
 100
AcDbVertex
 100
AcDb2dVertex
  10
 120.45594701575
  20
 34.958568465229
  30
0.0
   0
SEQEND
   5
BD
 100
AcDbEntity
   8
LEVEL001
   6
CONTINUOUS
  62
2
   0
INSERT
   5
BE
 100
AcDbEntity
   8
LEVEL001
   6
CONTINUOUS
  62
2
 100
AcDbBlockReference
   2
_OPEN30
  10
 68.156140064331
  20
 53.921038653551
  30
0.0
  41
 3.0000000000000
  42
 3.0000000000000
  43
 3.0000000000000
  50
 108.37777808988
   0
MTEXT
   5
BF
 100
AcDbEntity
   8
LEVEL001
  62
2
 100
AcDbMText
  10
 74.455947015747
  20
 36.672854179515
  30
0.0
  40
 4.0000000000000
  41
0.0
  71
7
  72
1
   1
\A1;２－Ｍ４タップ 有効１０
   7
GMM001
   0
ENDBLK
   5
C0
 100
AcDbEntity
   8
0
 100
AcDbBlockEnd
   0
BLOCK
   5
C1
 100
AcDbEntity
   8
0
 100
AcDbBlockBegin
   2
*D2
  70
65
  10
0.0
  20
0.0
  30
0.0
   3
*D2
   0
POLYLINE
   5
C2
 100
AcDbEntity
   8
LEVEL001
   6
CONTINUOUS
  62
2
 100
AcDb2dPolyline
  66
1
  10
0.0
  20
0.0
  30
0.0
  70
0
   0
VERTEX
   5
C3
 100
AcDbEntity
   8
LEVEL001
   6
CONTINUOUS
  62
2
 100
AcDbVertex
 100
AcDb2dVertex
  10
 65.743715047998
  20
 175.20836220684
  30
0.0
   0
VERTEX
   5
C4
 100
AcDbEntity
   8
LEVEL001
   6
CONTINUOUS
  62
2
 100
AcDbVertex
 100
AcDb2dVertex
  10
 72.043521999414
  20
 156.24589201852
  30
0.0
   0
VERTEX
   5
C5
 100
AcDbEntity
   8
LEVEL001
   6
CONTINUOUS
  62
2
 100
AcDbVertex
 100
AcDb2dVertex
  10
 118.04352199941
  20
 156.24589201852
  30
0.0
   0
SEQEND
   5
C6
 100
AcDbEntity
   8
LEVEL001
   6
CONTINUOUS
  62
2
   0
INSERT
   5
C7
 100
AcDbEntity
   8
LEVEL001
   6
CONTINUOUS
  62
2
 100
AcDbBlockReference
   2
_OPEN30
  10
 65.743715047998
  20
 175.20836220684
  30
0.0
  41
 3.0000000000000
  42
 3.0000000000000
  43
 3.0000000000000
  50
 108.37777808988
   0
MTEXT
   5
C8
 100
AcDbEntity
   8
LEVEL001
  62
2
 100
AcDbMText
  10
 72.043521999414
  20
 157.96017773281
  30
0.0
  40
 4.0000000000000
  41
0.0
  71
7
  72
1
   1
\A1;２－Ｍ４タップ 有効１０
   7
GMM001
   0
ENDBLK
   5
C9
 100
AcDbEntity
   8
0
 100
AcDbBlockEnd
   0
BLOCK
   5
CA
 100
AcDbEntity
   8
0
 100
AcDbBlockBegin
   2
*D3
  70
65
  10
0.0
  20
0.0
  30
0.0
   3
*D3
   0
POLYLINE
   5
CB
 100
AcDbEntity
   8
LEVEL001
   6
CONTINUOUS
  62
2
 100
AcDb2dPolyline
  66
1
  10
0.0
  20
0.0
  30
0.0
  70
0
   0
VERTEX
   5
CC
 100
AcDbEntity
   8
LEVEL001
   6
CONTINUOUS
  62
2
 100
AcDbVertex
 100
AcDb2dVertex
  10
 234.03857161391
  20
 175.20836220684
  30
0.0
   0
VERTEX
   5
CD
 100
AcDbEntity
   8
LEVEL001
   6
CONTINUOUS
  62
2
 100
AcDbVertex
 100
AcDb2dVertex
  10
 240.33837856532
  20
 156.24589201852
  30
0.0
   0
VERTEX
   5
CE
 100
AcDbEntity
   8
LEVEL001
   6
CONTINUOUS
  62
2
 100
AcDbVertex
 100
AcDb2dVertex
  10
 286.33837856532
  20
 156.24589201852
  30
0.0
   0
SEQEND
   5
CF
 100
AcDbEntity
   8
LEVEL001
   6
CONTINUOUS
  62
2
   0
INSERT
   5
D0
 100
AcDbEntity
   8
LEVEL001
   6
CONTINUOUS
  62
2
 100
AcDbBlockReference
   2
_OPEN30
  10
 234.03857161391
  20
 175.20836220684
  30
0.0
  41
 3.0000000000000
  42
 3.0000000000000
  43
 3.0000000000000
  50
 108.37777808988
   0
MTEXT
   5
D1
 100
AcDbEntity
   8
LEVEL001
  62
2
 100
AcDbMText
  10
 240.33837856532
  20
 157.96017773281
  30
0.0
  40
 4.0000000000000
  41
0.0
  71
7
  72
1
   1
\A1;２－Ｍ４タップ 有効１０
   7
GMM001
   0
ENDBLK
   5
D2
 100
AcDbEntity
   8
0
 100
AcDbBlockEnd
   0
BLOCK
   5
D3
 100
AcDbEntity
   8
0
 100
AcDbBlockBegin
   2
*D4
  70
65
  10
0.0
  20
0.0
  30
0.0
   3
*D4
   0
LINE
   5
D4
 100
AcDbEntity
   8
LEVEL001
 100
AcDbLine
   6
CONTINUOUS
  62
2
  10
 222.66242893344
  20
 120.44518995683
  30
0.0
  11
 222.66242893344
  21
 133.62046463384
  31
0.0
   0
LINE
   5
D5
 100
AcDbEntity
   8
LEVEL001
 100
AcDbLine
   6
CONTINUOUS
  62
2
  10
 237.66242893344
  20
 120.44518995683
  30
0.0
  11
 237.66242893344
  21
 133.62046463384
  31
0.0
   0
LINE
   5
D6
 100
AcDbEntity
   8
LEVEL001
 100
AcDbLine
   6
CONTINUOUS
  62
2
  10
 222.66242893344
  20
 131.62046463384
  30
0.0
  11
 230.16242893344
  21
 131.62046463384
  31
0.0
   0
LINE
   5
D7
 100
AcDbEntity
   8
LEVEL001
 100
AcDbLine
   6
CONTINUOUS
  62
2
  10
 237.66242893344
  20
 131.62046463384
  30
0.0
  11
 230.16242893344
  21
 131.62046463384
  31
0.0
   0
INSERT
   5
D8
 100
AcDbEntity
   8
LEVEL001
   6
CONTINUOUS
  62
2
 100
AcDbBlockReference
   2
_OPEN30
  10
 222.66242893344
  20
 131.62046463384
  30
0.0
  41
 3.0000000000000
  42
 3.0000000000000
  43
 3.0000000000000
  50
 180.00000000000
   0
INSERT
   5
D9
 100
AcDbEntity
   8
LEVEL001
   6
CONTINUOUS
  62
2
 100
AcDbBlockReference
   2
_OPEN30
  10
 237.66242893344
  20
 131.62046463384
  30
0.0
  41
 3.0000000000000
  42
 3.0000000000000
  43
 3.0000000000000
  50
0.0
   0
MTEXT
   5
DA
 100
AcDbEntity
   8
LEVEL001
  62
2
 100
AcDbMText
  10
 230.16242893344
  20
 133.33475034813
  30
0.0
  40
 4.0000000000000
  41
0.0
  71
8
  72
1
   1
\A1;15
   7
GMM001
   0
ENDBLK
   5
DB
 100
AcDbEntity
   8
0
 100
AcDbBlockEnd
   0
BLOCK
   5
DC
 100
AcDbEntity
   8
0
 100
AcDbBlockBegin
   2
*D5
  70
65
  10
0.0
  20
0.0
  30
0.0
   3
*D5
   0
LINE
   5
DD
 100
AcDbEntity
   8
LEVEL001
 100
AcDbLine
   6
CONTINUOUS
  62
2
  10
 195.15614006433
  20
 66.344327579004
  30
0.0
  11
 195.15614006433
  21
 77.853596435935
  31
0.0
   0
LINE
   5
DE
 100
AcDbEntity
   8
LEVEL001
 100
AcDbLine
   6
CONTINUOUS
  62
2
  10
 61.156140064331
  20
 66.344327579004
  30
0.0
  11
 61.156140064331
  21
 77.853596435935
  31
0.0
   0
LINE
   5
DF
 100
AcDbEntity
   8
LEVEL001
 100
AcDbLine
   6
CONTINUOUS
  62
2
  10
 195.15614006433
  20
 75.853596435935
  30
0.0
  11
 128.15614006433
  21
 75.853596435935
  31
0.0
   0
LINE
   5
E0
 100
AcDbEntity
   8
LEVEL001
 100
AcDbLine
   6
CONTINUOUS
  62
2
  10
 61.156140064331
  20
 75.853596435935
  30
0.0
  11
 128.15614006433
  21
 75.853596435935
  31
0.0
   0
INSERT
   5
E1
 100
AcDbEntity
   8
LEVEL001
   6
CONTINUOUS
  62
2
 100
AcDbBlockReference
   2
_OPEN30
  10
 195.15614006433
  20
 75.853596435935
  30
0.0
  41
 3.0000000000000
  42
 3.0000000000000
  43
 3.0000000000000
  50
0.0
   0
INSERT
   5
E2
 100
AcDbEntity
   8
LEVEL001
   6
CONTINUOUS
  62
2
 100
AcDbBlockReference
   2
_OPEN30
  10
 61.156140064331
  20
 75.853596435935
  30
0.0
  41
 3.0000000000000
  42
 3.0000000000000
  43
 3.0000000000000
  50
 180.00000000000
   0
MTEXT
   5
E3
 100
AcDbEntity
   8
LEVEL001
  62
2
 100
AcDbMText
  10
 128.15614006433
  20
 77.567882150221
  30
0.0
  40
 4.0000000000000
  41
0.0
  71
8
  72
1
   1
\A1;134
   7
GMM001
   0
ENDBLK
   5
E4
 100
AcDbEntity
   8
0
 100
AcDbBlockEnd
   0
BLOCK
   5
E5
 100
AcDbEntity
   8
0
 100
AcDbBlockBegin
   2
*D6
  70
65
  10
0.0
  20
0.0
  30
0.0
   3
*D6
   0
LINE
   5
E6
 100
AcDbEntity
   8
LEVEL001
 100
AcDbLine
   6
CONTINUOUS
  62
2
  10
 61.156140064331
  20
 99.625767662551
  30
0.0
  11
 61.156140064331
  21
 84.131974620763
  31
0.0
   0
LINE
   5
E7
 100
AcDbEntity
   8
LEVEL001
 100
AcDbLine
   6
CONTINUOUS
  62
2
  10
 68.156140064331
  20
 96.016714930506
  30
0.0
  11
 68.156140064331
  21
 84.131974620763
  31
0.0
   0
LINE
   5
E8
 100
AcDbEntity
   8
LEVEL001
 100
AcDbLine
   6
CONTINUOUS
  62
2
  10
 61.156140064331
  20
 86.131974620763
  30
0.0
  11
 64.656140064331
  21
 86.131974620763
  31
0.0
   0
LINE
   5
E9
 100
AcDbEntity
   8
LEVEL001
 100
AcDbLine
   6
CONTINUOUS
  62
2
  10
 68.156140064331
  20
 86.131974620763
  30
0.0
  11
 64.656140064331
  21
 86.131974620763
  31
0.0
   0
INSERT
   5
EA
 100
AcDbEntity
   8
LEVEL001
   6
CONTINUOUS
  62
2
 100
AcDbBlockReference
   2
_OPEN30
  10
 61.156140064331
  20
 86.131974620763
  30
0.0
  41
 3.0000000000000
  42
 3.0000000000000
  43
 3.0000000000000
  50
 180.00000000000
   0
INSERT
   5
EB
 100
AcDbEntity
   8
LEVEL001
   6
CONTINUOUS
  62
2
 100
AcDbBlockReference
   2
_OPEN30
  10
 68.156140064331
  20
 86.131974620763
  30
0.0
  41
 3.0000000000000
  42
 3.0000000000000
  43
 3.0000000000000
  50
0.0
   0
MTEXT
   5
EC
 100
AcDbEntity
   8
LEVEL001
  62
2
 100
AcDbMText
  10
 64.656140064331
  20
 87.846260335049
  30
0.0
  40
 4.0000000000000
  41
0.0
  71
8
  72
1
   1
\A1;7
   7
GMM001
   0
ENDBLK
   5
ED
 100
AcDbEntity
   8
0
 100
AcDbBlockEnd
   0
BLOCK
   5
EE
 100
AcDbEntity
   8
0
 100
AcDbBlockBegin
   2
*D7
  70
65
  10
0.0
  20
0.0
  30
0.0
   3
*D7
   0
LINE
   5
EF
 100
AcDbEntity
   8
LEVEL001
 100
AcDbLine
   6
CONTINUOUS
  62
2
  10
 188.15614006433
  20
 96.016714930506
  30
0.0
  11
 188.15614006433
  21
 84.131974620763
  31
0.0
   0
LINE
   5
F0
 100
AcDbEntity
   8
LEVEL001
 100
AcDbLine
   6
CONTINUOUS
  62
2
  10
 68.156140064331
  20
 86.131974620763
  30
0.0
  11
 128.15614006433
  21
 86.131974620763
  31
0.0
   0
LINE
   5
F1
 100
AcDbEntity
   8
LEVEL001
 100
AcDbLine
   6
CONTINUOUS
  62
2
  10
 188.15614006433
  20
 86.131974620763
  30
0.0
  11
 128.15614006433
  21
 86.131974620763
  31
0.0
   0
INSERT
   5
F2
 100
AcDbEntity
   8
LEVEL001
   6
CONTINUOUS
  62
2
 100
AcDbBlockReference
   2
_OPEN30
  10
 68.156140064331
  20
 86.131974620763
  30
0.0
  41
 3.0000000000000
  42
 3.0000000000000
  43
 3.0000000000000
  50
 180.00000000000
   0
INSERT
   5
F3
 100
AcDbEntity
   8
LEVEL001
   6
CONTINUOUS
  62
2
 100
AcDbBlockReference
   2
_OPEN30
  10
 188.15614006433
  20
 86.131974620763
  30
0.0
  41
 3.0000000000000
  42
 3.0000000000000
  43
 3.0000000000000
  50
0.0
   0
MTEXT
   5
F4
 100
AcDbEntity
   8
LEVEL001
  62
2
 100
AcDbMText
  10
 128.15614006433
  20
 87.846260335049
  30
0.0
  40
 4.0000000000000
  41
0.0
  71
8
  72
1
   1
\A1;120
   7
GMM001
   0
ENDBLK
   5
F5
 100
AcDbEntity
   8
0
 100
AcDbBlockEnd
   0
BLOCK
   5
F6
 100
AcDbEntity
   8
0
 100
AcDbBlockBegin
   2
*D8
  70
65
  10
0.0
  20
0.0
  30
0.0
   3
*D8
   0
LINE
   5
F7
 100
AcDbEntity
   8
LEVEL001
 100
AcDbLine
   6
CONTINUOUS
  62
2
  10
 195.15614006433
  20
 99.625767662551
  30
0.0
  11
 195.15614006433
  21
 84.131974620763
  31
0.0
   0
LINE
   5
F8
 100
AcDbEntity
   8
LEVEL001
 100
AcDbLine
   6
CONTINUOUS
  62
2
  10
 188.15614006433
  20
 86.131974620763
  30
0.0
  11
 191.65614006433
  21
 86.131974620763
  31
0.0
   0
LINE
   5
F9
 100
AcDbEntity
   8
LEVEL001
 100
AcDbLine
   6
CONTINUOUS
  62
2
  10
 195.15614006433
  20
 86.131974620763
  30
0.0
  11
 191.65614006433
  21
 86.131974620763
  31
0.0
   0
INSERT
   5
FA
 100
AcDbEntity
   8
LEVEL001
   6
CONTINUOUS
  62
2
 100
AcDbBlockReference
   2
_OPEN30
  10
 188.15614006433
  20
 86.131974620763
  30
0.0
  41
 3.0000000000000
  42
 3.0000000000000
  43
 3.0000000000000
  50
 180.00000000000
   0
INSERT
   5
FB
 100
AcDbEntity
   8
LEVEL001
   6
CONTINUOUS
  62
2
 100
AcDbBlockReference
   2
_OPEN30
  10
 195.15614006433
  20
 86.131974620763
  30
0.0
  41
 3.0000000000000
  42
 3.0000000000000
  43
 3.0000000000000
  50
0.0
   0
MTEXT
   5
FC
 100
AcDbEntity
   8
LEVEL001
  62
2
 100
AcDbMText
  10
 191.65614006433
  20
 87.846260335049
  30
0.0
  40
 4.0000000000000
  41
0.0
  71
8
  72
1
   1
\A1;7
   7
GMM001
   0
ENDBLK
   5
FD
 100
AcDbEntity
   8
0
 100
AcDbBlockEnd
   0
BLOCK
   5
FE
 100
AcDbEntity
   8
0
 100
AcDbBlockBegin
   2
*D9
  70
65
  10
0.0
  20
0.0
  30
0.0
   3
*D9
   0
LINE
   5
FF
 100
AcDbEntity
   8
LEVEL001
 100
AcDbLine
   6
CONTINUOUS
  62
2
  10
 230.66242893344
  20
 99.625767662551
  30
0.0
  11
 230.66242893344
  21
 84.131974620763
  31
0.0
   0
LINE
   5
100
 100
AcDbEntity
   8
LEVEL001
 100
AcDbLine
   6
CONTINUOUS
  62
2
  10
 237.66242893344
  20
 99.625767662551
  30
0.0
  11
 237.66242893344
  21
 84.131974620763
  31
0.0
   0
LINE
   5
101
 100
AcDbEntity
   8
LEVEL001
 100
AcDbLine
   6
CONTINUOUS
  62
2
  10
 230.66242893344
  20
 86.131974620763
  30
0.0
  11
 234.16242893344
  21
 86.131974620763
  31
0.0
   0
LINE
   5
102
 100
AcDbEntity
   8
LEVEL001
 100
AcDbLine
   6
CONTINUOUS
  62
2
  10
 237.66242893344
  20
 86.131974620763
  30
0.0
  11
 234.16242893344
  21
 86.131974620763
  31
0.0
   0
INSERT
   5
103
 100
AcDbEntity
   8
LEVEL001
   6
CONTINUOUS
  62
2
 100
AcDbBlockReference
   2
_OPEN30
  10
 230.66242893344
  20
 86.131974620763
  30
0.0
  41
 3.0000000000000
  42
 3.0000000000000
  43
 3.0000000000000
  50
 180.00000000000
   0
INSERT
   5
104
 100
AcDbEntity
   8
LEVEL001
   6
CONTINUOUS
  62
2
 100
AcDbBlockReference
   2
_OPEN30
  10
 237.66242893344
  20
 86.131974620763
  30
0.0
  41
 3.0000000000000
  42
 3.0000000000000
  43
 3.0000000000000
  50
0.0
   0
MTEXT
   5
105
 100
AcDbEntity
   8
LEVEL001
  62
2
 100
AcDbMText
  10
 234.16242893344
  20
 87.846260335049
  30
0.0
  40
 4.0000000000000
  41
0.0
  71
8
  72
1
   1
\A1;7
   7
GMM001
   0
ENDBLK
   5
106
 100
AcDbEntity
   8
0
 100
AcDbBlockEnd
   0
BLOCK
   5
107
 100
AcDbEntity
   8
0
 100
AcDbBlockBegin
   2
*D10
  70
65
  10
0.0
  20
0.0
  30
0.0
   3
*D10
   0
LINE
   5
108
 100
AcDbEntity
   8
LEVEL001
 100
AcDbLine
   6
CONTINUOUS
  62
2
  10
 61.156140064331
  20
 222.83774129207
  30
0.0
  11
 61.156140064331
  21
 207.59442047750
  31
0.0
   0
LINE
   5
109
 100
AcDbEntity
   8
LEVEL001
 100
AcDbLine
   6
CONTINUOUS
  62
2
  10
 66.156140064331
  20
 219.22868856002
  30
0.0
  11
 66.156140064331
  21
 207.59442047750
  31
0.0
   0
LINE
   5
10A
 100
AcDbEntity
   8
LEVEL001
 100
AcDbLine
   6
CONTINUOUS
  62
2
  10
 57.406140064331
  20
 209.59442047750
  30
0.0
  11
 63.656140064331
  21
 209.59442047750
  31
0.0
   0
LINE
   5
10B
 100
AcDbEntity
   8
LEVEL001
 100
AcDbLine
   6
CONTINUOUS
  62
2
  10
 69.906140064331
  20
 209.59442047750
  30
0.0
  11
 63.656140064331
  21
 209.59442047750
  31
0.0
   0
INSERT
   5
10C
 100
AcDbEntity
   8
LEVEL001
   6
CONTINUOUS
  62
2
 100
AcDbBlockReference
   2
_OPEN30
  10
 61.156140064331
  20
 209.59442047750
  30
0.0
  41
 3.0000000000000
  42
 3.0000000000000
  43
 3.0000000000000
  50
0.0
   0
INSERT
   5
10D
 100
AcDbEntity
   8
LEVEL001
   6
CONTINUOUS
  62
2
 100
AcDbBlockReference
   2
_OPEN30
  10
 66.156140064331
  20
 209.59442047750
  30
0.0
  41
 3.0000000000000
  42
 3.0000000000000
  43
 3.0000000000000
  50
 180.00000000000
   0
MTEXT
   5
10E
 100
AcDbEntity
   8
LEVEL001
  62
2
 100
AcDbMText
  10
 63.656140064331
  20
 211.30870619179
  30
0.0
  40
 4.0000000000000
  41
0.0
  71
8
  72
1
   1
\A1;5
   7
GMM001
   0
ENDBLK
   5
10F
 100
AcDbEntity
   8
0
 100
AcDbBlockEnd
   0
BLOCK
   5
110
 100
AcDbEntity
   8
0
 100
AcDbBlockBegin
   2
*D11
  70
65
  10
0.0
  20
0.0
  30
0.0
   3
*D11
   0
LINE
   5
111
 100
AcDbEntity
   8
LEVEL001
 100
AcDbLine
   6
CONTINUOUS
  62
2
  10
 238.69434008542
  20
 119.52190103137
  30
0.0
  11
 253.79323171360
  21
 119.52190103137
  31
0.0
   0
LINE
   5
112
 100
AcDbEntity
   8
LEVEL001
 100
AcDbLine
   6
CONTINUOUS
  62
2
  10
 238.69434008542
  20
 100.52190103137
  30
0.0
  11
 253.79323171360
  21
 100.52190103137
  31
0.0
   0
LINE
   5
113
 100
AcDbEntity
   8
LEVEL001
 100
AcDbLine
   6
CONTINUOUS
  62
2
  10
 251.79323171360
  20
 119.52190103137
  30
0.0
  11
 251.79323171360
  21
 110.02190103137
  31
0.0
   0
LINE
   5
114
 100
AcDbEntity
   8
LEVEL001
 100
AcDbLine
   6
CONTINUOUS
  62
2
  10
 251.79323171360
  20
 100.52190103137
  30
0.0
  11
 251.79323171360
  21
 110.02190103137
  31
0.0
   0
INSERT
   5
115
 100
AcDbEntity
   8
LEVEL001
   6
CONTINUOUS
  62
2
 100
AcDbBlockReference
   2
_OPEN30
  10
 251.79323171360
  20
 119.52190103137
  30
0.0
  41
 3.0000000000000
  42
 3.0000000000000
  43
 3.0000000000000
  50
 90.000000000000
   0
INSERT
   5
116
 100
AcDbEntity
   8
LEVEL001
   6
CONTINUOUS
  62
2
 100
AcDbBlockReference
   2
_OPEN30
  10
 251.79323171360
  20
 100.52190103137
  30
0.0
  41
 3.0000000000000
  42
 3.0000000000000
  43
 3.0000000000000
  50
 270.00000000000
   0
MTEXT
   5
117
 100
AcDbEntity
   8
LEVEL001
  62
2
 100
AcDbMText
  10
 250.07894599931
  20
 110.02190103137
  30
0.0
  40
 4.0000000000000
  41
0.0
  71
8
  72
1
   1
\A1;19
   7
GMM001
  11
0.0
  21
 1.0000000000000
  31
0.0
   0
ENDBLK
   5
118
 100
AcDbEntity
   8
0
 100
AcDbBlockEnd
   0
BLOCK
   5
119
 100
AcDbEntity
   8
0
 100
AcDbBlockBegin
   2
*D12
  70
65
  10
0.0
  20
0.0
  30
0.0
   3
*D12
   0
LINE
   5
11A
 100
AcDbEntity
   8
LEVEL001
 100
AcDbLine
   6
CONTINUOUS
  62
2
  10
 132.30567495905
  20
 243.65716358634
  30
0.0
  11
 132.30567495905
  21
 255.56517995345
  31
0.0
   0
LINE
   5
11B
 100
AcDbEntity
   8
LEVEL001
 100
AcDbLine
   6
CONTINUOUS
  62
2
  10
 147.30567495905
  20
 243.65716358634
  30
0.0
  11
 147.30567495905
  21
 255.56517995345
  31
0.0
   0
LINE
   5
11C
 100
AcDbEntity
   8
LEVEL001
 100
AcDbLine
   6
CONTINUOUS
  62
2
  10
 132.30567495905
  20
 253.56517995345
  30
0.0
  11
 139.80567495905
  21
 253.56517995345
  31
0.0
   0
LINE
   5
11D
 100
AcDbEntity
   8
LEVEL001
 100
AcDbLine
   6
CONTINUOUS
  62
2
  10
 147.30567495905
  20
 253.56517995345
  30
0.0
  11
 139.80567495905
  21
 253.56517995345
  31
0.0
   0
INSERT
   5
11E
 100
AcDbEntity
   8
LEVEL001
   6
CONTINUOUS
  62
2
 100
AcDbBlockReference
   2
_OPEN30
  10
 132.30567495905
  20
 253.56517995345
  30
0.0
  41
 3.0000000000000
  42
 3.0000000000000
  43
 3.0000000000000
  50
 180.00000000000
   0
INSERT
   5
11F
 100
AcDbEntity
   8
LEVEL001
   6
CONTINUOUS
  62
2
 100
AcDbBlockReference
   2
_OPEN30
  10
 147.30567495905
  20
 253.56517995345
  30
0.0
  41
 3.0000000000000
  42
 3.0000000000000
  43
 3.0000000000000
  50
0.0
   0
MTEXT
   5
120
 100
AcDbEntity
   8
LEVEL001
  62
2
 100
AcDbMText
  10
 139.80567495905
  20
 255.27946566773
  30
0.0
  40
 4.0000000000000
  41
0.0
  71
8
  72
1
   1
\A1;15
   7
GMM001
   0
ENDBLK
   5
121
 100
AcDbEntity
   8
0
 100
AcDbBlockEnd
   0
BLOCK
   5
122
 100
AcDbEntity
   8
0
 100
AcDbBlockBegin
   2
*D13
  70
65
  10
0.0
  20
0.0
  30
0.0
   3
*D13
   0
LINE
   5
123
 100
AcDbEntity
   8
LEVEL001
 100
AcDbLine
   6
CONTINUOUS
  62
2
  10
 60.743715047998
  20
 187.63165113230
  30
0.0
  11
 60.743715047998
  21
 200.67449226727
  31
0.0
   0
LINE
   5
124
 100
AcDbEntity
   8
LEVEL001
 100
AcDbLine
   6
CONTINUOUS
  62
2
  10
 105.74371504800
  20
 187.63165113230
  30
0.0
  11
 105.74371504800
  21
 200.67449226727
  31
0.0
   0
LINE
   5
125
 100
AcDbEntity
   8
LEVEL001
 100
AcDbLine
   6
CONTINUOUS
  62
2
  10
 60.743715047998
  20
 198.67449226727
  30
0.0
  11
 83.243715047998
  21
 198.67449226727
  31
0.0
   0
LINE
   5
126
 100
AcDbEntity
   8
LEVEL001
 100
AcDbLine
   6
CONTINUOUS
  62
2
  10
 105.74371504800
  20
 198.67449226727
  30
0.0
  11
 83.243715047998
  21
 198.67449226727
  31
0.0
   0
INSERT
   5
127
 100
AcDbEntity
   8
LEVEL001
   6
CONTINUOUS
  62
2
 100
AcDbBlockReference
   2
_OPEN30
  10
 60.743715047998
  20
 198.67449226727
  30
0.0
  41
 3.0000000000000
  42
 3.0000000000000
  43
 3.0000000000000
  50
 180.00000000000
   0
INSERT
   5
128
 100
AcDbEntity
   8
LEVEL001
   6
CONTINUOUS
  62
2
 100
AcDbBlockReference
   2
_OPEN30
  10
 105.74371504800
  20
 198.67449226727
  30
0.0
  41
 3.0000000000000
  42
 3.0000000000000
  43
 3.0000000000000
  50
0.0
   0
MTEXT
   5
129
 100
AcDbEntity
   8
LEVEL001
  62
2
 100
AcDbMText
  10
 83.243715047998
  20
 200.38877798156
  30
0.0
  40
 4.0000000000000
  41
0.0
  71
8
  72
1
   1
\A1;45
   7
GMM001
   0
ENDBLK
   5
12A
 100
AcDbEntity
   8
0
 100
AcDbBlockEnd
   0
BLOCK
   5
12B
 100
AcDbEntity
   8
0
 100
AcDbBlockBegin
   2
*D14
  70
65
  10
0.0
  20
0.0
  30
0.0
   3
*D14
   0
LINE
   5
12C
 100
AcDbEntity
   8
LEVEL001
 100
AcDbLine
   6
CONTINUOUS
  62
2
  10
 101.15614006433
  20
 219.22868856002
  30
0.0
  11
 101.15614006433
  21
 207.59442047750
  31
0.0
   0
LINE
   5
12D
 100
AcDbEntity
   8
LEVEL001
 100
AcDbLine
   6
CONTINUOUS
  62
2
  10
 66.156140064331
  20
 209.59442047750
  30
0.0
  11
 83.656140064331
  21
 209.59442047750
  31
0.0
   0
LINE
   5
12E
 100
AcDbEntity
   8
LEVEL001
 100
AcDbLine
   6
CONTINUOUS
  62
2
  10
 101.15614006433
  20
 209.59442047750
  30
0.0
  11
 83.656140064331
  21
 209.59442047750
  31
0.0
   0
INSERT
   5
12F
 100
AcDbEntity
   8
LEVEL001
   6
CONTINUOUS
  62
2
 100
AcDbBlockReference
   2
_OPEN30
  10
 66.156140064331
  20
 209.59442047750
  30
0.0
  41
 3.0000000000000
  42
 3.0000000000000
  43
 3.0000000000000
  50
 180.00000000000
   0
INSERT
   5
130
 100
AcDbEntity
   8
LEVEL001
   6
CONTINUOUS
  62
2
 100
AcDbBlockReference
   2
_OPEN30
  10
 101.15614006433
  20
 209.59442047750
  30
0.0
  41
 3.0000000000000
  42
 3.0000000000000
  43
 3.0000000000000
  50
0.0
   0
MTEXT
   5
131
 100
AcDbEntity
   8
LEVEL001
  62
2
 100
AcDbMText
  10
 83.656140064331
  20
 211.30870619179
  30
0.0
  40
 4.0000000000000
  41
0.0
  71
8
  72
1
   1
\A1;35
   7
GMM001
   0
ENDBLK
   5
132
 100
AcDbEntity
   8
0
 100
AcDbBlockEnd
   0
BLOCK
   5
133
 100
AcDbEntity
   8
0
 100
AcDbBlockBegin
   2
*D15
  70
65
  10
0.0
  20
0.0
  30
0.0
   3
*D15
   0
LINE
   5
134
 100
AcDbEntity
   8
LEVEL001
 100
AcDbLine
   6
CONTINUOUS
  62
2
  10
 106.15614006433
  20
 222.83774129207
  30
0.0
  11
 106.15614006433
  21
 207.59442047750
  31
0.0
   0
LINE
   5
135
 100
AcDbEntity
   8
LEVEL001
 100
AcDbLine
   6
CONTINUOUS
  62
2
  10
 97.406140064331
  20
 209.59442047750
  30
0.0
  11
 103.65614006433
  21
 209.59442047750
  31
0.0
   0
LINE
   5
136
 100
AcDbEntity
   8
LEVEL001
 100
AcDbLine
   6
CONTINUOUS
  62
2
  10
 109.90614006433
  20
 209.59442047750
  30
0.0
  11
 103.65614006433
  21
 209.59442047750
  31
0.0
   0
INSERT
   5
137
 100
AcDbEntity
   8
LEVEL001
   6
CONTINUOUS
  62
2
 100
AcDbBlockReference
   2
_OPEN30
  10
 101.15614006433
  20
 209.59442047750
  30
0.0
  41
 3.0000000000000
  42
 3.0000000000000
  43
 3.0000000000000
  50
0.0
   0
INSERT
   5
138
 100
AcDbEntity
   8
LEVEL001
   6
CONTINUOUS
  62
2
 100
AcDbBlockReference
   2
_OPEN30
  10
 106.15614006433
  20
 209.59442047750
  30
0.0
  41
 3.0000000000000
  42
 3.0000000000000
  43
 3.0000000000000
  50
 180.00000000000
   0
MTEXT
   5
139
 100
AcDbEntity
   8
LEVEL001
  62
2
 100
AcDbMText
  10
 103.65614006433
  20
 211.30870619179
  30
0.0
  40
 4.0000000000000
  41
0.0
  71
8
  72
1
   1
\A1;5
   7
GMM001
   0
ENDBLK
   5
13A
 100
AcDbEntity
   8
0
 100
AcDbBlockEnd
   0
BLOCK
   5
13B
 100
AcDbEntity
   8
0
 100
AcDbBlockBegin
   2
*D16
  70
65
  10
0.0
  20
0.0
  30
0.0
   3
*D16
   0
LINE
   5
13C
 100
AcDbEntity
   8
LEVEL001
 100
AcDbLine
   6
CONTINUOUS
  62
2
  10
 140.30567495905
  20
 222.83774129207
  30
0.0
  11
 140.30567495905
  21
 207.59442047750
  31
0.0
   0
LINE
   5
13D
 100
AcDbEntity
   8
LEVEL001
 100
AcDbLine
   6
CONTINUOUS
  62
2
  10
 147.30567495905
  20
 222.83774129207
  30
0.0
  11
 147.30567495905
  21
 207.59442047750
  31
0.0
   0
LINE
   5
13E
 100
AcDbEntity
   8
LEVEL001
 100
AcDbLine
   6
CONTINUOUS
  62
2
  10
 140.30567495905
  20
 209.59442047750
  30
0.0
  11
 143.80567495905
  21
 209.59442047750
  31
0.0
   0
LINE
   5
13F
 100
AcDbEntity
   8
LEVEL001
 100
AcDbLine
   6
CONTINUOUS
  62
2
  10
 147.30567495905
  20
 209.59442047750
  30
0.0
  11
 143.80567495905
  21
 209.59442047750
  31
0.0
   0
INSERT
   5
140
 100
AcDbEntity
   8
LEVEL001
   6
CONTINUOUS
  62
2
 100
AcDbBlockReference
   2
_OPEN30
  10
 140.30567495905
  20
 209.59442047750
  30
0.0
  41
 3.0000000000000
  42
 3.0000000000000
  43
 3.0000000000000
  50
 180.00000000000
   0
INSERT
   5
141
 100
AcDbEntity
   8
LEVEL001
   6
CONTINUOUS
  62
2
 100
AcDbBlockReference
   2
_OPEN30
  10
 147.30567495905
  20
 209.59442047750
  30
0.0
  41
 3.0000000000000
  42
 3.0000000000000
  43
 3.0000000000000
  50
0.0
   0
MTEXT
   5
142
 100
AcDbEntity
   8
LEVEL001
  62
2
 100
AcDbMText
  10
 143.80567495905
  20
 211.30870619179
  30
0.0
  40
 4.0000000000000
  41
0.0
  71
8
  72
1
   1
\A1;7
   7
GMM001
   0
ENDBLK
   5
143
 100
AcDbEntity
   8
0
 100
AcDbBlockEnd
   0
BLOCK
   5
144
 100
AcDbEntity
   8
0
 100
AcDbBlockBegin
   2
*D17
  70
65
  10
0.0
  20
0.0
  30
0.0
   3
*D17
   0
LINE
   5
145
 100
AcDbEntity
   8
LEVEL001
 100
AcDbLine
   6
CONTINUOUS
  62
2
  10
 148.33758611103
  20
 242.73387466089
  30
0.0
  11
 163.26252825864
  21
 242.73387466089
  31
0.0
   0
LINE
   5
146
 100
AcDbEntity
   8
LEVEL001
 100
AcDbLine
   6
CONTINUOUS
  62
2
  10
 148.33758611103
  20
 223.73387466089
  30
0.0
  11
 163.26252825864
  21
 223.73387466089
  31
0.0
   0
LINE
   5
147
 100
AcDbEntity
   8
LEVEL001
 100
AcDbLine
   6
CONTINUOUS
  62
2
  10
 161.26252825864
  20
 242.73387466089
  30
0.0
  11
 161.26252825864
  21
 233.23387466089
  31
0.0
   0
LINE
   5
148
 100
AcDbEntity
   8
LEVEL001
 100
AcDbLine
   6
CONTINUOUS
  62
2
  10
 161.26252825864
  20
 223.73387466089
  30
0.0
  11
 161.26252825864
  21
 233.23387466089
  31
0.0
   0
INSERT
   5
149
 100
AcDbEntity
   8
LEVEL001
   6
CONTINUOUS
  62
2
 100
AcDbBlockReference
   2
_OPEN30
  10
 161.26252825864
  20
 242.73387466089
  30
0.0
  41
 3.0000000000000
  42
 3.0000000000000
  43
 3.0000000000000
  50
 90.000000000000
   0
INSERT
   5
14A
 100
AcDbEntity
   8
LEVEL001
   6
CONTINUOUS
  62
2
 100
AcDbBlockReference
   2
_OPEN30
  10
 161.26252825864
  20
 223.73387466089
  30
0.0
  41
 3.0000000000000
  42
 3.0000000000000
  43
 3.0000000000000
  50
 270.00000000000
   0
MTEXT
   5
14B
 100
AcDbEntity
   8
LEVEL001
  62
2
 100
AcDbMText
  10
 159.54824254436
  20
 233.23387466089
  30
0.0
  40
 4.0000000000000
  41
0.0
  71
8
  72
1
   1
\A1;19
   7
GMM001
  11
0.0
  21
 1.0000000000000
  31
0.0
   0
ENDBLK
   5
14C
 100
AcDbEntity
   8
0
 100
AcDbBlockEnd
   0
BLOCK
   5
14D
 100
AcDbEntity
   8
0
 100
AcDbBlockBegin
   2
*D18
  70
65
  10
0.0
  20
0.0
  30
0.0
   3
*D18
   0
LINE
   5
14E
 100
AcDbEntity
   8
LEVEL001
 100
AcDbLine
   6
CONTINUOUS
  62
2
  10
 328.10053152496
  20
 243.65716358634
  30
0.0
  11
 328.10053152496
  21
 255.56517995345
  31
0.0
   0
LINE
   5
14F
 100
AcDbEntity
   8
LEVEL001
 100
AcDbLine
   6
CONTINUOUS
  62
2
  10
 343.10053152496
  20
 243.65716358634
  30
0.0
  11
 343.10053152496
  21
 255.56517995345
  31
0.0
   0
LINE
   5
150
 100
AcDbEntity
   8
LEVEL001
 100
AcDbLine
   6
CONTINUOUS
  62
2
  10
 328.10053152496
  20
 253.56517995345
  30
0.0
  11
 335.60053152496
  21
 253.56517995345
  31
0.0
   0
LINE
   5
151
 100
AcDbEntity
   8
LEVEL001
 100
AcDbLine
   6
CONTINUOUS
  62
2
  10
 343.10053152496
  20
 253.56517995345
  30
0.0
  11
 335.60053152496
  21
 253.56517995345
  31
0.0
   0
INSERT
   5
152
 100
AcDbEntity
   8
LEVEL001
   6
CONTINUOUS
  62
2
 100
AcDbBlockReference
   2
_OPEN30
  10
 328.10053152496
  20
 253.56517995345
  30
0.0
  41
 3.0000000000000
  42
 3.0000000000000
  43
 3.0000000000000
  50
 180.00000000000
   0
INSERT
   5
153
 100
AcDbEntity
   8
LEVEL001
   6
CONTINUOUS
  62
2
 100
AcDbBlockReference
   2
_OPEN30
  10
 343.10053152496
  20
 253.56517995345
  30
0.0
  41
 3.0000000000000
  42
 3.0000000000000
  43
 3.0000000000000
  50
0.0
   0
MTEXT
   5
154
 100
AcDbEntity
   8
LEVEL001
  62
2
 100
AcDbMText
  10
 335.60053152496
  20
 255.27946566773
  30
0.0
  40
 4.0000000000000
  41
0.0
  71
8
  72
1
   1
\A1;15
   7
GMM001
   0
ENDBLK
   5
155
 100
AcDbEntity
   8
0
 100
AcDbBlockEnd
   0
BLOCK
   5
156
 100
AcDbEntity
   8
0
 100
AcDbBlockBegin
   2
*D19
  70
65
  10
0.0
  20
0.0
  30
0.0
   3
*D19
   0
LINE
   5
157
 100
AcDbEntity
   8
LEVEL001
 100
AcDbLine
   6
CONTINUOUS
  62
2
  10
 226.53857161391
  20
 187.63165113230
  30
0.0
  11
 226.53857161391
  21
 200.67449226727
  31
0.0
   0
LINE
   5
158
 100
AcDbEntity
   8
LEVEL001
 100
AcDbLine
   6
CONTINUOUS
  62
2
  10
 301.53857161391
  20
 187.63165113230
  30
0.0
  11
 301.53857161391
  21
 200.67449226727
  31
0.0
   0
LINE
   5
159
 100
AcDbEntity
   8
LEVEL001
 100
AcDbLine
   6
CONTINUOUS
  62
2
  10
 226.53857161391
  20
 198.67449226727
  30
0.0
  11
 264.03857161391
  21
 198.67449226727
  31
0.0
   0
LINE
   5
15A
 100
AcDbEntity
   8
LEVEL001
 100
AcDbLine
   6
CONTINUOUS
  62
2
  10
 301.53857161391
  20
 198.67449226727
  30
0.0
  11
 264.03857161391
  21
 198.67449226727
  31
0.0
   0
INSERT
   5
15B
 100
AcDbEntity
   8
LEVEL001
   6
CONTINUOUS
  62
2
 100
AcDbBlockReference
   2
_OPEN30
  10
 226.53857161391
  20
 198.67449226727
  30
0.0
  41
 3.0000000000000
  42
 3.0000000000000
  43
 3.0000000000000
  50
 180.00000000000
   0
INSERT
   5
15C
 100
AcDbEntity
   8
LEVEL001
   6
CONTINUOUS
  62
2
 100
AcDbBlockReference
   2
_OPEN30
  10
 301.53857161391
  20
 198.67449226727
  30
0.0
  41
 3.0000000000000
  42
 3.0000000000000
  43
 3.0000000000000
  50
0.0
   0
MTEXT
   5
15D
 100
AcDbEntity
   8
LEVEL001
  62
2
 100
AcDbMText
  10
 264.03857161391
  20
 200.38877798156
  30
0.0
  40
 4.0000000000000
  41
0.0
  71
8
  72
1
   1
\A1;75
   7
GMM001
   0
ENDBLK
   5
15E
 100
AcDbEntity
   8
0
 100
AcDbBlockEnd
   0
BLOCK
   5
15F
 100
AcDbEntity
   8
0
 100
AcDbBlockBegin
   2
*D20
  70
65
  10
0.0
  20
0.0
  30
0.0
   3
*D20
   0
LINE
   5
160
 100
AcDbEntity
   8
LEVEL001
 100
AcDbLine
   6
CONTINUOUS
  62
2
  10
 336.10053152496
  20
 222.83774129207
  30
0.0
  11
 336.10053152496
  21
 207.59442047750
  31
0.0
   0
LINE
   5
161
 100
AcDbEntity
   8
LEVEL001
 100
AcDbLine
   6
CONTINUOUS
  62
2
  10
 343.10053152496
  20
 222.83774129207
  30
0.0
  11
 343.10053152496
  21
 207.59442047750
  31
0.0
   0
LINE
   5
162
 100
AcDbEntity
   8
LEVEL001
 100
AcDbLine
   6
CONTINUOUS
  62
2
  10
 336.10053152496
  20
 209.59442047750
  30
0.0
  11
 339.60053152496
  21
 209.59442047750
  31
0.0
   0
LINE
   5
163
 100
AcDbEntity
   8
LEVEL001
 100
AcDbLine
   6
CONTINUOUS
  62
2
  10
 343.10053152496
  20
 209.59442047750
  30
0.0
  11
 339.60053152496
  21
 209.59442047750
  31
0.0
   0
INSERT
   5
164
 100
AcDbEntity
   8
LEVEL001
   6
CONTINUOUS
  62
2
 100
AcDbBlockReference
   2
_OPEN30
  10
 336.10053152496
  20
 209.59442047750
  30
0.0
  41
 3.0000000000000
  42
 3.0000000000000
  43
 3.0000000000000
  50
 180.00000000000
   0
INSERT
   5
165
 100
AcDbEntity
   8
LEVEL001
   6
CONTINUOUS
  62
2
 100
AcDbBlockReference
   2
_OPEN30
  10
 343.10053152496
  20
 209.59442047750
  30
0.0
  41
 3.0000000000000
  42
 3.0000000000000
  43
 3.0000000000000
  50
0.0
   0
MTEXT
   5
166
 100
AcDbEntity
   8
LEVEL001
  62
2
 100
AcDbMText
  10
 339.60053152496
  20
 211.30870619179
  30
0.0
  40
 4.0000000000000
  41
0.0
  71
8
  72
1
   1
\A1;7
   7
GMM001
   0
ENDBLK
   5
167
 100
AcDbEntity
   8
0
 100
AcDbBlockEnd
   0
BLOCK
   5
168
 100
AcDbEntity
   8
0
 100
AcDbBlockBegin
   2
*D21
  70
65
  10
0.0
  20
0.0
  30
0.0
   3
*D21
   0
LINE
   5
169
 100
AcDbEntity
   8
LEVEL001
 100
AcDbLine
   6
CONTINUOUS
  62
2
  10
 294.45099663024
  20
 219.22868856002
  30
0.0
  11
 294.45099663024
  21
 207.59442047750
  31
0.0
   0
LINE
   5
16A
 100
AcDbEntity
   8
LEVEL001
 100
AcDbLine
   6
CONTINUOUS
  62
2
  10
 234.45099663024
  20
 209.59442047750
  30
0.0
  11
 264.45099663024
  21
 209.59442047750
  31
0.0
   0
LINE
   5
16B
 100
AcDbEntity
   8
LEVEL001
 100
AcDbLine
   6
CONTINUOUS
  62
2
  10
 294.45099663024
  20
 209.59442047750
  30
0.0
  11
 264.45099663024
  21
 209.59442047750
  31
0.0
   0
INSERT
   5
16C
 100
AcDbEntity
   8
LEVEL001
   6
CONTINUOUS
  62
2
 100
AcDbBlockReference
   2
_OPEN30
  10
 234.45099663024
  20
 209.59442047750
  30
0.0
  41
 3.0000000000000
  42
 3.0000000000000
  43
 3.0000000000000
  50
 180.00000000000
   0
INSERT
   5
16D
 100
AcDbEntity
   8
LEVEL001
   6
CONTINUOUS
  62
2
 100
AcDbBlockReference
   2
_OPEN30
  10
 294.45099663024
  20
 209.59442047750
  30
0.0
  41
 3.0000000000000
  42
 3.0000000000000
  43
 3.0000000000000
  50
0.0
   0
MTEXT
   5
16E
 100
AcDbEntity
   8
LEVEL001
  62
2
 100
AcDbMText
  10
 264.45099663024
  20
 211.30870619179
  30
0.0
  40
 4.0000000000000
  41
0.0
  71
8
  72
1
   1
\A1;60
   7
GMM001
   0
ENDBLK
   5
16F
 100
AcDbEntity
   8
0
 100
AcDbBlockEnd
   0
BLOCK
   5
170
 100
AcDbEntity
   8
0
 100
AcDbBlockBegin
   2
*D22
  70
65
  10
0.0
  20
0.0
  30
0.0
   3
*D22
   0
LINE
   5
171
 100
AcDbEntity
   8
LEVEL001
 100
AcDbLine
   6
CONTINUOUS
  62
2
  10
 344.13244267694
  20
 242.73387466089
  30
0.0
  11
 357.95155085853
  21
 242.73387466089
  31
0.0
   0
LINE
   5
172
 100
AcDbEntity
   8
LEVEL001
 100
AcDbLine
   6
CONTINUOUS
  62
2
  10
 344.13244267694
  20
 223.73387466089
  30
0.0
  11
 357.95155085853
  21
 223.73387466089
  31
0.0
   0
LINE
   5
173
 100
AcDbEntity
   8
LEVEL001
 100
AcDbLine
   6
CONTINUOUS
  62
2
  10
 355.95155085853
  20
 242.73387466089
  30
0.0
  11
 355.95155085853
  21
 233.23387466089
  31
0.0
   0
LINE
   5
174
 100
AcDbEntity
   8
LEVEL001
 100
AcDbLine
   6
CONTINUOUS
  62
2
  10
 355.95155085853
  20
 223.73387466089
  30
0.0
  11
 355.95155085853
  21
 233.23387466089
  31
0.0
   0
INSERT
   5
175
 100
AcDbEntity
   8
LEVEL001
   6
CONTINUOUS
  62
2
 100
AcDbBlockReference
   2
_OPEN30
  10
 355.95155085853
  20
 242.73387466089
  30
0.0
  41
 3.0000000000000
  42
 3.0000000000000
  43
 3.0000000000000
  50
 90.000000000000
   0
INSERT
   5
176
 100
AcDbEntity
   8
LEVEL001
   6
CONTINUOUS
  62
2
 100
AcDbBlockReference
   2
_OPEN30
  10
 355.95155085853
  20
 223.73387466089
  30
0.0
  41
 3.0000000000000
  42
 3.0000000000000
  43
 3.0000000000000
  50
 270.00000000000
   0
MTEXT
   5
177
 100
AcDbEntity
   8
LEVEL001
  62
2
 100
AcDbMText
  10
 354.23726514425
  20
 233.23387466089
  30
0.0
  40
 4.0000000000000
  41
0.0
  71
8
  72
1
   1
\A1;19
   7
GMM001
  11
0.0
  21
 1.0000000000000
  31
0.0
   0
ENDBLK
   5
178
 100
AcDbEntity
   8
0
 100
AcDbBlockEnd
   0
BLOCK
   5
179
 100
AcDbEntity
   8
0
 100
AcDbBlockBegin
   2
*D23
  70
65
  10
0.0
  20
0.0
  30
0.0
   3
*D23
   0
LINE
   5
17A
 100
AcDbEntity
   8
LEVEL001
 100
AcDbLine
   6
CONTINUOUS
  62
2
  10
 226.95099663024
  20
 222.83774129207
  30
0.0
  11
 226.95099663024
  21
 207.59442047750
  31
0.0
   0
LINE
   5
17B
 100
AcDbEntity
   8
LEVEL001
 100
AcDbLine
   6
CONTINUOUS
  62
2
  10
 234.45099663024
  20
 219.22868856002
  30
0.0
  11
 234.45099663024
  21
 207.59442047750
  31
0.0
   0
LINE
   5
17C
 100
AcDbEntity
   8
LEVEL001
 100
AcDbLine
   6
CONTINUOUS
  62
2
  10
 215.42135061254
  20
 209.59442047750
  30
0.0
  11
 230.70099663024
  21
 209.59442047750
  31
0.0
   0
LINE
   5
17D
 100
AcDbEntity
   8
LEVEL001
 100
AcDbLine
   6
CONTINUOUS
  62
2
  10
 238.20099663024
  20
 209.59442047750
  30
0.0
  11
 230.70099663024
  21
 209.59442047750
  31
0.0
   0
INSERT
   5
17E
 100
AcDbEntity
   8
LEVEL001
   6
CONTINUOUS
  62
2
 100
AcDbBlockReference
   2
_OPEN30
  10
 226.95099663024
  20
 209.59442047750
  30
0.0
  41
 3.0000000000000
  42
 3.0000000000000
  43
 3.0000000000000
  50
0.0
   0
INSERT
   5
17F
 100
AcDbEntity
   8
LEVEL001
   6
CONTINUOUS
  62
2
 100
AcDbBlockReference
   2
_OPEN30
  10
 234.45099663024
  20
 209.59442047750
  30
0.0
  41
 3.0000000000000
  42
 3.0000000000000
  43
 3.0000000000000
  50
 180.00000000000
   0
MTEXT
   5
180
 100
AcDbEntity
   8
LEVEL001
  62
2
 100
AcDbMText
  10
 220.42135061254
  20
 211.30870619179
  30
0.0
  40
 4.0000000000000
  41
0.0
  71
8
  72
1
   1
\A1;7.5
   7
GMM001
   0
ENDBLK
   5
181
 100
AcDbEntity
   8
0
 100
AcDbBlockEnd
   0
BLOCK
   5
182
 100
AcDbEntity
   8
0
 100
AcDbBlockBegin
   2
*D24
  70
65
  10
0.0
  20
0.0
  30
0.0
   3
*D24
   0
LINE
   5
183
 100
AcDbEntity
   8
LEVEL001
 100
AcDbLine
   6
CONTINUOUS
  62
2
  10
 301.95099663024
  20
 222.83774129207
  30
0.0
  11
 301.95099663024
  21
 207.59442047750
  31
0.0
   0
LINE
   5
184
 100
AcDbEntity
   8
LEVEL001
 100
AcDbLine
   6
CONTINUOUS
  62
2
  10
 290.70099663024
  20
 209.59442047750
  30
0.0
  11
 298.20099663024
  21
 209.59442047750
  31
0.0
   0
LINE
   5
185
 100
AcDbEntity
   8
LEVEL001
 100
AcDbLine
   6
CONTINUOUS
  62
2
  10
 313.63639486033
  20
 209.59442047750
  30
0.0
  11
 298.20099663024
  21
 209.59442047750
  31
0.0
   0
INSERT
   5
186
 100
AcDbEntity
   8
LEVEL001
   6
CONTINUOUS
  62
2
 100
AcDbBlockReference
   2
_OPEN30
  10
 294.45099663024
  20
 209.59442047750
  30
0.0
  41
 3.0000000000000
  42
 3.0000000000000
  43
 3.0000000000000
  50
0.0
   0
INSERT
   5
187
 100
AcDbEntity
   8
LEVEL001
   6
CONTINUOUS
  62
2
 100
AcDbBlockReference
   2
_OPEN30
  10
 301.95099663024
  20
 209.59442047750
  30
0.0
  41
 3.0000000000000
  42
 3.0000000000000
  43
 3.0000000000000
  50
 180.00000000000
   0
MTEXT
   5
188
 100
AcDbEntity
   8
LEVEL001
  62
2
 100
AcDbMText
  10
 308.63639486033
  20
 211.30870619179
  30
0.0
  40
 4.0000000000000
  41
0.0
  71
8
  72
1
   1
\A1;7.5
   7
GMM001
   0
ENDBLK
   5
189
 100
AcDbEntity
   8
0
 100
AcDbBlockEnd
   0
ENDSEC
   0
SECTION
   2
ENTITIES
   0
LINE
   5
18A
 100
AcDbEntity
   8
LEVEL001
 100
AcDbLine
   6
DOT
  62
7
  10
 405.39557825448
  20
 275.98629726410
  30
0.0
  11
 405.43310003320
  21
 275.98629726410
  31
0.0
   0
LINE
   5
18B
 100
AcDbEntity
   8
LEVEL001
 100
AcDbLine
   6
CONTINUOUS
  62
7
  10
 61.156140064331
  20
 223.73387466089
  30
0.0
  11
 61.156140064331
  21
 239.23387466089
  31
0.0
   0
LINE
   5
18C
 100
AcDbEntity
   8
LEVEL001
 100
AcDbLine
   6
CONTINUOUS
  62
7
  10
 61.156140064331
  20
 239.23387466089
  30
0.0
  11
 61.156140064331
  21
 242.73387466089
  31
0.0
   0
LINE
   5
18D
 100
AcDbEntity
   8
LEVEL001
 100
AcDbLine
   6
DASHDOT
  62
2
  10
 66.156140064331
  20
 238.61775599454
  30
0.0
  11
 66.156140064331
  21
 220.12482192884
  31
0.0
   0
LINE
   5
18E
 100
AcDbEntity
   8
LEVEL001
 100
AcDbLine
   6
DOT
  62
1
  10
 66.156140064331
  20
 236.73387466089
  30
0.0
  11
 67.806140064331
  21
 236.73387466089
  31
0.0
   0
LINE
   5
18F
 100
AcDbEntity
   8
LEVEL001
 100
AcDbLine
   6
DOT
  62
1
  10
 67.806140064331
  20
 233.73387466089
  30
0.0
  11
 67.806140064331
  21
 236.73387466089
  31
0.0
   0
LINE
   5
190
 100
AcDbEntity
   8
LEVEL001
 100
AcDbLine
   6
DOT
  62
1
  10
 66.156140064331
  20
 233.73387466089
  30
0.0
  11
 67.806140064331
  21
 233.73387466089
  31
0.0
   0
LINE
   5
191
 100
AcDbEntity
   8
LEVEL001
 100
AcDbLine
   6
DOT
  62
1
  10
 67.806140064331
  20
 233.73387466089
  30
0.0
  11
 68.156140064331
  21
 233.73387466089
  31
0.0
   0
LINE
   5
192
 100
AcDbEntity
   8
LEVEL001
 100
AcDbLine
   6
DOT
  62
1
  10
 68.156140064331
  20
 224.23387466078
  30
0.0
  11
 68.656140064227
  21
 223.73387466089
  31
0.0
   0
LINE
   5
193
 100
AcDbEntity
   8
LEVEL001
 100
AcDbLine
   6
DOT
  62
1
  10
 67.806140064331
  20
 224.23387466089
  30
0.0
  11
 68.156140064227
  21
 224.23387466089
  31
0.0
   0
LINE
   5
194
 100
AcDbEntity
   8
LEVEL001
 100
AcDbLine
   6
DOT
  62
1
  10
 66.156140064331
  20
 224.23387466089
  30
0.0
  11
 67.806140064331
  21
 224.23387466089
  31
0.0
   0
LINE
   5
195
 100
AcDbEntity
   8
LEVEL001
 100
AcDbLine
   6
DOT
  62
1
  10
 67.806140064331
  20
 224.23387466089
  30
0.0
  11
 67.806140064331
  21
 233.73387466089
  31
0.0
   0
LINE
   5
196
 100
AcDbEntity
   8
LEVEL001
 100
AcDbLine
   6
DOT
  62
1
  10
 68.156140064331
  20
 224.23387466089
  30
0.0
  11
 68.156140064331
  21
 233.73387466089
  31
0.0
   0
LINE
   5
197
 100
AcDbEntity
   8
LEVEL001
 100
AcDbLine
   6
DOT
  62
1
  10
 66.156140064331
  20
 236.73387466089
  30
0.0
  11
 64.506140064331
  21
 236.73387466089
  31
0.0
   0
LINE
   5
198
 100
AcDbEntity
   8
LEVEL001
 100
AcDbLine
   6
DOT
  62
1
  10
 64.506140064331
  20
 233.73387466089
  30
0.0
  11
 64.506140064331
  21
 236.73387466089
  31
0.0
   0
LINE
   5
199
 100
AcDbEntity
   8
LEVEL001
 100
AcDbLine
   6
DOT
  62
1
  10
 66.156140064331
  20
 233.73387466089
  30
0.0
  11
 64.506140064331
  21
 233.73387466089
  31
0.0
   0
LINE
   5
19A
 100
AcDbEntity
   8
LEVEL001
 100
AcDbLine
   6
DOT
  62
1
  10
 64.506140064331
  20
 233.73387466089
  30
0.0
  11
 64.156140064331
  21
 233.73387466089
  31
0.0
   0
LINE
   5
19B
 100
AcDbEntity
   8
LEVEL001
 100
AcDbLine
   6
DOT
  62
1
  10
 63.659473146950
  20
 223.73720774364
  30
0.0
  11
 64.156140064197
  21
 224.23387466089
  31
0.0
   0
LINE
   5
19C
 100
AcDbEntity
   8
LEVEL001
 100
AcDbLine
   6
DOT
  62
1
  10
 64.156140064331
  20
 224.23387466089
  30
0.0
  11
 64.506140064331
  21
 224.23387466089
  31
0.0
   0
LINE
   5
19D
 100
AcDbEntity
   8
LEVEL001
 100
AcDbLine
   6
DOT
  62
1
  10
 64.506140064331
  20
 224.23387466089
  30
0.0
  11
 66.156140064331
  21
 224.23387466089
  31
0.0
   0
LINE
   5
19E
 100
AcDbEntity
   8
LEVEL001
 100
AcDbLine
   6
DOT
  62
1
  10
 64.156140064331
  20
 224.23387466089
  30
0.0
  11
 64.156140064331
  21
 233.73387466089
  31
0.0
   0
LINE
   5
19F
 100
AcDbEntity
   8
LEVEL001
 100
AcDbLine
   6
DOT
  62
1
  10
 64.506140064331
  20
 224.23387466089
  30
0.0
  11
 64.506140064331
  21
 233.73387466089
  31
0.0
   0
CIRCLE
   5
1A0
 100
AcDbEntity
   8
LEVEL001
 100
AcDbCircle
   6
CONTINUOUS
  62
2
  10
 188.15614006433
  20
 53.921038653551
  30
0.0
  40
 1.6500000000000
   0
CIRCLE
   5
1A1
 100
AcDbEntity
   8
LEVEL001
 100
AcDbCircle
   6
CONTINUOUS
  62
2
  10
 68.156140064331
  20
 53.921038653551
  30
0.0
  40
 1.6500000000000
   0
LINE
   5
1A2
 100
AcDbEntity
   8
LEVEL001
 100
AcDbLine
   6
CONTINUOUS
  62
7
  10
 195.15614006433
  20
 57.421038653551
  30
0.0
  11
 195.15614006433
  21
 65.421038653551
  31
0.0
   0
LINE
   5
1A3
 100
AcDbEntity
   8
LEVEL001
 100
AcDbLine
   6
CONTINUOUS
  62
7
  10
 61.156140064331
  20
 57.421038653551
  30
0.0
  11
 61.156140064331
  21
 65.421038653551
  31
0.0
   0
LINE
   5
1A4
 100
AcDbEntity
   8
LEVEL001
 100
AcDbLine
   6
CONTINUOUS
  62
7
  10
 61.156140064331
  20
 53.921038653551
  30
0.0
  11
 61.156140064331
  21
 57.421038653551
  31
0.0
   0
LINE
   5
1A5
 100
AcDbEntity
   8
LEVEL001
 100
AcDbLine
   6
CONTINUOUS
  62
7
  10
 61.156140064331
  20
 50.421038653551
  30
0.0
  11
 61.156140064331
  21
 53.921038653551
  31
0.0
   0
LINE
   5
1A6
 100
AcDbEntity
   8
LEVEL001
 100
AcDbLine
   6
CONTINUOUS
  62
7
  10
 195.15614006433
  20
 50.421038653551
  30
0.0
  11
 195.15614006433
  21
 53.921038653551
  31
0.0
   0
LINE
   5
1A7
 100
AcDbEntity
   8
LEVEL001
 100
AcDbLine
   6
CONTINUOUS
  62
7
  10
 195.15614006433
  20
 53.921038653551
  30
0.0
  11
 195.15614006433
  21
 57.421038653551
  31
0.0
   0
LINE
   5
1A8
 100
AcDbEntity
   8
LEVEL001
 100
AcDbLine
   6
CONTINUOUS
  62
7
  10
 61.156140064331
  20
 54.271038653551
  30
0.0
  11
 65.680761305433
  21
 54.271038653551
  31
0.0
   0
LINE
   5
1A9
 100
AcDbEntity
   8
LEVEL001
 100
AcDbLine
   6
CONTINUOUS
  62
7
  10
 61.156140064331
  20
 53.571038653551
  30
0.0
  11
 65.680761305433
  21
 53.571038653551
  31
0.0
   0
LINE
   5
1AA
 100
AcDbEntity
   8
LEVEL001
 100
AcDbLine
   6
CONTINUOUS
  62
7
  10
 190.63151882323
  20
 54.271038653551
  30
0.0
  11
 195.15614006433
  21
 54.271038653551
  31
0.0
   0
LINE
   5
1AB
 100
AcDbEntity
   8
LEVEL001
 100
AcDbLine
   6
CONTINUOUS
  62
7
  10
 190.63151882323
  20
 53.571038653551
  30
0.0
  11
 195.15614006433
  21
 53.571038653551
  31
0.0
   0
CIRCLE
   5
1AC
 100
AcDbEntity
   8
LEVEL001
 100
AcDbCircle
   6
CONTINUOUS
  62
7
  10
 188.15614006433
  20
 53.921038653551
  30
0.0
  40
 2.5000000000000
   0
CIRCLE
   5
1AD
 100
AcDbEntity
   8
LEVEL001
 100
AcDbCircle
   6
CONTINUOUS
  62
7
  10
 188.15614006433
  20
 53.921038653551
  30
0.0
  40
 2.0000000000000
   0
CIRCLE
   5
1AE
 100
AcDbEntity
   8
LEVEL001
 100
AcDbCircle
   6
CONTINUOUS
  62
7
  10
 68.156140064331
  20
 53.921038653551
  30
0.0
  40
 2.0000000000000
   0
CIRCLE
   5
1AF
 100
AcDbEntity
   8
LEVEL001
 100
AcDbCircle
   6
CONTINUOUS
  62
7
  10
 68.156140064331
  20
 53.921038653551
  30
0.0
  40
 2.5000000000000
   0
LINE
   5
1B0
 100
AcDbEntity
   8
LEVEL001
 100
AcDbLine
   6
DASHDOT
  62
2
  10
 68.156140064331
  20
 58.202146530715
  30
0.0
  11
 68.156140064331
  21
 48.914946162918
  31
0.0
   0
LINE
   5
1B1
 100
AcDbEntity
   8
LEVEL001
 100
AcDbLine
   6
DASHDOT
  62
2
  10
 128.15614006433
  20
 69.097162156532
  30
0.0
  11
 128.15614006433
  21
 44.779361193485
  31
0.0
   0
LINE
   5
1B2
 100
AcDbEntity
   8
LEVEL001
 100
AcDbLine
   6
DASHDOT
  62
2
  10
 188.15614006433
  20
 58.202146530715
  30
0.0
  11
 188.15614006433
  21
 48.914946162918
  31
0.0
   0
LINE
   5
1B3
 100
AcDbEntity
   8
LEVEL001
 100
AcDbLine
   6
DASHDOT
  62
2
  10
 58.359333826510
  20
 53.921038653551
  30
0.0
  11
 197.59737255707
  21
 53.921038653551
  31
0.0
   0
LINE
   5
1B4
 100
AcDbEntity
   8
LEVEL001
 100
AcDbLine
   6
CONTINUOUS
  62
7
  10
 61.156140064331
  20
 65.421038653551
  30
0.0
  11
 195.15614006433
  21
 65.421038653551
  31
0.0
   0
LINE
   5
1B5
 100
AcDbEntity
   8
LEVEL001
 100
AcDbLine
   6
CONTINUOUS
  62
7
  10
 61.156140064331
  20
 57.421038653551
  30
0.0
  11
 195.15614006433
  21
 57.421038653551
  31
0.0
   0
LINE
   5
1B6
 100
AcDbEntity
   8
LEVEL001
 100
AcDbLine
   6
CONTINUOUS
  62
7
  10
 61.156140064331
  20
 50.421038653551
  30
0.0
  11
 195.15614006433
  21
 50.421038653551
  31
0.0
   0
LINE
   5
1B7
 100
AcDbEntity
   8
LEVEL001
 100
AcDbLine
   6
CONTINUOUS
  62
7
  10
 70.631518823228
  20
 54.271038653551
  30
0.0
  11
 185.68076130543
  21
 54.271038653551
  31
0.0
   0
LINE
   5
1B8
 100
AcDbEntity
   8
LEVEL001
 100
AcDbLine
   6
CONTINUOUS
  62
7
  10
 70.631518823228
  20
 53.571038653551
  30
0.0
  11
 185.68076130543
  21
 53.571038653551
  31
0.0
   0
LINE
   5
1B9
 100
AcDbEntity
   8
LEVEL001
 100
AcDbLine
   6
CONTINUOUS
  62
7
  10
 226.95099663024
  20
 223.73387466089
  30
0.0
  11
 226.95099663024
  21
 239.23387466089
  31
0.0
   0
LINE
   5
1BA
 100
AcDbEntity
   8
LEVEL001
 100
AcDbLine
   6
CONTINUOUS
  62
7
  10
 226.95099663024
  20
 239.23387466089
  30
0.0
  11
 226.95099663024
  21
 242.73387466089
  31
0.0
   0
LINE
   5
1BB
 100
AcDbEntity
   8
LEVEL001
 100
AcDbLine
   6
DASHDOT
  62
2
  10
 234.45099663024
  20
 238.61775599454
  30
0.0
  11
 234.45099663024
  21
 220.12482192884
  31
0.0
   0
LINE
   5
1BC
 100
AcDbEntity
   8
LEVEL001
 100
AcDbLine
   6
DOT
  62
1
  10
 234.45099663024
  20
 236.73387466089
  30
0.0
  11
 236.10099663024
  21
 236.73387466089
  31
0.0
   0
LINE
   5
1BD
 100
AcDbEntity
   8
LEVEL001
 100
AcDbLine
   6
DOT
  62
1
  10
 236.10099663024
  20
 233.73387466089
  30
0.0
  11
 236.10099663024
  21
 236.73387466089
  31
0.0
   0
LINE
   5
1BE
 100
AcDbEntity
   8
LEVEL001
 100
AcDbLine
   6
DOT
  62
1
  10
 234.45099663024
  20
 233.73387466089
  30
0.0
  11
 236.10099663024
  21
 233.73387466089
  31
0.0
   0
LINE
   5
1BF
 100
AcDbEntity
   8
LEVEL001
 100
AcDbLine
   6
DOT
  62
1
  10
 236.10099663024
  20
 233.73387466089
  30
0.0
  11
 236.45099663024
  21
 233.73387466089
  31
0.0
   0
LINE
   5
1C0
 100
AcDbEntity
   8
LEVEL001
 100
AcDbLine
   6
DOT
  62
1
  10
 236.45099663024
  20
 224.23387466078
  30
0.0
  11
 236.95099663014
  21
 223.73387466089
  31
0.0
   0
LINE
   5
1C1
 100
AcDbEntity
   8
LEVEL001
 100
AcDbLine
   6
DOT
  62
1
  10
 236.10099663024
  20
 224.23387466089
  30
0.0
  11
 236.45099663014
  21
 224.23387466089
  31
0.0
   0
LINE
   5
1C2
 100
AcDbEntity
   8
LEVEL001
 100
AcDbLine
   6
DOT
  62
1
  10
 234.45099663024
  20
 224.23387466089
  30
0.0
  11
 236.10099663024
  21
 224.23387466089
  31
0.0
   0
LINE
   5
1C3
 100
AcDbEntity
   8
LEVEL001
 100
AcDbLine
   6
DOT
  62
1
  10
 236.10099663024
  20
 224.23387466089
  30
0.0
  11
 236.10099663024
  21
 233.73387466089
  31
0.0
   0
LINE
   5
1C4
 100
AcDbEntity
   8
LEVEL001
 100
AcDbLine
   6
DOT
  62
1
  10
 236.45099663024
  20
 224.23387466089
  30
0.0
  11
 236.45099663024
  21
 233.73387466089
  31
0.0
   0
LINE
   5
1C5
 100
AcDbEntity
   8
LEVEL001
 100
AcDbLine
   6
DOT
  62
1
  10
 234.45099663024
  20
 236.73387466089
  30
0.0
  11
 232.80099663024
  21
 236.73387466089
  31
0.0
   0
LINE
   5
1C6
 100
AcDbEntity
   8
LEVEL001
 100
AcDbLine
   6
DOT
  62
1
  10
 232.80099663024
  20
 233.73387466089
  30
0.0
  11
 232.80099663024
  21
 236.73387466089
  31
0.0
   0
LINE
   5
1C7
 100
AcDbEntity
   8
LEVEL001
 100
AcDbLine
   6
DOT
  62
1
  10
 234.45099663024
  20
 233.73387466089
  30
0.0
  11
 232.80099663024
  21
 233.73387466089
  31
0.0
   0
LINE
   5
1C8
 100
AcDbEntity
   8
LEVEL001
 100
AcDbLine
   6
DOT
  62
1
  10
 232.80099663024
  20
 233.73387466089
  30
0.0
  11
 232.45099663024
  21
 233.73387466089
  31
0.0
   0
LINE
   5
1C9
 100
AcDbEntity
   8
LEVEL001
 100
AcDbLine
   6
DOT
  62
1
  10
 231.95432971286
  20
 223.73720774364
  30
0.0
  11
 232.45099663011
  21
 224.23387466089
  31
0.0
   0
LINE
   5
1CA
 100
AcDbEntity
   8
LEVEL001
 100
AcDbLine
   6
DOT
  62
1
  10
 232.45099663024
  20
 224.23387466089
  30
0.0
  11
 232.80099663024
  21
 224.23387466089
  31
0.0
   0
LINE
   5
1CB
 100
AcDbEntity
   8
LEVEL001
 100
AcDbLine
   6
DOT
  62
1
  10
 232.80099663024
  20
 224.23387466089
  30
0.0
  11
 234.45099663024
  21
 224.23387466089
  31
0.0
   0
LINE
   5
1CC
 100
AcDbEntity
   8
LEVEL001
 100
AcDbLine
   6
DOT
  62
1
  10
 232.45099663024
  20
 224.23387466089
  30
0.0
  11
 232.45099663024
  21
 233.73387466089
  31
0.0
   0
LINE
   5
1CD
 100
AcDbEntity
   8
LEVEL001
 100
AcDbLine
   6
DOT
  62
1
  10
 232.80099663024
  20
 224.23387466089
  30
0.0
  11
 232.80099663024
  21
 233.73387466089
  31
0.0
   0
INSERT
   5
1CE
 100
AcDbEntity
   8
LEVEL001
 100
AcDbBlockReference
   2
*D1
  10
0.0
  20
0.0
  30
0.0
   0
LINE
   5
1CF
 100
AcDbEntity
   8
LEVEL001
 100
AcDbLine
   6
CONTINUOUS
  62
7
  10
 61.156140064331
  20
 100.52190103137
  30
0.0
  11
 61.156140064331
  21
 116.02190103137
  31
0.0
   0
LINE
   5
1D0
 100
AcDbEntity
   8
LEVEL001
 100
AcDbLine
   6
CONTINUOUS
  62
7
  10
 61.156140064331
  20
 116.02190103137
  30
0.0
  11
 61.156140064331
  21
 119.52190103137
  31
0.0
   0
LINE
   5
1D1
 100
AcDbEntity
   8
LEVEL001
 100
AcDbLine
   6
CONTINUOUS
  62
7
  10
 195.15614006433
  20
 116.02190103137
  30
0.0
  11
 195.15614006433
  21
 119.52190103137
  31
0.0
   0
LINE
   5
1D2
 100
AcDbEntity
   8
LEVEL001
 100
AcDbLine
   6
CONTINUOUS
  62
7
  10
 195.15614006433
  20
 100.52190103137
  30
0.0
  11
 195.15614006433
  21
 116.02190103137
  31
0.0
   0
LINE
   5
1D3
 100
AcDbEntity
   8
LEVEL001
 100
AcDbLine
   6
DOT
  62
1
  10
 189.80614006433
  20
 110.52190103137
  30
0.0
  11
 189.80614006433
  21
 113.52190103137
  31
0.0
   0
LINE
   5
1D4
 100
AcDbEntity
   8
LEVEL001
 100
AcDbLine
   6
DOT
  62
1
  10
 188.15614006433
  20
 110.52190103137
  30
0.0
  11
 189.80614006433
  21
 110.52190103137
  31
0.0
   0
LINE
   5
1D5
 100
AcDbEntity
   8
LEVEL001
 100
AcDbLine
   6
DOT
  62
1
  10
 189.80614006433
  20
 110.52190103137
  30
0.0
  11
 190.15614006433
  21
 110.52190103137
  31
0.0
   0
LINE
   5
1D6
 100
AcDbEntity
   8
LEVEL001
 100
AcDbLine
   6
DOT
  62
1
  10
 188.15614006433
  20
 113.52190103137
  30
0.0
  11
 189.80614006433
  21
 113.52190103137
  31
0.0
   0
LINE
   5
1D7
 100
AcDbEntity
   8
LEVEL001
 100
AcDbLine
   6
DOT
  62
1
  10
 188.15614006433
  20
 101.02190103137
  30
0.0
  11
 189.80614006433
  21
 101.02190103137
  31
0.0
   0
LINE
   5
1D8
 100
AcDbEntity
   8
LEVEL001
 100
AcDbLine
   6
DOT
  62
1
  10
 189.80614006433
  20
 101.02190103137
  30
0.0
  11
 190.15614006423
  21
 101.02190103137
  31
0.0
   0
LINE
   5
1D9
 100
AcDbEntity
   8
LEVEL001
 100
AcDbLine
   6
DOT
  62
1
  10
 190.15614006433
  20
 101.02190103127
  30
0.0
  11
 190.65614006423
  21
 100.52190103137
  31
0.0
   0
LINE
   5
1DA
 100
AcDbEntity
   8
LEVEL001
 100
AcDbLine
   6
DOT
  62
1
  10
 189.80614006433
  20
 101.02190103137
  30
0.0
  11
 189.80614006433
  21
 110.52190103137
  31
0.0
   0
LINE
   5
1DB
 100
AcDbEntity
   8
LEVEL001
 100
AcDbLine
   6
DOT
  62
1
  10
 190.15614006433
  20
 101.02190103127
  30
0.0
  11
 190.15614006433
  21
 110.52190103137
  31
0.0
   0
LINE
   5
1DC
 100
AcDbEntity
   8
LEVEL001
 100
AcDbLine
   6
DOT
  62
1
  10
 188.15614006433
  20
 113.52190103137
  30
0.0
  11
 186.50614006433
  21
 113.52190103137
  31
0.0
   0
LINE
   5
1DD
 100
AcDbEntity
   8
LEVEL001
 100
AcDbLine
   6
DOT
  62
1
  10
 186.50614006433
  20
 110.52190103137
  30
0.0
  11
 186.50614006433
  21
 113.52190103137
  31
0.0
   0
LINE
   5
1DE
 100
AcDbEntity
   8
LEVEL001
 100
AcDbLine
   6
DOT
  62
1
  10
 188.15614006433
  20
 110.52190103137
  30
0.0
  11
 186.50614006433
  21
 110.52190103137
  31
0.0
   0
LINE
   5
1DF
 100
AcDbEntity
   8
LEVEL001
 100
AcDbLine
   6
DOT
  62
1
  10
 186.50614006433
  20
 110.52190103137
  30
0.0
  11
 186.15614006433
  21
 110.52190103137
  31
0.0
   0
LINE
   5
1E0
 100
AcDbEntity
   8
LEVEL001
 100
AcDbLine
   6
DOT
  62
1
  10
 185.65947314695
  20
 100.52523411413
  30
0.0
  11
 186.15614006420
  21
 101.02190103137
  31
0.0
   0
LINE
   5
1E1
 100
AcDbEntity
   8
LEVEL001
 100
AcDbLine
   6
DOT
  62
1
  10
 186.15614006433
  20
 101.02190103137
  30
0.0
  11
 186.50614006433
  21
 101.02190103137
  31
0.0
   0
LINE
   5
1E2
 100
AcDbEntity
   8
LEVEL001
 100
AcDbLine
   6
DOT
  62
1
  10
 186.50614006433
  20
 101.02190103137
  30
0.0
  11
 188.15614006433
  21
 101.02190103137
  31
0.0
   0
LINE
   5
1E3
 100
AcDbEntity
   8
LEVEL001
 100
AcDbLine
   6
DOT
  62
1
  10
 186.15614006433
  20
 101.02190103137
  30
0.0
  11
 186.15614006433
  21
 110.52190103137
  31
0.0
   0
LINE
   5
1E4
 100
AcDbEntity
   8
LEVEL001
 100
AcDbLine
   6
DOT
  62
1
  10
 186.50614006433
  20
 101.02190103137
  30
0.0
  11
 186.50614006433
  21
 110.52190103137
  31
0.0
   0
LINE
   5
1E5
 100
AcDbEntity
   8
LEVEL001
 100
AcDbLine
   6
DASHDOT
  62
2
  10
 188.15614006433
  20
 115.40578236503
  30
0.0
  11
 188.15614006433
  21
 96.912848299329
  31
0.0
   0
LINE
   5
1E6
 100
AcDbEntity
   8
LEVEL001
 100
AcDbLine
   6
DASHDOT
  62
2
  10
 128.15614006433
  20
 123.65428269169
  30
0.0
  11
 128.15614006433
  21
 93.837481510870
  31
0.0
   0
LINE
   5
1E7
 100
AcDbEntity
   8
LEVEL001
 100
AcDbLine
   6
DASHDOT
  62
2
  10
 68.156140064331
  20
 115.40578236503
  30
0.0
  11
 68.156140064331
  21
 96.912848299329
  31
0.0
   0
LINE
   5
1E8
 100
AcDbEntity
   8
LEVEL001
 100
AcDbLine
   6
DOT
  62
1
  10
 68.156140064331
  20
 113.52190103137
  30
0.0
  11
 69.806140064331
  21
 113.52190103137
  31
0.0
   0
LINE
   5
1E9
 100
AcDbEntity
   8
LEVEL001
 100
AcDbLine
   6
DOT
  62
1
  10
 69.806140064331
  20
 110.52190103137
  30
0.0
  11
 69.806140064331
  21
 113.52190103137
  31
0.0
   0
LINE
   5
1EA
 100
AcDbEntity
   8
LEVEL001
 100
AcDbLine
   6
DOT
  62
1
  10
 68.156140064331
  20
 110.52190103137
  30
0.0
  11
 69.806140064331
  21
 110.52190103137
  31
0.0
   0
LINE
   5
1EB
 100
AcDbEntity
   8
LEVEL001
 100
AcDbLine
   6
DOT
  62
1
  10
 69.806140064331
  20
 110.52190103137
  30
0.0
  11
 70.156140064331
  21
 110.52190103137
  31
0.0
   0
LINE
   5
1EC
 100
AcDbEntity
   8
LEVEL001
 100
AcDbLine
   6
DOT
  62
1
  10
 70.156140064331
  20
 101.02190103127
  30
0.0
  11
 70.656140064227
  21
 100.52190103137
  31
0.0
   0
LINE
   5
1ED
 100
AcDbEntity
   8
LEVEL001
 100
AcDbLine
   6
DOT
  62
1
  10
 69.806140064331
  20
 101.02190103137
  30
0.0
  11
 70.156140064227
  21
 101.02190103137
  31
0.0
   0
LINE
   5
1EE
 100
AcDbEntity
   8
LEVEL001
 100
AcDbLine
   6
DOT
  62
1
  10
 68.156140064331
  20
 101.02190103137
  30
0.0
  11
 69.806140064331
  21
 101.02190103137
  31
0.0
   0
LINE
   5
1EF
 100
AcDbEntity
   8
LEVEL001
 100
AcDbLine
   6
DOT
  62
1
  10
 69.806140064331
  20
 101.02190103137
  30
0.0
  11
 69.806140064331
  21
 110.52190103137
  31
0.0
   0
LINE
   5
1F0
 100
AcDbEntity
   8
LEVEL001
 100
AcDbLine
   6
DOT
  62
1
  10
 70.156140064331
  20
 101.02190103137
  30
0.0
  11
 70.156140064331
  21
 110.52190103137
  31
0.0
   0
LINE
   5
1F1
 100
AcDbEntity
   8
LEVEL001
 100
AcDbLine
   6
DOT
  62
1
  10
 68.156140064331
  20
 113.52190103137
  30
0.0
  11
 66.506140064331
  21
 113.52190103137
  31
0.0
   0
LINE
   5
1F2
 100
AcDbEntity
   8
LEVEL001
 100
AcDbLine
   6
DOT
  62
1
  10
 66.506140064331
  20
 110.52190103137
  30
0.0
  11
 66.506140064331
  21
 113.52190103137
  31
0.0
   0
LINE
   5
1F3
 100
AcDbEntity
   8
LEVEL001
 100
AcDbLine
   6
DOT
  62
1
  10
 68.156140064331
  20
 110.52190103137
  30
0.0
  11
 66.506140064331
  21
 110.52190103137
  31
0.0
   0
LINE
   5
1F4
 100
AcDbEntity
   8
LEVEL001
 100
AcDbLine
   6
DOT
  62
1
  10
 66.506140064331
  20
 110.52190103137
  30
0.0
  11
 66.156140064331
  21
 110.52190103137
  31
0.0
   0
LINE
   5
1F5
 100
AcDbEntity
   8
LEVEL001
 100
AcDbLine
   6
DOT
  62
1
  10
 65.659473146950
  20
 100.52523411413
  30
0.0
  11
 66.156140064197
  21
 101.02190103137
  31
0.0
   0
LINE
   5
1F6
 100
AcDbEntity
   8
LEVEL001
 100
AcDbLine
   6
DOT
  62
1
  10
 66.156140064331
  20
 101.02190103137
  30
0.0
  11
 66.506140064331
  21
 101.02190103137
  31
0.0
   0
LINE
   5
1F7
 100
AcDbEntity
   8
LEVEL001
 100
AcDbLine
   6
DOT
  62
1
  10
 66.506140064331
  20
 101.02190103137
  30
0.0
  11
 68.156140064331
  21
 101.02190103137
  31
0.0
   0
LINE
   5
1F8
 100
AcDbEntity
   8
LEVEL001
 100
AcDbLine
   6
DOT
  62
1
  10
 66.156140064331
  20
 101.02190103137
  30
0.0
  11
 66.156140064331
  21
 110.52190103137
  31
0.0
   0
LINE
   5
1F9
 100
AcDbEntity
   8
LEVEL001
 100
AcDbLine
   6
DOT
  62
1
  10
 66.506140064331
  20
 101.02190103137
  30
0.0
  11
 66.506140064331
  21
 110.52190103137
  31
0.0
   0
LINE
   5
1FA
 100
AcDbEntity
   8
LEVEL001
 100
AcDbLine
   6
CONTINUOUS
  62
7
  10
 61.156140064331
  20
 100.52190103137
  30
0.0
  11
 195.15614006433
  21
 100.52190103137
  31
0.0
   0
LINE
   5
1FB
 100
AcDbEntity
   8
LEVEL001
 100
AcDbLine
   6
CONTINUOUS
  62
7
  10
 61.156140064331
  20
 119.52190103137
  30
0.0
  11
 195.15614006433
  21
 119.52190103137
  31
0.0
   0
LINE
   5
1FC
 100
AcDbEntity
   8
LEVEL001
 100
AcDbLine
   6
CONTINUOUS
  62
7
  10
 61.156140064331
  20
 116.02190103137
  30
0.0
  11
 195.15614006433
  21
 116.02190103137
  31
0.0
   0
LINE
   5
1FD
 100
AcDbEntity
   8
LEVEL001
 100
AcDbLine
   6
DOT
  62
1
  10
 195.15614006433
  20
 116.82190103138
  30
0.0
  11
 61.156140064331
  21
 116.82190103138
  31
0.0
   0
LINE
   5
1FE
 100
AcDbEntity
   8
LEVEL001
 100
AcDbLine
   6
CONTINUOUS
  62
7
  10
 236.66242893334
  20
 100.52190103137
  30
0.0
  11
 237.66242893344
  21
 100.52190103137
  31
0.0
   0
LINE
   5
1FF
 100
AcDbEntity
   8
LEVEL001
 100
AcDbLine
   6
CONTINUOUS
  62
7
  10
 237.66242893344
  20
 100.52190103137
  30
0.0
  11
 237.66242893344
  21
 116.02190103137
  31
0.0
   0
LINE
   5
200
 100
AcDbEntity
   8
LEVEL001
 100
AcDbLine
   6
CONTINUOUS
  62
7
  10
 230.66242893344
  20
 119.52190103137
  30
0.0
  11
 234.16242893344
  21
 119.52190103137
  31
0.0
   0
ARC
   5
201
 100
AcDbEntity
   8
LEVEL001
   6
CONTINUOUS
  62
7
 100
AcDbCircle
  10
 224.16242893344
  20
 117.52190103137
  30
0.0
  40
 1.5000000000000
 100
AcDbArc
  50
 180.00000000000
  51
 270.00000000006
   0
POINT
   5
202
 100
AcDbEntity
   8
LEVEL001
 100
AcDbPoint
  62
7
  10
 222.66242893344
  20
 116.02190103137
  30
0.0
   0
LINE
   5
203
 100
AcDbEntity
   8
LEVEL001
 100
AcDbLine
   6
CONTINUOUS
  62
7
  10
 224.16242893344
  20
 116.02190103137
  30
0.0
  11
 225.62282112801
  21
 116.02190103137
  31
0.0
   0
POINT
   5
204
 100
AcDbEntity
   8
LEVEL001
 100
AcDbPoint
  62
7
  10
 237.66242893344
  20
 119.52190103137
  30
0.0
   0
ARC
   5
205
 100
AcDbEntity
   8
LEVEL001
   6
CONTINUOUS
  62
7
 100
AcDbCircle
  10
 227.66242893344
  20
 113.82190103137
  30
0.0
  40
 3.0000000000000
 100
AcDbArc
  50
 0.40711099922730E-11
  51
 132.83342806606
   0
LINE
   5
206
 100
AcDbEntity
   8
LEVEL001
 100
AcDbLine
   6
CONTINUOUS
  62
7
  10
 230.66242893344
  20
 100.52190103137
  30
0.0
  11
 230.66242893344
  21
 113.82190103137
  31
0.0
   0
LINE
   5
207
 100
AcDbEntity
   8
LEVEL001
 100
AcDbLine
   6
CONTINUOUS
  62
7
  10
 222.66242893344
  20
 117.52190103137
  30
0.0
  11
 222.66242893344
  21
 118.72190103137
  31
0.0
   0
ARC
   5
208
 100
AcDbEntity
   8
LEVEL001
   6
CONTINUOUS
  62
7
 100
AcDbCircle
  10
 223.46242893344
  20
 118.72190103137
  30
0.0
  40
 0.80000000000000
 100
AcDbArc
  50
 89.999999999967
  51
 180.00000000000
   0
POINT
   5
209
 100
AcDbEntity
   8
LEVEL001
 100
AcDbPoint
  62
7
  10
 222.66242893344
  20
 119.52190103137
  30
0.0
   0
LINE
   5
20A
 100
AcDbEntity
   8
LEVEL001
 100
AcDbLine
   6
CONTINUOUS
  62
7
  10
 223.46242893344
  20
 119.52190103137
  30
0.0
  11
 230.66242893344
  21
 119.52190103137
  31
0.0
   0
LINE
   5
20B
 100
AcDbEntity
   8
LEVEL001
 100
AcDbLine
   6
CONTINUOUS
  62
7
  10
 234.16242893344
  20
 119.52190103137
  30
0.0
  11
 236.86242893344
  21
 119.52190103137
  31
0.0
   0
ARC
   5
20C
 100
AcDbEntity
   8
LEVEL001
   6
CONTINUOUS
  62
7
 100
AcDbCircle
  10
 236.86242893344
  20
 118.72190103137
  30
0.0
  40
 0.80000000000000
 100
AcDbArc
  50
0.0
  51
 90.000000000000
   0
POINT
   5
20D
 100
AcDbEntity
   8
LEVEL001
 100
AcDbPoint
  62
7
  10
 237.66242893344
  20
 119.52190103137
  30
0.0
   0
LINE
   5
20E
 100
AcDbEntity
   8
LEVEL001
 100
AcDbLine
   6
CONTINUOUS
  62
7
  10
 237.66242893344
  20
 116.02190103137
  30
0.0
  11
 237.66242893344
  21
 118.72190103137
  31
0.0
   0
LINE
   5
20F
 100
AcDbEntity
   8
LEVEL001
 100
AcDbLine
   6
CONTINUOUS
  62
7
  10
 234.16242893344
  20
 100.87190103150
  30
0.0
  11
 234.51242893344
  21
 100.52190103150
  31
0.0
   0
LINE
   5
210
 100
AcDbEntity
   8
LEVEL001
 100
AcDbLine
   6
CONTINUOUS
  62
7
  10
 234.51242893357
  20
 100.52190103137
  30
0.0
  11
 236.66242893334
  21
 100.52190103137
  31
0.0
   0
LINE
   5
211
 100
AcDbEntity
   8
LEVEL001
 100
AcDbLine
   6
CONTINUOUS
  62
7
  10
 234.16242893344
  20
 100.87190103150
  30
0.0
  11
 233.81242893344
  21
 100.52190103150
  31
0.0
   0
LINE
   5
212
 100
AcDbEntity
   8
LEVEL001
 100
AcDbLine
   6
CONTINUOUS
  62
7
  10
 230.66242893344
  20
 100.52190103137
  30
0.0
  11
 233.81242893331
  21
 100.52190103137
  31
0.0
   0
LINE
   5
213
 100
AcDbEntity
   8
LEVEL001
 100
AcDbLine
   6
DASHDOT
  62
2
  10
 234.16242893344
  20
 117.05408906884
  30
0.0
  11
 234.16242893344
  21
 96.912848299329
  31
0.0
   0
LINE
   5
214
 100
AcDbEntity
   8
LEVEL001
 100
AcDbLine
   6
DOT
  62
1
  10
 235.81242893344
  20
 110.52190103137
  30
0.0
  11
 235.81242893344
  21
 113.52190103137
  31
0.0
   0
LINE
   5
215
 100
AcDbEntity
   8
LEVEL001
 100
AcDbLine
   6
DOT
  62
1
  10
 234.16242893344
  20
 110.52190103137
  30
0.0
  11
 235.81242893344
  21
 110.52190103137
  31
0.0
   0
LINE
   5
216
 100
AcDbEntity
   8
LEVEL001
 100
AcDbLine
   6
DOT
  62
1
  10
 235.81242893344
  20
 110.52190103137
  30
0.0
  11
 236.16242893344
  21
 110.52190103137
  31
0.0
   0
LINE
   5
217
 100
AcDbEntity
   8
LEVEL001
 100
AcDbLine
   6
DOT
  62
1
  10
 234.16242893344
  20
 113.52190103137
  30
0.0
  11
 235.81242893344
  21
 113.52190103137
  31
0.0
   0
LINE
   5
218
 100
AcDbEntity
   8
LEVEL001
 100
AcDbLine
   6
DOT
  62
1
  10
 235.81242893344
  20
 101.02190103137
  30
0.0
  11
 235.81242893344
  21
 110.52190103137
  31
0.0
   0
LINE
   5
219
 100
AcDbEntity
   8
LEVEL001
 100
AcDbLine
   6
DOT
  62
1
  10
 236.16242893344
  20
 101.02190103127
  30
0.0
  11
 236.16242893344
  21
 110.52190103137
  31
0.0
   0
LINE
   5
21A
 100
AcDbEntity
   8
LEVEL001
 100
AcDbLine
   6
DOT
  62
1
  10
 234.16242893344
  20
 113.52190103137
  30
0.0
  11
 232.51242893344
  21
 113.52190103137
  31
0.0
   0
LINE
   5
21B
 100
AcDbEntity
   8
LEVEL001
 100
AcDbLine
   6
DOT
  62
1
  10
 232.51242893344
  20
 110.52190103137
  30
0.0
  11
 232.51242893344
  21
 113.52190103137
  31
0.0
   0
LINE
   5
21C
 100
AcDbEntity
   8
LEVEL001
 100
AcDbLine
   6
DOT
  62
1
  10
 234.16242893344
  20
 110.52190103137
  30
0.0
  11
 232.51242893344
  21
 110.52190103137
  31
0.0
   0
LINE
   5
21D
 100
AcDbEntity
   8
LEVEL001
 100
AcDbLine
   6
DOT
  62
1
  10
 232.51242893344
  20
 110.52190103137
  30
0.0
  11
 232.16242893344
  21
 110.52190103137
  31
0.0
   0
LINE
   5
21E
 100
AcDbEntity
   8
LEVEL001
 100
AcDbLine
   6
DOT
  62
1
  10
 232.16242893344
  20
 101.02190103137
  30
0.0
  11
 232.16242893344
  21
 110.52190103137
  31
0.0
   0
LINE
   5
21F
 100
AcDbEntity
   8
LEVEL001
 100
AcDbLine
   6
DOT
  62
1
  10
 232.51242893344
  20
 101.02190103137
  30
0.0
  11
 232.51242893344
  21
 110.52190103137
  31
0.0
   0
LINE
   5
220
 100
AcDbEntity
   8
LEVEL001
 100
AcDbLine
   6
DOT
  62
1
  10
 231.66576201606
  20
 100.52523411413
  30
0.0
  11
 232.16242893331
  21
 101.02190103137
  31
0.0
   0
LINE
   5
221
 100
AcDbEntity
   8
LEVEL001
 100
AcDbLine
   6
DOT
  62
1
  10
 236.16242893344
  20
 101.02190103127
  30
0.0
  11
 236.66242893334
  21
 100.52190103137
  31
0.0
   0
LINE
   5
222
 100
AcDbEntity
   8
LEVEL001
 100
AcDbLine
   6
DOT
  62
1
  10
 232.16242893344
  20
 101.02190103137
  30
0.0
  11
 236.16242893344
  21
 101.02190103137
  31
0.0
   0
LINE
   5
223
 100
AcDbEntity
   8
LEVEL001
 100
AcDbLine
   6
CONTINUOUS
  62
7
  10
 60.743715047998
  20
 178.70836220684
  30
0.0
  11
 60.743715047998
  21
 186.70836220684
  31
0.0
   0
LINE
   5
224
 100
AcDbEntity
   8
LEVEL001
 100
AcDbLine
   6
CONTINUOUS
  62
7
  10
 60.743715047998
  20
 175.20836220684
  30
0.0
  11
 60.743715047998
  21
 178.70836220684
  31
0.0
   0
LINE
   5
225
 100
AcDbEntity
   8
LEVEL001
 100
AcDbLine
   6
CONTINUOUS
  62
7
  10
 60.743715047998
  20
 171.70836220684
  30
0.0
  11
 60.743715047998
  21
 175.20836220684
  31
0.0
   0
CIRCLE
   5
226
 100
AcDbEntity
   8
LEVEL001
 100
AcDbCircle
   6
CONTINUOUS
  62
2
  10
 65.743715047998
  20
 175.20836220684
  30
0.0
  40
 1.6500000000000
   0
LINE
   5
227
 100
AcDbEntity
   8
LEVEL001
 100
AcDbLine
   6
CONTINUOUS
  62
7
  10
 60.743715047998
  20
 175.55836220684
  30
0.0
  11
 63.268336289100
  21
 175.55836220684
  31
0.0
   0
LINE
   5
228
 100
AcDbEntity
   8
LEVEL001
 100
AcDbLine
   6
CONTINUOUS
  62
7
  10
 60.743715047998
  20
 174.85836220684
  30
0.0
  11
 63.268336289100
  21
 174.85836220684
  31
0.0
   0
CIRCLE
   5
229
 100
AcDbEntity
   8
LEVEL001
 100
AcDbCircle
   6
CONTINUOUS
  62
7
  10
 65.743715047998
  20
 175.20836220684
  30
0.0
  40
 2.0000000000000
   0
CIRCLE
   5
22A
 100
AcDbEntity
   8
LEVEL001
 100
AcDbCircle
   6
CONTINUOUS
  62
7
  10
 65.743715047998
  20
 175.20836220684
  30
0.0
  40
 2.5000000000000
   0
LINE
   5
22B
 100
AcDbEntity
   8
LEVEL001
 100
AcDbLine
   6
DASHDOT
  62
2
  10
 65.743715047998
  20
 179.48947008401
  30
0.0
  11
 65.743715047998
  21
 170.20226971621
  31
0.0
   0
LINE
   5
22C
 100
AcDbEntity
   8
LEVEL001
 100
AcDbLine
   6
CONTINUOUS
  62
7
  10
 226.53857161391
  20
 178.70836220684
  30
0.0
  11
 226.53857161391
  21
 186.70836220684
  31
0.0
   0
LINE
   5
22D
 100
AcDbEntity
   8
LEVEL001
 100
AcDbLine
   6
CONTINUOUS
  62
7
  10
 226.53857161391
  20
 175.20836220684
  30
0.0
  11
 226.53857161391
  21
 178.70836220684
  31
0.0
   0
LINE
   5
22E
 100
AcDbEntity
   8
LEVEL001
 100
AcDbLine
   6
CONTINUOUS
  62
7
  10
 226.53857161391
  20
 171.70836220684
  30
0.0
  11
 226.53857161391
  21
 175.20836220684
  31
0.0
   0
CIRCLE
   5
22F
 100
AcDbEntity
   8
LEVEL001
 100
AcDbCircle
   6
CONTINUOUS
  62
2
  10
 234.03857161391
  20
 175.20836220684
  30
0.0
  40
 1.6500000000000
   0
LINE
   5
230
 100
AcDbEntity
   8
LEVEL001
 100
AcDbLine
   6
CONTINUOUS
  62
7
  10
 226.53857161391
  20
 175.55836220684
  30
0.0
  11
 231.56319285501
  21
 175.55836220684
  31
0.0
   0
LINE
   5
231
 100
AcDbEntity
   8
LEVEL001
 100
AcDbLine
   6
CONTINUOUS
  62
7
  10
 226.53857161391
  20
 174.85836220684
  30
0.0
  11
 231.56319285501
  21
 174.85836220684
  31
0.0
   0
CIRCLE
   5
232
 100
AcDbEntity
   8
LEVEL001
 100
AcDbCircle
   6
CONTINUOUS
  62
7
  10
 234.03857161391
  20
 175.20836220684
  30
0.0
  40
 2.0000000000000
   0
CIRCLE
   5
233
 100
AcDbEntity
   8
LEVEL001
 100
AcDbCircle
   6
CONTINUOUS
  62
7
  10
 234.03857161391
  20
 175.20836220684
  30
0.0
  40
 2.5000000000000
   0
LINE
   5
234
 100
AcDbEntity
   8
LEVEL001
 100
AcDbLine
   6
DASHDOT
  62
2
  10
 234.03857161391
  20
 179.48947008401
  30
0.0
  11
 234.03857161391
  21
 170.20226971621
  31
0.0
   0
INSERT
   5
235
 100
AcDbEntity
   8
LEVEL001
 100
AcDbBlockReference
   2
*D2
  10
0.0
  20
0.0
  30
0.0
   0
INSERT
   5
236
 100
AcDbEntity
   8
LEVEL001
 100
AcDbBlockReference
   2
*D3
  10
0.0
  20
0.0
  30
0.0
   0
DIMENSION
   5
237
 100
AcDbEntity
   8
LEVEL001
   6
CONTINUOUS
  62
2
 100
AcDbDimension
   2
*D4
  10
 237.66242893344
  20
 131.62046463384
  30
0.0
  11
 230.16242893344
  21
 131.62046463384
  31
0.0
  70
0
   3
GMM001
 100
AcDbAlignedDimension
  13
 222.66242893344
  23
 120.44518995683
  33
0.0
  14
 237.66242893344
  24
 120.44518995683
  34
0.0
 100
AcDbRotatedDimension
   0
DIMENSION
   5
238
 100
AcDbEntity
   8
LEVEL001
   6
CONTINUOUS
  62
2
 100
AcDbDimension
   2
*D5
  10
 61.156140064331
  20
 75.853596435935
  30
0.0
  11
 128.15614006433
  21
 75.853596435935
  31
0.0
  70
0
   3
GMM001
 100
AcDbAlignedDimension
  13
 195.15614006433
  23
 66.344327579004
  33
0.0
  14
 61.156140064331
  24
 66.344327579004
  34
0.0
  50
 180.00000000000
 100
AcDbRotatedDimension
   0
DIMENSION
   5
239
 100
AcDbEntity
   8
LEVEL001
   6
CONTINUOUS
  62
2
 100
AcDbDimension
   2
*D6
  10
 68.156140064331
  20
 86.131974620763
  30
0.0
  11
 64.656140064331
  21
 86.131974620763
  31
0.0
  70
0
   3
GMM001
 100
AcDbAlignedDimension
  13
 61.156140064331
  23
 99.625767662551
  33
0.0
  14
 68.156140064331
  24
 96.016714930506
  34
0.0
 100
AcDbRotatedDimension
   0
DIMENSION
   5
23A
 100
AcDbEntity
   8
LEVEL001
   6
CONTINUOUS
  62
2
 100
AcDbDimension
   2
*D7
  10
 188.15614006433
  20
 86.131974620763
  30
0.0
  11
 128.15614006433
  21
 86.131974620763
  31
0.0
  70
0
   3
GMM001
 100
AcDbAlignedDimension
  13
 68.156140064331
  23
 86.131974620763
  33
0.0
  14
 188.15614006433
  24
 96.016714930506
  34
0.0
 100
AcDbRotatedDimension
   0
DIMENSION
   5
23B
 100
AcDbEntity
   8
LEVEL001
   6
CONTINUOUS
  62
2
 100
AcDbDimension
   2
*D8
  10
 195.15614006433
  20
 86.131974620763
  30
0.0
  11
 191.65614006433
  21
 86.131974620763
  31
0.0
  70
0
   3
GMM001
 100
AcDbAlignedDimension
  13
 188.15614006433
  23
 86.131974620763
  33
0.0
  14
 195.15614006433
  24
 99.625767662551
  34
0.0
 100
AcDbRotatedDimension
   0
DIMENSION
   5
23C
 100
AcDbEntity
   8
LEVEL001
   6
CONTINUOUS
  62
2
 100
AcDbDimension
   2
*D9
  10
 237.66242893344
  20
 86.131974620763
  30
0.0
  11
 234.16242893344
  21
 86.131974620763
  31
0.0
  70
0
   3
GMM001
 100
AcDbAlignedDimension
  13
 230.66242893344
  23
 99.625767662551
  33
0.0
  14
 237.66242893344
  24
 99.625767662551
  34
0.0
 100
AcDbRotatedDimension
   0
DIMENSION
   5
23D
 100
AcDbEntity
   8
LEVEL001
   6
CONTINUOUS
  62
2
 100
AcDbDimension
   2
*D10
  10
 66.156140064331
  20
 209.59442047750
  30
0.0
  11
 63.656140064331
  21
 209.59442047750
  31
0.0
  70
0
   3
GMM001
 100
AcDbAlignedDimension
  13
 61.156140064331
  23
 222.83774129207
  33
0.0
  14
 66.156140064331
  24
 219.22868856002
  34
0.0
 100
AcDbRotatedDimension
   0
DIMENSION
   5
23E
 100
AcDbEntity
   8
LEVEL001
   6
CONTINUOUS
  62
2
 100
AcDbDimension
   2
*D11
  10
 251.79323171360
  20
 100.52190103137
  30
0.0
  11
 251.79323171360
  21
 110.02190103137
  31
0.0
  70
0
   3
GMM001
 100
AcDbAlignedDimension
  13
 238.69434008542
  23
 119.52190103137
  33
0.0
  14
 238.69434008542
  24
 100.52190103137
  34
0.0
  50
 270.00000000000
 100
AcDbRotatedDimension
   0
LINE
   5
23F
 100
AcDbEntity
   8
LEVEL001
 100
AcDbLine
   6
CONTINUOUS
  62
3
  10
 397.27518809912
  20
 76.294037337527
  30
0.0
  11
 397.27518809912
  21
 51.294037337527
  31
0.0
   0
LINE
   5
240
 100
AcDbEntity
   8
LEVEL001
 100
AcDbLine
   6
CONTINUOUS
  62
3
  10
 338.36427364484
  20
 76.294037337527
  30
0.0
  11
 338.36427364484
  21
 51.294037337527
  31
0.0
   0
LINE
   5
241
 100
AcDbEntity
   8
LEVEL001
 100
AcDbLine
   6
CONTINUOUS
  62
3
  10
 365.26810845310
  20
 76.294037337527
  30
0.0
  11
 365.26810845310
  21
 51.294037337527
  31
0.0
   0
TEXT
   5
242
 100
AcDbEntity
   8
LEVEL001
  62
14
 100
AcDbText
  10
 276.72713223134
  20
 77.539081646824
  30
0.0
  40
 3.8000000000000
   1
表１
   7
STANDARD
 100
AcDbText
   0
LINE
   5
243
 100
AcDbEntity
   8
LEVEL001
 100
AcDbLine
   6
CONTINUOUS
  62
3
  10
 275.54185476578
  20
 51.294037337527
  30
0.0
  11
 275.54185476578
  21
 76.294037337527
  31
0.0
   0
LINE
   5
244
 100
AcDbEntity
   8
LEVEL001
 100
AcDbLine
   6
CONTINUOUS
  62
3
  10
 305.54185476578
  20
 76.294037337527
  30
0.0
  11
 305.54185476578
  21
 51.294037337527
  31
0.0
   0
LINE
   5
245
 100
AcDbEntity
   8
LEVEL001
 100
AcDbLine
   6
CONTINUOUS
  62
3
  10
 275.54185476578
  20
 63.294037337527
  30
0.0
  11
 365.26810845310
  21
 63.294037337527
  31
0.0
   0
LINE
   5
246
 100
AcDbEntity
   8
LEVEL001
 100
AcDbLine
   6
CONTINUOUS
  62
3
  10
 275.54185476578
  20
 57.294037337527
  30
0.0
  11
 365.26810845310
  21
 57.294037337527
  31
0.0
   0
TEXT
   5
247
 100
AcDbEntity
   8
LEVEL001
  62
14
 100
AcDbText
  10
 284.80938759401
  20
 70.644996877378
  30
0.0
  40
 3.8000000000000
   1
品　番
   7
STANDARD
 100
AcDbText
   0
TEXT
   5
248
 100
AcDbEntity
   8
LEVEL001
  62
14
 100
AcDbText
  10
 307.16848297257
  20
 70.437327260859
  30
0.0
  40
 3.8000000000000
   1
Ｐ（取付ピッチ）
   7
STANDARD
 100
AcDbText
   0
TEXT
   5
249
 100
AcDbEntity
   8
LEVEL001
  62
14
 100
AcDbText
  10
 277.15149932730
  20
 63.878430017751
  30
0.0
  40
 3.8000000000000
   1
２２６－０３５
   7
STANDARD
 100
AcDbText
   0
TEXT
   5
24A
 100
AcDbEntity
   8
LEVEL001
  62
14
 100
AcDbText
  10
 277.15149932730
  20
 57.878430017751
  30
0.0
  40
 3.8000000000000
   1
２２６－０６０
   7
STANDARD
 100
AcDbText
   0
TEXT
   5
24B
 100
AcDbEntity
   8
LEVEL001
  62
14
 100
AcDbText
  10
 277.15149932730
  20
 51.878430017751
  30
0.0
  40
 3.8000000000000
   1
２２６－１２０
   7
STANDARD
 100
AcDbText
   0
TEXT
   5
24C
 100
AcDbEntity
   8
LEVEL001
  62
14
 100
AcDbText
  10
 316.25435085139
  20
 57.878430017751
  30
0.0
  40
 3.8000000000000
   1
　６０
   7
STANDARD
 100
AcDbText
   0
TEXT
   5
24D
 100
AcDbEntity
   8
LEVEL001
  62
14
 100
AcDbText
  10
 316.25435085139
  20
 63.878430017751
  30
0.0
  40
 3.8000000000000
   1
　３５
   7
STANDARD
 100
AcDbText
   0
TEXT
   5
24E
 100
AcDbEntity
   8
LEVEL001
  62
14
 100
AcDbText
  10
 316.25435085139
  20
 51.878430017751
  30
0.0
  40
 3.8000000000000
   1
１２０
   7
STANDARD
 100
AcDbText
   0
TEXT
   5
24F
 100
AcDbEntity
   8
LEVEL001
  62
14
 100
AcDbText
  10
 345.95110601363
  20
 51.878430017751
  30
0.0
  40
 3.8000000000000
   1
１３４
   7
STANDARD
 100
AcDbText
   0
TEXT
   5
250
 100
AcDbEntity
   8
LEVEL001
  62
14
 100
AcDbText
  10
 345.95110601363
  20
 57.878430017751
  30
0.0
  40
 3.8000000000000
   1
　７５
   7
STANDARD
 100
AcDbText
   0
TEXT
   5
251
 100
AcDbEntity
   8
LEVEL001
  62
14
 100
AcDbText
  10
 345.95110601363
  20
 63.878430017751
  30
0.0
  40
 3.8000000000000
   1
　４５
   7
STANDARD
 100
AcDbText
   0
TEXT
   5
252
 100
AcDbEntity
   8
LEVEL001
  62
14
 100
AcDbText
  10
 345.95890354103
  20
 70.437327260859
  30
0.0
  40
 3.8000000000000
   1
全　長
   7
STANDARD
 100
AcDbText
   0
LINE
   5
253
 100
AcDbEntity
   8
LEVEL001
 100
AcDbLine
   6
CONTINUOUS
  62
3
  10
 275.54185476578
  20
 76.294037337527
  30
0.0
  11
 397.27518809912
  21
 76.294037337527
  31
0.0
   0
LINE
   5
254
 100
AcDbEntity
   8
LEVEL001
 100
AcDbLine
   6
CONTINUOUS
  62
3
  10
 275.54185476578
  20
 69.294037337527
  30
0.0
  11
 397.27518809912
  21
 69.294037337527
  31
0.0
   0
LINE
   5
255
 100
AcDbEntity
   8
LEVEL001
 100
AcDbLine
   6
CONTINUOUS
  62
3
  10
 275.54185476578
  20
 51.294037337527
  30
0.0
  11
 397.27518809912
  21
 51.294037337527
  31
0.0
   0
TEXT
   5
256
 100
AcDbEntity
   8
LEVEL001
  62
14
 100
AcDbText
  10
 369.24385929324
  20
 70.437327260859
  30
0.0
  40
 3.8000000000000
   1
仕上げ／色調
   7
STANDARD
 100
AcDbText
   0
TEXT
   5
257
 100
AcDbEntity
   8
LEVEL001
  62
14
 100
AcDbText
  10
 368.30154849151
  20
 57.878430017751
  30
0.0
  40
 3.8000000000000
   1
サテンシルバー
   7
STANDARD
 100
AcDbText
   0
LINE
   5
258
 100
AcDbEntity
   8
LEVEL001
 100
AcDbLine
   6
CONTINUOUS
  62
7
  10
 106.15614006433
  20
 239.23387466089
  30
0.0
  11
 106.15614006433
  21
 242.73387466089
  31
0.0
   0
LINE
   5
259
 100
AcDbEntity
   8
LEVEL001
 100
AcDbLine
   6
CONTINUOUS
  62
7
  10
 106.15614006433
  20
 223.73387466089
  30
0.0
  11
 106.15614006433
  21
 239.23387466089
  31
0.0
   0
LINE
   5
25A
 100
AcDbEntity
   8
LEVEL001
 100
AcDbLine
   6
CONTINUOUS
  62
7
  10
 61.156140064331
  20
 223.73387466089
  30
0.0
  11
 106.15614006433
  21
 223.73387466089
  31
0.0
   0
LINE
   5
25B
 100
AcDbEntity
   8
LEVEL001
 100
AcDbLine
   6
CONTINUOUS
  62
7
  10
 61.156140064331
  20
 242.73387466089
  30
0.0
  11
 106.15614006433
  21
 242.73387466089
  31
0.0
   0
LINE
   5
25C
 100
AcDbEntity
   8
LEVEL001
 100
AcDbLine
   6
CONTINUOUS
  62
7
  10
 61.156140064331
  20
 239.23387466089
  30
0.0
  11
 106.15614006433
  21
 239.23387466089
  31
0.0
   0
LINE
   5
25D
 100
AcDbEntity
   8
LEVEL001
 100
AcDbLine
   6
DOT
  62
1
  10
 106.15614006433
  20
 240.03387466089
  30
0.0
  11
 61.156140064331
  21
 240.03387466089
  31
0.0
   0
LINE
   5
25E
 100
AcDbEntity
   8
LEVEL001
 100
AcDbLine
   6
DOT
  62
1
  10
 102.80614006433
  20
 233.73387466089
  30
0.0
  11
 102.80614006433
  21
 236.73387466089
  31
0.0
   0
LINE
   5
25F
 100
AcDbEntity
   8
LEVEL001
 100
AcDbLine
   6
DOT
  62
1
  10
 101.15614006433
  20
 233.73387466089
  30
0.0
  11
 102.80614006433
  21
 233.73387466089
  31
0.0
   0
LINE
   5
260
 100
AcDbEntity
   8
LEVEL001
 100
AcDbLine
   6
DOT
  62
1
  10
 102.80614006433
  20
 233.73387466089
  30
0.0
  11
 103.15614006433
  21
 233.73387466089
  31
0.0
   0
LINE
   5
261
 100
AcDbEntity
   8
LEVEL001
 100
AcDbLine
   6
DOT
  62
1
  10
 101.15614006433
  20
 236.73387466089
  30
0.0
  11
 102.80614006433
  21
 236.73387466089
  31
0.0
   0
LINE
   5
262
 100
AcDbEntity
   8
LEVEL001
 100
AcDbLine
   6
DOT
  62
1
  10
 101.15614006433
  20
 224.23387466089
  30
0.0
  11
 102.80614006433
  21
 224.23387466089
  31
0.0
   0
LINE
   5
263
 100
AcDbEntity
   8
LEVEL001
 100
AcDbLine
   6
DOT
  62
1
  10
 102.80614006433
  20
 224.23387466089
  30
0.0
  11
 103.15614006423
  21
 224.23387466089
  31
0.0
   0
LINE
   5
264
 100
AcDbEntity
   8
LEVEL001
 100
AcDbLine
   6
DOT
  62
1
  10
 103.15614006433
  20
 224.23387466078
  30
0.0
  11
 103.65614006423
  21
 223.73387466089
  31
0.0
   0
LINE
   5
265
 100
AcDbEntity
   8
LEVEL001
 100
AcDbLine
   6
DOT
  62
1
  10
 102.80614006433
  20
 224.23387466089
  30
0.0
  11
 102.80614006433
  21
 233.73387466089
  31
0.0
   0
LINE
   5
266
 100
AcDbEntity
   8
LEVEL001
 100
AcDbLine
   6
DOT
  62
1
  10
 103.15614006433
  20
 224.23387466078
  30
0.0
  11
 103.15614006433
  21
 233.73387466089
  31
0.0
   0
LINE
   5
267
 100
AcDbEntity
   8
LEVEL001
 100
AcDbLine
   6
DOT
  62
1
  10
 101.15614006433
  20
 236.73387466089
  30
0.0
  11
 99.506140064331
  21
 236.73387466089
  31
0.0
   0
LINE
   5
268
 100
AcDbEntity
   8
LEVEL001
 100
AcDbLine
   6
DOT
  62
1
  10
 99.506140064331
  20
 233.73387466089
  30
0.0
  11
 99.506140064331
  21
 236.73387466089
  31
0.0
   0
LINE
   5
269
 100
AcDbEntity
   8
LEVEL001
 100
AcDbLine
   6
DOT
  62
1
  10
 101.15614006433
  20
 233.73387466089
  30
0.0
  11
 99.506140064331
  21
 233.73387466089
  31
0.0
   0
LINE
   5
26A
 100
AcDbEntity
   8
LEVEL001
 100
AcDbLine
   6
DOT
  62
1
  10
 99.506140064331
  20
 233.73387466089
  30
0.0
  11
 99.156140064331
  21
 233.73387466089
  31
0.0
   0
LINE
   5
26B
 100
AcDbEntity
   8
LEVEL001
 100
AcDbLine
   6
DOT
  62
1
  10
 98.659473146950
  20
 223.73720774364
  30
0.0
  11
 99.156140064197
  21
 224.23387466089
  31
0.0
   0
LINE
   5
26C
 100
AcDbEntity
   8
LEVEL001
 100
AcDbLine
   6
DOT
  62
1
  10
 99.156140064331
  20
 224.23387466089
  30
0.0
  11
 99.506140064331
  21
 224.23387466089
  31
0.0
   0
LINE
   5
26D
 100
AcDbEntity
   8
LEVEL001
 100
AcDbLine
   6
DOT
  62
1
  10
 99.506140064331
  20
 224.23387466089
  30
0.0
  11
 101.15614006433
  21
 224.23387466089
  31
0.0
   0
LINE
   5
26E
 100
AcDbEntity
   8
LEVEL001
 100
AcDbLine
   6
DOT
  62
1
  10
 99.156140064331
  20
 224.23387466089
  30
0.0
  11
 99.156140064331
  21
 233.73387466089
  31
0.0
   0
LINE
   5
26F
 100
AcDbEntity
   8
LEVEL001
 100
AcDbLine
   6
DOT
  62
1
  10
 99.506140064331
  20
 224.23387466089
  30
0.0
  11
 99.506140064331
  21
 233.73387466089
  31
0.0
   0
LINE
   5
270
 100
AcDbEntity
   8
LEVEL001
 100
AcDbLine
   6
DASHDOT
  62
2
  10
 101.15614006433
  20
 238.61775599454
  30
0.0
  11
 101.15614006433
  21
 220.12482192884
  31
0.0
   0
LINE
   5
271
 100
AcDbEntity
   8
LEVEL001
 100
AcDbLine
   6
CONTINUOUS
  62
7
  10
 146.30567495895
  20
 223.73387466089
  30
0.0
  11
 147.30567495905
  21
 223.73387466089
  31
0.0
   0
LINE
   5
272
 100
AcDbEntity
   8
LEVEL001
 100
AcDbLine
   6
CONTINUOUS
  62
7
  10
 147.30567495905
  20
 223.73387466089
  30
0.0
  11
 147.30567495905
  21
 239.23387466089
  31
0.0
   0
LINE
   5
273
 100
AcDbEntity
   8
LEVEL001
 100
AcDbLine
   6
CONTINUOUS
  62
7
  10
 140.30567495905
  20
 242.73387466089
  30
0.0
  11
 143.80567495905
  21
 242.73387466089
  31
0.0
   0
ARC
   5
274
 100
AcDbEntity
   8
LEVEL001
   6
CONTINUOUS
  62
7
 100
AcDbCircle
  10
 133.80567495905
  20
 240.73387466089
  30
0.0
  40
 1.5000000000000
 100
AcDbArc
  50
 180.00000000000
  51
 270.00000000005
   0
POINT
   5
275
 100
AcDbEntity
   8
LEVEL001
 100
AcDbPoint
  62
7
  10
 132.30567495905
  20
 239.23387466089
  30
0.0
   0
LINE
   5
276
 100
AcDbEntity
   8
LEVEL001
 100
AcDbLine
   6
CONTINUOUS
  62
7
  10
 133.80567495905
  20
 239.23387466089
  30
0.0
  11
 135.26606715362
  21
 239.23387466089
  31
0.0
   0
POINT
   5
277
 100
AcDbEntity
   8
LEVEL001
 100
AcDbPoint
  62
7
  10
 147.30567495905
  20
 242.73387466089
  30
0.0
   0
ARC
   5
278
 100
AcDbEntity
   8
LEVEL001
   6
CONTINUOUS
  62
7
 100
AcDbCircle
  10
 137.30567495905
  20
 237.03387466089
  30
0.0
  40
 3.0000000000000
 100
AcDbArc
  50
 0.43425173250911E-11
  51
 132.83342806606
   0
LINE
   5
279
 100
AcDbEntity
   8
LEVEL001
 100
AcDbLine
   6
CONTINUOUS
  62
7
  10
 140.30567495905
  20
 223.73387466089
  30
0.0
  11
 140.30567495905
  21
 237.03387466089
  31
0.0
   0
LINE
   5
27A
 100
AcDbEntity
   8
LEVEL001
 100
AcDbLine
   6
CONTINUOUS
  62
7
  10
 132.30567495905
  20
 240.73387466089
  30
0.0
  11
 132.30567495905
  21
 241.93387466089
  31
0.0
   0
ARC
   5
27B
 100
AcDbEntity
   8
LEVEL001
   6
CONTINUOUS
  62
7
 100
AcDbCircle
  10
 133.10567495905
  20
 241.93387466089
  30
0.0
  40
 0.80000000000000
 100
AcDbArc
  50
 89.999999999691
  51
 180.00000000000
   0
POINT
   5
27C
 100
AcDbEntity
   8
LEVEL001
 100
AcDbPoint
  62
7
  10
 132.30567495905
  20
 242.73387466089
  30
0.0
   0
LINE
   5
27D
 100
AcDbEntity
   8
LEVEL001
 100
AcDbLine
   6
CONTINUOUS
  62
7
  10
 133.10567495905
  20
 242.73387466089
  30
0.0
  11
 140.30567495905
  21
 242.73387466089
  31
0.0
   0
LINE
   5
27E
 100
AcDbEntity
   8
LEVEL001
 100
AcDbLine
   6
CONTINUOUS
  62
7
  10
 143.80567495905
  20
 242.73387466089
  30
0.0
  11
 146.50567495905
  21
 242.73387466089
  31
0.0
   0
ARC
   5
27F
 100
AcDbEntity
   8
LEVEL001
   6
CONTINUOUS
  62
7
 100
AcDbCircle
  10
 146.50567495905
  20
 241.93387466089
  30
0.0
  40
 0.80000000000000
 100
AcDbArc
  50
0.0
  51
 90.000000000002
   0
POINT
   5
280
 100
AcDbEntity
   8
LEVEL001
 100
AcDbPoint
  62
7
  10
 147.30567495905
  20
 242.73387466089
  30
0.0
   0
LINE
   5
281
 100
AcDbEntity
   8
LEVEL001
 100
AcDbLine
   6
CONTINUOUS
  62
7
  10
 147.30567495905
  20
 239.23387466089
  30
0.0
  11
 147.30567495905
  21
 241.93387466089
  31
0.0
   0
LINE
   5
282
 100
AcDbEntity
   8
LEVEL001
 100
AcDbLine
   6
CONTINUOUS
  62
7
  10
 143.80567495905
  20
 224.08387466102
  30
0.0
  11
 144.15567495905
  21
 223.73387466102
  31
0.0
   0
LINE
   5
283
 100
AcDbEntity
   8
LEVEL001
 100
AcDbLine
   6
CONTINUOUS
  62
7
  10
 144.15567495918
  20
 223.73387466089
  30
0.0
  11
 146.30567495895
  21
 223.73387466089
  31
0.0
   0
LINE
   5
284
 100
AcDbEntity
   8
LEVEL001
 100
AcDbLine
   6
CONTINUOUS
  62
7
  10
 143.80567495905
  20
 224.08387466102
  30
0.0
  11
 143.45567495905
  21
 223.73387466102
  31
0.0
   0
LINE
   5
285
 100
AcDbEntity
   8
LEVEL001
 100
AcDbLine
   6
CONTINUOUS
  62
7
  10
 140.30567495905
  20
 223.73387466089
  30
0.0
  11
 143.45567495892
  21
 223.73387466089
  31
0.0
   0
LINE
   5
286
 100
AcDbEntity
   8
LEVEL001
 100
AcDbLine
   6
DASHDOT
  62
2
  10
 143.80567495905
  20
 240.26606269835
  30
0.0
  11
 143.80567495905
  21
 220.12482192884
  31
0.0
   0
LINE
   5
287
 100
AcDbEntity
   8
LEVEL001
 100
AcDbLine
   6
DOT
  62
1
  10
 145.45567495905
  20
 233.73387466089
  30
0.0
  11
 145.45567495905
  21
 236.73387466089
  31
0.0
   0
LINE
   5
288
 100
AcDbEntity
   8
LEVEL001
 100
AcDbLine
   6
DOT
  62
1
  10
 143.80567495905
  20
 233.73387466089
  30
0.0
  11
 145.45567495905
  21
 233.73387466089
  31
0.0
   0
LINE
   5
289
 100
AcDbEntity
   8
LEVEL001
 100
AcDbLine
   6
DOT
  62
1
  10
 145.45567495905
  20
 233.73387466089
  30
0.0
  11
 145.80567495905
  21
 233.73387466089
  31
0.0
   0
LINE
   5
28A
 100
AcDbEntity
   8
LEVEL001
 100
AcDbLine
   6
DOT
  62
1
  10
 143.80567495905
  20
 236.73387466089
  30
0.0
  11
 145.45567495905
  21
 236.73387466089
  31
0.0
   0
LINE
   5
28B
 100
AcDbEntity
   8
LEVEL001
 100
AcDbLine
   6
DOT
  62
1
  10
 145.45567495905
  20
 224.23387466089
  30
0.0
  11
 145.45567495905
  21
 233.73387466089
  31
0.0
   0
LINE
   5
28C
 100
AcDbEntity
   8
LEVEL001
 100
AcDbLine
   6
DOT
  62
1
  10
 145.80567495905
  20
 224.23387466078
  30
0.0
  11
 145.80567495905
  21
 233.73387466089
  31
0.0
   0
LINE
   5
28D
 100
AcDbEntity
   8
LEVEL001
 100
AcDbLine
   6
DOT
  62
1
  10
 143.80567495905
  20
 236.73387466089
  30
0.0
  11
 142.15567495905
  21
 236.73387466089
  31
0.0
   0
LINE
   5
28E
 100
AcDbEntity
   8
LEVEL001
 100
AcDbLine
   6
DOT
  62
1
  10
 142.15567495905
  20
 233.73387466089
  30
0.0
  11
 142.15567495905
  21
 236.73387466089
  31
0.0
   0
LINE
   5
28F
 100
AcDbEntity
   8
LEVEL001
 100
AcDbLine
   6
DOT
  62
1
  10
 143.80567495905
  20
 233.73387466089
  30
0.0
  11
 142.15567495905
  21
 233.73387466089
  31
0.0
   0
LINE
   5
290
 100
AcDbEntity
   8
LEVEL001
 100
AcDbLine
   6
DOT
  62
1
  10
 142.15567495905
  20
 233.73387466089
  30
0.0
  11
 141.80567495905
  21
 233.73387466089
  31
0.0
   0
LINE
   5
291
 100
AcDbEntity
   8
LEVEL001
 100
AcDbLine
   6
DOT
  62
1
  10
 141.80567495905
  20
 224.23387466089
  30
0.0
  11
 141.80567495905
  21
 233.73387466089
  31
0.0
   0
LINE
   5
292
 100
AcDbEntity
   8
LEVEL001
 100
AcDbLine
   6
DOT
  62
1
  10
 142.15567495905
  20
 224.23387466089
  30
0.0
  11
 142.15567495905
  21
 233.73387466089
  31
0.0
   0
LINE
   5
293
 100
AcDbEntity
   8
LEVEL001
 100
AcDbLine
   6
DOT
  62
1
  10
 141.30900804167
  20
 223.73720774364
  30
0.0
  11
 141.80567495892
  21
 224.23387466089
  31
0.0
   0
LINE
   5
294
 100
AcDbEntity
   8
LEVEL001
 100
AcDbLine
   6
DOT
  62
1
  10
 145.80567495905
  20
 224.23387466078
  30
0.0
  11
 146.30567495895
  21
 223.73387466089
  31
0.0
   0
LINE
   5
295
 100
AcDbEntity
   8
LEVEL001
 100
AcDbLine
   6
DOT
  62
1
  10
 141.80567495905
  20
 224.23387466089
  30
0.0
  11
 145.80567495905
  21
 224.23387466089
  31
0.0
   0
LINE
   5
296
 100
AcDbEntity
   8
LEVEL001
 100
AcDbLine
   6
CONTINUOUS
  62
7
  10
 105.74371504800
  20
 178.70836220684
  30
0.0
  11
 105.74371504800
  21
 186.70836220684
  31
0.0
   0
LINE
   5
297
 100
AcDbEntity
   8
LEVEL001
 100
AcDbLine
   6
CONTINUOUS
  62
7
  10
 105.74371504800
  20
 171.70836220684
  30
0.0
  11
 105.74371504800
  21
 175.20836220684
  31
0.0
   0
LINE
   5
298
 100
AcDbEntity
   8
LEVEL001
 100
AcDbLine
   6
CONTINUOUS
  62
7
  10
 105.74371504800
  20
 175.20836220684
  30
0.0
  11
 105.74371504800
  21
 178.70836220684
  31
0.0
   0
LINE
   5
299
 100
AcDbEntity
   8
LEVEL001
 100
AcDbLine
   6
DASHDOT
  62
2
  10
 57.946908810177
  20
 175.20836220684
  30
0.0
  11
 108.18494754073
  21
 175.20836220684
  31
0.0
   0
LINE
   5
29A
 100
AcDbEntity
   8
LEVEL001
 100
AcDbLine
   6
CONTINUOUS
  62
7
  10
 60.743715047998
  20
 186.70836220684
  30
0.0
  11
 105.74371504800
  21
 186.70836220684
  31
0.0
   0
LINE
   5
29B
 100
AcDbEntity
   8
LEVEL001
 100
AcDbLine
   6
CONTINUOUS
  62
7
  10
 60.743715047998
  20
 178.70836220684
  30
0.0
  11
 105.74371504800
  21
 178.70836220684
  31
0.0
   0
LINE
   5
29C
 100
AcDbEntity
   8
LEVEL001
 100
AcDbLine
   6
CONTINUOUS
  62
7
  10
 60.743715047998
  20
 171.70836220684
  30
0.0
  11
 105.74371504800
  21
 171.70836220684
  31
0.0
   0
CIRCLE
   5
29D
 100
AcDbEntity
   8
LEVEL001
 100
AcDbCircle
   6
CONTINUOUS
  62
2
  10
 100.74371504800
  20
 175.20836220684
  30
0.0
  40
 1.6500000000000
   0
CIRCLE
   5
29E
 100
AcDbEntity
   8
LEVEL001
 100
AcDbCircle
   6
CONTINUOUS
  62
7
  10
 100.74371504800
  20
 175.20836220684
  30
0.0
  40
 2.5000000000000
   0
CIRCLE
   5
29F
 100
AcDbEntity
   8
LEVEL001
 100
AcDbCircle
   6
CONTINUOUS
  62
7
  10
 100.74371504800
  20
 175.20836220684
  30
0.0
  40
 2.0000000000000
   0
LINE
   5
2A0
 100
AcDbEntity
   8
LEVEL001
 100
AcDbLine
   6
DASHDOT
  62
2
  10
 100.74371504800
  20
 179.48947008401
  30
0.0
  11
 100.74371504800
  21
 170.20226971621
  31
0.0
   0
LINE
   5
2A1
 100
AcDbEntity
   8
LEVEL001
 100
AcDbLine
   6
CONTINUOUS
  62
7
  10
 68.219093806895
  20
 175.55836220684
  30
0.0
  11
 98.268336289100
  21
 175.55836220684
  31
0.0
   0
LINE
   5
2A2
 100
AcDbEntity
   8
LEVEL001
 100
AcDbLine
   6
CONTINUOUS
  62
7
  10
 68.219093806895
  20
 174.85836220684
  30
0.0
  11
 98.268336289100
  21
 174.85836220684
  31
0.0
   0
LINE
   5
2A3
 100
AcDbEntity
   8
LEVEL001
 100
AcDbLine
   6
CONTINUOUS
  62
7
  10
 103.21909380689
  20
 175.55836220684
  30
0.0
  11
 105.74371504800
  21
 175.55836220684
  31
0.0
   0
LINE
   5
2A4
 100
AcDbEntity
   8
LEVEL001
 100
AcDbLine
   6
CONTINUOUS
  62
7
  10
 103.21909380689
  20
 174.85836220684
  30
0.0
  11
 105.74371504800
  21
 174.85836220684
  31
0.0
   0
DIMENSION
   5
2A5
 100
AcDbEntity
   8
LEVEL001
   6
CONTINUOUS
  62
2
 100
AcDbDimension
   2
*D12
  10
 147.30567495905
  20
 253.56517995345
  30
0.0
  11
 139.80567495905
  21
 253.56517995345
  31
0.0
  70
0
   3
GMM001
 100
AcDbAlignedDimension
  13
 132.30567495905
  23
 243.65716358634
  33
0.0
  14
 147.30567495905
  24
 243.65716358634
  34
0.0
 100
AcDbRotatedDimension
   0
DIMENSION
   5
2A6
 100
AcDbEntity
   8
LEVEL001
   6
CONTINUOUS
  62
2
 100
AcDbDimension
   2
*D13
  10
 105.74371504800
  20
 198.67449226727
  30
0.0
  11
 83.243715047998
  21
 198.67449226727
  31
0.0
  70
0
   3
GMM001
 100
AcDbAlignedDimension
  13
 60.743715047998
  23
 187.63165113230
  33
0.0
  14
 105.74371504800
  24
 187.63165113230
  34
0.0
 100
AcDbRotatedDimension
   0
DIMENSION
   5
2A7
 100
AcDbEntity
   8
LEVEL001
   6
CONTINUOUS
  62
2
 100
AcDbDimension
   2
*D14
  10
 101.15614006433
  20
 209.59442047750
  30
0.0
  11
 83.656140064331
  21
 209.59442047750
  31
0.0
  70
0
   3
GMM001
 100
AcDbAlignedDimension
  13
 66.156140064331
  23
 209.59442047750
  33
0.0
  14
 101.15614006433
  24
 219.22868856002
  34
0.0
 100
AcDbRotatedDimension
   0
DIMENSION
   5
2A8
 100
AcDbEntity
   8
LEVEL001
   6
CONTINUOUS
  62
2
 100
AcDbDimension
   2
*D15
  10
 106.15614006433
  20
 209.59442047750
  30
0.0
  11
 103.65614006433
  21
 209.59442047750
  31
0.0
  70
0
   3
GMM001
 100
AcDbAlignedDimension
  13
 101.15614006433
  23
 209.59442047750
  33
0.0
  14
 106.15614006433
  24
 222.83774129207
  34
0.0
 100
AcDbRotatedDimension
   0
DIMENSION
   5
2A9
 100
AcDbEntity
   8
LEVEL001
   6
CONTINUOUS
  62
2
 100
AcDbDimension
   2
*D16
  10
 147.30567495905
  20
 209.59442047750
  30
0.0
  11
 143.80567495905
  21
 209.59442047750
  31
0.0
  70
0
   3
GMM001
 100
AcDbAlignedDimension
  13
 140.30567495905
  23
 222.83774129207
  33
0.0
  14
 147.30567495905
  24
 222.83774129207
  34
0.0
 100
AcDbRotatedDimension
   0
DIMENSION
   5
2AA
 100
AcDbEntity
   8
LEVEL001
   6
CONTINUOUS
  62
2
 100
AcDbDimension
   2
*D17
  10
 161.26252825864
  20
 223.73387466089
  30
0.0
  11
 161.26252825864
  21
 233.23387466089
  31
0.0
  70
0
   3
GMM001
 100
AcDbAlignedDimension
  13
 148.33758611103
  23
 242.73387466089
  33
0.0
  14
 148.33758611103
  24
 223.73387466089
  34
0.0
  50
 270.00000000000
 100
AcDbRotatedDimension
   0
LINE
   5
2AB
 100
AcDbEntity
   8
LEVEL001
 100
AcDbLine
   6
DASHDOT
  62
2
  10
 83.656140064331
  20
 246.86625632120
  30
0.0
  11
 83.656140064331
  21
 217.04945514038
  31
0.0
   0
LINE
   5
2AC
 100
AcDbEntity
   8
LEVEL001
 100
AcDbLine
   6
DASHDOT
  62
2
  10
 83.243715047998
  20
 190.38448570982
  30
0.0
  11
 83.243715047998
  21
 166.06668474678
  31
0.0
   0
LINE
   5
2AD
 100
AcDbEntity
   8
LEVEL001
 100
AcDbLine
   6
CONTINUOUS
  62
7
  10
 301.95099663024
  20
 239.23387466089
  30
0.0
  11
 301.95099663024
  21
 242.73387466089
  31
0.0
   0
LINE
   5
2AE
 100
AcDbEntity
   8
LEVEL001
 100
AcDbLine
   6
CONTINUOUS
  62
7
  10
 301.95099663024
  20
 223.73387466089
  30
0.0
  11
 301.95099663024
  21
 239.23387466089
  31
0.0
   0
LINE
   5
2AF
 100
AcDbEntity
   8
LEVEL001
 100
AcDbLine
   6
CONTINUOUS
  62
7
  10
 226.95099663024
  20
 223.73387466089
  30
0.0
  11
 301.95099663024
  21
 223.73387466089
  31
0.0
   0
LINE
   5
2B0
 100
AcDbEntity
   8
LEVEL001
 100
AcDbLine
   6
CONTINUOUS
  62
7
  10
 226.95099663024
  20
 242.73387466089
  30
0.0
  11
 301.95099663024
  21
 242.73387466089
  31
0.0
   0
LINE
   5
2B1
 100
AcDbEntity
   8
LEVEL001
 100
AcDbLine
   6
CONTINUOUS
  62
7
  10
 226.95099663024
  20
 239.23387466089
  30
0.0
  11
 301.95099663024
  21
 239.23387466089
  31
0.0
   0
LINE
   5
2B2
 100
AcDbEntity
   8
LEVEL001
 100
AcDbLine
   6
DOT
  62
1
  10
 301.95099663024
  20
 240.03387466089
  30
0.0
  11
 226.95099663024
  21
 240.03387466089
  31
0.0
   0
LINE
   5
2B3
 100
AcDbEntity
   8
LEVEL001
 100
AcDbLine
   6
DOT
  62
1
  10
 296.10099663024
  20
 233.73387466089
  30
0.0
  11
 296.10099663024
  21
 236.73387466089
  31
0.0
   0
LINE
   5
2B4
 100
AcDbEntity
   8
LEVEL001
 100
AcDbLine
   6
DOT
  62
1
  10
 294.45099663024
  20
 233.73387466089
  30
0.0
  11
 296.10099663024
  21
 233.73387466089
  31
0.0
   0
LINE
   5
2B5
 100
AcDbEntity
   8
LEVEL001
 100
AcDbLine
   6
DOT
  62
1
  10
 296.10099663024
  20
 233.73387466089
  30
0.0
  11
 296.45099663024
  21
 233.73387466089
  31
0.0
   0
LINE
   5
2B6
 100
AcDbEntity
   8
LEVEL001
 100
AcDbLine
   6
DOT
  62
1
  10
 294.45099663024
  20
 236.73387466089
  30
0.0
  11
 296.10099663024
  21
 236.73387466089
  31
0.0
   0
LINE
   5
2B7
 100
AcDbEntity
   8
LEVEL001
 100
AcDbLine
   6
DOT
  62
1
  10
 294.45099663024
  20
 224.23387466089
  30
0.0
  11
 296.10099663024
  21
 224.23387466089
  31
0.0
   0
LINE
   5
2B8
 100
AcDbEntity
   8
LEVEL001
 100
AcDbLine
   6
DOT
  62
1
  10
 296.10099663024
  20
 224.23387466089
  30
0.0
  11
 296.45099663014
  21
 224.23387466089
  31
0.0
   0
LINE
   5
2B9
 100
AcDbEntity
   8
LEVEL001
 100
AcDbLine
   6
DOT
  62
1
  10
 296.45099663024
  20
 224.23387466078
  30
0.0
  11
 296.95099663014
  21
 223.73387466089
  31
0.0
   0
LINE
   5
2BA
 100
AcDbEntity
   8
LEVEL001
 100
AcDbLine
   6
DOT
  62
1
  10
 296.10099663024
  20
 224.23387466089
  30
0.0
  11
 296.10099663024
  21
 233.73387466089
  31
0.0
   0
LINE
   5
2BB
 100
AcDbEntity
   8
LEVEL001
 100
AcDbLine
   6
DOT
  62
1
  10
 296.45099663024
  20
 224.23387466078
  30
0.0
  11
 296.45099663024
  21
 233.73387466089
  31
0.0
   0
LINE
   5
2BC
 100
AcDbEntity
   8
LEVEL001
 100
AcDbLine
   6
DOT
  62
1
  10
 294.45099663024
  20
 236.73387466089
  30
0.0
  11
 292.80099663024
  21
 236.73387466089
  31
0.0
   0
LINE
   5
2BD
 100
AcDbEntity
   8
LEVEL001
 100
AcDbLine
   6
DOT
  62
1
  10
 292.80099663024
  20
 233.73387466089
  30
0.0
  11
 292.80099663024
  21
 236.73387466089
  31
0.0
   0
LINE
   5
2BE
 100
AcDbEntity
   8
LEVEL001
 100
AcDbLine
   6
DOT
  62
1
  10
 294.45099663024
  20
 233.73387466089
  30
0.0
  11
 292.80099663024
  21
 233.73387466089
  31
0.0
   0
LINE
   5
2BF
 100
AcDbEntity
   8
LEVEL001
 100
AcDbLine
   6
DOT
  62
1
  10
 292.80099663024
  20
 233.73387466089
  30
0.0
  11
 292.45099663024
  21
 233.73387466089
  31
0.0
   0
LINE
   5
2C0
 100
AcDbEntity
   8
LEVEL001
 100
AcDbLine
   6
DOT
  62
1
  10
 291.95432971286
  20
 223.73720774364
  30
0.0
  11
 292.45099663011
  21
 224.23387466089
  31
0.0
   0
LINE
   5
2C1
 100
AcDbEntity
   8
LEVEL001
 100
AcDbLine
   6
DOT
  62
1
  10
 292.45099663024
  20
 224.23387466089
  30
0.0
  11
 292.80099663024
  21
 224.23387466089
  31
0.0
   0
LINE
   5
2C2
 100
AcDbEntity
   8
LEVEL001
 100
AcDbLine
   6
DOT
  62
1
  10
 292.80099663024
  20
 224.23387466089
  30
0.0
  11
 294.45099663024
  21
 224.23387466089
  31
0.0
   0
LINE
   5
2C3
 100
AcDbEntity
   8
LEVEL001
 100
AcDbLine
   6
DOT
  62
1
  10
 292.45099663024
  20
 224.23387466089
  30
0.0
  11
 292.45099663024
  21
 233.73387466089
  31
0.0
   0
LINE
   5
2C4
 100
AcDbEntity
   8
LEVEL001
 100
AcDbLine
   6
DOT
  62
1
  10
 292.80099663024
  20
 224.23387466089
  30
0.0
  11
 292.80099663024
  21
 233.73387466089
  31
0.0
   0
LINE
   5
2C5
 100
AcDbEntity
   8
LEVEL001
 100
AcDbLine
   6
DASHDOT
  62
2
  10
 294.45099663024
  20
 238.61775599454
  30
0.0
  11
 294.45099663024
  21
 220.12482192884
  31
0.0
   0
LINE
   5
2C6
 100
AcDbEntity
   8
LEVEL001
 100
AcDbLine
   6
CONTINUOUS
  62
7
  10
 342.10053152486
  20
 223.73387466089
  30
0.0
  11
 343.10053152496
  21
 223.73387466089
  31
0.0
   0
LINE
   5
2C7
 100
AcDbEntity
   8
LEVEL001
 100
AcDbLine
   6
CONTINUOUS
  62
7
  10
 343.10053152496
  20
 223.73387466089
  30
0.0
  11
 343.10053152496
  21
 239.23387466089
  31
0.0
   0
LINE
   5
2C8
 100
AcDbEntity
   8
LEVEL001
 100
AcDbLine
   6
CONTINUOUS
  62
7
  10
 336.10053152496
  20
 242.73387466089
  30
0.0
  11
 339.60053152496
  21
 242.73387466089
  31
0.0
   0
ARC
   5
2C9
 100
AcDbEntity
   8
LEVEL001
   6
CONTINUOUS
  62
7
 100
AcDbCircle
  10
 329.60053152496
  20
 240.73387466089
  30
0.0
  40
 1.5000000000000
 100
AcDbArc
  50
 180.00000000000
  51
 270.00000000011
   0
POINT
   5
2CA
 100
AcDbEntity
   8
LEVEL001
 100
AcDbPoint
  62
7
  10
 328.10053152496
  20
 239.23387466089
  30
0.0
   0
LINE
   5
2CB
 100
AcDbEntity
   8
LEVEL001
 100
AcDbLine
   6
CONTINUOUS
  62
7
  10
 329.60053152496
  20
 239.23387466089
  30
0.0
  11
 331.06092371953
  21
 239.23387466089
  31
0.0
   0
POINT
   5
2CC
 100
AcDbEntity
   8
LEVEL001
 100
AcDbPoint
  62
7
  10
 343.10053152496
  20
 242.73387466089
  30
0.0
   0
ARC
   5
2CD
 100
AcDbEntity
   8
LEVEL001
   6
CONTINUOUS
  62
7
 100
AcDbCircle
  10
 333.10053152496
  20
 237.03387466089
  30
0.0
  40
 3.0000000000000
 100
AcDbArc
  50
 0.48853319907275E-11
  51
 132.83342806606
   0
LINE
   5
2CE
 100
AcDbEntity
   8
LEVEL001
 100
AcDbLine
   6
CONTINUOUS
  62
7
  10
 336.10053152496
  20
 223.73387466089
  30
0.0
  11
 336.10053152496
  21
 237.03387466089
  31
0.0
   0
LINE
   5
2CF
 100
AcDbEntity
   8
LEVEL001
 100
AcDbLine
   6
CONTINUOUS
  62
7
  10
 328.10053152496
  20
 240.73387466089
  30
0.0
  11
 328.10053152496
  21
 241.93387466089
  31
0.0
   0
ARC
   5
2D0
 100
AcDbEntity
   8
LEVEL001
   6
CONTINUOUS
  62
7
 100
AcDbCircle
  10
 328.90053152495
  20
 241.93387466089
  30
0.0
  40
 0.80000000000000
 100
AcDbArc
  50
 89.999999999418
  51
 180.00000000000
   0
POINT
   5
2D1
 100
AcDbEntity
   8
LEVEL001
 100
AcDbPoint
  62
7
  10
 328.10053152496
  20
 242.73387466089
  30
0.0
   0
LINE
   5
2D2
 100
AcDbEntity
   8
LEVEL001
 100
AcDbLine
   6
CONTINUOUS
  62
7
  10
 328.90053152496
  20
 242.73387466089
  30
0.0
  11
 336.10053152496
  21
 242.73387466089
  31
0.0
   0
LINE
   5
2D3
 100
AcDbEntity
   8
LEVEL001
 100
AcDbLine
   6
CONTINUOUS
  62
7
  10
 339.60053152496
  20
 242.73387466089
  30
0.0
  11
 342.30053152496
  21
 242.73387466089
  31
0.0
   0
ARC
   5
2D4
 100
AcDbEntity
   8
LEVEL001
   6
CONTINUOUS
  62
7
 100
AcDbCircle
  10
 342.30053152496
  20
 241.93387466088
  30
0.0
  40
 0.80000000000000
 100
AcDbArc
  50
 0.30940435941277E-9
  51
 90.000000000000
   0
POINT
   5
2D5
 100
AcDbEntity
   8
LEVEL001
 100
AcDbPoint
  62
7
  10
 343.10053152496
  20
 242.73387466089
  30
0.0
   0
LINE
   5
2D6
 100
AcDbEntity
   8
LEVEL001
 100
AcDbLine
   6
CONTINUOUS
  62
7
  10
 343.10053152496
  20
 239.23387466089
  30
0.0
  11
 343.10053152496
  21
 241.93387466089
  31
0.0
   0
LINE
   5
2D7
 100
AcDbEntity
   8
LEVEL001
 100
AcDbLine
   6
CONTINUOUS
  62
7
  10
 339.60053152496
  20
 224.08387466102
  30
0.0
  11
 339.95053152496
  21
 223.73387466102
  31
0.0
   0
LINE
   5
2D8
 100
AcDbEntity
   8
LEVEL001
 100
AcDbLine
   6
CONTINUOUS
  62
7
  10
 339.95053152509
  20
 223.73387466089
  30
0.0
  11
 342.10053152486
  21
 223.73387466089
  31
0.0
   0
LINE
   5
2D9
 100
AcDbEntity
   8
LEVEL001
 100
AcDbLine
   6
CONTINUOUS
  62
7
  10
 339.60053152496
  20
 224.08387466102
  30
0.0
  11
 339.25053152496
  21
 223.73387466102
  31
0.0
   0
LINE
   5
2DA
 100
AcDbEntity
   8
LEVEL001
 100
AcDbLine
   6
CONTINUOUS
  62
7
  10
 336.10053152496
  20
 223.73387466089
  30
0.0
  11
 339.25053152483
  21
 223.73387466089
  31
0.0
   0
LINE
   5
2DB
 100
AcDbEntity
   8
LEVEL001
 100
AcDbLine
   6
DASHDOT
  62
2
  10
 339.60053152496
  20
 240.26606269835
  30
0.0
  11
 339.60053152496
  21
 220.12482192884
  31
0.0
   0
LINE
   5
2DC
 100
AcDbEntity
   8
LEVEL001
 100
AcDbLine
   6
DOT
  62
1
  10
 341.25053152496
  20
 233.73387466089
  30
0.0
  11
 341.25053152496
  21
 236.73387466089
  31
0.0
   0
LINE
   5
2DD
 100
AcDbEntity
   8
LEVEL001
 100
AcDbLine
   6
DOT
  62
1
  10
 339.60053152496
  20
 233.73387466089
  30
0.0
  11
 341.25053152496
  21
 233.73387466089
  31
0.0
   0
LINE
   5
2DE
 100
AcDbEntity
   8
LEVEL001
 100
AcDbLine
   6
DOT
  62
1
  10
 341.25053152496
  20
 233.73387466089
  30
0.0
  11
 341.60053152496
  21
 233.73387466089
  31
0.0
   0
LINE
   5
2DF
 100
AcDbEntity
   8
LEVEL001
 100
AcDbLine
   6
DOT
  62
1
  10
 339.60053152496
  20
 236.73387466089
  30
0.0
  11
 341.25053152496
  21
 236.73387466089
  31
0.0
   0
LINE
   5
2E0
 100
AcDbEntity
   8
LEVEL001
 100
AcDbLine
   6
DOT
  62
1
  10
 341.25053152496
  20
 224.23387466089
  30
0.0
  11
 341.25053152496
  21
 233.73387466089
  31
0.0
   0
LINE
   5
2E1
 100
AcDbEntity
   8
LEVEL001
 100
AcDbLine
   6
DOT
  62
1
  10
 341.60053152496
  20
 224.23387466078
  30
0.0
  11
 341.60053152496
  21
 233.73387466089
  31
0.0
   0
LINE
   5
2E2
 100
AcDbEntity
   8
LEVEL001
 100
AcDbLine
   6
DOT
  62
1
  10
 339.60053152496
  20
 236.73387466089
  30
0.0
  11
 337.95053152496
  21
 236.73387466089
  31
0.0
   0
LINE
   5
2E3
 100
AcDbEntity
   8
LEVEL001
 100
AcDbLine
   6
DOT
  62
1
  10
 337.95053152496
  20
 233.73387466089
  30
0.0
  11
 337.95053152496
  21
 236.73387466089
  31
0.0
   0
LINE
   5
2E4
 100
AcDbEntity
   8
LEVEL001
 100
AcDbLine
   6
DOT
  62
1
  10
 339.60053152496
  20
 233.73387466089
  30
0.0
  11
 337.95053152496
  21
 233.73387466089
  31
0.0
   0
LINE
   5
2E5
 100
AcDbEntity
   8
LEVEL001
 100
AcDbLine
   6
DOT
  62
1
  10
 337.95053152496
  20
 233.73387466089
  30
0.0
  11
 337.60053152496
  21
 233.73387466089
  31
0.0
   0
LINE
   5
2E6
 100
AcDbEntity
   8
LEVEL001
 100
AcDbLine
   6
DOT
  62
1
  10
 337.60053152496
  20
 224.23387466089
  30
0.0
  11
 337.60053152496
  21
 233.73387466089
  31
0.0
   0
LINE
   5
2E7
 100
AcDbEntity
   8
LEVEL001
 100
AcDbLine
   6
DOT
  62
1
  10
 337.95053152496
  20
 224.23387466089
  30
0.0
  11
 337.95053152496
  21
 233.73387466089
  31
0.0
   0
LINE
   5
2E8
 100
AcDbEntity
   8
LEVEL001
 100
AcDbLine
   6
DOT
  62
1
  10
 337.10386460758
  20
 223.73720774364
  30
0.0
  11
 337.60053152483
  21
 224.23387466089
  31
0.0
   0
LINE
   5
2E9
 100
AcDbEntity
   8
LEVEL001
 100
AcDbLine
   6
DOT
  62
1
  10
 341.60053152496
  20
 224.23387466078
  30
0.0
  11
 342.10053152486
  21
 223.73387466089
  31
0.0
   0
LINE
   5
2EA
 100
AcDbEntity
   8
LEVEL001
 100
AcDbLine
   6
DOT
  62
1
  10
 337.60053152496
  20
 224.23387466089
  30
0.0
  11
 341.60053152496
  21
 224.23387466089
  31
0.0
   0
LINE
   5
2EB
 100
AcDbEntity
   8
LEVEL001
 100
AcDbLine
   6
CONTINUOUS
  62
7
  10
 301.53857161391
  20
 178.70836220684
  30
0.0
  11
 301.53857161391
  21
 186.70836220684
  31
0.0
   0
LINE
   5
2EC
 100
AcDbEntity
   8
LEVEL001
 100
AcDbLine
   6
CONTINUOUS
  62
7
  10
 301.53857161391
  20
 171.70836220684
  30
0.0
  11
 301.53857161391
  21
 175.20836220684
  31
0.0
   0
LINE
   5
2ED
 100
AcDbEntity
   8
LEVEL001
 100
AcDbLine
   6
CONTINUOUS
  62
7
  10
 301.53857161391
  20
 175.20836220684
  30
0.0
  11
 301.53857161391
  21
 178.70836220684
  31
0.0
   0
LINE
   5
2EE
 100
AcDbEntity
   8
LEVEL001
 100
AcDbLine
   6
DASHDOT
  62
2
  10
 223.74176537609
  20
 175.20836220684
  30
0.0
  11
 303.97980410664
  21
 175.20836220684
  31
0.0
   0
LINE
   5
2EF
 100
AcDbEntity
   8
LEVEL001
 100
AcDbLine
   6
CONTINUOUS
  62
7
  10
 226.53857161391
  20
 186.70836220684
  30
0.0
  11
 301.53857161391
  21
 186.70836220684
  31
0.0
   0
LINE
   5
2F0
 100
AcDbEntity
   8
LEVEL001
 100
AcDbLine
   6
CONTINUOUS
  62
7
  10
 226.53857161391
  20
 178.70836220684
  30
0.0
  11
 301.53857161391
  21
 178.70836220684
  31
0.0
   0
LINE
   5
2F1
 100
AcDbEntity
   8
LEVEL001
 100
AcDbLine
   6
CONTINUOUS
  62
7
  10
 226.53857161391
  20
 171.70836220684
  30
0.0
  11
 301.53857161391
  21
 171.70836220684
  31
0.0
   0
CIRCLE
   5
2F2
 100
AcDbEntity
   8
LEVEL001
 100
AcDbCircle
   6
CONTINUOUS
  62
2
  10
 294.03857161391
  20
 175.20836220684
  30
0.0
  40
 1.6500000000000
   0
CIRCLE
   5
2F3
 100
AcDbEntity
   8
LEVEL001
 100
AcDbCircle
   6
CONTINUOUS
  62
7
  10
 294.03857161391
  20
 175.20836220684
  30
0.0
  40
 2.5000000000000
   0
CIRCLE
   5
2F4
 100
AcDbEntity
   8
LEVEL001
 100
AcDbCircle
   6
CONTINUOUS
  62
7
  10
 294.03857161391
  20
 175.20836220684
  30
0.0
  40
 2.0000000000000
   0
LINE
   5
2F5
 100
AcDbEntity
   8
LEVEL001
 100
AcDbLine
   6
DASHDOT
  62
2
  10
 294.03857161391
  20
 179.48947008401
  30
0.0
  11
 294.03857161391
  21
 170.20226971621
  31
0.0
   0
LINE
   5
2F6
 100
AcDbEntity
   8
LEVEL001
 100
AcDbLine
   6
CONTINUOUS
  62
7
  10
 296.51395037280
  20
 175.55836220684
  30
0.0
  11
 301.53857161391
  21
 175.55836220684
  31
0.0
   0
LINE
   5
2F7
 100
AcDbEntity
   8
LEVEL001
 100
AcDbLine
   6
CONTINUOUS
  62
7
  10
 296.51395037280
  20
 174.85836220684
  30
0.0
  11
 301.53857161391
  21
 174.85836220684
  31
0.0
   0
LINE
   5
2F8
 100
AcDbEntity
   8
LEVEL001
 100
AcDbLine
   6
CONTINUOUS
  62
7
  10
 236.51395037280
  20
 175.55836220684
  30
0.0
  11
 291.56319285501
  21
 175.55836220684
  31
0.0
   0
LINE
   5
2F9
 100
AcDbEntity
   8
LEVEL001
 100
AcDbLine
   6
CONTINUOUS
  62
7
  10
 236.51395037280
  20
 174.85836220684
  30
0.0
  11
 291.56319285501
  21
 174.85836220684
  31
0.0
   0
DIMENSION
   5
2FA
 100
AcDbEntity
   8
LEVEL001
   6
CONTINUOUS
  62
2
 100
AcDbDimension
   2
*D18
  10
 343.10053152496
  20
 253.56517995345
  30
0.0
  11
 335.60053152496
  21
 253.56517995345
  31
0.0
  70
0
   3
GMM001
 100
AcDbAlignedDimension
  13
 328.10053152496
  23
 243.65716358634
  33
0.0
  14
 343.10053152496
  24
 243.65716358634
  34
0.0
 100
AcDbRotatedDimension
   0
DIMENSION
   5
2FB
 100
AcDbEntity
   8
LEVEL001
   6
CONTINUOUS
  62
2
 100
AcDbDimension
   2
*D19
  10
 301.53857161391
  20
 198.67449226727
  30
0.0
  11
 264.03857161391
  21
 198.67449226727
  31
0.0
  70
0
   3
GMM001
 100
AcDbAlignedDimension
  13
 226.53857161391
  23
 187.63165113230
  33
0.0
  14
 301.53857161391
  24
 187.63165113230
  34
0.0
 100
AcDbRotatedDimension
   0
DIMENSION
   5
2FC
 100
AcDbEntity
   8
LEVEL001
   6
CONTINUOUS
  62
2
 100
AcDbDimension
   2
*D20
  10
 343.10053152496
  20
 209.59442047750
  30
0.0
  11
 339.60053152496
  21
 209.59442047750
  31
0.0
  70
0
   3
GMM001
 100
AcDbAlignedDimension
  13
 336.10053152496
  23
 222.83774129207
  33
0.0
  14
 343.10053152496
  24
 222.83774129207
  34
0.0
 100
AcDbRotatedDimension
   0
DIMENSION
   5
2FD
 100
AcDbEntity
   8
LEVEL001
   6
CONTINUOUS
  62
2
 100
AcDbDimension
   2
*D21
  10
 294.45099663024
  20
 209.59442047750
  30
0.0
  11
 264.45099663024
  21
 209.59442047750
  31
0.0
  70
0
   3
GMM001
 100
AcDbAlignedDimension
  13
 234.45099663024
  23
 209.59442047750
  33
0.0
  14
 294.45099663024
  24
 219.22868856002
  34
0.0
 100
AcDbRotatedDimension
   0
DIMENSION
   5
2FE
 100
AcDbEntity
   8
LEVEL001
   6
CONTINUOUS
  62
2
 100
AcDbDimension
   2
*D22
  10
 355.95155085853
  20
 223.73387466089
  30
0.0
  11
 355.95155085853
  21
 233.23387466089
  31
0.0
  70
0
   3
GMM001
 100
AcDbAlignedDimension
  13
 344.13244267694
  23
 242.73387466089
  33
0.0
  14
 344.13244267694
  24
 223.73387466089
  34
0.0
  50
 270.00000000000
 100
AcDbRotatedDimension
   0
LINE
   5
2FF
 100
AcDbEntity
   8
LEVEL001
 100
AcDbLine
   6
DASHDOT
  62
2
  10
 264.45099663024
  20
 246.86625632120
  30
0.0
  11
 264.45099663024
  21
 217.04945514038
  31
0.0
   0
LINE
   5
300
 100
AcDbEntity
   8
LEVEL001
 100
AcDbLine
   6
DASHDOT
  62
2
  10
 264.03857161391
  20
 190.38448570982
  30
0.0
  11
 264.03857161391
  21
 166.06668474678
  31
0.0
   0
DIMENSION
   5
301
 100
AcDbEntity
   8
LEVEL001
   6
CONTINUOUS
  62
2
 100
AcDbDimension
   2
*D23
  10
 234.45099663024
  20
 209.59442047750
  30
0.0
  11
 220.42135061254
  21
 209.59442047750
  31
0.0
  70
128
   3
GMM002
 100
AcDbAlignedDimension
  13
 226.95099663024
  23
 222.83774129207
  33
0.0
  14
 234.45099663024
  24
 219.22868856002
  34
0.0
 100
AcDbRotatedDimension
   0
DIMENSION
   5
302
 100
AcDbEntity
   8
LEVEL001
   6
CONTINUOUS
  62
2
 100
AcDbDimension
   2
*D24
  10
 301.95099663024
  20
 209.59442047750
  30
0.0
  11
 308.63639486033
  21
 209.59442047750
  31
0.0
  70
128
   3
GMM002
 100
AcDbAlignedDimension
  13
 294.45099663024
  23
 209.59442047750
  33
0.0
  14
 301.95099663024
  24
 222.83774129207
  34
0.0
 100
AcDbRotatedDimension
   0
ENDSEC
  0
SECTION
  2
OBJECTS
  0
DICTIONARY
  5
C
100
AcDbDictionary
  3
ACAD_GROUP
350
D
  3
ACAD_MLINESTYLE
350
1B
  0
DICTIONARY
  5
D
102
{ACAD_REACTORS
330
C
102
}
100
AcDbDictionary
  0
DICTIONARY
  5
1B
102
{ACAD_REACTORS
330
C
102
}
100
AcDbDictionary
  3
STANDARD
350
1C
  0
MLINESTYLE
  5
1C
102
{ACAD_REACTORS
330
1B
102
}
100
AcDbMlineStyle
  2
STANDARD
 70
     0
  3

 62
   256
 51
90.0
 52
90.0
 71
     2
 49
0.5
 62
   256
  6
BYLAYER
 49
-0.5
 62
   256
  6
BYLAYER
  0
ENDSEC
   0
EOF
