   0
SECTION
   2
HEADER
   9
$ACADVER
   1
AC1015
   9
$LIMMIN
  10
0.0
  20
0.0
   9
$LIMMAX
  10
 420.00000000000
  20
 297.00000000000
   9
$EXTMIN
  10
0.0
  20
0.0
  30
0.0
   9
$EXTMAX
  10
 420.00000000000
  20
 297.00000000000
  30
0.0
   9
$LTSCALE
  40
 8.4000000000000
   9
$HANDSEED
   5
376
   0
ENDSEC
   0
SECTION
   2
TABLES
  0
TABLE
  2
VPORT
  5
8
100
AcDbSymbolTable
 70
     1
  0
VPORT
  5
375
100
AcDbSymbolTableRecord
100
AcDbViewportTableRecord
  2
*ACTIVE
 70
     0
 10
0.0
 20
0.0
 11
1.0
 21
1.0
  12
 210.00000000000
  22
 148.50000000000
 13
0.0
 23
0.0
 14
1.0
 24
1.0
 15
0.0
 25
0.0
 16
0.0
 26
0.0
 36
1.0
 17
0.0
 27
0.0
 37
0.0
  40
 420.00000000000
  41
 1.4787878787879
 42
50.0
 43
0.0
 44
0.0
 50
0.0
 51
0.0
 71
     0
 72
   100
 73
     1
 74
     1
 75
     0
 76
     0
 77
     0
 78
     0
  0
ENDTAB
  0
TABLE
  2
LTYPE
  5
5
100
AcDbSymbolTable
 70
    25
  0
LTYPE
  5
12
100
AcDbSymbolTableRecord
100
AcDbLinetypeTableRecord
  2
BYBLOCK
 70
     0
  3

 72
    65
 73
     0
 40
0.0
  0
LTYPE
  5
13
100
AcDbSymbolTableRecord
100
AcDbLinetypeTableRecord
  2
BYLAYER
 70
     0
  3

 72
    65
 73
     0
 40
0.0
  0
LTYPE
  5
14
100
AcDbSymbolTableRecord
100
AcDbLinetypeTableRecord
  2
CONTINUOUS
 70
     0
  3
Solid line
 72
    65
 73
     0
 40
0.0
  0
LTYPE
  5
20
100
AcDbSymbolTableRecord
100
AcDbLinetypeTableRecord
  2
BORDER
 70
     0
  3
__ __ . __ __ . __ __ . __ __ . __ __ . __ __ .
 72
    65
 73
     6
 40
1.75
 49
0.5
 74
     0
 49
-0.25
 74
     0
 49
0.5
 74
     0
 49
-0.25
 74
     0
 49
0.0
 74
     0
 49
-0.25
 74
     0
  0
LTYPE
  5
21
100
AcDbSymbolTableRecord
100
AcDbLinetypeTableRecord
  2
BORDER2
 70
     0
  3
__.__.__.__.__.__.__.__.__.__.__.__.__.__.__.__
 72
    65
 73
     6
 40
0.875
 49
0.25
 74
     0
 49
-0.125
 74
     0
 49
0.25
 74
     0
 49
-0.125
 74
     0
 49
0.0
 74
     0
 49
-0.125
 74
     0
  0
LTYPE
  5
22
100
AcDbSymbolTableRecord
100
AcDbLinetypeTableRecord
  2
BORDERX2
 70
     0
  3
____  ____  .  ____  ____  .  ____  ____  .  __
 72
    65
 73
     6
 40
3.5
 49
1.0
 74
     0
 49
-0.5
 74
     0
 49
1.0
 74
     0
 49
-0.5
 74
     0
 49
0.0
 74
     0
 49
-0.5
 74
     0
  0
LTYPE
  5
23
100
AcDbSymbolTableRecord
100
AcDbLinetypeTableRecord
  2
CENTER
 70
     0
  3
____ _ ____ _ ____ _ ____ _ ____ _ ____ _ ____ 
 72
    65
 73
     4
 40
2.0
 49
1.25
 74
     0
 49
-0.25
 74
     0
 49
0.25
 74
     0
 49
-0.25
 74
     0
  0
LTYPE
  5
24
100
AcDbSymbolTableRecord
100
AcDbLinetypeTableRecord
  2
CENTER2
 70
     0
  3
___ _ ___ _ ___ _ ___ _ ___ _ ___ _ ___ _ ___ _
 72
    65
 73
     4
 40
1.125
 49
0.75
 74
     0
 49
-0.125
 74
     0
 49
0.125
 74
     0
 49
-0.125
 74
     0
  0
LTYPE
  5
25
100
AcDbSymbolTableRecord
100
AcDbLinetypeTableRecord
  2
CENTERX2
 70
     0
  3
________  __  ________  __  ________  __  _____
 72
    65
 73
     4
 40
4.0
 49
2.5
 74
     0
 49
-0.5
 74
     0
 49
0.5
 74
     0
 49
-0.5
 74
     0
  0
LTYPE
  5
26
100
AcDbSymbolTableRecord
100
AcDbLinetypeTableRecord
  2
DASHDOT
 70
     0
  3
__ . __ . __ . __ . __ . __ . __ . __ . __ . __
 72
    65
 73
     4
 40
1.0
 49
0.5
 74
     0
 49
-0.25
 74
     0
 49
0.0
 74
     0
 49
-0.25
 74
     0
  0
LTYPE
  5
27
100
AcDbSymbolTableRecord
100
AcDbLinetypeTableRecord
  2
DASHDOT2
 70
     0
  3
_._._._._._._._._._._._._._._._._._._._._._._._
 72
    65
 73
     4
 40
0.5
 49
0.25
 74
     0
 49
-0.125
 74
     0
 49
0.0
 74
     0
 49
-0.125
 74
     0
  0
LTYPE
  5
28
100
AcDbSymbolTableRecord
100
AcDbLinetypeTableRecord
  2
DASHDOTX2
 70
     0
  3
____  .  ____  .  ____  .  ____  .  ____  .  __
 72
    65
 73
     4
 40
2.0
 49
1.0
 74
     0
 49
-0.5
 74
     0
 49
0.0
 74
     0
 49
-0.5
 74
     0
  0
LTYPE
  5
29
100
AcDbSymbolTableRecord
100
AcDbLinetypeTableRecord
  2
DASHED
 70
     0
  3
__ __ __ __ __ __ __ __ __ __ __ __ __ __ __ __
 72
    65
 73
     2
 40
0.75
 49
0.5
 74
     0
 49
-0.25
 74
     0
  0
LTYPE
  5
2A
100
AcDbSymbolTableRecord
100
AcDbLinetypeTableRecord
  2
DASHED2
 70
     0
  3
_ _ _ _ _ _ _ _ _ _ _ _ _ _ _ _ _ _ _ _ _ _ _ _
 72
    65
 73
     2
 40
0.375
 49
0.25
 74
     0
 49
-0.125
 74
     0
  0
LTYPE
  5
2B
100
AcDbSymbolTableRecord
100
AcDbLinetypeTableRecord
  2
DASHEDX2
 70
     0
  3
____  ____  ____  ____  ____  ____  ____  ____ 
 72
    65
 73
     2
 40
1.5
 49
1.0
 74
     0
 49
-0.5
 74
     0
  0
LTYPE
  5
2C
100
AcDbSymbolTableRecord
100
AcDbLinetypeTableRecord
  2
DIVIDE
 70
     0
  3
____ . . ____ . . ____ . . ____ . . ____ . . __
 72
    65
 73
     6
 40
1.25
 49
0.5
 74
     0
 49
-0.25
 74
     0
 49
0.0
 74
     0
 49
-0.25
 74
     0
 49
0.0
 74
     0
 49
-0.25
 74
     0
  0
LTYPE
  5
2D
100
AcDbSymbolTableRecord
100
AcDbLinetypeTableRecord
  2
DIVIDE2
 70
     0
  3
__..__..__..__..__..__..__..__..__..__..__..__.
 72
    65
 73
     6
 40
0.625
 49
0.25
 74
     0
 49
-0.125
 74
     0
 49
0.0
 74
     0
 49
-0.125
 74
     0
 49
0.0
 74
     0
 49
-0.125
 74
     0
  0
LTYPE
  5
2E
100
AcDbSymbolTableRecord
100
AcDbLinetypeTableRecord
  2
DIVIDEX2
 70
     0
  3
________  .  .  ________  .  .  ________  .  . 
 72
    65
 73
     6
 40
2.5
 49
1.0
 74
     0
 49
-0.5
 74
     0
 49
0.0
 74
     0
 49
-0.5
 74
     0
 49
0.0
 74
     0
 49
-0.5
 74
     0
  0
LTYPE
  5
2F
100
AcDbSymbolTableRecord
100
AcDbLinetypeTableRecord
  2
DOT
 70
     0
  3
. . . . . . . . . . . . . . . . . . . . . . . .
 72
    65
 73
     2
 40
0.25
 49
0.0
 74
     0
 49
-0.25
 74
     0
  0
LTYPE
  5
30
100
AcDbSymbolTableRecord
100
AcDbLinetypeTableRecord
  2
DOT2
 70
     0
  3
...............................................
 72
    65
 73
     2
 40
0.125
 49
0.0
 74
     0
 49
-0.125
 74
     0
  0
LTYPE
  5
31
100
AcDbSymbolTableRecord
100
AcDbLinetypeTableRecord
  2
DOTX2
 70
     0
  3
.  .  .  .  .  .  .  .  .  .  .  .  .  .  .  . 
 72
    65
 73
     2
 40
0.5
 49
0.0
 74
     0
 49
-0.5
 74
     0
  0
LTYPE
  5
32
100
AcDbSymbolTableRecord
100
AcDbLinetypeTableRecord
  2
HIDDEN
 70
     0
  3
__ __ __ __ __ __ __ __ __ __ __ __ __ __ __ __
 72
    65
 73
     2
 40
0.375
 49
0.25
 74
     0
 49
-0.125
 74
     0
  0
LTYPE
  5
33
100
AcDbSymbolTableRecord
100
AcDbLinetypeTableRecord
  2
HIDDEN2
 70
     0
  3
_ _ _ _ _ _ _ _ _ _ _ _ _ _ _ _ _ _ _ _ _ _ _ _
 72
    65
 73
     2
 40
0.1875
 49
0.125
 74
     0
 49
-0.0625
 74
     0
  0
LTYPE
  5
34
100
AcDbSymbolTableRecord
100
AcDbLinetypeTableRecord
  2
HIDDENX2
 70
     0
  3
____ ____ ____ ____ ____ ____ ____ ____ ____ __
 72
    65
 73
     2
 40
0.75
 49
0.5
 74
     0
 49
-0.25
 74
     0
  0
LTYPE
  5
35
100
AcDbSymbolTableRecord
100
AcDbLinetypeTableRecord
  2
PHANTOM
 70
     0
  3
______  __  __  ______  __  __  ______  __  __ 
 72
    65
 73
     6
 40
2.5
 49
1.25
 74
     0
 49
-0.25
 74
     0
 49
0.25
 74
     0
 49
-0.25
 74
     0
 49
0.25
 74
     0
 49
-0.25
 74
     0
  0
LTYPE
  5
36
100
AcDbSymbolTableRecord
100
AcDbLinetypeTableRecord
  2
PHANTOM2
 70
     0
  3
___ _ _ ___ _ _ ___ _ _ ___ _ _ ___ _ _ ___ _ _
 72
    65
 73
     6
 40
1.25
 49
0.625
 74
     0
 49
-0.125
 74
     0
 49
0.125
 74
     0
 49
-0.125
 74
     0
 49
0.125
 74
     0
 49
-0.125
 74
     0
  0
LTYPE
  5
37
100
AcDbSymbolTableRecord
100
AcDbLinetypeTableRecord
  2
PHANTOMX2
 70
     0
  3
____________    ____    ____    ____________   
 72
    65
 73
     6
 40
5.0
 49
2.5
 74
     0
 49
-0.5
 74
     0
 49
0.5
 74
     0
 49
-0.5
 74
     0
 49
0.5
 74
     0
 49
-0.5
 74
     0
  0
ENDTAB
   0
TABLE
   2
LAYER
   5
2
 100
AcDbSymbolTable
  70
2
   0
LAYER
   5
E
 100
AcDbSymbolTableRecord
 100
AcDbLayerTableRecord
   2
0
  70
0
  62
7
   6
CONTINUOUS
 390
30
   0
LAYER
   5
39
 100
AcDbSymbolTableRecord
 100
AcDbLayerTableRecord
   2
LEVEL001
  70
0
  62
7
   6
CONTINUOUS
 390
30
   0
ENDTAB
  0
TABLE
  2
STYLE
  5
3
100
AcDbSymbolTable
  70
3
  0
STYLE
  5
F
100
AcDbSymbolTableRecord
100
AcDbTextStyleTableRecord
  2
STANDARD
 70
     0
 40
0.0
 41
1.0
 50
0.0
 71
     0
 42
0.2
  3
TXT
  4
BIGFONT
  0
STYLE
  5
38
100
AcDbSymbolTableRecord
100
AcDbTextStyleTableRecord
  2
STANDARD1
 70
     4
 40
0.0
 41
1.0
 50
0.0
 71
     0
 42
0.2
  3
TXT
  4
BIGFONT
   0
STYLE
   5
3A
 100
AcDbSymbolTableRecord
 100
AcDbTextStyleTableRecord
   2
GMM001
  70
0
  40
0.0
  41
 0.95000000000000
  50
0.0
  71
     0
  42
1.0
   3
txt.shx
   4
bigfont.shx
   0
ENDTAB
  0
TABLE
  2
VIEW
  5
6
100
AcDbSymbolTable
 70
     0
  0
ENDTAB
  0
TABLE
  2
UCS
  5
7
100
AcDbSymbolTable
 70
     0
  0
ENDTAB
  0
TABLE
  2
APPID
  5
9
100
AcDbSymbolTable
 70
     1
  0
APPID
  5
10
100
AcDbSymbolTableRecord
100
AcDbRegAppTableRecord
  2
ACAD
 70
     0
  0
ENDTAB
   0
TABLE
   2
DIMSTYLE
   5
A
 100
AcDbSymbolTable
  70
7
 100
AcDbDimStyleTable
  0
DIMSTYLE
105
1D
100
AcDbSymbolTableRecord
100
AcDbDimStyleTableRecord
  2
STANDARD
 70
     0
  3

  4

  5

  6

  7

 40
1.0
 41
0.18
 42
0.0625
 43
0.38
 44
0.18
 45
0.0
 46
0.0
 47
0.0
 48
0.0
140
0.18
141
0.09
142
0.0
143
25.4
144
1.0
145
0.0
146
1.0
147
0.09
 71
     0
 72
     0
 73
     1
 74
     1
 75
     0
 76
     0
 77
     0
 78
     0
170
     0
171
     2
172
     0
173
     0
174
     0
175
     0
176
     0
177
     0
178
     0
270
     2
271
     4
272
     4
273
     2
274
     2
340
F
275
     0
280
     0
281
     0
282
     0
283
     1
284
     0
285
     0
286
     0
287
     3
288
     0
   0
DIMSTYLE
 105
3B
 100
AcDbSymbolTableRecord
 100
AcDbDimStyleTableRecord
   2
GMM001
  70
0
   3
R<>
   4

   5

   6
_NONE
   7
_OPEN30
  40
 1.0000000000000
  41
 3.0000000000000
  42
 0.50000000000000
  43
 8.0000000000000
  44
 1.0000000000000
  45
0.0
  46
0.0
  47
0.0
  48
0.0
 140
 4.0000000000000
 141
 1.0000000000000
 142
0.0
 143
 0.39400000000000E-1
 144
 1.0000000000000
 145
0.0
 146
 0.62500000000000
 147
 1.7142857142857
  71
0
  72
0
  73
0
  74
0
  75
0
  76
0
  77
3
  78
8
 170
0
 171
2
 172
1
 173
1
 174
0
 175
0
 176
3
 177
3
 178
3
 270
2
 271
6
 272
0
 273
2
 274
2
 340
3A
 275
1
 280
0
 281
0
 282
0
 283
1
 284
0
 285
0
 286
0
 287
3
 288
1
   0
DIMSTYLE
 105
3C
 100
AcDbSymbolTableRecord
 100
AcDbDimStyleTableRecord
   2
GMM002
  70
0
   3

   4

   5

   6
_OPEN30
   7
_OPEN30
  40
 1.0000000000000
  41
 3.0000000000000
  42
 0.50000000000000
  43
 8.0000000000000
  44
 1.0000000000000
  45
0.0
  46
0.0
  47
0.0
  48
0.0
 140
 4.0000000000000
 141
 1.0000000000000
 142
0.0
 143
 0.39400000000000E-1
 144
 1.0000000000000
 145
0.0
 146
 0.62500000000000
 147
 1.7142857142857
  71
0
  72
0
  73
0
  74
0
  75
0
  76
0
  77
3
  78
8
 170
0
 171
2
 172
1
 173
1
 174
0
 175
0
 176
3
 177
3
 178
3
 270
2
 271
6
 272
0
 273
2
 274
2
 340
3A
 275
1
 280
0
 281
0
 282
0
 283
1
 284
0
 285
0
 286
0
 287
3
 288
0
   0
DIMSTYLE
 105
3D
 100
AcDbSymbolTableRecord
 100
AcDbDimStyleTableRecord
   2
GMM003
  70
0
   3

   4

   5

   6
_OPEN30
   7
_OPEN30
  40
 1.0000000000000
  41
 3.0000000000000
  42
 0.50000000000000
  43
 8.0000000000000
  44
 1.0000000000000
  45
0.0
  46
0.0
  47
0.0
  48
0.0
 140
 4.0000000000000
 141
 1.0000000000000
 142
0.0
 143
 0.39400000000000E-1
 144
 1.0000000000000
 145
0.0
 146
 0.62500000000000
 147
 1.8495587766701
  71
0
  72
0
  73
0
  74
0
  75
0
  76
0
  77
3
  78
8
 170
0
 171
2
 172
1
 173
1
 174
0
 175
0
 176
3
 177
3
 178
3
 270
2
 271
6
 272
0
 273
2
 274
2
 340
3A
 275
1
 280
0
 281
0
 282
0
 283
1
 284
0
 285
0
 286
0
 287
3
 288
1
   0
DIMSTYLE
 105
3E
 100
AcDbSymbolTableRecord
 100
AcDbDimStyleTableRecord
   2
GMM004
  70
0
   3

   4

   5

   6
_OPEN30
   7
_OPEN30
  40
 1.0000000000000
  41
 3.0000000000000
  42
 0.50000000000000
  43
 8.0000000000000
  44
 1.0000000000000
  45
0.0
  46
0.0
  47
0.0
  48
0.0
 140
 4.0000000000000
 141
 1.0000000000000
 142
0.0
 143
 0.39400000000000E-1
 144
 1.0000000000000
 145
0.0
 146
 0.62500000000000
 147
 1.5483256159133
  71
0
  72
0
  73
0
  74
0
  75
0
  76
0
  77
3
  78
8
 170
0
 171
2
 172
1
 173
1
 174
0
 175
0
 176
3
 177
3
 178
3
 270
2
 271
6
 272
0
 273
2
 274
2
 340
3A
 275
1
 280
0
 281
0
 282
0
 283
1
 284
0
 285
0
 286
0
 287
3
 288
1
   0
DIMSTYLE
 105
3F
 100
AcDbSymbolTableRecord
 100
AcDbDimStyleTableRecord
   2
GMM005
  70
0
   3

   4

   5

   6
_OPEN30
   7
_OPEN30
  40
 1.0000000000000
  41
 3.0000000000000
  42
 0.50000000000000
  43
 8.0000000000000
  44
 1.0000000000000
  45
0.0
  46
0.0
  47
0.0
  48
0.0
 140
 4.0000000000000
 141
 1.0000000000000
 142
0.0
 143
 0.39400000000000E-1
 144
 1.0000000000000
 145
0.0
 146
 0.62500000000000
 147
 1.7142857142857
  71
0
  72
0
  73
0
  74
0
  75
0
  76
0
  77
3
  78
8
 170
0
 171
2
 172
1
 173
1
 174
0
 175
0
 176
3
 177
3
 178
3
 270
2
 271
6
 272
0
 273
2
 274
2
 340
3A
 275
1
 280
0
 281
0
 282
0
 283
1
 284
0
 285
0
 286
0
 287
3
 288
1
   0
ENDTAB
  0
TABLE
  2
BLOCK_RECORD
  5
1
100
AcDbSymbolTable
 70
     0
  0
BLOCK_RECORD
  5
18
100
AcDbSymbolTableRecord
100
AcDbBlockTableRecord
  2
*MODEL_SPACE
  0
BLOCK_RECORD
  5
15
100
AcDbSymbolTableRecord
100
AcDbBlockTableRecord
  2
*PAPER_SPACE
   0
BLOCK_RECORD
   5
40
 100
AcDbSymbolTableRecord
 100
AcDbBlockTableRecord
   2
*D1
   0
BLOCK_RECORD
   5
41
 100
AcDbSymbolTableRecord
 100
AcDbBlockTableRecord
   2
*D2
   0
BLOCK_RECORD
   5
42
 100
AcDbSymbolTableRecord
 100
AcDbBlockTableRecord
   2
*D3
   0
BLOCK_RECORD
   5
43
 100
AcDbSymbolTableRecord
 100
AcDbBlockTableRecord
   2
*D4
   0
BLOCK_RECORD
   5
44
 100
AcDbSymbolTableRecord
 100
AcDbBlockTableRecord
   2
*D5
   0
BLOCK_RECORD
   5
45
 100
AcDbSymbolTableRecord
 100
AcDbBlockTableRecord
   2
*D6
   0
BLOCK_RECORD
   5
46
 100
AcDbSymbolTableRecord
 100
AcDbBlockTableRecord
   2
*D7
   0
BLOCK_RECORD
   5
47
 100
AcDbSymbolTableRecord
 100
AcDbBlockTableRecord
   2
*D8
   0
BLOCK_RECORD
   5
48
 100
AcDbSymbolTableRecord
 100
AcDbBlockTableRecord
   2
*D9
   0
BLOCK_RECORD
   5
49
 100
AcDbSymbolTableRecord
 100
AcDbBlockTableRecord
   2
*D10
   0
BLOCK_RECORD
   5
4A
 100
AcDbSymbolTableRecord
 100
AcDbBlockTableRecord
   2
*D11
   0
BLOCK_RECORD
   5
4B
 100
AcDbSymbolTableRecord
 100
AcDbBlockTableRecord
   2
*D12
   0
BLOCK_RECORD
   5
4C
 100
AcDbSymbolTableRecord
 100
AcDbBlockTableRecord
   2
*D13
   0
BLOCK_RECORD
   5
4D
 100
AcDbSymbolTableRecord
 100
AcDbBlockTableRecord
   2
*D14
   0
BLOCK_RECORD
   5
4E
 100
AcDbSymbolTableRecord
 100
AcDbBlockTableRecord
   2
*D15
   0
BLOCK_RECORD
   5
4F
 100
AcDbSymbolTableRecord
 100
AcDbBlockTableRecord
   2
*D16
   0
BLOCK_RECORD
   5
50
 100
AcDbSymbolTableRecord
 100
AcDbBlockTableRecord
   2
*D17
   0
BLOCK_RECORD
   5
51
 100
AcDbSymbolTableRecord
 100
AcDbBlockTableRecord
   2
*D18
   0
BLOCK_RECORD
   5
52
 100
AcDbSymbolTableRecord
 100
AcDbBlockTableRecord
   2
*D19
   0
BLOCK_RECORD
   5
53
 100
AcDbSymbolTableRecord
 100
AcDbBlockTableRecord
   2
*D20
   0
BLOCK_RECORD
   5
54
 100
AcDbSymbolTableRecord
 100
AcDbBlockTableRecord
   2
*D21
   0
BLOCK_RECORD
   5
55
 100
AcDbSymbolTableRecord
 100
AcDbBlockTableRecord
   2
*D22
   0
BLOCK_RECORD
   5
56
 100
AcDbSymbolTableRecord
 100
AcDbBlockTableRecord
   2
*D23
   0
BLOCK_RECORD
   5
57
 100
AcDbSymbolTableRecord
 100
AcDbBlockTableRecord
   2
*D24
   0
BLOCK_RECORD
   5
58
 100
AcDbSymbolTableRecord
 100
AcDbBlockTableRecord
   2
*D25
   0
BLOCK_RECORD
   5
59
 100
AcDbSymbolTableRecord
 100
AcDbBlockTableRecord
   2
_ARCHTICK
   0
BLOCK_RECORD
   5
5A
 100
AcDbSymbolTableRecord
 100
AcDbBlockTableRecord
   2
_BOXBLANK
   0
BLOCK_RECORD
   5
5B
 100
AcDbSymbolTableRecord
 100
AcDbBlockTableRecord
   2
_BOXFILLED
   0
BLOCK_RECORD
   5
5C
 100
AcDbSymbolTableRecord
 100
AcDbBlockTableRecord
   2
_CLOSED
   0
BLOCK_RECORD
   5
5D
 100
AcDbSymbolTableRecord
 100
AcDbBlockTableRecord
   2
_CLOSEDBLANK
   0
BLOCK_RECORD
   5
5E
 100
AcDbSymbolTableRecord
 100
AcDbBlockTableRecord
   2
_DATUMBLANK
   0
BLOCK_RECORD
   5
5F
 100
AcDbSymbolTableRecord
 100
AcDbBlockTableRecord
   2
_DATUMFILLED
   0
BLOCK_RECORD
   5
60
 100
AcDbSymbolTableRecord
 100
AcDbBlockTableRecord
   2
_DOT
   0
BLOCK_RECORD
   5
61
 100
AcDbSymbolTableRecord
 100
AcDbBlockTableRecord
   2
_DOTBLANK
   0
BLOCK_RECORD
   5
62
 100
AcDbSymbolTableRecord
 100
AcDbBlockTableRecord
   2
_DOTSMALL
   0
BLOCK_RECORD
   5
63
 100
AcDbSymbolTableRecord
 100
AcDbBlockTableRecord
   2
_INTEGRAL
   0
BLOCK_RECORD
   5
64
 100
AcDbSymbolTableRecord
 100
AcDbBlockTableRecord
   2
_NONE
   0
BLOCK_RECORD
   5
65
 100
AcDbSymbolTableRecord
 100
AcDbBlockTableRecord
   2
_OBLIQUE
   0
BLOCK_RECORD
   5
66
 100
AcDbSymbolTableRecord
 100
AcDbBlockTableRecord
   2
_OPEN
   0
BLOCK_RECORD
   5
67
 100
AcDbSymbolTableRecord
 100
AcDbBlockTableRecord
   2
_OPEN30
   0
BLOCK_RECORD
   5
68
 100
AcDbSymbolTableRecord
 100
AcDbBlockTableRecord
   2
_OPEN90
   0
BLOCK_RECORD
   5
69
 100
AcDbSymbolTableRecord
 100
AcDbBlockTableRecord
   2
_ORIGIN
   0
ENDTAB
   0
ENDSEC
  0
SECTION
  2
BLOCKS
  0
BLOCK
  5
19
100
AcDbEntity
  8
0
100
AcDbBlockBegin
  2
*MODEL_SPACE
 70
     0
 10
0.0
 20
0.0
 30
0.0
  3
*MODEL_SPACE
  1

  0
ENDBLK
  5
1A
100
AcDbEntity
  8
0
100
AcDbBlockEnd
  0
BLOCK
  5
16
100
AcDbEntity
 67
     1
  8
0
100
AcDbBlockBegin
  2
*PAPER_SPACE
 70
     0
 10
0.0
 20
0.0
 30
0.0
  3
*PAPER_SPACE
  1

  0
ENDBLK
  5
17
100
AcDbEntity
 67
     1
  8
0
100
AcDbBlockEnd
   0
BLOCK
   5
6A
 100
AcDbEntity
   8
0
 100
AcDbBlockBegin
   2
_ARCHTICK
  70
0
  10
0.0
  20
0.0
  30
0.0
   3
_ARCHTICK
   0
POLYLINE
   5
6B
 100
AcDbEntity
   8
0
   6
BYBLOCK
  62
0
 100
AcDb2dPolyline
  66
1
  10
0.0
  20
0.0
  30
0.0
  70
1
  40
 0.15000000000000
  41
 0.15000000000000
   0
VERTEX
   5
6C
 100
AcDbEntity
   8
0
   6
BYBLOCK
  62
0
 100
AcDbVertex
 100
AcDb2dVertex
  10
-0.50000000000000
  20
-0.50000000000000
  30
0.0
  40
 0.15000000000000
  41
 0.15000000000000
   0
VERTEX
   5
6D
 100
AcDbEntity
   8
0
   6
BYBLOCK
  62
0
 100
AcDbVertex
 100
AcDb2dVertex
  10
 0.50000000000000
  20
 0.50000000000000
  30
0.0
  40
 0.15000000000000
  41
 0.15000000000000
   0
SEQEND
   5
6E
 100
AcDbEntity
   8
0
   6
BYBLOCK
  62
0
   0
ENDBLK
   5
6F
 100
AcDbEntity
   8
0
 100
AcDbBlockEnd
   0
BLOCK
   5
70
 100
AcDbEntity
   8
0
 100
AcDbBlockBegin
   2
_OBLIQUE
  70
0
  10
0.0
  20
0.0
  30
0.0
   3
_OBLIQUE
   0
LINE
   5
71
 100
AcDbEntity
   8
0
 100
AcDbLine
   6
BYBLOCK
  62
0
  10
-0.50000000000000
  20
-0.50000000000000
  30
0.0
  11
 0.50000000000000
  21
 0.50000000000000
  31
0.0
   0
ENDBLK
   5
72
 100
AcDbEntity
   8
0
 100
AcDbBlockEnd
   0
BLOCK
   5
73
 100
AcDbEntity
   8
0
 100
AcDbBlockBegin
   2
_BOXBLANK
  70
0
  10
0.0
  20
0.0
  30
0.0
   3
_BOXBLANK
   0
LINE
   5
74
 100
AcDbEntity
   8
0
 100
AcDbLine
   6
BYBLOCK
  62
0
  10
-0.50000000000000
  20
-0.50000000000000
  30
0.0
  11
 0.50000000000000
  21
-0.50000000000000
  31
0.0
   0
LINE
   5
75
 100
AcDbEntity
   8
0
 100
AcDbLine
   6
BYBLOCK
  62
0
  10
 0.50000000000000
  20
-0.50000000000000
  30
0.0
  11
 0.50000000000000
  21
 0.50000000000000
  31
0.0
   0
LINE
   5
76
 100
AcDbEntity
   8
0
 100
AcDbLine
   6
BYBLOCK
  62
0
  10
 0.50000000000000
  20
 0.50000000000000
  30
0.0
  11
-0.50000000000000
  21
 0.50000000000000
  31
0.0
   0
LINE
   5
77
 100
AcDbEntity
   8
0
 100
AcDbLine
   6
BYBLOCK
  62
0
  10
-0.50000000000000
  20
 0.50000000000000
  30
0.0
  11
-0.50000000000000
  21
-0.50000000000000
  31
0.0
   0
LINE
   5
78
 100
AcDbEntity
   8
0
 100
AcDbLine
   6
BYBLOCK
  62
0
  10
-0.50000000000000
  20
0.0
  30
0.0
  11
-1.0000000000000
  21
0.0
  31
0.0
   0
ENDBLK
   5
79
 100
AcDbEntity
   8
0
 100
AcDbBlockEnd
   0
BLOCK
   5
7A
 100
AcDbEntity
   8
0
 100
AcDbBlockBegin
   2
_BOXFILLED
  70
0
  10
0.0
  20
0.0
  30
0.0
   3
_BOXFILLED
   0
SOLID
   5
7B
 100
AcDbEntity
   8
0
 100
AcDbTrace
   6
BYBLOCK
  62
0
  10
-0.50000000000000
  20
 0.50000000000000
  30
0.0
  11
 0.50000000000000
  21
 0.50000000000000
  31
0.0
  12
-0.50000000000000
  22
-0.50000000000000
  32
0.0
  13
 0.50000000000000
  23
-0.50000000000000
  33
0.0
   0
LINE
   5
7C
 100
AcDbEntity
   8
0
 100
AcDbLine
   6
BYBLOCK
  62
0
  10
-0.50000000000000
  20
0.0
  30
0.0
  11
-1.0000000000000
  21
0.0
  31
0.0
   0
ENDBLK
   5
7D
 100
AcDbEntity
   8
0
 100
AcDbBlockEnd
   0
BLOCK
   5
7E
 100
AcDbEntity
   8
0
 100
AcDbBlockBegin
   2
_CLOSED
  70
0
  10
0.0
  20
0.0
  30
0.0
   3
_CLOSED
   0
LINE
   5
7F
 100
AcDbEntity
   8
0
 100
AcDbLine
   6
BYBLOCK
  62
0
  10
-1.0000000000000
  20
 0.16666666666667
  30
0.0
  11
0.0
  21
0.0
  31
0.0
   0
LINE
   5
80
 100
AcDbEntity
   8
0
 100
AcDbLine
   6
BYBLOCK
  62
0
  10
0.0
  20
0.0
  30
0.0
  11
-1.0000000000000
  21
-0.16666666666667
  31
0.0
   0
LINE
   5
81
 100
AcDbEntity
   8
0
 100
AcDbLine
   6
BYBLOCK
  62
0
  10
-1.0000000000000
  20
 0.16666666666667
  30
0.0
  11
-1.0000000000000
  21
-0.16666666666667
  31
0.0
   0
LINE
   5
82
 100
AcDbEntity
   8
0
 100
AcDbLine
   6
BYBLOCK
  62
0
  10
0.0
  20
0.0
  30
0.0
  11
-1.0000000000000
  21
0.0
  31
0.0
   0
ENDBLK
   5
83
 100
AcDbEntity
   8
0
 100
AcDbBlockEnd
   0
BLOCK
   5
84
 100
AcDbEntity
   8
0
 100
AcDbBlockBegin
   2
_OPEN
  70
0
  10
0.0
  20
0.0
  30
0.0
   3
_OPEN
   0
LINE
   5
85
 100
AcDbEntity
   8
0
 100
AcDbLine
   6
BYBLOCK
  62
0
  10
-1.0000000000000
  20
 0.16666666666667
  30
0.0
  11
0.0
  21
0.0
  31
0.0
   0
LINE
   5
86
 100
AcDbEntity
   8
0
 100
AcDbLine
   6
BYBLOCK
  62
0
  10
0.0
  20
0.0
  30
0.0
  11
-1.0000000000000
  21
-0.16666666666667
  31
0.0
   0
LINE
   5
87
 100
AcDbEntity
   8
0
 100
AcDbLine
   6
BYBLOCK
  62
0
  10
0.0
  20
0.0
  30
0.0
  11
-1.0000000000000
  21
0.0
  31
0.0
   0
ENDBLK
   5
88
 100
AcDbEntity
   8
0
 100
AcDbBlockEnd
   0
BLOCK
   5
89
 100
AcDbEntity
   8
0
 100
AcDbBlockBegin
   2
_OPEN30
  70
0
  10
0.0
  20
0.0
  30
0.0
   3
_OPEN30
   0
LINE
   5
8A
 100
AcDbEntity
   8
0
 100
AcDbLine
   6
BYBLOCK
  62
0
  10
-1.0000000000000
  20
 0.26794919243110
  30
0.0
  11
0.0
  21
0.0
  31
0.0
   0
LINE
   5
8B
 100
AcDbEntity
   8
0
 100
AcDbLine
   6
BYBLOCK
  62
0
  10
0.0
  20
0.0
  30
0.0
  11
-1.0000000000000
  21
-0.26794919243110
  31
0.0
   0
LINE
   5
8C
 100
AcDbEntity
   8
0
 100
AcDbLine
   6
BYBLOCK
  62
0
  10
0.0
  20
0.0
  30
0.0
  11
-1.0000000000000
  21
0.0
  31
0.0
   0
ENDBLK
   5
8D
 100
AcDbEntity
   8
0
 100
AcDbBlockEnd
   0
BLOCK
   5
8E
 100
AcDbEntity
   8
0
 100
AcDbBlockBegin
   2
_OPEN90
  70
0
  10
0.0
  20
0.0
  30
0.0
   3
_OPEN90
   0
LINE
   5
8F
 100
AcDbEntity
   8
0
 100
AcDbLine
   6
BYBLOCK
  62
0
  10
-0.50000000000000
  20
 0.50000000000000
  30
0.0
  11
0.0
  21
0.0
  31
0.0
   0
LINE
   5
90
 100
AcDbEntity
   8
0
 100
AcDbLine
   6
BYBLOCK
  62
0
  10
0.0
  20
0.0
  30
0.0
  11
-0.50000000000000
  21
-0.50000000000000
  31
0.0
   0
LINE
   5
91
 100
AcDbEntity
   8
0
 100
AcDbLine
   6
BYBLOCK
  62
0
  10
0.0
  20
0.0
  30
0.0
  11
-1.0000000000000
  21
0.0
  31
0.0
   0
ENDBLK
   5
92
 100
AcDbEntity
   8
0
 100
AcDbBlockEnd
   0
BLOCK
   5
93
 100
AcDbEntity
   8
0
 100
AcDbBlockBegin
   2
_CLOSEDBLANK
  70
0
  10
0.0
  20
0.0
  30
0.0
   3
_CLOSEDBLANK
   0
LINE
   5
94
 100
AcDbEntity
   8
0
 100
AcDbLine
   6
BYBLOCK
  62
0
  10
-1.0000000000000
  20
 0.16666666666667
  30
0.0
  11
0.0
  21
0.0
  31
0.0
   0
LINE
   5
95
 100
AcDbEntity
   8
0
 100
AcDbLine
   6
BYBLOCK
  62
0
  10
0.0
  20
0.0
  30
0.0
  11
-1.0000000000000
  21
-0.16666666666667
  31
0.0
   0
LINE
   5
96
 100
AcDbEntity
   8
0
 100
AcDbLine
   6
BYBLOCK
  62
0
  10
-1.0000000000000
  20
 0.16666666666667
  30
0.0
  11
-1.0000000000000
  21
-0.16666666666667
  31
0.0
   0
ENDBLK
   5
97
 100
AcDbEntity
   8
0
 100
AcDbBlockEnd
   0
BLOCK
   5
98
 100
AcDbEntity
   8
0
 100
AcDbBlockBegin
   2
_DOT
  70
0
  10
0.0
  20
0.0
  30
0.0
   3
_DOT
   0
POLYLINE
   5
99
 100
AcDbEntity
   8
0
   6
BYBLOCK
  62
0
 100
AcDb2dPolyline
  66
1
  10
0.0
  20
0.0
  30
0.0
  70
1
  40
 0.50000000000000
  41
 0.50000000000000
   0
VERTEX
   5
9A
 100
AcDbEntity
   8
0
   6
BYBLOCK
  62
0
 100
AcDbVertex
 100
AcDb2dVertex
  10
-0.25000000000000
  20
0.0
  30
0.0
  42
 1.0000000000000
  40
 0.50000000000000
  41
 0.50000000000000
   0
VERTEX
   5
9B
 100
AcDbEntity
   8
0
   6
BYBLOCK
  62
0
 100
AcDbVertex
 100
AcDb2dVertex
  10
 0.25000000000000
  20
0.0
  30
0.0
  42
 1.0000000000000
  40
 0.50000000000000
  41
 0.50000000000000
   0
SEQEND
   5
9C
 100
AcDbEntity
   8
0
   6
BYBLOCK
  62
0
   0
LINE
   5
9D
 100
AcDbEntity
   8
0
 100
AcDbLine
   6
BYBLOCK
  62
0
  10
-0.50000000000000
  20
0.0
  30
0.0
  11
-1.0000000000000
  21
0.0
  31
0.0
   0
ENDBLK
   5
9E
 100
AcDbEntity
   8
0
 100
AcDbBlockEnd
   0
BLOCK
   5
9F
 100
AcDbEntity
   8
0
 100
AcDbBlockBegin
   2
_DOTSMALL
  70
0
  10
0.0
  20
0.0
  30
0.0
   3
_DOTSMALL
   0
POLYLINE
   5
A0
 100
AcDbEntity
   8
0
   6
BYBLOCK
  62
0
 100
AcDb2dPolyline
  66
1
  10
0.0
  20
0.0
  30
0.0
  70
1
  40
 0.50000000000000
  41
 0.50000000000000
   0
VERTEX
   5
A1
 100
AcDbEntity
   8
0
   6
BYBLOCK
  62
0
 100
AcDbVertex
 100
AcDb2dVertex
  10
-0.62500000000000E-1
  20
0.0
  30
0.0
  42
 1.0000000000000
  40
 0.50000000000000
  41
 0.50000000000000
   0
VERTEX
   5
A2
 100
AcDbEntity
   8
0
   6
BYBLOCK
  62
0
 100
AcDbVertex
 100
AcDb2dVertex
  10
 0.62500000000000E-1
  20
0.0
  30
0.0
  42
 1.0000000000000
  40
 0.50000000000000
  41
 0.50000000000000
   0
SEQEND
   5
A3
 100
AcDbEntity
   8
0
   6
BYBLOCK
  62
0
   0
ENDBLK
   5
A4
 100
AcDbEntity
   8
0
 100
AcDbBlockEnd
   0
BLOCK
   5
A5
 100
AcDbEntity
   8
0
 100
AcDbBlockBegin
   2
_DATUMBLANK
  70
0
  10
0.0
  20
0.0
  30
0.0
   3
_DATUMBLANK
   0
LINE
   5
A6
 100
AcDbEntity
   8
0
 100
AcDbLine
   6
BYBLOCK
  62
0
  10
0.0
  20
 0.57735027000000
  30
0.0
  11
-1.0000000000000
  21
0.0
  31
0.0
   0
LINE
   5
A7
 100
AcDbEntity
   8
0
 100
AcDbLine
   6
BYBLOCK
  62
0
  10
-1.0000000000000
  20
0.0
  30
0.0
  11
0.0
  21
-0.57735027000000
  31
0.0
   0
LINE
   5
A8
 100
AcDbEntity
   8
0
 100
AcDbLine
   6
BYBLOCK
  62
0
  10
0.0
  20
-0.57735027000000
  30
0.0
  11
0.0
  21
 0.57735027000000
  31
0.0
   0
ENDBLK
   5
A9
 100
AcDbEntity
   8
0
 100
AcDbBlockEnd
   0
BLOCK
   5
AA
 100
AcDbEntity
   8
0
 100
AcDbBlockBegin
   2
_DATUMFILLED
  70
0
  10
0.0
  20
0.0
  30
0.0
   3
_DATUMFILLED
   0
SOLID
   5
AB
 100
AcDbEntity
   8
0
 100
AcDbTrace
   6
BYBLOCK
  62
0
  10
0.0
  20
 0.57735027000000
  30
0.0
  11
-1.0000000000000
  21
0.0
  31
0.0
  12
0.0
  22
-0.57735027000000
  32
0.0
  13
0.0
  23
-0.57735027000000
  33
0.0
   0
ENDBLK
   5
AC
 100
AcDbEntity
   8
0
 100
AcDbBlockEnd
   0
BLOCK
   5
AD
 100
AcDbEntity
   8
0
 100
AcDbBlockBegin
   2
_ORIGIN
  70
0
  10
0.0
  20
0.0
  30
0.0
   3
_ORIGIN
   0
CIRCLE
   5
AE
 100
AcDbEntity
   8
0
 100
AcDbCircle
   6
BYBLOCK
  62
0
  10
0.0
  20
0.0
  30
0.0
  40
 0.50000000000000
   0
LINE
   5
AF
 100
AcDbEntity
   8
0
 100
AcDbLine
   6
BYBLOCK
  62
0
  10
0.0
  20
0.0
  30
0.0
  11
-1.0000000000000
  21
0.0
  31
0.0
   0
ENDBLK
   5
B0
 100
AcDbEntity
   8
0
 100
AcDbBlockEnd
   0
BLOCK
   5
B1
 100
AcDbEntity
   8
0
 100
AcDbBlockBegin
   2
_NONE
  70
0
  10
0.0
  20
0.0
  30
0.0
   3
_NONE
   0
CIRCLE
   5
B2
 100
AcDbEntity
   8
0
 100
AcDbCircle
   6
BYBLOCK
  62
0
  10
0.0
  20
0.0
  30
0.0
  40
 0.25000000000000
   0
ENDBLK
   5
B3
 100
AcDbEntity
   8
0
 100
AcDbBlockEnd
   0
BLOCK
   5
B4
 100
AcDbEntity
   8
0
 100
AcDbBlockBegin
   2
_DOTBLANK
  70
0
  10
0.0
  20
0.0
  30
0.0
   3
_DOTBLANK
   0
CIRCLE
   5
B5
 100
AcDbEntity
   8
0
 100
AcDbCircle
   6
BYBLOCK
  62
0
  10
0.0
  20
0.0
  30
0.0
  40
 0.50000000000000
   0
LINE
   5
B6
 100
AcDbEntity
   8
0
 100
AcDbLine
   6
BYBLOCK
  62
0
  10
-0.50000000000000
  20
0.0
  30
0.0
  11
-1.0000000000000
  21
0.0
  31
0.0
   0
ENDBLK
   5
B7
 100
AcDbEntity
   8
0
 100
AcDbBlockEnd
   0
BLOCK
   5
B8
 100
AcDbEntity
   8
0
 100
AcDbBlockBegin
   2
_INTEGRAL
  70
0
  10
0.0
  20
0.0
  30
0.0
   3
_INTEGRAL
   0
ARC
   5
B9
 100
AcDbEntity
   8
0
   6
BYBLOCK
  62
0
 100
AcDbCircle
  10
 0.44488800000000
  20
-0.91335000000000E-1
  30
0.0
  40
 0.45416700000000
 100
AcDbArc
  50
 102.00000000000
  51
 168.00000000000
   0
ARC
   5
BA
 100
AcDbEntity
   8
0
   6
BYBLOCK
  62
0
 100
AcDbCircle
  10
-0.44488800000000
  20
 0.91335000000000E-1
  30
0.0
  40
 0.45416700000000
 100
AcDbArc
  50
 282.00000000000
  51
 348.00000000000
   0
ENDBLK
   5
BB
 100
AcDbEntity
   8
0
 100
AcDbBlockEnd
   0
BLOCK
   5
BC
 100
AcDbEntity
   8
0
 100
AcDbBlockBegin
   2
*D1
  70
65
  10
0.0
  20
0.0
  30
0.0
   3
*D1
   0
LINE
   5
BD
 100
AcDbEntity
   8
LEVEL001
 100
AcDbLine
   6
CONTINUOUS
  62
3
  10
 133.55857325531
  20
 209.58733786758
  30
0.0
  11
 128.66609998871
  21
 213.06062238451
  31
0.0
   0
LINE
   5
BE
 100
AcDbEntity
   8
LEVEL001
 100
AcDbLine
   6
CONTINUOUS
  62
3
  10
 128.66609998871
  20
 213.06062238451
  30
0.0
  11
 109.37068278295
  21
 226.75890343305
  31
0.0
   0
INSERT
   5
BF
 100
AcDbEntity
   8
LEVEL001
   6
CONTINUOUS
  62
3
 100
AcDbBlockReference
   2
_OPEN30
  10
 123.77362672210
  20
 216.53390690144
  30
0.0
  41
 3.0000000000000
  42
 3.0000000000000
  43
 3.0000000000000
  50
 324.62814079758
   0
MTEXT
   5
C0
 100
AcDbEntity
   8
LEVEL001
  62
3
 100
AcDbMText
  10
 119.65874899434
  20
 221.55751235563
  30
0.0
  40
 4.0000000000000
  41
0.0
  71
9
  72
1
   1
\A1;R12
   7
GMM001
  11
 0.81541221110112
  21
-0.57888075282150
  31
0.0
   0
ENDBLK
   5
C1
 100
AcDbEntity
   8
0
 100
AcDbBlockEnd
   0
BLOCK
   5
C2
 100
AcDbEntity
   8
0
 100
AcDbBlockBegin
   2
*D2
  70
65
  10
0.0
  20
0.0
  30
0.0
   3
*D2
   0
LINE
   5
C3
 100
AcDbEntity
   8
LEVEL001
 100
AcDbLine
   6
CONTINUOUS
  62
3
  10
 201.87454037926
  20
 221.58733786758
  30
0.0
  11
 188.38350238411
  21
 221.58733786758
  31
0.0
   0
LINE
   5
C4
 100
AcDbEntity
   8
LEVEL001
 100
AcDbLine
   6
CONTINUOUS
  62
3
  10
 189.38350238411
  20
 212.83733786758
  30
0.0
  11
 189.38350238411
  21
 219.08733786758
  31
0.0
   0
LINE
   5
C5
 100
AcDbEntity
   8
LEVEL001
 100
AcDbLine
   6
CONTINUOUS
  62
3
  10
 189.38350238411
  20
 225.33733786758
  30
0.0
  11
 189.38350238411
  21
 219.08733786758
  31
0.0
   0
INSERT
   5
C6
 100
AcDbEntity
   8
LEVEL001
   6
CONTINUOUS
  62
3
 100
AcDbBlockReference
   2
_OPEN30
  10
 189.38350238411
  20
 216.58733786758
  30
0.0
  41
 3.0000000000000
  42
 3.0000000000000
  43
 3.0000000000000
  50
 90.000000000000
   0
INSERT
   5
C7
 100
AcDbEntity
   8
LEVEL001
   6
CONTINUOUS
  62
3
 100
AcDbBlockReference
   2
_OPEN30
  10
 189.38350238411
  20
 221.58733786758
  30
0.0
  41
 3.0000000000000
  42
 3.0000000000000
  43
 3.0000000000000
  50
 270.00000000000
   0
MTEXT
   5
C8
 100
AcDbEntity
   8
LEVEL001
  62
3
 100
AcDbMText
  10
 187.66921666983
  20
 219.08733786758
  30
0.0
  40
 4.0000000000000
  41
0.0
  71
8
  72
1
   1
\A1;5
   7
GMM001
  11
0.0
  21
 1.0000000000000
  31
0.0
   0
ENDBLK
   5
C9
 100
AcDbEntity
   8
0
 100
AcDbBlockEnd
   0
BLOCK
   5
CA
 100
AcDbEntity
   8
0
 100
AcDbBlockBegin
   2
*D3
  70
65
  10
0.0
  20
0.0
  30
0.0
   3
*D3
   0
LINE
   5
CB
 100
AcDbEntity
   8
LEVEL001
 100
AcDbLine
   6
CONTINUOUS
  62
3
  10
 201.87454037926
  20
 170.58733786758
  30
0.0
  11
 188.38350238411
  21
 170.58733786758
  31
0.0
   0
LINE
   5
CC
 100
AcDbEntity
   8
LEVEL001
 100
AcDbLine
   6
CONTINUOUS
  62
3
  10
 204.87454037926
  20
 216.58733786758
  30
0.0
  11
 188.38350238411
  21
 216.58733786758
  31
0.0
   0
LINE
   5
CD
 100
AcDbEntity
   8
LEVEL001
 100
AcDbLine
   6
CONTINUOUS
  62
3
  10
 189.38350238411
  20
 170.58733786758
  30
0.0
  11
 189.38350238411
  21
 193.58733786758
  31
0.0
   0
LINE
   5
CE
 100
AcDbEntity
   8
LEVEL001
 100
AcDbLine
   6
CONTINUOUS
  62
3
  10
 189.38350238411
  20
 216.58733786758
  30
0.0
  11
 189.38350238411
  21
 193.58733786758
  31
0.0
   0
INSERT
   5
CF
 100
AcDbEntity
   8
LEVEL001
   6
CONTINUOUS
  62
3
 100
AcDbBlockReference
   2
_OPEN30
  10
 189.38350238411
  20
 170.58733786758
  30
0.0
  41
 3.0000000000000
  42
 3.0000000000000
  43
 3.0000000000000
  50
 270.00000000000
   0
INSERT
   5
D0
 100
AcDbEntity
   8
LEVEL001
   6
CONTINUOUS
  62
3
 100
AcDbBlockReference
   2
_OPEN30
  10
 189.38350238411
  20
 216.58733786758
  30
0.0
  41
 3.0000000000000
  42
 3.0000000000000
  43
 3.0000000000000
  50
 90.000000000000
   0
MTEXT
   5
D1
 100
AcDbEntity
   8
LEVEL001
  62
3
 100
AcDbMText
  10
 187.66921666983
  20
 193.58733786758
  30
0.0
  40
 4.0000000000000
  41
0.0
  71
8
  72
1
   1
\A1;46
   7
GMM001
  11
0.0
  21
 1.0000000000000
  31
0.0
   0
ENDBLK
   5
D2
 100
AcDbEntity
   8
0
 100
AcDbBlockEnd
   0
BLOCK
   5
D3
 100
AcDbEntity
   8
0
 100
AcDbBlockBegin
   2
*D4
  70
65
  10
0.0
  20
0.0
  30
0.0
   3
*D4
   0
LINE
   5
D4
 100
AcDbEntity
   8
LEVEL001
 100
AcDbLine
   6
CONTINUOUS
  62
3
  10
 138.55857325531
  20
 202.58733786758
  30
0.0
  11
 135.92320890756
  21
 209.07230932123
  31
0.0
   0
LINE
   5
D5
 100
AcDbEntity
   8
LEVEL001
 100
AcDbLine
   6
CONTINUOUS
  62
3
  10
 135.92320890756
  20
 209.07230932123
  30
0.0
  11
 126.54560478411
  21
 232.14824381059
  31
0.0
   0
INSERT
   5
D6
 100
AcDbEntity
   8
LEVEL001
   6
CONTINUOUS
  62
3
 100
AcDbBlockReference
   2
_OPEN30
  10
 133.28784455982
  20
 215.55728077488
  30
0.0
  41
 3.0000000000000
  42
 3.0000000000000
  43
 3.0000000000000
  50
 292.11585385975
   0
MTEXT
   5
D7
 100
AcDbEntity
   8
LEVEL001
  62
3
 100
AcDbMText
  10
 132.42564013909
  20
 222.23239993655
  30
0.0
  40
 4.0000000000000
  41
0.0
  71
9
  72
1
   1
\A1;R14
   7
GMM001
  11
 0.37648062110671
  21
-0.92642449337823
  31
0.0
   0
ENDBLK
   5
D8
 100
AcDbEntity
   8
0
 100
AcDbBlockEnd
   0
BLOCK
   5
D9
 100
AcDbEntity
   8
0
 100
AcDbBlockBegin
   2
*D5
  70
65
  10
0.0
  20
0.0
  30
0.0
   3
*D5
   0
LINE
   5
DA
 100
AcDbEntity
   8
LEVEL001
 100
AcDbLine
   6
CONTINUOUS
  62
3
  10
 156.05857325531
  20
 170.58733786758
  30
0.0
  11
 173.50061553652
  21
 170.58733786758
  31
0.0
   0
LINE
   5
DB
 100
AcDbEntity
   8
LEVEL001
 100
AcDbLine
   6
CONTINUOUS
  62
3
  10
 156.05857325531
  20
 221.58733786758
  30
0.0
  11
 173.50061553652
  21
 221.58733786758
  31
0.0
   0
LINE
   5
DC
 100
AcDbEntity
   8
LEVEL001
 100
AcDbLine
   6
CONTINUOUS
  62
3
  10
 172.50061553652
  20
 170.58733786758
  30
0.0
  11
 172.50061553652
  21
 196.08733786758
  31
0.0
   0
LINE
   5
DD
 100
AcDbEntity
   8
LEVEL001
 100
AcDbLine
   6
CONTINUOUS
  62
3
  10
 172.50061553652
  20
 221.58733786758
  30
0.0
  11
 172.50061553652
  21
 196.08733786758
  31
0.0
   0
INSERT
   5
DE
 100
AcDbEntity
   8
LEVEL001
   6
CONTINUOUS
  62
3
 100
AcDbBlockReference
   2
_OPEN30
  10
 172.50061553652
  20
 170.58733786758
  30
0.0
  41
 3.0000000000000
  42
 3.0000000000000
  43
 3.0000000000000
  50
 270.00000000000
   0
INSERT
   5
DF
 100
AcDbEntity
   8
LEVEL001
   6
CONTINUOUS
  62
3
 100
AcDbBlockReference
   2
_OPEN30
  10
 172.50061553652
  20
 221.58733786758
  30
0.0
  41
 3.0000000000000
  42
 3.0000000000000
  43
 3.0000000000000
  50
 90.000000000000
   0
MTEXT
   5
E0
 100
AcDbEntity
   8
LEVEL001
  62
3
 100
AcDbMText
  10
 170.78632982223
  20
 196.08733786758
  30
0.0
  40
 4.0000000000000
  41
0.0
  71
8
  72
1
   1
\A1;51
   7
GMM001
  11
0.0
  21
 1.0000000000000
  31
0.0
   0
ENDBLK
   5
E1
 100
AcDbEntity
   8
0
 100
AcDbBlockEnd
   0
BLOCK
   5
E2
 100
AcDbEntity
   8
0
 100
AcDbBlockBegin
   2
*D6
  70
65
  10
0.0
  20
0.0
  30
0.0
   3
*D6
   0
LINE
   5
E3
 100
AcDbEntity
   8
LEVEL001
 100
AcDbLine
   6
CONTINUOUS
  62
3
  10
 121.55857325531
  20
 121.76905097531
  30
0.0
  11
 121.55857325531
  21
 139.36386719328
  31
0.0
   0
LINE
   5
E4
 100
AcDbEntity
   8
LEVEL001
 100
AcDbLine
   6
CONTINUOUS
  62
3
  10
 128.30857325531
  20
 138.36386719328
  30
0.0
  11
 123.05857325531
  21
 138.36386719328
  31
0.0
   0
LINE
   5
E5
 100
AcDbEntity
   8
LEVEL001
 100
AcDbLine
   6
CONTINUOUS
  62
3
  10
 117.80857325531
  20
 138.36386719328
  30
0.0
  11
 123.05857325531
  21
 138.36386719328
  31
0.0
   0
INSERT
   5
E6
 100
AcDbEntity
   8
LEVEL001
   6
CONTINUOUS
  62
3
 100
AcDbBlockReference
   2
_OPEN30
  10
 124.55857325531
  20
 138.36386719328
  30
0.0
  41
 3.0000000000000
  42
 3.0000000000000
  43
 3.0000000000000
  50
 180.00000000000
   0
INSERT
   5
E7
 100
AcDbEntity
   8
LEVEL001
   6
CONTINUOUS
  62
3
 100
AcDbBlockReference
   2
_OPEN30
  10
 121.55857325531
  20
 138.36386719328
  30
0.0
  41
 3.0000000000000
  42
 3.0000000000000
  43
 3.0000000000000
  50
0.0
   0
MTEXT
   5
E8
 100
AcDbEntity
   8
LEVEL001
  62
3
 100
AcDbMText
  10
 123.05857325531
  20
 140.07815290757
  30
0.0
  40
 4.0000000000000
  41
0.0
  71
8
  72
1
   1
\A1;3
   7
GMM001
   0
ENDBLK
   5
E9
 100
AcDbEntity
   8
0
 100
AcDbBlockEnd
   0
BLOCK
   5
EA
 100
AcDbEntity
   8
0
 100
AcDbBlockBegin
   2
*D7
  70
65
  10
0.0
  20
0.0
  30
0.0
   3
*D7
   0
LINE
   5
EB
 100
AcDbEntity
   8
LEVEL001
 100
AcDbLine
   6
CONTINUOUS
  62
3
  10
 155.55857325531
  20
 121.76905097531
  30
0.0
  11
 155.55857325531
  21
 139.36386719328
  31
0.0
   0
LINE
   5
EC
 100
AcDbEntity
   8
LEVEL001
 100
AcDbLine
   6
CONTINUOUS
  62
3
  10
 159.30857325531
  20
 138.36386719328
  30
0.0
  11
 154.05857325531
  21
 138.36386719328
  31
0.0
   0
LINE
   5
ED
 100
AcDbEntity
   8
LEVEL001
 100
AcDbLine
   6
CONTINUOUS
  62
3
  10
 148.80857325531
  20
 138.36386719328
  30
0.0
  11
 154.05857325531
  21
 138.36386719328
  31
0.0
   0
INSERT
   5
EE
 100
AcDbEntity
   8
LEVEL001
   6
CONTINUOUS
  62
3
 100
AcDbBlockReference
   2
_OPEN30
  10
 155.55857325531
  20
 138.36386719328
  30
0.0
  41
 3.0000000000000
  42
 3.0000000000000
  43
 3.0000000000000
  50
 180.00000000000
   0
INSERT
   5
EF
 100
AcDbEntity
   8
LEVEL001
   6
CONTINUOUS
  62
3
 100
AcDbBlockReference
   2
_OPEN30
  10
 152.55857325531
  20
 138.36386719328
  30
0.0
  41
 3.0000000000000
  42
 3.0000000000000
  43
 3.0000000000000
  50
0.0
   0
MTEXT
   5
F0
 100
AcDbEntity
   8
LEVEL001
  62
3
 100
AcDbMText
  10
 154.05857325531
  20
 140.07815290757
  30
0.0
  40
 4.0000000000000
  41
0.0
  71
8
  72
1
   1
\A1;3
   7
GMM001
   0
ENDBLK
   5
F1
 100
AcDbEntity
   8
0
 100
AcDbBlockEnd
   0
BLOCK
   5
F2
 100
AcDbEntity
   8
0
 100
AcDbBlockBegin
   2
*D8
  70
65
  10
0.0
  20
0.0
  30
0.0
   3
*D8
   0
LINE
   5
F3
 100
AcDbEntity
   8
LEVEL001
 100
AcDbLine
   6
CONTINUOUS
  62
3
  10
 152.55857325531
  20
 118.76905097531
  30
0.0
  11
 152.55857325531
  21
 139.36386719328
  31
0.0
   0
LINE
   5
F4
 100
AcDbEntity
   8
LEVEL001
 100
AcDbLine
   6
CONTINUOUS
  62
3
  10
 124.55857325531
  20
 118.76905097531
  30
0.0
  11
 124.55857325531
  21
 139.36386719328
  31
0.0
   0
LINE
   5
F5
 100
AcDbEntity
   8
LEVEL001
 100
AcDbLine
   6
CONTINUOUS
  62
3
  10
 152.55857325531
  20
 138.36386719328
  30
0.0
  11
 138.55857325531
  21
 138.36386719328
  31
0.0
   0
LINE
   5
F6
 100
AcDbEntity
   8
LEVEL001
 100
AcDbLine
   6
CONTINUOUS
  62
3
  10
 124.55857325531
  20
 138.36386719328
  30
0.0
  11
 138.55857325531
  21
 138.36386719328
  31
0.0
   0
INSERT
   5
F7
 100
AcDbEntity
   8
LEVEL001
   6
CONTINUOUS
  62
3
 100
AcDbBlockReference
   2
_OPEN30
  10
 152.55857325531
  20
 138.36386719328
  30
0.0
  41
 3.0000000000000
  42
 3.0000000000000
  43
 3.0000000000000
  50
0.0
   0
INSERT
   5
F8
 100
AcDbEntity
   8
LEVEL001
   6
CONTINUOUS
  62
3
 100
AcDbBlockReference
   2
_OPEN30
  10
 124.55857325531
  20
 138.36386719328
  30
0.0
  41
 3.0000000000000
  42
 3.0000000000000
  43
 3.0000000000000
  50
 180.00000000000
   0
MTEXT
   5
F9
 100
AcDbEntity
   8
LEVEL001
  62
3
 100
AcDbMText
  10
 138.55857325531
  20
 140.07815290757
  30
0.0
  40
 4.0000000000000
  41
0.0
  71
8
  72
1
   1
\A1;28
   7
GMM001
   0
ENDBLK
   5
FA
 100
AcDbEntity
   8
0
 100
AcDbBlockEnd
   0
BLOCK
   5
FB
 100
AcDbEntity
   8
0
 100
AcDbBlockBegin
   2
*D9
  70
65
  10
0.0
  20
0.0
  30
0.0
   3
*D9
   0
LINE
   5
FC
 100
AcDbEntity
   8
LEVEL001
 100
AcDbLine
   6
CONTINUOUS
  62
3
  10
 156.05857325531
  20
 121.26905097531
  30
0.0
  11
 173.50061553652
  21
 121.26905097531
  31
0.0
   0
LINE
   5
FD
 100
AcDbEntity
   8
LEVEL001
 100
AcDbLine
   6
CONTINUOUS
  62
3
  10
 149.83660874355
  20
 110.26905097531
  30
0.0
  11
 173.50061553652
  21
 110.26905097531
  31
0.0
   0
LINE
   5
FE
 100
AcDbEntity
   8
LEVEL001
 100
AcDbLine
   6
CONTINUOUS
  62
3
  10
 172.50061553652
  20
 121.26905097531
  30
0.0
  11
 172.50061553652
  21
 115.76905097531
  31
0.0
   0
LINE
   5
FF
 100
AcDbEntity
   8
LEVEL001
 100
AcDbLine
   6
CONTINUOUS
  62
3
  10
 172.50061553652
  20
 110.26905097531
  30
0.0
  11
 172.50061553652
  21
 115.76905097531
  31
0.0
   0
INSERT
   5
100
 100
AcDbEntity
   8
LEVEL001
   6
CONTINUOUS
  62
3
 100
AcDbBlockReference
   2
_OPEN30
  10
 172.50061553652
  20
 121.26905097531
  30
0.0
  41
 3.0000000000000
  42
 3.0000000000000
  43
 3.0000000000000
  50
 90.000000000000
   0
INSERT
   5
101
 100
AcDbEntity
   8
LEVEL001
   6
CONTINUOUS
  62
3
 100
AcDbBlockReference
   2
_OPEN30
  10
 172.50061553652
  20
 110.26905097531
  30
0.0
  41
 3.0000000000000
  42
 3.0000000000000
  43
 3.0000000000000
  50
 270.00000000000
   0
MTEXT
   5
102
 100
AcDbEntity
   8
LEVEL001
  62
3
 100
AcDbMText
  10
 170.78632982223
  20
 115.76905097531
  30
0.0
  40
 4.0000000000000
  41
0.0
  71
8
  72
1
   1
\A1;11
   7
GMM001
  11
0.0
  21
 1.0000000000000
  31
0.0
   0
ENDBLK
   5
103
 100
AcDbEntity
   8
0
 100
AcDbBlockEnd
   0
BLOCK
   5
104
 100
AcDbEntity
   8
0
 100
AcDbBlockBegin
   2
*D10
  70
65
  10
0.0
  20
0.0
  30
0.0
   3
*D10
   0
LINE
   5
105
 100
AcDbEntity
   8
LEVEL001
 100
AcDbLine
   6
CONTINUOUS
  62
3
  10
 169.33262761382
  20
 101.26905097531
  30
0.0
  11
 173.50061553652
  21
 101.26905097531
  31
0.0
   0
LINE
   5
106
 100
AcDbEntity
   8
LEVEL001
 100
AcDbLine
   6
CONTINUOUS
  62
3
  10
 142.99782690406
  20
 96.269050975306
  30
0.0
  11
 173.50061553652
  21
 96.269050975306
  31
0.0
   0
LINE
   5
107
 100
AcDbEntity
   8
LEVEL001
 100
AcDbLine
   6
CONTINUOUS
  62
3
  10
 172.50061553652
  20
 105.01905097531
  30
0.0
  11
 172.50061553652
  21
 98.769050975306
  31
0.0
   0
LINE
   5
108
 100
AcDbEntity
   8
LEVEL001
 100
AcDbLine
   6
CONTINUOUS
  62
3
  10
 172.50061553652
  20
 92.519050975306
  30
0.0
  11
 172.50061553652
  21
 98.769050975306
  31
0.0
   0
INSERT
   5
109
 100
AcDbEntity
   8
LEVEL001
   6
CONTINUOUS
  62
3
 100
AcDbBlockReference
   2
_OPEN30
  10
 172.50061553652
  20
 101.26905097531
  30
0.0
  41
 3.0000000000000
  42
 3.0000000000000
  43
 3.0000000000000
  50
 270.00000000000
   0
INSERT
   5
10A
 100
AcDbEntity
   8
LEVEL001
   6
CONTINUOUS
  62
3
 100
AcDbBlockReference
   2
_OPEN30
  10
 172.50061553652
  20
 96.269050975306
  30
0.0
  41
 3.0000000000000
  42
 3.0000000000000
  43
 3.0000000000000
  50
 90.000000000000
   0
MTEXT
   5
10B
 100
AcDbEntity
   8
LEVEL001
  62
3
 100
AcDbMText
  10
 170.78632982223
  20
 98.769050975306
  30
0.0
  40
 4.0000000000000
  41
0.0
  71
8
  72
1
   1
\A1;5
   7
GMM001
  11
0.0
  21
 1.0000000000000
  31
0.0
   0
ENDBLK
   5
10C
 100
AcDbEntity
   8
0
 100
AcDbBlockEnd
   0
BLOCK
   5
10D
 100
AcDbEntity
   8
0
 100
AcDbBlockBegin
   2
*D11
  70
65
  10
0.0
  20
0.0
  30
0.0
   3
*D11
   0
LINE
   5
10E
 100
AcDbEntity
   8
LEVEL001
 100
AcDbLine
   6
CONTINUOUS
  62
3
  10
 170.33262761382
  20
 110.26905097531
  30
0.0
  11
 173.50061553652
  21
 110.26905097531
  31
0.0
   0
LINE
   5
10F
 100
AcDbEntity
   8
LEVEL001
 100
AcDbLine
   6
CONTINUOUS
  62
3
  10
 143.05857325531
  20
 101.26905097531
  30
0.0
  11
 173.50061553652
  21
 101.26905097531
  31
0.0
   0
LINE
   5
110
 100
AcDbEntity
   8
LEVEL001
 100
AcDbLine
   6
CONTINUOUS
  62
3
  10
 172.50061553652
  20
 110.26905097531
  30
0.0
  11
 172.50061553652
  21
 105.76905097531
  31
0.0
   0
LINE
   5
111
 100
AcDbEntity
   8
LEVEL001
 100
AcDbLine
   6
CONTINUOUS
  62
3
  10
 172.50061553652
  20
 101.26905097531
  30
0.0
  11
 172.50061553652
  21
 105.76905097531
  31
0.0
   0
INSERT
   5
112
 100
AcDbEntity
   8
LEVEL001
   6
CONTINUOUS
  62
3
 100
AcDbBlockReference
   2
_OPEN30
  10
 172.50061553652
  20
 110.26905097531
  30
0.0
  41
 3.0000000000000
  42
 3.0000000000000
  43
 3.0000000000000
  50
 90.000000000000
   0
INSERT
   5
113
 100
AcDbEntity
   8
LEVEL001
   6
CONTINUOUS
  62
3
 100
AcDbBlockReference
   2
_OPEN30
  10
 172.50061553652
  20
 101.26905097531
  30
0.0
  41
 3.0000000000000
  42
 3.0000000000000
  43
 3.0000000000000
  50
 270.00000000000
   0
MTEXT
   5
114
 100
AcDbEntity
   8
LEVEL001
  62
3
 100
AcDbMText
  10
 170.78632982223
  20
 105.76905097531
  30
0.0
  40
 4.0000000000000
  41
0.0
  71
8
  72
1
   1
\A1;9
   7
GMM001
  11
0.0
  21
 1.0000000000000
  31
0.0
   0
ENDBLK
   5
115
 100
AcDbEntity
   8
0
 100
AcDbBlockEnd
   0
BLOCK
   5
116
 100
AcDbEntity
   8
0
 100
AcDbBlockBegin
   2
*D12
  70
65
  10
0.0
  20
0.0
  30
0.0
   3
*D12
   0
LINE
   5
117
 100
AcDbEntity
   8
LEVEL001
 100
AcDbLine
   6
CONTINUOUS
  62
3
  10
 169.33262761382
  20
 96.269050975306
  30
0.0
  11
 173.50061553652
  21
 96.269050975306
  31
0.0
   0
LINE
   5
118
 100
AcDbEntity
   8
LEVEL001
 100
AcDbLine
   6
CONTINUOUS
  62
3
  10
 156.05857325531
  20
 88.769050975306
  30
0.0
  11
 173.50061553652
  21
 88.769050975306
  31
0.0
   0
LINE
   5
119
 100
AcDbEntity
   8
LEVEL001
 100
AcDbLine
   6
CONTINUOUS
  62
3
  10
 172.50061553652
  20
 96.269050975306
  30
0.0
  11
 172.50061553652
  21
 92.519050975306
  31
0.0
   0
LINE
   5
11A
 100
AcDbEntity
   8
LEVEL001
 100
AcDbLine
   6
CONTINUOUS
  62
3
  10
 172.50061553652
  20
 78.757501227595
  30
0.0
  11
 172.50061553652
  21
 92.519050975306
  31
0.0
   0
INSERT
   5
11B
 100
AcDbEntity
   8
LEVEL001
   6
CONTINUOUS
  62
3
 100
AcDbBlockReference
   2
_OPEN30
  10
 172.50061553652
  20
 96.269050975306
  30
0.0
  41
 3.0000000000000
  42
 3.0000000000000
  43
 3.0000000000000
  50
 90.000000000000
   0
INSERT
   5
11C
 100
AcDbEntity
   8
LEVEL001
   6
CONTINUOUS
  62
3
 100
AcDbBlockReference
   2
_OPEN30
  10
 172.50061553652
  20
 88.769050975306
  30
0.0
  41
 3.0000000000000
  42
 3.0000000000000
  43
 3.0000000000000
  50
 270.00000000000
   0
MTEXT
   5
11D
 100
AcDbEntity
   8
LEVEL001
  62
3
 100
AcDbMText
  10
 170.65105675985
  20
 88.257501227595
  30
0.0
  40
 4.0000000000000
  41
0.0
  71
9
  72
1
   1
\A1;7.5
   7
GMM001
  11
0.0
  21
 1.0000000000000
  31
0.0
   0
ENDBLK
   5
11E
 100
AcDbEntity
   8
0
 100
AcDbBlockEnd
   0
BLOCK
   5
11F
 100
AcDbEntity
   8
0
 100
AcDbBlockBegin
   2
*D13
  70
65
  10
0.0
  20
0.0
  30
0.0
   3
*D13
   0
LINE
   5
120
 100
AcDbEntity
   8
LEVEL001
 100
AcDbLine
   6
CONTINUOUS
  62
3
  10
 121.05857325531
  20
 121.26905097531
  30
0.0
  11
 107.70210274920
  21
 121.26905097531
  31
0.0
   0
LINE
   5
121
 100
AcDbEntity
   8
LEVEL001
 100
AcDbLine
   6
CONTINUOUS
  62
3
  10
 124.05857325531
  20
 118.26905097531
  30
0.0
  11
 107.70210274920
  21
 118.26905097531
  31
0.0
   0
LINE
   5
122
 100
AcDbEntity
   8
LEVEL001
 100
AcDbLine
   6
CONTINUOUS
  62
3
  10
 108.70210274920
  20
 127.09032040923
  30
0.0
  11
 108.70210274920
  21
 119.76905097531
  31
0.0
   0
LINE
   5
123
 100
AcDbEntity
   8
LEVEL001
 100
AcDbLine
   6
CONTINUOUS
  62
3
  10
 108.70210274920
  20
 114.51905097531
  30
0.0
  11
 108.70210274920
  21
 119.76905097531
  31
0.0
   0
INSERT
   5
124
 100
AcDbEntity
   8
LEVEL001
   6
CONTINUOUS
  62
3
 100
AcDbBlockReference
   2
_OPEN30
  10
 108.70210274920
  20
 121.26905097531
  30
0.0
  41
 3.0000000000000
  42
 3.0000000000000
  43
 3.0000000000000
  50
 270.00000000000
   0
INSERT
   5
125
 100
AcDbEntity
   8
LEVEL001
   6
CONTINUOUS
  62
3
 100
AcDbBlockReference
   2
_OPEN30
  10
 108.70210274920
  20
 118.26905097531
  30
0.0
  41
 3.0000000000000
  42
 3.0000000000000
  43
 3.0000000000000
  50
 90.000000000000
   0
MTEXT
   5
126
 100
AcDbEntity
   8
LEVEL001
  62
3
 100
AcDbMText
  10
 107.15377713329
  20
 123.29032040923
  30
0.0
  40
 4.0000000000000
  41
0.0
  71
7
  72
1
   1
\A1;3
   7
GMM001
  11
0.0
  21
 1.0000000000000
  31
0.0
   0
ENDBLK
   5
127
 100
AcDbEntity
   8
0
 100
AcDbBlockEnd
   0
BLOCK
   5
128
 100
AcDbEntity
   8
0
 100
AcDbBlockBegin
   2
*D14
  70
65
  10
0.0
  20
0.0
  30
0.0
   3
*D14
   0
LINE
   5
129
 100
AcDbEntity
   8
LEVEL001
 100
AcDbLine
   6
CONTINUOUS
  62
3
  10
 124.05857325531
  20
 102.26905097531
  30
0.0
  11
 107.70210274920
  21
 102.26905097531
  31
0.0
   0
LINE
   5
12A
 100
AcDbEntity
   8
LEVEL001
 100
AcDbLine
   6
CONTINUOUS
  62
3
  10
 108.70210274920
  20
 102.26905097531
  30
0.0
  11
 108.70210274920
  21
 110.26905097531
  31
0.0
   0
LINE
   5
12B
 100
AcDbEntity
   8
LEVEL001
 100
AcDbLine
   6
CONTINUOUS
  62
3
  10
 108.70210274920
  20
 118.26905097531
  30
0.0
  11
 108.70210274920
  21
 110.26905097531
  31
0.0
   0
INSERT
   5
12C
 100
AcDbEntity
   8
LEVEL001
   6
CONTINUOUS
  62
3
 100
AcDbBlockReference
   2
_OPEN30
  10
 108.70210274920
  20
 102.26905097531
  30
0.0
  41
 3.0000000000000
  42
 3.0000000000000
  43
 3.0000000000000
  50
 270.00000000000
   0
INSERT
   5
12D
 100
AcDbEntity
   8
LEVEL001
   6
CONTINUOUS
  62
3
 100
AcDbBlockReference
   2
_OPEN30
  10
 108.70210274920
  20
 118.26905097531
  30
0.0
  41
 3.0000000000000
  42
 3.0000000000000
  43
 3.0000000000000
  50
 90.000000000000
   0
MTEXT
   5
12E
 100
AcDbEntity
   8
LEVEL001
  62
3
 100
AcDbMText
  10
 106.98781703491
  20
 110.26905097531
  30
0.0
  40
 4.0000000000000
  41
0.0
  71
8
  72
1
   1
\A1;16
   7
GMM001
  11
0.0
  21
 1.0000000000000
  31
0.0
   0
ENDBLK
   5
12F
 100
AcDbEntity
   8
0
 100
AcDbBlockEnd
   0
BLOCK
   5
130
 100
AcDbEntity
   8
0
 100
AcDbBlockBegin
   2
*D15
  70
65
  10
0.0
  20
0.0
  30
0.0
   3
*D15
   0
LINE
   5
131
 100
AcDbEntity
   8
LEVEL001
 100
AcDbLine
   6
CONTINUOUS
  62
3
  10
 124.05857325531
  20
 91.269050975306
  30
0.0
  11
 107.70210274920
  21
 91.269050975306
  31
0.0
   0
LINE
   5
132
 100
AcDbEntity
   8
LEVEL001
 100
AcDbLine
   6
CONTINUOUS
  62
3
  10
 108.70210274920
  20
 102.26905097531
  30
0.0
  11
 108.70210274920
  21
 96.769050975306
  31
0.0
   0
LINE
   5
133
 100
AcDbEntity
   8
LEVEL001
 100
AcDbLine
   6
CONTINUOUS
  62
3
  10
 108.70210274920
  20
 91.269050975306
  30
0.0
  11
 108.70210274920
  21
 96.769050975306
  31
0.0
   0
INSERT
   5
134
 100
AcDbEntity
   8
LEVEL001
   6
CONTINUOUS
  62
3
 100
AcDbBlockReference
   2
_OPEN30
  10
 108.70210274920
  20
 102.26905097531
  30
0.0
  41
 3.0000000000000
  42
 3.0000000000000
  43
 3.0000000000000
  50
 90.000000000000
   0
INSERT
   5
135
 100
AcDbEntity
   8
LEVEL001
   6
CONTINUOUS
  62
3
 100
AcDbBlockReference
   2
_OPEN30
  10
 108.70210274920
  20
 91.269050975306
  30
0.0
  41
 3.0000000000000
  42
 3.0000000000000
  43
 3.0000000000000
  50
 270.00000000000
   0
MTEXT
   5
136
 100
AcDbEntity
   8
LEVEL001
  62
3
 100
AcDbMText
  10
 106.98781703491
  20
 96.769050975306
  30
0.0
  40
 4.0000000000000
  41
0.0
  71
8
  72
1
   1
\A1;11
   7
GMM001
  11
0.0
  21
 1.0000000000000
  31
0.0
   0
ENDBLK
   5
137
 100
AcDbEntity
   8
0
 100
AcDbBlockEnd
   0
BLOCK
   5
138
 100
AcDbEntity
   8
0
 100
AcDbBlockBegin
   2
*D16
  70
65
  10
0.0
  20
0.0
  30
0.0
   3
*D16
   0
LINE
   5
139
 100
AcDbEntity
   8
LEVEL001
 100
AcDbLine
   6
CONTINUOUS
  62
3
  10
 121.05857325531
  20
 88.769050975306
  30
0.0
  11
 107.70210274920
  21
 88.769050975306
  31
0.0
   0
LINE
   5
13A
 100
AcDbEntity
   8
LEVEL001
 100
AcDbLine
   6
CONTINUOUS
  62
3
  10
 108.70210274920
  20
 95.019050975306
  30
0.0
  11
 108.70210274920
  21
 90.019050975306
  31
0.0
   0
LINE
   5
13B
 100
AcDbEntity
   8
LEVEL001
 100
AcDbLine
   6
CONTINUOUS
  62
3
  10
 108.70210274920
  20
 76.347004107778
  30
0.0
  11
 108.70210274920
  21
 90.019050975306
  31
0.0
   0
INSERT
   5
13C
 100
AcDbEntity
   8
LEVEL001
   6
CONTINUOUS
  62
3
 100
AcDbBlockReference
   2
_OPEN30
  10
 108.70210274920
  20
 91.269050975306
  30
0.0
  41
 3.0000000000000
  42
 3.0000000000000
  43
 3.0000000000000
  50
 270.00000000000
   0
INSERT
   5
13D
 100
AcDbEntity
   8
LEVEL001
   6
CONTINUOUS
  62
3
 100
AcDbBlockReference
   2
_OPEN30
  10
 108.70210274920
  20
 88.769050975306
  30
0.0
  41
 3.0000000000000
  42
 3.0000000000000
  43
 3.0000000000000
  50
 90.000000000000
   0
MTEXT
   5
13E
 100
AcDbEntity
   8
LEVEL001
  62
3
 100
AcDbMText
  10
 106.98781703491
  20
 81.097004107778
  30
0.0
  40
 4.0000000000000
  41
0.0
  71
8
  72
1
   1
\A1;2.5
   7
GMM001
  11
0.0
  21
 1.0000000000000
  31
0.0
   0
ENDBLK
   5
13F
 100
AcDbEntity
   8
0
 100
AcDbBlockEnd
   0
BLOCK
   5
140
 100
AcDbEntity
   8
0
 100
AcDbBlockBegin
   2
*D17
  70
65
  10
0.0
  20
0.0
  30
0.0
   3
*D17
   0
LINE
   5
141
 100
AcDbEntity
   8
LEVEL001
 100
AcDbLine
   6
CONTINUOUS
  62
3
  10
 121.05857325531
  20
 170.58733786758
  30
0.0
  11
 107.70210274920
  21
 170.58733786758
  31
0.0
   0
LINE
   5
142
 100
AcDbEntity
   8
LEVEL001
 100
AcDbLine
   6
CONTINUOUS
  62
3
  10
 132.83630641715
  20
 180.58733786758
  30
0.0
  11
 107.70210274920
  21
 180.58733786758
  31
0.0
   0
LINE
   5
143
 100
AcDbEntity
   8
LEVEL001
 100
AcDbLine
   6
CONTINUOUS
  62
3
  10
 108.70210274920
  20
 170.58733786758
  30
0.0
  11
 108.70210274920
  21
 175.58733786758
  31
0.0
   0
LINE
   5
144
 100
AcDbEntity
   8
LEVEL001
 100
AcDbLine
   6
CONTINUOUS
  62
3
  10
 108.70210274920
  20
 180.58733786758
  30
0.0
  11
 108.70210274920
  21
 175.58733786758
  31
0.0
   0
INSERT
   5
145
 100
AcDbEntity
   8
LEVEL001
   6
CONTINUOUS
  62
3
 100
AcDbBlockReference
   2
_OPEN30
  10
 108.70210274920
  20
 170.58733786758
  30
0.0
  41
 3.0000000000000
  42
 3.0000000000000
  43
 3.0000000000000
  50
 270.00000000000
   0
INSERT
   5
146
 100
AcDbEntity
   8
LEVEL001
   6
CONTINUOUS
  62
3
 100
AcDbBlockReference
   2
_OPEN30
  10
 108.70210274920
  20
 180.58733786758
  30
0.0
  41
 3.0000000000000
  42
 3.0000000000000
  43
 3.0000000000000
  50
 90.000000000000
   0
MTEXT
   5
147
 100
AcDbEntity
   8
LEVEL001
  62
3
 100
AcDbMText
  10
 106.98781703491
  20
 175.58733786758
  30
0.0
  40
 4.0000000000000
  41
0.0
  71
8
  72
1
   1
\A1;10
   7
GMM001
  11
0.0
  21
 1.0000000000000
  31
0.0
   0
ENDBLK
   5
148
 100
AcDbEntity
   8
0
 100
AcDbBlockEnd
   0
BLOCK
   5
149
 100
AcDbEntity
   8
0
 100
AcDbBlockBegin
   2
*D18
  70
65
  10
0.0
  20
0.0
  30
0.0
   3
*D18
   0
LINE
   5
14A
 100
AcDbEntity
   8
LEVEL001
 100
AcDbLine
   6
CONTINUOUS
  62
3
  10
 109.05863638795
  20
 180.58733786758
  30
0.0
  11
 107.70210274920
  21
 180.58733786758
  31
0.0
   0
LINE
   5
14B
 100
AcDbEntity
   8
LEVEL001
 100
AcDbLine
   6
CONTINUOUS
  62
3
  10
 134.49942133284
  20
 202.58733786758
  30
0.0
  11
 107.70210274920
  21
 202.58733786758
  31
0.0
   0
LINE
   5
14C
 100
AcDbEntity
   8
LEVEL001
 100
AcDbLine
   6
CONTINUOUS
  62
3
  10
 108.70210274920
  20
 180.58733786758
  30
0.0
  11
 108.70210274920
  21
 191.58733786758
  31
0.0
   0
LINE
   5
14D
 100
AcDbEntity
   8
LEVEL001
 100
AcDbLine
   6
CONTINUOUS
  62
3
  10
 108.70210274920
  20
 202.58733786758
  30
0.0
  11
 108.70210274920
  21
 191.58733786758
  31
0.0
   0
INSERT
   5
14E
 100
AcDbEntity
   8
LEVEL001
   6
CONTINUOUS
  62
3
 100
AcDbBlockReference
   2
_OPEN30
  10
 108.70210274920
  20
 180.58733786758
  30
0.0
  41
 3.0000000000000
  42
 3.0000000000000
  43
 3.0000000000000
  50
 270.00000000000
   0
INSERT
   5
14F
 100
AcDbEntity
   8
LEVEL001
   6
CONTINUOUS
  62
3
 100
AcDbBlockReference
   2
_OPEN30
  10
 108.70210274920
  20
 202.58733786758
  30
0.0
  41
 3.0000000000000
  42
 3.0000000000000
  43
 3.0000000000000
  50
 90.000000000000
   0
MTEXT
   5
150
 100
AcDbEntity
   8
LEVEL001
  62
3
 100
AcDbMText
  10
 106.98781703491
  20
 191.58733786758
  30
0.0
  40
 4.0000000000000
  41
0.0
  71
8
  72
1
   1
\A1;22
   7
GMM001
  11
0.0
  21
 1.0000000000000
  31
0.0
   0
ENDBLK
   5
151
 100
AcDbEntity
   8
0
 100
AcDbBlockEnd
   0
BLOCK
   5
152
 100
AcDbEntity
   8
0
 100
AcDbBlockBegin
   2
*D19
  70
65
  10
0.0
  20
0.0
  30
0.0
   3
*D19
   0
LINE
   5
153
 100
AcDbEntity
   8
LEVEL001
 100
AcDbLine
   6
CONTINUOUS
  62
3
  10
 132.05857325531
  20
 115.00092986174
  30
0.0
  11
 132.05857325531
  21
 130.87073928973
  31
0.0
   0
LINE
   5
154
 100
AcDbEntity
   8
LEVEL001
 100
AcDbLine
   6
CONTINUOUS
  62
3
  10
 145.05857325531
  20
 115.00092986174
  30
0.0
  11
 145.05857325531
  21
 130.87073928973
  31
0.0
   0
LINE
   5
155
 100
AcDbEntity
   8
LEVEL001
 100
AcDbLine
   6
CONTINUOUS
  62
3
  10
 132.05857325531
  20
 129.87073928973
  30
0.0
  11
 138.55857325531
  21
 129.87073928973
  31
0.0
   0
LINE
   5
156
 100
AcDbEntity
   8
LEVEL001
 100
AcDbLine
   6
CONTINUOUS
  62
3
  10
 145.05857325531
  20
 129.87073928973
  30
0.0
  11
 138.55857325531
  21
 129.87073928973
  31
0.0
   0
INSERT
   5
157
 100
AcDbEntity
   8
LEVEL001
   6
CONTINUOUS
  62
3
 100
AcDbBlockReference
   2
_OPEN30
  10
 132.05857325531
  20
 129.87073928973
  30
0.0
  41
 3.0000000000000
  42
 3.0000000000000
  43
 3.0000000000000
  50
 180.00000000000
   0
INSERT
   5
158
 100
AcDbEntity
   8
LEVEL001
   6
CONTINUOUS
  62
3
 100
AcDbBlockReference
   2
_OPEN30
  10
 145.05857325531
  20
 129.87073928973
  30
0.0
  41
 3.0000000000000
  42
 3.0000000000000
  43
 3.0000000000000
  50
0.0
   0
MTEXT
   5
159
 100
AcDbEntity
   8
LEVEL001
  62
3
 100
AcDbMText
  10
 138.55857325531
  20
 131.58502500402
  30
0.0
  40
 4.0000000000000
  41
0.0
  71
8
  72
1
   1
\A1;13
   7
GMM001
   0
ENDBLK
   5
15A
 100
AcDbEntity
   8
0
 100
AcDbBlockEnd
   0
BLOCK
   5
15B
 100
AcDbEntity
   8
0
 100
AcDbBlockBegin
   2
*D20
  70
65
  10
0.0
  20
0.0
  30
0.0
   3
*D20
   0
POLYLINE
   5
15C
 100
AcDbEntity
   8
LEVEL001
   6
CONTINUOUS
  62
3
 100
AcDb2dPolyline
  66
1
  10
0.0
  20
0.0
  30
0.0
  70
0
   0
VERTEX
   5
15D
 100
AcDbEntity
   8
LEVEL001
   6
CONTINUOUS
  62
3
 100
AcDbVertex
 100
AcDb2dVertex
  10
 145.05857325531
  20
 110.26905097531
  30
0.0
   0
VERTEX
   5
15E
 100
AcDbEntity
   8
LEVEL001
   6
CONTINUOUS
  62
3
 100
AcDbVertex
 100
AcDb2dVertex
  10
 160.76055532368
  20
 132.49912810420
  30
0.0
   0
VERTEX
   5
15F
 100
AcDbEntity
   8
LEVEL001
   6
CONTINUOUS
  62
3
 100
AcDbVertex
 100
AcDb2dVertex
  10
 185.46055532368
  20
 132.49912810420
  30
0.0
   0
SEQEND
   5
160
 100
AcDbEntity
   8
LEVEL001
   6
CONTINUOUS
  62
3
   0
INSERT
   5
161
 100
AcDbEntity
   8
LEVEL001
   6
CONTINUOUS
  62
3
 100
AcDbBlockReference
   2
_OPEN30
  10
 145.05857325531
  20
 110.26905097531
  30
0.0
  41
 3.0000000000000
  42
 3.0000000000000
  43
 3.0000000000000
  50
 234.76492803472
   0
MTEXT
   5
162
 100
AcDbEntity
   8
LEVEL001
  62
3
 100
AcDbMText
  10
 160.76055532368
  20
 134.21341381848
  30
0.0
  40
 4.0000000000000
  41
0.0
  71
7
  72
1
   1
\A1;２－%%c５.３穴
   7
GMM001
   0
ENDBLK
   5
163
 100
AcDbEntity
   8
0
 100
AcDbBlockEnd
   0
BLOCK
   5
164
 100
AcDbEntity
   8
0
 100
AcDbBlockBegin
   2
*D21
  70
65
  10
0.0
  20
0.0
  30
0.0
   3
*D21
   0
LINE
   5
165
 100
AcDbEntity
   8
LEVEL001
 100
AcDbLine
   6
CONTINUOUS
  62
3
  10
 143.55857325531
  20
 100.76905097531
  30
0.0
  11
 146.16960940989
  21
 95.366968950802
  31
0.0
   0
LINE
   5
166
 100
AcDbEntity
   8
LEVEL001
 100
AcDbLine
   6
CONTINUOUS
  62
3
  10
 146.16960940989
  20
 95.366968950802
  30
0.0
  11
 155.99723095642
  21
 75.034191249918
  31
0.0
   0
INSERT
   5
167
 100
AcDbEntity
   8
LEVEL001
   6
CONTINUOUS
  62
3
 100
AcDbBlockReference
   2
_OPEN30
  10
 148.78064556448
  20
 89.964886926298
  30
0.0
  41
 3.0000000000000
  42
 3.0000000000000
  43
 3.0000000000000
  50
 115.79628307339
   0
MTEXT
   5
168
 100
AcDbEntity
   8
LEVEL001
  62
3
 100
AcDbMText
  10
 152.57971426971
  20
 86.044157426355
  30
0.0
  40
 4.0000000000000
  41
0.0
  71
7
  72
1
   1
\A1;R12
   7
GMM001
  11
 0.43517269243034
  21
-0.90034700408394
  31
0.0
   0
ENDBLK
   5
169
 100
AcDbEntity
   8
0
 100
AcDbBlockEnd
   0
BLOCK
   5
16A
 100
AcDbEntity
   8
0
 100
AcDbBlockBegin
   2
*D22
  70
65
  10
0.0
  20
0.0
  30
0.0
   3
*D22
   0
LINE
   5
16B
 100
AcDbEntity
   8
LEVEL001
 100
AcDbLine
   6
CONTINUOUS
  62
3
  10
 134.55857325531
  20
 101.26905097531
  30
0.0
  11
 132.58473812354
  21
 96.675144699316
  31
0.0
   0
LINE
   5
16C
 100
AcDbEntity
   8
LEVEL001
 100
AcDbLine
   6
CONTINUOUS
  62
3
  10
 132.58473812354
  20
 96.675144699316
  30
0.0
  11
 124.05498458501
  21
 76.822985984291
  31
0.0
   0
INSERT
   5
16D
 100
AcDbEntity
   8
LEVEL001
   6
CONTINUOUS
  62
3
 100
AcDbBlockReference
   2
_OPEN30
  10
 130.61090299176
  20
 92.081238423327
  30
0.0
  41
 3.0000000000000
  42
 3.0000000000000
  43
 3.0000000000000
  50
 66.748555113828
   0
MTEXT
   5
16E
 100
AcDbEntity
   8
LEVEL001
  62
3
 100
AcDbMText
  10
 126.98027510512
  20
 87.973835767298
  30
0.0
  40
 4.0000000000000
  41
0.0
  71
9
  72
1
   1
\A1;R10
   7
GMM001
  11
 0.39476702635480
  21
 0.91878125519788
  31
0.0
   0
ENDBLK
   5
16F
 100
AcDbEntity
   8
0
 100
AcDbBlockEnd
   0
BLOCK
   5
170
 100
AcDbEntity
   8
0
 100
AcDbBlockBegin
   2
*D23
  70
65
  10
0.0
  20
0.0
  30
0.0
   3
*D23
   0
POLYLINE
   5
171
 100
AcDbEntity
   8
LEVEL001
   6
CONTINUOUS
  62
3
 100
AcDb2dPolyline
  66
1
  10
0.0
  20
0.0
  30
0.0
  70
0
   0
VERTEX
   5
172
 100
AcDbEntity
   8
LEVEL001
   6
CONTINUOUS
  62
3
 100
AcDbVertex
 100
AcDb2dVertex
  10
 138.55857325531
  20
 96.269050975306
  30
0.0
   0
VERTEX
   5
173
 100
AcDbEntity
   8
LEVEL001
   6
CONTINUOUS
  62
3
 100
AcDbVertex
 100
AcDb2dVertex
  10
 152.17775312446
  20
 65.992214553023
  30
0.0
   0
VERTEX
   5
174
 100
AcDbEntity
   8
LEVEL001
   6
CONTINUOUS
  62
3
 100
AcDbVertex
 100
AcDb2dVertex
  10
 173.07775312446
  20
 65.992214553023
  30
0.0
   0
SEQEND
   5
175
 100
AcDbEntity
   8
LEVEL001
   6
CONTINUOUS
  62
3
   0
INSERT
   5
176
 100
AcDbEntity
   8
LEVEL001
   6
CONTINUOUS
  62
3
 100
AcDbBlockReference
   2
_OPEN30
  10
 138.55857325531
  20
 96.269050975306
  30
0.0
  41
 3.0000000000000
  42
 3.0000000000000
  43
 3.0000000000000
  50
 114.21925214672
   0
MTEXT
   5
177
 100
AcDbEntity
   8
LEVEL001
  62
3
 100
AcDbMText
  10
 152.17775312446
  20
 67.706500267309
  30
0.0
  40
 4.0000000000000
  41
0.0
  71
7
  72
1
   1
\A1;%%c５.３長穴
   7
GMM001
   0
ENDBLK
   5
178
 100
AcDbEntity
   8
0
 100
AcDbBlockEnd
   0
BLOCK
   5
179
 100
AcDbEntity
   8
0
 100
AcDbBlockBegin
   2
*D24
  70
65
  10
0.0
  20
0.0
  30
0.0
   3
*D24
   0
LINE
   5
17A
 100
AcDbEntity
   8
LEVEL001
 100
AcDbLine
   6
CONTINUOUS
  62
3
  10
 121.55857325531
  20
 170.08733786758
  30
0.0
  11
 121.55857325531
  21
 152.70803443329
  31
0.0
   0
LINE
   5
17B
 100
AcDbEntity
   8
LEVEL001
 100
AcDbLine
   6
CONTINUOUS
  62
3
  10
 155.55857325531
  20
 170.08733786758
  30
0.0
  11
 155.55857325531
  21
 152.70803443329
  31
0.0
   0
LINE
   5
17C
 100
AcDbEntity
   8
LEVEL001
 100
AcDbLine
   6
CONTINUOUS
  62
3
  10
 121.55857325531
  20
 153.70803443329
  30
0.0
  11
 138.55857325531
  21
 153.70803443329
  31
0.0
   0
LINE
   5
17D
 100
AcDbEntity
   8
LEVEL001
 100
AcDbLine
   6
CONTINUOUS
  62
3
  10
 155.55857325531
  20
 153.70803443329
  30
0.0
  11
 138.55857325531
  21
 153.70803443329
  31
0.0
   0
INSERT
   5
17E
 100
AcDbEntity
   8
LEVEL001
   6
CONTINUOUS
  62
3
 100
AcDbBlockReference
   2
_OPEN30
  10
 121.55857325531
  20
 153.70803443329
  30
0.0
  41
 3.0000000000000
  42
 3.0000000000000
  43
 3.0000000000000
  50
 180.00000000000
   0
INSERT
   5
17F
 100
AcDbEntity
   8
LEVEL001
   6
CONTINUOUS
  62
3
 100
AcDbBlockReference
   2
_OPEN30
  10
 155.55857325531
  20
 153.70803443329
  30
0.0
  41
 3.0000000000000
  42
 3.0000000000000
  43
 3.0000000000000
  50
0.0
   0
MTEXT
   5
180
 100
AcDbEntity
   8
LEVEL001
  62
3
 100
AcDbMText
  10
 138.55857325531
  20
 155.42232014757
  30
0.0
  40
 4.0000000000000
  41
0.0
  71
8
  72
1
   1
\A1;34
   7
GMM001
   0
ENDBLK
   5
181
 100
AcDbEntity
   8
0
 100
AcDbBlockEnd
   0
BLOCK
   5
182
 100
AcDbEntity
   8
0
 100
AcDbBlockBegin
   2
*D25
  70
65
  10
0.0
  20
0.0
  30
0.0
   3
*D25
   0
LINE
   5
183
 100
AcDbEntity
   8
LEVEL001
 100
AcDbLine
   6
CONTINUOUS
  62
3
  10
 202.37454037926
  20
 170.08733786758
  30
0.0
  11
 202.37454037926
  21
 152.70803443329
  31
0.0
   0
LINE
   5
184
 100
AcDbEntity
   8
LEVEL001
 100
AcDbLine
   6
CONTINUOUS
  62
3
  10
 234.87454037926
  20
 170.08733786758
  30
0.0
  11
 234.87454037926
  21
 152.70803443329
  31
0.0
   0
LINE
   5
185
 100
AcDbEntity
   8
LEVEL001
 100
AcDbLine
   6
CONTINUOUS
  62
3
  10
 202.37454037926
  20
 153.70803443329
  30
0.0
  11
 218.62454037926
  21
 153.70803443329
  31
0.0
   0
LINE
   5
186
 100
AcDbEntity
   8
LEVEL001
 100
AcDbLine
   6
CONTINUOUS
  62
3
  10
 234.87454037926
  20
 153.70803443329
  30
0.0
  11
 218.62454037926
  21
 153.70803443329
  31
0.0
   0
INSERT
   5
187
 100
AcDbEntity
   8
LEVEL001
   6
CONTINUOUS
  62
3
 100
AcDbBlockReference
   2
_OPEN30
  10
 202.37454037926
  20
 153.70803443329
  30
0.0
  41
 3.0000000000000
  42
 3.0000000000000
  43
 3.0000000000000
  50
 180.00000000000
   0
INSERT
   5
188
 100
AcDbEntity
   8
LEVEL001
   6
CONTINUOUS
  62
3
 100
AcDbBlockReference
   2
_OPEN30
  10
 234.87454037926
  20
 153.70803443329
  30
0.0
  41
 3.0000000000000
  42
 3.0000000000000
  43
 3.0000000000000
  50
0.0
   0
MTEXT
   5
189
 100
AcDbEntity
   8
LEVEL001
  62
3
 100
AcDbMText
  10
 218.62454037926
  20
 155.42232014757
  30
0.0
  40
 4.0000000000000
  41
0.0
  71
8
  72
1
   1
\A1;32.5
   7
GMM001
   0
ENDBLK
   5
18A
 100
AcDbEntity
   8
0
 100
AcDbBlockEnd
   0
ENDSEC
   0
SECTION
   2
ENTITIES
   0
LINE
   5
18B
 100
AcDbEntity
   8
LEVEL001
 100
AcDbLine
   6
CONTINUOUS
  62
15
  10
 373.73341285519
  20
 223.32547463304
  30
0.0
  11
 365.80725509189
  21
 246.86207834154
  31
0.0
   0
LINE
   5
18C
 100
AcDbEntity
   8
LEVEL001
 100
AcDbLine
   6
CONTINUOUS
  62
15
  10
 332.37222485739
  20
 248.01781969994
  30
0.0
  11
 332.37222483929
  21
 216.17261810274
  31
0.0
   0
LINE
   5
18D
 100
AcDbEntity
   8
LEVEL001
 100
AcDbLine
   6
CONTINUOUS
  62
15
  10
 374.01004947729
  20
 215.56031201894
  30
0.0
  11
 374.01004947729
  21
 221.63720898094
  31
0.0
   0
ARC
   5
18E
 100
AcDbEntity
   8
LEVEL001
   6
CONTINUOUS
  62
15
 100
AcDbCircle
  10
 338.43260572159
  20
 233.79435352994
  30
0.0
  40
 16.876719397652
 100
AcDbArc
  50
 2.5559702386000
  51
 57.444029907000
   0
ARC
   5
18F
 100
AcDbEntity
   8
LEVEL001
   6
CONTINUOUS
  62
15
 100
AcDbCircle
  10
 338.30964935619
  20
 233.72336463544
  30
0.0
  40
 18.415525971738
 100
AcDbArc
  50
 2.5633368485005
  51
 57.436663297201
   0
ARC
   5
190
 100
AcDbEntity
   8
LEVEL001
   6
CONTINUOUS
  62
15
 100
AcDbCircle
  10
 355.99964183719
  20
 235.91168700624
  30
0.0
  40
 1.5370219079117
 100
AcDbArc
  50
 242.60967223658
  51
 297.39032776337
   0
LINE
   5
191
 100
AcDbEntity
   8
LEVEL001
 100
AcDbLine
   6
CONTINUOUS
  62
15
  10
 362.92007757549
  20
 238.13385437934
  30
0.0
  11
 356.70674861839
  21
 234.54697592124
  31
0.0
   0
ARC
   5
192
 100
AcDbEntity
   8
LEVEL001
   6
CONTINUOUS
  62
15
 100
AcDbCircle
  10
 344.52297831319
  20
 237.31024309354
  30
0.0
  40
 18.415525971738
 100
AcDbArc
  50
 2.5633368484992
  51
 57.436663297199
   0
LINE
   5
193
 100
AcDbEntity
   8
LEVEL001
 100
AcDbLine
   6
CONTINUOUS
  62
15
  10
 355.29253505609
  20
 202.70188425774
  30
0.0
  11
 355.29253505609
  21
 234.54697592124
  31
0.0
   0
LINE
   5
194
 100
AcDbEntity
   8
LEVEL001
 100
AcDbLine
   6
CONTINUOUS
  62
15
  10
 332.66511805809
  20
 215.76441404684
  30
0.0
  11
 355.29253505609
  21
 202.70188425774
  31
0.0
   0
LINE
   5
195
 100
AcDbEntity
   8
LEVEL001
 100
AcDbLine
   6
CONTINUOUS
  62
15
  10
 332.66511805809
  20
 247.60950571044
  30
0.0
  11
 332.66511805809
  21
 215.76441404684
  31
0.0
   0
ARC
   5
196
 100
AcDbEntity
   8
LEVEL001
   6
CONTINUOUS
  62
15
 100
AcDbCircle
  10
 355.99964183719
  20
 204.06659534264
  30
0.0
  40
 1.5370219079117
 100
AcDbArc
  50
 242.60967223658
  51
 297.39032776337
   0
LINE
   5
197
 100
AcDbEntity
   8
LEVEL001
 100
AcDbLine
   6
CONTINUOUS
  62
15
  10
 356.70674861839
  20
 234.54697592124
  30
0.0
  11
 356.70674861839
  21
 202.70188425774
  31
0.0
   0
LINE
   5
198
 100
AcDbEntity
   8
LEVEL001
 100
AcDbLine
   6
CONTINUOUS
  62
15
  10
 370.49533085159
  20
 210.66186334794
  30
0.0
  11
 370.49533085159
  21
 215.63925615464
  31
0.0
   0
LINE
   5
199
 100
AcDbEntity
   8
LEVEL001
 100
AcDbLine
   6
CONTINUOUS
  62
15
  10
 356.70674861839
  20
 202.70188425774
  30
0.0
  11
 370.49533085159
  21
 210.66186334794
  31
0.0
   0
LINE
   5
19A
 100
AcDbEntity
   8
LEVEL001
 100
AcDbLine
   6
CONTINUOUS
  62
15
  10
 370.49533085159
  20
 215.63925615464
  30
0.0
  11
 362.92007757549
  21
 238.13385437934
  31
0.0
   0
ELLIPSE
   5
19B
 100
AcDbEntity
   8
LEVEL001
   6
CONTINUOUS
  62
15
 100
AcDbEllipse
  10
 362.01004947729
  20
 220.53770482564
  30
0.0
  11
-11.930640396349
  21
-1.9549364494714
  31
0.0
  40
 0.65901882080000
  41
 2.2486255023562
  42
-3.0340236657536
   0
ARC
   5
19C
 100
AcDbEntity
   8
LEVEL001
   6
CONTINUOUS
  62
15
 100
AcDbCircle
  10
 332.87268190179
  20
 216.22252447964
  30
0.0
  40
 0.50293927849369
 100
AcDbArc
  50
 185.69479925099
  51
 245.62534170599
   0
ARC
   5
19D
 100
AcDbEntity
   8
LEVEL001
   6
CONTINUOUS
  62
15
 100
AcDbCircle
  10
 368.00878935009
  20
 216.15615730444
  30
0.0
  40
 6.0307673407968
 100
AcDbArc
  50
 294.34998462580
  51
 354.32987441661
   0
ARC
   5
19E
 100
AcDbEntity
   8
LEVEL001
   6
CONTINUOUS
  62
15
 100
AcDbCircle
  10
 357.53389012989
  20
 244.75716323514
  30
0.0
  40
 8.5369336063337
 100
AcDbArc
  50
 309.11859596730
  51
 14.274381290100
   0
ARC
   5
19F
 100
AcDbEntity
   8
LEVEL001
   6
CONTINUOUS
  62
15
 100
AcDbCircle
  10
 354.43479620129
  20
 243.03230305024
  30
0.0
  40
 12.000000000000
 100
AcDbArc
  50
 18.611403797499
  51
 60.002688266299
   0
LINE
   5
1A0
 100
AcDbEntity
   8
LEVEL001
 100
AcDbLine
   6
CONTINUOUS
  62
15
  10
 360.43430859709
  20
 253.42488939884
  30
0.0
  11
 353.36324078519
  21
 257.50692995794
  31
0.0
   0
ARC
   5
1A1
 100
AcDbEntity
   8
LEVEL001
   6
CONTINUOUS
  62
15
 100
AcDbCircle
  10
 338.89181665419
  20
 248.54601274564
  30
0.0
  40
 6.5409618154570
 100
AcDbArc
  50
 124.60719826930
  51
 184.63273438640
   0
LINE
   5
1A2
 100
AcDbEntity
   8
LEVEL001
 100
AcDbLine
   6
CONTINUOUS
  62
15
  10
 341.36421599359
  20
 257.50692995794
  30
0.0
  11
 335.15088703649
  21
 253.92005149984
  31
0.0
   0
ARC
   5
1A3
 100
AcDbEntity
   8
LEVEL001
   6
CONTINUOUS
  62
15
 100
AcDbCircle
  10
 347.36372838939
  20
 247.11434360934
  30
0.0
  40
 12.000000000000
 100
AcDbArc
  50
 60.002688266300
  51
 119.99731173370
   0
ARC
   5
1A4
 100
AcDbEntity
   8
LEVEL001
   6
CONTINUOUS
  62
15
 100
AcDbCircle
  10
 349.04957656439
  20
 247.94930861474
  30
0.0
  40
 1.5368048075722
 100
AcDbArc
  50
 122.60547833997
  51
 177.39452151426
   0
LINE
   5
1A5
 100
AcDbEntity
   8
LEVEL001
 100
AcDbLine
   6
CONTINUOUS
  62
15
  10
 348.22146724419
  20
 249.24391433484
  30
0.0
  11
 354.43479620129
  21
 252.83079279284
  31
0.0
   0
LINE
   5
1A6
 100
AcDbEntity
   8
LEVEL001
 100
AcDbLine
   6
CONTINUOUS
  62
15
  10
 347.51436046299
  20
 248.01916946704
  30
0.0
  11
 340.44329265109
  21
 252.10121002614
  31
0.0
   0
LINE
   5
1A7
 100
AcDbEntity
   8
LEVEL001
 100
AcDbLine
   6
CONTINUOUS
  62
15
  10
 332.66511805809
  20
 247.60950571044
  30
0.0
  11
 332.68325077829
  21
 248.21198778554
  31
0.0
   0
LINE
   5
1A8
 100
AcDbEntity
   8
LEVEL001
 100
AcDbLine
   6
CONTINUOUS
  62
15
  10
 332.68325077829
  20
 248.21198778554
  30
0.0
  11
 332.73756439599
  21
 248.79072521804
  31
0.0
   0
LINE
   5
1A9
 100
AcDbEntity
   8
LEVEL001
 100
AcDbLine
   6
CONTINUOUS
  62
15
  10
 332.73756439599
  20
 248.79072521804
  30
0.0
  11
 332.82780567589
  21
 249.34301966664
  31
0.0
   0
LINE
   5
1AA
 100
AcDbEntity
   8
LEVEL001
 100
AcDbLine
   6
CONTINUOUS
  62
15
  10
 332.82780567589
  20
 249.34301966664
  30
0.0
  11
 332.95355387149
  21
 249.86629607984
  31
0.0
   0
LINE
   5
1AB
 100
AcDbEntity
   8
LEVEL001
 100
AcDbLine
   6
CONTINUOUS
  62
15
  10
 332.95355387149
  20
 249.86629607984
  30
0.0
  11
 333.11422268669
  21
 250.35811470134
  31
0.0
   0
LINE
   5
1AC
 100
AcDbEntity
   8
LEVEL001
 100
AcDbLine
   6
CONTINUOUS
  62
15
  10
 333.11422268669
  20
 250.35811470134
  30
0.0
  11
 333.30906300929
  21
 250.81618244574
  31
0.0
   0
LINE
   5
1AD
 100
AcDbEntity
   8
LEVEL001
 100
AcDbLine
   6
CONTINUOUS
  62
15
  10
 333.30906300929
  20
 250.81618244574
  30
0.0
  11
 333.53716640379
  21
 251.23836358984
  31
0.0
   0
LINE
   5
1AE
 100
AcDbEntity
   8
LEVEL001
 100
AcDbLine
   6
CONTINUOUS
  62
15
  10
 333.53716640379
  20
 251.23836358984
  30
0.0
  11
 333.79746934689
  21
 251.62268973004
  31
0.0
   0
LINE
   5
1AF
 100
AcDbEntity
   8
LEVEL001
 100
AcDbLine
   6
CONTINUOUS
  62
15
  10
 333.79746934689
  20
 251.62268973004
  30
0.0
  11
 334.08875818599
  21
 251.96736896074
  31
0.0
   0
LINE
   5
1B0
 100
AcDbEntity
   8
LEVEL001
 100
AcDbLine
   6
CONTINUOUS
  62
15
  10
 334.08875818599
  20
 251.96736896074
  30
0.0
  11
 334.40967479819
  21
 252.27079422804
  31
0.0
   0
LINE
   5
1B1
 100
AcDbEntity
   8
LEVEL001
 100
AcDbLine
   6
CONTINUOUS
  62
15
  10
 334.40967479819
  20
 252.27079422804
  30
0.0
  11
 334.75872292209
  21
 252.53155082334
  31
0.0
   0
LINE
   5
1B2
 100
AcDbEntity
   8
LEVEL001
 100
AcDbLine
   6
CONTINUOUS
  62
15
  10
 334.75872292209
  20
 252.53155082334
  30
0.0
  11
 335.13427513409
  21
 252.74842297904
  31
0.0
   0
LINE
   5
1B3
 100
AcDbEntity
   8
LEVEL001
 100
AcDbLine
   6
CONTINUOUS
  62
15
  10
 335.13427513409
  20
 252.74842297904
  30
0.0
  11
 335.53458043659
  21
 252.92039953714
  31
0.0
   0
LINE
   5
1B4
 100
AcDbEntity
   8
LEVEL001
 100
AcDbLine
   6
CONTINUOUS
  62
15
  10
 335.53458043659
  20
 252.92039953714
  30
0.0
  11
 335.95777242139
  21
 253.04667866334
  31
0.0
   0
LINE
   5
1B5
 100
AcDbEntity
   8
LEVEL001
 100
AcDbLine
   6
CONTINUOUS
  62
15
  10
 335.95777242139
  20
 253.04667866334
  30
0.0
  11
 336.40187797199
  21
 253.12667158614
  31
0.0
   0
LINE
   5
1B6
 100
AcDbEntity
   8
LEVEL001
 100
AcDbLine
   6
CONTINUOUS
  62
15
  10
 336.40187797199
  20
 253.12667158614
  30
0.0
  11
 336.86482646349
  21
 253.16000534164
  31
0.0
   0
LINE
   5
1B7
 100
AcDbEntity
   8
LEVEL001
 100
AcDbLine
   6
CONTINUOUS
  62
15
  10
 336.86482646349
  20
 253.16000534164
  30
0.0
  11
 337.34445941629
  21
 253.14652451254
  31
0.0
   0
LINE
   5
1B8
 100
AcDbEntity
   8
LEVEL001
 100
AcDbLine
   6
CONTINUOUS
  62
15
  10
 337.34445941629
  20
 253.14652451254
  30
0.0
  11
 337.83854055999
  21
 253.08629195254
  31
0.0
   0
LINE
   5
1B9
 100
AcDbEntity
   8
LEVEL001
 100
AcDbLine
   6
CONTINUOUS
  62
15
  10
 337.83854055999
  20
 253.08629195254
  30
0.0
  11
 338.34476626039
  21
 252.97958849374
  31
0.0
   0
LINE
   5
1BA
 100
AcDbEntity
   8
LEVEL001
 100
AcDbLine
   6
CONTINUOUS
  62
15
  10
 338.34476626039
  20
 252.97958849374
  30
0.0
  11
 338.86077625959
  21
 252.82691163684
  31
0.0
   0
LINE
   5
1BB
 100
AcDbEntity
   8
LEVEL001
 100
AcDbLine
   6
CONTINUOUS
  62
15
  10
 338.86077625959
  20
 252.82691163684
  30
0.0
  11
 339.38416468069
  21
 252.62897323194
  31
0.0
   0
LINE
   5
1BC
 100
AcDbEntity
   8
LEVEL001
 100
AcDbLine
   6
CONTINUOUS
  62
15
  10
 339.38416468069
  20
 252.62897323194
  30
0.0
  11
 339.91249124529
  21
 252.38669615914
  31
0.0
   0
LINE
   5
1BD
 100
AcDbEntity
   8
LEVEL001
 100
AcDbLine
   6
CONTINUOUS
  62
15
  10
 339.91249124529
  20
 252.38669615914
  30
0.0
  11
 340.44329265109
  21
 252.10121002614
  31
0.0
   0
ARC
   5
1BE
 100
AcDbEntity
   8
LEVEL001
   6
CONTINUOUS
  62
15
 100
AcDbCircle
  10
 341.97850875249
  20
 252.03134917384
  30
0.0
  40
 1.5368048075720
 100
AcDbArc
  50
 122.60547833997
  51
 177.39452151424
   0
LINE
   5
1BF
 100
AcDbEntity
   8
LEVEL001
 100
AcDbLine
   6
CONTINUOUS
  62
15
  10
 341.15039943229
  20
 253.32595489394
  30
0.0
  11
 348.22146724419
  21
 249.24391433484
  31
0.0
   0
LINE
   5
1C0
 100
AcDbEntity
   8
LEVEL001
 100
AcDbLine
   6
CONTINUOUS
  62
15
  10
 347.36372838939
  20
 256.91283335204
  30
0.0
  11
 341.15039943229
  21
 253.32595489394
  31
0.0
   0
LINE
   5
1C1
 100
AcDbEntity
   8
LEVEL001
 100
AcDbLine
   6
CONTINUOUS
  62
15
  10
 354.43479620129
  20
 252.83079279284
  30
0.0
  11
 347.36372838939
  21
 256.91283335204
  31
0.0
   0
LINE
   5
1C2
 100
AcDbEntity
   8
LEVEL001
 100
AcDbLine
   6
CONTINUOUS
  62
15
  10
 335.17124367159
  20
 253.93172366954
  30
0.0
  11
 335.15088703649
  21
 253.92005149984
  31
0.0
   0
ARC
   5
1C3
 100
AcDbEntity
   8
LEVEL001
   6
CONTINUOUS
  62
15
 100
AcDbCircle
  10
 357.94868744959
  20
 247.93582421324
  30
0.0
  40
 6.0256243743258
 100
AcDbArc
  50
 65.637488742695
  51
 125.67296968639
   0
ARC
   5
1C4
 100
AcDbEntity
   8
LEVEL001
   6
CONTINUOUS
  62
15
 100
AcDbCircle
  10
 350.87761963769
  20
 252.01786477234
  30
0.0
  40
 6.0256243743261
 100
AcDbArc
  50
 65.637488742700
  51
 125.67296968640
   0
ARC
   5
1C5
 100
AcDbEntity
   8
LEVEL001
   6
CONTINUOUS
  62
15
 100
AcDbCircle
  10
 332.85040040448
  20
 248.05161965854
  30
0.0
  40
 0.47936863794328
 100
AcDbArc
  50
 184.04324161686
  51
 247.26228104927
   0
ARC
   5
1C6
 100
AcDbEntity
   8
LEVEL001
   6
CONTINUOUS
  62
15
 100
AcDbCircle
  10
 337.63934532259
  20
 248.48168127864
  30
0.0
  40
 5.9828494734429
 100
AcDbArc
  50
 54.065984676004
  51
 114.36383075371
   0
ARC
   5
1C7
 100
AcDbEntity
   8
LEVEL001
   6
CONTINUOUS
  62
15
 100
AcDbCircle
  10
 343.85572961319
  20
 252.07737017804
  30
0.0
  40
 5.9739232938243
 100
AcDbArc
  50
 54.040122098999
  51
 114.64941947190
   0
LINE
   5
1C8
 100
AcDbEntity
   8
LEVEL001
 100
AcDbLine
   6
DASHDOT
  62
3
  10
 132.05857325531
  20
 167.17830421646
  30
0.0
  11
 132.05857325531
  21
 175.61676192297
  31
0.0
   0
LINE
   5
1C9
 100
AcDbEntity
   8
LEVEL001
 100
AcDbLine
   6
DASHDOT
  62
3
  10
 145.05857325531
  20
 167.17830421646
  30
0.0
  11
 145.05857325531
  21
 175.61676192297
  31
0.0
   0
LINE
   5
1CA
 100
AcDbEntity
   8
LEVEL001
 100
AcDbLine
   6
DASHDOT
  62
3
  10
 138.55857325531
  20
 164.40983020716
  30
0.0
  11
 138.55857325531
  21
 228.41538322959
  31
0.0
   0
POINT
   5
1CB
 100
AcDbEntity
   8
LEVEL001
 100
AcDbPoint
  62
3
  10
 155.55857325531
  20
 221.58733786758
  30
0.0
   0
POINT
   5
1CC
 100
AcDbEntity
   8
LEVEL001
 100
AcDbPoint
  62
3
  10
 121.55857325531
  20
 221.58733786758
  30
0.0
   0
DIMENSION
   5
1CD
 100
AcDbEntity
   8
LEVEL001
   6
CONTINUOUS
  62
3
 100
AcDbDimension
   2
*D1
  10
 133.55857325531
  20
 209.58733786758
  30
0.0
  11
 118.66638198951
  21
 220.15966285088
  31
0.0
  70
132
   3
GMM001
 100
AcDbRadialDimension
  15
 123.77362672210
  25
 216.53390690144
  35
0.0
  40
 6.4937531885409
   0
LINE
   5
1CE
 100
AcDbEntity
   8
LEVEL001
 100
AcDbLine
   6
DASHDOT
  62
3
  10
 134.99942133284
  20
 202.58733786758
  30
0.0
  11
 142.52042611868
  21
 202.58733786758
  31
0.0
   0
LINE
   5
1CF
 100
AcDbEntity
   8
LEVEL001
 100
AcDbLine
   6
DASHDOT
  62
3
  10
 133.33630641715
  20
 180.58733786758
  30
0.0
  11
 144.21186951947
  21
 180.58733786758
  31
0.0
   0
LINE
   5
1D0
 100
AcDbEntity
   8
LEVEL001
 100
AcDbLine
   6
DOT
  62
1
  10
 134.70857325531
  20
 170.58733786758
  30
0.0
  11
 134.70857325531
  21
 172.88733786758
  31
0.0
   0
LINE
   5
1D1
 100
AcDbEntity
   8
LEVEL001
 100
AcDbLine
   6
DOT
  62
1
  10
 135.90857325531
  20
 170.58733786758
  30
0.0
  11
 135.90857325531
  21
 172.88733786758
  31
0.0
   0
LINE
   5
1D2
 100
AcDbEntity
   8
LEVEL001
 100
AcDbLine
   6
DOT
  62
1
  10
 129.40857325531
  20
 170.58733786758
  30
0.0
  11
 129.40857325531
  21
 172.88733786758
  31
0.0
   0
LINE
   5
1D3
 100
AcDbEntity
   8
LEVEL001
 100
AcDbLine
   6
DOT
  62
1
  10
 141.20857325531
  20
 170.58733786758
  30
0.0
  11
 141.20857325531
  21
 172.88733786758
  31
0.0
   0
LINE
   5
1D4
 100
AcDbEntity
   8
LEVEL001
 100
AcDbLine
   6
DOT
  62
1
  10
 142.40857325531
  20
 170.58733786758
  30
0.0
  11
 142.40857325531
  21
 172.88733786758
  31
0.0
   0
LINE
   5
1D5
 100
AcDbEntity
   8
LEVEL001
 100
AcDbLine
   6
DOT
  62
1
  10
 147.70857325531
  20
 170.58733786758
  30
0.0
  11
 147.70857325531
  21
 172.88733786758
  31
0.0
   0
DIMENSION
   5
1D6
 100
AcDbEntity
   8
LEVEL001
   6
CONTINUOUS
  62
3
 100
AcDbDimension
   2
*D2
  10
 189.38350238411
  20
 221.58733786758
  30
0.0
  11
 189.38350238411
  21
 219.08733786758
  31
0.0
  70
0
   3
GMM002
 100
AcDbAlignedDimension
  13
 189.38350238411
  23
 216.58733786758
  33
0.0
  14
 202.37454037926
  24
 221.58733786758
  34
0.0
  50
 90.000000000000
 100
AcDbRotatedDimension
   0
DIMENSION
   5
1D7
 100
AcDbEntity
   8
LEVEL001
   6
CONTINUOUS
  62
3
 100
AcDbDimension
   2
*D3
  10
 189.38350238411
  20
 216.58733786758
  30
0.0
  11
 189.38350238411
  21
 193.58733786758
  31
0.0
  70
0
   3
GMM002
 100
AcDbAlignedDimension
  13
 202.37454037926
  23
 170.58733786758
  33
0.0
  14
 205.37454037926
  24
 216.58733786758
  34
0.0
  50
 90.000000000000
 100
AcDbRotatedDimension
   0
DIMENSION
   5
1D8
 100
AcDbEntity
   8
LEVEL001
   6
CONTINUOUS
  62
3
 100
AcDbDimension
   2
*D4
  10
 138.55857325531
  20
 202.58733786758
  30
0.0
  11
 130.83748386473
  21
 221.58700458608
  31
0.0
  70
132
   3
GMM001
 100
AcDbRadialDimension
  15
 133.28784455982
  25
 215.55728077488
  35
0.0
  40
 6.7305729537370
   0
ARC
   5
1D9
 100
AcDbEntity
   8
LEVEL001
   6
CONTINUOUS
  62
7
 100
AcDbCircle
  10
 133.55857325531
  20
 209.58733786758
  30
0.0
  40
 12.000000000000
 100
AcDbArc
  50
 90.000000000000
  51
 180.00000000000
   0
ARC
   5
1DA
 100
AcDbEntity
   8
LEVEL001
   6
CONTINUOUS
  62
7
 100
AcDbCircle
  10
 143.55857325531
  20
 209.58733786758
  30
0.0
  40
 12.000000000000
 100
AcDbArc
  50
0.0
  51
 90.000000000000
   0
LINE
   5
1DB
 100
AcDbEntity
   8
LEVEL001
 100
AcDbLine
   6
CONTINUOUS
  62
7
  10
 133.55857325531
  20
 221.58733786758
  30
0.0
  11
 143.55857325531
  21
 221.58733786758
  31
0.0
   0
LINE
   5
1DC
 100
AcDbEntity
   8
LEVEL001
 100
AcDbLine
   6
CONTINUOUS
  62
7
  10
 155.55857325531
  20
 209.58733786758
  30
0.0
  11
 155.55857325531
  21
 170.58733786758
  31
0.0
   0
LINE
   5
1DD
 100
AcDbEntity
   8
LEVEL001
 100
AcDbLine
   6
CONTINUOUS
  62
7
  10
 121.55857325531
  20
 209.58733786758
  30
0.0
  11
 121.55857325531
  21
 170.58733786758
  31
0.0
   0
LINE
   5
1DE
 100
AcDbEntity
   8
LEVEL001
 100
AcDbLine
   6
CONTINUOUS
  62
7
  10
 155.55857325531
  20
 170.58733786758
  30
0.0
  11
 121.55857325531
  21
 170.58733786758
  31
0.0
   0
LINE
   5
1DF
 100
AcDbEntity
   8
LEVEL001
 100
AcDbLine
   6
DOT
  62
1
  10
 126.85857325531
  20
 174.88733786758
  30
0.0
  11
 124.55857325531
  21
 174.88733786758
  31
0.0
   0
LINE
   5
1E0
 100
AcDbEntity
   8
LEVEL001
 100
AcDbLine
   6
DOT
  62
1
  10
 126.85857325531
  20
 172.88733786758
  30
0.0
  11
 124.55857325531
  21
 172.88733786758
  31
0.0
   0
LINE
   5
1E1
 100
AcDbEntity
   8
LEVEL001
 100
AcDbLine
   6
DOT
  62
1
  10
 150.25857325531
  20
 172.88733786758
  30
0.0
  11
 126.85857325531
  21
 172.88733786758
  31
0.0
   0
LINE
   5
1E2
 100
AcDbEntity
   8
LEVEL001
 100
AcDbLine
   6
DOT
  62
1
  10
 124.55857325531
  20
 172.98733786758
  30
0.0
  11
 126.85857325531
  21
 172.98733786758
  31
0.0
   0
LINE
   5
1E3
 100
AcDbEntity
   8
LEVEL001
 100
AcDbLine
   6
DOT
  62
1
  10
 150.25857325531
  20
 174.88733786758
  30
0.0
  11
 152.55857325531
  21
 174.88733786758
  31
0.0
   0
LINE
   5
1E4
 100
AcDbEntity
   8
LEVEL001
 100
AcDbLine
   6
DOT
  62
1
  10
 150.25857325531
  20
 172.88733786758
  30
0.0
  11
 152.55857325531
  21
 172.88733786758
  31
0.0
   0
LINE
   5
1E5
 100
AcDbEntity
   8
LEVEL001
 100
AcDbLine
   6
DOT
  62
1
  10
 150.25857325531
  20
 172.98733786758
  30
0.0
  11
 152.55857325531
  21
 172.98733786758
  31
0.0
   0
LINE
   5
1E6
 100
AcDbEntity
   8
LEVEL001
 100
AcDbLine
   6
DOT
  62
1
  10
 150.25857325531
  20
 208.58733786758
  30
0.0
  11
 152.55857325531
  21
 208.58733786758
  31
0.0
   0
CIRCLE
   5
1E7
 100
AcDbEntity
   8
LEVEL001
 100
AcDbCircle
   6
DOT
  62
1
  10
 138.55857325531
  20
 180.58733786758
  30
0.0
  40
 3.0000000000000
   0
LINE
   5
1E8
 100
AcDbEntity
   8
LEVEL001
 100
AcDbLine
   6
DOT
  62
15
  10
 124.55857325531
  20
 208.58733786758
  30
0.0
  11
 124.55857325531
  21
 170.58733786758
  31
0.0
   0
LINE
   5
1E9
 100
AcDbEntity
   8
LEVEL001
 100
AcDbLine
   6
DOT
  62
15
  10
 152.55857325531
  20
 176.58733786758
  30
0.0
  11
 124.55857325531
  21
 176.58733786758
  31
0.0
   0
CIRCLE
   5
1EA
 100
AcDbEntity
   8
LEVEL001
 100
AcDbCircle
   6
DOT
  62
15
  10
 138.55857325531
  20
 180.58733786758
  30
0.0
  40
 2.5000000000000
   0
LINE
   5
1EB
 100
AcDbEntity
   8
LEVEL001
 100
AcDbLine
   6
DOT
  62
15
  10
 150.25857325531
  20
 208.58733786758
  30
0.0
  11
 152.55857325531
  21
 208.58733786758
  31
0.0
   0
LINE
   5
1EC
 100
AcDbEntity
   8
LEVEL001
 100
AcDbLine
   6
DOT
  62
15
  10
 124.55857325531
  20
 208.58733786758
  30
0.0
  11
 126.85857325531
  21
 208.58733786758
  31
0.0
   0
LINE
   5
1ED
 100
AcDbEntity
   8
LEVEL001
 100
AcDbLine
   6
DOT
  62
1
  10
 126.85857325531
  20
 176.25250930141
  30
0.0
  11
 126.85857325531
  21
 170.58733786758
  31
0.0
   0
LINE
   5
1EE
 100
AcDbEntity
   8
LEVEL001
 100
AcDbLine
   6
DOT
  62
15
  10
 126.85857325531
  20
 210.27564067119
  30
0.0
  11
 126.85857325531
  21
 176.58733786758
  31
0.0
   0
ARC
   5
1EF
 100
AcDbEntity
   8
LEVEL001
   6
DOT
  62
15
 100
AcDbCircle
  10
 138.55857325531
  20
 202.58733786758
  30
0.0
  40
 14.000000000000
 100
AcDbArc
  50
 33.309712081200
  51
 146.69028791880
   0
LINE
   5
1F0
 100
AcDbEntity
   8
LEVEL001
 100
AcDbLine
   6
DOT
  62
15
  10
 150.25857325531
  20
 210.27564067119
  30
0.0
  11
 150.25857325531
  21
 176.58733786758
  31
0.0
   0
LINE
   5
1F1
 100
AcDbEntity
   8
LEVEL001
 100
AcDbLine
   6
DOT
  62
1
  10
 150.25857325531
  20
 176.32144676074
  30
0.0
  11
 150.25857325531
  21
 170.58733786758
  31
0.0
   0
LINE
   5
1F2
 100
AcDbEntity
   8
LEVEL001
 100
AcDbLine
   6
DOT
  62
15
  10
 152.55857325531
  20
 208.58733786758
  30
0.0
  11
 152.55857325531
  21
 170.58733786758
  31
0.0
   0
LINE
   5
1F3
 100
AcDbEntity
   8
LEVEL001
 100
AcDbLine
   6
DASHDOT
  62
3
  10
 200.15227354110
  20
 180.58733786758
  30
0.0
  11
 211.02783664342
  21
 180.58733786758
  31
0.0
   0
LINE
   5
1F4
 100
AcDbEntity
   8
LEVEL001
 100
AcDbLine
   6
DOT
  62
1
  10
 205.37454037926
  20
 183.58733786758
  30
0.0
  11
 207.67454037926
  21
 183.58733786758
  31
0.0
   0
LINE
   5
1F5
 100
AcDbEntity
   8
LEVEL001
 100
AcDbLine
   6
DOT
  62
1
  10
 205.37454037926
  20
 177.58733786758
  30
0.0
  11
 207.67454037926
  21
 177.58733786758
  31
0.0
   0
POINT
   5
1F6
 100
AcDbEntity
   8
LEVEL001
 100
AcDbPoint
  62
7
  10
 202.37454037926
  20
 221.58733786758
  30
0.0
   0
LINE
   5
1F7
 100
AcDbEntity
   8
LEVEL001
 100
AcDbLine
   6
CONTINUOUS
  62
7
  10
 202.37454037926
  20
 170.58733786758
  30
0.0
  11
 202.37454037926
  21
 220.58733786758
  31
0.0
   0
ARC
   5
1F8
 100
AcDbEntity
   8
LEVEL001
   6
CONTINUOUS
  62
7
 100
AcDbCircle
  10
 203.37454037926
  20
 220.58733786758
  30
0.0
  40
 1.0000000000000
 100
AcDbArc
  50
 90.000000000010
  51
 180.00000000000
   0
LINE
   5
1F9
 100
AcDbEntity
   8
LEVEL001
 100
AcDbLine
   6
CONTINUOUS
  62
7
  10
 203.37454037926
  20
 221.58733786758
  30
0.0
  11
 216.51442896869
  21
 221.58733786758
  31
0.0
   0
ARC
   5
1FA
 100
AcDbEntity
   8
LEVEL001
   6
CONTINUOUS
  62
7
 100
AcDbCircle
  10
 216.51442896869
  20
 209.58733786758
  30
0.0
  40
 12.000000000000
 100
AcDbArc
  50
 11.181754210197
  51
 90.000000000000
   0
POINT
   5
1FB
 100
AcDbEntity
   8
LEVEL001
 100
AcDbPoint
  62
7
  10
 226.37454037926
  20
 221.58733786758
  30
0.0
   0
LINE
   5
1FC
 100
AcDbEntity
   8
LEVEL001
 100
AcDbLine
   6
CONTINUOUS
  62
7
  10
 234.87454037926
  20
 178.58733786758
  30
0.0
  11
 234.87454037926
  21
 170.58733786758
  31
0.0
   0
LINE
   5
1FD
 100
AcDbEntity
   8
LEVEL001
 100
AcDbLine
   6
CONTINUOUS
  62
7
  10
 234.87454037926
  20
 178.58733786758
  30
0.0
  11
 228.28663248106
  21
 211.91440135259
  31
0.0
   0
LINE
   5
1FE
 100
AcDbEntity
   8
LEVEL001
 100
AcDbLine
   6
CONTINUOUS
  62
7
  10
 202.37454037926
  20
 170.58733786758
  30
0.0
  11
 234.87454037926
  21
 170.58733786758
  31
0.0
   0
LINE
   5
1FF
 100
AcDbEntity
   8
LEVEL001
 100
AcDbLine
   6
DOT
  62
1
  10
 205.37454037926
  20
 216.58733786758
  30
0.0
  11
 207.67454037926
  21
 216.58733786758
  31
0.0
   0
LINE
   5
200
 100
AcDbEntity
   8
LEVEL001
 100
AcDbLine
   6
DOT
  62
1
  10
 207.67454037926
  20
 208.58733786758
  30
0.0
  11
 207.67454037926
  21
 174.88733786758
  31
0.0
   0
LINE
   5
201
 100
AcDbEntity
   8
LEVEL001
 100
AcDbLine
   6
DOT
  62
1
  10
 207.67454037926
  20
 208.58733786758
  30
0.0
  11
 207.67454037926
  21
 216.58733786758
  31
0.0
   0
LINE
   5
202
 100
AcDbEntity
   8
LEVEL001
 100
AcDbLine
   6
DOT
  62
1
  10
 205.37454037926
  20
 208.58733786758
  30
0.0
  11
 205.37454037926
  21
 216.58733786758
  31
0.0
   0
LINE
   5
203
 100
AcDbEntity
   8
LEVEL001
 100
AcDbLine
   6
DOT
  62
1
  10
 232.37454037926
  20
 172.88733786758
  30
0.0
  11
 209.67454037926
  21
 172.88733786758
  31
0.0
   0
LINE
   5
204
 100
AcDbEntity
   8
LEVEL001
 100
AcDbLine
   6
DOT
  62
1
  10
 230.02454037926
  20
 170.58733786758
  30
0.0
  11
 230.02454037926
  21
 172.88733786758
  31
0.0
   0
LINE
   5
205
 100
AcDbEntity
   8
LEVEL001
 100
AcDbLine
   6
DOT
  62
1
  10
 209.67454037926
  20
 172.98733786758
  30
0.0
  11
 221.37454037926
  21
 172.98733786758
  31
0.0
   0
LINE
   5
206
 100
AcDbEntity
   8
LEVEL001
 100
AcDbLine
   6
DOT
  62
1
  10
 216.02454037926
  20
 170.58733786758
  30
0.0
  11
 216.02454037926
  21
 172.88733786758
  31
0.0
   0
LINE
   5
207
 100
AcDbEntity
   8
LEVEL001
 100
AcDbLine
   6
DOT
  62
1
  10
 219.72454037926
  20
 170.58733786758
  30
0.0
  11
 219.72454037926
  21
 172.88733786758
  31
0.0
   0
LINE
   5
208
 100
AcDbEntity
   8
LEVEL001
 100
AcDbLine
   6
DOT
  62
1
  10
 209.67454037926
  20
 172.88733786758
  30
0.0
  11
 209.67454037926
  21
 170.58733786758
  31
0.0
   0
LINE
   5
209
 100
AcDbEntity
   8
LEVEL001
 100
AcDbLine
   6
DOT
  62
1
  10
 207.67454037926
  20
 172.88733786758
  30
0.0
  11
 209.67454037926
  21
 172.88733786758
  31
0.0
   0
ARC
   5
20A
 100
AcDbEntity
   8
LEVEL001
   6
DOT
  62
1
 100
AcDbCircle
  10
 207.67454037926
  20
 172.88733786758
  30
0.0
  40
 2.3000000000000
 100
AcDbArc
  50
 180.00000000000
  51
 270.00000000001
   0
LINE
   5
20B
 100
AcDbEntity
   8
LEVEL001
 100
AcDbLine
   6
DOT
  62
1
  10
 205.37454037926
  20
 174.88733786758
  30
0.0
  11
 205.37454037926
  21
 172.88733786758
  31
0.0
   0
LINE
   5
20C
 100
AcDbEntity
   8
LEVEL001
 100
AcDbLine
   6
DOT
  62
1
  10
 205.37454037926
  20
 174.88733786758
  30
0.0
  11
 209.67454037926
  21
 174.88733786758
  31
0.0
   0
LINE
   5
20D
 100
AcDbEntity
   8
LEVEL001
 100
AcDbLine
   6
DOT
  62
1
  10
 207.67454037926
  20
 174.88733786758
  30
0.0
  11
 207.67454037926
  21
 172.88733786758
  31
0.0
   0
LINE
   5
20E
 100
AcDbEntity
   8
LEVEL001
 100
AcDbLine
   6
DOT
  62
1
  10
 209.67454037926
  20
 172.98733786758
  30
0.0
  11
 209.67454037926
  21
 174.88733786758
  31
0.0
   0
LINE
   5
20F
 100
AcDbEntity
   8
LEVEL001
 100
AcDbLine
   6
DOT
  62
1
  10
 210.72454037926
  20
 170.58733786758
  30
0.0
  11
 210.72454037926
  21
 172.88733786758
  31
0.0
   0
POINT
   5
210
 100
AcDbEntity
   8
LEVEL001
 100
AcDbPoint
  62
1
  10
 205.37454037926
  20
 170.58733786758
  30
0.0
   0
LINE
   5
211
 100
AcDbEntity
   8
LEVEL001
 100
AcDbLine
   6
DOT
  62
15
  10
 205.37454037926
  20
 178.08733786758
  30
0.0
  11
 206.37454037926
  21
 178.08733786758
  31
0.0
   0
ARC
   5
212
 100
AcDbEntity
   8
LEVEL001
   6
DOT
  62
15
 100
AcDbCircle
  10
 206.37454037926
  20
 178.58733786758
  30
0.0
  40
 0.50000000000000
 100
AcDbArc
  50
 270.00000000000
  51
 0.34523012734478E-9
   0
POINT
   5
213
 100
AcDbEntity
   8
LEVEL001
 100
AcDbPoint
  62
15
  10
 206.87454037926
  20
 178.08733786758
  30
0.0
   0
LINE
   5
214
 100
AcDbEntity
   8
LEVEL001
 100
AcDbLine
   6
DOT
  62
15
  10
 229.72267605418
  20
 178.86614216631
  30
0.0
  11
 223.54088869272
  21
 210.13871352425
  31
0.0
   0
POINT
   5
215
 100
AcDbEntity
   8
LEVEL001
 100
AcDbPoint
  62
15
  10
 221.37454037926
  20
 176.58733786758
  30
0.0
   0
ARC
   5
216
 100
AcDbEntity
   8
LEVEL001
   6
DOT
  62
15
 100
AcDbCircle
  10
 223.37454037926
  20
 178.58733786758
  30
0.0
  40
 2.0000000000000
 100
AcDbArc
  50
 180.00000000000
  51
 269.99999999996
   0
LINE
   5
217
 100
AcDbEntity
   8
LEVEL001
 100
AcDbLine
   6
DOT
  62
15
  10
 232.37454037926
  20
 176.58733786758
  30
0.0
  11
 223.37454037926
  21
 176.58733786758
  31
0.0
   0
ARC
   5
218
 100
AcDbEntity
   8
LEVEL001
   6
DOT
  62
15
 100
AcDbCircle
  10
 221.87454037926
  20
 177.31476650964
  30
0.0
  40
 8.0000000000000
 100
AcDbArc
  50
 0.48853319907280E-11
  51
 11.181754210201
   0
POINT
   5
219
 100
AcDbEntity
   8
LEVEL001
 100
AcDbPoint
  62
15
  10
 229.87454037926
  20
 178.09788734530
  30
0.0
   0
LINE
   5
21A
 100
AcDbEntity
   8
LEVEL001
 100
AcDbLine
   6
DOT
  62
15
  10
 229.87454037926
  20
 176.58733786758
  30
0.0
  11
 229.87454037926
  21
 177.31476650964
  31
0.0
   0
LINE
   5
21B
 100
AcDbEntity
   8
LEVEL001
 100
AcDbLine
   6
DOT
  62
15
  10
 206.87454037926
  20
 182.58733786758
  30
0.0
  11
 206.87454037926
  21
 178.58733786758
  31
0.0
   0
ARC
   5
21C
 100
AcDbEntity
   8
LEVEL001
   6
DOT
  62
15
 100
AcDbCircle
  10
 206.37454037926
  20
 182.58733786758
  30
0.0
  40
 0.50000000000000
 100
AcDbArc
  50
0.0
  51
 89.999999999733
   0
POINT
   5
21D
 100
AcDbEntity
   8
LEVEL001
 100
AcDbPoint
  62
15
  10
 206.87454037926
  20
 183.08733786758
  30
0.0
   0
LINE
   5
21E
 100
AcDbEntity
   8
LEVEL001
 100
AcDbLine
   6
DOT
  62
15
  10
 205.37454037926
  20
 183.08733786758
  30
0.0
  11
 206.37454037926
  21
 183.08733786758
  31
0.0
   0
LINE
   5
21F
 100
AcDbEntity
   8
LEVEL001
 100
AcDbLine
   6
DOT
  62
15
  10
 205.37454037926
  20
 216.58733786758
  30
0.0
  11
 215.69275301781
  21
 216.58733786758
  31
0.0
   0
ARC
   5
220
 100
AcDbEntity
   8
LEVEL001
   6
DOT
  62
15
 100
AcDbCircle
  10
 215.69275301781
  20
 208.58733786758
  30
0.0
  40
 8.0000000000000
 100
AcDbArc
  50
 11.181754210199
  51
 90.000000000000
   0
ARC
   5
221
 100
AcDbEntity
   8
LEVEL001
   6
DOT
  62
15
 100
AcDbCircle
  10
 215.37454037926
  20
 202.58733786758
  30
0.0
  40
 6.0000000000000
 100
AcDbArc
  50
0.0
  51
 90.000000000001
   0
POINT
   5
222
 100
AcDbEntity
   8
LEVEL001
 100
AcDbPoint
  62
15
  10
 221.37454037926
  20
 208.58733786758
  30
0.0
   0
LINE
   5
223
 100
AcDbEntity
   8
LEVEL001
 100
AcDbLine
   6
DOT
  62
15
  10
 205.37454037926
  20
 208.58733786758
  30
0.0
  11
 215.37454037926
  21
 208.58733786758
  31
0.0
   0
LINE
   5
224
 100
AcDbEntity
   8
LEVEL001
 100
AcDbLine
   6
DOT
  62
15
  10
 232.37454037926
  20
 170.58733786758
  30
0.0
  11
 232.37454037926
  21
 176.58733786758
  31
0.0
   0
POINT
   5
225
 100
AcDbEntity
   8
LEVEL001
 100
AcDbPoint
  62
15
  10
 222.26616062485
  20
 216.58733786758
  30
0.0
   0
LINE
   5
226
 100
AcDbEntity
   8
LEVEL001
 100
AcDbLine
   6
DOT
  62
15
  10
 205.37454037926
  20
 170.58733786758
  30
0.0
  11
 205.37454037926
  21
 216.58733786758
  31
0.0
   0
LINE
   5
227
 100
AcDbEntity
   8
LEVEL001
 100
AcDbLine
   6
DOT
  62
1
  10
 221.37454037926
  20
 176.69054013685
  30
0.0
  11
 221.37454037926
  21
 172.98733786758
  31
0.0
   0
LINE
   5
228
 100
AcDbEntity
   8
LEVEL001
 100
AcDbLine
   6
DOT
  62
15
  10
 221.37454037926
  20
 202.58733786758
  30
0.0
  11
 221.37454037926
  21
 178.58733786758
  31
0.0
   0
LINE
   5
229
 100
AcDbEntity
   8
LEVEL001
 100
AcDbLine
   6
DASHDOT
  62
3
  10
 213.37454037926
  20
 166.72966336214
  30
0.0
  11
 213.37454037926
  21
 176.63370310801
  31
0.0
   0
LINE
   5
22A
 100
AcDbEntity
   8
LEVEL001
 100
AcDbLine
   6
DASHDOT
  62
3
  10
 222.37454037926
  20
 166.86099910273
  30
0.0
  11
 222.37454037926
  21
 175.73588707102
  31
0.0
   0
LINE
   5
22B
 100
AcDbEntity
   8
LEVEL001
 100
AcDbLine
   6
DASHDOT
  62
3
  10
 227.37454037926
  20
 166.86099910273
  30
0.0
  11
 227.37454037926
  21
 175.73588707102
  31
0.0
   0
DIMENSION
   5
22C
 100
AcDbEntity
   8
LEVEL001
   6
CONTINUOUS
  62
3
 100
AcDbDimension
   2
*D5
  10
 172.50061553652
  20
 221.58733786758
  30
0.0
  11
 172.50061553652
  21
 196.08733786758
  31
0.0
  70
0
   3
GMM002
 100
AcDbAlignedDimension
  13
 155.55857325531
  23
 170.58733786758
  33
0.0
  14
 155.55857325531
  24
 221.58733786758
  34
0.0
  50
 90.000000000000
 100
AcDbRotatedDimension
   0
LINE
   5
22D
 100
AcDbEntity
   8
LEVEL001
 100
AcDbLine
   6
DASHDOT
  62
3
  10
 138.55857325531
  20
 82.149188964100
  30
0.0
  11
 138.55857325531
  21
 124.31958453998
  31
0.0
   0
LINE
   5
22E
 100
AcDbEntity
   8
LEVEL001
 100
AcDbLine
   6
DASHDOT
  62
3
  10
 149.33660874355
  20
 110.26905097531
  30
0.0
  11
 127.55310906206
  21
 110.26905097531
  31
0.0
   0
LINE
   5
22F
 100
AcDbEntity
   8
LEVEL001
 100
AcDbLine
   6
DASHDOT
  62
3
  10
 145.05857325531
  20
 106.06247215522
  30
0.0
  11
 145.05857325531
  21
 114.50092986174
  31
0.0
   0
LINE
   5
230
 100
AcDbEntity
   8
LEVEL001
 100
AcDbLine
   6
DASHDOT
  62
3
  10
 132.05857325531
  20
 106.06247215522
  30
0.0
  11
 132.05857325531
  21
 114.50092986174
  31
0.0
   0
LINE
   5
231
 100
AcDbEntity
   8
LEVEL001
 100
AcDbLine
   6
DASHDOT
  62
3
  10
 142.49782690406
  20
 96.269050975306
  30
0.0
  11
 134.46434859480
  21
 96.269050975306
  31
0.0
   0
LINE
   5
232
 100
AcDbEntity
   8
LEVEL001
 100
AcDbLine
   6
DASHDOT
  62
3
  10
 142.49782690406
  20
 101.26905097531
  30
0.0
  11
 134.46434859480
  21
 101.26905097531
  31
0.0
   0
ARC
   5
233
 100
AcDbEntity
   8
LEVEL001
   6
CONTINUOUS
  62
7
 100
AcDbCircle
  10
 126.85857325531
  20
 115.96905097531
  30
0.0
  40
 2.3000000000000
 100
AcDbArc
  50
 89.999999999992
  51
 180.00000000000
   0
POINT
   5
234
 100
AcDbEntity
   8
LEVEL001
 100
AcDbPoint
  62
7
  10
 124.55857325531
  20
 118.26905097531
  30
0.0
   0
ARC
   5
235
 100
AcDbEntity
   8
LEVEL001
   6
CONTINUOUS
  62
7
 100
AcDbCircle
  10
 150.25857325531
  20
 115.96905097531
  30
0.0
  40
 2.3000000000000
 100
AcDbArc
  50
0.0
  51
 89.999999999992
   0
POINT
   5
236
 100
AcDbEntity
   8
LEVEL001
 100
AcDbPoint
  62
7
  10
 152.55857325531
  20
 118.26905097531
  30
0.0
   0
LINE
   5
237
 100
AcDbEntity
   8
LEVEL001
 100
AcDbLine
   6
DOT
  62
1
  10
 150.25857325531
  20
 113.96905097531
  30
0.0
  11
 152.55857325531
  21
 113.96905097531
  31
0.0
   0
LINE
   5
238
 100
AcDbEntity
   8
LEVEL001
 100
AcDbLine
   6
DOT
  62
1
  10
 126.85857325531
  20
 113.96905097531
  30
0.0
  11
 124.55857325531
  21
 113.96905097531
  31
0.0
   0
DIMENSION
   5
239
 100
AcDbEntity
   8
LEVEL001
   6
CONTINUOUS
  62
3
 100
AcDbDimension
   2
*D6
  10
 121.55857325531
  20
 138.36386719328
  30
0.0
  11
 123.05857325531
  21
 138.36386719328
  31
0.0
  70
0
   3
GMM002
 100
AcDbAlignedDimension
  13
 124.55857325531
  23
 138.36386719328
  33
0.0
  14
 121.55857325531
  24
 121.26905097531
  34
0.0
  50
 180.00000000000
 100
AcDbRotatedDimension
   0
DIMENSION
   5
23A
 100
AcDbEntity
   8
LEVEL001
   6
CONTINUOUS
  62
3
 100
AcDbDimension
   2
*D7
  10
 152.55857325531
  20
 138.36386719328
  30
0.0
  11
 154.05857325531
  21
 138.36386719328
  31
0.0
  70
0
   3
GMM002
 100
AcDbAlignedDimension
  13
 155.55857325531
  23
 121.26905097531
  33
0.0
  14
 152.55857325531
  24
 138.36386719328
  34
0.0
  50
 180.00000000000
 100
AcDbRotatedDimension
   0
DIMENSION
   5
23B
 100
AcDbEntity
   8
LEVEL001
   6
CONTINUOUS
  62
3
 100
AcDbDimension
   2
*D8
  10
 124.55857325531
  20
 138.36386719328
  30
0.0
  11
 138.55857325531
  21
 138.36386719328
  31
0.0
  70
0
   3
GMM002
 100
AcDbAlignedDimension
  13
 152.55857325531
  23
 118.26905097531
  33
0.0
  14
 124.55857325531
  24
 118.26905097531
  34
0.0
  50
 180.00000000000
 100
AcDbRotatedDimension
   0
LINE
   5
23C
 100
AcDbEntity
   8
LEVEL001
 100
AcDbLine
   6
DOT
  62
1
  10
 141.55857325531
  20
 118.26905097531
  30
0.0
  11
 141.55857325531
  21
 115.96905097531
  31
0.0
   0
LINE
   5
23D
 100
AcDbEntity
   8
LEVEL001
 100
AcDbLine
   6
DOT
  62
1
  10
 135.55857325531
  20
 118.26905097531
  30
0.0
  11
 135.55857325531
  21
 115.96905097531
  31
0.0
   0
DIMENSION
   5
23E
 100
AcDbEntity
   8
LEVEL001
   6
CONTINUOUS
  62
3
 100
AcDbDimension
   2
*D9
  10
 172.50061553652
  20
 110.26905097531
  30
0.0
  11
 172.50061553652
  21
 115.76905097531
  31
0.0
  70
0
   3
GMM002
 100
AcDbAlignedDimension
  13
 155.55857325531
  23
 121.26905097531
  33
0.0
  14
 149.33660874355
  24
 110.26905097531
  34
0.0
  50
 270.00000000000
 100
AcDbRotatedDimension
   0
DIMENSION
   5
23F
 100
AcDbEntity
   8
LEVEL001
   6
CONTINUOUS
  62
3
 100
AcDbDimension
   2
*D10
  10
 172.50061553652
  20
 96.269050975306
  30
0.0
  11
 172.50061553652
  21
 98.769050975306
  31
0.0
  70
0
   3
GMM002
 100
AcDbAlignedDimension
  13
 168.83262761382
  23
 101.26905097531
  33
0.0
  14
 142.49782690406
  24
 96.269050975306
  34
0.0
  50
 270.00000000000
 100
AcDbRotatedDimension
   0
DIMENSION
   5
240
 100
AcDbEntity
   8
LEVEL001
   6
CONTINUOUS
  62
3
 100
AcDbDimension
   2
*D11
  10
 172.50061553652
  20
 101.26905097531
  30
0.0
  11
 172.50061553652
  21
 105.76905097531
  31
0.0
  70
0
   3
GMM002
 100
AcDbAlignedDimension
  13
 169.83262761382
  23
 110.26905097531
  33
0.0
  14
 142.55857325531
  24
 101.26905097531
  34
0.0
  50
 270.00000000000
 100
AcDbRotatedDimension
   0
DIMENSION
   5
241
 100
AcDbEntity
   8
LEVEL001
   6
CONTINUOUS
  62
3
 100
AcDbDimension
   2
*D12
  10
 172.50061553652
  20
 88.769050975306
  30
0.0
  11
 172.50061553652
  21
 88.257501227595
  31
0.0
  70
128
   3
GMM003
 100
AcDbAlignedDimension
  13
 168.83262761382
  23
 96.269050975306
  33
0.0
  14
 155.55857325531
  24
 88.769050975306
  34
0.0
  50
 270.00000000000
 100
AcDbRotatedDimension
   0
DIMENSION
   5
242
 100
AcDbEntity
   8
LEVEL001
   6
CONTINUOUS
  62
3
 100
AcDbDimension
   2
*D13
  10
 108.70210274920
  20
 118.26905097531
  30
0.0
  11
 108.70210274920
  21
 123.29032040923
  31
0.0
  70
128
   3
GMM004
 100
AcDbAlignedDimension
  13
 121.55857325531
  23
 121.26905097531
  33
0.0
  14
 124.55857325531
  24
 118.26905097531
  34
0.0
  50
 270.00000000000
 100
AcDbRotatedDimension
   0
DIMENSION
   5
243
 100
AcDbEntity
   8
LEVEL001
   6
CONTINUOUS
  62
3
 100
AcDbDimension
   2
*D14
  10
 108.70210274920
  20
 118.26905097531
  30
0.0
  11
 108.70210274920
  21
 110.26905097531
  31
0.0
  70
0
   3
GMM002
 100
AcDbAlignedDimension
  13
 124.55857325531
  23
 102.26905097531
  33
0.0
  14
 108.70210274920
  24
 118.26905097531
  34
0.0
  50
 90.000000000000
 100
AcDbRotatedDimension
   0
DIMENSION
   5
244
 100
AcDbEntity
   8
LEVEL001
   6
CONTINUOUS
  62
3
 100
AcDbDimension
   2
*D15
  10
 108.70210274920
  20
 91.269050975306
  30
0.0
  11
 108.70210274920
  21
 96.769050975306
  31
0.0
  70
0
   3
GMM002
 100
AcDbAlignedDimension
  13
 108.70210274920
  23
 102.26905097531
  33
0.0
  14
 124.55857325531
  24
 91.269050975306
  34
0.0
  50
 270.00000000000
 100
AcDbRotatedDimension
   0
DIMENSION
   5
245
 100
AcDbEntity
   8
LEVEL001
   6
CONTINUOUS
  62
3
 100
AcDbDimension
   2
*D16
  10
 108.70210274920
  20
 88.769050975306
  30
0.0
  11
 108.70210274920
  21
 81.097004107778
  31
0.0
  70
128
   3
GMM005
 100
AcDbAlignedDimension
  13
 108.70210274920
  23
 91.269050975306
  33
0.0
  14
 121.55857325531
  24
 88.769050975306
  34
0.0
  50
 270.00000000000
 100
AcDbRotatedDimension
   0
DIMENSION
   5
246
 100
AcDbEntity
   8
LEVEL001
   6
CONTINUOUS
  62
3
 100
AcDbDimension
   2
*D17
  10
 108.70210274920
  20
 180.58733786758
  30
0.0
  11
 108.70210274920
  21
 175.58733786758
  31
0.0
  70
0
   3
GMM002
 100
AcDbAlignedDimension
  13
 121.55857325531
  23
 170.58733786758
  33
0.0
  14
 133.33630641715
  24
 180.58733786758
  34
0.0
  50
 90.000000000000
 100
AcDbRotatedDimension
   0
DIMENSION
   5
247
 100
AcDbEntity
   8
LEVEL001
   6
CONTINUOUS
  62
3
 100
AcDbDimension
   2
*D18
  10
 108.70210274920
  20
 202.58733786758
  30
0.0
  11
 108.70210274920
  21
 191.58733786758
  31
0.0
  70
0
   3
GMM002
 100
AcDbAlignedDimension
  13
 109.55863638795
  23
 180.58733786758
  33
0.0
  14
 134.99942133284
  24
 202.58733786758
  34
0.0
  50
 90.000000000000
 100
AcDbRotatedDimension
   0
DIMENSION
   5
248
 100
AcDbEntity
   8
LEVEL001
   6
CONTINUOUS
  62
3
 100
AcDbDimension
   2
*D19
  10
 145.05857325531
  20
 129.87073928973
  30
0.0
  11
 138.55857325531
  21
 129.87073928973
  31
0.0
  70
0
   3
GMM002
 100
AcDbAlignedDimension
  13
 132.05857325531
  23
 114.50092986174
  33
0.0
  14
 145.05857325531
  24
 114.50092986174
  34
0.0
 100
AcDbRotatedDimension
   0
INSERT
   5
249
 100
AcDbEntity
   8
LEVEL001
 100
AcDbBlockReference
   2
*D20
  10
0.0
  20
0.0
  30
0.0
   0
DIMENSION
   5
24A
 100
AcDbEntity
   8
LEVEL001
   6
CONTINUOUS
  62
3
 100
AcDbDimension
   2
*D21
  10
 143.55857325531
  20
 100.76905097531
  30
0.0
  11
 151.03626226271
  21
 85.298147096475
  31
0.0
  70
132
   3
GMM001
 100
AcDbRadialDimension
  15
 148.78064556448
  25
 89.964886926298
  35
0.0
  40
 5.4593994943418
   0
DIMENSION
   5
24B
 100
AcDbEntity
   8
LEVEL001
   6
CONTINUOUS
  62
3
 100
AcDbDimension
   2
*D22
  10
 134.55857325531
  20
 101.26905097531
  30
0.0
  11
 128.55532868546
  21
 87.297092293547
  31
0.0
  70
132
   3
GMM001
 100
AcDbRadialDimension
  15
 130.61090299176
  25
 92.081238423327
  35
0.0
  40
 5.4819900975864
   0
CIRCLE
   5
24C
 100
AcDbEntity
   8
LEVEL001
 100
AcDbCircle
   6
CONTINUOUS
  62
7
  10
 132.05857325531
  20
 110.26905097531
  30
0.0
  40
 2.6500000000000
   0
LINE
   5
24D
 100
AcDbEntity
   8
LEVEL001
 100
AcDbLine
   6
CONTINUOUS
  62
7
  10
 142.55857325531
  20
 91.269050975306
  30
0.0
  11
 134.55857325531
  21
 91.269050975306
  31
0.0
   0
ARC
   5
24E
 100
AcDbEntity
   8
LEVEL001
   6
CONTINUOUS
  62
7
 100
AcDbCircle
  10
 138.55857325531
  20
 101.26905097531
  30
0.0
  40
 2.6500000000000
 100
AcDbArc
  50
0.0
  51
 180.00000000000
   0
LINE
   5
24F
 100
AcDbEntity
   8
LEVEL001
 100
AcDbLine
   6
CONTINUOUS
  62
7
  10
 141.20857325531
  20
 96.269050975306
  30
0.0
  11
 141.20857325531
  21
 101.26905097531
  31
0.0
   0
LINE
   5
250
 100
AcDbEntity
   8
LEVEL001
 100
AcDbLine
   6
CONTINUOUS
  62
7
  10
 135.90857325531
  20
 96.269050975306
  30
0.0
  11
 135.90857325531
  21
 101.26905097531
  31
0.0
   0
ARC
   5
251
 100
AcDbEntity
   8
LEVEL001
   6
CONTINUOUS
  62
7
 100
AcDbCircle
  10
 138.55857325531
  20
 96.269050975306
  30
0.0
  40
 2.6500000000000
 100
AcDbArc
  50
 180.00000000000
  51
0.0
   0
CIRCLE
   5
252
 100
AcDbEntity
   8
LEVEL001
 100
AcDbCircle
   6
CONTINUOUS
  62
7
  10
 145.05857325531
  20
 110.26905097531
  30
0.0
  40
 2.6500000000000
   0
POINT
   5
253
 100
AcDbEntity
   8
LEVEL001
 100
AcDbPoint
  62
7
  10
 121.55857325531
  20
 88.769050975306
  30
0.0
   0
ARC
   5
254
 100
AcDbEntity
   8
LEVEL001
   6
CONTINUOUS
  62
7
 100
AcDbCircle
  10
 134.55857325531
  20
 101.26905097531
  30
0.0
  40
 10.000000000000
 100
AcDbArc
  50
 180.00000000000
  51
 270.00000000000
   0
ARC
   5
255
 100
AcDbEntity
   8
LEVEL001
   6
CONTINUOUS
  62
7
 100
AcDbCircle
  10
 142.55857325531
  20
 101.26905097531
  30
0.0
  40
 10.000000000000
 100
AcDbArc
  50
 270.00000000000
  51
 0.13027551975275E-11
   0
ARC
   5
256
 100
AcDbEntity
   8
LEVEL001
   6
CONTINUOUS
  62
7
 100
AcDbCircle
  10
 133.55857325531
  20
 100.76905097531
  30
0.0
  40
 12.000000000000
 100
AcDbArc
  50
 180.00000000000
  51
 270.00000000000
   0
LINE
   5
257
 100
AcDbEntity
   8
LEVEL001
 100
AcDbLine
   6
CONTINUOUS
  62
7
  10
 121.55857325531
  20
 120.26905097531
  30
0.0
  11
 121.55857325531
  21
 100.76905097531
  31
0.0
   0
LINE
   5
258
 100
AcDbEntity
   8
LEVEL001
 100
AcDbLine
   6
CONTINUOUS
  62
7
  10
 122.55857325531
  20
 121.26905097531
  30
0.0
  11
 154.55857325531
  21
 121.26905097531
  31
0.0
   0
ARC
   5
259
 100
AcDbEntity
   8
LEVEL001
   6
CONTINUOUS
  62
7
 100
AcDbCircle
  10
 122.55857325531
  20
 120.26905097531
  30
0.0
  40
 1.0000000000000
 100
AcDbArc
  50
 90.000000000000
  51
 180.00000000001
   0
POINT
   5
25A
 100
AcDbEntity
   8
LEVEL001
 100
AcDbPoint
  62
7
  10
 121.55857325531
  20
 121.26905097531
  30
0.0
   0
POINT
   5
25B
 100
AcDbEntity
   8
LEVEL001
 100
AcDbPoint
  62
7
  10
 155.55857325531
  20
 121.26905097531
  30
0.0
   0
ARC
   5
25C
 100
AcDbEntity
   8
LEVEL001
   6
CONTINUOUS
  62
7
 100
AcDbCircle
  10
 154.55857325531
  20
 120.26905097531
  30
0.0
  40
 1.0000000000000
 100
AcDbArc
  50
0.0
  51
 89.999999999984
   0
LINE
   5
25D
 100
AcDbEntity
   8
LEVEL001
 100
AcDbLine
   6
CONTINUOUS
  62
7
  10
 155.55857325531
  20
 120.26905097531
  30
0.0
  11
 155.55857325531
  21
 100.76905097531
  31
0.0
   0
ARC
   5
25E
 100
AcDbEntity
   8
LEVEL001
   6
CONTINUOUS
  62
7
 100
AcDbCircle
  10
 143.55857325531
  20
 100.76905097531
  30
0.0
  40
 12.000000000000
 100
AcDbArc
  50
 270.00000000000
  51
0.0
   0
POINT
   5
25F
 100
AcDbEntity
   8
LEVEL001
 100
AcDbPoint
  62
7
  10
 155.55857325531
  20
 88.769050975306
  30
0.0
   0
LINE
   5
260
 100
AcDbEntity
   8
LEVEL001
 100
AcDbLine
   6
CONTINUOUS
  62
7
  10
 143.55857325531
  20
 88.769050975306
  30
0.0
  11
 133.55857325531
  21
 88.769050975306
  31
0.0
   0
POINT
   5
261
 100
AcDbEntity
   8
LEVEL001
 100
AcDbPoint
  62
7
  10
 121.55857325531
  20
 88.769050975306
  30
0.0
   0
POINT
   5
262
 100
AcDbEntity
   8
LEVEL001
 100
AcDbPoint
  62
7
  10
 124.55857325531
  20
 91.269050975306
  30
0.0
   0
POINT
   5
263
 100
AcDbEntity
   8
LEVEL001
 100
AcDbPoint
  62
7
  10
 152.55857325531
  20
 91.269050975306
  30
0.0
   0
LINE
   5
264
 100
AcDbEntity
   8
LEVEL001
 100
AcDbLine
   6
DOT
  62
1
  10
 126.85857325531
  20
 115.96905097531
  30
0.0
  11
 150.25857325531
  21
 115.96905097531
  31
0.0
   0
ARC
   5
265
 100
AcDbEntity
   8
LEVEL001
   6
DOT
  62
15
 100
AcDbCircle
  10
 134.85857325531
  20
 101.76905097531
  30
0.0
  40
 8.0000000000000
 100
AcDbArc
  50
 180.00000000000
  51
 270.00000000000
   0
LINE
   5
266
 100
AcDbEntity
   8
LEVEL001
 100
AcDbLine
   6
DOT
  62
15
  10
 134.85857325531
  20
 93.769050975306
  30
0.0
  11
 142.25857325531
  21
 93.769050975306
  31
0.0
   0
ARC
   5
267
 100
AcDbEntity
   8
LEVEL001
   6
DOT
  62
15
 100
AcDbCircle
  10
 142.25857325531
  20
 101.76905097531
  30
0.0
  40
 8.0000000000000
 100
AcDbArc
  50
 270.00000000000
  51
0.0
   0
ARC
   5
268
 100
AcDbEntity
   8
LEVEL001
   6
DOT
  62
15
 100
AcDbCircle
  10
 140.55857325531
  20
 117.26905097531
  30
0.0
  40
 0.50000000000000
 100
AcDbArc
  50
 270.00000000000
  51
0.0
   0
POINT
   5
269
 100
AcDbEntity
   8
LEVEL001
 100
AcDbPoint
  62
15
  10
 141.05857325531
  20
 116.76905097531
  30
0.0
   0
LINE
   5
26A
 100
AcDbEntity
   8
LEVEL001
 100
AcDbLine
   6
DOT
  62
15
  10
 141.05857325531
  20
 118.26905097531
  30
0.0
  11
 141.05857325531
  21
 117.26905097531
  31
0.0
   0
LINE
   5
26B
 100
AcDbEntity
   8
LEVEL001
 100
AcDbLine
   6
DOT
  62
15
  10
 136.55857325531
  20
 116.76905097531
  30
0.0
  11
 140.55857325531
  21
 116.76905097531
  31
0.0
   0
LINE
   5
26C
 100
AcDbEntity
   8
LEVEL001
 100
AcDbLine
   6
DOT
  62
15
  10
 136.05857325531
  20
 118.26905097531
  30
0.0
  11
 136.05857325531
  21
 117.26905097531
  31
0.0
   0
ARC
   5
26D
 100
AcDbEntity
   8
LEVEL001
   6
DOT
  62
15
 100
AcDbCircle
  10
 136.55857325531
  20
 117.26905097531
  30
0.0
  40
 0.50000000000000
 100
AcDbArc
  50
 180.00000000000
  51
 270.00000000042
   0
POINT
   5
26E
 100
AcDbEntity
   8
LEVEL001
 100
AcDbPoint
  62
15
  10
 136.05857325531
  20
 116.76905097531
  30
0.0
   0
LINE
   5
26F
 100
AcDbEntity
   8
LEVEL001
 100
AcDbLine
   6
CONTINUOUS
  62
7
  10
 152.55857325531
  20
 118.26905097531
  30
0.0
  11
 152.55857325531
  21
 101.26905097531
  31
0.0
   0
LINE
   5
270
 100
AcDbEntity
   8
LEVEL001
 100
AcDbLine
   6
CONTINUOUS
  62
7
  10
 124.55857325531
  20
 118.26905097531
  30
0.0
  11
 124.55857325531
  21
 101.26905097531
  31
0.0
   0
LINE
   5
271
 100
AcDbEntity
   8
LEVEL001
 100
AcDbLine
   6
CONTINUOUS
  62
7
  10
 124.55857325531
  20
 118.26905097531
  30
0.0
  11
 152.55857325531
  21
 118.26905097531
  31
0.0
   0
LINE
   5
272
 100
AcDbEntity
   8
LEVEL001
 100
AcDbLine
   6
DOT
  62
15
  10
 152.55857325531
  20
 102.26905097531
  30
0.0
  11
 150.25857325531
  21
 102.26905097531
  31
0.0
   0
LINE
   5
273
 100
AcDbEntity
   8
LEVEL001
 100
AcDbLine
   6
DOT
  62
15
  10
 126.85857325531
  20
 102.26905097531
  30
0.0
  11
 124.55857325531
  21
 102.26905097531
  31
0.0
   0
LINE
   5
274
 100
AcDbEntity
   8
LEVEL001
 100
AcDbLine
   6
DOT
  62
15
  10
 126.85857325531
  20
 101.76905097531
  30
0.0
  11
 126.85857325531
  21
 118.26905097531
  31
0.0
   0
LINE
   5
275
 100
AcDbEntity
   8
LEVEL001
 100
AcDbLine
   6
DOT
  62
15
  10
 150.25857325531
  20
 101.76905097531
  30
0.0
  11
 150.25857325531
  21
 118.26905097531
  31
0.0
   0
INSERT
   5
276
 100
AcDbEntity
   8
LEVEL001
 100
AcDbBlockReference
   2
*D23
  10
0.0
  20
0.0
  30
0.0
   0
LINE
   5
277
 100
AcDbEntity
   8
LEVEL001
 100
AcDbLine
   6
CONTINUOUS
  62
15
  10
 292.48728455121
  20
 252.40389130843
  30
0.0
  11
 290.86093895451
  21
 251.46502197983
  31
0.0
   0
LINE
   5
278
 100
AcDbEntity
   8
LEVEL001
 100
AcDbLine
   6
CONTINUOUS
  62
15
  10
 317.83068902931
  20
 242.90381485713
  30
0.0
  11
 316.20434343261
  21
 243.84268418573
  31
0.0
   0
LINE
   5
279
 100
AcDbEntity
   8
LEVEL001
 100
AcDbLine
   6
CONTINUOUS
  62
15
  10
 288.91356633981
  20
 249.95443956053
  30
0.0
  11
 288.91356633981
  21
 222.43701420003
  31
0.0
   0
LINE
   5
27A
 100
AcDbEntity
   8
LEVEL001
 100
AcDbLine
   6
CONTINUOUS
  62
15
  10
 299.65804475281
  20
 253.39465909403
  30
0.0
  11
 298.03169915611
  21
 254.33352842263
  31
0.0
   0
LINE
   5
27B
 100
AcDbEntity
   8
LEVEL001
 100
AcDbLine
   6
CONTINUOUS
  62
15
  10
 290.06365979721
  20
 218.81202019273
  30
0.0
  11
 306.60995847701
  21
 209.26004528443
  31
0.0
   0
LINE
   5
27C
 100
AcDbEntity
   8
LEVEL001
 100
AcDbLine
   6
CONTINUOUS
  62
15
  10
 322.70961248781
  20
 218.51768465293
  30
0.0
  11
 322.70961248781
  21
 220.39572852033
  31
0.0
   0
LINE
   5
27D
 100
AcDbEntity
   8
LEVEL001
 100
AcDbLine
   6
CONTINUOUS
  62
15
  10
 289.58722074301
  20
 219.86506324763
  30
0.0
  11
 306.13351942281
  21
 210.31308833933
  31
0.0
   0
LINE
   5
27E
 100
AcDbEntity
   8
LEVEL001
 100
AcDbLine
   6
CONTINUOUS
  62
15
  10
 289.58722074301
  20
 219.86506324763
  30
0.0
  11
 289.58722074301
  21
 221.49814487143
  31
0.0
   0
LINE
   5
27F
 100
AcDbEntity
   8
LEVEL001
 100
AcDbLine
   6
CONTINUOUS
  62
15
  10
 289.58722074301
  20
 249.01557023193
  30
0.0
  11
 289.58722074301
  21
 221.49814487143
  31
0.0
   0
LINE
   5
280
 100
AcDbEntity
   8
LEVEL001
 100
AcDbLine
   6
CONTINUOUS
  62
15
  10
 289.58722074301
  20
 250.39413837393
  30
0.0
  11
 289.58722074301
  21
 249.01557023193
  31
0.0
   0
LINE
   5
281
 100
AcDbEntity
   8
LEVEL001
 100
AcDbLine
   6
CONTINUOUS
  62
15
  10
 306.13351942281
  20
 240.84216346563
  30
0.0
  11
 305.82234093621
  21
 241.53719929103
  31
0.0
   0
LINE
   5
282
 100
AcDbEntity
   8
LEVEL001
 100
AcDbLine
   6
CONTINUOUS
  62
15
  10
 305.82234093621
  20
 241.53719929103
  30
0.0
  11
 305.48711116491
  21
 242.22559890303
  31
0.0
   0
LINE
   5
283
 100
AcDbEntity
   8
LEVEL001
 100
AcDbLine
   6
CONTINUOUS
  62
15
  10
 305.48711116491
  20
 242.22559890303
  30
0.0
  11
 305.12884276121
  21
 242.90528280443
  31
0.0
   0
LINE
   5
284
 100
AcDbEntity
   8
LEVEL001
 100
AcDbLine
   6
CONTINUOUS
  62
15
  10
 305.12884276121
  20
 242.90528280443
  30
0.0
  11
 304.74861797141
  21
 243.57419782633
  31
0.0
   0
LINE
   5
285
 100
AcDbEntity
   8
LEVEL001
 100
AcDbLine
   6
CONTINUOUS
  62
15
  10
 304.74861797141
  20
 243.57419782633
  30
0.0
  11
 304.34758536741
  21
 244.23032333013
  31
0.0
   0
LINE
   5
286
 100
AcDbEntity
   8
LEVEL001
 100
AcDbLine
   6
CONTINUOUS
  62
15
  10
 304.34758536741
  20
 244.23032333013
  30
0.0
  11
 303.92695637651
  21
 244.87167731153
  31
0.0
   0
LINE
   5
287
 100
AcDbEntity
   8
LEVEL001
 100
AcDbLine
   6
CONTINUOUS
  62
15
  10
 303.92695637651
  20
 244.87167731153
  30
0.0
  11
 303.48800162221
  21
 245.49632238743
  31
0.0
   0
LINE
   5
288
 100
AcDbEntity
   8
LEVEL001
 100
AcDbLine
   6
CONTINUOUS
  62
15
  10
 303.48800162221
  20
 245.49632238743
  30
0.0
  11
 303.03204708601
  21
 246.10237164863
  31
0.0
   0
LINE
   5
289
 100
AcDbEntity
   8
LEVEL001
 100
AcDbLine
   6
CONTINUOUS
  62
15
  10
 303.03204708601
  20
 246.10237164863
  30
0.0
  11
 302.56047010181
  21
 246.68799435943
  31
0.0
   0
LINE
   5
28A
 100
AcDbEntity
   8
LEVEL001
 100
AcDbLine
   6
CONTINUOUS
  62
15
  10
 302.56047010181
  20
 246.68799435943
  30
0.0
  11
 302.07469519531
  21
 247.25142148833
  31
0.0
   0
LINE
   5
28B
 100
AcDbEntity
   8
LEVEL001
 100
AcDbLine
   6
CONTINUOUS
  62
15
  10
 302.07469519531
  20
 247.25142148833
  30
0.0
  11
 301.57618978091
  21
 247.79095105123
  31
0.0
   0
LINE
   5
28C
 100
AcDbEntity
   8
LEVEL001
 100
AcDbLine
   6
CONTINUOUS
  62
15
  10
 301.57618978091
  20
 247.79095105123
  30
0.0
  11
 301.06645972891
  21
 248.30495325343
  31
0.0
   0
LINE
   5
28D
 100
AcDbEntity
   8
LEVEL001
 100
AcDbLine
   6
CONTINUOUS
  62
15
  10
 301.06645972891
  20
 248.30495325343
  30
0.0
  11
 300.54704481681
  21
 248.79187541243
  31
0.0
   0
LINE
   5
28E
 100
AcDbEntity
   8
LEVEL001
 100
AcDbLine
   6
CONTINUOUS
  62
15
  10
 300.54704481681
  20
 248.79187541243
  30
0.0
  11
 300.01951407751
  21
 249.25024664803
  31
0.0
   0
LINE
   5
28F
 100
AcDbEntity
   8
LEVEL001
 100
AcDbLine
   6
CONTINUOUS
  62
15
  10
 300.01951407751
  20
 249.25024664803
  30
0.0
  11
 299.48546106031
  21
 249.67868232623
  31
0.0
   0
LINE
   5
290
 100
AcDbEntity
   8
LEVEL001
 100
AcDbLine
   6
CONTINUOUS
  62
15
  10
 299.48546106031
  20
 249.67868232623
  30
0.0
  11
 298.94649901661
  21
 250.07588824123
  31
0.0
   0
LINE
   5
291
 100
AcDbEntity
   8
LEVEL001
 100
AcDbLine
   6
CONTINUOUS
  62
15
  10
 298.94649901661
  20
 250.07588824123
  30
0.0
  11
 298.40425602701
  21
 250.44066452523
  31
0.0
   0
LINE
   5
292
 100
AcDbEntity
   8
LEVEL001
 100
AcDbLine
   6
CONTINUOUS
  62
15
  10
 298.40425602701
  20
 250.44066452523
  30
0.0
  11
 297.86037008291
  21
 250.77190927283
  31
0.0
   0
LINE
   5
293
 100
AcDbEntity
   8
LEVEL001
 100
AcDbLine
   6
CONTINUOUS
  62
15
  10
 297.86037008291
  20
 250.77190927283
  30
0.0
  11
 297.31648413881
  21
 251.06862186983
  31
0.0
   0
LINE
   5
294
 100
AcDbEntity
   8
LEVEL001
 100
AcDbLine
   6
CONTINUOUS
  62
15
  10
 297.31648413881
  20
 251.06862186983
  30
0.0
  11
 296.77424114921
  21
 251.32990601563
  31
0.0
   0
LINE
   5
295
 100
AcDbEntity
   8
LEVEL001
 100
AcDbLine
   6
CONTINUOUS
  62
15
  10
 296.77424114921
  20
 251.32990601563
  30
0.0
  11
 296.23527910551
  21
 251.55497243083
  31
0.0
   0
LINE
   5
296
 100
AcDbEntity
   8
LEVEL001
 100
AcDbLine
   6
CONTINUOUS
  62
15
  10
 296.23527910551
  20
 251.55497243083
  30
0.0
  11
 295.70122608831
  21
 251.74314124143
  31
0.0
   0
LINE
   5
297
 100
AcDbEntity
   8
LEVEL001
 100
AcDbLine
   6
CONTINUOUS
  62
15
  10
 295.70122608831
  20
 251.74314124143
  30
0.0
  11
 295.17369534901
  21
 251.89384403283
  31
0.0
   0
LINE
   5
298
 100
AcDbEntity
   8
LEVEL001
 100
AcDbLine
   6
CONTINUOUS
  62
15
  10
 295.17369534901
  20
 251.89384403283
  30
0.0
  11
 294.65428043691
  21
 252.00662556643
  31
0.0
   0
LINE
   5
299
 100
AcDbEntity
   8
LEVEL001
 100
AcDbLine
   6
CONTINUOUS
  62
15
  10
 294.65428043691
  20
 252.00662556643
  30
0.0
  11
 294.14455038491
  21
 252.08114515523
  31
0.0
   0
LINE
   5
29A
 100
AcDbEntity
   8
LEVEL001
 100
AcDbLine
   6
CONTINUOUS
  62
15
  10
 294.14455038491
  20
 252.08114515523
  30
0.0
  11
 293.64604497051
  21
 252.11717769253
  31
0.0
   0
LINE
   5
29B
 100
AcDbEntity
   8
LEVEL001
 100
AcDbLine
   6
CONTINUOUS
  62
15
  10
 293.64604497051
  20
 252.11717769253
  30
0.0
  11
 293.16027006401
  21
 252.11461433233
  31
0.0
   0
LINE
   5
29C
 100
AcDbEntity
   8
LEVEL001
 100
AcDbLine
   6
CONTINUOUS
  62
15
  10
 293.16027006401
  20
 252.11461433233
  30
0.0
  11
 292.68869307981
  21
 252.07346281813
  31
0.0
   0
LINE
   5
29D
 100
AcDbEntity
   8
LEVEL001
 100
AcDbLine
   6
CONTINUOUS
  62
15
  10
 292.68869307981
  20
 252.07346281813
  30
0.0
  11
 292.23273854361
  21
 251.99384745903
  31
0.0
   0
LINE
   5
29E
 100
AcDbEntity
   8
LEVEL001
 100
AcDbLine
   6
CONTINUOUS
  62
15
  10
 292.23273854361
  20
 251.99384745903
  30
0.0
  11
 291.79378378941
  21
 251.87600875473
  31
0.0
   0
LINE
   5
29F
 100
AcDbEntity
   8
LEVEL001
 100
AcDbLine
   6
CONTINUOUS
  62
15
  10
 291.79378378941
  20
 251.87600875473
  30
0.0
  11
 291.37315479841
  21
 251.72030266893
  31
0.0
   0
LINE
   5
2A0
 100
AcDbEntity
   8
LEVEL001
 100
AcDbLine
   6
CONTINUOUS
  62
15
  10
 291.37315479841
  20
 251.72030266893
  30
0.0
  11
 290.97212219441
  21
 251.52719955393
  31
0.0
   0
LINE
   5
2A1
 100
AcDbEntity
   8
LEVEL001
 100
AcDbLine
   6
CONTINUOUS
  62
15
  10
 290.97212219441
  20
 251.52719955393
  30
0.0
  11
 290.59189740461
  21
 251.29728272993
  31
0.0
   0
LINE
   5
2A2
 100
AcDbEntity
   8
LEVEL001
 100
AcDbLine
   6
CONTINUOUS
  62
15
  10
 290.59189740461
  20
 251.29728272993
  30
0.0
  11
 290.23362900091
  21
 251.03124672283
  31
0.0
   0
LINE
   5
2A3
 100
AcDbEntity
   8
LEVEL001
 100
AcDbLine
   6
CONTINUOUS
  62
15
  10
 290.23362900091
  20
 251.03124672283
  30
0.0
  11
 289.89839922961
  21
 250.72989516623
  31
0.0
   0
LINE
   5
2A4
 100
AcDbEntity
   8
LEVEL001
 100
AcDbLine
   6
CONTINUOUS
  62
15
  10
 289.89839922961
  20
 250.72989516623
  30
0.0
  11
 289.58722074301
  21
 250.39413837393
  31
0.0
   0
LINE
   5
2A5
 100
AcDbEntity
   8
LEVEL001
 100
AcDbLine
   6
CONTINUOUS
  62
15
  10
 306.13351942281
  20
 239.46359532363
  30
0.0
  11
 306.13351942281
  21
 240.84216346563
  31
0.0
   0
LINE
   5
2A6
 100
AcDbEntity
   8
LEVEL001
 100
AcDbLine
   6
CONTINUOUS
  62
15
  10
 306.13351942281
  20
 211.94616996303
  30
0.0
  11
 306.13351942281
  21
 239.46359532363
  31
0.0
   0
LINE
   5
2A7
 100
AcDbEntity
   8
LEVEL001
 100
AcDbLine
   6
CONTINUOUS
  62
15
  10
 306.13351942281
  20
 211.94616996303
  30
0.0
  11
 306.13351942281
  21
 210.31308833933
  31
0.0
   0
LINE
   5
2A8
 100
AcDbEntity
   8
LEVEL001
 100
AcDbLine
   6
CONTINUOUS
  62
15
  10
 299.98169042651
  20
 220.15182787723
  30
0.0
  11
 299.96680108261
  21
 220.45014792553
  31
0.0
   0
LINE
   5
2A9
 100
AcDbEntity
   8
LEVEL001
 100
AcDbLine
   6
CONTINUOUS
  62
15
  10
 299.96680108261
  20
 220.45014792553
  30
0.0
  11
 299.92234206491
  21
 220.76147108463
  31
0.0
   0
LINE
   5
2AA
 100
AcDbEntity
   8
LEVEL001
 100
AcDbLine
   6
CONTINUOUS
  62
15
  10
 299.92234206491
  20
 220.76147108463
  30
0.0
  11
 299.84893748051
  21
 221.08142705993
  31
0.0
   0
LINE
   5
2AB
 100
AcDbEntity
   8
LEVEL001
 100
AcDbLine
   6
CONTINUOUS
  62
15
  10
 299.84893748051
  20
 221.08142705993
  30
0.0
  11
 299.74761776881
  21
 221.40552437093
  31
0.0
   0
LINE
   5
2AC
 100
AcDbEntity
   8
LEVEL001
 100
AcDbLine
   6
CONTINUOUS
  62
15
  10
 299.74761776881
  20
 221.40552437093
  30
0.0
  11
 299.61980523651
  21
 221.72921340173
  31
0.0
   0
LINE
   5
2AD
 100
AcDbEntity
   8
LEVEL001
 100
AcDbLine
   6
CONTINUOUS
  62
15
  10
 299.61980523651
  20
 221.72921340173
  30
0.0
  11
 299.46729409141
  21
 222.04795026783
  31
0.0
   0
LINE
   5
2AE
 100
AcDbEntity
   8
LEVEL001
 100
AcDbLine
   6
CONTINUOUS
  62
15
  10
 299.46729409141
  20
 222.04795026783
  30
0.0
  11
 299.29222525561
  21
 222.35726060243
  31
0.0
   0
LINE
   5
2AF
 100
AcDbEntity
   8
LEVEL001
 100
AcDbLine
   6
CONTINUOUS
  62
15
  10
 299.29222525561
  20
 222.35726060243
  30
0.0
  11
 299.09705631181
  21
 222.65280236633
  31
0.0
   0
LINE
   5
2B0
 100
AcDbEntity
   8
LEVEL001
 100
AcDbLine
   6
CONTINUOUS
  62
15
  10
 299.09705631181
  20
 222.65280236633
  30
0.0
  11
 298.88452700431
  21
 222.93042680113
  31
0.0
   0
LINE
   5
2B1
 100
AcDbEntity
   8
LEVEL001
 100
AcDbLine
   6
CONTINUOUS
  62
15
  10
 298.88452700431
  20
 222.93042680113
  30
0.0
  11
 298.65762077851
  21
 223.18623666823
  31
0.0
   0
LINE
   5
2B2
 100
AcDbEntity
   8
LEVEL001
 100
AcDbLine
   6
CONTINUOUS
  62
15
  10
 298.65762077851
  20
 223.18623666823
  30
0.0
  11
 298.41952290061
  21
 223.41664095783
  31
0.0
   0
LINE
   5
2B3
 100
AcDbEntity
   8
LEVEL001
 100
AcDbLine
   6
CONTINUOUS
  62
15
  10
 298.41952290061
  20
 223.41664095783
  30
0.0
  11
 298.17357574281
  21
 223.61840529883
  31
0.0
   0
LINE
   5
2B4
 100
AcDbEntity
   8
LEVEL001
 100
AcDbLine
   6
CONTINUOUS
  62
15
  10
 298.17357574281
  20
 223.61840529883
  30
0.0
  11
 297.92323186411
  21
 223.78869736203
  31
0.0
   0
LINE
   5
2B5
 100
AcDbEntity
   8
LEVEL001
 100
AcDbLine
   6
CONTINUOUS
  62
15
  10
 297.92323186411
  20
 223.78869736203
  30
0.0
  11
 297.67200554371
  21
 223.92512662033
  31
0.0
   0
LINE
   5
2B6
 100
AcDbEntity
   8
LEVEL001
 100
AcDbLine
   6
CONTINUOUS
  62
15
  10
 297.67200554371
  20
 223.92512662033
  30
0.0
  11
 297.42342344861
  21
 224.02577790583
  31
0.0
   0
LINE
   5
2B7
 100
AcDbEntity
   8
LEVEL001
 100
AcDbLine
   6
CONTINUOUS
  62
15
  10
 297.42342344861
  20
 224.02577790583
  30
0.0
  11
 297.18097512651
  21
 224.08923829523
  31
0.0
   0
LINE
   5
2B8
 100
AcDbEntity
   8
LEVEL001
 100
AcDbLine
   6
CONTINUOUS
  62
15
  10
 297.18097512651
  20
 224.08923829523
  30
0.0
  11
 296.94806402031
  21
 224.11461694373
  31
0.0
   0
LINE
   5
2B9
 100
AcDbEntity
   8
LEVEL001
 100
AcDbLine
   6
CONTINUOUS
  62
15
  10
 296.94806402031
  20
 224.11461694373
  30
0.0
  11
 296.72795969141
  21
 224.10155759073
  31
0.0
   0
LINE
   5
2BA
 100
AcDbEntity
   8
LEVEL001
 100
AcDbLine
   6
CONTINUOUS
  62
15
  10
 296.72795969141
  20
 224.10155759073
  30
0.0
  11
 296.52375192211
  21
 224.05024356093
  31
0.0
   0
LINE
   5
2BB
 100
AcDbEntity
   8
LEVEL001
 100
AcDbLine
   6
CONTINUOUS
  62
15
  10
 296.52375192211
  20
 224.05024356093
  30
0.0
  11
 296.33830734191
  21
 223.96139519073
  31
0.0
   0
LINE
   5
2BC
 100
AcDbEntity
   8
LEVEL001
 100
AcDbLine
   6
CONTINUOUS
  62
15
  10
 296.33830734191
  20
 223.96139519073
  30
0.0
  11
 296.17422918621
  21
 223.83625971663
  31
0.0
   0
LINE
   5
2BD
 100
AcDbEntity
   8
LEVEL001
 100
AcDbLine
   6
CONTINUOUS
  62
15
  10
 296.17422918621
  20
 223.83625971663
  30
0.0
  11
 296.03382075261
  21
 223.67659376633
  31
0.0
   0
LINE
   5
2BE
 100
AcDbEntity
   8
LEVEL001
 100
AcDbLine
   6
CONTINUOUS
  62
15
  10
 296.03382075261
  20
 223.67659376633
  30
0.0
  11
 295.91905306771
  21
 223.48463869983
  31
0.0
   0
LINE
   5
2BF
 100
AcDbEntity
   8
LEVEL001
 100
AcDbLine
   6
CONTINUOUS
  62
15
  10
 295.91905306771
  20
 223.48463869983
  30
0.0
  11
 295.83153721841
  21
 223.26308914543
  31
0.0
   0
LINE
   5
2C0
 100
AcDbEntity
   8
LEVEL001
 100
AcDbLine
   6
CONTINUOUS
  62
15
  10
 295.83153721841
  20
 223.26308914543
  30
0.0
  11
 295.77250173521
  21
 223.01505517313
  31
0.0
   0
LINE
   5
2C1
 100
AcDbEntity
   8
LEVEL001
 100
AcDbLine
   6
CONTINUOUS
  62
15
  10
 295.77250173521
  20
 223.01505517313
  30
0.0
  11
 295.74277534691
  21
 222.74401863643
  31
0.0
   0
LINE
   5
2C2
 100
AcDbEntity
   8
LEVEL001
 100
AcDbLine
   6
CONTINUOUS
  62
15
  10
 295.74277534691
  20
 222.74401863643
  30
0.0
  11
 295.74277534691
  21
 222.45378429403
  31
0.0
   0
LINE
   5
2C3
 100
AcDbEntity
   8
LEVEL001
 100
AcDbLine
   6
CONTINUOUS
  62
15
  10
 295.74277534691
  20
 222.45378429403
  30
0.0
  11
 295.77250173521
  21
 222.14842640003
  31
0.0
   0
LINE
   5
2C4
 100
AcDbEntity
   8
LEVEL001
 100
AcDbLine
   6
CONTINUOUS
  62
15
  10
 295.77250173521
  20
 222.14842640003
  30
0.0
  11
 295.83153721841
  21
 221.83223150973
  31
0.0
   0
LINE
   5
2C5
 100
AcDbEntity
   8
LEVEL001
 100
AcDbLine
   6
CONTINUOUS
  62
15
  10
 295.83153721841
  20
 221.83223150973
  30
0.0
  11
 295.91905306771
  21
 221.50963830633
  31
0.0
   0
LINE
   5
2C6
 100
AcDbEntity
   8
LEVEL001
 100
AcDbLine
   6
CONTINUOUS
  62
15
  10
 295.91905306771
  20
 221.50963830633
  30
0.0
  11
 296.03382075261
  21
 221.18517529143
  31
0.0
   0
LINE
   5
2C7
 100
AcDbEntity
   8
LEVEL001
 100
AcDbLine
   6
CONTINUOUS
  62
15
  10
 296.03382075261
  20
 221.18517529143
  30
0.0
  11
 296.17422918621
  21
 220.86339721433
  31
0.0
   0
LINE
   5
2C8
 100
AcDbEntity
   8
LEVEL001
 100
AcDbLine
   6
CONTINUOUS
  62
15
  10
 296.17422918621
  20
 220.86339721433
  30
0.0
  11
 296.33830734191
  21
 220.54882113403
  31
0.0
   0
LINE
   5
2C9
 100
AcDbEntity
   8
LEVEL001
 100
AcDbLine
   6
CONTINUOUS
  62
15
  10
 296.33830734191
  20
 220.54882113403
  30
0.0
  11
 296.52375192211
  21
 220.24586300903
  31
0.0
   0
LINE
   5
2CA
 100
AcDbEntity
   8
LEVEL001
 100
AcDbLine
   6
CONTINUOUS
  62
15
  10
 296.52375192211
  20
 220.24586300903
  30
0.0
  11
 296.72795969141
  21
 219.95877570733
  31
0.0
   0
LINE
   5
2CB
 100
AcDbEntity
   8
LEVEL001
 100
AcDbLine
   6
CONTINUOUS
  62
15
  10
 296.72795969141
  20
 219.95877570733
  30
0.0
  11
 296.94806402031
  21
 219.69158930543
  31
0.0
   0
LINE
   5
2CC
 100
AcDbEntity
   8
LEVEL001
 100
AcDbLine
   6
CONTINUOUS
  62
15
  10
 296.94806402031
  20
 219.69158930543
  30
0.0
  11
 297.18097512651
  21
 219.44805451473
  31
0.0
   0
LINE
   5
2CD
 100
AcDbEntity
   8
LEVEL001
 100
AcDbLine
   6
CONTINUOUS
  62
15
  10
 297.18097512651
  20
 219.44805451473
  30
0.0
  11
 297.42342344861
  21
 219.23159002973
  31
0.0
   0
LINE
   5
2CE
 100
AcDbEntity
   8
LEVEL001
 100
AcDbLine
   6
CONTINUOUS
  62
15
  10
 297.42342344861
  20
 219.23159002973
  30
0.0
  11
 297.67200554371
  21
 219.04523453733
  31
0.0
   0
LINE
   5
2CF
 100
AcDbEntity
   8
LEVEL001
 100
AcDbLine
   6
CONTINUOUS
  62
15
  10
 297.67200554371
  20
 219.04523453733
  30
0.0
  11
 297.92323186411
  21
 218.89160406023
  31
0.0
   0
LINE
   5
2D0
 100
AcDbEntity
   8
LEVEL001
 100
AcDbLine
   6
CONTINUOUS
  62
15
  10
 297.92323186411
  20
 218.89160406023
  30
0.0
  11
 298.17357574281
  21
 218.77285523353
  31
0.0
   0
LINE
   5
2D1
 100
AcDbEntity
   8
LEVEL001
 100
AcDbLine
   6
CONTINUOUS
  62
15
  10
 298.17357574281
  20
 218.77285523353
  30
0.0
  11
 298.41952290061
  21
 218.69065503043
  31
0.0
   0
LINE
   5
2D2
 100
AcDbEntity
   8
LEVEL001
 100
AcDbLine
   6
CONTINUOUS
  62
15
  10
 298.41952290061
  20
 218.69065503043
  30
0.0
  11
 298.65762077851
  21
 218.64615736173
  31
0.0
   0
LINE
   5
2D3
 100
AcDbEntity
   8
LEVEL001
 100
AcDbLine
   6
CONTINUOUS
  62
15
  10
 298.65762077851
  20
 218.64615736173
  30
0.0
  11
 298.88452700431
  21
 218.63998687693
  31
0.0
   0
LINE
   5
2D4
 100
AcDbEntity
   8
LEVEL001
 100
AcDbLine
   6
CONTINUOUS
  62
15
  10
 298.88452700431
  20
 218.63998687693
  30
0.0
  11
 299.09705631181
  21
 218.67223019623
  31
0.0
   0
LINE
   5
2D5
 100
AcDbEntity
   8
LEVEL001
 100
AcDbLine
   6
CONTINUOUS
  62
15
  10
 299.09705631181
  20
 218.67223019623
  30
0.0
  11
 299.29222525561
  21
 218.74243469423
  31
0.0
   0
LINE
   5
2D6
 100
AcDbEntity
   8
LEVEL001
 100
AcDbLine
   6
CONTINUOUS
  62
15
  10
 299.29222525561
  20
 218.74243469423
  30
0.0
  11
 299.46729409141
  21
 218.84961485343
  31
0.0
   0
LINE
   5
2D7
 100
AcDbEntity
   8
LEVEL001
 100
AcDbLine
   6
CONTINUOUS
  62
15
  10
 299.46729409141
  20
 218.84961485343
  30
0.0
  11
 299.61980523651
  21
 218.99226609943
  31
0.0
   0
LINE
   5
2D8
 100
AcDbEntity
   8
LEVEL001
 100
AcDbLine
   6
CONTINUOUS
  62
15
  10
 299.61980523651
  20
 218.99226609943
  30
0.0
  11
 299.74761776881
  21
 219.16838592153
  31
0.0
   0
LINE
   5
2D9
 100
AcDbEntity
   8
LEVEL001
 100
AcDbLine
   6
CONTINUOUS
  62
15
  10
 299.74761776881
  20
 219.16838592153
  30
0.0
  11
 299.84893748051
  21
 219.37550198343
  31
0.0
   0
LINE
   5
2DA
 100
AcDbEntity
   8
LEVEL001
 100
AcDbLine
   6
CONTINUOUS
  62
15
  10
 299.84893748051
  20
 219.37550198343
  30
0.0
  11
 299.92234206491
  21
 219.61070682953
  31
0.0
   0
LINE
   5
2DB
 100
AcDbEntity
   8
LEVEL001
 100
AcDbLine
   6
CONTINUOUS
  62
15
  10
 299.92234206491
  20
 219.61070682953
  30
0.0
  11
 299.96680108261
  21
 219.87069869943
  31
0.0
   0
LINE
   5
2DC
 100
AcDbEntity
   8
LEVEL001
 100
AcDbLine
   6
CONTINUOUS
  62
15
  10
 299.96680108261
  20
 219.87069869943
  30
0.0
  11
 299.98169042651
  21
 220.15182787723
  31
0.0
   0
LINE
   5
2DD
 100
AcDbEntity
   8
LEVEL001
 100
AcDbLine
   6
CONTINUOUS
  62
15
  10
 307.75986501951
  20
 241.78103279413
  30
0.0
  11
 307.44868653291
  21
 242.47606861963
  31
0.0
   0
LINE
   5
2DE
 100
AcDbEntity
   8
LEVEL001
 100
AcDbLine
   6
CONTINUOUS
  62
15
  10
 307.44868653291
  20
 242.47606861963
  30
0.0
  11
 307.11345676171
  21
 243.16446823163
  31
0.0
   0
LINE
   5
2DF
 100
AcDbEntity
   8
LEVEL001
 100
AcDbLine
   6
CONTINUOUS
  62
15
  10
 307.11345676171
  20
 243.16446823163
  30
0.0
  11
 306.75518835791
  21
 243.84415213303
  31
0.0
   0
LINE
   5
2E0
 100
AcDbEntity
   8
LEVEL001
 100
AcDbLine
   6
CONTINUOUS
  62
15
  10
 306.75518835791
  20
 243.84415213303
  30
0.0
  11
 306.37496356811
  21
 244.51306715493
  31
0.0
   0
LINE
   5
2E1
 100
AcDbEntity
   8
LEVEL001
 100
AcDbLine
   6
CONTINUOUS
  62
15
  10
 306.37496356811
  20
 244.51306715493
  30
0.0
  11
 305.97393096411
  21
 245.16919265873
  31
0.0
   0
LINE
   5
2E2
 100
AcDbEntity
   8
LEVEL001
 100
AcDbLine
   6
CONTINUOUS
  62
15
  10
 305.97393096411
  20
 245.16919265873
  30
0.0
  11
 305.55330197321
  21
 245.81054664013
  31
0.0
   0
LINE
   5
2E3
 100
AcDbEntity
   8
LEVEL001
 100
AcDbLine
   6
CONTINUOUS
  62
15
  10
 305.55330197321
  20
 245.81054664013
  30
0.0
  11
 305.11434721891
  21
 246.43519171603
  31
0.0
   0
LINE
   5
2E4
 100
AcDbEntity
   8
LEVEL001
 100
AcDbLine
   6
CONTINUOUS
  62
15
  10
 305.11434721891
  20
 246.43519171603
  30
0.0
  11
 304.65839268271
  21
 247.04124097723
  31
0.0
   0
LINE
   5
2E5
 100
AcDbEntity
   8
LEVEL001
 100
AcDbLine
   6
CONTINUOUS
  62
15
  10
 304.65839268271
  20
 247.04124097723
  30
0.0
  11
 304.18681569851
  21
 247.62686368803
  31
0.0
   0
LINE
   5
2E6
 100
AcDbEntity
   8
LEVEL001
 100
AcDbLine
   6
CONTINUOUS
  62
15
  10
 304.18681569851
  20
 247.62686368803
  30
0.0
  11
 303.70104079201
  21
 248.19029081693
  31
0.0
   0
LINE
   5
2E7
 100
AcDbEntity
   8
LEVEL001
 100
AcDbLine
   6
CONTINUOUS
  62
15
  10
 303.70104079201
  20
 248.19029081693
  30
0.0
  11
 303.20253537761
  21
 248.72982037983
  31
0.0
   0
LINE
   5
2E8
 100
AcDbEntity
   8
LEVEL001
 100
AcDbLine
   6
CONTINUOUS
  62
15
  10
 303.20253537761
  20
 248.72982037983
  30
0.0
  11
 302.69280532571
  21
 249.24382258203
  31
0.0
   0
LINE
   5
2E9
 100
AcDbEntity
   8
LEVEL001
 100
AcDbLine
   6
CONTINUOUS
  62
15
  10
 302.69280532571
  20
 249.24382258203
  30
0.0
  11
 302.17339041351
  21
 249.73074474103
  31
0.0
   0
LINE
   5
2EA
 100
AcDbEntity
   8
LEVEL001
 100
AcDbLine
   6
CONTINUOUS
  62
15
  10
 302.17339041351
  20
 249.73074474103
  30
0.0
  11
 301.64585967421
  21
 250.18911597663
  31
0.0
   0
LINE
   5
2EB
 100
AcDbEntity
   8
LEVEL001
 100
AcDbLine
   6
CONTINUOUS
  62
15
  10
 301.64585967421
  20
 250.18911597663
  30
0.0
  11
 301.11180665701
  21
 250.61755165483
  31
0.0
   0
LINE
   5
2EC
 100
AcDbEntity
   8
LEVEL001
 100
AcDbLine
   6
CONTINUOUS
  62
15
  10
 301.11180665701
  20
 250.61755165483
  30
0.0
  11
 300.57284461341
  21
 251.01475756983
  31
0.0
   0
LINE
   5
2ED
 100
AcDbEntity
   8
LEVEL001
 100
AcDbLine
   6
CONTINUOUS
  62
15
  10
 300.57284461341
  20
 251.01475756983
  30
0.0
  11
 300.03060162371
  21
 251.37953385383
  31
0.0
   0
LINE
   5
2EE
 100
AcDbEntity
   8
LEVEL001
 100
AcDbLine
   6
CONTINUOUS
  62
15
  10
 300.03060162371
  20
 251.37953385383
  30
0.0
  11
 299.48671567961
  21
 251.71077860143
  31
0.0
   0
LINE
   5
2EF
 100
AcDbEntity
   8
LEVEL001
 100
AcDbLine
   6
CONTINUOUS
  62
15
  10
 299.48671567961
  20
 251.71077860143
  30
0.0
  11
 298.94282973551
  21
 252.00749119843
  31
0.0
   0
LINE
   5
2F0
 100
AcDbEntity
   8
LEVEL001
 100
AcDbLine
   6
CONTINUOUS
  62
15
  10
 298.94282973551
  20
 252.00749119843
  30
0.0
  11
 298.40058674591
  21
 252.26877534423
  31
0.0
   0
LINE
   5
2F1
 100
AcDbEntity
   8
LEVEL001
 100
AcDbLine
   6
CONTINUOUS
  62
15
  10
 298.40058674591
  20
 252.26877534423
  30
0.0
  11
 297.86162470221
  21
 252.49384175943
  31
0.0
   0
LINE
   5
2F2
 100
AcDbEntity
   8
LEVEL001
 100
AcDbLine
   6
CONTINUOUS
  62
15
  10
 297.86162470221
  20
 252.49384175943
  30
0.0
  11
 297.32757168501
  21
 252.68201057003
  31
0.0
   0
LINE
   5
2F3
 100
AcDbEntity
   8
LEVEL001
 100
AcDbLine
   6
CONTINUOUS
  62
15
  10
 297.32757168501
  20
 252.68201057003
  30
0.0
  11
 296.80004094581
  21
 252.83271336143
  31
0.0
   0
LINE
   5
2F4
 100
AcDbEntity
   8
LEVEL001
 100
AcDbLine
   6
CONTINUOUS
  62
15
  10
 296.80004094581
  20
 252.83271336143
  30
0.0
  11
 296.28062603361
  21
 252.94549489503
  31
0.0
   0
LINE
   5
2F5
 100
AcDbEntity
   8
LEVEL001
 100
AcDbLine
   6
CONTINUOUS
  62
15
  10
 296.28062603361
  20
 252.94549489503
  30
0.0
  11
 295.77089598161
  21
 253.02001448383
  31
0.0
   0
LINE
   5
2F6
 100
AcDbEntity
   8
LEVEL001
 100
AcDbLine
   6
CONTINUOUS
  62
15
  10
 295.77089598161
  20
 253.02001448383
  30
0.0
  11
 295.27239056721
  21
 253.05604702113
  31
0.0
   0
LINE
   5
2F7
 100
AcDbEntity
   8
LEVEL001
 100
AcDbLine
   6
CONTINUOUS
  62
15
  10
 295.27239056721
  20
 253.05604702113
  30
0.0
  11
 294.78661566081
  21
 253.05348366093
  31
0.0
   0
LINE
   5
2F8
 100
AcDbEntity
   8
LEVEL001
 100
AcDbLine
   6
CONTINUOUS
  62
15
  10
 294.78661566081
  20
 253.05348366093
  30
0.0
  11
 294.31503867661
  21
 253.01233214673
  31
0.0
   0
LINE
   5
2F9
 100
AcDbEntity
   8
LEVEL001
 100
AcDbLine
   6
CONTINUOUS
  62
15
  10
 294.31503867661
  20
 253.01233214673
  30
0.0
  11
 293.85908414041
  21
 252.93271678753
  31
0.0
   0
LINE
   5
2FA
 100
AcDbEntity
   8
LEVEL001
 100
AcDbLine
   6
CONTINUOUS
  62
15
  10
 293.85908414041
  20
 252.93271678753
  30
0.0
  11
 293.42012938611
  21
 252.81487808333
  31
0.0
   0
LINE
   5
2FB
 100
AcDbEntity
   8
LEVEL001
 100
AcDbLine
   6
CONTINUOUS
  62
15
  10
 293.42012938611
  20
 252.81487808333
  30
0.0
  11
 292.99950039521
  21
 252.65917199753
  31
0.0
   0
LINE
   5
2FC
 100
AcDbEntity
   8
LEVEL001
 100
AcDbLine
   6
CONTINUOUS
  62
15
  10
 292.99950039521
  20
 252.65917199753
  30
0.0
  11
 292.59846779111
  21
 252.46606888253
  31
0.0
   0
LINE
   5
2FD
 100
AcDbEntity
   8
LEVEL001
 100
AcDbLine
   6
CONTINUOUS
  62
15
  10
 292.59846779111
  20
 252.46606888253
  30
0.0
  11
 292.48728455121
  21
 252.40389130843
  31
0.0
   0
LINE
   5
2FE
 100
AcDbEntity
   8
LEVEL001
 100
AcDbLine
   6
CONTINUOUS
  62
15
  10
 307.75986501951
  20
 241.78103279413
  30
0.0
  11
 306.13351942281
  21
 240.84216346563
  31
0.0
   0
LINE
   5
2FF
 100
AcDbEntity
   8
LEVEL001
 100
AcDbLine
   6
CONTINUOUS
  62
15
  10
 309.38621061621
  20
 239.46359532363
  30
0.0
  11
 309.38621061621
  21
 211.94616996303
  31
0.0
   0
ARC
   5
300
 100
AcDbEntity
   8
LEVEL001
   6
CONTINUOUS
  62
15
 100
AcDbCircle
  10
 307.75986501951
  20
 215.06920959263
  30
0.0
  40
 3.5211328472109
 100
AcDbArc
  50
 242.49142556879
  51
 297.50857443118
   0
ARC
   5
301
 100
AcDbEntity
   8
LEVEL001
   6
CONTINUOUS
  62
15
 100
AcDbCircle
  10
 307.75986501951
  20
 242.58663495313
  30
0.0
  40
 3.5211328472109
 100
AcDbArc
  50
 242.49142556879
  51
 297.50857443118
   0
LINE
   5
302
 100
AcDbEntity
   8
LEVEL001
 100
AcDbLine
   6
CONTINUOUS
  62
15
  10
 313.20458723471
  20
 243.54563588273
  30
0.0
  11
 307.75986501951
  21
 240.40246465223
  31
0.0
   0
LINE
   5
303
 100
AcDbEntity
   8
LEVEL001
 100
AcDbLine
   6
CONTINUOUS
  62
15
  10
 314.83093283141
  20
 242.60676655413
  30
0.0
  11
 313.20458723471
  21
 243.54563588273
  31
0.0
   0
LINE
   5
304
 100
AcDbEntity
   8
LEVEL001
 100
AcDbLine
   6
CONTINUOUS
  62
15
  10
 309.38621061621
  20
 239.46359532363
  30
0.0
  11
 314.83093283141
  21
 242.60676655413
  31
0.0
   0
LINE
   5
305
 100
AcDbEntity
   8
LEVEL001
 100
AcDbLine
   6
CONTINUOUS
  62
15
  10
 307.75986501951
  20
 240.40246465223
  30
0.0
  11
 306.13351942281
  21
 239.46359532363
  31
0.0
   0
LINE
   5
306
 100
AcDbEntity
   8
LEVEL001
 100
AcDbLine
   6
CONTINUOUS
  62
15
  10
 307.75986501951
  20
 240.40246465223
  30
0.0
  11
 307.75986501951
  21
 241.78103279413
  31
0.0
   0
LINE
   5
307
 100
AcDbEntity
   8
LEVEL001
 100
AcDbLine
   6
CONTINUOUS
  62
15
  10
 319.07357351851
  20
 240.15674601833
  30
0.0
  11
 319.05742898981
  21
 240.57442330593
  31
0.0
   0
LINE
   5
308
 100
AcDbEntity
   8
LEVEL001
 100
AcDbLine
   6
CONTINUOUS
  62
15
  10
 319.05742898981
  20
 240.57442330593
  30
0.0
  11
 319.00911827331
  21
 240.97028174113
  31
0.0
   0
LINE
   5
309
 100
AcDbEntity
   8
LEVEL001
 100
AcDbLine
   6
CONTINUOUS
  62
15
  10
 319.00911827331
  20
 240.97028174113
  30
0.0
  11
 318.92900904271
  21
 241.34130860213
  31
0.0
   0
LINE
   5
30A
 100
AcDbEntity
   8
LEVEL001
 100
AcDbLine
   6
CONTINUOUS
  62
15
  10
 318.92900904271
  20
 241.34130860213
  30
0.0
  11
 318.81771097771
  21
 241.68468015053
  31
0.0
   0
LINE
   5
30B
 100
AcDbEntity
   8
LEVEL001
 100
AcDbLine
   6
CONTINUOUS
  62
15
  10
 318.81771097771
  20
 241.68468015053
  30
0.0
  11
 318.67607112371
  21
 241.99778312163
  31
0.0
   0
LINE
   5
30C
 100
AcDbEntity
   8
LEVEL001
 100
AcDbLine
   6
CONTINUOUS
  62
15
  10
 318.67607112371
  20
 241.99778312163
  30
0.0
  11
 318.50516744561
  21
 242.27823461253
  31
0.0
   0
LINE
   5
30D
 100
AcDbEntity
   8
LEVEL001
 100
AcDbLine
   6
CONTINUOUS
  62
15
  10
 318.50516744561
  20
 242.27823461253
  30
0.0
  11
 318.30630062341
  21
 242.52390021823
  31
0.0
   0
LINE
   5
30E
 100
AcDbEntity
   8
LEVEL001
 100
AcDbLine
   6
CONTINUOUS
  62
15
  10
 318.30630062341
  20
 242.52390021823
  30
0.0
  11
 318.08098415391
  21
 242.73291027503
  31
0.0
   0
LINE
   5
30F
 100
AcDbEntity
   8
LEVEL001
 100
AcDbLine
   6
CONTINUOUS
  62
15
  10
 318.08098415391
  20
 242.73291027503
  30
0.0
  11
 317.83093283141
  21
 242.90367409023
  31
0.0
   0
LINE
   5
310
 100
AcDbEntity
   8
LEVEL001
 100
AcDbLine
   6
CONTINUOUS
  62
15
  10
 317.83093283141
  20
 242.90367409023
  30
0.0
  11
 317.55804969741
  21
 243.03489204813
  31
0.0
   0
LINE
   5
311
 100
AcDbEntity
   8
LEVEL001
 100
AcDbLine
   6
CONTINUOUS
  62
15
  10
 317.55804969741
  20
 243.03489204813
  30
0.0
  11
 317.26441155741
  21
 243.12556550083
  31
0.0
   0
LINE
   5
312
 100
AcDbEntity
   8
LEVEL001
 100
AcDbLine
   6
CONTINUOUS
  62
15
  10
 317.26441155741
  20
 243.12556550083
  30
0.0
  11
 316.95225317491
  21
 243.17500436843
  31
0.0
   0
LINE
   5
313
 100
AcDbEntity
   8
LEVEL001
 100
AcDbLine
   6
CONTINUOUS
  62
15
  10
 316.95225317491
  20
 243.17500436843
  30
0.0
  11
 316.62395026381
  21
 243.18283239153
  31
0.0
   0
LINE
   5
314
 100
AcDbEntity
   8
LEVEL001
 100
AcDbLine
   6
CONTINUOUS
  62
15
  10
 316.62395026381
  20
 243.18283239153
  30
0.0
  11
 316.28200140731
  21
 243.14898999403
  31
0.0
   0
LINE
   5
315
 100
AcDbEntity
   8
LEVEL001
 100
AcDbLine
   6
CONTINUOUS
  62
15
  10
 316.28200140731
  20
 243.14898999403
  30
0.0
  11
 315.92900904271
  21
 243.07373473703
  31
0.0
   0
LINE
   5
316
 100
AcDbEntity
   8
LEVEL001
 100
AcDbLine
   6
CONTINUOUS
  62
15
  10
 315.92900904271
  20
 243.07373473703
  30
0.0
  11
 315.56765965521
  21
 242.95763935853
  31
0.0
   0
LINE
   5
317
 100
AcDbEntity
   8
LEVEL001
 100
AcDbLine
   6
CONTINUOUS
  62
15
  10
 315.56765965521
  20
 242.95763935853
  30
0.0
  11
 315.20070333171
  21
 242.80158741443
  31
0.0
   0
LINE
   5
318
 100
AcDbEntity
   8
LEVEL001
 100
AcDbLine
   6
CONTINUOUS
  62
15
  10
 315.20070333171
  20
 242.80158741443
  30
0.0
  11
 314.83093283141
  21
 242.60676655413
  31
0.0
   0
LINE
   5
319
 100
AcDbEntity
   8
LEVEL001
 100
AcDbLine
   6
CONTINUOUS
  62
15
  10
 319.07357351851
  20
 240.15674601833
  30
0.0
  11
 319.07357351851
  21
 216.06879206763
  31
0.0
   0
LINE
   5
31A
 100
AcDbEntity
   8
LEVEL001
 100
AcDbLine
   6
CONTINUOUS
  62
15
  10
 319.07357351851
  20
 216.06879206763
  30
0.0
  11
 310.80042417861
  21
 211.29280461353
  31
0.0
   0
LINE
   5
31B
 100
AcDbEntity
   8
LEVEL001
 100
AcDbLine
   6
CONTINUOUS
  62
15
  10
 310.80042417861
  20
 211.29280461353
  30
0.0
  11
 310.80042417861
  21
 212.76257807493
  31
0.0
   0
LINE
   5
31C
 100
AcDbEntity
   8
LEVEL001
 100
AcDbLine
   6
CONTINUOUS
  62
15
  10
 310.80042417861
  20
 212.76257807493
  30
0.0
  11
 309.38621061621
  21
 211.94616996303
  31
0.0
   0
LINE
   5
31D
 100
AcDbEntity
   8
LEVEL001
 100
AcDbLine
   6
CONTINUOUS
  62
15
  10
 313.20458723471
  20
 243.54563588273
  30
0.0
  11
 313.57435773491
  21
 243.74045674303
  31
0.0
   0
LINE
   5
31E
 100
AcDbEntity
   8
LEVEL001
 100
AcDbLine
   6
CONTINUOUS
  62
15
  10
 313.57435773491
  20
 243.74045674303
  30
0.0
  11
 313.94131405851
  21
 243.89650868713
  31
0.0
   0
LINE
   5
31F
 100
AcDbEntity
   8
LEVEL001
 100
AcDbLine
   6
CONTINUOUS
  62
15
  10
 313.94131405851
  20
 243.89650868713
  30
0.0
  11
 314.30266344601
  21
 244.01260406563
  31
0.0
   0
LINE
   5
320
 100
AcDbEntity
   8
LEVEL001
 100
AcDbLine
   6
CONTINUOUS
  62
15
  10
 314.30266344601
  20
 244.01260406563
  30
0.0
  11
 314.65565581051
  21
 244.08785932263
  31
0.0
   0
LINE
   5
321
 100
AcDbEntity
   8
LEVEL001
 100
AcDbLine
   6
CONTINUOUS
  62
15
  10
 314.65565581051
  20
 244.08785932263
  30
0.0
  11
 314.99760466701
  21
 244.12170172013
  31
0.0
   0
LINE
   5
322
 100
AcDbEntity
   8
LEVEL001
 100
AcDbLine
   6
CONTINUOUS
  62
15
  10
 314.99760466701
  20
 244.12170172013
  30
0.0
  11
 315.32590757821
  21
 244.11387369703
  31
0.0
   0
LINE
   5
323
 100
AcDbEntity
   8
LEVEL001
 100
AcDbLine
   6
CONTINUOUS
  62
15
  10
 315.32590757821
  20
 244.11387369703
  30
0.0
  11
 315.63806596071
  21
 244.06443482943
  31
0.0
   0
LINE
   5
324
 100
AcDbEntity
   8
LEVEL001
 100
AcDbLine
   6
CONTINUOUS
  62
15
  10
 315.63806596071
  20
 244.06443482943
  30
0.0
  11
 315.93170410071
  21
 243.97376137673
  31
0.0
   0
LINE
   5
325
 100
AcDbEntity
   8
LEVEL001
 100
AcDbLine
   6
CONTINUOUS
  62
15
  10
 315.93170410071
  20
 243.97376137673
  30
0.0
  11
 316.20458723471
  21
 243.84254341883
  31
0.0
   0
LINE
   5
326
 100
AcDbEntity
   8
LEVEL001
 100
AcDbLine
   6
CONTINUOUS
  62
15
  10
 316.20458723471
  20
 243.84254341883
  30
0.0
  11
 316.20434343261
  21
 243.84268418573
  31
0.0
   0
LINE
   5
327
 100
AcDbEntity
   8
LEVEL001
 100
AcDbLine
   6
CONTINUOUS
  62
15
  10
 296.65828855491
  20
 253.09761079103
  30
0.0
  11
 295.03194295821
  21
 254.03648011963
  31
0.0
   0
LINE
   5
328
 100
AcDbEntity
   8
LEVEL001
 100
AcDbLine
   6
CONTINUOUS
  62
15
  10
 296.36675284671
  20
 252.92931080903
  30
0.0
  11
 296.65828855491
  21
 253.09761079103
  31
0.0
   0
ARC
   5
329
 100
AcDbEntity
   8
LEVEL001
   6
CONTINUOUS
  62
15
 100
AcDbCircle
  10
 289.95267166391
  20
 249.95443956053
  30
0.0
  40
 1.0074869685298
 100
AcDbArc
  50
 111.26826530329
  51
 248.73173469671
   0
LINE
   5
32A
 100
AcDbEntity
   8
LEVEL001
 100
AcDbLine
   6
CONTINUOUS
  62
15
  10
 295.03194295821
  20
 254.03648011963
  30
0.0
  11
 289.58722074301
  21
 250.89330888913
  31
0.0
   0
ARC
   5
32B
 100
AcDbEntity
   8
LEVEL001
   6
CONTINUOUS
  62
15
 100
AcDbCircle
  10
 290.05464277611
  20
 222.54464177613
  30
0.0
  40
 1.1461409724311
 100
AcDbArc
  50
 185.38825942891
  51
 245.93188152872
   0
LINE
   5
32C
 100
AcDbEntity
   8
LEVEL001
 100
AcDbLine
   6
CONTINUOUS
  62
15
  10
 300.89939950641
  20
 250.77825843093
  30
0.0
  11
 300.88478471331
  21
 251.06526754283
  31
0.0
   0
LINE
   5
32D
 100
AcDbEntity
   8
LEVEL001
 100
AcDbLine
   6
CONTINUOUS
  62
15
  10
 300.88478471331
  20
 251.06526754283
  30
0.0
  11
 300.83647399681
  21
 251.46112597803
  31
0.0
   0
LINE
   5
32E
 100
AcDbEntity
   8
LEVEL001
 100
AcDbLine
   6
CONTINUOUS
  62
15
  10
 300.83647399681
  20
 251.46112597803
  30
0.0
  11
 300.75636476621
  21
 251.83215283903
  31
0.0
   0
LINE
   5
32F
 100
AcDbEntity
   8
LEVEL001
 100
AcDbLine
   6
CONTINUOUS
  62
15
  10
 300.75636476621
  20
 251.83215283903
  30
0.0
  11
 300.64506670121
  21
 252.17552438753
  31
0.0
   0
LINE
   5
330
 100
AcDbEntity
   8
LEVEL001
 100
AcDbLine
   6
CONTINUOUS
  62
15
  10
 300.64506670121
  20
 252.17552438753
  30
0.0
  11
 300.50342684721
  21
 252.48862735853
  31
0.0
   0
LINE
   5
331
 100
AcDbEntity
   8
LEVEL001
 100
AcDbLine
   6
CONTINUOUS
  62
15
  10
 300.50342684721
  20
 252.48862735853
  30
0.0
  11
 300.33252316911
  21
 252.76907884943
  31
0.0
   0
LINE
   5
332
 100
AcDbEntity
   8
LEVEL001
 100
AcDbLine
   6
CONTINUOUS
  62
15
  10
 300.33252316911
  20
 252.76907884943
  30
0.0
  11
 300.13365634691
  21
 253.01474445513
  31
0.0
   0
LINE
   5
333
 100
AcDbEntity
   8
LEVEL001
 100
AcDbLine
   6
CONTINUOUS
  62
15
  10
 300.13365634691
  20
 253.01474445513
  30
0.0
  11
 299.90833987741
  21
 253.22375451193
  31
0.0
   0
LINE
   5
334
 100
AcDbEntity
   8
LEVEL001
 100
AcDbLine
   6
CONTINUOUS
  62
15
  10
 299.90833987741
  20
 253.22375451193
  30
0.0
  11
 299.65828855491
  21
 253.39451832723
  31
0.0
   0
LINE
   5
335
 100
AcDbEntity
   8
LEVEL001
 100
AcDbLine
   6
CONTINUOUS
  62
15
  10
 299.65828855491
  20
 253.39451832723
  30
0.0
  11
 299.38540542091
  21
 253.52573628503
  31
0.0
   0
LINE
   5
336
 100
AcDbEntity
   8
LEVEL001
 100
AcDbLine
   6
CONTINUOUS
  62
15
  10
 299.38540542091
  20
 253.52573628503
  30
0.0
  11
 299.09176728091
  21
 253.61640973773
  31
0.0
   0
LINE
   5
337
 100
AcDbEntity
   8
LEVEL001
 100
AcDbLine
   6
CONTINUOUS
  62
15
  10
 299.09176728091
  20
 253.61640973773
  30
0.0
  11
 298.77960889841
  21
 253.66584860543
  31
0.0
   0
LINE
   5
338
 100
AcDbEntity
   8
LEVEL001
 100
AcDbLine
   6
CONTINUOUS
  62
15
  10
 298.77960889841
  20
 253.66584860543
  30
0.0
  11
 298.45130598731
  21
 253.67367662843
  31
0.0
   0
LINE
   5
339
 100
AcDbEntity
   8
LEVEL001
 100
AcDbLine
   6
CONTINUOUS
  62
15
  10
 298.45130598731
  20
 253.67367662843
  30
0.0
  11
 298.10935713081
  21
 253.63983423103
  31
0.0
   0
LINE
   5
33A
 100
AcDbEntity
   8
LEVEL001
 100
AcDbLine
   6
CONTINUOUS
  62
15
  10
 298.10935713081
  20
 253.63983423103
  30
0.0
  11
 297.75636476621
  21
 253.56457897403
  31
0.0
   0
LINE
   5
33B
 100
AcDbEntity
   8
LEVEL001
 100
AcDbLine
   6
CONTINUOUS
  62
15
  10
 297.75636476621
  20
 253.56457897403
  30
0.0
  11
 297.39501537871
  21
 253.44848359543
  31
0.0
   0
LINE
   5
33C
 100
AcDbEntity
   8
LEVEL001
 100
AcDbLine
   6
CONTINUOUS
  62
15
  10
 297.39501537871
  20
 253.44848359543
  30
0.0
  11
 297.02805905521
  21
 253.29243165133
  31
0.0
   0
LINE
   5
33D
 100
AcDbEntity
   8
LEVEL001
 100
AcDbLine
   6
CONTINUOUS
  62
15
  10
 297.02805905521
  20
 253.29243165133
  30
0.0
  11
 296.65828855491
  21
 253.09761079103
  31
0.0
   0
LINE
   5
33E
 100
AcDbEntity
   8
LEVEL001
 100
AcDbLine
   6
CONTINUOUS
  62
15
  10
 295.03194295821
  20
 254.03648011963
  30
0.0
  11
 295.40171345851
  21
 254.23130097993
  31
0.0
   0
LINE
   5
33F
 100
AcDbEntity
   8
LEVEL001
 100
AcDbLine
   6
CONTINUOUS
  62
15
  10
 295.40171345851
  20
 254.23130097993
  30
0.0
  11
 295.76866978201
  21
 254.38735292403
  31
0.0
   0
LINE
   5
340
 100
AcDbEntity
   8
LEVEL001
 100
AcDbLine
   6
CONTINUOUS
  62
15
  10
 295.76866978201
  20
 254.38735292403
  30
0.0
  11
 296.13001916951
  21
 254.50344830263
  31
0.0
   0
LINE
   5
341
 100
AcDbEntity
   8
LEVEL001
 100
AcDbLine
   6
CONTINUOUS
  62
15
  10
 296.13001916951
  20
 254.50344830263
  30
0.0
  11
 296.48301153401
  21
 254.57870355963
  31
0.0
   0
LINE
   5
342
 100
AcDbEntity
   8
LEVEL001
 100
AcDbLine
   6
CONTINUOUS
  62
15
  10
 296.48301153401
  20
 254.57870355963
  30
0.0
  11
 296.82496039051
  21
 254.61254595703
  31
0.0
   0
LINE
   5
343
 100
AcDbEntity
   8
LEVEL001
 100
AcDbLine
   6
CONTINUOUS
  62
15
  10
 296.82496039051
  20
 254.61254595703
  30
0.0
  11
 297.15326330171
  21
 254.60471793403
  31
0.0
   0
LINE
   5
344
 100
AcDbEntity
   8
LEVEL001
 100
AcDbLine
   6
CONTINUOUS
  62
15
  10
 297.15326330171
  20
 254.60471793403
  30
0.0
  11
 297.46542168421
  21
 254.55527906633
  31
0.0
   0
LINE
   5
345
 100
AcDbEntity
   8
LEVEL001
 100
AcDbLine
   6
CONTINUOUS
  62
15
  10
 297.46542168421
  20
 254.55527906633
  30
0.0
  11
 297.75905982421
  21
 254.46460561363
  31
0.0
   0
LINE
   5
346
 100
AcDbEntity
   8
LEVEL001
 100
AcDbLine
   6
CONTINUOUS
  62
15
  10
 297.75905982421
  20
 254.46460561363
  30
0.0
  11
 298.03194295821
  21
 254.33338765583
  31
0.0
   0
LINE
   5
347
 100
AcDbEntity
   8
LEVEL001
 100
AcDbLine
   6
CONTINUOUS
  62
15
  10
 298.03194295821
  20
 254.33338765583
  30
0.0
  11
 298.03169915611
  21
 254.33352842263
  31
0.0
   0
LINE
   5
348
 100
AcDbEntity
   8
LEVEL001
 100
AcDbLine
   6
CONTINUOUS
  62
15
  10
 308.37159444011
  20
 211.60510154553
  30
0.0
  11
 307.75986501951
  21
 211.25195766793
  31
0.0
   0
LINE
   5
349
 100
AcDbEntity
   8
LEVEL001
 100
AcDbLine
   6
CONTINUOUS
  62
15
  10
 309.17407858191
  20
 211.83793422183
  30
0.0
  11
 309.17407858191
  21
 210.19032191233
  31
0.0
   0
LINE
   5
34A
 100
AcDbEntity
   8
LEVEL001
 100
AcDbLine
   6
CONTINUOUS
  62
15
  10
 309.17407858191
  20
 210.19032191233
  30
0.0
  11
 307.75986501951
  21
 209.37391380053
  31
0.0
   0
ARC
   5
34B
 100
AcDbEntity
   8
LEVEL001
   6
CONTINUOUS
  62
15
 100
AcDbCircle
  10
 307.12954567010
  20
 210.16014391873
  30
0.0
  40
 1.0077004917505
 100
AcDbArc
  50
 171.27015653975
  51
 308.71909170561
   0
LINE
   5
34C
 100
AcDbEntity
   8
LEVEL001
 100
AcDbLine
   6
CONTINUOUS
  62
15
  10
 307.75986501951
  20
 211.55727755383
  30
0.0
  11
 307.75986501951
  21
 211.25195766793
  31
0.0
   0
ARC
   5
34D
 100
AcDbEntity
   8
LEVEL001
   6
CONTINUOUS
  62
15
 100
AcDbCircle
  10
 301.62890964531
  20
 223.55197162683
  30
0.0
  40
 4.2426865568046
 100
AcDbArc
  50
 173.54179914170
  51
 246.45282432561
   0
ARC
   5
34E
 100
AcDbEntity
   8
LEVEL001
   6
CONTINUOUS
  62
15
 100
AcDbCircle
  10
 299.01107764061
  20
 222.85799326533
  30
0.0
  40
 3.0545961090689
 100
AcDbArc
  50
 279.60854503857
  51
 288.39224600917
   0
ARC
   5
34F
 100
AcDbEntity
   8
LEVEL001
   6
CONTINUOUS
  62
15
 100
AcDbCircle
  10
 298.91829628041
  20
 218.85876923973
  30
0.0
  40
 3.3641922333214
 100
AcDbArc
  50
 81.930212864584
  51
 111.02124074588
   0
LINE
   5
350
 100
AcDbEntity
   8
LEVEL001
 100
AcDbLine
   6
CONTINUOUS
  62
15
  10
 319.78068029971
  20
 224.47776907943
  30
0.0
  11
 319.07357351851
  21
 224.88597313533
  31
0.0
   0
LINE
   5
351
 100
AcDbEntity
   8
LEVEL001
 100
AcDbLine
   6
CONTINUOUS
  62
15
  10
 319.78068029971
  20
 216.31368796123
  30
0.0
  11
 320.22801056261
  21
 216.58940614953
  31
0.0
   0
LINE
   5
352
 100
AcDbEntity
   8
LEVEL001
 100
AcDbLine
   6
CONTINUOUS
  62
15
  10
 320.22801056261
  20
 216.58940614953
  30
0.0
  11
 320.64314589071
  21
 216.88142359473
  31
0.0
   0
LINE
   5
353
 100
AcDbEntity
   8
LEVEL001
 100
AcDbLine
   6
CONTINUOUS
  62
15
  10
 320.64314589071
  20
 216.88142359473
  30
0.0
  11
 321.02430861081
  21
 217.18848983303
  31
0.0
   0
LINE
   5
354
 100
AcDbEntity
   8
LEVEL001
 100
AcDbLine
   6
CONTINUOUS
  62
15
  10
 321.02430861081
  20
 217.18848983303
  30
0.0
  11
 321.36986652571
  21
 217.50928995983
  31
0.0
   0
LINE
   5
355
 100
AcDbEntity
   8
LEVEL001
 100
AcDbLine
   6
CONTINUOUS
  62
15
  10
 321.36986652571
  20
 217.50928995983
  30
0.0
  11
 321.67833990311
  21
 217.84245025973
  31
0.0
   0
LINE
   5
356
 100
AcDbEntity
   8
LEVEL001
 100
AcDbLine
   6
CONTINUOUS
  62
15
  10
 321.67833990311
  20
 217.84245025973
  30
0.0
  11
 321.94840781291
  21
 218.18654408903
  31
0.0
   0
LINE
   5
357
 100
AcDbEntity
   8
LEVEL001
 100
AcDbLine
   6
CONTINUOUS
  62
15
  10
 321.94840781291
  20
 218.18654408903
  30
0.0
  11
 322.17891378281
  21
 218.54009798533
  31
0.0
   0
LINE
   5
358
 100
AcDbEntity
   8
LEVEL001
 100
AcDbLine
   6
CONTINUOUS
  62
15
  10
 322.17891378281
  20
 218.54009798533
  30
0.0
  11
 322.36887075071
  21
 218.90159797643
  31
0.0
   0
LINE
   5
359
 100
AcDbEntity
   8
LEVEL001
 100
AcDbLine
   6
CONTINUOUS
  62
15
  10
 322.36887075071
  20
 218.90159797643
  30
0.0
  11
 322.51746529191
  21
 219.26949606383
  31
0.0
   0
LINE
   5
35A
 100
AcDbEntity
   8
LEVEL001
 100
AcDbLine
   6
CONTINUOUS
  62
15
  10
 322.51746529191
  20
 219.26949606383
  30
0.0
  11
 322.62406110161
  21
 219.64221685153
  31
0.0
   0
LINE
   5
35B
 100
AcDbEntity
   8
LEVEL001
 100
AcDbLine
   6
CONTINUOUS
  62
15
  10
 322.62406110161
  20
 219.64221685153
  30
0.0
  11
 322.68820172021
  21
 220.01816429193
  31
0.0
   0
LINE
   5
35C
 100
AcDbEntity
   8
LEVEL001
 100
AcDbLine
   6
CONTINUOUS
  62
15
  10
 322.68820172021
  20
 220.01816429193
  30
0.0
  11
 322.70961248781
  21
 220.39572852033
  31
0.0
   0
LINE
   5
35D
 100
AcDbEntity
   8
LEVEL001
 100
AcDbLine
   6
CONTINUOUS
  62
15
  10
 322.70961248781
  20
 220.39572852033
  30
0.0
  11
 322.68820172021
  21
 220.77329274863
  31
0.0
   0
LINE
   5
35E
 100
AcDbEntity
   8
LEVEL001
 100
AcDbLine
   6
CONTINUOUS
  62
15
  10
 322.68820172021
  20
 220.77329274863
  30
0.0
  11
 322.62406110161
  21
 221.14924018903
  31
0.0
   0
LINE
   5
35F
 100
AcDbEntity
   8
LEVEL001
 100
AcDbLine
   6
CONTINUOUS
  62
15
  10
 322.62406110161
  20
 221.14924018903
  30
0.0
  11
 322.51746529191
  21
 221.52196097673
  31
0.0
   0
LINE
   5
360
 100
AcDbEntity
   8
LEVEL001
 100
AcDbLine
   6
CONTINUOUS
  62
15
  10
 322.51746529191
  20
 221.52196097673
  30
0.0
  11
 322.36887075071
  21
 221.88985906423
  31
0.0
   0
LINE
   5
361
 100
AcDbEntity
   8
LEVEL001
 100
AcDbLine
   6
CONTINUOUS
  62
15
  10
 322.36887075071
  20
 221.88985906423
  30
0.0
  11
 322.17891378281
  21
 222.25135905533
  31
0.0
   0
LINE
   5
362
 100
AcDbEntity
   8
LEVEL001
 100
AcDbLine
   6
CONTINUOUS
  62
15
  10
 322.17891378281
  20
 222.25135905533
  30
0.0
  11
 321.94840781291
  21
 222.60491295153
  31
0.0
   0
LINE
   5
363
 100
AcDbEntity
   8
LEVEL001
 100
AcDbLine
   6
CONTINUOUS
  62
15
  10
 321.94840781291
  20
 222.60491295153
  30
0.0
  11
 321.67833990311
  21
 222.94900678083
  31
0.0
   0
LINE
   5
364
 100
AcDbEntity
   8
LEVEL001
 100
AcDbLine
   6
CONTINUOUS
  62
15
  10
 321.67833990311
  20
 222.94900678083
  30
0.0
  11
 321.36986652571
  21
 223.28216708073
  31
0.0
   0
LINE
   5
365
 100
AcDbEntity
   8
LEVEL001
 100
AcDbLine
   6
CONTINUOUS
  62
15
  10
 321.36986652571
  20
 223.28216708073
  30
0.0
  11
 321.02430861081
  21
 223.60296720753
  31
0.0
   0
LINE
   5
366
 100
AcDbEntity
   8
LEVEL001
 100
AcDbLine
   6
CONTINUOUS
  62
15
  10
 321.02430861081
  20
 223.60296720753
  30
0.0
  11
 320.64314589071
  21
 223.91003344593
  31
0.0
   0
LINE
   5
367
 100
AcDbEntity
   8
LEVEL001
 100
AcDbLine
   6
CONTINUOUS
  62
15
  10
 320.64314589071
  20
 223.91003344593
  30
0.0
  11
 320.22801056261
  21
 224.20205089103
  31
0.0
   0
LINE
   5
368
 100
AcDbEntity
   8
LEVEL001
 100
AcDbLine
   6
CONTINUOUS
  62
15
  10
 320.22801056261
  20
 224.20205089103
  30
0.0
  11
 319.78068029971
  21
 224.47776907943
  31
0.0
   0
LINE
   5
369
 100
AcDbEntity
   8
LEVEL001
 100
AcDbLine
   6
CONTINUOUS
  62
15
  10
 310.80042417861
  20
 211.12949645113
  30
0.0
  11
 319.78068029971
  21
 216.31368796123
  31
0.0
   0
LINE
   5
36A
 100
AcDbEntity
   8
LEVEL001
 100
AcDbLine
   6
CONTINUOUS
  62
15
  10
 310.80042417861
  20
 211.12949645113
  30
0.0
  11
 309.38621061621
  21
 211.94616996303
  31
0.0
   0
ARC
   5
36B
 100
AcDbEntity
   8
LEVEL001
   6
CONTINUOUS
  62
15
 100
AcDbCircle
  10
 290.72750799651
  20
 219.74667346023
  30
0.0
  40
 1.1464166616864
 100
AcDbArc
  50
 174.07253023332
  51
 234.61528937303
   0
LINE
   5
36C
 100
AcDbEntity
   8
LEVEL001
 100
AcDbLine
   6
CONTINUOUS
  62
15
  10
 309.52742509111
  20
 212.02769134423
  30
0.0
  11
 310.80042417861
  21
 211.29280461353
  31
0.0
   0
LINE
   5
36D
 100
AcDbEntity
   8
LEVEL001
 100
AcDbLine
   6
CONTINUOUS
  62
15
  10
 319.78068029971
  20
 216.31368796123
  30
0.0
  11
 319.78068029971
  21
 214.43564409383
  31
0.0
   0
LINE
   5
36E
 100
AcDbEntity
   8
LEVEL001
 100
AcDbLine
   6
CONTINUOUS
  62
15
  10
 310.80042417861
  20
 209.25145258373
  30
0.0
  11
 319.78068029971
  21
 214.43564409383
  31
0.0
   0
LINE
   5
36F
 100
AcDbEntity
   8
LEVEL001
 100
AcDbLine
   6
CONTINUOUS
  62
15
  10
 310.80042417861
  20
 209.25145258373
  30
0.0
  11
 310.80042417861
  21
 211.12949645113
  31
0.0
   0
LINE
   5
370
 100
AcDbEntity
   8
LEVEL001
 100
AcDbLine
   6
CONTINUOUS
  62
15
  10
 309.17407858191
  20
 210.19032191233
  30
0.0
  11
 310.80042417861
  21
 209.25145258373
  31
0.0
   0
ARC
   5
371
 100
AcDbEntity
   8
LEVEL001
   6
CONTINUOUS
  62
15
 100
AcDbCircle
  10
 317.70504186291
  20
 219.01674842193
  30
0.0
  40
 5.0293927849378
 100
AcDbArc
  50
 294.37465829360
  51
 354.30520074880
   0
ARC
   5
372
 100
AcDbEntity
   8
LEVEL001
   6
CONTINUOUS
  62
15
 100
AcDbCircle
  10
 298.93864799411
  20
 216.99126252553
  30
0.0
  40
 3.3514783482877
 100
AcDbArc
  50
 71.869215424185
  51
 91.433534025885
   0
DIMENSION
   5
373
 100
AcDbEntity
   8
LEVEL001
   6
CONTINUOUS
  62
3
 100
AcDbDimension
   2
*D24
  10
 155.55857325531
  20
 153.70803443329
  30
0.0
  11
 138.55857325531
  21
 153.70803443329
  31
0.0
  70
0
   3
GMM002
 100
AcDbAlignedDimension
  13
 121.55857325531
  23
 170.58733786758
  33
0.0
  14
 155.55857325531
  24
 170.58733786758
  34
0.0
 100
AcDbRotatedDimension
   0
DIMENSION
   5
374
 100
AcDbEntity
   8
LEVEL001
   6
CONTINUOUS
  62
3
 100
AcDbDimension
   2
*D25
  10
 234.87454037926
  20
 153.70803443329
  30
0.0
  11
 218.62454037926
  21
 153.70803443329
  31
0.0
  70
0
   3
GMM002
 100
AcDbAlignedDimension
  13
 202.37454037926
  23
 170.58733786758
  33
0.0
  14
 234.87454037926
  24
 170.58733786758
  34
0.0
 100
AcDbRotatedDimension
   0
ENDSEC
  0
SECTION
  2
OBJECTS
  0
DICTIONARY
  5
C
100
AcDbDictionary
  3
ACAD_GROUP
350
D
  3
ACAD_MLINESTYLE
350
1B
  0
DICTIONARY
  5
D
102
{ACAD_REACTORS
330
C
102
}
100
AcDbDictionary
  0
DICTIONARY
  5
1B
102
{ACAD_REACTORS
330
C
102
}
100
AcDbDictionary
  3
STANDARD
350
1C
  0
MLINESTYLE
  5
1C
102
{ACAD_REACTORS
330
1B
102
}
100
AcDbMlineStyle
  2
STANDARD
 70
     0
  3

 62
   256
 51
90.0
 52
90.0
 71
     2
 49
0.5
 62
   256
  6
BYLAYER
 49
-0.5
 62
   256
  6
BYLAYER
  0
ENDSEC
   0
EOF
