   0
SECTION
   2
HEADER
   9
$ACADVER
   1
AC1015
   9
$LIMMIN
  10
0.0
  20
0.0
   9
$LIMMAX
  10
 630.00000000000
  20
 445.50000000000
   9
$EXTMIN
  10
0.0
  20
0.0
  30
0.0
   9
$EXTMAX
  10
 630.00000000000
  20
 445.50000000000
  30
0.0
   9
$LTSCALE
  40
 12.600000000000
   9
$HANDSEED
   5
18A
   0
ENDSEC
   0
SECTION
   2
TABLES
  0
TABLE
  2
VPORT
  5
8
100
AcDbSymbolTable
 70
     1
  0
VPORT
  5
189
100
AcDbSymbolTableRecord
100
AcDbViewportTableRecord
  2
*ACTIVE
 70
     0
 10
0.0
 20
0.0
 11
1.0
 21
1.0
  12
 315.00000000000
  22
 222.75000000000
 13
0.0
 23
0.0
 14
1.0
 24
1.0
 15
0.0
 25
0.0
 16
0.0
 26
0.0
 36
1.0
 17
0.0
 27
0.0
 37
0.0
  40
 630.00000000000
  41
 1.4787878787879
 42
50.0
 43
0.0
 44
0.0
 50
0.0
 51
0.0
 71
     0
 72
   100
 73
     1
 74
     1
 75
     0
 76
     0
 77
     0
 78
     0
  0
ENDTAB
  0
TABLE
  2
LTYPE
  5
5
100
AcDbSymbolTable
 70
    25
  0
LTYPE
  5
12
100
AcDbSymbolTableRecord
100
AcDbLinetypeTableRecord
  2
BYBLOCK
 70
     0
  3

 72
    65
 73
     0
 40
0.0
  0
LTYPE
  5
13
100
AcDbSymbolTableRecord
100
AcDbLinetypeTableRecord
  2
BYLAYER
 70
     0
  3

 72
    65
 73
     0
 40
0.0
  0
LTYPE
  5
14
100
AcDbSymbolTableRecord
100
AcDbLinetypeTableRecord
  2
CONTINUOUS
 70
     0
  3
Solid line
 72
    65
 73
     0
 40
0.0
  0
LTYPE
  5
20
100
AcDbSymbolTableRecord
100
AcDbLinetypeTableRecord
  2
BORDER
 70
     0
  3
__ __ . __ __ . __ __ . __ __ . __ __ . __ __ .
 72
    65
 73
     6
 40
1.75
 49
0.5
 74
     0
 49
-0.25
 74
     0
 49
0.5
 74
     0
 49
-0.25
 74
     0
 49
0.0
 74
     0
 49
-0.25
 74
     0
  0
LTYPE
  5
21
100
AcDbSymbolTableRecord
100
AcDbLinetypeTableRecord
  2
BORDER2
 70
     0
  3
__.__.__.__.__.__.__.__.__.__.__.__.__.__.__.__
 72
    65
 73
     6
 40
0.875
 49
0.25
 74
     0
 49
-0.125
 74
     0
 49
0.25
 74
     0
 49
-0.125
 74
     0
 49
0.0
 74
     0
 49
-0.125
 74
     0
  0
LTYPE
  5
22
100
AcDbSymbolTableRecord
100
AcDbLinetypeTableRecord
  2
BORDERX2
 70
     0
  3
____  ____  .  ____  ____  .  ____  ____  .  __
 72
    65
 73
     6
 40
3.5
 49
1.0
 74
     0
 49
-0.5
 74
     0
 49
1.0
 74
     0
 49
-0.5
 74
     0
 49
0.0
 74
     0
 49
-0.5
 74
     0
  0
LTYPE
  5
23
100
AcDbSymbolTableRecord
100
AcDbLinetypeTableRecord
  2
CENTER
 70
     0
  3
____ _ ____ _ ____ _ ____ _ ____ _ ____ _ ____ 
 72
    65
 73
     4
 40
2.0
 49
1.25
 74
     0
 49
-0.25
 74
     0
 49
0.25
 74
     0
 49
-0.25
 74
     0
  0
LTYPE
  5
24
100
AcDbSymbolTableRecord
100
AcDbLinetypeTableRecord
  2
CENTER2
 70
     0
  3
___ _ ___ _ ___ _ ___ _ ___ _ ___ _ ___ _ ___ _
 72
    65
 73
     4
 40
1.125
 49
0.75
 74
     0
 49
-0.125
 74
     0
 49
0.125
 74
     0
 49
-0.125
 74
     0
  0
LTYPE
  5
25
100
AcDbSymbolTableRecord
100
AcDbLinetypeTableRecord
  2
CENTERX2
 70
     0
  3
________  __  ________  __  ________  __  _____
 72
    65
 73
     4
 40
4.0
 49
2.5
 74
     0
 49
-0.5
 74
     0
 49
0.5
 74
     0
 49
-0.5
 74
     0
  0
LTYPE
  5
26
100
AcDbSymbolTableRecord
100
AcDbLinetypeTableRecord
  2
DASHDOT
 70
     0
  3
__ . __ . __ . __ . __ . __ . __ . __ . __ . __
 72
    65
 73
     4
 40
1.0
 49
0.5
 74
     0
 49
-0.25
 74
     0
 49
0.0
 74
     0
 49
-0.25
 74
     0
  0
LTYPE
  5
27
100
AcDbSymbolTableRecord
100
AcDbLinetypeTableRecord
  2
DASHDOT2
 70
     0
  3
_._._._._._._._._._._._._._._._._._._._._._._._
 72
    65
 73
     4
 40
0.5
 49
0.25
 74
     0
 49
-0.125
 74
     0
 49
0.0
 74
     0
 49
-0.125
 74
     0
  0
LTYPE
  5
28
100
AcDbSymbolTableRecord
100
AcDbLinetypeTableRecord
  2
DASHDOTX2
 70
     0
  3
____  .  ____  .  ____  .  ____  .  ____  .  __
 72
    65
 73
     4
 40
2.0
 49
1.0
 74
     0
 49
-0.5
 74
     0
 49
0.0
 74
     0
 49
-0.5
 74
     0
  0
LTYPE
  5
29
100
AcDbSymbolTableRecord
100
AcDbLinetypeTableRecord
  2
DASHED
 70
     0
  3
__ __ __ __ __ __ __ __ __ __ __ __ __ __ __ __
 72
    65
 73
     2
 40
0.75
 49
0.5
 74
     0
 49
-0.25
 74
     0
  0
LTYPE
  5
2A
100
AcDbSymbolTableRecord
100
AcDbLinetypeTableRecord
  2
DASHED2
 70
     0
  3
_ _ _ _ _ _ _ _ _ _ _ _ _ _ _ _ _ _ _ _ _ _ _ _
 72
    65
 73
     2
 40
0.375
 49
0.25
 74
     0
 49
-0.125
 74
     0
  0
LTYPE
  5
2B
100
AcDbSymbolTableRecord
100
AcDbLinetypeTableRecord
  2
DASHEDX2
 70
     0
  3
____  ____  ____  ____  ____  ____  ____  ____ 
 72
    65
 73
     2
 40
1.5
 49
1.0
 74
     0
 49
-0.5
 74
     0
  0
LTYPE
  5
2C
100
AcDbSymbolTableRecord
100
AcDbLinetypeTableRecord
  2
DIVIDE
 70
     0
  3
____ . . ____ . . ____ . . ____ . . ____ . . __
 72
    65
 73
     6
 40
1.25
 49
0.5
 74
     0
 49
-0.25
 74
     0
 49
0.0
 74
     0
 49
-0.25
 74
     0
 49
0.0
 74
     0
 49
-0.25
 74
     0
  0
LTYPE
  5
2D
100
AcDbSymbolTableRecord
100
AcDbLinetypeTableRecord
  2
DIVIDE2
 70
     0
  3
__..__..__..__..__..__..__..__..__..__..__..__.
 72
    65
 73
     6
 40
0.625
 49
0.25
 74
     0
 49
-0.125
 74
     0
 49
0.0
 74
     0
 49
-0.125
 74
     0
 49
0.0
 74
     0
 49
-0.125
 74
     0
  0
LTYPE
  5
2E
100
AcDbSymbolTableRecord
100
AcDbLinetypeTableRecord
  2
DIVIDEX2
 70
     0
  3
________  .  .  ________  .  .  ________  .  . 
 72
    65
 73
     6
 40
2.5
 49
1.0
 74
     0
 49
-0.5
 74
     0
 49
0.0
 74
     0
 49
-0.5
 74
     0
 49
0.0
 74
     0
 49
-0.5
 74
     0
  0
LTYPE
  5
2F
100
AcDbSymbolTableRecord
100
AcDbLinetypeTableRecord
  2
DOT
 70
     0
  3
. . . . . . . . . . . . . . . . . . . . . . . .
 72
    65
 73
     2
 40
0.25
 49
0.0
 74
     0
 49
-0.25
 74
     0
  0
LTYPE
  5
30
100
AcDbSymbolTableRecord
100
AcDbLinetypeTableRecord
  2
DOT2
 70
     0
  3
...............................................
 72
    65
 73
     2
 40
0.125
 49
0.0
 74
     0
 49
-0.125
 74
     0
  0
LTYPE
  5
31
100
AcDbSymbolTableRecord
100
AcDbLinetypeTableRecord
  2
DOTX2
 70
     0
  3
.  .  .  .  .  .  .  .  .  .  .  .  .  .  .  . 
 72
    65
 73
     2
 40
0.5
 49
0.0
 74
     0
 49
-0.5
 74
     0
  0
LTYPE
  5
32
100
AcDbSymbolTableRecord
100
AcDbLinetypeTableRecord
  2
HIDDEN
 70
     0
  3
__ __ __ __ __ __ __ __ __ __ __ __ __ __ __ __
 72
    65
 73
     2
 40
0.375
 49
0.25
 74
     0
 49
-0.125
 74
     0
  0
LTYPE
  5
33
100
AcDbSymbolTableRecord
100
AcDbLinetypeTableRecord
  2
HIDDEN2
 70
     0
  3
_ _ _ _ _ _ _ _ _ _ _ _ _ _ _ _ _ _ _ _ _ _ _ _
 72
    65
 73
     2
 40
0.1875
 49
0.125
 74
     0
 49
-0.0625
 74
     0
  0
LTYPE
  5
34
100
AcDbSymbolTableRecord
100
AcDbLinetypeTableRecord
  2
HIDDENX2
 70
     0
  3
____ ____ ____ ____ ____ ____ ____ ____ ____ __
 72
    65
 73
     2
 40
0.75
 49
0.5
 74
     0
 49
-0.25
 74
     0
  0
LTYPE
  5
35
100
AcDbSymbolTableRecord
100
AcDbLinetypeTableRecord
  2
PHANTOM
 70
     0
  3
______  __  __  ______  __  __  ______  __  __ 
 72
    65
 73
     6
 40
2.5
 49
1.25
 74
     0
 49
-0.25
 74
     0
 49
0.25
 74
     0
 49
-0.25
 74
     0
 49
0.25
 74
     0
 49
-0.25
 74
     0
  0
LTYPE
  5
36
100
AcDbSymbolTableRecord
100
AcDbLinetypeTableRecord
  2
PHANTOM2
 70
     0
  3
___ _ _ ___ _ _ ___ _ _ ___ _ _ ___ _ _ ___ _ _
 72
    65
 73
     6
 40
1.25
 49
0.625
 74
     0
 49
-0.125
 74
     0
 49
0.125
 74
     0
 49
-0.125
 74
     0
 49
0.125
 74
     0
 49
-0.125
 74
     0
  0
LTYPE
  5
37
100
AcDbSymbolTableRecord
100
AcDbLinetypeTableRecord
  2
PHANTOMX2
 70
     0
  3
____________    ____    ____    ____________   
 72
    65
 73
     6
 40
5.0
 49
2.5
 74
     0
 49
-0.5
 74
     0
 49
0.5
 74
     0
 49
-0.5
 74
     0
 49
0.5
 74
     0
 49
-0.5
 74
     0
  0
ENDTAB
   0
TABLE
   2
LAYER
   5
2
 100
AcDbSymbolTable
  70
2
   0
LAYER
   5
E
 100
AcDbSymbolTableRecord
 100
AcDbLayerTableRecord
   2
0
  70
0
  62
7
   6
CONTINUOUS
 390
30
   0
LAYER
   5
39
 100
AcDbSymbolTableRecord
 100
AcDbLayerTableRecord
   2
LEVEL001
  70
0
  62
7
   6
CONTINUOUS
 390
30
   0
ENDTAB
  0
TABLE
  2
STYLE
  5
3
100
AcDbSymbolTable
  70
3
  0
STYLE
  5
F
100
AcDbSymbolTableRecord
100
AcDbTextStyleTableRecord
  2
STANDARD
 70
     0
 40
0.0
 41
1.0
 50
0.0
 71
     0
 42
0.2
  3
TXT
  4
BIGFONT
  0
STYLE
  5
38
100
AcDbSymbolTableRecord
100
AcDbTextStyleTableRecord
  2
STANDARD1
 70
     4
 40
0.0
 41
1.0
 50
0.0
 71
     0
 42
0.2
  3
TXT
  4
BIGFONT
   0
STYLE
   5
3A
 100
AcDbSymbolTableRecord
 100
AcDbTextStyleTableRecord
   2
GMM001
  70
0
  40
0.0
  41
 0.95000000000000
  50
0.0
  71
     0
  42
1.0
   3
txt.shx
   4
bigfont.shx
   0
ENDTAB
  0
TABLE
  2
VIEW
  5
6
100
AcDbSymbolTable
 70
     0
  0
ENDTAB
  0
TABLE
  2
UCS
  5
7
100
AcDbSymbolTable
 70
     0
  0
ENDTAB
  0
TABLE
  2
APPID
  5
9
100
AcDbSymbolTable
 70
     1
  0
APPID
  5
10
100
AcDbSymbolTableRecord
100
AcDbRegAppTableRecord
  2
ACAD
 70
     0
  0
ENDTAB
   0
TABLE
   2
DIMSTYLE
   5
A
 100
AcDbSymbolTable
  70
4
 100
AcDbDimStyleTable
  0
DIMSTYLE
105
1D
100
AcDbSymbolTableRecord
100
AcDbDimStyleTableRecord
  2
STANDARD
 70
     0
  3

  4

  5

  6

  7

 40
1.0
 41
0.18
 42
0.0625
 43
0.38
 44
0.18
 45
0.0
 46
0.0
 47
0.0
 48
0.0
140
0.18
141
0.09
142
0.0
143
25.4
144
1.0
145
0.0
146
1.0
147
0.09
 71
     0
 72
     0
 73
     1
 74
     1
 75
     0
 76
     0
 77
     0
 78
     0
170
     0
171
     2
172
     0
173
     0
174
     0
175
     0
176
     0
177
     0
178
     0
270
     2
271
     4
272
     4
273
     2
274
     2
340
F
275
     0
280
     0
281
     0
282
     0
283
     1
284
     0
285
     0
286
     0
287
     3
288
     0
   0
DIMSTYLE
 105
3B
 100
AcDbSymbolTableRecord
 100
AcDbDimStyleTableRecord
   2
GMM001
  70
0
   3
%%c<>
   4

   5

   6
_OPEN30
   7
_OPEN30
  40
 1.0000000000000
  41
 4.5000000000000
  42
 2.2500000000000
  43
 12.000000000000
  44
 2.2500000000000
  45
0.0
  46
0.0
  47
0.0
  48
0.0
 140
 6.0000000000000
 141
 1.5000000000000
 142
0.0
 143
 0.39400000000000E-1
 144
 1.0000000000000
 145
0.0
 146
 0.62500000000000
 147
 2.5714285714286
  71
0
  72
0
  73
0
  74
0
  75
0
  76
0
  77
3
  78
8
 170
0
 171
2
 172
1
 173
1
 174
0
 175
0
 176
3
 177
3
 178
3
 270
2
 271
6
 272
0
 273
2
 274
2
 340
3A
 275
0
 280
0
 281
0
 282
0
 283
1
 284
0
 285
0
 286
0
 287
3
 288
0
   0
DIMSTYLE
 105
3C
 100
AcDbSymbolTableRecord
 100
AcDbDimStyleTableRecord
   2
GMM002
  70
0
   3

   4

   5

   6
_OPEN30
   7
_OPEN30
  40
 1.0000000000000
  41
 4.5000000000000
  42
 2.2500000000000
  43
 12.000000000000
  44
 2.2500000000000
  45
0.0
  46
0.0
  47
0.0
  48
0.0
 140
 6.0000000000000
 141
 1.5000000000000
 142
0.0
 143
 0.39400000000000E-1
 144
 1.0000000000000
 145
0.0
 146
 0.62500000000000
 147
 2.5714285714286
  71
0
  72
0
  73
0
  74
0
  75
0
  76
0
  77
3
  78
8
 170
0
 171
2
 172
1
 173
1
 174
0
 175
0
 176
3
 177
3
 178
3
 270
2
 271
6
 272
0
 273
2
 274
2
 340
3A
 275
0
 280
0
 281
0
 282
0
 283
1
 284
0
 285
0
 286
0
 287
3
 288
0
   0
ENDTAB
  0
TABLE
  2
BLOCK_RECORD
  5
1
100
AcDbSymbolTable
 70
     0
  0
BLOCK_RECORD
  5
18
100
AcDbSymbolTableRecord
100
AcDbBlockTableRecord
  2
*MODEL_SPACE
  0
BLOCK_RECORD
  5
15
100
AcDbSymbolTableRecord
100
AcDbBlockTableRecord
  2
*PAPER_SPACE
   0
BLOCK_RECORD
   5
3D
 100
AcDbSymbolTableRecord
 100
AcDbBlockTableRecord
   2
*D1
   0
BLOCK_RECORD
   5
3E
 100
AcDbSymbolTableRecord
 100
AcDbBlockTableRecord
   2
*D2
   0
BLOCK_RECORD
   5
3F
 100
AcDbSymbolTableRecord
 100
AcDbBlockTableRecord
   2
*D3
   0
BLOCK_RECORD
   5
40
 100
AcDbSymbolTableRecord
 100
AcDbBlockTableRecord
   2
*D4
   0
BLOCK_RECORD
   5
41
 100
AcDbSymbolTableRecord
 100
AcDbBlockTableRecord
   2
*D5
   0
BLOCK_RECORD
   5
42
 100
AcDbSymbolTableRecord
 100
AcDbBlockTableRecord
   2
*D6
   0
BLOCK_RECORD
   5
43
 100
AcDbSymbolTableRecord
 100
AcDbBlockTableRecord
   2
*D7
   0
BLOCK_RECORD
   5
44
 100
AcDbSymbolTableRecord
 100
AcDbBlockTableRecord
   2
*D8
   0
BLOCK_RECORD
   5
45
 100
AcDbSymbolTableRecord
 100
AcDbBlockTableRecord
   2
*D9
   0
BLOCK_RECORD
   5
46
 100
AcDbSymbolTableRecord
 100
AcDbBlockTableRecord
   2
*D10
   0
BLOCK_RECORD
   5
47
 100
AcDbSymbolTableRecord
 100
AcDbBlockTableRecord
   2
*D11
   0
BLOCK_RECORD
   5
48
 100
AcDbSymbolTableRecord
 100
AcDbBlockTableRecord
   2
*D12
   0
BLOCK_RECORD
   5
49
 100
AcDbSymbolTableRecord
 100
AcDbBlockTableRecord
   2
*D13
   0
BLOCK_RECORD
   5
4A
 100
AcDbSymbolTableRecord
 100
AcDbBlockTableRecord
   2
*D14
   0
BLOCK_RECORD
   5
4B
 100
AcDbSymbolTableRecord
 100
AcDbBlockTableRecord
   2
_ARCHTICK
   0
BLOCK_RECORD
   5
4C
 100
AcDbSymbolTableRecord
 100
AcDbBlockTableRecord
   2
_BOXBLANK
   0
BLOCK_RECORD
   5
4D
 100
AcDbSymbolTableRecord
 100
AcDbBlockTableRecord
   2
_BOXFILLED
   0
BLOCK_RECORD
   5
4E
 100
AcDbSymbolTableRecord
 100
AcDbBlockTableRecord
   2
_CLOSED
   0
BLOCK_RECORD
   5
4F
 100
AcDbSymbolTableRecord
 100
AcDbBlockTableRecord
   2
_CLOSEDBLANK
   0
BLOCK_RECORD
   5
50
 100
AcDbSymbolTableRecord
 100
AcDbBlockTableRecord
   2
_DATUMBLANK
   0
BLOCK_RECORD
   5
51
 100
AcDbSymbolTableRecord
 100
AcDbBlockTableRecord
   2
_DATUMFILLED
   0
BLOCK_RECORD
   5
52
 100
AcDbSymbolTableRecord
 100
AcDbBlockTableRecord
   2
_DOT
   0
BLOCK_RECORD
   5
53
 100
AcDbSymbolTableRecord
 100
AcDbBlockTableRecord
   2
_DOTBLANK
   0
BLOCK_RECORD
   5
54
 100
AcDbSymbolTableRecord
 100
AcDbBlockTableRecord
   2
_DOTSMALL
   0
BLOCK_RECORD
   5
55
 100
AcDbSymbolTableRecord
 100
AcDbBlockTableRecord
   2
_INTEGRAL
   0
BLOCK_RECORD
   5
56
 100
AcDbSymbolTableRecord
 100
AcDbBlockTableRecord
   2
_NONE
   0
BLOCK_RECORD
   5
57
 100
AcDbSymbolTableRecord
 100
AcDbBlockTableRecord
   2
_OBLIQUE
   0
BLOCK_RECORD
   5
58
 100
AcDbSymbolTableRecord
 100
AcDbBlockTableRecord
   2
_OPEN
   0
BLOCK_RECORD
   5
59
 100
AcDbSymbolTableRecord
 100
AcDbBlockTableRecord
   2
_OPEN30
   0
BLOCK_RECORD
   5
5A
 100
AcDbSymbolTableRecord
 100
AcDbBlockTableRecord
   2
_OPEN90
   0
BLOCK_RECORD
   5
5B
 100
AcDbSymbolTableRecord
 100
AcDbBlockTableRecord
   2
_ORIGIN
   0
ENDTAB
   0
ENDSEC
  0
SECTION
  2
BLOCKS
  0
BLOCK
  5
19
100
AcDbEntity
  8
0
100
AcDbBlockBegin
  2
*MODEL_SPACE
 70
     0
 10
0.0
 20
0.0
 30
0.0
  3
*MODEL_SPACE
  1

  0
ENDBLK
  5
1A
100
AcDbEntity
  8
0
100
AcDbBlockEnd
  0
BLOCK
  5
16
100
AcDbEntity
 67
     1
  8
0
100
AcDbBlockBegin
  2
*PAPER_SPACE
 70
     0
 10
0.0
 20
0.0
 30
0.0
  3
*PAPER_SPACE
  1

  0
ENDBLK
  5
17
100
AcDbEntity
 67
     1
  8
0
100
AcDbBlockEnd
   0
BLOCK
   5
5C
 100
AcDbEntity
   8
0
 100
AcDbBlockBegin
   2
_ARCHTICK
  70
0
  10
0.0
  20
0.0
  30
0.0
   3
_ARCHTICK
   0
POLYLINE
   5
5D
 100
AcDbEntity
   8
0
   6
BYBLOCK
  62
0
 100
AcDb2dPolyline
  66
1
  10
0.0
  20
0.0
  30
0.0
  70
1
  40
 0.15000000000000
  41
 0.15000000000000
   0
VERTEX
   5
5E
 100
AcDbEntity
   8
0
   6
BYBLOCK
  62
0
 100
AcDbVertex
 100
AcDb2dVertex
  10
-0.50000000000000
  20
-0.50000000000000
  30
0.0
  40
 0.15000000000000
  41
 0.15000000000000
   0
VERTEX
   5
5F
 100
AcDbEntity
   8
0
   6
BYBLOCK
  62
0
 100
AcDbVertex
 100
AcDb2dVertex
  10
 0.50000000000000
  20
 0.50000000000000
  30
0.0
  40
 0.15000000000000
  41
 0.15000000000000
   0
SEQEND
   5
60
 100
AcDbEntity
   8
0
   6
BYBLOCK
  62
0
   0
ENDBLK
   5
61
 100
AcDbEntity
   8
0
 100
AcDbBlockEnd
   0
BLOCK
   5
62
 100
AcDbEntity
   8
0
 100
AcDbBlockBegin
   2
_OBLIQUE
  70
0
  10
0.0
  20
0.0
  30
0.0
   3
_OBLIQUE
   0
LINE
   5
63
 100
AcDbEntity
   8
0
 100
AcDbLine
   6
BYBLOCK
  62
0
  10
-0.50000000000000
  20
-0.50000000000000
  30
0.0
  11
 0.50000000000000
  21
 0.50000000000000
  31
0.0
   0
ENDBLK
   5
64
 100
AcDbEntity
   8
0
 100
AcDbBlockEnd
   0
BLOCK
   5
65
 100
AcDbEntity
   8
0
 100
AcDbBlockBegin
   2
_BOXBLANK
  70
0
  10
0.0
  20
0.0
  30
0.0
   3
_BOXBLANK
   0
LINE
   5
66
 100
AcDbEntity
   8
0
 100
AcDbLine
   6
BYBLOCK
  62
0
  10
-0.50000000000000
  20
-0.50000000000000
  30
0.0
  11
 0.50000000000000
  21
-0.50000000000000
  31
0.0
   0
LINE
   5
67
 100
AcDbEntity
   8
0
 100
AcDbLine
   6
BYBLOCK
  62
0
  10
 0.50000000000000
  20
-0.50000000000000
  30
0.0
  11
 0.50000000000000
  21
 0.50000000000000
  31
0.0
   0
LINE
   5
68
 100
AcDbEntity
   8
0
 100
AcDbLine
   6
BYBLOCK
  62
0
  10
 0.50000000000000
  20
 0.50000000000000
  30
0.0
  11
-0.50000000000000
  21
 0.50000000000000
  31
0.0
   0
LINE
   5
69
 100
AcDbEntity
   8
0
 100
AcDbLine
   6
BYBLOCK
  62
0
  10
-0.50000000000000
  20
 0.50000000000000
  30
0.0
  11
-0.50000000000000
  21
-0.50000000000000
  31
0.0
   0
LINE
   5
6A
 100
AcDbEntity
   8
0
 100
AcDbLine
   6
BYBLOCK
  62
0
  10
-0.50000000000000
  20
0.0
  30
0.0
  11
-1.0000000000000
  21
0.0
  31
0.0
   0
ENDBLK
   5
6B
 100
AcDbEntity
   8
0
 100
AcDbBlockEnd
   0
BLOCK
   5
6C
 100
AcDbEntity
   8
0
 100
AcDbBlockBegin
   2
_BOXFILLED
  70
0
  10
0.0
  20
0.0
  30
0.0
   3
_BOXFILLED
   0
SOLID
   5
6D
 100
AcDbEntity
   8
0
 100
AcDbTrace
   6
BYBLOCK
  62
0
  10
-0.50000000000000
  20
 0.50000000000000
  30
0.0
  11
 0.50000000000000
  21
 0.50000000000000
  31
0.0
  12
-0.50000000000000
  22
-0.50000000000000
  32
0.0
  13
 0.50000000000000
  23
-0.50000000000000
  33
0.0
   0
LINE
   5
6E
 100
AcDbEntity
   8
0
 100
AcDbLine
   6
BYBLOCK
  62
0
  10
-0.50000000000000
  20
0.0
  30
0.0
  11
-1.0000000000000
  21
0.0
  31
0.0
   0
ENDBLK
   5
6F
 100
AcDbEntity
   8
0
 100
AcDbBlockEnd
   0
BLOCK
   5
70
 100
AcDbEntity
   8
0
 100
AcDbBlockBegin
   2
_CLOSED
  70
0
  10
0.0
  20
0.0
  30
0.0
   3
_CLOSED
   0
LINE
   5
71
 100
AcDbEntity
   8
0
 100
AcDbLine
   6
BYBLOCK
  62
0
  10
-1.0000000000000
  20
 0.16666666666667
  30
0.0
  11
0.0
  21
0.0
  31
0.0
   0
LINE
   5
72
 100
AcDbEntity
   8
0
 100
AcDbLine
   6
BYBLOCK
  62
0
  10
0.0
  20
0.0
  30
0.0
  11
-1.0000000000000
  21
-0.16666666666667
  31
0.0
   0
LINE
   5
73
 100
AcDbEntity
   8
0
 100
AcDbLine
   6
BYBLOCK
  62
0
  10
-1.0000000000000
  20
 0.16666666666667
  30
0.0
  11
-1.0000000000000
  21
-0.16666666666667
  31
0.0
   0
LINE
   5
74
 100
AcDbEntity
   8
0
 100
AcDbLine
   6
BYBLOCK
  62
0
  10
0.0
  20
0.0
  30
0.0
  11
-1.0000000000000
  21
0.0
  31
0.0
   0
ENDBLK
   5
75
 100
AcDbEntity
   8
0
 100
AcDbBlockEnd
   0
BLOCK
   5
76
 100
AcDbEntity
   8
0
 100
AcDbBlockBegin
   2
_OPEN
  70
0
  10
0.0
  20
0.0
  30
0.0
   3
_OPEN
   0
LINE
   5
77
 100
AcDbEntity
   8
0
 100
AcDbLine
   6
BYBLOCK
  62
0
  10
-1.0000000000000
  20
 0.16666666666667
  30
0.0
  11
0.0
  21
0.0
  31
0.0
   0
LINE
   5
78
 100
AcDbEntity
   8
0
 100
AcDbLine
   6
BYBLOCK
  62
0
  10
0.0
  20
0.0
  30
0.0
  11
-1.0000000000000
  21
-0.16666666666667
  31
0.0
   0
LINE
   5
79
 100
AcDbEntity
   8
0
 100
AcDbLine
   6
BYBLOCK
  62
0
  10
0.0
  20
0.0
  30
0.0
  11
-1.0000000000000
  21
0.0
  31
0.0
   0
ENDBLK
   5
7A
 100
AcDbEntity
   8
0
 100
AcDbBlockEnd
   0
BLOCK
   5
7B
 100
AcDbEntity
   8
0
 100
AcDbBlockBegin
   2
_OPEN30
  70
0
  10
0.0
  20
0.0
  30
0.0
   3
_OPEN30
   0
LINE
   5
7C
 100
AcDbEntity
   8
0
 100
AcDbLine
   6
BYBLOCK
  62
0
  10
-1.0000000000000
  20
 0.26794919243110
  30
0.0
  11
0.0
  21
0.0
  31
0.0
   0
LINE
   5
7D
 100
AcDbEntity
   8
0
 100
AcDbLine
   6
BYBLOCK
  62
0
  10
0.0
  20
0.0
  30
0.0
  11
-1.0000000000000
  21
-0.26794919243110
  31
0.0
   0
LINE
   5
7E
 100
AcDbEntity
   8
0
 100
AcDbLine
   6
BYBLOCK
  62
0
  10
0.0
  20
0.0
  30
0.0
  11
-1.0000000000000
  21
0.0
  31
0.0
   0
ENDBLK
   5
7F
 100
AcDbEntity
   8
0
 100
AcDbBlockEnd
   0
BLOCK
   5
80
 100
AcDbEntity
   8
0
 100
AcDbBlockBegin
   2
_OPEN90
  70
0
  10
0.0
  20
0.0
  30
0.0
   3
_OPEN90
   0
LINE
   5
81
 100
AcDbEntity
   8
0
 100
AcDbLine
   6
BYBLOCK
  62
0
  10
-0.50000000000000
  20
 0.50000000000000
  30
0.0
  11
0.0
  21
0.0
  31
0.0
   0
LINE
   5
82
 100
AcDbEntity
   8
0
 100
AcDbLine
   6
BYBLOCK
  62
0
  10
0.0
  20
0.0
  30
0.0
  11
-0.50000000000000
  21
-0.50000000000000
  31
0.0
   0
LINE
   5
83
 100
AcDbEntity
   8
0
 100
AcDbLine
   6
BYBLOCK
  62
0
  10
0.0
  20
0.0
  30
0.0
  11
-1.0000000000000
  21
0.0
  31
0.0
   0
ENDBLK
   5
84
 100
AcDbEntity
   8
0
 100
AcDbBlockEnd
   0
BLOCK
   5
85
 100
AcDbEntity
   8
0
 100
AcDbBlockBegin
   2
_CLOSEDBLANK
  70
0
  10
0.0
  20
0.0
  30
0.0
   3
_CLOSEDBLANK
   0
LINE
   5
86
 100
AcDbEntity
   8
0
 100
AcDbLine
   6
BYBLOCK
  62
0
  10
-1.0000000000000
  20
 0.16666666666667
  30
0.0
  11
0.0
  21
0.0
  31
0.0
   0
LINE
   5
87
 100
AcDbEntity
   8
0
 100
AcDbLine
   6
BYBLOCK
  62
0
  10
0.0
  20
0.0
  30
0.0
  11
-1.0000000000000
  21
-0.16666666666667
  31
0.0
   0
LINE
   5
88
 100
AcDbEntity
   8
0
 100
AcDbLine
   6
BYBLOCK
  62
0
  10
-1.0000000000000
  20
 0.16666666666667
  30
0.0
  11
-1.0000000000000
  21
-0.16666666666667
  31
0.0
   0
ENDBLK
   5
89
 100
AcDbEntity
   8
0
 100
AcDbBlockEnd
   0
BLOCK
   5
8A
 100
AcDbEntity
   8
0
 100
AcDbBlockBegin
   2
_DOT
  70
0
  10
0.0
  20
0.0
  30
0.0
   3
_DOT
   0
POLYLINE
   5
8B
 100
AcDbEntity
   8
0
   6
BYBLOCK
  62
0
 100
AcDb2dPolyline
  66
1
  10
0.0
  20
0.0
  30
0.0
  70
1
  40
 0.50000000000000
  41
 0.50000000000000
   0
VERTEX
   5
8C
 100
AcDbEntity
   8
0
   6
BYBLOCK
  62
0
 100
AcDbVertex
 100
AcDb2dVertex
  10
-0.25000000000000
  20
0.0
  30
0.0
  42
 1.0000000000000
  40
 0.50000000000000
  41
 0.50000000000000
   0
VERTEX
   5
8D
 100
AcDbEntity
   8
0
   6
BYBLOCK
  62
0
 100
AcDbVertex
 100
AcDb2dVertex
  10
 0.25000000000000
  20
0.0
  30
0.0
  42
 1.0000000000000
  40
 0.50000000000000
  41
 0.50000000000000
   0
SEQEND
   5
8E
 100
AcDbEntity
   8
0
   6
BYBLOCK
  62
0
   0
LINE
   5
8F
 100
AcDbEntity
   8
0
 100
AcDbLine
   6
BYBLOCK
  62
0
  10
-0.50000000000000
  20
0.0
  30
0.0
  11
-1.0000000000000
  21
0.0
  31
0.0
   0
ENDBLK
   5
90
 100
AcDbEntity
   8
0
 100
AcDbBlockEnd
   0
BLOCK
   5
91
 100
AcDbEntity
   8
0
 100
AcDbBlockBegin
   2
_DOTSMALL
  70
0
  10
0.0
  20
0.0
  30
0.0
   3
_DOTSMALL
   0
POLYLINE
   5
92
 100
AcDbEntity
   8
0
   6
BYBLOCK
  62
0
 100
AcDb2dPolyline
  66
1
  10
0.0
  20
0.0
  30
0.0
  70
1
  40
 0.50000000000000
  41
 0.50000000000000
   0
VERTEX
   5
93
 100
AcDbEntity
   8
0
   6
BYBLOCK
  62
0
 100
AcDbVertex
 100
AcDb2dVertex
  10
-0.62500000000000E-1
  20
0.0
  30
0.0
  42
 1.0000000000000
  40
 0.50000000000000
  41
 0.50000000000000
   0
VERTEX
   5
94
 100
AcDbEntity
   8
0
   6
BYBLOCK
  62
0
 100
AcDbVertex
 100
AcDb2dVertex
  10
 0.62500000000000E-1
  20
0.0
  30
0.0
  42
 1.0000000000000
  40
 0.50000000000000
  41
 0.50000000000000
   0
SEQEND
   5
95
 100
AcDbEntity
   8
0
   6
BYBLOCK
  62
0
   0
ENDBLK
   5
96
 100
AcDbEntity
   8
0
 100
AcDbBlockEnd
   0
BLOCK
   5
97
 100
AcDbEntity
   8
0
 100
AcDbBlockBegin
   2
_DATUMBLANK
  70
0
  10
0.0
  20
0.0
  30
0.0
   3
_DATUMBLANK
   0
LINE
   5
98
 100
AcDbEntity
   8
0
 100
AcDbLine
   6
BYBLOCK
  62
0
  10
0.0
  20
 0.57735027000000
  30
0.0
  11
-1.0000000000000
  21
0.0
  31
0.0
   0
LINE
   5
99
 100
AcDbEntity
   8
0
 100
AcDbLine
   6
BYBLOCK
  62
0
  10
-1.0000000000000
  20
0.0
  30
0.0
  11
0.0
  21
-0.57735027000000
  31
0.0
   0
LINE
   5
9A
 100
AcDbEntity
   8
0
 100
AcDbLine
   6
BYBLOCK
  62
0
  10
0.0
  20
-0.57735027000000
  30
0.0
  11
0.0
  21
 0.57735027000000
  31
0.0
   0
ENDBLK
   5
9B
 100
AcDbEntity
   8
0
 100
AcDbBlockEnd
   0
BLOCK
   5
9C
 100
AcDbEntity
   8
0
 100
AcDbBlockBegin
   2
_DATUMFILLED
  70
0
  10
0.0
  20
0.0
  30
0.0
   3
_DATUMFILLED
   0
SOLID
   5
9D
 100
AcDbEntity
   8
0
 100
AcDbTrace
   6
BYBLOCK
  62
0
  10
0.0
  20
 0.57735027000000
  30
0.0
  11
-1.0000000000000
  21
0.0
  31
0.0
  12
0.0
  22
-0.57735027000000
  32
0.0
  13
0.0
  23
-0.57735027000000
  33
0.0
   0
ENDBLK
   5
9E
 100
AcDbEntity
   8
0
 100
AcDbBlockEnd
   0
BLOCK
   5
9F
 100
AcDbEntity
   8
0
 100
AcDbBlockBegin
   2
_ORIGIN
  70
0
  10
0.0
  20
0.0
  30
0.0
   3
_ORIGIN
   0
CIRCLE
   5
A0
 100
AcDbEntity
   8
0
 100
AcDbCircle
   6
BYBLOCK
  62
0
  10
0.0
  20
0.0
  30
0.0
  40
 0.50000000000000
   0
LINE
   5
A1
 100
AcDbEntity
   8
0
 100
AcDbLine
   6
BYBLOCK
  62
0
  10
0.0
  20
0.0
  30
0.0
  11
-1.0000000000000
  21
0.0
  31
0.0
   0
ENDBLK
   5
A2
 100
AcDbEntity
   8
0
 100
AcDbBlockEnd
   0
BLOCK
   5
A3
 100
AcDbEntity
   8
0
 100
AcDbBlockBegin
   2
_NONE
  70
0
  10
0.0
  20
0.0
  30
0.0
   3
_NONE
   0
CIRCLE
   5
A4
 100
AcDbEntity
   8
0
 100
AcDbCircle
   6
BYBLOCK
  62
0
  10
0.0
  20
0.0
  30
0.0
  40
 0.25000000000000
   0
ENDBLK
   5
A5
 100
AcDbEntity
   8
0
 100
AcDbBlockEnd
   0
BLOCK
   5
A6
 100
AcDbEntity
   8
0
 100
AcDbBlockBegin
   2
_DOTBLANK
  70
0
  10
0.0
  20
0.0
  30
0.0
   3
_DOTBLANK
   0
CIRCLE
   5
A7
 100
AcDbEntity
   8
0
 100
AcDbCircle
   6
BYBLOCK
  62
0
  10
0.0
  20
0.0
  30
0.0
  40
 0.50000000000000
   0
LINE
   5
A8
 100
AcDbEntity
   8
0
 100
AcDbLine
   6
BYBLOCK
  62
0
  10
-0.50000000000000
  20
0.0
  30
0.0
  11
-1.0000000000000
  21
0.0
  31
0.0
   0
ENDBLK
   5
A9
 100
AcDbEntity
   8
0
 100
AcDbBlockEnd
   0
BLOCK
   5
AA
 100
AcDbEntity
   8
0
 100
AcDbBlockBegin
   2
_INTEGRAL
  70
0
  10
0.0
  20
0.0
  30
0.0
   3
_INTEGRAL
   0
ARC
   5
AB
 100
AcDbEntity
   8
0
   6
BYBLOCK
  62
0
 100
AcDbCircle
  10
 0.44488800000000
  20
-0.91335000000000E-1
  30
0.0
  40
 0.45416700000000
 100
AcDbArc
  50
 102.00000000000
  51
 168.00000000000
   0
ARC
   5
AC
 100
AcDbEntity
   8
0
   6
BYBLOCK
  62
0
 100
AcDbCircle
  10
-0.44488800000000
  20
 0.91335000000000E-1
  30
0.0
  40
 0.45416700000000
 100
AcDbArc
  50
 282.00000000000
  51
 348.00000000000
   0
ENDBLK
   5
AD
 100
AcDbEntity
   8
0
 100
AcDbBlockEnd
   0
BLOCK
   5
AE
 100
AcDbEntity
   8
0
 100
AcDbBlockBegin
   2
*D1
  70
65
  10
0.0
  20
0.0
  30
0.0
   3
*D1
   0
LINE
   5
AF
 100
AcDbEntity
   8
LEVEL001
 100
AcDbLine
   6
CONTINUOUS
  62
3
  10
 70.983816953887
  20
 355.33756527721
  30
0.0
  11
 70.983816953887
  21
 369.44078787763
  31
0.0
   0
LINE
   5
B0
 100
AcDbEntity
   8
LEVEL001
 100
AcDbLine
   6
CONTINUOUS
  62
3
  10
 123.98381695389
  20
 355.33756527721
  30
0.0
  11
 123.98381695389
  21
 369.44078787763
  31
0.0
   0
LINE
   5
B1
 100
AcDbEntity
   8
LEVEL001
 100
AcDbLine
   6
CONTINUOUS
  62
3
  10
 70.983816953887
  20
 367.19078787763
  30
0.0
  11
 97.483816953887
  21
 367.19078787763
  31
0.0
   0
LINE
   5
B2
 100
AcDbEntity
   8
LEVEL001
 100
AcDbLine
   6
CONTINUOUS
  62
3
  10
 123.98381695389
  20
 367.19078787763
  30
0.0
  11
 97.483816953887
  21
 367.19078787763
  31
0.0
   0
INSERT
   5
B3
 100
AcDbEntity
   8
LEVEL001
   6
CONTINUOUS
  62
3
 100
AcDbBlockReference
   2
_OPEN30
  10
 70.983816953887
  20
 367.19078787763
  30
0.0
  41
 4.5000000000000
  42
 4.5000000000000
  43
 4.5000000000000
  50
 180.00000000000
   0
INSERT
   5
B4
 100
AcDbEntity
   8
LEVEL001
   6
CONTINUOUS
  62
3
 100
AcDbBlockReference
   2
_OPEN30
  10
 123.98381695389
  20
 367.19078787763
  30
0.0
  41
 4.5000000000000
  42
 4.5000000000000
  43
 4.5000000000000
  50
0.0
   0
MTEXT
   5
B5
 100
AcDbEntity
   8
LEVEL001
  62
3
 100
AcDbMText
  10
 97.483816953887
  20
 369.76221644906
  30
0.0
  40
 6.0000000000000
  41
0.0
  71
8
  72
1
   1
\A1;%%c53
   7
GMM001
   0
ENDBLK
   5
B6
 100
AcDbEntity
   8
0
 100
AcDbBlockEnd
   0
BLOCK
   5
B7
 100
AcDbEntity
   8
0
 100
AcDbBlockBegin
   2
*D2
  70
65
  10
0.0
  20
0.0
  30
0.0
   3
*D2
   0
LINE
   5
B8
 100
AcDbEntity
   8
LEVEL001
 100
AcDbLine
   6
CONTINUOUS
  62
3
  10
 292.28660248575
  20
 355.33756527721
  30
0.0
  11
 292.28660248575
  21
 369.44078787763
  31
0.0
   0
LINE
   5
B9
 100
AcDbEntity
   8
LEVEL001
 100
AcDbLine
   6
CONTINUOUS
  62
3
  10
 345.28660248575
  20
 355.33756527721
  30
0.0
  11
 345.28660248575
  21
 369.44078787763
  31
0.0
   0
LINE
   5
BA
 100
AcDbEntity
   8
LEVEL001
 100
AcDbLine
   6
CONTINUOUS
  62
3
  10
 292.28660248575
  20
 367.19078787763
  30
0.0
  11
 318.78660248575
  21
 367.19078787763
  31
0.0
   0
LINE
   5
BB
 100
AcDbEntity
   8
LEVEL001
 100
AcDbLine
   6
CONTINUOUS
  62
3
  10
 345.28660248575
  20
 367.19078787763
  30
0.0
  11
 318.78660248575
  21
 367.19078787763
  31
0.0
   0
INSERT
   5
BC
 100
AcDbEntity
   8
LEVEL001
   6
CONTINUOUS
  62
3
 100
AcDbBlockReference
   2
_OPEN30
  10
 292.28660248575
  20
 367.19078787763
  30
0.0
  41
 4.5000000000000
  42
 4.5000000000000
  43
 4.5000000000000
  50
 180.00000000000
   0
INSERT
   5
BD
 100
AcDbEntity
   8
LEVEL001
   6
CONTINUOUS
  62
3
 100
AcDbBlockReference
   2
_OPEN30
  10
 345.28660248575
  20
 367.19078787763
  30
0.0
  41
 4.5000000000000
  42
 4.5000000000000
  43
 4.5000000000000
  50
0.0
   0
MTEXT
   5
BE
 100
AcDbEntity
   8
LEVEL001
  62
3
 100
AcDbMText
  10
 318.78660248575
  20
 369.76221644906
  30
0.0
  40
 6.0000000000000
  41
0.0
  71
8
  72
1
   1
\A1;%%c53
   7
GMM001
   0
ENDBLK
   5
BF
 100
AcDbEntity
   8
0
 100
AcDbBlockEnd
   0
BLOCK
   5
C0
 100
AcDbEntity
   8
0
 100
AcDbBlockBegin
   2
*D3
  70
65
  10
0.0
  20
0.0
  30
0.0
   3
*D3
   0
LINE
   5
C1
 100
AcDbEntity
   8
LEVEL001
 100
AcDbLine
   6
CONTINUOUS
  62
3
  10
 68.733816953887
  20
 353.08756527721
  30
0.0
  11
 56.976963981931
  21
 353.08756527721
  31
0.0
   0
LINE
   5
C2
 100
AcDbEntity
   8
LEVEL001
 100
AcDbLine
   6
CONTINUOUS
  62
3
  10
 68.733816953887
  20
 345.08756527721
  30
0.0
  11
 56.976963981931
  21
 345.08756527721
  31
0.0
   0
LINE
   5
C3
 100
AcDbEntity
   8
LEVEL001
 100
AcDbLine
   6
CONTINUOUS
  62
3
  10
 59.226963981931
  20
 358.71256527721
  30
0.0
  11
 59.226963981931
  21
 349.08756527721
  31
0.0
   0
LINE
   5
C4
 100
AcDbEntity
   8
LEVEL001
 100
AcDbLine
   6
CONTINUOUS
  62
3
  10
 59.226963981931
  20
 339.46256527721
  30
0.0
  11
 59.226963981931
  21
 349.08756527721
  31
0.0
   0
INSERT
   5
C5
 100
AcDbEntity
   8
LEVEL001
   6
CONTINUOUS
  62
3
 100
AcDbBlockReference
   2
_OPEN30
  10
 59.226963981931
  20
 353.08756527721
  30
0.0
  41
 4.5000000000000
  42
 4.5000000000000
  43
 4.5000000000000
  50
 270.00000000000
   0
INSERT
   5
C6
 100
AcDbEntity
   8
LEVEL001
   6
CONTINUOUS
  62
3
 100
AcDbBlockReference
   2
_OPEN30
  10
 59.226963981931
  20
 345.08756527721
  30
0.0
  41
 4.5000000000000
  42
 4.5000000000000
  43
 4.5000000000000
  50
 90.000000000000
   0
MTEXT
   5
C7
 100
AcDbEntity
   8
LEVEL001
  62
3
 100
AcDbMText
  10
 56.655535410503
  20
 349.08756527721
  30
0.0
  40
 6.0000000000000
  41
0.0
  71
8
  72
1
   1
\A1;8
   7
GMM001
  11
0.0
  21
 1.0000000000000
  31
0.0
   0
ENDBLK
   5
C8
 100
AcDbEntity
   8
0
 100
AcDbBlockEnd
   0
BLOCK
   5
C9
 100
AcDbEntity
   8
0
 100
AcDbBlockBegin
   2
*D4
  70
65
  10
0.0
  20
0.0
  30
0.0
   3
*D4
   0
LINE
   5
CA
 100
AcDbEntity
   8
LEVEL001
 100
AcDbLine
   6
CONTINUOUS
  62
3
  10
 85.733816953887
  20
 285.08756527721
  30
0.0
  11
 56.976963981931
  21
 285.08756527721
  31
0.0
   0
LINE
   5
CB
 100
AcDbEntity
   8
LEVEL001
 100
AcDbLine
   6
CONTINUOUS
  62
3
  10
 59.226963981931
  20
 345.08756527721
  30
0.0
  11
 59.226963981931
  21
 315.08756527721
  31
0.0
   0
LINE
   5
CC
 100
AcDbEntity
   8
LEVEL001
 100
AcDbLine
   6
CONTINUOUS
  62
3
  10
 59.226963981931
  20
 285.08756527721
  30
0.0
  11
 59.226963981931
  21
 315.08756527721
  31
0.0
   0
INSERT
   5
CD
 100
AcDbEntity
   8
LEVEL001
   6
CONTINUOUS
  62
3
 100
AcDbBlockReference
   2
_OPEN30
  10
 59.226963981931
  20
 345.08756527721
  30
0.0
  41
 4.5000000000000
  42
 4.5000000000000
  43
 4.5000000000000
  50
 90.000000000000
   0
INSERT
   5
CE
 100
AcDbEntity
   8
LEVEL001
   6
CONTINUOUS
  62
3
 100
AcDbBlockReference
   2
_OPEN30
  10
 59.226963981931
  20
 285.08756527721
  30
0.0
  41
 4.5000000000000
  42
 4.5000000000000
  43
 4.5000000000000
  50
 270.00000000000
   0
MTEXT
   5
CF
 100
AcDbEntity
   8
LEVEL001
  62
3
 100
AcDbMText
  10
 56.655535410503
  20
 315.08756527721
  30
0.0
  40
 6.0000000000000
  41
0.0
  71
8
  72
1
   1
\A1;60
   7
GMM001
  11
0.0
  21
 1.0000000000000
  31
0.0
   0
ENDBLK
   5
D0
 100
AcDbEntity
   8
0
 100
AcDbBlockEnd
   0
BLOCK
   5
D1
 100
AcDbEntity
   8
0
 100
AcDbBlockBegin
   2
*D5
  70
65
  10
0.0
  20
0.0
  30
0.0
   3
*D5
   0
LINE
   5
D2
 100
AcDbEntity
   8
LEVEL001
 100
AcDbLine
   6
CONTINUOUS
  62
3
  10
 87.983816953887
  20
 282.83756527721
  30
0.0
  11
 87.983816953887
  21
 256.65406221391
  31
0.0
   0
LINE
   5
D3
 100
AcDbEntity
   8
LEVEL001
 100
AcDbLine
   6
CONTINUOUS
  62
3
  10
 227.98381695389
  20
 282.83756527721
  30
0.0
  11
 227.98381695389
  21
 256.65406221391
  31
0.0
   0
LINE
   5
D4
 100
AcDbEntity
   8
LEVEL001
 100
AcDbLine
   6
CONTINUOUS
  62
3
  10
 87.983816953887
  20
 258.90406221391
  30
0.0
  11
 157.98381695389
  21
 258.90406221391
  31
0.0
   0
LINE
   5
D5
 100
AcDbEntity
   8
LEVEL001
 100
AcDbLine
   6
CONTINUOUS
  62
3
  10
 227.98381695389
  20
 258.90406221391
  30
0.0
  11
 157.98381695389
  21
 258.90406221391
  31
0.0
   0
INSERT
   5
D6
 100
AcDbEntity
   8
LEVEL001
   6
CONTINUOUS
  62
3
 100
AcDbBlockReference
   2
_OPEN30
  10
 87.983816953887
  20
 258.90406221391
  30
0.0
  41
 4.5000000000000
  42
 4.5000000000000
  43
 4.5000000000000
  50
 180.00000000000
   0
INSERT
   5
D7
 100
AcDbEntity
   8
LEVEL001
   6
CONTINUOUS
  62
3
 100
AcDbBlockReference
   2
_OPEN30
  10
 227.98381695389
  20
 258.90406221391
  30
0.0
  41
 4.5000000000000
  42
 4.5000000000000
  43
 4.5000000000000
  50
0.0
   0
MTEXT
   5
D8
 100
AcDbEntity
   8
LEVEL001
  62
3
 100
AcDbMText
  10
 157.98381695389
  20
 261.47549078534
  30
0.0
  40
 6.0000000000000
  41
0.0
  71
8
  72
1
   1
\A1;140
   7
GMM001
   0
ENDBLK
   5
D9
 100
AcDbEntity
   8
0
 100
AcDbBlockEnd
   0
BLOCK
   5
DA
 100
AcDbEntity
   8
0
 100
AcDbBlockBegin
   2
*D6
  70
65
  10
0.0
  20
0.0
  30
0.0
   3
*D6
   0
LINE
   5
DB
 100
AcDbEntity
   8
LEVEL001
 100
AcDbLine
   6
CONTINUOUS
  62
3
  10
 230.23381695389
  20
 335.08756527721
  30
0.0
  11
 254.22032681381
  21
 335.08756527721
  31
0.0
   0
LINE
   5
DC
 100
AcDbEntity
   8
LEVEL001
 100
AcDbLine
   6
CONTINUOUS
  62
3
  10
 230.23381695389
  20
 285.08756527721
  30
0.0
  11
 254.22032681381
  21
 285.08756527721
  31
0.0
   0
LINE
   5
DD
 100
AcDbEntity
   8
LEVEL001
 100
AcDbLine
   6
CONTINUOUS
  62
3
  10
 251.97032681381
  20
 335.08756527721
  30
0.0
  11
 251.97032681381
  21
 310.08756527721
  31
0.0
   0
LINE
   5
DE
 100
AcDbEntity
   8
LEVEL001
 100
AcDbLine
   6
CONTINUOUS
  62
3
  10
 251.97032681381
  20
 285.08756527721
  30
0.0
  11
 251.97032681381
  21
 310.08756527721
  31
0.0
   0
INSERT
   5
DF
 100
AcDbEntity
   8
LEVEL001
   6
CONTINUOUS
  62
3
 100
AcDbBlockReference
   2
_OPEN30
  10
 251.97032681381
  20
 335.08756527721
  30
0.0
  41
 4.5000000000000
  42
 4.5000000000000
  43
 4.5000000000000
  50
 90.000000000000
   0
INSERT
   5
E0
 100
AcDbEntity
   8
LEVEL001
   6
CONTINUOUS
  62
3
 100
AcDbBlockReference
   2
_OPEN30
  10
 251.97032681381
  20
 285.08756527721
  30
0.0
  41
 4.5000000000000
  42
 4.5000000000000
  43
 4.5000000000000
  50
 270.00000000000
   0
MTEXT
   5
E1
 100
AcDbEntity
   8
LEVEL001
  62
3
 100
AcDbMText
  10
 249.39889824238
  20
 310.08756527721
  30
0.0
  40
 6.0000000000000
  41
0.0
  71
8
  72
1
   1
\A1;50
   7
GMM001
  11
0.0
  21
 1.0000000000000
  31
0.0
   0
ENDBLK
   5
E2
 100
AcDbEntity
   8
0
 100
AcDbBlockEnd
   0
BLOCK
   5
E3
 100
AcDbEntity
   8
0
 100
AcDbBlockBegin
   2
*D7
  70
65
  10
0.0
  20
0.0
  30
0.0
   3
*D7
   0
LINE
   5
E4
 100
AcDbEntity
   8
LEVEL001
 100
AcDbLine
   6
CONTINUOUS
  62
3
  10
 208.98381695389
  20
 337.33756527721
  30
0.0
  11
 208.98381695389
  21
 350.80892947055
  31
0.0
   0
LINE
   5
E5
 100
AcDbEntity
   8
LEVEL001
 100
AcDbLine
   6
CONTINUOUS
  62
3
  10
 227.98381695389
  20
 337.33756527721
  30
0.0
  11
 227.98381695389
  21
 350.80892947055
  31
0.0
   0
LINE
   5
E6
 100
AcDbEntity
   8
LEVEL001
 100
AcDbLine
   6
CONTINUOUS
  62
3
  10
 208.98381695389
  20
 348.55892947055
  30
0.0
  11
 218.48381695389
  21
 348.55892947055
  31
0.0
   0
LINE
   5
E7
 100
AcDbEntity
   8
LEVEL001
 100
AcDbLine
   6
CONTINUOUS
  62
3
  10
 227.98381695389
  20
 348.55892947055
  30
0.0
  11
 218.48381695389
  21
 348.55892947055
  31
0.0
   0
INSERT
   5
E8
 100
AcDbEntity
   8
LEVEL001
   6
CONTINUOUS
  62
3
 100
AcDbBlockReference
   2
_OPEN30
  10
 208.98381695389
  20
 348.55892947055
  30
0.0
  41
 4.5000000000000
  42
 4.5000000000000
  43
 4.5000000000000
  50
 180.00000000000
   0
INSERT
   5
E9
 100
AcDbEntity
   8
LEVEL001
   6
CONTINUOUS
  62
3
 100
AcDbBlockReference
   2
_OPEN30
  10
 227.98381695389
  20
 348.55892947055
  30
0.0
  41
 4.5000000000000
  42
 4.5000000000000
  43
 4.5000000000000
  50
0.0
   0
MTEXT
   5
EA
 100
AcDbEntity
   8
LEVEL001
  62
3
 100
AcDbMText
  10
 218.48381695389
  20
 351.13035804198
  30
0.0
  40
 6.0000000000000
  41
0.0
  71
8
  72
1
   1
\A1;%%c19
   7
GMM001
   0
ENDBLK
   5
EB
 100
AcDbEntity
   8
0
 100
AcDbBlockEnd
   0
BLOCK
   5
EC
 100
AcDbEntity
   8
0
 100
AcDbBlockBegin
   2
*D8
  70
65
  10
0.0
  20
0.0
  30
0.0
   3
*D8
   0
LINE
   5
ED
 100
AcDbEntity
   8
LEVEL001
 100
AcDbLine
   6
CONTINUOUS
  62
3
  10
 220.73381695389
  20
 217.52193079834
  30
0.0
  11
 254.22032681381
  21
 217.52193079834
  31
0.0
   0
LINE
   5
EE
 100
AcDbEntity
   8
LEVEL001
 100
AcDbLine
   6
CONTINUOUS
  62
3
  10
 220.73381695389
  20
 198.52193079834
  30
0.0
  11
 254.22032681381
  21
 198.52193079834
  31
0.0
   0
LINE
   5
EF
 100
AcDbEntity
   8
LEVEL001
 100
AcDbLine
   6
CONTINUOUS
  62
3
  10
 251.97032681381
  20
 217.52193079834
  30
0.0
  11
 251.97032681381
  21
 208.02193079834
  31
0.0
   0
LINE
   5
F0
 100
AcDbEntity
   8
LEVEL001
 100
AcDbLine
   6
CONTINUOUS
  62
3
  10
 251.97032681381
  20
 198.52193079834
  30
0.0
  11
 251.97032681381
  21
 208.02193079834
  31
0.0
   0
INSERT
   5
F1
 100
AcDbEntity
   8
LEVEL001
   6
CONTINUOUS
  62
3
 100
AcDbBlockReference
   2
_OPEN30
  10
 251.97032681381
  20
 217.52193079834
  30
0.0
  41
 4.5000000000000
  42
 4.5000000000000
  43
 4.5000000000000
  50
 90.000000000000
   0
INSERT
   5
F2
 100
AcDbEntity
   8
LEVEL001
   6
CONTINUOUS
  62
3
 100
AcDbBlockReference
   2
_OPEN30
  10
 251.97032681381
  20
 198.52193079834
  30
0.0
  41
 4.5000000000000
  42
 4.5000000000000
  43
 4.5000000000000
  50
 270.00000000000
   0
MTEXT
   5
F3
 100
AcDbEntity
   8
LEVEL001
  62
3
 100
AcDbMText
  10
 249.39889824238
  20
 208.02193079834
  30
0.0
  40
 6.0000000000000
  41
0.0
  71
8
  72
1
   1
\A1;%%c19
   7
GMM001
  11
0.0
  21
 1.0000000000000
  31
0.0
   0
ENDBLK
   5
F4
 100
AcDbEntity
   8
0
 100
AcDbBlockEnd
   0
BLOCK
   5
F5
 100
AcDbEntity
   8
0
 100
AcDbBlockBegin
   2
*D9
  70
65
  10
0.0
  20
0.0
  30
0.0
   3
*D9
   0
LINE
   5
F6
 100
AcDbEntity
   8
LEVEL001
 100
AcDbLine
   6
CONTINUOUS
  62
3
  10
 290.03660248575
  20
 353.08756527721
  30
0.0
  11
 278.27974951380
  21
 353.08756527721
  31
0.0
   0
LINE
   5
F7
 100
AcDbEntity
   8
LEVEL001
 100
AcDbLine
   6
CONTINUOUS
  62
3
  10
 290.03660248575
  20
 345.08756527721
  30
0.0
  11
 278.27974951380
  21
 345.08756527721
  31
0.0
   0
LINE
   5
F8
 100
AcDbEntity
   8
LEVEL001
 100
AcDbLine
   6
CONTINUOUS
  62
3
  10
 280.52974951380
  20
 358.71256527721
  30
0.0
  11
 280.52974951380
  21
 349.08756527721
  31
0.0
   0
LINE
   5
F9
 100
AcDbEntity
   8
LEVEL001
 100
AcDbLine
   6
CONTINUOUS
  62
3
  10
 280.52974951380
  20
 339.46256527721
  30
0.0
  11
 280.52974951380
  21
 349.08756527721
  31
0.0
   0
INSERT
   5
FA
 100
AcDbEntity
   8
LEVEL001
   6
CONTINUOUS
  62
3
 100
AcDbBlockReference
   2
_OPEN30
  10
 280.52974951380
  20
 353.08756527721
  30
0.0
  41
 4.5000000000000
  42
 4.5000000000000
  43
 4.5000000000000
  50
 270.00000000000
   0
INSERT
   5
FB
 100
AcDbEntity
   8
LEVEL001
   6
CONTINUOUS
  62
3
 100
AcDbBlockReference
   2
_OPEN30
  10
 280.52974951380
  20
 345.08756527721
  30
0.0
  41
 4.5000000000000
  42
 4.5000000000000
  43
 4.5000000000000
  50
 90.000000000000
   0
MTEXT
   5
FC
 100
AcDbEntity
   8
LEVEL001
  62
3
 100
AcDbMText
  10
 277.95832094237
  20
 349.08756527721
  30
0.0
  40
 6.0000000000000
  41
0.0
  71
8
  72
1
   1
\A1;8
   7
GMM001
  11
0.0
  21
 1.0000000000000
  31
0.0
   0
ENDBLK
   5
FD
 100
AcDbEntity
   8
0
 100
AcDbBlockEnd
   0
BLOCK
   5
FE
 100
AcDbEntity
   8
0
 100
AcDbBlockBegin
   2
*D10
  70
65
  10
0.0
  20
0.0
  30
0.0
   3
*D10
   0
LINE
   5
FF
 100
AcDbEntity
   8
LEVEL001
 100
AcDbLine
   6
CONTINUOUS
  62
3
  10
 307.03660248575
  20
 285.08756527721
  30
0.0
  11
 278.27974951380
  21
 285.08756527721
  31
0.0
   0
LINE
   5
100
 100
AcDbEntity
   8
LEVEL001
 100
AcDbLine
   6
CONTINUOUS
  62
3
  10
 280.52974951380
  20
 345.08756527721
  30
0.0
  11
 280.52974951380
  21
 315.08756527721
  31
0.0
   0
LINE
   5
101
 100
AcDbEntity
   8
LEVEL001
 100
AcDbLine
   6
CONTINUOUS
  62
3
  10
 280.52974951380
  20
 285.08756527721
  30
0.0
  11
 280.52974951380
  21
 315.08756527721
  31
0.0
   0
INSERT
   5
102
 100
AcDbEntity
   8
LEVEL001
   6
CONTINUOUS
  62
3
 100
AcDbBlockReference
   2
_OPEN30
  10
 280.52974951380
  20
 345.08756527721
  30
0.0
  41
 4.5000000000000
  42
 4.5000000000000
  43
 4.5000000000000
  50
 90.000000000000
   0
INSERT
   5
103
 100
AcDbEntity
   8
LEVEL001
   6
CONTINUOUS
  62
3
 100
AcDbBlockReference
   2
_OPEN30
  10
 280.52974951380
  20
 285.08756527721
  30
0.0
  41
 4.5000000000000
  42
 4.5000000000000
  43
 4.5000000000000
  50
 270.00000000000
   0
MTEXT
   5
104
 100
AcDbEntity
   8
LEVEL001
  62
3
 100
AcDbMText
  10
 277.95832094237
  20
 315.08756527721
  30
0.0
  40
 6.0000000000000
  41
0.0
  71
8
  72
1
   1
\A1;60
   7
GMM001
  11
0.0
  21
 1.0000000000000
  31
0.0
   0
ENDBLK
   5
105
 100
AcDbEntity
   8
0
 100
AcDbBlockEnd
   0
BLOCK
   5
106
 100
AcDbEntity
   8
0
 100
AcDbBlockBegin
   2
*D11
  70
65
  10
0.0
  20
0.0
  30
0.0
   3
*D11
   0
LINE
   5
107
 100
AcDbEntity
   8
LEVEL001
 100
AcDbLine
   6
CONTINUOUS
  62
3
  10
 309.28660248575
  20
 282.83756527721
  30
0.0
  11
 309.28660248575
  21
 256.65406221391
  31
0.0
   0
LINE
   5
108
 100
AcDbEntity
   8
LEVEL001
 100
AcDbLine
   6
CONTINUOUS
  62
3
  10
 439.28660248575
  20
 282.83756527721
  30
0.0
  11
 439.28660248575
  21
 256.65406221391
  31
0.0
   0
LINE
   5
109
 100
AcDbEntity
   8
LEVEL001
 100
AcDbLine
   6
CONTINUOUS
  62
3
  10
 309.28660248575
  20
 258.90406221391
  30
0.0
  11
 374.28660248575
  21
 258.90406221391
  31
0.0
   0
LINE
   5
10A
 100
AcDbEntity
   8
LEVEL001
 100
AcDbLine
   6
CONTINUOUS
  62
3
  10
 439.28660248575
  20
 258.90406221391
  30
0.0
  11
 374.28660248575
  21
 258.90406221391
  31
0.0
   0
INSERT
   5
10B
 100
AcDbEntity
   8
LEVEL001
   6
CONTINUOUS
  62
3
 100
AcDbBlockReference
   2
_OPEN30
  10
 309.28660248575
  20
 258.90406221391
  30
0.0
  41
 4.5000000000000
  42
 4.5000000000000
  43
 4.5000000000000
  50
 180.00000000000
   0
INSERT
   5
10C
 100
AcDbEntity
   8
LEVEL001
   6
CONTINUOUS
  62
3
 100
AcDbBlockReference
   2
_OPEN30
  10
 439.28660248575
  20
 258.90406221391
  30
0.0
  41
 4.5000000000000
  42
 4.5000000000000
  43
 4.5000000000000
  50
0.0
   0
MTEXT
   5
10D
 100
AcDbEntity
   8
LEVEL001
  62
3
 100
AcDbMText
  10
 374.28660248575
  20
 261.47549078534
  30
0.0
  40
 6.0000000000000
  41
0.0
  71
8
  72
1
   1
\A1;130
   7
GMM001
   0
ENDBLK
   5
10E
 100
AcDbEntity
   8
0
 100
AcDbBlockEnd
   0
BLOCK
   5
10F
 100
AcDbEntity
   8
0
 100
AcDbBlockBegin
   2
*D12
  70
65
  10
0.0
  20
0.0
  30
0.0
   3
*D12
   0
LINE
   5
110
 100
AcDbEntity
   8
LEVEL001
 100
AcDbLine
   6
CONTINUOUS
  62
3
  10
 441.53660248575
  20
 304.08756527721
  30
0.0
  11
 461.92800908964
  21
 304.08756527721
  31
0.0
   0
LINE
   5
111
 100
AcDbEntity
   8
LEVEL001
 100
AcDbLine
   6
CONTINUOUS
  62
3
  10
 441.53660248575
  20
 285.08756527721
  30
0.0
  11
 461.92800908964
  21
 285.08756527721
  31
0.0
   0
LINE
   5
112
 100
AcDbEntity
   8
LEVEL001
 100
AcDbLine
   6
CONTINUOUS
  62
3
  10
 459.67800908964
  20
 304.08756527721
  30
0.0
  11
 459.67800908964
  21
 294.58756527721
  31
0.0
   0
LINE
   5
113
 100
AcDbEntity
   8
LEVEL001
 100
AcDbLine
   6
CONTINUOUS
  62
3
  10
 459.67800908964
  20
 285.08756527721
  30
0.0
  11
 459.67800908964
  21
 294.58756527721
  31
0.0
   0
INSERT
   5
114
 100
AcDbEntity
   8
LEVEL001
   6
CONTINUOUS
  62
3
 100
AcDbBlockReference
   2
_OPEN30
  10
 459.67800908964
  20
 304.08756527721
  30
0.0
  41
 4.5000000000000
  42
 4.5000000000000
  43
 4.5000000000000
  50
 90.000000000000
   0
INSERT
   5
115
 100
AcDbEntity
   8
LEVEL001
   6
CONTINUOUS
  62
3
 100
AcDbBlockReference
   2
_OPEN30
  10
 459.67800908964
  20
 285.08756527721
  30
0.0
  41
 4.5000000000000
  42
 4.5000000000000
  43
 4.5000000000000
  50
 270.00000000000
   0
MTEXT
   5
116
 100
AcDbEntity
   8
LEVEL001
  62
3
 100
AcDbMText
  10
 457.10658051821
  20
 294.58756527721
  30
0.0
  40
 6.0000000000000
  41
0.0
  71
8
  72
1
   1
\A1;%%c19
   7
GMM001
  11
0.0
  21
 1.0000000000000
  31
0.0
   0
ENDBLK
   5
117
 100
AcDbEntity
   8
0
 100
AcDbBlockEnd
   0
BLOCK
   5
118
 100
AcDbEntity
   8
0
 100
AcDbBlockBegin
   2
*D13
  70
65
  10
0.0
  20
0.0
  30
0.0
   3
*D13
   0
LINE
   5
119
 100
AcDbEntity
   8
LEVEL001
 100
AcDbLine
   6
CONTINUOUS
  62
3
  10
 512.65682580345
  20
 269.64400700460
  30
0.0
  11
 497.28481106735
  21
 269.64400700460
  31
0.0
   0
LINE
   5
11A
 100
AcDbEntity
   8
LEVEL001
 100
AcDbLine
   6
CONTINUOUS
  62
3
  10
 512.65682580345
  20
 261.64400700460
  30
0.0
  11
 497.28481106735
  21
 261.64400700460
  31
0.0
   0
LINE
   5
11B
 100
AcDbEntity
   8
LEVEL001
 100
AcDbLine
   6
CONTINUOUS
  62
3
  10
 499.53481106735
  20
 275.26900700460
  30
0.0
  11
 499.53481106735
  21
 265.64400700460
  31
0.0
   0
LINE
   5
11C
 100
AcDbEntity
   8
LEVEL001
 100
AcDbLine
   6
CONTINUOUS
  62
3
  10
 499.53481106735
  20
 256.01900700460
  30
0.0
  11
 499.53481106735
  21
 265.64400700460
  31
0.0
   0
INSERT
   5
11D
 100
AcDbEntity
   8
LEVEL001
   6
CONTINUOUS
  62
3
 100
AcDbBlockReference
   2
_OPEN30
  10
 499.53481106735
  20
 269.64400700460
  30
0.0
  41
 4.5000000000000
  42
 4.5000000000000
  43
 4.5000000000000
  50
 270.00000000000
   0
INSERT
   5
11E
 100
AcDbEntity
   8
LEVEL001
   6
CONTINUOUS
  62
3
 100
AcDbBlockReference
   2
_OPEN30
  10
 499.53481106735
  20
 261.64400700460
  30
0.0
  41
 4.5000000000000
  42
 4.5000000000000
  43
 4.5000000000000
  50
 90.000000000000
   0
MTEXT
   5
11F
 100
AcDbEntity
   8
LEVEL001
  62
3
 100
AcDbMText
  10
 496.96338249593
  20
 265.64400700460
  30
0.0
  40
 6.0000000000000
  41
0.0
  71
8
  72
1
   1
\A1;8
   7
GMM001
  11
0.0
  21
 1.0000000000000
  31
0.0
   0
ENDBLK
   5
120
 100
AcDbEntity
   8
0
 100
AcDbBlockEnd
   0
BLOCK
   5
121
 100
AcDbEntity
   8
0
 100
AcDbBlockBegin
   2
*D14
  70
65
  10
0.0
  20
0.0
  30
0.0
   3
*D14
   0
LINE
   5
122
 100
AcDbEntity
   8
LEVEL001
 100
AcDbLine
   6
CONTINUOUS
  62
3
  10
 514.90682580345
  20
 271.89400700460
  30
0.0
  11
 514.90682580345
  21
 289.78601755961
  31
0.0
   0
LINE
   5
123
 100
AcDbEntity
   8
LEVEL001
 100
AcDbLine
   6
CONTINUOUS
  62
3
  10
 567.90682580345
  20
 271.89400700460
  30
0.0
  11
 567.90682580345
  21
 289.78601755961
  31
0.0
   0
LINE
   5
124
 100
AcDbEntity
   8
LEVEL001
 100
AcDbLine
   6
CONTINUOUS
  62
3
  10
 514.90682580345
  20
 287.53601755961
  30
0.0
  11
 541.40682580345
  21
 287.53601755961
  31
0.0
   0
LINE
   5
125
 100
AcDbEntity
   8
LEVEL001
 100
AcDbLine
   6
CONTINUOUS
  62
3
  10
 567.90682580345
  20
 287.53601755961
  30
0.0
  11
 541.40682580345
  21
 287.53601755961
  31
0.0
   0
INSERT
   5
126
 100
AcDbEntity
   8
LEVEL001
   6
CONTINUOUS
  62
3
 100
AcDbBlockReference
   2
_OPEN30
  10
 514.90682580345
  20
 287.53601755961
  30
0.0
  41
 4.5000000000000
  42
 4.5000000000000
  43
 4.5000000000000
  50
 180.00000000000
   0
INSERT
   5
127
 100
AcDbEntity
   8
LEVEL001
   6
CONTINUOUS
  62
3
 100
AcDbBlockReference
   2
_OPEN30
  10
 567.90682580345
  20
 287.53601755961
  30
0.0
  41
 4.5000000000000
  42
 4.5000000000000
  43
 4.5000000000000
  50
0.0
   0
MTEXT
   5
128
 100
AcDbEntity
   8
LEVEL001
  62
3
 100
AcDbMText
  10
 541.40682580345
  20
 290.10744613103
  30
0.0
  40
 6.0000000000000
  41
0.0
  71
8
  72
1
   1
\A1;%%c53
   7
GMM001
   0
ENDBLK
   5
129
 100
AcDbEntity
   8
0
 100
AcDbBlockEnd
   0
ENDSEC
   0
SECTION
   2
ENTITIES
   0
LINE
   5
12A
 100
AcDbEntity
   8
LEVEL001
 100
AcDbLine
   6
CONTINUOUS
  62
7
  10
 70.983816953887
  20
 345.08756527721
  30
0.0
  11
 123.98381695389
  21
 345.08756527721
  31
0.0
   0
LINE
   5
12B
 100
AcDbEntity
   8
LEVEL001
 100
AcDbLine
   6
CONTINUOUS
  62
7
  10
 70.983816953887
  20
 345.08756527721
  30
0.0
  11
 70.983816953887
  21
 353.08756527721
  31
0.0
   0
LINE
   5
12C
 100
AcDbEntity
   8
LEVEL001
 100
AcDbLine
   6
CONTINUOUS
  62
7
  10
 123.98381695389
  20
 345.08756527721
  30
0.0
  11
 123.98381695389
  21
 353.08756527721
  31
0.0
   0
LINE
   5
12D
 100
AcDbEntity
   8
LEVEL001
 100
AcDbLine
   6
CONTINUOUS
  62
7
  10
 70.983816953887
  20
 353.08756527721
  30
0.0
  11
 123.98381695389
  21
 353.08756527721
  31
0.0
   0
LINE
   5
12E
 100
AcDbEntity
   8
LEVEL001
 100
AcDbLine
   6
CONTINUOUS
  62
7
  10
 87.983816953887
  20
 319.08756527721
  30
0.0
  11
 87.983816953887
  21
 345.08756527721
  31
0.0
   0
ARC
   5
12F
 100
AcDbEntity
   8
LEVEL001
   6
CONTINUOUS
  62
7
 100
AcDbCircle
  10
 121.98381695389
  20
 319.08756527721
  30
0.0
  40
 34.000000000000
 100
AcDbArc
  50
 180.00000000000
  51
 270.00000000000
   0
POINT
   5
130
 100
AcDbEntity
   8
LEVEL001
 100
AcDbPoint
  62
7
  10
 87.983816953887
  20
 285.08756527721
  30
0.0
   0
LINE
   5
131
 100
AcDbEntity
   8
LEVEL001
 100
AcDbLine
   6
CONTINUOUS
  62
7
  10
 106.98381695389
  20
 319.08756527721
  30
0.0
  11
 106.98381695389
  21
 345.08756527721
  31
0.0
   0
ARC
   5
132
 100
AcDbEntity
   8
LEVEL001
   6
CONTINUOUS
  62
7
 100
AcDbCircle
  10
 121.98381695389
  20
 319.08756527721
  30
0.0
  40
 15.000000000000
 100
AcDbArc
  50
 180.00000000000
  51
 270.00000000000
   0
POINT
   5
133
 100
AcDbEntity
   8
LEVEL001
 100
AcDbPoint
  62
7
  10
 106.98381695389
  20
 304.08756527721
  30
0.0
   0
ARC
   5
134
 100
AcDbEntity
   8
LEVEL001
   6
DASHDOT
  62
3
 100
AcDbCircle
  10
 121.98381695389
  20
 319.08756527721
  30
0.0
  40
 24.500000000000
 100
AcDbArc
  50
 180.00000000000
  51
 270.00000000000
   0
POINT
   5
135
 100
AcDbEntity
   8
LEVEL001
 100
AcDbPoint
  62
3
  10
 97.483816953887
  20
 294.58756527721
  30
0.0
   0
LINE
   5
136
 100
AcDbEntity
   8
LEVEL001
 100
AcDbLine
   6
CONTINUOUS
  62
7
  10
 292.28660248575
  20
 345.08756527721
  30
0.0
  11
 345.28660248575
  21
 345.08756527721
  31
0.0
   0
LINE
   5
137
 100
AcDbEntity
   8
LEVEL001
 100
AcDbLine
   6
CONTINUOUS
  62
7
  10
 292.28660248575
  20
 345.08756527721
  30
0.0
  11
 292.28660248575
  21
 353.08756527721
  31
0.0
   0
LINE
   5
138
 100
AcDbEntity
   8
LEVEL001
 100
AcDbLine
   6
CONTINUOUS
  62
7
  10
 345.28660248575
  20
 345.08756527721
  30
0.0
  11
 345.28660248575
  21
 353.08756527721
  31
0.0
   0
LINE
   5
139
 100
AcDbEntity
   8
LEVEL001
 100
AcDbLine
   6
CONTINUOUS
  62
7
  10
 292.28660248575
  20
 353.08756527721
  30
0.0
  11
 345.28660248575
  21
 353.08756527721
  31
0.0
   0
LINE
   5
13A
 100
AcDbEntity
   8
LEVEL001
 100
AcDbLine
   6
CONTINUOUS
  62
7
  10
 309.28660248575
  20
 285.08756527721
  30
0.0
  11
 309.28660248575
  21
 345.08756527721
  31
0.0
   0
LINE
   5
13B
 100
AcDbEntity
   8
LEVEL001
 100
AcDbLine
   6
CONTINUOUS
  62
7
  10
 328.28660248575
  20
 304.08756527721
  30
0.0
  11
 328.28660248575
  21
 345.08756527721
  31
0.0
   0
LINE
   5
13C
 100
AcDbEntity
   8
LEVEL001
 100
AcDbLine
   6
CONTINUOUS
  62
7
  10
 309.28660248575
  20
 285.08756527721
  30
0.0
  11
 328.28660248575
  21
 304.08756527721
  31
0.0
   0
LINE
   5
13D
 100
AcDbEntity
   8
LEVEL001
 100
AcDbLine
   6
CONTINUOUS
  62
7
  10
 328.28660248575
  20
 304.08756527721
  30
0.0
  11
 439.28660248575
  21
 304.08756527721
  31
0.0
   0
LINE
   5
13E
 100
AcDbEntity
   8
LEVEL001
 100
AcDbLine
   6
CONTINUOUS
  62
7
  10
 309.28660248575
  20
 285.08756527721
  30
0.0
  11
 439.28660248575
  21
 285.08756527721
  31
0.0
   0
LINE
   5
13F
 100
AcDbEntity
   8
LEVEL001
 100
AcDbLine
   6
CONTINUOUS
  62
7
  10
 439.28660248575
  20
 285.08756527721
  30
0.0
  11
 439.28660248575
  21
 304.08756527721
  31
0.0
   0
LINE
   5
140
 100
AcDbEntity
   8
LEVEL001
 100
AcDbLine
   6
DASHDOT
  62
3
  10
 445.25336594819
  20
 294.58756527721
  30
0.0
  11
 318.78660248575
  21
 294.58756527721
  31
0.0
   0
LINE
   5
141
 100
AcDbEntity
   8
LEVEL001
 100
AcDbLine
   6
DASHDOT
  62
3
  10
 97.483816953887
  20
 358.42972593073
  30
0.0
  11
 97.483816953887
  21
 319.08756527721
  31
0.0
   0
LINE
   5
142
 100
AcDbEntity
   8
LEVEL001
 100
AcDbLine
   6
DASHDOT
  62
3
  10
 318.78660248575
  20
 358.42972593073
  30
0.0
  11
 318.78660248575
  21
 294.58756527721
  31
0.0
   0
DIMENSION
   5
143
 100
AcDbEntity
   8
LEVEL001
   6
CONTINUOUS
  62
3
 100
AcDbDimension
   2
*D1
  10
 123.98381695389
  20
 367.19078787763
  30
0.0
  11
 97.483816953887
  21
 367.19078787763
  31
0.0
  70
0
   3
GMM001
 100
AcDbAlignedDimension
  13
 70.983816953887
  23
 353.08756527721
  33
0.0
  14
 123.98381695389
  24
 353.08756527721
  34
0.0
 100
AcDbRotatedDimension
   0
DIMENSION
   5
144
 100
AcDbEntity
   8
LEVEL001
   6
CONTINUOUS
  62
3
 100
AcDbDimension
   2
*D2
  10
 345.28660248575
  20
 367.19078787763
  30
0.0
  11
 318.78660248575
  21
 367.19078787763
  31
0.0
  70
0
   3
GMM001
 100
AcDbAlignedDimension
  13
 292.28660248575
  23
 353.08756527721
  33
0.0
  14
 345.28660248575
  24
 353.08756527721
  34
0.0
 100
AcDbRotatedDimension
   0
DIMENSION
   5
145
 100
AcDbEntity
   8
LEVEL001
   6
CONTINUOUS
  62
3
 100
AcDbDimension
   2
*D3
  10
 59.226963981931
  20
 345.08756527721
  30
0.0
  11
 59.226963981931
  21
 349.08756527721
  31
0.0
  70
0
   3
GMM002
 100
AcDbAlignedDimension
  13
 70.983816953887
  23
 353.08756527721
  33
0.0
  14
 70.983816953887
  24
 345.08756527721
  34
0.0
  50
 270.00000000000
 100
AcDbRotatedDimension
   0
DIMENSION
   5
146
 100
AcDbEntity
   8
LEVEL001
   6
CONTINUOUS
  62
3
 100
AcDbDimension
   2
*D4
  10
 59.226963981931
  20
 285.08756527721
  30
0.0
  11
 59.226963981931
  21
 315.08756527721
  31
0.0
  70
0
   3
GMM002
 100
AcDbAlignedDimension
  13
 59.226963981931
  23
 345.08756527721
  33
0.0
  14
 87.983816953887
  24
 285.08756527721
  34
0.0
  50
 270.00000000000
 100
AcDbRotatedDimension
   0
LINE
   5
147
 100
AcDbEntity
   8
LEVEL001
 100
AcDbLine
   6
CONTINUOUS
  62
7
  10
 208.98381695389
  20
 335.08756527721
  30
0.0
  11
 227.98381695389
  21
 335.08756527721
  31
0.0
   0
LINE
   5
148
 100
AcDbEntity
   8
LEVEL001
 100
AcDbLine
   6
CONTINUOUS
  62
7
  10
 121.98381695389
  20
 304.08756527721
  30
0.0
  11
 193.98381695389
  21
 304.08756527721
  31
0.0
   0
ARC
   5
149
 100
AcDbEntity
   8
LEVEL001
   6
CONTINUOUS
  62
7
 100
AcDbCircle
  10
 193.98381695389
  20
 319.08756527721
  30
0.0
  40
 15.000000000000
 100
AcDbArc
  50
 270.00000000000
  51
0.0
   0
POINT
   5
14A
 100
AcDbEntity
   8
LEVEL001
 100
AcDbPoint
  62
7
  10
 208.98381695389
  20
 304.08756527721
  30
0.0
   0
LINE
   5
14B
 100
AcDbEntity
   8
LEVEL001
 100
AcDbLine
   6
CONTINUOUS
  62
7
  10
 208.98381695389
  20
 319.08756527721
  30
0.0
  11
 208.98381695389
  21
 335.08756527721
  31
0.0
   0
ARC
   5
14C
 100
AcDbEntity
   8
LEVEL001
   6
DASHDOT
  62
3
 100
AcDbCircle
  10
 193.98381695389
  20
 319.08756527721
  30
0.0
  40
 24.500000000000
 100
AcDbArc
  50
 270.00000000000
  51
0.0
   0
POINT
   5
14D
 100
AcDbEntity
   8
LEVEL001
 100
AcDbPoint
  62
3
  10
 218.48381695389
  20
 294.58756527721
  30
0.0
   0
LINE
   5
14E
 100
AcDbEntity
   8
LEVEL001
 100
AcDbLine
   6
DASHDOT
  62
3
  10
 193.98381695389
  20
 294.58756527721
  30
0.0
  11
 121.98381695389
  21
 294.58756527721
  31
0.0
   0
LINE
   5
14F
 100
AcDbEntity
   8
LEVEL001
 100
AcDbLine
   6
CONTINUOUS
  62
7
  10
 121.98381695389
  20
 285.08756527721
  30
0.0
  11
 193.98381695389
  21
 285.08756527721
  31
0.0
   0
ARC
   5
150
 100
AcDbEntity
   8
LEVEL001
   6
CONTINUOUS
  62
7
 100
AcDbCircle
  10
 193.98381695389
  20
 319.08756527721
  30
0.0
  40
 34.000000000000
 100
AcDbArc
  50
 270.00000000000
  51
 0.19158164669521E-12
   0
POINT
   5
151
 100
AcDbEntity
   8
LEVEL001
 100
AcDbPoint
  62
7
  10
 227.98381695389
  20
 285.08756527721
  30
0.0
   0
LINE
   5
152
 100
AcDbEntity
   8
LEVEL001
 100
AcDbLine
   6
CONTINUOUS
  62
7
  10
 227.98381695389
  20
 319.08756527721
  30
0.0
  11
 227.98381695389
  21
 335.08756527721
  31
0.0
   0
LINE
   5
153
 100
AcDbEntity
   8
LEVEL001
 100
AcDbLine
   6
DASHDOT
  62
3
  10
 218.48381695389
  20
 319.08756527721
  30
0.0
  11
 218.48381695389
  21
 341.95892947055
  31
0.0
   0
DIMENSION
   5
154
 100
AcDbEntity
   8
LEVEL001
   6
CONTINUOUS
  62
3
 100
AcDbDimension
   2
*D5
  10
 227.98381695389
  20
 258.90406221391
  30
0.0
  11
 157.98381695389
  21
 258.90406221391
  31
0.0
  70
0
   3
GMM002
 100
AcDbAlignedDimension
  13
 87.983816953887
  23
 285.08756527721
  33
0.0
  14
 227.98381695389
  24
 285.08756527721
  34
0.0
 100
AcDbRotatedDimension
   0
DIMENSION
   5
155
 100
AcDbEntity
   8
LEVEL001
   6
CONTINUOUS
  62
3
 100
AcDbDimension
   2
*D6
  10
 251.97032681381
  20
 285.08756527721
  30
0.0
  11
 251.97032681381
  21
 310.08756527721
  31
0.0
  70
0
   3
GMM002
 100
AcDbAlignedDimension
  13
 227.98381695389
  23
 335.08756527721
  33
0.0
  14
 227.98381695389
  24
 285.08756527721
  34
0.0
  50
 270.00000000000
 100
AcDbRotatedDimension
   0
ARC
   5
156
 100
AcDbEntity
   8
LEVEL001
   6
CONTINUOUS
  62
7
 100
AcDbCircle
  10
 97.483816953887
  20
 208.02193079834
  30
0.0
  40
 9.5000000000000
 100
AcDbArc
  50
 90.000000000000
  51
 270.00000000000
   0
ARC
   5
157
 100
AcDbEntity
   8
LEVEL001
   6
CONTINUOUS
  62
7
 100
AcDbCircle
  10
 97.483816953887
  20
 208.02193079834
  30
0.0
  40
 26.500000000000
 100
AcDbArc
  50
 21.007525419818
  51
 338.99247458018
   0
LINE
   5
158
 100
AcDbEntity
   8
LEVEL001
 100
AcDbLine
   6
DASHDOT
  62
3
  10
 97.483816953887
  20
 241.67936301948
  30
0.0
  11
 97.483816953887
  21
 175.09529222302
  31
0.0
   0
ARC
   5
159
 100
AcDbEntity
   8
LEVEL001
   6
CONTINUOUS
  62
14
 100
AcDbCircle
  10
 104.41889201381
  20
 132.37946366912
  30
0.0
  40
 6.0000000000000
 100
AcDbArc
  50
 90.000000000000
  51
 270.00000000000
   0
ARC
   5
15A
 100
AcDbEntity
   8
LEVEL001
   6
CONTINUOUS
  62
14
 100
AcDbCircle
  10
 197.82961036858
  20
 132.37946366912
  30
0.0
  40
 6.0000000000000
 100
AcDbArc
  50
 270.00000000000
  51
 90.000000000000
   0
LINE
   5
15B
 100
AcDbEntity
   8
LEVEL001
 100
AcDbLine
   6
CONTINUOUS
  62
14
  10
 104.41889201381
  20
 138.37946366912
  30
0.0
  11
 197.82961036858
  21
 138.37946366912
  31
0.0
   0
LINE
   5
15C
 100
AcDbEntity
   8
LEVEL001
 100
AcDbLine
   6
CONTINUOUS
  62
14
  10
 104.41889201381
  20
 126.37946366912
  30
0.0
  11
 197.82961036858
  21
 126.37946366912
  31
0.0
   0
TEXT
   5
15D
 100
AcDbEntity
   8
LEVEL001
  62
14
 100
AcDbText
  10
 102.80855634647
  20
 128.81765140852
  30
0.0
  40
 6.7500000000000
   1
５００－０３０　ＬＨ８１０１
   7
STANDARD
 100
AcDbText
   0
ARC
   5
15E
 100
AcDbEntity
   8
LEVEL001
   6
CONTINUOUS
  62
14
 100
AcDbCircle
  10
 325.72167754567
  20
 132.37946366912
  30
0.0
  40
 6.0000000000000
 100
AcDbArc
  50
 90.000000000000
  51
 270.00000000000
   0
ARC
   5
15F
 100
AcDbEntity
   8
LEVEL001
   6
CONTINUOUS
  62
14
 100
AcDbCircle
  10
 419.13239590044
  20
 132.37946366912
  30
0.0
  40
 6.0000000000000
 100
AcDbArc
  50
 270.00000000000
  51
 90.000000000000
   0
LINE
   5
160
 100
AcDbEntity
   8
LEVEL001
 100
AcDbLine
   6
CONTINUOUS
  62
14
  10
 325.72167754567
  20
 138.37946366912
  30
0.0
  11
 419.13239590044
  21
 138.37946366912
  31
0.0
   0
LINE
   5
161
 100
AcDbEntity
   8
LEVEL001
 100
AcDbLine
   6
CONTINUOUS
  62
14
  10
 325.72167754567
  20
 126.37946366912
  30
0.0
  11
 419.13239590044
  21
 126.37946366912
  31
0.0
   0
TEXT
   5
162
 100
AcDbEntity
   8
LEVEL001
  62
14
 100
AcDbText
  10
 324.11134187833
  20
 128.81765140852
  30
0.0
  40
 6.7500000000000
   1
５００－０３１　ＬＨ８１０３
   7
STANDARD
 100
AcDbText
   0
ARC
   5
163
 100
AcDbEntity
   8
LEVEL001
   6
CONTINUOUS
  62
7
 100
AcDbCircle
  10
 318.78660248575
  20
 208.02193079834
  30
0.0
  40
 9.5000000000000
 100
AcDbArc
  50
 90.000000000000
  51
 270.00000000000
   0
ARC
   5
164
 100
AcDbEntity
   8
LEVEL001
   6
CONTINUOUS
  62
7
 100
AcDbCircle
  10
 318.78660248575
  20
 208.02193079834
  30
0.0
  40
 26.500000000000
 100
AcDbArc
  50
 21.007525419818
  51
 338.99247458018
   0
LINE
   5
165
 100
AcDbEntity
   8
LEVEL001
 100
AcDbLine
   6
DASHDOT
  62
3
  10
 318.78660248575
  20
 241.67936301948
  30
0.0
  11
 318.78660248575
  21
 175.09529222302
  31
0.0
   0
LINE
   5
166
 100
AcDbEntity
   8
LEVEL001
 100
AcDbLine
   6
DASHDOT
  62
3
  10
 445.25336594819
  20
 208.02193079834
  30
0.0
  11
 285.38224703450
  21
 208.02193079834
  31
0.0
   0
LINE
   5
167
 100
AcDbEntity
   8
LEVEL001
 100
AcDbLine
   6
CONTINUOUS
  62
7
  10
 318.78660248575
  20
 217.52193079834
  30
0.0
  11
 439.28660248575
  21
 217.52193079834
  31
0.0
   0
LINE
   5
168
 100
AcDbEntity
   8
LEVEL001
 100
AcDbLine
   6
CONTINUOUS
  62
7
  10
 318.78660248575
  20
 198.52193079834
  30
0.0
  11
 439.28660248575
  21
 198.52193079834
  31
0.0
   0
LINE
   5
169
 100
AcDbEntity
   8
LEVEL001
 100
AcDbLine
   6
CONTINUOUS
  62
7
  10
 439.28660248575
  20
 217.52193079834
  30
0.0
  11
 439.28660248575
  21
 198.52193079834
  31
0.0
   0
LINE
   5
16A
 100
AcDbEntity
   8
LEVEL001
 100
AcDbLine
   6
DASHDOT
  62
3
  10
 541.40682580345
  20
 241.67936301948
  30
0.0
  11
 541.40682580345
  21
 175.09529222302
  31
0.0
   0
CIRCLE
   5
16B
 100
AcDbEntity
   8
LEVEL001
 100
AcDbCircle
   6
CONTINUOUS
  62
7
  10
 541.40682580345
  20
 208.02193079834
  30
0.0
  40
 26.500000000000
   0
LINE
   5
16C
 100
AcDbEntity
   8
LEVEL001
 100
AcDbLine
   6
DASHDOT
  62
3
  10
 575.37614811365
  20
 208.02193079834
  30
0.0
  11
 508.00247035220
  21
 208.02193079834
  31
0.0
   0
LINE
   5
16D
 100
AcDbEntity
   8
LEVEL001
 100
AcDbLine
   6
DASHDOT
  62
3
  10
 530.16062754931
  20
 215.52193079834
  30
0.0
  11
 552.21576539393
  21
 215.52193079834
  31
0.0
   0
LINE
   5
16E
 100
AcDbEntity
   8
LEVEL001
 100
AcDbLine
   6
CONTINUOUS
  62
7
  10
 97.483816953887
  20
 198.52193079834
  30
0.0
  11
 218.48381695389
  21
 198.52193079834
  31
0.0
   0
LINE
   5
16F
 100
AcDbEntity
   8
LEVEL001
 100
AcDbLine
   6
CONTINUOUS
  62
7
  10
 97.483816953887
  20
 217.52193079834
  30
0.0
  11
 218.48381695389
  21
 217.52193079834
  31
0.0
   0
ARC
   5
170
 100
AcDbEntity
   8
LEVEL001
   6
CONTINUOUS
  62
7
 100
AcDbCircle
  10
 218.48381695389
  20
 208.02193079834
  30
0.0
  40
 9.5000000000000
 100
AcDbArc
  50
 270.00000000000
  51
 90.000000000000
   0
LINE
   5
171
 100
AcDbEntity
   8
LEVEL001
 100
AcDbLine
   6
DASHDOT
  62
3
  10
 233.95058041632
  20
 208.02193079834
  30
0.0
  11
 64.079461502633
  21
 208.02193079834
  31
0.0
   0
LINE
   5
172
 100
AcDbEntity
   8
LEVEL001
 100
AcDbLine
   6
DASHDOT
  62
3
  10
 218.48381695389
  20
 194.67783076394
  30
0.0
  11
 218.48381695389
  21
 221.93446793208
  31
0.0
   0
LINE
   5
173
 100
AcDbEntity
   8
LEVEL001
 100
AcDbLine
   6
CONTINUOUS
  62
7
  10
 514.90682580345
  20
 269.64400700460
  30
0.0
  11
 567.90682580345
  21
 269.64400700460
  31
0.0
   0
LINE
   5
174
 100
AcDbEntity
   8
LEVEL001
 100
AcDbLine
   6
CONTINUOUS
  62
7
  10
 514.90682580345
  20
 261.64400700460
  30
0.0
  11
 567.90682580345
  21
 261.64400700460
  31
0.0
   0
LINE
   5
175
 100
AcDbEntity
   8
LEVEL001
 100
AcDbLine
   6
CONTINUOUS
  62
7
  10
 567.90682580345
  20
 261.64400700460
  30
0.0
  11
 567.90682580345
  21
 269.64400700460
  31
0.0
   0
LINE
   5
176
 100
AcDbEntity
   8
LEVEL001
 100
AcDbLine
   6
CONTINUOUS
  62
7
  10
 514.90682580345
  20
 261.64400700460
  30
0.0
  11
 514.90682580345
  21
 269.64400700460
  31
0.0
   0
LINE
   5
177
 100
AcDbEntity
   8
LEVEL001
 100
AcDbLine
   6
DASHDOT
  62
3
  10
 541.40682580345
  20
 251.36848869571
  30
0.0
  11
 541.40682580345
  21
 281.67773851590
  31
0.0
   0
DIMENSION
   5
178
 100
AcDbEntity
   8
LEVEL001
   6
CONTINUOUS
  62
3
 100
AcDbDimension
   2
*D7
  10
 227.98381695389
  20
 348.55892947055
  30
0.0
  11
 218.48381695389
  21
 348.55892947055
  31
0.0
  70
0
   3
GMM001
 100
AcDbAlignedDimension
  13
 208.98381695389
  23
 335.08756527721
  33
0.0
  14
 227.98381695389
  24
 335.08756527721
  34
0.0
 100
AcDbRotatedDimension
   0
DIMENSION
   5
179
 100
AcDbEntity
   8
LEVEL001
   6
CONTINUOUS
  62
3
 100
AcDbDimension
   2
*D8
  10
 251.97032681381
  20
 198.52193079834
  30
0.0
  11
 251.97032681381
  21
 208.02193079834
  31
0.0
  70
0
   3
GMM001
 100
AcDbAlignedDimension
  13
 218.48381695389
  23
 217.52193079834
  33
0.0
  14
 218.48381695389
  24
 198.52193079834
  34
0.0
  50
 270.00000000000
 100
AcDbRotatedDimension
   0
DIMENSION
   5
17A
 100
AcDbEntity
   8
LEVEL001
   6
CONTINUOUS
  62
3
 100
AcDbDimension
   2
*D9
  10
 280.52974951380
  20
 345.08756527721
  30
0.0
  11
 280.52974951380
  21
 349.08756527721
  31
0.0
  70
0
   3
GMM002
 100
AcDbAlignedDimension
  13
 292.28660248575
  23
 353.08756527721
  33
0.0
  14
 292.28660248575
  24
 345.08756527721
  34
0.0
  50
 270.00000000000
 100
AcDbRotatedDimension
   0
DIMENSION
   5
17B
 100
AcDbEntity
   8
LEVEL001
   6
CONTINUOUS
  62
3
 100
AcDbDimension
   2
*D10
  10
 280.52974951380
  20
 285.08756527721
  30
0.0
  11
 280.52974951380
  21
 315.08756527721
  31
0.0
  70
0
   3
GMM002
 100
AcDbAlignedDimension
  13
 280.52974951380
  23
 345.08756527721
  33
0.0
  14
 309.28660248575
  24
 285.08756527721
  34
0.0
  50
 270.00000000000
 100
AcDbRotatedDimension
   0
DIMENSION
   5
17C
 100
AcDbEntity
   8
LEVEL001
   6
CONTINUOUS
  62
3
 100
AcDbDimension
   2
*D11
  10
 439.28660248575
  20
 258.90406221391
  30
0.0
  11
 374.28660248575
  21
 258.90406221391
  31
0.0
  70
0
   3
GMM002
 100
AcDbAlignedDimension
  13
 309.28660248575
  23
 285.08756527721
  33
0.0
  14
 439.28660248575
  24
 285.08756527721
  34
0.0
 100
AcDbRotatedDimension
   0
DIMENSION
   5
17D
 100
AcDbEntity
   8
LEVEL001
   6
CONTINUOUS
  62
3
 100
AcDbDimension
   2
*D12
  10
 459.67800908964
  20
 285.08756527721
  30
0.0
  11
 459.67800908964
  21
 294.58756527721
  31
0.0
  70
0
   3
GMM001
 100
AcDbAlignedDimension
  13
 439.28660248575
  23
 304.08756527721
  33
0.0
  14
 439.28660248575
  24
 285.08756527721
  34
0.0
  50
 270.00000000000
 100
AcDbRotatedDimension
   0
DIMENSION
   5
17E
 100
AcDbEntity
   8
LEVEL001
   6
CONTINUOUS
  62
3
 100
AcDbDimension
   2
*D13
  10
 499.53481106735
  20
 261.64400700460
  30
0.0
  11
 499.53481106735
  21
 265.64400700460
  31
0.0
  70
0
   3
GMM002
 100
AcDbAlignedDimension
  13
 514.90682580345
  23
 269.64400700460
  33
0.0
  14
 514.90682580345
  24
 261.64400700460
  34
0.0
  50
 270.00000000000
 100
AcDbRotatedDimension
   0
DIMENSION
   5
17F
 100
AcDbEntity
   8
LEVEL001
   6
CONTINUOUS
  62
3
 100
AcDbDimension
   2
*D14
  10
 567.90682580345
  20
 287.53601755961
  30
0.0
  11
 541.40682580345
  21
 287.53601755961
  31
0.0
  70
0
   3
GMM001
 100
AcDbAlignedDimension
  13
 514.90682580345
  23
 269.64400700460
  33
0.0
  14
 567.90682580345
  24
 269.64400700460
  34
0.0
 100
AcDbRotatedDimension
   0
ARC
   5
180
 100
AcDbEntity
   8
LEVEL001
   6
CONTINUOUS
  62
14
 100
AcDbCircle
  10
 518.02698728021
  20
 132.37946366912
  30
0.0
  40
 6.0000000000000
 100
AcDbArc
  50
 90.000000000000
  51
 270.00000000000
   0
TEXT
   5
181
 100
AcDbEntity
   8
LEVEL001
  62
14
 100
AcDbText
  10
 516.41665161287
  20
 128.81765140852
  30
0.0
  40
 6.7500000000000
   1
エスカッション
   7
STANDARD
 100
AcDbText
   0
ARC
   5
182
 100
AcDbEntity
   8
LEVEL001
   6
CONTINUOUS
  62
14
 100
AcDbCircle
  10
 564.47841359957
  20
 132.37946366912
  30
0.0
  40
 6.0000000000000
 100
AcDbArc
  50
 270.00000000000
  51
 90.000000000000
   0
LINE
   5
183
 100
AcDbEntity
   8
LEVEL001
 100
AcDbLine
   6
CONTINUOUS
  62
14
  10
 518.02698728021
  20
 138.37946366912
  30
0.0
  11
 564.47841359957
  21
 138.37946366912
  31
0.0
   0
LINE
   5
184
 100
AcDbEntity
   8
LEVEL001
 100
AcDbLine
   6
CONTINUOUS
  62
14
  10
 518.02698728021
  20
 126.37946366912
  30
0.0
  11
 564.47841359957
  21
 126.37946366912
  31
0.0
   0
ARC
   5
185
 100
AcDbEntity
   8
LEVEL001
   6
CONTINUOUS
  62
7
 100
AcDbCircle
  10
 541.40682580345
  20
 215.52193079834
  30
0.0
  40
 8.6000000000000
 100
AcDbArc
  50
 306.37184240993
  51
 233.62815759007
   0
LINE
   5
186
 100
AcDbEntity
   8
LEVEL001
 100
AcDbLine
   6
CONTINUOUS
  62
7
  10
 536.30682580345
  20
 208.59733694743
  30
0.0
  11
 536.30682580345
  21
 196.02193079834
  31
0.0
   0
ARC
   5
187
 100
AcDbEntity
   8
LEVEL001
   6
CONTINUOUS
  62
7
 100
AcDbCircle
  10
 541.40682580345
  20
 196.02193079834
  30
0.0
  40
 5.1000000000000
 100
AcDbArc
  50
 180.00000000000
  51
0.0
   0
LINE
   5
188
 100
AcDbEntity
   8
LEVEL001
 100
AcDbLine
   6
CONTINUOUS
  62
7
  10
 546.50682580345
  20
 208.59733694743
  30
0.0
  11
 546.50682580345
  21
 196.02193079834
  31
0.0
   0
ENDSEC
  0
SECTION
  2
OBJECTS
  0
DICTIONARY
  5
C
100
AcDbDictionary
  3
ACAD_GROUP
350
D
  3
ACAD_MLINESTYLE
350
1B
  0
DICTIONARY
  5
D
102
{ACAD_REACTORS
330
C
102
}
100
AcDbDictionary
  0
DICTIONARY
  5
1B
102
{ACAD_REACTORS
330
C
102
}
100
AcDbDictionary
  3
STANDARD
350
1C
  0
MLINESTYLE
  5
1C
102
{ACAD_REACTORS
330
1B
102
}
100
AcDbMlineStyle
  2
STANDARD
 70
     0
  3

 62
   256
 51
90.0
 52
90.0
 71
     2
 49
0.5
 62
   256
  6
BYLAYER
 49
-0.5
 62
   256
  6
BYLAYER
  0
ENDSEC
   0
EOF
