   0
SECTION
   2
HEADER
   9
$ACADVER
   1
AC1015
   9
$LIMMIN
  10
0.0
  20
0.0
   9
$LIMMAX
  10
 420.00000000000
  20
 297.00000000000
   9
$EXTMIN
  10
0.0
  20
0.0
  30
0.0
   9
$EXTMAX
  10
 420.00000000000
  20
 297.00000000000
  30
0.0
   9
$LTSCALE
  40
 8.4000000000000
   9
$HANDSEED
   5
476
   0
ENDSEC
   0
SECTION
   2
TABLES
  0
TABLE
  2
VPORT
  5
8
100
AcDbSymbolTable
 70
     1
  0
VPORT
  5
475
100
AcDbSymbolTableRecord
100
AcDbViewportTableRecord
  2
*ACTIVE
 70
     0
 10
0.0
 20
0.0
 11
1.0
 21
1.0
  12
 210.00000000000
  22
 148.50000000000
 13
0.0
 23
0.0
 14
1.0
 24
1.0
 15
0.0
 25
0.0
 16
0.0
 26
0.0
 36
1.0
 17
0.0
 27
0.0
 37
0.0
  40
 420.00000000000
  41
 1.4787878787879
 42
50.0
 43
0.0
 44
0.0
 50
0.0
 51
0.0
 71
     0
 72
   100
 73
     1
 74
     1
 75
     0
 76
     0
 77
     0
 78
     0
  0
ENDTAB
  0
TABLE
  2
LTYPE
  5
5
100
AcDbSymbolTable
 70
    25
  0
LTYPE
  5
12
100
AcDbSymbolTableRecord
100
AcDbLinetypeTableRecord
  2
BYBLOCK
 70
     0
  3

 72
    65
 73
     0
 40
0.0
  0
LTYPE
  5
13
100
AcDbSymbolTableRecord
100
AcDbLinetypeTableRecord
  2
BYLAYER
 70
     0
  3

 72
    65
 73
     0
 40
0.0
  0
LTYPE
  5
14
100
AcDbSymbolTableRecord
100
AcDbLinetypeTableRecord
  2
CONTINUOUS
 70
     0
  3
Solid line
 72
    65
 73
     0
 40
0.0
  0
LTYPE
  5
20
100
AcDbSymbolTableRecord
100
AcDbLinetypeTableRecord
  2
BORDER
 70
     0
  3
__ __ . __ __ . __ __ . __ __ . __ __ . __ __ .
 72
    65
 73
     6
 40
1.75
 49
0.5
 74
     0
 49
-0.25
 74
     0
 49
0.5
 74
     0
 49
-0.25
 74
     0
 49
0.0
 74
     0
 49
-0.25
 74
     0
  0
LTYPE
  5
21
100
AcDbSymbolTableRecord
100
AcDbLinetypeTableRecord
  2
BORDER2
 70
     0
  3
__.__.__.__.__.__.__.__.__.__.__.__.__.__.__.__
 72
    65
 73
     6
 40
0.875
 49
0.25
 74
     0
 49
-0.125
 74
     0
 49
0.25
 74
     0
 49
-0.125
 74
     0
 49
0.0
 74
     0
 49
-0.125
 74
     0
  0
LTYPE
  5
22
100
AcDbSymbolTableRecord
100
AcDbLinetypeTableRecord
  2
BORDERX2
 70
     0
  3
____  ____  .  ____  ____  .  ____  ____  .  __
 72
    65
 73
     6
 40
3.5
 49
1.0
 74
     0
 49
-0.5
 74
     0
 49
1.0
 74
     0
 49
-0.5
 74
     0
 49
0.0
 74
     0
 49
-0.5
 74
     0
  0
LTYPE
  5
23
100
AcDbSymbolTableRecord
100
AcDbLinetypeTableRecord
  2
CENTER
 70
     0
  3
____ _ ____ _ ____ _ ____ _ ____ _ ____ _ ____ 
 72
    65
 73
     4
 40
2.0
 49
1.25
 74
     0
 49
-0.25
 74
     0
 49
0.25
 74
     0
 49
-0.25
 74
     0
  0
LTYPE
  5
24
100
AcDbSymbolTableRecord
100
AcDbLinetypeTableRecord
  2
CENTER2
 70
     0
  3
___ _ ___ _ ___ _ ___ _ ___ _ ___ _ ___ _ ___ _
 72
    65
 73
     4
 40
1.125
 49
0.75
 74
     0
 49
-0.125
 74
     0
 49
0.125
 74
     0
 49
-0.125
 74
     0
  0
LTYPE
  5
25
100
AcDbSymbolTableRecord
100
AcDbLinetypeTableRecord
  2
CENTERX2
 70
     0
  3
________  __  ________  __  ________  __  _____
 72
    65
 73
     4
 40
4.0
 49
2.5
 74
     0
 49
-0.5
 74
     0
 49
0.5
 74
     0
 49
-0.5
 74
     0
  0
LTYPE
  5
26
100
AcDbSymbolTableRecord
100
AcDbLinetypeTableRecord
  2
DASHDOT
 70
     0
  3
__ . __ . __ . __ . __ . __ . __ . __ . __ . __
 72
    65
 73
     4
 40
1.0
 49
0.5
 74
     0
 49
-0.25
 74
     0
 49
0.0
 74
     0
 49
-0.25
 74
     0
  0
LTYPE
  5
27
100
AcDbSymbolTableRecord
100
AcDbLinetypeTableRecord
  2
DASHDOT2
 70
     0
  3
_._._._._._._._._._._._._._._._._._._._._._._._
 72
    65
 73
     4
 40
0.5
 49
0.25
 74
     0
 49
-0.125
 74
     0
 49
0.0
 74
     0
 49
-0.125
 74
     0
  0
LTYPE
  5
28
100
AcDbSymbolTableRecord
100
AcDbLinetypeTableRecord
  2
DASHDOTX2
 70
     0
  3
____  .  ____  .  ____  .  ____  .  ____  .  __
 72
    65
 73
     4
 40
2.0
 49
1.0
 74
     0
 49
-0.5
 74
     0
 49
0.0
 74
     0
 49
-0.5
 74
     0
  0
LTYPE
  5
29
100
AcDbSymbolTableRecord
100
AcDbLinetypeTableRecord
  2
DASHED
 70
     0
  3
__ __ __ __ __ __ __ __ __ __ __ __ __ __ __ __
 72
    65
 73
     2
 40
0.75
 49
0.5
 74
     0
 49
-0.25
 74
     0
  0
LTYPE
  5
2A
100
AcDbSymbolTableRecord
100
AcDbLinetypeTableRecord
  2
DASHED2
 70
     0
  3
_ _ _ _ _ _ _ _ _ _ _ _ _ _ _ _ _ _ _ _ _ _ _ _
 72
    65
 73
     2
 40
0.375
 49
0.25
 74
     0
 49
-0.125
 74
     0
  0
LTYPE
  5
2B
100
AcDbSymbolTableRecord
100
AcDbLinetypeTableRecord
  2
DASHEDX2
 70
     0
  3
____  ____  ____  ____  ____  ____  ____  ____ 
 72
    65
 73
     2
 40
1.5
 49
1.0
 74
     0
 49
-0.5
 74
     0
  0
LTYPE
  5
2C
100
AcDbSymbolTableRecord
100
AcDbLinetypeTableRecord
  2
DIVIDE
 70
     0
  3
____ . . ____ . . ____ . . ____ . . ____ . . __
 72
    65
 73
     6
 40
1.25
 49
0.5
 74
     0
 49
-0.25
 74
     0
 49
0.0
 74
     0
 49
-0.25
 74
     0
 49
0.0
 74
     0
 49
-0.25
 74
     0
  0
LTYPE
  5
2D
100
AcDbSymbolTableRecord
100
AcDbLinetypeTableRecord
  2
DIVIDE2
 70
     0
  3
__..__..__..__..__..__..__..__..__..__..__..__.
 72
    65
 73
     6
 40
0.625
 49
0.25
 74
     0
 49
-0.125
 74
     0
 49
0.0
 74
     0
 49
-0.125
 74
     0
 49
0.0
 74
     0
 49
-0.125
 74
     0
  0
LTYPE
  5
2E
100
AcDbSymbolTableRecord
100
AcDbLinetypeTableRecord
  2
DIVIDEX2
 70
     0
  3
________  .  .  ________  .  .  ________  .  . 
 72
    65
 73
     6
 40
2.5
 49
1.0
 74
     0
 49
-0.5
 74
     0
 49
0.0
 74
     0
 49
-0.5
 74
     0
 49
0.0
 74
     0
 49
-0.5
 74
     0
  0
LTYPE
  5
2F
100
AcDbSymbolTableRecord
100
AcDbLinetypeTableRecord
  2
DOT
 70
     0
  3
. . . . . . . . . . . . . . . . . . . . . . . .
 72
    65
 73
     2
 40
0.25
 49
0.0
 74
     0
 49
-0.25
 74
     0
  0
LTYPE
  5
30
100
AcDbSymbolTableRecord
100
AcDbLinetypeTableRecord
  2
DOT2
 70
     0
  3
...............................................
 72
    65
 73
     2
 40
0.125
 49
0.0
 74
     0
 49
-0.125
 74
     0
  0
LTYPE
  5
31
100
AcDbSymbolTableRecord
100
AcDbLinetypeTableRecord
  2
DOTX2
 70
     0
  3
.  .  .  .  .  .  .  .  .  .  .  .  .  .  .  . 
 72
    65
 73
     2
 40
0.5
 49
0.0
 74
     0
 49
-0.5
 74
     0
  0
LTYPE
  5
32
100
AcDbSymbolTableRecord
100
AcDbLinetypeTableRecord
  2
HIDDEN
 70
     0
  3
__ __ __ __ __ __ __ __ __ __ __ __ __ __ __ __
 72
    65
 73
     2
 40
0.375
 49
0.25
 74
     0
 49
-0.125
 74
     0
  0
LTYPE
  5
33
100
AcDbSymbolTableRecord
100
AcDbLinetypeTableRecord
  2
HIDDEN2
 70
     0
  3
_ _ _ _ _ _ _ _ _ _ _ _ _ _ _ _ _ _ _ _ _ _ _ _
 72
    65
 73
     2
 40
0.1875
 49
0.125
 74
     0
 49
-0.0625
 74
     0
  0
LTYPE
  5
34
100
AcDbSymbolTableRecord
100
AcDbLinetypeTableRecord
  2
HIDDENX2
 70
     0
  3
____ ____ ____ ____ ____ ____ ____ ____ ____ __
 72
    65
 73
     2
 40
0.75
 49
0.5
 74
     0
 49
-0.25
 74
     0
  0
LTYPE
  5
35
100
AcDbSymbolTableRecord
100
AcDbLinetypeTableRecord
  2
PHANTOM
 70
     0
  3
______  __  __  ______  __  __  ______  __  __ 
 72
    65
 73
     6
 40
2.5
 49
1.25
 74
     0
 49
-0.25
 74
     0
 49
0.25
 74
     0
 49
-0.25
 74
     0
 49
0.25
 74
     0
 49
-0.25
 74
     0
  0
LTYPE
  5
36
100
AcDbSymbolTableRecord
100
AcDbLinetypeTableRecord
  2
PHANTOM2
 70
     0
  3
___ _ _ ___ _ _ ___ _ _ ___ _ _ ___ _ _ ___ _ _
 72
    65
 73
     6
 40
1.25
 49
0.625
 74
     0
 49
-0.125
 74
     0
 49
0.125
 74
     0
 49
-0.125
 74
     0
 49
0.125
 74
     0
 49
-0.125
 74
     0
  0
LTYPE
  5
37
100
AcDbSymbolTableRecord
100
AcDbLinetypeTableRecord
  2
PHANTOMX2
 70
     0
  3
____________    ____    ____    ____________   
 72
    65
 73
     6
 40
5.0
 49
2.5
 74
     0
 49
-0.5
 74
     0
 49
0.5
 74
     0
 49
-0.5
 74
     0
 49
0.5
 74
     0
 49
-0.5
 74
     0
  0
ENDTAB
   0
TABLE
   2
LAYER
   5
2
 100
AcDbSymbolTable
  70
2
   0
LAYER
   5
E
 100
AcDbSymbolTableRecord
 100
AcDbLayerTableRecord
   2
0
  70
0
  62
7
   6
CONTINUOUS
 390
30
   0
LAYER
   5
39
 100
AcDbSymbolTableRecord
 100
AcDbLayerTableRecord
   2
LEVEL001
  70
0
  62
7
   6
CONTINUOUS
 390
30
   0
ENDTAB
  0
TABLE
  2
STYLE
  5
3
100
AcDbSymbolTable
  70
3
  0
STYLE
  5
F
100
AcDbSymbolTableRecord
100
AcDbTextStyleTableRecord
  2
STANDARD
 70
     0
 40
0.0
 41
1.0
 50
0.0
 71
     0
 42
0.2
  3
TXT
  4
BIGFONT
  0
STYLE
  5
38
100
AcDbSymbolTableRecord
100
AcDbTextStyleTableRecord
  2
STANDARD1
 70
     4
 40
0.0
 41
1.0
 50
0.0
 71
     0
 42
0.2
  3
TXT
  4
BIGFONT
   0
STYLE
   5
3A
 100
AcDbSymbolTableRecord
 100
AcDbTextStyleTableRecord
   2
GMM001
  70
0
  40
0.0
  41
 0.95000000000000
  50
0.0
  71
     0
  42
1.0
   3
txt.shx
   4
bigfont.shx
   0
ENDTAB
  0
TABLE
  2
VIEW
  5
6
100
AcDbSymbolTable
 70
     0
  0
ENDTAB
  0
TABLE
  2
UCS
  5
7
100
AcDbSymbolTable
 70
     0
  0
ENDTAB
  0
TABLE
  2
APPID
  5
9
100
AcDbSymbolTable
 70
     1
  0
APPID
  5
10
100
AcDbSymbolTableRecord
100
AcDbRegAppTableRecord
  2
ACAD
 70
     0
  0
ENDTAB
   0
TABLE
   2
DIMSTYLE
   5
A
 100
AcDbSymbolTable
  70
6
 100
AcDbDimStyleTable
  0
DIMSTYLE
105
1D
100
AcDbSymbolTableRecord
100
AcDbDimStyleTableRecord
  2
STANDARD
 70
     0
  3

  4

  5

  6

  7

 40
1.0
 41
0.18
 42
0.0625
 43
0.38
 44
0.18
 45
0.0
 46
0.0
 47
0.0
 48
0.0
140
0.18
141
0.09
142
0.0
143
25.4
144
1.0
145
0.0
146
1.0
147
0.09
 71
     0
 72
     0
 73
     1
 74
     1
 75
     0
 76
     0
 77
     0
 78
     0
170
     0
171
     2
172
     0
173
     0
174
     0
175
     0
176
     0
177
     0
178
     0
270
     2
271
     4
272
     4
273
     2
274
     2
340
F
275
     0
280
     0
281
     0
282
     0
283
     1
284
     0
285
     0
286
     0
287
     3
288
     0
   0
DIMSTYLE
 105
3B
 100
AcDbSymbolTableRecord
 100
AcDbDimStyleTableRecord
   2
GMM001
  70
0
   3

   4

   5

   6
_OPEN30
   7
_OPEN30
  40
 1.0000000000000
  41
 3.0000000000000
  42
 0.50000000000000
  43
 8.0000000000000
  44
 1.0000000000000
  45
0.0
  46
0.0
  47
0.0
  48
0.0
 140
 4.0000000000000
 141
 1.0000000000000
 142
0.0
 143
 0.39400000000000E-1
 144
 1.0000000000000
 145
0.0
 146
 0.62500000000000
 147
 1.7142857142857
  71
0
  72
0
  73
0
  74
0
  75
0
  76
0
  77
3
  78
8
 170
0
 171
2
 172
1
 173
1
 174
0
 175
0
 176
3
 177
3
 178
3
 270
2
 271
6
 272
0
 273
2
 274
2
 340
3A
 275
0
 280
0
 281
0
 282
0
 283
1
 284
0
 285
0
 286
0
 287
3
 288
0
   0
DIMSTYLE
 105
3C
 100
AcDbSymbolTableRecord
 100
AcDbDimStyleTableRecord
   2
GMM002
  70
0
   3

   4

   5

   6
_OPEN30
   7
_OPEN30
  40
 1.0000000000000
  41
 3.0000000000000
  42
 0.50000000000000
  43
 8.0000000000000
  44
 1.0000000000000
  45
0.0
  46
0.0
  47
0.0
  48
0.0
 140
 4.0000000000000
 141
 1.0000000000000
 142
0.0
 143
 0.39400000000000E-1
 144
 1.0000000000000
 145
0.0
 146
 0.62500000000000
 147
 1.7142857142857
  71
0
  72
0
  73
0
  74
0
  75
0
  76
0
  77
3
  78
8
 170
0
 171
2
 172
1
 173
1
 174
0
 175
0
 176
3
 177
3
 178
3
 270
2
 271
6
 272
0
 273
2
 274
2
 340
3A
 275
0
 280
0
 281
0
 282
0
 283
1
 284
0
 285
0
 286
0
 287
3
 288
1
   0
DIMSTYLE
 105
3D
 100
AcDbSymbolTableRecord
 100
AcDbDimStyleTableRecord
   2
GMM003
  70
0
   3

   4

   5

   6
_OPEN30
   7
_OPEN30
  40
 1.0000000000000
  41
 3.0000000000000
  42
 0.50000000000000
  43
 8.0000000000000
  44
 1.0000000000000
  45
0.0
  46
0.0
  47
0.0
  48
0.0
 140
 4.0000000000000
 141
 1.0000000000000
 142
0.0
 143
 0.39400000000000E-1
 144
 1.0000000000000
 145
0.0
 146
 0.62500000000000
 147
 1.7142857142857
  71
0
  72
0
  73
0
  74
0
  75
0
  76
0
  77
3
  78
8
 170
0
 171
2
 172
1
 173
1
 174
0
 175
0
 176
3
 177
3
 178
3
 270
2
 271
6
 272
0
 273
2
 274
2
 340
3A
 275
0
 280
0
 281
0
 282
0
 283
1
 284
0
 285
0
 286
0
 287
3
 288
1
   0
DIMSTYLE
 105
3E
 100
AcDbSymbolTableRecord
 100
AcDbDimStyleTableRecord
   2
GMM004
  70
0
   3
R<>
   4

   5

   6
_NONE
   7
_OPEN30
  40
 1.0000000000000
  41
 3.0000000000000
  42
 0.50000000000000
  43
 8.0000000000000
  44
 1.0000000000000
  45
0.0
  46
0.0
  47
0.0
  48
0.0
 140
 4.0000000000000
 141
 1.0000000000000
 142
0.0
 143
 0.39400000000000E-1
 144
 1.0000000000000
 145
0.0
 146
 0.62500000000000
 147
 1.7142857142857
  71
0
  72
0
  73
0
  74
0
  75
0
  76
0
  77
3
  78
8
 170
0
 171
2
 172
1
 173
1
 174
0
 175
0
 176
3
 177
3
 178
3
 270
2
 271
6
 272
0
 273
2
 274
2
 340
3A
 275
0
 280
0
 281
0
 282
0
 283
1
 284
0
 285
0
 286
0
 287
3
 288
1
   0
ENDTAB
  0
TABLE
  2
BLOCK_RECORD
  5
1
100
AcDbSymbolTable
 70
     0
  0
BLOCK_RECORD
  5
18
100
AcDbSymbolTableRecord
100
AcDbBlockTableRecord
  2
*MODEL_SPACE
  0
BLOCK_RECORD
  5
15
100
AcDbSymbolTableRecord
100
AcDbBlockTableRecord
  2
*PAPER_SPACE
   0
BLOCK_RECORD
   5
3F
 100
AcDbSymbolTableRecord
 100
AcDbBlockTableRecord
   2
*D1
   0
BLOCK_RECORD
   5
40
 100
AcDbSymbolTableRecord
 100
AcDbBlockTableRecord
   2
*D2
   0
BLOCK_RECORD
   5
41
 100
AcDbSymbolTableRecord
 100
AcDbBlockTableRecord
   2
*D3
   0
BLOCK_RECORD
   5
42
 100
AcDbSymbolTableRecord
 100
AcDbBlockTableRecord
   2
*D4
   0
BLOCK_RECORD
   5
43
 100
AcDbSymbolTableRecord
 100
AcDbBlockTableRecord
   2
*D5
   0
BLOCK_RECORD
   5
44
 100
AcDbSymbolTableRecord
 100
AcDbBlockTableRecord
   2
*D6
   0
BLOCK_RECORD
   5
45
 100
AcDbSymbolTableRecord
 100
AcDbBlockTableRecord
   2
*D7
   0
BLOCK_RECORD
   5
46
 100
AcDbSymbolTableRecord
 100
AcDbBlockTableRecord
   2
*D8
   0
BLOCK_RECORD
   5
47
 100
AcDbSymbolTableRecord
 100
AcDbBlockTableRecord
   2
*D9
   0
BLOCK_RECORD
   5
48
 100
AcDbSymbolTableRecord
 100
AcDbBlockTableRecord
   2
*D10
   0
BLOCK_RECORD
   5
49
 100
AcDbSymbolTableRecord
 100
AcDbBlockTableRecord
   2
*D11
   0
BLOCK_RECORD
   5
4A
 100
AcDbSymbolTableRecord
 100
AcDbBlockTableRecord
   2
*D12
   0
BLOCK_RECORD
   5
4B
 100
AcDbSymbolTableRecord
 100
AcDbBlockTableRecord
   2
*D13
   0
BLOCK_RECORD
   5
4C
 100
AcDbSymbolTableRecord
 100
AcDbBlockTableRecord
   2
*D14
   0
BLOCK_RECORD
   5
4D
 100
AcDbSymbolTableRecord
 100
AcDbBlockTableRecord
   2
*D15
   0
BLOCK_RECORD
   5
4E
 100
AcDbSymbolTableRecord
 100
AcDbBlockTableRecord
   2
*D16
   0
BLOCK_RECORD
   5
4F
 100
AcDbSymbolTableRecord
 100
AcDbBlockTableRecord
   2
*D17
   0
BLOCK_RECORD
   5
50
 100
AcDbSymbolTableRecord
 100
AcDbBlockTableRecord
   2
*D18
   0
BLOCK_RECORD
   5
51
 100
AcDbSymbolTableRecord
 100
AcDbBlockTableRecord
   2
*D19
   0
BLOCK_RECORD
   5
52
 100
AcDbSymbolTableRecord
 100
AcDbBlockTableRecord
   2
*D20
   0
BLOCK_RECORD
   5
53
 100
AcDbSymbolTableRecord
 100
AcDbBlockTableRecord
   2
*D21
   0
BLOCK_RECORD
   5
54
 100
AcDbSymbolTableRecord
 100
AcDbBlockTableRecord
   2
*D22
   0
BLOCK_RECORD
   5
55
 100
AcDbSymbolTableRecord
 100
AcDbBlockTableRecord
   2
*D23
   0
BLOCK_RECORD
   5
56
 100
AcDbSymbolTableRecord
 100
AcDbBlockTableRecord
   2
*D24
   0
BLOCK_RECORD
   5
57
 100
AcDbSymbolTableRecord
 100
AcDbBlockTableRecord
   2
*D25
   0
BLOCK_RECORD
   5
58
 100
AcDbSymbolTableRecord
 100
AcDbBlockTableRecord
   2
*D26
   0
BLOCK_RECORD
   5
59
 100
AcDbSymbolTableRecord
 100
AcDbBlockTableRecord
   2
*D27
   0
BLOCK_RECORD
   5
5A
 100
AcDbSymbolTableRecord
 100
AcDbBlockTableRecord
   2
*D28
   0
BLOCK_RECORD
   5
5B
 100
AcDbSymbolTableRecord
 100
AcDbBlockTableRecord
   2
*D29
   0
BLOCK_RECORD
   5
5C
 100
AcDbSymbolTableRecord
 100
AcDbBlockTableRecord
   2
*D30
   0
BLOCK_RECORD
   5
5D
 100
AcDbSymbolTableRecord
 100
AcDbBlockTableRecord
   2
*D31
   0
BLOCK_RECORD
   5
5E
 100
AcDbSymbolTableRecord
 100
AcDbBlockTableRecord
   2
*D32
   0
BLOCK_RECORD
   5
5F
 100
AcDbSymbolTableRecord
 100
AcDbBlockTableRecord
   2
*D33
   0
BLOCK_RECORD
   5
60
 100
AcDbSymbolTableRecord
 100
AcDbBlockTableRecord
   2
*D34
   0
BLOCK_RECORD
   5
61
 100
AcDbSymbolTableRecord
 100
AcDbBlockTableRecord
   2
BLOCK001
   0
BLOCK_RECORD
   5
62
 100
AcDbSymbolTableRecord
 100
AcDbBlockTableRecord
   2
BLOCK002
   0
BLOCK_RECORD
   5
63
 100
AcDbSymbolTableRecord
 100
AcDbBlockTableRecord
   2
*D35
   0
BLOCK_RECORD
   5
64
 100
AcDbSymbolTableRecord
 100
AcDbBlockTableRecord
   2
*D36
   0
BLOCK_RECORD
   5
65
 100
AcDbSymbolTableRecord
 100
AcDbBlockTableRecord
   2
*D37
   0
BLOCK_RECORD
   5
66
 100
AcDbSymbolTableRecord
 100
AcDbBlockTableRecord
   2
_ARCHTICK
   0
BLOCK_RECORD
   5
67
 100
AcDbSymbolTableRecord
 100
AcDbBlockTableRecord
   2
_BOXBLANK
   0
BLOCK_RECORD
   5
68
 100
AcDbSymbolTableRecord
 100
AcDbBlockTableRecord
   2
_BOXFILLED
   0
BLOCK_RECORD
   5
69
 100
AcDbSymbolTableRecord
 100
AcDbBlockTableRecord
   2
_CLOSED
   0
BLOCK_RECORD
   5
6A
 100
AcDbSymbolTableRecord
 100
AcDbBlockTableRecord
   2
_CLOSEDBLANK
   0
BLOCK_RECORD
   5
6B
 100
AcDbSymbolTableRecord
 100
AcDbBlockTableRecord
   2
_DATUMBLANK
   0
BLOCK_RECORD
   5
6C
 100
AcDbSymbolTableRecord
 100
AcDbBlockTableRecord
   2
_DATUMFILLED
   0
BLOCK_RECORD
   5
6D
 100
AcDbSymbolTableRecord
 100
AcDbBlockTableRecord
   2
_DOT
   0
BLOCK_RECORD
   5
6E
 100
AcDbSymbolTableRecord
 100
AcDbBlockTableRecord
   2
_DOTBLANK
   0
BLOCK_RECORD
   5
6F
 100
AcDbSymbolTableRecord
 100
AcDbBlockTableRecord
   2
_DOTSMALL
   0
BLOCK_RECORD
   5
70
 100
AcDbSymbolTableRecord
 100
AcDbBlockTableRecord
   2
_INTEGRAL
   0
BLOCK_RECORD
   5
71
 100
AcDbSymbolTableRecord
 100
AcDbBlockTableRecord
   2
_NONE
   0
BLOCK_RECORD
   5
72
 100
AcDbSymbolTableRecord
 100
AcDbBlockTableRecord
   2
_OBLIQUE
   0
BLOCK_RECORD
   5
73
 100
AcDbSymbolTableRecord
 100
AcDbBlockTableRecord
   2
_OPEN
   0
BLOCK_RECORD
   5
74
 100
AcDbSymbolTableRecord
 100
AcDbBlockTableRecord
   2
_OPEN30
   0
BLOCK_RECORD
   5
75
 100
AcDbSymbolTableRecord
 100
AcDbBlockTableRecord
   2
_OPEN90
   0
BLOCK_RECORD
   5
76
 100
AcDbSymbolTableRecord
 100
AcDbBlockTableRecord
   2
_ORIGIN
   0
ENDTAB
   0
ENDSEC
  0
SECTION
  2
BLOCKS
  0
BLOCK
  5
19
100
AcDbEntity
  8
0
100
AcDbBlockBegin
  2
*MODEL_SPACE
 70
     0
 10
0.0
 20
0.0
 30
0.0
  3
*MODEL_SPACE
  1

  0
ENDBLK
  5
1A
100
AcDbEntity
  8
0
100
AcDbBlockEnd
  0
BLOCK
  5
16
100
AcDbEntity
 67
     1
  8
0
100
AcDbBlockBegin
  2
*PAPER_SPACE
 70
     0
 10
0.0
 20
0.0
 30
0.0
  3
*PAPER_SPACE
  1

  0
ENDBLK
  5
17
100
AcDbEntity
 67
     1
  8
0
100
AcDbBlockEnd
   0
BLOCK
   5
77
 100
AcDbEntity
   8
0
 100
AcDbBlockBegin
   2
_ARCHTICK
  70
0
  10
0.0
  20
0.0
  30
0.0
   3
_ARCHTICK
   0
POLYLINE
   5
78
 100
AcDbEntity
   8
0
   6
BYBLOCK
  62
0
 100
AcDb2dPolyline
  66
1
  10
0.0
  20
0.0
  30
0.0
  70
1
  40
 0.15000000000000
  41
 0.15000000000000
   0
VERTEX
   5
79
 100
AcDbEntity
   8
0
   6
BYBLOCK
  62
0
 100
AcDbVertex
 100
AcDb2dVertex
  10
-0.50000000000000
  20
-0.50000000000000
  30
0.0
  40
 0.15000000000000
  41
 0.15000000000000
   0
VERTEX
   5
7A
 100
AcDbEntity
   8
0
   6
BYBLOCK
  62
0
 100
AcDbVertex
 100
AcDb2dVertex
  10
 0.50000000000000
  20
 0.50000000000000
  30
0.0
  40
 0.15000000000000
  41
 0.15000000000000
   0
SEQEND
   5
7B
 100
AcDbEntity
   8
0
   6
BYBLOCK
  62
0
   0
ENDBLK
   5
7C
 100
AcDbEntity
   8
0
 100
AcDbBlockEnd
   0
BLOCK
   5
7D
 100
AcDbEntity
   8
0
 100
AcDbBlockBegin
   2
_OBLIQUE
  70
0
  10
0.0
  20
0.0
  30
0.0
   3
_OBLIQUE
   0
LINE
   5
7E
 100
AcDbEntity
   8
0
 100
AcDbLine
   6
BYBLOCK
  62
0
  10
-0.50000000000000
  20
-0.50000000000000
  30
0.0
  11
 0.50000000000000
  21
 0.50000000000000
  31
0.0
   0
ENDBLK
   5
7F
 100
AcDbEntity
   8
0
 100
AcDbBlockEnd
   0
BLOCK
   5
80
 100
AcDbEntity
   8
0
 100
AcDbBlockBegin
   2
_BOXBLANK
  70
0
  10
0.0
  20
0.0
  30
0.0
   3
_BOXBLANK
   0
LINE
   5
81
 100
AcDbEntity
   8
0
 100
AcDbLine
   6
BYBLOCK
  62
0
  10
-0.50000000000000
  20
-0.50000000000000
  30
0.0
  11
 0.50000000000000
  21
-0.50000000000000
  31
0.0
   0
LINE
   5
82
 100
AcDbEntity
   8
0
 100
AcDbLine
   6
BYBLOCK
  62
0
  10
 0.50000000000000
  20
-0.50000000000000
  30
0.0
  11
 0.50000000000000
  21
 0.50000000000000
  31
0.0
   0
LINE
   5
83
 100
AcDbEntity
   8
0
 100
AcDbLine
   6
BYBLOCK
  62
0
  10
 0.50000000000000
  20
 0.50000000000000
  30
0.0
  11
-0.50000000000000
  21
 0.50000000000000
  31
0.0
   0
LINE
   5
84
 100
AcDbEntity
   8
0
 100
AcDbLine
   6
BYBLOCK
  62
0
  10
-0.50000000000000
  20
 0.50000000000000
  30
0.0
  11
-0.50000000000000
  21
-0.50000000000000
  31
0.0
   0
LINE
   5
85
 100
AcDbEntity
   8
0
 100
AcDbLine
   6
BYBLOCK
  62
0
  10
-0.50000000000000
  20
0.0
  30
0.0
  11
-1.0000000000000
  21
0.0
  31
0.0
   0
ENDBLK
   5
86
 100
AcDbEntity
   8
0
 100
AcDbBlockEnd
   0
BLOCK
   5
87
 100
AcDbEntity
   8
0
 100
AcDbBlockBegin
   2
_BOXFILLED
  70
0
  10
0.0
  20
0.0
  30
0.0
   3
_BOXFILLED
   0
SOLID
   5
88
 100
AcDbEntity
   8
0
 100
AcDbTrace
   6
BYBLOCK
  62
0
  10
-0.50000000000000
  20
 0.50000000000000
  30
0.0
  11
 0.50000000000000
  21
 0.50000000000000
  31
0.0
  12
-0.50000000000000
  22
-0.50000000000000
  32
0.0
  13
 0.50000000000000
  23
-0.50000000000000
  33
0.0
   0
LINE
   5
89
 100
AcDbEntity
   8
0
 100
AcDbLine
   6
BYBLOCK
  62
0
  10
-0.50000000000000
  20
0.0
  30
0.0
  11
-1.0000000000000
  21
0.0
  31
0.0
   0
ENDBLK
   5
8A
 100
AcDbEntity
   8
0
 100
AcDbBlockEnd
   0
BLOCK
   5
8B
 100
AcDbEntity
   8
0
 100
AcDbBlockBegin
   2
_CLOSED
  70
0
  10
0.0
  20
0.0
  30
0.0
   3
_CLOSED
   0
LINE
   5
8C
 100
AcDbEntity
   8
0
 100
AcDbLine
   6
BYBLOCK
  62
0
  10
-1.0000000000000
  20
 0.16666666666667
  30
0.0
  11
0.0
  21
0.0
  31
0.0
   0
LINE
   5
8D
 100
AcDbEntity
   8
0
 100
AcDbLine
   6
BYBLOCK
  62
0
  10
0.0
  20
0.0
  30
0.0
  11
-1.0000000000000
  21
-0.16666666666667
  31
0.0
   0
LINE
   5
8E
 100
AcDbEntity
   8
0
 100
AcDbLine
   6
BYBLOCK
  62
0
  10
-1.0000000000000
  20
 0.16666666666667
  30
0.0
  11
-1.0000000000000
  21
-0.16666666666667
  31
0.0
   0
LINE
   5
8F
 100
AcDbEntity
   8
0
 100
AcDbLine
   6
BYBLOCK
  62
0
  10
0.0
  20
0.0
  30
0.0
  11
-1.0000000000000
  21
0.0
  31
0.0
   0
ENDBLK
   5
90
 100
AcDbEntity
   8
0
 100
AcDbBlockEnd
   0
BLOCK
   5
91
 100
AcDbEntity
   8
0
 100
AcDbBlockBegin
   2
_OPEN
  70
0
  10
0.0
  20
0.0
  30
0.0
   3
_OPEN
   0
LINE
   5
92
 100
AcDbEntity
   8
0
 100
AcDbLine
   6
BYBLOCK
  62
0
  10
-1.0000000000000
  20
 0.16666666666667
  30
0.0
  11
0.0
  21
0.0
  31
0.0
   0
LINE
   5
93
 100
AcDbEntity
   8
0
 100
AcDbLine
   6
BYBLOCK
  62
0
  10
0.0
  20
0.0
  30
0.0
  11
-1.0000000000000
  21
-0.16666666666667
  31
0.0
   0
LINE
   5
94
 100
AcDbEntity
   8
0
 100
AcDbLine
   6
BYBLOCK
  62
0
  10
0.0
  20
0.0
  30
0.0
  11
-1.0000000000000
  21
0.0
  31
0.0
   0
ENDBLK
   5
95
 100
AcDbEntity
   8
0
 100
AcDbBlockEnd
   0
BLOCK
   5
96
 100
AcDbEntity
   8
0
 100
AcDbBlockBegin
   2
_OPEN30
  70
0
  10
0.0
  20
0.0
  30
0.0
   3
_OPEN30
   0
LINE
   5
97
 100
AcDbEntity
   8
0
 100
AcDbLine
   6
BYBLOCK
  62
0
  10
-1.0000000000000
  20
 0.26794919243110
  30
0.0
  11
0.0
  21
0.0
  31
0.0
   0
LINE
   5
98
 100
AcDbEntity
   8
0
 100
AcDbLine
   6
BYBLOCK
  62
0
  10
0.0
  20
0.0
  30
0.0
  11
-1.0000000000000
  21
-0.26794919243110
  31
0.0
   0
LINE
   5
99
 100
AcDbEntity
   8
0
 100
AcDbLine
   6
BYBLOCK
  62
0
  10
0.0
  20
0.0
  30
0.0
  11
-1.0000000000000
  21
0.0
  31
0.0
   0
ENDBLK
   5
9A
 100
AcDbEntity
   8
0
 100
AcDbBlockEnd
   0
BLOCK
   5
9B
 100
AcDbEntity
   8
0
 100
AcDbBlockBegin
   2
_OPEN90
  70
0
  10
0.0
  20
0.0
  30
0.0
   3
_OPEN90
   0
LINE
   5
9C
 100
AcDbEntity
   8
0
 100
AcDbLine
   6
BYBLOCK
  62
0
  10
-0.50000000000000
  20
 0.50000000000000
  30
0.0
  11
0.0
  21
0.0
  31
0.0
   0
LINE
   5
9D
 100
AcDbEntity
   8
0
 100
AcDbLine
   6
BYBLOCK
  62
0
  10
0.0
  20
0.0
  30
0.0
  11
-0.50000000000000
  21
-0.50000000000000
  31
0.0
   0
LINE
   5
9E
 100
AcDbEntity
   8
0
 100
AcDbLine
   6
BYBLOCK
  62
0
  10
0.0
  20
0.0
  30
0.0
  11
-1.0000000000000
  21
0.0
  31
0.0
   0
ENDBLK
   5
9F
 100
AcDbEntity
   8
0
 100
AcDbBlockEnd
   0
BLOCK
   5
A0
 100
AcDbEntity
   8
0
 100
AcDbBlockBegin
   2
_CLOSEDBLANK
  70
0
  10
0.0
  20
0.0
  30
0.0
   3
_CLOSEDBLANK
   0
LINE
   5
A1
 100
AcDbEntity
   8
0
 100
AcDbLine
   6
BYBLOCK
  62
0
  10
-1.0000000000000
  20
 0.16666666666667
  30
0.0
  11
0.0
  21
0.0
  31
0.0
   0
LINE
   5
A2
 100
AcDbEntity
   8
0
 100
AcDbLine
   6
BYBLOCK
  62
0
  10
0.0
  20
0.0
  30
0.0
  11
-1.0000000000000
  21
-0.16666666666667
  31
0.0
   0
LINE
   5
A3
 100
AcDbEntity
   8
0
 100
AcDbLine
   6
BYBLOCK
  62
0
  10
-1.0000000000000
  20
 0.16666666666667
  30
0.0
  11
-1.0000000000000
  21
-0.16666666666667
  31
0.0
   0
ENDBLK
   5
A4
 100
AcDbEntity
   8
0
 100
AcDbBlockEnd
   0
BLOCK
   5
A5
 100
AcDbEntity
   8
0
 100
AcDbBlockBegin
   2
_DOT
  70
0
  10
0.0
  20
0.0
  30
0.0
   3
_DOT
   0
POLYLINE
   5
A6
 100
AcDbEntity
   8
0
   6
BYBLOCK
  62
0
 100
AcDb2dPolyline
  66
1
  10
0.0
  20
0.0
  30
0.0
  70
1
  40
 0.50000000000000
  41
 0.50000000000000
   0
VERTEX
   5
A7
 100
AcDbEntity
   8
0
   6
BYBLOCK
  62
0
 100
AcDbVertex
 100
AcDb2dVertex
  10
-0.25000000000000
  20
0.0
  30
0.0
  42
 1.0000000000000
  40
 0.50000000000000
  41
 0.50000000000000
   0
VERTEX
   5
A8
 100
AcDbEntity
   8
0
   6
BYBLOCK
  62
0
 100
AcDbVertex
 100
AcDb2dVertex
  10
 0.25000000000000
  20
0.0
  30
0.0
  42
 1.0000000000000
  40
 0.50000000000000
  41
 0.50000000000000
   0
SEQEND
   5
A9
 100
AcDbEntity
   8
0
   6
BYBLOCK
  62
0
   0
LINE
   5
AA
 100
AcDbEntity
   8
0
 100
AcDbLine
   6
BYBLOCK
  62
0
  10
-0.50000000000000
  20
0.0
  30
0.0
  11
-1.0000000000000
  21
0.0
  31
0.0
   0
ENDBLK
   5
AB
 100
AcDbEntity
   8
0
 100
AcDbBlockEnd
   0
BLOCK
   5
AC
 100
AcDbEntity
   8
0
 100
AcDbBlockBegin
   2
_DOTSMALL
  70
0
  10
0.0
  20
0.0
  30
0.0
   3
_DOTSMALL
   0
POLYLINE
   5
AD
 100
AcDbEntity
   8
0
   6
BYBLOCK
  62
0
 100
AcDb2dPolyline
  66
1
  10
0.0
  20
0.0
  30
0.0
  70
1
  40
 0.50000000000000
  41
 0.50000000000000
   0
VERTEX
   5
AE
 100
AcDbEntity
   8
0
   6
BYBLOCK
  62
0
 100
AcDbVertex
 100
AcDb2dVertex
  10
-0.62500000000000E-1
  20
0.0
  30
0.0
  42
 1.0000000000000
  40
 0.50000000000000
  41
 0.50000000000000
   0
VERTEX
   5
AF
 100
AcDbEntity
   8
0
   6
BYBLOCK
  62
0
 100
AcDbVertex
 100
AcDb2dVertex
  10
 0.62500000000000E-1
  20
0.0
  30
0.0
  42
 1.0000000000000
  40
 0.50000000000000
  41
 0.50000000000000
   0
SEQEND
   5
B0
 100
AcDbEntity
   8
0
   6
BYBLOCK
  62
0
   0
ENDBLK
   5
B1
 100
AcDbEntity
   8
0
 100
AcDbBlockEnd
   0
BLOCK
   5
B2
 100
AcDbEntity
   8
0
 100
AcDbBlockBegin
   2
_DATUMBLANK
  70
0
  10
0.0
  20
0.0
  30
0.0
   3
_DATUMBLANK
   0
LINE
   5
B3
 100
AcDbEntity
   8
0
 100
AcDbLine
   6
BYBLOCK
  62
0
  10
0.0
  20
 0.57735027000000
  30
0.0
  11
-1.0000000000000
  21
0.0
  31
0.0
   0
LINE
   5
B4
 100
AcDbEntity
   8
0
 100
AcDbLine
   6
BYBLOCK
  62
0
  10
-1.0000000000000
  20
0.0
  30
0.0
  11
0.0
  21
-0.57735027000000
  31
0.0
   0
LINE
   5
B5
 100
AcDbEntity
   8
0
 100
AcDbLine
   6
BYBLOCK
  62
0
  10
0.0
  20
-0.57735027000000
  30
0.0
  11
0.0
  21
 0.57735027000000
  31
0.0
   0
ENDBLK
   5
B6
 100
AcDbEntity
   8
0
 100
AcDbBlockEnd
   0
BLOCK
   5
B7
 100
AcDbEntity
   8
0
 100
AcDbBlockBegin
   2
_DATUMFILLED
  70
0
  10
0.0
  20
0.0
  30
0.0
   3
_DATUMFILLED
   0
SOLID
   5
B8
 100
AcDbEntity
   8
0
 100
AcDbTrace
   6
BYBLOCK
  62
0
  10
0.0
  20
 0.57735027000000
  30
0.0
  11
-1.0000000000000
  21
0.0
  31
0.0
  12
0.0
  22
-0.57735027000000
  32
0.0
  13
0.0
  23
-0.57735027000000
  33
0.0
   0
ENDBLK
   5
B9
 100
AcDbEntity
   8
0
 100
AcDbBlockEnd
   0
BLOCK
   5
BA
 100
AcDbEntity
   8
0
 100
AcDbBlockBegin
   2
_ORIGIN
  70
0
  10
0.0
  20
0.0
  30
0.0
   3
_ORIGIN
   0
CIRCLE
   5
BB
 100
AcDbEntity
   8
0
 100
AcDbCircle
   6
BYBLOCK
  62
0
  10
0.0
  20
0.0
  30
0.0
  40
 0.50000000000000
   0
LINE
   5
BC
 100
AcDbEntity
   8
0
 100
AcDbLine
   6
BYBLOCK
  62
0
  10
0.0
  20
0.0
  30
0.0
  11
-1.0000000000000
  21
0.0
  31
0.0
   0
ENDBLK
   5
BD
 100
AcDbEntity
   8
0
 100
AcDbBlockEnd
   0
BLOCK
   5
BE
 100
AcDbEntity
   8
0
 100
AcDbBlockBegin
   2
_NONE
  70
0
  10
0.0
  20
0.0
  30
0.0
   3
_NONE
   0
CIRCLE
   5
BF
 100
AcDbEntity
   8
0
 100
AcDbCircle
   6
BYBLOCK
  62
0
  10
0.0
  20
0.0
  30
0.0
  40
 0.25000000000000
   0
ENDBLK
   5
C0
 100
AcDbEntity
   8
0
 100
AcDbBlockEnd
   0
BLOCK
   5
C1
 100
AcDbEntity
   8
0
 100
AcDbBlockBegin
   2
_DOTBLANK
  70
0
  10
0.0
  20
0.0
  30
0.0
   3
_DOTBLANK
   0
CIRCLE
   5
C2
 100
AcDbEntity
   8
0
 100
AcDbCircle
   6
BYBLOCK
  62
0
  10
0.0
  20
0.0
  30
0.0
  40
 0.50000000000000
   0
LINE
   5
C3
 100
AcDbEntity
   8
0
 100
AcDbLine
   6
BYBLOCK
  62
0
  10
-0.50000000000000
  20
0.0
  30
0.0
  11
-1.0000000000000
  21
0.0
  31
0.0
   0
ENDBLK
   5
C4
 100
AcDbEntity
   8
0
 100
AcDbBlockEnd
   0
BLOCK
   5
C5
 100
AcDbEntity
   8
0
 100
AcDbBlockBegin
   2
_INTEGRAL
  70
0
  10
0.0
  20
0.0
  30
0.0
   3
_INTEGRAL
   0
ARC
   5
C6
 100
AcDbEntity
   8
0
   6
BYBLOCK
  62
0
 100
AcDbCircle
  10
 0.44488800000000
  20
-0.91335000000000E-1
  30
0.0
  40
 0.45416700000000
 100
AcDbArc
  50
 102.00000000000
  51
 168.00000000000
   0
ARC
   5
C7
 100
AcDbEntity
   8
0
   6
BYBLOCK
  62
0
 100
AcDbCircle
  10
-0.44488800000000
  20
 0.91335000000000E-1
  30
0.0
  40
 0.45416700000000
 100
AcDbArc
  50
 282.00000000000
  51
 348.00000000000
   0
ENDBLK
   5
C8
 100
AcDbEntity
   8
0
 100
AcDbBlockEnd
   0
BLOCK
   5
C9
 100
AcDbEntity
   8
0
 100
AcDbBlockBegin
   2
*D1
  70
65
  10
0.0
  20
0.0
  30
0.0
   3
*D1
   0
LINE
   5
CA
 100
AcDbEntity
   8
LEVEL001
 100
AcDbLine
   6
CONTINUOUS
  62
3
  10
 99.400094766048
  20
 147.52987000866
  30
0.0
  11
 114.16349531806
  21
 147.52987000866
  31
0.0
   0
LINE
   5
CB
 100
AcDbEntity
   8
LEVEL001
 100
AcDbLine
   6
CONTINUOUS
  62
3
  10
 89.400094766048
  20
 157.52987000866
  30
0.0
  11
 114.16349531806
  21
 157.52987000866
  31
0.0
   0
LINE
   5
CC
 100
AcDbEntity
   8
LEVEL001
 100
AcDbLine
   6
CONTINUOUS
  62
3
  10
 113.16349531806
  20
 147.52987000866
  30
0.0
  11
 113.16349531806
  21
 152.52987000866
  31
0.0
   0
LINE
   5
CD
 100
AcDbEntity
   8
LEVEL001
 100
AcDbLine
   6
CONTINUOUS
  62
3
  10
 113.16349531806
  20
 157.52987000866
  30
0.0
  11
 113.16349531806
  21
 152.52987000866
  31
0.0
   0
INSERT
   5
CE
 100
AcDbEntity
   8
LEVEL001
   6
CONTINUOUS
  62
3
 100
AcDbBlockReference
   2
_OPEN30
  10
 113.16349531806
  20
 147.52987000866
  30
0.0
  41
 3.0000000000000
  42
 3.0000000000000
  43
 3.0000000000000
  50
 270.00000000000
   0
INSERT
   5
CF
 100
AcDbEntity
   8
LEVEL001
   6
CONTINUOUS
  62
3
 100
AcDbBlockReference
   2
_OPEN30
  10
 113.16349531806
  20
 157.52987000866
  30
0.0
  41
 3.0000000000000
  42
 3.0000000000000
  43
 3.0000000000000
  50
 90.000000000000
   0
MTEXT
   5
D0
 100
AcDbEntity
   8
LEVEL001
  62
3
 100
AcDbMText
  10
 111.44920960378
  20
 152.52987000866
  30
0.0
  40
 4.0000000000000
  41
0.0
  71
8
  72
1
   1
\A1;10
   7
GMM001
  11
0.0
  21
 1.0000000000000
  31
0.0
   0
ENDBLK
   5
D1
 100
AcDbEntity
   8
0
 100
AcDbBlockEnd
   0
BLOCK
   5
D2
 100
AcDbEntity
   8
0
 100
AcDbBlockBegin
   2
*D2
  70
65
  10
0.0
  20
0.0
  30
0.0
   3
*D2
   0
LINE
   5
D3
 100
AcDbEntity
   8
LEVEL001
 100
AcDbLine
   6
CONTINUOUS
  62
3
  10
 99.400094766048
  20
 227.52987000866
  30
0.0
  11
 114.16349531806
  21
 227.52987000866
  31
0.0
   0
LINE
   5
D4
 100
AcDbEntity
   8
LEVEL001
 100
AcDbLine
   6
CONTINUOUS
  62
3
  10
 89.400094766048
  20
 217.52987000866
  30
0.0
  11
 114.16349531806
  21
 217.52987000866
  31
0.0
   0
LINE
   5
D5
 100
AcDbEntity
   8
LEVEL001
 100
AcDbLine
   6
CONTINUOUS
  62
3
  10
 113.16349531806
  20
 227.52987000866
  30
0.0
  11
 113.16349531806
  21
 222.52987000866
  31
0.0
   0
LINE
   5
D6
 100
AcDbEntity
   8
LEVEL001
 100
AcDbLine
   6
CONTINUOUS
  62
3
  10
 113.16349531806
  20
 217.52987000866
  30
0.0
  11
 113.16349531806
  21
 222.52987000866
  31
0.0
   0
INSERT
   5
D7
 100
AcDbEntity
   8
LEVEL001
   6
CONTINUOUS
  62
3
 100
AcDbBlockReference
   2
_OPEN30
  10
 113.16349531806
  20
 227.52987000866
  30
0.0
  41
 3.0000000000000
  42
 3.0000000000000
  43
 3.0000000000000
  50
 90.000000000000
   0
INSERT
   5
D8
 100
AcDbEntity
   8
LEVEL001
   6
CONTINUOUS
  62
3
 100
AcDbBlockReference
   2
_OPEN30
  10
 113.16349531806
  20
 217.52987000866
  30
0.0
  41
 3.0000000000000
  42
 3.0000000000000
  43
 3.0000000000000
  50
 270.00000000000
   0
MTEXT
   5
D9
 100
AcDbEntity
   8
LEVEL001
  62
3
 100
AcDbMText
  10
 111.44920960378
  20
 222.52987000866
  30
0.0
  40
 4.0000000000000
  41
0.0
  71
8
  72
1
   1
\A1;10
   7
GMM001
  11
0.0
  21
 1.0000000000000
  31
0.0
   0
ENDBLK
   5
DA
 100
AcDbEntity
   8
0
 100
AcDbBlockEnd
   0
BLOCK
   5
DB
 100
AcDbEntity
   8
0
 100
AcDbBlockBegin
   2
*D3
  70
65
  10
0.0
  20
0.0
  30
0.0
   3
*D3
   0
LINE
   5
DC
 100
AcDbEntity
   8
LEVEL001
 100
AcDbLine
   6
CONTINUOUS
  62
3
  10
 113.16349531806
  20
 217.52987000866
  30
0.0
  11
 113.16349531806
  21
 187.52987000866
  31
0.0
   0
LINE
   5
DD
 100
AcDbEntity
   8
LEVEL001
 100
AcDbLine
   6
CONTINUOUS
  62
3
  10
 113.16349531806
  20
 157.52987000866
  30
0.0
  11
 113.16349531806
  21
 187.52987000866
  31
0.0
   0
INSERT
   5
DE
 100
AcDbEntity
   8
LEVEL001
   6
CONTINUOUS
  62
3
 100
AcDbBlockReference
   2
_OPEN30
  10
 113.16349531806
  20
 217.52987000866
  30
0.0
  41
 3.0000000000000
  42
 3.0000000000000
  43
 3.0000000000000
  50
 90.000000000000
   0
INSERT
   5
DF
 100
AcDbEntity
   8
LEVEL001
   6
CONTINUOUS
  62
3
 100
AcDbBlockReference
   2
_OPEN30
  10
 113.16349531806
  20
 157.52987000866
  30
0.0
  41
 3.0000000000000
  42
 3.0000000000000
  43
 3.0000000000000
  50
 270.00000000000
   0
MTEXT
   5
E0
 100
AcDbEntity
   8
LEVEL001
  62
3
 100
AcDbMText
  10
 111.44920960378
  20
 187.52987000866
  30
0.0
  40
 4.0000000000000
  41
0.0
  71
8
  72
1
   1
\A1;60
   7
GMM001
  11
0.0
  21
 1.0000000000000
  31
0.0
   0
ENDBLK
   5
E1
 100
AcDbEntity
   8
0
 100
AcDbBlockEnd
   0
BLOCK
   5
E2
 100
AcDbEntity
   8
0
 100
AcDbBlockBegin
   2
*D4
  70
65
  10
0.0
  20
0.0
  30
0.0
   3
*D4
   0
LINE
   5
E3
 100
AcDbEntity
   8
LEVEL001
 100
AcDbLine
   6
CONTINUOUS
  62
3
  10
 114.66349531806
  20
 147.52987000866
  30
0.0
  11
 124.16332445221
  21
 147.52987000866
  31
0.0
   0
LINE
   5
E4
 100
AcDbEntity
   8
LEVEL001
 100
AcDbLine
   6
CONTINUOUS
  62
3
  10
 114.66349531806
  20
 227.52987000866
  30
0.0
  11
 124.16332445221
  21
 227.52987000866
  31
0.0
   0
LINE
   5
E5
 100
AcDbEntity
   8
LEVEL001
 100
AcDbLine
   6
CONTINUOUS
  62
3
  10
 123.16332445221
  20
 147.52987000866
  30
0.0
  11
 123.16332445221
  21
 187.52987000866
  31
0.0
   0
LINE
   5
E6
 100
AcDbEntity
   8
LEVEL001
 100
AcDbLine
   6
CONTINUOUS
  62
3
  10
 123.16332445221
  20
 227.52987000866
  30
0.0
  11
 123.16332445221
  21
 187.52987000866
  31
0.0
   0
INSERT
   5
E7
 100
AcDbEntity
   8
LEVEL001
   6
CONTINUOUS
  62
3
 100
AcDbBlockReference
   2
_OPEN30
  10
 123.16332445221
  20
 147.52987000866
  30
0.0
  41
 3.0000000000000
  42
 3.0000000000000
  43
 3.0000000000000
  50
 270.00000000000
   0
INSERT
   5
E8
 100
AcDbEntity
   8
LEVEL001
   6
CONTINUOUS
  62
3
 100
AcDbBlockReference
   2
_OPEN30
  10
 123.16332445221
  20
 227.52987000866
  30
0.0
  41
 3.0000000000000
  42
 3.0000000000000
  43
 3.0000000000000
  50
 90.000000000000
   0
MTEXT
   5
E9
 100
AcDbEntity
   8
LEVEL001
  62
3
 100
AcDbMText
  10
 121.44903873792
  20
 187.52987000866
  30
0.0
  40
 4.0000000000000
  41
0.0
  71
8
  72
1
   1
\A1;80
   7
GMM001
  11
0.0
  21
 1.0000000000000
  31
0.0
   0
ENDBLK
   5
EA
 100
AcDbEntity
   8
0
 100
AcDbBlockEnd
   0
BLOCK
   5
EB
 100
AcDbEntity
   8
0
 100
AcDbBlockBegin
   2
*D5
  70
65
  10
0.0
  20
0.0
  30
0.0
   3
*D5
   0
LINE
   5
EC
 100
AcDbEntity
   8
LEVEL001
 100
AcDbLine
   6
CONTINUOUS
  62
3
  10
 53.900094766048
  20
 129.86740262874
  30
0.0
  11
 71.400094766048
  21
 129.86740262874
  31
0.0
   0
LINE
   5
ED
 100
AcDbEntity
   8
LEVEL001
 100
AcDbLine
   6
CONTINUOUS
  62
3
  10
 88.900094766048
  20
 129.86740262874
  30
0.0
  11
 71.400094766048
  21
 129.86740262874
  31
0.0
   0
INSERT
   5
EE
 100
AcDbEntity
   8
LEVEL001
   6
CONTINUOUS
  62
3
 100
AcDbBlockReference
   2
_OPEN30
  10
 53.900094766048
  20
 129.86740262874
  30
0.0
  41
 3.0000000000000
  42
 3.0000000000000
  43
 3.0000000000000
  50
 180.00000000000
   0
INSERT
   5
EF
 100
AcDbEntity
   8
LEVEL001
   6
CONTINUOUS
  62
3
 100
AcDbBlockReference
   2
_OPEN30
  10
 88.900094766048
  20
 129.86740262874
  30
0.0
  41
 3.0000000000000
  42
 3.0000000000000
  43
 3.0000000000000
  50
0.0
   0
MTEXT
   5
F0
 100
AcDbEntity
   8
LEVEL001
  62
3
 100
AcDbMText
  10
 71.400094766048
  20
 131.58168834303
  30
0.0
  40
 4.0000000000000
  41
0.0
  71
8
  72
1
   1
\A1;35
   7
GMM001
   0
ENDBLK
   5
F1
 100
AcDbEntity
   8
0
 100
AcDbBlockEnd
   0
BLOCK
   5
F2
 100
AcDbEntity
   8
0
 100
AcDbBlockBegin
   2
*D6
  70
65
  10
0.0
  20
0.0
  30
0.0
   3
*D6
   0
LINE
   5
F3
 100
AcDbEntity
   8
LEVEL001
 100
AcDbLine
   6
CONTINUOUS
  62
3
  10
 43.900094766048
  20
 147.02987000866
  30
0.0
  11
 43.900094766048
  21
 128.86740262874
  31
0.0
   0
LINE
   5
F4
 100
AcDbEntity
   8
LEVEL001
 100
AcDbLine
   6
CONTINUOUS
  62
3
  10
 53.900094766048
  20
 157.02987000866
  30
0.0
  11
 53.900094766048
  21
 128.86740262874
  31
0.0
   0
LINE
   5
F5
 100
AcDbEntity
   8
LEVEL001
 100
AcDbLine
   6
CONTINUOUS
  62
3
  10
 43.900094766048
  20
 129.86740262874
  30
0.0
  11
 48.900094766048
  21
 129.86740262874
  31
0.0
   0
LINE
   5
F6
 100
AcDbEntity
   8
LEVEL001
 100
AcDbLine
   6
CONTINUOUS
  62
3
  10
 53.900094766048
  20
 129.86740262874
  30
0.0
  11
 48.900094766048
  21
 129.86740262874
  31
0.0
   0
INSERT
   5
F7
 100
AcDbEntity
   8
LEVEL001
   6
CONTINUOUS
  62
3
 100
AcDbBlockReference
   2
_OPEN30
  10
 43.900094766048
  20
 129.86740262874
  30
0.0
  41
 3.0000000000000
  42
 3.0000000000000
  43
 3.0000000000000
  50
 180.00000000000
   0
INSERT
   5
F8
 100
AcDbEntity
   8
LEVEL001
   6
CONTINUOUS
  62
3
 100
AcDbBlockReference
   2
_OPEN30
  10
 53.900094766048
  20
 129.86740262874
  30
0.0
  41
 3.0000000000000
  42
 3.0000000000000
  43
 3.0000000000000
  50
0.0
   0
MTEXT
   5
F9
 100
AcDbEntity
   8
LEVEL001
  62
3
 100
AcDbMText
  10
 48.900094766048
  20
 131.58168834303
  30
0.0
  40
 4.0000000000000
  41
0.0
  71
8
  72
1
   1
\A1;10
   7
GMM001
   0
ENDBLK
   5
FA
 100
AcDbEntity
   8
0
 100
AcDbBlockEnd
   0
BLOCK
   5
FB
 100
AcDbEntity
   8
0
 100
AcDbBlockBegin
   2
*D7
  70
65
  10
0.0
  20
0.0
  30
0.0
   3
*D7
   0
LINE
   5
FC
 100
AcDbEntity
   8
LEVEL001
 100
AcDbLine
   6
CONTINUOUS
  62
3
  10
 88.900094766048
  20
 157.02987000866
  30
0.0
  11
 88.900094766048
  21
 128.86740262874
  31
0.0
   0
LINE
   5
FD
 100
AcDbEntity
   8
LEVEL001
 100
AcDbLine
   6
CONTINUOUS
  62
3
  10
 98.900094766048
  20
 147.02987000866
  30
0.0
  11
 98.900094766048
  21
 128.86740262874
  31
0.0
   0
LINE
   5
FE
 100
AcDbEntity
   8
LEVEL001
 100
AcDbLine
   6
CONTINUOUS
  62
3
  10
 88.900094766048
  20
 129.86740262874
  30
0.0
  11
 93.900094766048
  21
 129.86740262874
  31
0.0
   0
LINE
   5
FF
 100
AcDbEntity
   8
LEVEL001
 100
AcDbLine
   6
CONTINUOUS
  62
3
  10
 98.900094766048
  20
 129.86740262874
  30
0.0
  11
 93.900094766048
  21
 129.86740262874
  31
0.0
   0
INSERT
   5
100
 100
AcDbEntity
   8
LEVEL001
   6
CONTINUOUS
  62
3
 100
AcDbBlockReference
   2
_OPEN30
  10
 88.900094766048
  20
 129.86740262874
  30
0.0
  41
 3.0000000000000
  42
 3.0000000000000
  43
 3.0000000000000
  50
 180.00000000000
   0
INSERT
   5
101
 100
AcDbEntity
   8
LEVEL001
   6
CONTINUOUS
  62
3
 100
AcDbBlockReference
   2
_OPEN30
  10
 98.900094766048
  20
 129.86740262874
  30
0.0
  41
 3.0000000000000
  42
 3.0000000000000
  43
 3.0000000000000
  50
0.0
   0
MTEXT
   5
102
 100
AcDbEntity
   8
LEVEL001
  62
3
 100
AcDbMText
  10
 93.900094766048
  20
 131.58168834303
  30
0.0
  40
 4.0000000000000
  41
0.0
  71
8
  72
1
   1
\A1;10
   7
GMM001
   0
ENDBLK
   5
103
 100
AcDbEntity
   8
0
 100
AcDbBlockEnd
   0
BLOCK
   5
104
 100
AcDbEntity
   8
0
 100
AcDbBlockBegin
   2
*D8
  70
65
  10
0.0
  20
0.0
  30
0.0
   3
*D8
   0
LINE
   5
105
 100
AcDbEntity
   8
LEVEL001
 100
AcDbLine
   6
CONTINUOUS
  62
3
  10
 54.100094766048
  20
 175.63035806120
  30
0.0
  11
 54.100094766048
  21
 176.63035806120
  31
0.0
   0
LINE
   5
106
 100
AcDbEntity
   8
LEVEL001
 100
AcDbLine
   6
CONTINUOUS
  62
3
  10
 88.700094766048
  20
 175.63035806120
  30
0.0
  11
 88.700094766048
  21
 176.63035806120
  31
0.0
   0
LINE
   5
107
 100
AcDbEntity
   8
LEVEL001
 100
AcDbLine
   6
CONTINUOUS
  62
3
  10
 54.100094766048
  20
 175.63035806120
  30
0.0
  11
 71.400094766048
  21
 175.63035806120
  31
0.0
   0
LINE
   5
108
 100
AcDbEntity
   8
LEVEL001
 100
AcDbLine
   6
CONTINUOUS
  62
3
  10
 88.700094766048
  20
 175.63035806120
  30
0.0
  11
 71.400094766048
  21
 175.63035806120
  31
0.0
   0
INSERT
   5
109
 100
AcDbEntity
   8
LEVEL001
   6
CONTINUOUS
  62
3
 100
AcDbBlockReference
   2
_OPEN30
  10
 54.100094766048
  20
 175.63035806120
  30
0.0
  41
 3.0000000000000
  42
 3.0000000000000
  43
 3.0000000000000
  50
 180.00000000000
   0
INSERT
   5
10A
 100
AcDbEntity
   8
LEVEL001
   6
CONTINUOUS
  62
3
 100
AcDbBlockReference
   2
_OPEN30
  10
 88.700094766048
  20
 175.63035806120
  30
0.0
  41
 3.0000000000000
  42
 3.0000000000000
  43
 3.0000000000000
  50
0.0
   0
MTEXT
   5
10B
 100
AcDbEntity
   8
LEVEL001
  62
3
 100
AcDbMText
  10
 71.400094766048
  20
 177.34464377548
  30
0.0
  40
 4.0000000000000
  41
0.0
  71
8
  72
1
   1
\A1;34.6
   7
GMM001
   0
ENDBLK
   5
10C
 100
AcDbEntity
   8
0
 100
AcDbBlockEnd
   0
BLOCK
   5
10D
 100
AcDbEntity
   8
0
 100
AcDbBlockBegin
   2
*D9
  70
65
  10
0.0
  20
0.0
  30
0.0
   3
*D9
   0
LINE
   5
10E
 100
AcDbEntity
   8
LEVEL001
 100
AcDbLine
   6
CONTINUOUS
  62
3
  10
 50.900094766048
  20
 86.668764121755
  30
0.0
  11
 50.900094766048
  21
 72.415924707727
  31
0.0
   0
LINE
   5
10F
 100
AcDbEntity
   8
LEVEL001
 100
AcDbLine
   6
CONTINUOUS
  62
3
  10
 91.900094766048
  20
 86.668764121755
  30
0.0
  11
 91.900094766048
  21
 72.415924707727
  31
0.0
   0
LINE
   5
110
 100
AcDbEntity
   8
LEVEL001
 100
AcDbLine
   6
CONTINUOUS
  62
3
  10
 50.900094766048
  20
 73.415924707727
  30
0.0
  11
 71.400094766048
  21
 73.415924707727
  31
0.0
   0
LINE
   5
111
 100
AcDbEntity
   8
LEVEL001
 100
AcDbLine
   6
CONTINUOUS
  62
3
  10
 91.900094766048
  20
 73.415924707727
  30
0.0
  11
 71.400094766048
  21
 73.415924707727
  31
0.0
   0
INSERT
   5
112
 100
AcDbEntity
   8
LEVEL001
   6
CONTINUOUS
  62
3
 100
AcDbBlockReference
   2
_OPEN30
  10
 50.900094766048
  20
 73.415924707727
  30
0.0
  41
 3.0000000000000
  42
 3.0000000000000
  43
 3.0000000000000
  50
 180.00000000000
   0
INSERT
   5
113
 100
AcDbEntity
   8
LEVEL001
   6
CONTINUOUS
  62
3
 100
AcDbBlockReference
   2
_OPEN30
  10
 91.900094766048
  20
 73.415924707727
  30
0.0
  41
 3.0000000000000
  42
 3.0000000000000
  43
 3.0000000000000
  50
0.0
   0
MTEXT
   5
114
 100
AcDbEntity
   8
LEVEL001
  62
3
 100
AcDbMText
  10
 71.400094766048
  20
 75.130210422012
  30
0.0
  40
 4.0000000000000
  41
0.0
  71
8
  72
1
   1
\A1;41
   7
GMM001
   0
ENDBLK
   5
115
 100
AcDbEntity
   8
0
 100
AcDbBlockEnd
   0
BLOCK
   5
116
 100
AcDbEntity
   8
0
 100
AcDbBlockBegin
   2
*D10
  70
65
  10
0.0
  20
0.0
  30
0.0
   3
*D10
   0
LINE
   5
117
 100
AcDbEntity
   8
LEVEL001
 100
AcDbLine
   6
CONTINUOUS
  62
3
  10
 48.400094766048
  20
 99.668764121755
  30
0.0
  11
 48.400094766048
  21
 63.549759294193
  31
0.0
   0
LINE
   5
118
 100
AcDbEntity
   8
LEVEL001
 100
AcDbLine
   6
CONTINUOUS
  62
3
  10
 94.400094766048
  20
 99.668764121755
  30
0.0
  11
 94.400094766048
  21
 63.549759294193
  31
0.0
   0
LINE
   5
119
 100
AcDbEntity
   8
LEVEL001
 100
AcDbLine
   6
CONTINUOUS
  62
3
  10
 48.400094766048
  20
 64.549759294193
  30
0.0
  11
 71.400094766048
  21
 64.549759294193
  31
0.0
   0
LINE
   5
11A
 100
AcDbEntity
   8
LEVEL001
 100
AcDbLine
   6
CONTINUOUS
  62
3
  10
 94.400094766048
  20
 64.549759294193
  30
0.0
  11
 71.400094766048
  21
 64.549759294193
  31
0.0
   0
INSERT
   5
11B
 100
AcDbEntity
   8
LEVEL001
   6
CONTINUOUS
  62
3
 100
AcDbBlockReference
   2
_OPEN30
  10
 48.400094766048
  20
 64.549759294193
  30
0.0
  41
 3.0000000000000
  42
 3.0000000000000
  43
 3.0000000000000
  50
 180.00000000000
   0
INSERT
   5
11C
 100
AcDbEntity
   8
LEVEL001
   6
CONTINUOUS
  62
3
 100
AcDbBlockReference
   2
_OPEN30
  10
 94.400094766048
  20
 64.549759294193
  30
0.0
  41
 3.0000000000000
  42
 3.0000000000000
  43
 3.0000000000000
  50
0.0
   0
MTEXT
   5
11D
 100
AcDbEntity
   8
LEVEL001
  62
3
 100
AcDbMText
  10
 71.400094766048
  20
 66.264045008479
  30
0.0
  40
 4.0000000000000
  41
0.0
  71
8
  72
1
   1
\A1;46
   7
GMM001
   0
ENDBLK
   5
11E
 100
AcDbEntity
   8
0
 100
AcDbBlockEnd
   0
BLOCK
   5
11F
 100
AcDbEntity
   8
0
 100
AcDbBlockBegin
   2
*D11
  70
65
  10
0.0
  20
0.0
  30
0.0
   3
*D11
   0
LINE
   5
120
 100
AcDbEntity
   8
LEVEL001
 100
AcDbLine
   6
CONTINUOUS
  62
3
  10
 98.900094766048
  20
 101.16876412176
  30
0.0
  11
 98.900094766048
  21
 63.549759294193
  31
0.0
   0
LINE
   5
121
 100
AcDbEntity
   8
LEVEL001
 100
AcDbLine
   6
CONTINUOUS
  62
3
  10
 110.02359100665
  20
 64.549759294193
  30
0.0
  11
 96.650094766048
  21
 64.549759294193
  31
0.0
   0
LINE
   5
122
 100
AcDbEntity
   8
LEVEL001
 100
AcDbLine
   6
CONTINUOUS
  62
3
  10
 90.650094766048
  20
 64.549759294193
  30
0.0
  11
 96.650094766048
  21
 64.549759294193
  31
0.0
   0
INSERT
   5
123
 100
AcDbEntity
   8
LEVEL001
   6
CONTINUOUS
  62
3
 100
AcDbBlockReference
   2
_OPEN30
  10
 98.900094766048
  20
 64.549759294193
  30
0.0
  41
 3.0000000000000
  42
 3.0000000000000
  43
 3.0000000000000
  50
 180.00000000000
   0
INSERT
   5
124
 100
AcDbEntity
   8
LEVEL001
   6
CONTINUOUS
  62
3
 100
AcDbBlockReference
   2
_OPEN30
  10
 94.400094766048
  20
 64.549759294193
  30
0.0
  41
 3.0000000000000
  42
 3.0000000000000
  43
 3.0000000000000
  50
0.0
   0
MTEXT
   5
125
 100
AcDbEntity
   8
LEVEL001
  62
3
 100
AcDbMText
  10
 105.64859100665
  20
 66.264045008479
  30
0.0
  40
 4.0000000000000
  41
0.0
  71
8
  72
1
   1
\A1;4.5
   7
GMM001
   0
ENDBLK
   5
126
 100
AcDbEntity
   8
0
 100
AcDbBlockEnd
   0
BLOCK
   5
127
 100
AcDbEntity
   8
0
 100
AcDbBlockBegin
   2
*D12
  70
65
  10
0.0
  20
0.0
  30
0.0
   3
*D12
   0
LINE
   5
128
 100
AcDbEntity
   8
LEVEL001
 100
AcDbLine
   6
CONTINUOUS
  62
3
  10
 43.900094766048
  20
 101.16876412176
  30
0.0
  11
 43.900094766048
  21
 63.549759294193
  31
0.0
   0
LINE
   5
129
 100
AcDbEntity
   8
LEVEL001
 100
AcDbLine
   6
CONTINUOUS
  62
3
  10
 33.041260179582
  20
 64.549759294193
  30
0.0
  11
 46.150094766048
  21
 64.549759294193
  31
0.0
   0
LINE
   5
12A
 100
AcDbEntity
   8
LEVEL001
 100
AcDbLine
   6
CONTINUOUS
  62
3
  10
 52.150094766048
  20
 64.549759294193
  30
0.0
  11
 46.150094766048
  21
 64.549759294193
  31
0.0
   0
INSERT
   5
12B
 100
AcDbEntity
   8
LEVEL001
   6
CONTINUOUS
  62
3
 100
AcDbBlockReference
   2
_OPEN30
  10
 43.900094766048
  20
 64.549759294193
  30
0.0
  41
 3.0000000000000
  42
 3.0000000000000
  43
 3.0000000000000
  50
0.0
   0
INSERT
   5
12C
 100
AcDbEntity
   8
LEVEL001
   6
CONTINUOUS
  62
3
 100
AcDbBlockReference
   2
_OPEN30
  10
 48.400094766048
  20
 64.549759294193
  30
0.0
  41
 3.0000000000000
  42
 3.0000000000000
  43
 3.0000000000000
  50
 180.00000000000
   0
MTEXT
   5
12D
 100
AcDbEntity
   8
LEVEL001
  62
3
 100
AcDbMText
  10
 37.416260179582
  20
 66.264045008479
  30
0.0
  40
 4.0000000000000
  41
0.0
  71
8
  72
1
   1
\A1;4.5
   7
GMM001
   0
ENDBLK
   5
12E
 100
AcDbEntity
   8
0
 100
AcDbBlockEnd
   0
BLOCK
   5
12F
 100
AcDbEntity
   8
0
 100
AcDbBlockBegin
   2
*D13
  70
65
  10
0.0
  20
0.0
  30
0.0
   3
*D13
   0
LINE
   5
130
 100
AcDbEntity
   8
LEVEL001
 100
AcDbLine
   6
CONTINUOUS
  62
3
  10
 43.900094766048
  20
 103.66876412176
  30
0.0
  11
 43.900094766048
  21
 117.58045656334
  31
0.0
   0
LINE
   5
131
 100
AcDbEntity
   8
LEVEL001
 100
AcDbLine
   6
CONTINUOUS
  62
3
  10
 98.900094766048
  20
 103.66876412176
  30
0.0
  11
 98.900094766048
  21
 117.58045656334
  31
0.0
   0
LINE
   5
132
 100
AcDbEntity
   8
LEVEL001
 100
AcDbLine
   6
CONTINUOUS
  62
3
  10
 43.900094766048
  20
 116.58045656334
  30
0.0
  11
 71.400094766048
  21
 116.58045656334
  31
0.0
   0
LINE
   5
133
 100
AcDbEntity
   8
LEVEL001
 100
AcDbLine
   6
CONTINUOUS
  62
3
  10
 98.900094766048
  20
 116.58045656334
  30
0.0
  11
 71.400094766048
  21
 116.58045656334
  31
0.0
   0
INSERT
   5
134
 100
AcDbEntity
   8
LEVEL001
   6
CONTINUOUS
  62
3
 100
AcDbBlockReference
   2
_OPEN30
  10
 43.900094766048
  20
 116.58045656334
  30
0.0
  41
 3.0000000000000
  42
 3.0000000000000
  43
 3.0000000000000
  50
 180.00000000000
   0
INSERT
   5
135
 100
AcDbEntity
   8
LEVEL001
   6
CONTINUOUS
  62
3
 100
AcDbBlockReference
   2
_OPEN30
  10
 98.900094766048
  20
 116.58045656334
  30
0.0
  41
 3.0000000000000
  42
 3.0000000000000
  43
 3.0000000000000
  50
0.0
   0
MTEXT
   5
136
 100
AcDbEntity
   8
LEVEL001
  62
3
 100
AcDbMText
  10
 71.400094766048
  20
 118.29474227762
  30
0.0
  40
 4.0000000000000
  41
0.0
  71
8
  72
1
   1
\A1;55
   7
GMM001
   0
ENDBLK
   5
137
 100
AcDbEntity
   8
0
 100
AcDbBlockEnd
   0
BLOCK
   5
138
 100
AcDbEntity
   8
0
 100
AcDbBlockBegin
   2
*D14
  70
65
  10
0.0
  20
0.0
  30
0.0
   3
*D14
   0
LINE
   5
139
 100
AcDbEntity
   8
LEVEL001
 100
AcDbLine
   6
CONTINUOUS
  62
3
  10
 187.79126550258
  20
 154.02987000866
  30
0.0
  11
 187.79126550258
  21
 133.69572121282
  31
0.0
   0
LINE
   5
13A
 100
AcDbEntity
   8
LEVEL001
 100
AcDbLine
   6
CONTINUOUS
  62
3
  10
 173.29126550258
  20
 134.69572121282
  30
0.0
  11
 180.54126550258
  21
 134.69572121282
  31
0.0
   0
LINE
   5
13B
 100
AcDbEntity
   8
LEVEL001
 100
AcDbLine
   6
CONTINUOUS
  62
3
  10
 187.79126550258
  20
 134.69572121282
  30
0.0
  11
 180.54126550258
  21
 134.69572121282
  31
0.0
   0
INSERT
   5
13C
 100
AcDbEntity
   8
LEVEL001
   6
CONTINUOUS
  62
3
 100
AcDbBlockReference
   2
_OPEN30
  10
 173.29126550258
  20
 134.69572121282
  30
0.0
  41
 3.0000000000000
  42
 3.0000000000000
  43
 3.0000000000000
  50
 180.00000000000
   0
INSERT
   5
13D
 100
AcDbEntity
   8
LEVEL001
   6
CONTINUOUS
  62
3
 100
AcDbBlockReference
   2
_OPEN30
  10
 187.79126550258
  20
 134.69572121282
  30
0.0
  41
 3.0000000000000
  42
 3.0000000000000
  43
 3.0000000000000
  50
0.0
   0
MTEXT
   5
13E
 100
AcDbEntity
   8
LEVEL001
  62
3
 100
AcDbMText
  10
 180.54126550258
  20
 136.41000692710
  30
0.0
  40
 4.0000000000000
  41
0.0
  71
8
  72
1
   1
\A1;14.5
   7
GMM001
   0
ENDBLK
   5
13F
 100
AcDbEntity
   8
0
 100
AcDbBlockEnd
   0
BLOCK
   5
140
 100
AcDbEntity
   8
0
 100
AcDbBlockBegin
   2
*D15
  70
65
  10
0.0
  20
0.0
  30
0.0
   3
*D15
   0
LINE
   5
141
 100
AcDbEntity
   8
LEVEL001
 100
AcDbLine
   6
CONTINUOUS
  62
3
  10
 187.79126550258
  20
 133.19572121282
  30
0.0
  11
 187.79126550258
  21
 125.01925751871
  31
0.0
   0
LINE
   5
142
 100
AcDbEntity
   8
LEVEL001
 100
AcDbLine
   6
CONTINUOUS
  62
3
  10
 171.79126550258
  20
 133.19572121282
  30
0.0
  11
 171.79126550258
  21
 125.01925751871
  31
0.0
   0
LINE
   5
143
 100
AcDbEntity
   8
LEVEL001
 100
AcDbLine
   6
CONTINUOUS
  62
3
  10
 187.79126550258
  20
 126.01925751871
  30
0.0
  11
 179.79126550258
  21
 126.01925751871
  31
0.0
   0
LINE
   5
144
 100
AcDbEntity
   8
LEVEL001
 100
AcDbLine
   6
CONTINUOUS
  62
3
  10
 171.79126550258
  20
 126.01925751871
  30
0.0
  11
 179.79126550258
  21
 126.01925751871
  31
0.0
   0
INSERT
   5
145
 100
AcDbEntity
   8
LEVEL001
   6
CONTINUOUS
  62
3
 100
AcDbBlockReference
   2
_OPEN30
  10
 187.79126550258
  20
 126.01925751871
  30
0.0
  41
 3.0000000000000
  42
 3.0000000000000
  43
 3.0000000000000
  50
0.0
   0
INSERT
   5
146
 100
AcDbEntity
   8
LEVEL001
   6
CONTINUOUS
  62
3
 100
AcDbBlockReference
   2
_OPEN30
  10
 171.79126550258
  20
 126.01925751871
  30
0.0
  41
 3.0000000000000
  42
 3.0000000000000
  43
 3.0000000000000
  50
 180.00000000000
   0
MTEXT
   5
147
 100
AcDbEntity
   8
LEVEL001
  62
3
 100
AcDbMText
  10
 179.79126550258
  20
 127.73354323299
  30
0.0
  40
 4.0000000000000
  41
0.0
  71
8
  72
1
   1
\A1;16
   7
GMM001
   0
ENDBLK
   5
148
 100
AcDbEntity
   8
0
 100
AcDbBlockEnd
   0
BLOCK
   5
149
 100
AcDbEntity
   8
0
 100
AcDbBlockBegin
   2
*D16
  70
65
  10
0.0
  20
0.0
  30
0.0
   3
*D16
   0
LINE
   5
14A
 100
AcDbEntity
   8
LEVEL001
 100
AcDbLine
   6
CONTINUOUS
  62
3
  10
 171.79126550258
  20
 147.02987000866
  30
0.0
  11
 171.79126550258
  21
 133.69572121282
  31
0.0
   0
LINE
   5
14B
 100
AcDbEntity
   8
LEVEL001
 100
AcDbLine
   6
CONTINUOUS
  62
3
  10
 173.29126550258
  20
 147.02987000866
  30
0.0
  11
 173.29126550258
  21
 133.69572121282
  31
0.0
   0
LINE
   5
14C
 100
AcDbEntity
   8
LEVEL001
 100
AcDbLine
   6
CONTINUOUS
  62
3
  10
 160.35874670559
  20
 134.69572121282
  30
0.0
  11
 172.54126550258
  21
 134.69572121282
  31
0.0
   0
LINE
   5
14D
 100
AcDbEntity
   8
LEVEL001
 100
AcDbLine
   6
CONTINUOUS
  62
3
  10
 177.04126550258
  20
 134.69572121282
  30
0.0
  11
 172.54126550258
  21
 134.69572121282
  31
0.0
   0
INSERT
   5
14E
 100
AcDbEntity
   8
LEVEL001
   6
CONTINUOUS
  62
3
 100
AcDbBlockReference
   2
_OPEN30
  10
 171.79126550258
  20
 134.69572121282
  30
0.0
  41
 3.0000000000000
  42
 3.0000000000000
  43
 3.0000000000000
  50
0.0
   0
INSERT
   5
14F
 100
AcDbEntity
   8
LEVEL001
   6
CONTINUOUS
  62
3
 100
AcDbBlockReference
   2
_OPEN30
  10
 173.29126550258
  20
 134.69572121282
  30
0.0
  41
 3.0000000000000
  42
 3.0000000000000
  43
 3.0000000000000
  50
 180.00000000000
   0
MTEXT
   5
150
 100
AcDbEntity
   8
LEVEL001
  62
3
 100
AcDbMText
  10
 164.73374670559
  20
 136.41000692710
  30
0.0
  40
 4.0000000000000
  41
0.0
  71
8
  72
1
   1
\A1;1.5
   7
GMM001
   0
ENDBLK
   5
151
 100
AcDbEntity
   8
0
 100
AcDbBlockEnd
   0
BLOCK
   5
152
 100
AcDbEntity
   8
0
 100
AcDbBlockBegin
   2
*D17
  70
65
  10
0.0
  20
0.0
  30
0.0
   3
*D17
   0
LINE
   5
153
 100
AcDbEntity
   8
LEVEL001
 100
AcDbLine
   6
CONTINUOUS
  62
3
  10
 244.72320852030
  20
 212.52987000866
  30
0.0
  11
 223.43526168262
  21
 212.52987000866
  31
0.0
   0
LINE
   5
154
 100
AcDbEntity
   8
LEVEL001
 100
AcDbLine
   6
CONTINUOUS
  62
3
  10
 234.58472127041
  20
 227.52987000866
  30
0.0
  11
 223.43526168262
  21
 227.52987000866
  31
0.0
   0
LINE
   5
155
 100
AcDbEntity
   8
LEVEL001
 100
AcDbLine
   6
CONTINUOUS
  62
3
  10
 224.43526168262
  20
 212.52987000866
  30
0.0
  11
 224.43526168262
  21
 220.02987000866
  31
0.0
   0
LINE
   5
156
 100
AcDbEntity
   8
LEVEL001
 100
AcDbLine
   6
CONTINUOUS
  62
3
  10
 224.43526168262
  20
 227.52987000866
  30
0.0
  11
 224.43526168262
  21
 220.02987000866
  31
0.0
   0
INSERT
   5
157
 100
AcDbEntity
   8
LEVEL001
   6
CONTINUOUS
  62
3
 100
AcDbBlockReference
   2
_OPEN30
  10
 224.43526168262
  20
 212.52987000866
  30
0.0
  41
 3.0000000000000
  42
 3.0000000000000
  43
 3.0000000000000
  50
 270.00000000000
   0
INSERT
   5
158
 100
AcDbEntity
   8
LEVEL001
   6
CONTINUOUS
  62
3
 100
AcDbBlockReference
   2
_OPEN30
  10
 224.43526168262
  20
 227.52987000866
  30
0.0
  41
 3.0000000000000
  42
 3.0000000000000
  43
 3.0000000000000
  50
 90.000000000000
   0
MTEXT
   5
159
 100
AcDbEntity
   8
LEVEL001
  62
3
 100
AcDbMText
  10
 222.72097596834
  20
 220.02987000866
  30
0.0
  40
 4.0000000000000
  41
0.0
  71
8
  72
1
   1
\A1;15
   7
GMM001
  11
0.0
  21
 1.0000000000000
  31
0.0
   0
ENDBLK
   5
15A
 100
AcDbEntity
   8
0
 100
AcDbBlockEnd
   0
BLOCK
   5
15B
 100
AcDbEntity
   8
0
 100
AcDbBlockBegin
   2
*D18
  70
65
  10
0.0
  20
0.0
  30
0.0
   3
*D18
   0
LINE
   5
15C
 100
AcDbEntity
   8
LEVEL001
 100
AcDbLine
   6
CONTINUOUS
  62
3
  10
 290.08472127041
  20
 228.02987000866
  30
0.0
  11
 290.08472127041
  21
 239.05648145016
  31
0.0
   0
LINE
   5
15D
 100
AcDbEntity
   8
LEVEL001
 100
AcDbLine
   6
CONTINUOUS
  62
3
  10
 275.08472127041
  20
 238.05648145016
  30
0.0
  11
 282.58472127041
  21
 238.05648145016
  31
0.0
   0
LINE
   5
15E
 100
AcDbEntity
   8
LEVEL001
 100
AcDbLine
   6
CONTINUOUS
  62
3
  10
 290.08472127041
  20
 238.05648145016
  30
0.0
  11
 282.58472127041
  21
 238.05648145016
  31
0.0
   0
INSERT
   5
15F
 100
AcDbEntity
   8
LEVEL001
   6
CONTINUOUS
  62
3
 100
AcDbBlockReference
   2
_OPEN30
  10
 275.08472127041
  20
 238.05648145016
  30
0.0
  41
 3.0000000000000
  42
 3.0000000000000
  43
 3.0000000000000
  50
 180.00000000000
   0
INSERT
   5
160
 100
AcDbEntity
   8
LEVEL001
   6
CONTINUOUS
  62
3
 100
AcDbBlockReference
   2
_OPEN30
  10
 290.08472127041
  20
 238.05648145016
  30
0.0
  41
 3.0000000000000
  42
 3.0000000000000
  43
 3.0000000000000
  50
0.0
   0
MTEXT
   5
161
 100
AcDbEntity
   8
LEVEL001
  62
3
 100
AcDbMText
  10
 282.58472127041
  20
 239.77076716444
  30
0.0
  40
 4.0000000000000
  41
0.0
  71
8
  72
1
   1
\A1;15
   7
GMM001
   0
ENDBLK
   5
162
 100
AcDbEntity
   8
0
 100
AcDbBlockEnd
   0
BLOCK
   5
163
 100
AcDbEntity
   8
0
 100
AcDbBlockBegin
   2
*D19
  70
65
  10
0.0
  20
0.0
  30
0.0
   3
*D19
   0
LINE
   5
164
 100
AcDbEntity
   8
LEVEL001
 100
AcDbLine
   6
CONTINUOUS
  62
3
  10
 235.08472127041
  20
 228.02987000866
  30
0.0
  11
 235.08472127041
  21
 239.05648145016
  31
0.0
   0
LINE
   5
165
 100
AcDbEntity
   8
LEVEL001
 100
AcDbLine
   6
CONTINUOUS
  62
3
  10
 250.08472127041
  20
 238.05648145016
  30
0.0
  11
 242.58472127041
  21
 238.05648145016
  31
0.0
   0
LINE
   5
166
 100
AcDbEntity
   8
LEVEL001
 100
AcDbLine
   6
CONTINUOUS
  62
3
  10
 235.08472127041
  20
 238.05648145016
  30
0.0
  11
 242.58472127041
  21
 238.05648145016
  31
0.0
   0
INSERT
   5
167
 100
AcDbEntity
   8
LEVEL001
   6
CONTINUOUS
  62
3
 100
AcDbBlockReference
   2
_OPEN30
  10
 250.08472127041
  20
 238.05648145016
  30
0.0
  41
 3.0000000000000
  42
 3.0000000000000
  43
 3.0000000000000
  50
0.0
   0
INSERT
   5
168
 100
AcDbEntity
   8
LEVEL001
   6
CONTINUOUS
  62
3
 100
AcDbBlockReference
   2
_OPEN30
  10
 235.08472127041
  20
 238.05648145016
  30
0.0
  41
 3.0000000000000
  42
 3.0000000000000
  43
 3.0000000000000
  50
 180.00000000000
   0
MTEXT
   5
169
 100
AcDbEntity
   8
LEVEL001
  62
3
 100
AcDbMText
  10
 242.58472127041
  20
 239.77076716444
  30
0.0
  40
 4.0000000000000
  41
0.0
  71
8
  72
1
   1
\A1;15
   7
GMM001
   0
ENDBLK
   5
16A
 100
AcDbEntity
   8
0
 100
AcDbBlockEnd
   0
BLOCK
   5
16B
 100
AcDbEntity
   8
0
 100
AcDbBlockBegin
   2
*D20
  70
65
  10
0.0
  20
0.0
  30
0.0
   3
*D20
   0
LINE
   5
16C
 100
AcDbEntity
   8
LEVEL001
 100
AcDbLine
   6
CONTINUOUS
  62
3
  10
 250.08472127041
  20
 217.36993851624
  30
0.0
  11
 250.08472127041
  21
 239.05648145016
  31
0.0
   0
LINE
   5
16D
 100
AcDbEntity
   8
LEVEL001
 100
AcDbLine
   6
CONTINUOUS
  62
3
  10
 275.08472127041
  20
 217.36993851624
  30
0.0
  11
 275.08472127041
  21
 239.05648145016
  31
0.0
   0
LINE
   5
16E
 100
AcDbEntity
   8
LEVEL001
 100
AcDbLine
   6
CONTINUOUS
  62
3
  10
 250.08472127041
  20
 238.05648145016
  30
0.0
  11
 262.58472127041
  21
 238.05648145016
  31
0.0
   0
LINE
   5
16F
 100
AcDbEntity
   8
LEVEL001
 100
AcDbLine
   6
CONTINUOUS
  62
3
  10
 275.08472127041
  20
 238.05648145016
  30
0.0
  11
 262.58472127041
  21
 238.05648145016
  31
0.0
   0
INSERT
   5
170
 100
AcDbEntity
   8
LEVEL001
   6
CONTINUOUS
  62
3
 100
AcDbBlockReference
   2
_OPEN30
  10
 250.08472127041
  20
 238.05648145016
  30
0.0
  41
 3.0000000000000
  42
 3.0000000000000
  43
 3.0000000000000
  50
 180.00000000000
   0
INSERT
   5
171
 100
AcDbEntity
   8
LEVEL001
   6
CONTINUOUS
  62
3
 100
AcDbBlockReference
   2
_OPEN30
  10
 275.08472127041
  20
 238.05648145016
  30
0.0
  41
 3.0000000000000
  42
 3.0000000000000
  43
 3.0000000000000
  50
0.0
   0
MTEXT
   5
172
 100
AcDbEntity
   8
LEVEL001
  62
3
 100
AcDbMText
  10
 262.58472127041
  20
 239.77076716444
  30
0.0
  40
 4.0000000000000
  41
0.0
  71
8
  72
1
   1
\A1;25
   7
GMM001
   0
ENDBLK
   5
173
 100
AcDbEntity
   8
0
 100
AcDbBlockEnd
   0
BLOCK
   5
174
 100
AcDbEntity
   8
0
 100
AcDbBlockBegin
   2
*D21
  70
65
  10
0.0
  20
0.0
  30
0.0
   3
*D21
   0
LINE
   5
175
 100
AcDbEntity
   8
LEVEL001
 100
AcDbLine
   6
CONTINUOUS
  62
3
  10
 244.72320852030
  20
 212.52987000866
  30
0.0
  11
 223.43526168262
  21
 212.52987000866
  31
0.0
   0
LINE
   5
176
 100
AcDbEntity
   8
LEVEL001
 100
AcDbLine
   6
CONTINUOUS
  62
3
  10
 244.59057254913
  20
 162.52987000866
  30
0.0
  11
 223.43526168262
  21
 162.52987000866
  31
0.0
   0
LINE
   5
177
 100
AcDbEntity
   8
LEVEL001
 100
AcDbLine
   6
CONTINUOUS
  62
3
  10
 224.43526168262
  20
 212.52987000866
  30
0.0
  11
 224.43526168262
  21
 187.52987000866
  31
0.0
   0
LINE
   5
178
 100
AcDbEntity
   8
LEVEL001
 100
AcDbLine
   6
CONTINUOUS
  62
3
  10
 224.43526168262
  20
 162.52987000866
  30
0.0
  11
 224.43526168262
  21
 187.52987000866
  31
0.0
   0
INSERT
   5
179
 100
AcDbEntity
   8
LEVEL001
   6
CONTINUOUS
  62
3
 100
AcDbBlockReference
   2
_OPEN30
  10
 224.43526168262
  20
 212.52987000866
  30
0.0
  41
 3.0000000000000
  42
 3.0000000000000
  43
 3.0000000000000
  50
 90.000000000000
   0
INSERT
   5
17A
 100
AcDbEntity
   8
LEVEL001
   6
CONTINUOUS
  62
3
 100
AcDbBlockReference
   2
_OPEN30
  10
 224.43526168262
  20
 162.52987000866
  30
0.0
  41
 3.0000000000000
  42
 3.0000000000000
  43
 3.0000000000000
  50
 270.00000000000
   0
MTEXT
   5
17B
 100
AcDbEntity
   8
LEVEL001
  62
3
 100
AcDbMText
  10
 222.72097596834
  20
 187.52987000866
  30
0.0
  40
 4.0000000000000
  41
0.0
  71
8
  72
1
   1
\A1;50
   7
GMM001
  11
0.0
  21
 1.0000000000000
  31
0.0
   0
ENDBLK
   5
17C
 100
AcDbEntity
   8
0
 100
AcDbBlockEnd
   0
BLOCK
   5
17D
 100
AcDbEntity
   8
0
 100
AcDbBlockBegin
   2
*D22
  70
65
  10
0.0
  20
0.0
  30
0.0
   3
*D22
   0
LINE
   5
17E
 100
AcDbEntity
   8
LEVEL001
 100
AcDbLine
   6
CONTINUOUS
  62
3
  10
 234.58472127041
  20
 147.52987000866
  30
0.0
  11
 223.43526168262
  21
 147.52987000866
  31
0.0
   0
LINE
   5
17F
 100
AcDbEntity
   8
LEVEL001
 100
AcDbLine
   6
CONTINUOUS
  62
3
  10
 224.43526168262
  20
 162.52987000866
  30
0.0
  11
 224.43526168262
  21
 155.02987000866
  31
0.0
   0
LINE
   5
180
 100
AcDbEntity
   8
LEVEL001
 100
AcDbLine
   6
CONTINUOUS
  62
3
  10
 224.43526168262
  20
 147.52987000866
  30
0.0
  11
 224.43526168262
  21
 155.02987000866
  31
0.0
   0
INSERT
   5
181
 100
AcDbEntity
   8
LEVEL001
   6
CONTINUOUS
  62
3
 100
AcDbBlockReference
   2
_OPEN30
  10
 224.43526168262
  20
 162.52987000866
  30
0.0
  41
 3.0000000000000
  42
 3.0000000000000
  43
 3.0000000000000
  50
 90.000000000000
   0
INSERT
   5
182
 100
AcDbEntity
   8
LEVEL001
   6
CONTINUOUS
  62
3
 100
AcDbBlockReference
   2
_OPEN30
  10
 224.43526168262
  20
 147.52987000866
  30
0.0
  41
 3.0000000000000
  42
 3.0000000000000
  43
 3.0000000000000
  50
 270.00000000000
   0
MTEXT
   5
183
 100
AcDbEntity
   8
LEVEL001
  62
3
 100
AcDbMText
  10
 222.72097596834
  20
 155.02987000866
  30
0.0
  40
 4.0000000000000
  41
0.0
  71
8
  72
1
   1
\A1;15
   7
GMM001
  11
0.0
  21
 1.0000000000000
  31
0.0
   0
ENDBLK
   5
184
 100
AcDbEntity
   8
0
 100
AcDbBlockEnd
   0
BLOCK
   5
185
 100
AcDbEntity
   8
0
 100
AcDbBlockBegin
   2
*D23
  70
65
  10
0.0
  20
0.0
  30
0.0
   3
*D23
   0
LINE
   5
186
 100
AcDbEntity
   8
LEVEL001
 100
AcDbLine
   6
CONTINUOUS
  62
3
  10
 175.29126550258
  20
 152.02987000866
  30
0.0
  11
 210.97832032476
  21
 152.02987000866
  31
0.0
   0
LINE
   5
187
 100
AcDbEntity
   8
LEVEL001
 100
AcDbLine
   6
CONTINUOUS
  62
3
  10
 175.29126550258
  20
 223.02987000866
  30
0.0
  11
 210.97832032476
  21
 223.02987000866
  31
0.0
   0
LINE
   5
188
 100
AcDbEntity
   8
LEVEL001
 100
AcDbLine
   6
CONTINUOUS
  62
3
  10
 209.97832032476
  20
 152.02987000866
  30
0.0
  11
 209.97832032476
  21
 187.52987000866
  31
0.0
   0
LINE
   5
189
 100
AcDbEntity
   8
LEVEL001
 100
AcDbLine
   6
CONTINUOUS
  62
3
  10
 209.97832032476
  20
 223.02987000866
  30
0.0
  11
 209.97832032476
  21
 187.52987000866
  31
0.0
   0
INSERT
   5
18A
 100
AcDbEntity
   8
LEVEL001
   6
CONTINUOUS
  62
3
 100
AcDbBlockReference
   2
_OPEN30
  10
 209.97832032476
  20
 152.02987000866
  30
0.0
  41
 3.0000000000000
  42
 3.0000000000000
  43
 3.0000000000000
  50
 270.00000000000
   0
INSERT
   5
18B
 100
AcDbEntity
   8
LEVEL001
   6
CONTINUOUS
  62
3
 100
AcDbBlockReference
   2
_OPEN30
  10
 209.97832032476
  20
 223.02987000866
  30
0.0
  41
 3.0000000000000
  42
 3.0000000000000
  43
 3.0000000000000
  50
 90.000000000000
   0
MTEXT
   5
18C
 100
AcDbEntity
   8
LEVEL001
  62
3
 100
AcDbMText
  10
 208.26403461047
  20
 187.52987000866
  30
0.0
  40
 4.0000000000000
  41
0.0
  71
8
  72
1
   1
\A1;71
   7
GMM001
  11
0.0
  21
 1.0000000000000
  31
0.0
   0
ENDBLK
   5
18D
 100
AcDbEntity
   8
0
 100
AcDbBlockEnd
   0
BLOCK
   5
18E
 100
AcDbEntity
   8
0
 100
AcDbBlockBegin
   2
*D24
  70
65
  10
0.0
  20
0.0
  30
0.0
   3
*D24
   0
LINE
   5
18F
 100
AcDbEntity
   8
LEVEL001
 100
AcDbLine
   6
CONTINUOUS
  62
3
  10
 173.79126550258
  20
 147.52987000866
  30
0.0
  11
 210.97832032476
  21
 147.52987000866
  31
0.0
   0
LINE
   5
190
 100
AcDbEntity
   8
LEVEL001
 100
AcDbLine
   6
CONTINUOUS
  62
3
  10
 209.97832032476
  20
 136.75925597357
  30
0.0
  11
 209.97832032476
  21
 149.77987000866
  31
0.0
   0
LINE
   5
191
 100
AcDbEntity
   8
LEVEL001
 100
AcDbLine
   6
CONTINUOUS
  62
3
  10
 209.97832032476
  20
 155.77987000866
  30
0.0
  11
 209.97832032476
  21
 149.77987000866
  31
0.0
   0
INSERT
   5
192
 100
AcDbEntity
   8
LEVEL001
   6
CONTINUOUS
  62
3
 100
AcDbBlockReference
   2
_OPEN30
  10
 209.97832032476
  20
 147.52987000866
  30
0.0
  41
 3.0000000000000
  42
 3.0000000000000
  43
 3.0000000000000
  50
 90.000000000000
   0
INSERT
   5
193
 100
AcDbEntity
   8
LEVEL001
   6
CONTINUOUS
  62
3
 100
AcDbBlockReference
   2
_OPEN30
  10
 209.97832032476
  20
 152.02987000866
  30
0.0
  41
 3.0000000000000
  42
 3.0000000000000
  43
 3.0000000000000
  50
 270.00000000000
   0
MTEXT
   5
194
 100
AcDbEntity
   8
LEVEL001
  62
3
 100
AcDbMText
  10
 208.26403461047
  20
 141.13425597357
  30
0.0
  40
 4.0000000000000
  41
0.0
  71
8
  72
1
   1
\A1;4.5
   7
GMM001
  11
0.0
  21
 1.0000000000000
  31
0.0
   0
ENDBLK
   5
195
 100
AcDbEntity
   8
0
 100
AcDbBlockEnd
   0
BLOCK
   5
196
 100
AcDbEntity
   8
0
 100
AcDbBlockBegin
   2
*D25
  70
65
  10
0.0
  20
0.0
  30
0.0
   3
*D25
   0
LINE
   5
197
 100
AcDbEntity
   8
LEVEL001
 100
AcDbLine
   6
CONTINUOUS
  62
3
  10
 173.79126550258
  20
 227.52987000866
  30
0.0
  11
 210.97832032476
  21
 227.52987000866
  31
0.0
   0
LINE
   5
198
 100
AcDbEntity
   8
LEVEL001
 100
AcDbLine
   6
CONTINUOUS
  62
3
  10
 209.97832032476
  20
 237.85938128686
  30
0.0
  11
 209.97832032476
  21
 225.27987000866
  31
0.0
   0
LINE
   5
199
 100
AcDbEntity
   8
LEVEL001
 100
AcDbLine
   6
CONTINUOUS
  62
3
  10
 209.97832032476
  20
 219.27987000866
  30
0.0
  11
 209.97832032476
  21
 225.27987000866
  31
0.0
   0
INSERT
   5
19A
 100
AcDbEntity
   8
LEVEL001
   6
CONTINUOUS
  62
3
 100
AcDbBlockReference
   2
_OPEN30
  10
 209.97832032476
  20
 227.52987000866
  30
0.0
  41
 3.0000000000000
  42
 3.0000000000000
  43
 3.0000000000000
  50
 270.00000000000
   0
INSERT
   5
19B
 100
AcDbEntity
   8
LEVEL001
   6
CONTINUOUS
  62
3
 100
AcDbBlockReference
   2
_OPEN30
  10
 209.97832032476
  20
 223.02987000866
  30
0.0
  41
 3.0000000000000
  42
 3.0000000000000
  43
 3.0000000000000
  50
 90.000000000000
   0
MTEXT
   5
19C
 100
AcDbEntity
   8
LEVEL001
  62
3
 100
AcDbMText
  10
 208.26403461047
  20
 233.48438128686
  30
0.0
  40
 4.0000000000000
  41
0.0
  71
8
  72
1
   1
\A1;4.5
   7
GMM001
  11
0.0
  21
 1.0000000000000
  31
0.0
   0
ENDBLK
   5
19D
 100
AcDbEntity
   8
0
 100
AcDbBlockEnd
   0
BLOCK
   5
19E
 100
AcDbEntity
   8
0
 100
AcDbBlockBegin
   2
*D26
  70
65
  10
0.0
  20
0.0
  30
0.0
   3
*D26
   0
LINE
   5
19F
 100
AcDbEntity
   8
LEVEL001
 100
AcDbLine
   6
CONTINUOUS
  62
3
  10
 262.58472127041
  20
 184.52987000866
  30
0.0
  11
 259.90511955343
  21
 188.14507880462
  31
0.0
   0
LINE
   5
1A0
 100
AcDbEntity
   8
LEVEL001
 100
AcDbLine
   6
CONTINUOUS
  62
3
  10
 259.90511955343
  20
 188.14507880462
  30
0.0
  11
 251.51851694493
  21
 199.45993926552
  31
0.0
   0
INSERT
   5
1A1
 100
AcDbEntity
   8
LEVEL001
   6
CONTINUOUS
  62
3
 100
AcDbBlockReference
   2
_OPEN30
  10
 257.22551783645
  20
 191.76028760057
  30
0.0
  41
 3.0000000000000
  42
 3.0000000000000
  43
 3.0000000000000
  50
 306.54593407235
   0
MTEXT
   5
1A2
 100
AcDbEntity
   8
LEVEL001
  62
3
 100
AcDbMText
  10
 257.12355538573
  20
 194.77674381932
  30
0.0
  40
 4.0000000000000
  41
0.0
  71
9
  72
1
   1
\A1;R9
   7
GMM001
  11
 0.59546704821820
  21
-0.80337973243436
  31
0.0
   0
ENDBLK
   5
1A3
 100
AcDbEntity
   8
0
 100
AcDbBlockEnd
   0
BLOCK
   5
1A4
 100
AcDbEntity
   8
0
 100
AcDbBlockBegin
   2
*D27
  70
65
  10
0.0
  20
0.0
  30
0.0
   3
*D27
   0
LINE
   5
1A5
 100
AcDbEntity
   8
LEVEL001
 100
AcDbLine
   6
CONTINUOUS
  62
3
  10
 262.58472127041
  20
 165.42444099622
  30
0.0
  11
 261.51645647931
  21
 162.89041054335
  31
0.0
   0
LINE
   5
1A6
 100
AcDbEntity
   8
LEVEL001
 100
AcDbLine
   6
CONTINUOUS
  62
3
  10
 261.51645647931
  20
 162.89041054335
  30
0.0
  11
 248.86349664061
  21
 132.87632993589
  31
0.0
   0
INSERT
   5
1A7
 100
AcDbEntity
   8
LEVEL001
   6
CONTINUOUS
  62
3
 100
AcDbBlockReference
   2
_OPEN30
  10
 260.44819168821
  20
 160.35638009047
  30
0.0
  41
 3.0000000000000
  42
 3.0000000000000
  43
 3.0000000000000
  50
 67.141294733545
   0
MTEXT
   5
1A8
 100
AcDbEntity
   8
LEVEL001
  62
3
 100
AcDbMText
  10
 251.96478337802
  20
 144.64592194593
  30
0.0
  40
 4.0000000000000
  41
0.0
  71
9
  72
1
   1
\A1;R5.5
   7
GMM001
  11
 0.38845992403719
  21
 0.92146561922679
  31
0.0
   0
ENDBLK
   5
1A9
 100
AcDbEntity
   8
0
 100
AcDbBlockEnd
   0
BLOCK
   5
1AA
 100
AcDbEntity
   8
0
 100
AcDbBlockBegin
   2
*D28
  70
65
  10
0.0
  20
0.0
  30
0.0
   3
*D28
   0
LINE
   5
1AB
 100
AcDbEntity
   8
LEVEL001
 100
AcDbLine
   6
CONTINUOUS
  62
3
  10
 188.29126550258
  20
 154.52987000866
  30
0.0
  11
 202.13066010770
  21
 154.52987000866
  31
0.0
   0
LINE
   5
1AC
 100
AcDbEntity
   8
LEVEL001
 100
AcDbLine
   6
CONTINUOUS
  62
3
  10
 188.29126550258
  20
 220.52987000866
  30
0.0
  11
 202.13066010770
  21
 220.52987000866
  31
0.0
   0
LINE
   5
1AD
 100
AcDbEntity
   8
LEVEL001
 100
AcDbLine
   6
CONTINUOUS
  62
3
  10
 201.13066010770
  20
 154.52987000866
  30
0.0
  11
 201.13066010770
  21
 187.52987000866
  31
0.0
   0
LINE
   5
1AE
 100
AcDbEntity
   8
LEVEL001
 100
AcDbLine
   6
CONTINUOUS
  62
3
  10
 201.13066010770
  20
 220.52987000866
  30
0.0
  11
 201.13066010770
  21
 187.52987000866
  31
0.0
   0
INSERT
   5
1AF
 100
AcDbEntity
   8
LEVEL001
   6
CONTINUOUS
  62
3
 100
AcDbBlockReference
   2
_OPEN30
  10
 201.13066010770
  20
 154.52987000866
  30
0.0
  41
 3.0000000000000
  42
 3.0000000000000
  43
 3.0000000000000
  50
 270.00000000000
   0
INSERT
   5
1B0
 100
AcDbEntity
   8
LEVEL001
   6
CONTINUOUS
  62
3
 100
AcDbBlockReference
   2
_OPEN30
  10
 201.13066010770
  20
 220.52987000866
  30
0.0
  41
 3.0000000000000
  42
 3.0000000000000
  43
 3.0000000000000
  50
 90.000000000000
   0
MTEXT
   5
1B1
 100
AcDbEntity
   8
LEVEL001
  62
3
 100
AcDbMText
  10
 199.41637439342
  20
 187.52987000866
  30
0.0
  40
 4.0000000000000
  41
0.0
  71
8
  72
1
   1
\A1;66
   7
GMM001
  11
0.0
  21
 1.0000000000000
  31
0.0
   0
ENDBLK
   5
1B2
 100
AcDbEntity
   8
0
 100
AcDbBlockEnd
   0
BLOCK
   5
1B3
 100
AcDbEntity
   8
0
 100
AcDbBlockBegin
   2
*D29
  70
65
  10
0.0
  20
0.0
  30
0.0
   3
*D29
   0
POLYLINE
   5
1B4
 100
AcDbEntity
   8
LEVEL001
   6
CONTINUOUS
  62
3
 100
AcDb2dPolyline
  66
1
  10
0.0
  20
0.0
  30
0.0
  70
0
   0
VERTEX
   5
1B5
 100
AcDbEntity
   8
LEVEL001
   6
CONTINUOUS
  62
3
 100
AcDbVertex
 100
AcDb2dVertex
  10
 275.08472127041
  20
 162.52987000866
  30
0.0
   0
VERTEX
   5
1B6
 100
AcDbEntity
   8
LEVEL001
   6
CONTINUOUS
  62
3
 100
AcDbVertex
 100
AcDb2dVertex
  10
 282.77906775107
  20
 125.50338763980
  30
0.0
   0
VERTEX
   5
1B7
 100
AcDbEntity
   8
LEVEL001
   6
CONTINUOUS
  62
3
 100
AcDbVertex
 100
AcDb2dVertex
  10
 322.87906775107
  20
 125.50338763980
  30
0.0
   0
SEQEND
   5
1B8
 100
AcDbEntity
   8
LEVEL001
   6
CONTINUOUS
  62
3
   0
INSERT
   5
1B9
 100
AcDbEntity
   8
LEVEL001
   6
CONTINUOUS
  62
3
 100
AcDbBlockReference
   2
_OPEN30
  10
 275.08472127041
  20
 162.52987000866
  30
0.0
  41
 3.0000000000000
  42
 3.0000000000000
  43
 3.0000000000000
  50
 101.73936030602
   0
MTEXT
   5
1BA
 100
AcDbEntity
   8
LEVEL001
  62
3
 100
AcDbMText
  10
 282.77906775107
  20
 127.21767335409
  30
0.0
  40
 4.0000000000000
  41
0.0
  71
7
  72
1
   1
\A1;４－%%c４.５穴 %%c７．２皿
   7
GMM001
   0
ENDBLK
   5
1BB
 100
AcDbEntity
   8
0
 100
AcDbBlockEnd
   0
BLOCK
   5
1BC
 100
AcDbEntity
   8
0
 100
AcDbBlockBegin
   2
*D30
  70
65
  10
0.0
  20
0.0
  30
0.0
   3
*D30
   0
LINE
   5
1BD
 100
AcDbEntity
   8
LEVEL001
 100
AcDbLine
   6
CONTINUOUS
  62
3
  10
 290.58472127041
  20
 147.52987000866
  30
0.0
  11
 306.89999602683
  21
 147.52987000866
  31
0.0
   0
LINE
   5
1BE
 100
AcDbEntity
   8
LEVEL001
 100
AcDbLine
   6
CONTINUOUS
  62
3
  10
 305.89999602683
  20
 136.37124169008
  30
0.0
  11
 305.89999602683
  21
 149.77987000866
  31
0.0
   0
LINE
   5
1BF
 100
AcDbEntity
   8
LEVEL001
 100
AcDbLine
   6
CONTINUOUS
  62
3
  10
 305.89999602683
  20
 155.77987000866
  30
0.0
  11
 305.89999602683
  21
 149.77987000866
  31
0.0
   0
INSERT
   5
1C0
 100
AcDbEntity
   8
LEVEL001
   6
CONTINUOUS
  62
3
 100
AcDbBlockReference
   2
_OPEN30
  10
 305.89999602683
  20
 147.52987000866
  30
0.0
  41
 3.0000000000000
  42
 3.0000000000000
  43
 3.0000000000000
  50
 90.000000000000
   0
INSERT
   5
1C1
 100
AcDbEntity
   8
LEVEL001
   6
CONTINUOUS
  62
3
 100
AcDbBlockReference
   2
_OPEN30
  10
 305.89999602683
  20
 152.02987000866
  30
0.0
  41
 3.0000000000000
  42
 3.0000000000000
  43
 3.0000000000000
  50
 270.00000000000
   0
MTEXT
   5
1C2
 100
AcDbEntity
   8
LEVEL001
  62
3
 100
AcDbMText
  10
 304.18571031254
  20
 140.74624169008
  30
0.0
  40
 4.0000000000000
  41
0.0
  71
8
  72
1
   1
\A1;4.5
   7
GMM001
  11
0.0
  21
 1.0000000000000
  31
0.0
   0
ENDBLK
   5
1C3
 100
AcDbEntity
   8
0
 100
AcDbBlockEnd
   0
BLOCK
   5
1C4
 100
AcDbEntity
   8
0
 100
AcDbBlockBegin
   2
*D31
  70
65
  10
0.0
  20
0.0
  30
0.0
   3
*D31
   0
LINE
   5
1C5
 100
AcDbEntity
   8
LEVEL001
 100
AcDbLine
   6
CONTINUOUS
  62
3
  10
 290.58472127041
  20
 227.52987000866
  30
0.0
  11
 306.89999602683
  21
 227.52987000866
  31
0.0
   0
LINE
   5
1C6
 100
AcDbEntity
   8
LEVEL001
 100
AcDbLine
   6
CONTINUOUS
  62
3
  10
 305.89999602683
  20
 239.00000275202
  30
0.0
  11
 305.89999602683
  21
 225.27987000866
  31
0.0
   0
LINE
   5
1C7
 100
AcDbEntity
   8
LEVEL001
 100
AcDbLine
   6
CONTINUOUS
  62
3
  10
 305.89999602683
  20
 219.27987000866
  30
0.0
  11
 305.89999602683
  21
 225.27987000866
  31
0.0
   0
INSERT
   5
1C8
 100
AcDbEntity
   8
LEVEL001
   6
CONTINUOUS
  62
3
 100
AcDbBlockReference
   2
_OPEN30
  10
 305.89999602683
  20
 227.52987000866
  30
0.0
  41
 3.0000000000000
  42
 3.0000000000000
  43
 3.0000000000000
  50
 270.00000000000
   0
INSERT
   5
1C9
 100
AcDbEntity
   8
LEVEL001
   6
CONTINUOUS
  62
3
 100
AcDbBlockReference
   2
_OPEN30
  10
 305.89999602683
  20
 223.02987000866
  30
0.0
  41
 3.0000000000000
  42
 3.0000000000000
  43
 3.0000000000000
  50
 90.000000000000
   0
MTEXT
   5
1CA
 100
AcDbEntity
   8
LEVEL001
  62
3
 100
AcDbMText
  10
 304.18571031254
  20
 234.62500275202
  30
0.0
  40
 4.0000000000000
  41
0.0
  71
8
  72
1
   1
\A1;4.5
   7
GMM001
  11
0.0
  21
 1.0000000000000
  31
0.0
   0
ENDBLK
   5
1CB
 100
AcDbEntity
   8
0
 100
AcDbBlockEnd
   0
BLOCK
   5
1CC
 100
AcDbEntity
   8
0
 100
AcDbBlockBegin
   2
*D32
  70
65
  10
0.0
  20
0.0
  30
0.0
   3
*D32
   0
LINE
   5
1CD
 100
AcDbEntity
   8
LEVEL001
 100
AcDbLine
   6
CONTINUOUS
  62
3
  10
 270.94077493262
  20
 165.52987000866
  30
0.0
  11
 306.89999602683
  21
 165.52987000866
  31
0.0
   0
LINE
   5
1CE
 100
AcDbEntity
   8
LEVEL001
 100
AcDbLine
   6
CONTINUOUS
  62
3
  10
 282.08472127041
  20
 152.02987000866
  30
0.0
  11
 306.89999602683
  21
 152.02987000866
  31
0.0
   0
LINE
   5
1CF
 100
AcDbEntity
   8
LEVEL001
 100
AcDbLine
   6
CONTINUOUS
  62
3
  10
 305.89999602683
  20
 165.52987000866
  30
0.0
  11
 305.89999602683
  21
 158.77987000866
  31
0.0
   0
LINE
   5
1D0
 100
AcDbEntity
   8
LEVEL001
 100
AcDbLine
   6
CONTINUOUS
  62
3
  10
 305.89999602683
  20
 152.02987000866
  30
0.0
  11
 305.89999602683
  21
 158.77987000866
  31
0.0
   0
INSERT
   5
1D1
 100
AcDbEntity
   8
LEVEL001
   6
CONTINUOUS
  62
3
 100
AcDbBlockReference
   2
_OPEN30
  10
 305.89999602683
  20
 165.52987000866
  30
0.0
  41
 3.0000000000000
  42
 3.0000000000000
  43
 3.0000000000000
  50
 90.000000000000
   0
INSERT
   5
1D2
 100
AcDbEntity
   8
LEVEL001
   6
CONTINUOUS
  62
3
 100
AcDbBlockReference
   2
_OPEN30
  10
 305.89999602683
  20
 152.02987000866
  30
0.0
  41
 3.0000000000000
  42
 3.0000000000000
  43
 3.0000000000000
  50
 270.00000000000
   0
MTEXT
   5
1D3
 100
AcDbEntity
   8
LEVEL001
  62
3
 100
AcDbMText
  10
 304.18571031254
  20
 158.77987000866
  30
0.0
  40
 4.0000000000000
  41
0.0
  71
8
  72
1
   1
\A1;13.5
   7
GMM001
  11
0.0
  21
 1.0000000000000
  31
0.0
   0
ENDBLK
   5
1D4
 100
AcDbEntity
   8
0
 100
AcDbBlockEnd
   0
BLOCK
   5
1D5
 100
AcDbEntity
   8
0
 100
AcDbBlockBegin
   2
*D33
  70
65
  10
0.0
  20
0.0
  30
0.0
   3
*D33
   0
LINE
   5
1D6
 100
AcDbEntity
   8
LEVEL001
 100
AcDbLine
   6
CONTINUOUS
  62
3
  10
 274.64603809052
  20
 184.52987000866
  30
0.0
  11
 306.89999602683
  21
 184.52987000866
  31
0.0
   0
LINE
   5
1D7
 100
AcDbEntity
   8
LEVEL001
 100
AcDbLine
   6
CONTINUOUS
  62
3
  10
 282.08472127041
  20
 223.02987000866
  30
0.0
  11
 306.89999602683
  21
 223.02987000866
  31
0.0
   0
LINE
   5
1D8
 100
AcDbEntity
   8
LEVEL001
 100
AcDbLine
   6
CONTINUOUS
  62
3
  10
 305.89999602683
  20
 184.52987000866
  30
0.0
  11
 305.89999602683
  21
 203.77987000866
  31
0.0
   0
LINE
   5
1D9
 100
AcDbEntity
   8
LEVEL001
 100
AcDbLine
   6
CONTINUOUS
  62
3
  10
 305.89999602683
  20
 223.02987000866
  30
0.0
  11
 305.89999602683
  21
 203.77987000866
  31
0.0
   0
INSERT
   5
1DA
 100
AcDbEntity
   8
LEVEL001
   6
CONTINUOUS
  62
3
 100
AcDbBlockReference
   2
_OPEN30
  10
 305.89999602683
  20
 184.52987000866
  30
0.0
  41
 3.0000000000000
  42
 3.0000000000000
  43
 3.0000000000000
  50
 270.00000000000
   0
INSERT
   5
1DB
 100
AcDbEntity
   8
LEVEL001
   6
CONTINUOUS
  62
3
 100
AcDbBlockReference
   2
_OPEN30
  10
 305.89999602683
  20
 223.02987000866
  30
0.0
  41
 3.0000000000000
  42
 3.0000000000000
  43
 3.0000000000000
  50
 90.000000000000
   0
MTEXT
   5
1DC
 100
AcDbEntity
   8
LEVEL001
  62
3
 100
AcDbMText
  10
 304.18571031254
  20
 203.77987000866
  30
0.0
  40
 4.0000000000000
  41
0.0
  71
8
  72
1
   1
\A1;38.5
   7
GMM001
  11
0.0
  21
 1.0000000000000
  31
0.0
   0
ENDBLK
   5
1DD
 100
AcDbEntity
   8
0
 100
AcDbBlockEnd
   0
BLOCK
   5
1DE
 100
AcDbEntity
   8
0
 100
AcDbBlockBegin
   2
*D34
  70
65
  10
0.0
  20
0.0
  30
0.0
   3
*D34
   0
LINE
   5
1DF
 100
AcDbEntity
   8
LEVEL001
 100
AcDbLine
   6
CONTINUOUS
  62
3
  10
 305.89999602683
  20
 184.52987000866
  30
0.0
  11
 305.89999602683
  21
 175.02987000866
  31
0.0
   0
LINE
   5
1E0
 100
AcDbEntity
   8
LEVEL001
 100
AcDbLine
   6
CONTINUOUS
  62
3
  10
 305.89999602683
  20
 165.52987000866
  30
0.0
  11
 305.89999602683
  21
 175.02987000866
  31
0.0
   0
INSERT
   5
1E1
 100
AcDbEntity
   8
LEVEL001
   6
CONTINUOUS
  62
3
 100
AcDbBlockReference
   2
_OPEN30
  10
 305.89999602683
  20
 184.52987000866
  30
0.0
  41
 3.0000000000000
  42
 3.0000000000000
  43
 3.0000000000000
  50
 90.000000000000
   0
INSERT
   5
1E2
 100
AcDbEntity
   8
LEVEL001
   6
CONTINUOUS
  62
3
 100
AcDbBlockReference
   2
_OPEN30
  10
 305.89999602683
  20
 165.52987000866
  30
0.0
  41
 3.0000000000000
  42
 3.0000000000000
  43
 3.0000000000000
  50
 270.00000000000
   0
MTEXT
   5
1E3
 100
AcDbEntity
   8
LEVEL001
  62
3
 100
AcDbMText
  10
 304.18571031254
  20
 175.02987000866
  30
0.0
  40
 4.0000000000000
  41
0.0
  71
8
  72
1
   1
\A1;19
   7
GMM001
  11
0.0
  21
 1.0000000000000
  31
0.0
   0
ENDBLK
   5
1E4
 100
AcDbEntity
   8
0
 100
AcDbBlockEnd
   0
BLOCK
   5
1E5
 100
AcDbEntity
   8
0
 100
AcDbBlockBegin
   2
BLOCK001
  70
64
  10
0.0
  20
0.0
  30
0.0
   3
BLOCK001
   0
LINE
   5
1E6
 100
AcDbEntity
   8
LEVEL001
 100
AcDbLine
   6
CONTINUOUS
  62
15
  10
 322.22686516392
  20
 228.54746176475
  30
0.0
  11
 339.28397904269
  21
 218.70059951890
  31
0.0
   0
LINE
   5
1E7
 100
AcDbEntity
   8
LEVEL001
 100
AcDbLine
   6
CONTINUOUS
  62
15
  10
 348.25357499199
  20
 221.39616040846
  30
0.0
  11
 348.25357499199
  21
 256.26245307596
  31
0.0
   0
LINE
   5
1E8
 100
AcDbEntity
   8
LEVEL001
 100
AcDbLine
   6
CONTINUOUS
  62
15
  10
 347.23355757973
  20
 258.02912578894
  30
0.0
  11
 329.41446669384
  21
 268.31586799790
  31
0.0
   0
LINE
   5
1E9
 100
AcDbEntity
   8
LEVEL001
 100
AcDbLine
   6
CONTINUOUS
  62
15
  10
 317.78157819360
  20
 271.21461714539
  30
0.0
  11
 317.03911607341
  21
 270.78600288666
  31
0.0
   0
LINE
   5
1EA
 100
AcDbEntity
   8
LEVEL001
 100
AcDbLine
   6
CONTINUOUS
  62
15
  10
 344.20472587292
  20
 209.44429615000
  30
0.0
  11
 344.94718799311
  21
 209.87291040873
  31
0.0
   0
LINE
   5
1EB
 100
AcDbEntity
   8
LEVEL001
 100
AcDbLine
   6
CONTINUOUS
  62
15
  10
 339.23448156802
  20
 252.00479188279
  30
0.0
  11
 322.00936037831
  21
 261.94864268478
  31
0.0
   0
LINE
   5
1EC
 100
AcDbEntity
   8
LEVEL001
 100
AcDbLine
   6
CONTINUOUS
  62
15
  10
 339.23448156802
  20
 219.08434800955
  30
0.0
  11
 339.23448156802
  21
 252.00479188279
  31
0.0
   0
LINE
   5
1ED
 100
AcDbEntity
   8
LEVEL001
 100
AcDbLine
   6
CONTINUOUS
  62
15
  10
 322.00936037831
  20
 229.02819881154
  30
0.0
  11
 339.23448156802
  21
 219.08434800955
  31
0.0
   0
LINE
   5
1EE
 100
AcDbEntity
   8
LEVEL001
 100
AcDbLine
   6
CONTINUOUS
  62
15
  10
 322.00936037831
  20
 229.02819881154
  30
0.0
  11
 322.00936037831
  21
 261.94864268478
  31
0.0
   0
LINE
   5
1EF
 100
AcDbEntity
   8
LEVEL001
 100
AcDbLine
   6
CONTINUOUS
  62
15
  10
 339.23448156802
  20
 252.00479188279
  30
0.0
  11
 339.28397904269
  21
 252.03336616671
  31
0.0
   0
LINE
   5
1F0
 100
AcDbEntity
   8
LEVEL001
 100
AcDbLine
   6
CONTINUOUS
  62
15
  10
 322.00936037831
  20
 261.94864268478
  30
0.0
  11
 322.25688797863
  21
 262.09153732688
  31
0.0
   0
LINE
   5
1F1
 100
AcDbEntity
   8
LEVEL001
 100
AcDbLine
   6
CONTINUOUS
  62
15
  10
 339.23448156802
  20
 219.08434800955
  30
0.0
  11
 339.25883596585
  21
 218.88061508596
  31
0.0
   0
LINE
   5
1F2
 100
AcDbEntity
   8
LEVEL001
 100
AcDbLine
   6
CONTINUOUS
  62
15
  10
 339.25883596585
  20
 218.88061508596
  30
0.0
  11
 339.28397904269
  21
 218.80511781439
  31
0.0
   0
ARC
   5
1F3
 100
AcDbEntity
   8
LEVEL001
   6
CONTINUOUS
  62
15
 100
AcDbCircle
  10
 322.50892061648
  20
 228.96464748419
  30
0.0
  40
 0.50358634098308
 100
AcDbArc
  50
 172.75008598662
  51
 235.93773361886
   0
LINE
   5
1F4
 100
AcDbEntity
   8
LEVEL001
 100
AcDbLine
   6
CONTINUOUS
  62
15
  10
 344.96763015240
  20
 255.48609959568
  30
0.0
  11
 346.75809771982
  21
 256.51971452124
  31
0.0
   0
LINE
   5
1F5
 100
AcDbEntity
   8
LEVEL001
 100
AcDbLine
   6
CONTINUOUS
  62
15
  10
 347.45106236541
  20
 256.11967454643
  30
0.0
  11
 346.75809771982
  21
 256.51971452124
  31
0.0
   0
LINE
   5
1F6
 100
AcDbEntity
   8
LEVEL001
 100
AcDbLine
   6
CONTINUOUS
  62
15
  10
 344.97618863121
  20
 254.69096035078
  30
0.0
  11
 347.45106236541
  21
 256.11967454643
  31
0.0
   0
LINE
   5
1F7
 100
AcDbEntity
   8
LEVEL001
 100
AcDbLine
   6
CONTINUOUS
  62
15
  10
 344.23428968797
  20
 255.97726757711
  30
0.0
  11
 346.70860024515
  21
 257.40565665762
  31
0.0
   0
LINE
   5
1F8
 100
AcDbEntity
   8
LEVEL001
 100
AcDbLine
   6
CONTINUOUS
  62
15
  10
 346.70860024515
  20
 256.60544666200
  30
0.0
  11
 346.70860024515
  21
 257.40565665762
  31
0.0
   0
LINE
   5
1F9
 100
AcDbEntity
   8
LEVEL001
 100
AcDbLine
   6
CONTINUOUS
  62
15
  10
 344.91838757587
  20
 255.57197888596
  30
0.0
  11
 346.70860024515
  21
 256.60544666200
  31
0.0
   0
LINE
   5
1FA
 100
AcDbEntity
   8
LEVEL001
 100
AcDbLine
   6
CONTINUOUS
  62
15
  10
 347.94603711218
  20
 220.96754614973
  30
0.0
  11
 347.45106236541
  21
 220.68180331060
  31
0.0
   0
LINE
   5
1FB
 100
AcDbEntity
   8
LEVEL001
 100
AcDbLine
   6
CONTINUOUS
  62
15
  10
 347.45106236541
  20
 220.68180331060
  30
0.0
  11
 347.45106236541
  21
 220.11022474227
  31
0.0
   0
LINE
   5
1FC
 100
AcDbEntity
   8
LEVEL001
 100
AcDbLine
   6
CONTINUOUS
  62
15
  10
 344.97618863121
  20
 218.68151054662
  30
0.0
  11
 347.45106236541
  21
 220.11022474227
  31
0.0
   0
LINE
   5
1FD
 100
AcDbEntity
   8
LEVEL001
 100
AcDbLine
   6
CONTINUOUS
  62
15
  10
 347.45106236541
  20
 256.11967454643
  30
0.0
  11
 347.45106236541
  21
 255.54809597810
  31
0.0
   0
LINE
   5
1FE
 100
AcDbEntity
   8
LEVEL001
 100
AcDbLine
   6
CONTINUOUS
  62
15
  10
 347.45106236541
  20
 255.54809597810
  30
0.0
  11
 347.94603711218
  21
 255.83383881723
  31
0.0
   0
LINE
   5
1FF
 100
AcDbEntity
   8
LEVEL001
 100
AcDbLine
   6
CONTINUOUS
  62
15
  10
 347.94603711218
  20
 220.96754614973
  30
0.0
  11
 347.94603711218
  21
 255.83383881723
  31
0.0
   0
LINE
   5
200
 100
AcDbEntity
   8
LEVEL001
 100
AcDbLine
   6
CONTINUOUS
  62
15
  10
 346.70860024515
  20
 257.97714233588
  30
0.0
  11
 328.88950935926
  21
 268.26388454484
  31
0.0
   0
LINE
   5
201
 100
AcDbEntity
   8
LEVEL001
 100
AcDbLine
   6
CONTINUOUS
  62
15
  10
 346.70860024515
  20
 257.97714233588
  30
0.0
  11
 346.21362549831
  21
 257.69139949675
  31
0.0
   0
LINE
   5
202
 100
AcDbEntity
   8
LEVEL001
 100
AcDbLine
   6
CONTINUOUS
  62
15
  10
 346.21362549831
  20
 257.69139949675
  30
0.0
  11
 346.70860024515
  21
 257.40565665762
  31
0.0
   0
LINE
   5
203
 100
AcDbEntity
   8
LEVEL001
 100
AcDbLine
   6
CONTINUOUS
  62
15
  10
 325.42524930840
  20
 266.83549546433
  30
0.0
  11
 327.89955986558
  21
 268.26388454484
  31
0.0
   0
LINE
   5
204
 100
AcDbEntity
   8
LEVEL001
 100
AcDbLine
   6
CONTINUOUS
  62
15
  10
 328.39453461242
  20
 267.97814170571
  30
0.0
  11
 327.89955986558
  21
 268.26388454484
  31
0.0
   0
LINE
   5
205
 100
AcDbEntity
   8
LEVEL001
 100
AcDbLine
   6
CONTINUOUS
  62
15
  10
 328.39453461242
  20
 267.97814170571
  30
0.0
  11
 328.88950935926
  21
 268.26388454484
  31
0.0
   0
LINE
   5
206
 100
AcDbEntity
   8
LEVEL001
 100
AcDbLine
   6
CONTINUOUS
  62
15
  10
 346.70860024515
  20
 256.54819591509
  30
0.0
  11
 347.45106236541
  21
 256.97681017382
  31
0.0
   0
LINE
   5
207
 100
AcDbEntity
   8
LEVEL001
 100
AcDbLine
   6
CONTINUOUS
  62
15
  10
 347.45106236541
  20
 256.97681017382
  30
0.0
  11
 347.94603711218
  21
 256.69106733469
  31
0.0
   0
ARC
   5
208
 100
AcDbEntity
   8
LEVEL001
   6
CONTINUOUS
  62
15
 100
AcDbCircle
  10
 347.78336373404
  20
 256.26245307596
  30
0.0
  40
 0.45844608267603
 100
AcDbArc
  50
 290.78342079899
  51
 69.216579201182
   0
LINE
   5
209
 100
AcDbEntity
   8
LEVEL001
 100
AcDbLine
   6
CONTINUOUS
  62
15
  10
 346.70860024515
  20
 256.54819591509
  30
0.0
  11
 346.75801726595
  21
 256.51966807624
  31
0.0
   0
ARC
   5
20A
 100
AcDbEntity
   8
LEVEL001
   6
CONTINUOUS
  62
15
 100
AcDbCircle
  10
 346.99843427954
  20
 257.62181229884
  30
0.0
  40
 0.45854465729994
 100
AcDbArc
  50
 350.78596301266
  51
 129.20328523147
   0
LINE
   5
20B
 100
AcDbEntity
   8
LEVEL001
 100
AcDbLine
   6
CONTINUOUS
  62
15
  10
 347.45106236541
  20
 256.97681017382
  30
0.0
  11
 347.45106236541
  21
 257.54838874215
  31
0.0
   0
LINE
   5
20C
 100
AcDbEntity
   8
LEVEL001
 100
AcDbLine
   6
CONTINUOUS
  62
15
  10
 346.70860024515
  20
 256.60544666200
  30
0.0
  11
 346.70860024515
  21
 256.54819591509
  31
0.0
   0
ARC
   5
20D
 100
AcDbEntity
   8
LEVEL001
   6
CONTINUOUS
  62
15
 100
AcDbCircle
  10
 347.72809507633
  20
 221.44856210416
  30
0.0
  40
 0.52808624241847
 100
AcDbArc
  50
 294.37465829429
  51
 354.30520075016
   0
ARC
   5
20E
 100
AcDbEntity
   8
LEVEL001
   6
CONTINUOUS
  62
15
 100
AcDbCircle
  10
 329.19707541681
  20
 267.83455914933
  30
0.0
  40
 0.52812609769705
 100
AcDbArc
  50
 65.692880954606
  51
 125.61757747662
   0
LINE
   5
20F
 100
AcDbEntity
   8
LEVEL001
 100
AcDbLine
   6
CONTINUOUS
  62
15
  10
 346.70860024515
  20
 219.68147114854
  30
0.0
  11
 346.70860024515
  21
 219.68161048354
  31
0.0
   0
LINE
   5
210
 100
AcDbEntity
   8
LEVEL001
 100
AcDbLine
   6
CONTINUOUS
  62
15
  10
 344.97618863121
  20
 218.68137121155
  30
0.0
  11
 346.70860024515
  21
 219.68147114854
  31
0.0
   0
LINE
   5
211
 100
AcDbEntity
   8
LEVEL001
 100
AcDbLine
   6
CONTINUOUS
  62
15
  10
 339.28397904269
  20
 217.96729278383
  30
0.0
  11
 339.28397904269
  21
 252.26200688300
  31
0.0
   0
LINE
   5
212
 100
AcDbEntity
   8
LEVEL001
 100
AcDbLine
   6
CONTINUOUS
  62
15
  10
 339.28397904269
  20
 252.26200688300
  30
0.0
  11
 321.95986290357
  21
 262.26300625283
  31
0.0
   0
LINE
   5
213
 100
AcDbEntity
   8
LEVEL001
 100
AcDbLine
   6
CONTINUOUS
  62
15
  10
 321.95986290357
  20
 262.26300625283
  30
0.0
  11
 321.95986290357
  21
 227.96829215366
  31
0.0
   0
LINE
   5
214
 100
AcDbEntity
   8
LEVEL001
 100
AcDbLine
   6
CONTINUOUS
  62
15
  10
 321.95986290357
  20
 227.96829215366
  30
0.0
  11
 339.28397904269
  21
 217.96729278383
  31
0.0
   0
ARC
   5
215
 100
AcDbEntity
   8
LEVEL001
   6
CONTINUOUS
  62
15
 100
AcDbCircle
  10
 317.07046584678
  20
 270.73169442117
  30
0.0
  40
 0.61139287639948E-1
 100
AcDbArc
  50
 50.796714879212
  51
 189.21403683668
   0
LINE
   5
216
 100
AcDbEntity
   8
LEVEL001
 100
AcDbLine
   6
CONTINUOUS
  62
15
  10
 344.13473156161
  20
 255.17751274263
  30
0.0
  11
 317.10911038465
  21
 270.77907175959
  31
0.0
   0
ARC
   5
217
 100
AcDbEntity
   8
LEVEL001
   6
CONTINUOUS
  62
15
 100
AcDbCircle
  10
 344.01879625679
  20
 254.99626794185
  30
0.0
  40
 0.21515267305981
 100
AcDbArc
  50
 2.6054784820808
  51
 57.394521653876
   0
LINE
   5
218
 100
AcDbEntity
   8
LEVEL001
 100
AcDbLine
   6
CONTINUOUS
  62
15
  10
 344.23372651095
  20
 209.50839442291
  30
0.0
  11
 344.23372651095
  21
 255.00604846118
  31
0.0
   0
ARC
   5
219
 100
AcDbEntity
   8
LEVEL001
   6
CONTINUOUS
  62
15
 100
AcDbCircle
  10
 344.17337609955
  20
 209.49860461542
  30
0.0
  40
 0.61139287639982E-1
 100
AcDbArc
  50
 230.79671482707
  51
 9.2140369066080
   0
LINE
   5
21A
 100
AcDbEntity
   8
LEVEL001
 100
AcDbLine
   6
CONTINUOUS
  62
15
  10
 317.10911038465
  20
 225.05278629396
  30
0.0
  11
 344.13473156161
  21
 209.45122727707
  31
0.0
   0
ARC
   5
21B
 100
AcDbEntity
   8
LEVEL001
   6
CONTINUOUS
  62
15
 100
AcDbCircle
  10
 317.22504568951
  20
 225.23403109484
  30
0.0
  40
 0.21515267306019
 100
AcDbArc
  50
 182.60547848699
  51
 237.39452166224
   0
LINE
   5
21C
 100
AcDbEntity
   8
LEVEL001
 100
AcDbLine
   6
CONTINUOUS
  62
15
  10
 317.01011543531
  20
 270.72190461375
  30
0.0
  11
 317.01011543531
  21
 225.22425057548
  31
0.0
   0
LINE
   5
21D
 100
AcDbEntity
   8
LEVEL001
 100
AcDbLine
   6
CONTINUOUS
  62
15
  10
 344.13473156161
  20
 255.17751274263
  30
0.0
  11
 344.87719368187
  21
 255.60612700136
  31
0.0
   0
ARC
   5
21E
 100
AcDbEntity
   8
LEVEL001
   6
CONTINUOUS
  62
15
 100
AcDbCircle
  10
 344.76125837700
  20
 255.42488220056
  30
0.0
  40
 0.21515267306025
 100
AcDbArc
  50
 2.6054784867991
  51
 57.394521661823
   0
LINE
   5
21F
 100
AcDbEntity
   8
LEVEL001
 100
AcDbLine
   6
CONTINUOUS
  62
15
  10
 344.97618863121
  20
 255.43466271991
  30
0.0
  11
 344.23372651095
  21
 255.00604846118
  31
0.0
   0
LINE
   5
220
 100
AcDbEntity
   8
LEVEL001
 100
AcDbLine
   6
CONTINUOUS
  62
15
  10
 344.97618863121
  20
 209.93700868157
  30
0.0
  11
 344.97618863121
  21
 255.43466271991
  31
0.0
   0
LINE
   5
221
 100
AcDbEntity
   8
LEVEL001
 100
AcDbLine
   6
CONTINUOUS
  62
15
  10
 344.23372651095
  20
 209.50839442291
  30
0.0
  11
 344.97618863121
  21
 209.93700868157
  31
0.0
   0
LINE
   5
222
 100
AcDbEntity
   8
LEVEL001
 100
AcDbLine
   6
CONTINUOUS
  62
15
  10
 317.85157250491
  20
 271.20768601832
  30
0.0
  11
 317.10911038465
  21
 270.77907175959
  31
0.0
   0
LINE
   5
223
 100
AcDbEntity
   8
LEVEL001
 100
AcDbLine
   6
CONTINUOUS
  62
15
  10
 344.87719368187
  20
 255.60612700136
  30
0.0
  11
 317.85157250491
  21
 271.20768601832
  31
0.0
   0
LINE
   5
224
 100
AcDbEntity
   8
LEVEL001
 100
AcDbLine
   6
CONTINUOUS
  62
15
  10
 321.95986290357
  20
 227.96829215366
  30
0.0
  11
 322.59499398274
  21
 228.33494552116
  31
0.0
   0
ARC
   5
225
 100
AcDbEntity
   8
LEVEL001
   6
CONTINUOUS
  62
15
 100
AcDbCircle
  10
 317.81056369717
  20
 271.15044263218
  30
0.0
  40
 0.70416813026278E-1
 100
AcDbArc
  50
 54.382422506803
  51
 114.30711901021
   0
ARC
   5
226
 100
AcDbEntity
   8
LEVEL001
   6
CONTINUOUS
  62
15
 100
AcDbCircle
  10
 344.90959265329
  20
 209.92852971770
  30
0.0
  40
 0.67133576607235E-1
 100
AcDbArc
  50
 304.05635087058
  51
 7.2558294637827
   0
ENDBLK
   5
227
 100
AcDbEntity
   8
0
 100
AcDbBlockEnd
   0
BLOCK
   5
228
 100
AcDbEntity
   8
0
 100
AcDbBlockBegin
   2
BLOCK002
  70
64
  10
0.0
  20
0.0
  30
0.0
   3
BLOCK002
   0
LINE
   5
229
 100
AcDbEntity
   8
LEVEL001
 100
AcDbLine
   6
CONTINUOUS
  62
15
  10
 385.38168220029
  20
 231.58546743543
  30
0.0
  11
 385.13812428136
  21
 231.82262425807
  31
0.0
   0
LINE
   5
22A
 100
AcDbEntity
   8
LEVEL001
 100
AcDbLine
   6
CONTINUOUS
  62
15
  10
 385.13812428136
  20
 231.82262425807
  30
0.0
  11
 384.88412583865
  21
 232.01819889094
  31
0.0
   0
LINE
   5
22B
 100
AcDbEntity
   8
LEVEL001
 100
AcDbLine
   6
CONTINUOUS
  62
15
  10
 384.37261684520
  20
 228.77378527285
  30
0.0
  11
 384.62661528781
  21
 228.57821064009
  31
0.0
   0
LINE
   5
22C
 100
AcDbEntity
   8
LEVEL001
 100
AcDbLine
   6
CONTINUOUS
  62
15
  10
 384.62661528781
  20
 228.57821064009
  30
0.0
  11
 384.88412583865
  21
 228.42955296323
  31
0.0
   0
LINE
   5
22D
 100
AcDbEntity
   8
LEVEL001
 100
AcDbLine
   6
CONTINUOUS
  62
15
  10
 384.88412583865
  20
 228.42955296323
  30
0.0
  11
 385.13812428136
  21
 228.33186723649
  31
0.0
   0
LINE
   5
22E
 100
AcDbEntity
   8
LEVEL001
 100
AcDbLine
   6
CONTINUOUS
  62
15
  10
 385.81136797779
  20
 228.36393977254
  30
0.0
  11
 385.98577512838
  21
 228.48203423683
  31
0.0
   0
LINE
   5
22F
 100
AcDbEntity
   8
LEVEL001
 100
AcDbLine
   6
CONTINUOUS
  62
15
  10
 385.98577512838
  20
 228.48203423683
  30
0.0
  11
 386.12662004993
  21
 228.64966909870
  31
0.0
   0
LINE
   5
230
 100
AcDbEntity
   8
LEVEL001
 100
AcDbLine
   6
CONTINUOUS
  62
15
  10
 386.12662004993
  20
 228.64966909870
  30
0.0
  11
 386.23006085999
  21
 228.86227171617
  31
0.0
   0
LINE
   5
231
 100
AcDbEntity
   8
LEVEL001
 100
AcDbLine
   6
CONTINUOUS
  62
15
  10
 386.31454101578
  20
 229.39811482218
  30
0.0
  11
 386.29327596304
  21
 229.70673890766
  31
0.0
   0
LINE
   5
232
 100
AcDbEntity
   8
LEVEL001
 100
AcDbLine
   6
CONTINUOUS
  62
15
  10
 386.29327596304
  20
 229.70673890766
  30
0.0
  11
 386.23006085999
  21
 230.03149663993
  31
0.0
   0
LINE
   5
233
 100
AcDbEntity
   8
LEVEL001
 100
AcDbLine
   6
CONTINUOUS
  62
15
  10
 386.23006085999
  20
 230.03149663993
  30
0.0
  11
 386.12662004993
  21
 230.36352947463
  31
0.0
   0
LINE
   5
234
 100
AcDbEntity
   8
LEVEL001
 100
AcDbLine
   6
CONTINUOUS
  62
15
  10
 385.13812428136
  20
 228.33186723649
  30
0.0
  11
 385.38168220029
  21
 228.28781807154
  31
0.0
   0
LINE
   5
235
 100
AcDbEntity
   8
LEVEL001
 100
AcDbLine
   6
CONTINUOUS
  62
15
  10
 385.38168220029
  20
 228.28781807154
  30
0.0
  11
 385.60815597041
  21
 228.29860701502
  31
0.0
   0
LINE
   5
236
 100
AcDbEntity
   8
LEVEL001
 100
AcDbLine
   6
CONTINUOUS
  62
15
  10
 385.60815597041
  20
 228.29860701502
  30
0.0
  11
 385.81136797779
  21
 228.36393977254
  31
0.0
   0
LINE
   5
237
 100
AcDbEntity
   8
LEVEL001
 100
AcDbLine
   6
CONTINUOUS
  62
15
  10
 386.23006085999
  20
 228.86227171617
  30
0.0
  11
 386.29327596304
  21
 229.11404284399
  31
0.0
   0
LINE
   5
238
 100
AcDbEntity
   8
LEVEL001
 100
AcDbLine
   6
CONTINUOUS
  62
15
  10
 386.29327596304
  20
 229.11404284399
  30
0.0
  11
 386.31454101578
  21
 229.39811482218
  31
0.0
   0
LINE
   5
239
 100
AcDbEntity
   8
LEVEL001
 100
AcDbLine
   6
CONTINUOUS
  62
15
  10
 383.38412107663
  20
 231.94674043233
  30
0.0
  11
 383.28068026647
  21
 231.73413781485
  31
0.0
   0
LINE
   5
23A
 100
AcDbEntity
   8
LEVEL001
 100
AcDbLine
   6
CONTINUOUS
  62
15
  10
 386.12662004993
  20
 230.36352947463
  30
0.0
  11
 385.98577512838
  21
 230.69378042149
  31
0.0
   0
LINE
   5
23B
 100
AcDbEntity
   8
LEVEL001
 100
AcDbLine
   6
CONTINUOUS
  62
15
  10
 385.98577512838
  20
 230.69378042149
  30
0.0
  11
 385.81136797779
  21
 231.01324109570
  31
0.0
   0
LINE
   5
23C
 100
AcDbEntity
   8
LEVEL001
 100
AcDbLine
   6
CONTINUOUS
  62
15
  10
 385.60815597041
  20
 231.31319744269
  30
0.0
  11
 385.38168220029
  21
 231.58546743543
  31
0.0
   0
LINE
   5
23D
 100
AcDbEntity
   8
LEVEL001
 100
AcDbLine
   6
CONTINUOUS
  62
15
  10
 384.88412583865
  20
 232.01819889094
  30
0.0
  11
 384.62661528781
  21
 232.16685656770
  31
0.0
   0
LINE
   5
23E
 100
AcDbEntity
   8
LEVEL001
 100
AcDbLine
   6
CONTINUOUS
  62
15
  10
 384.62661528781
  20
 232.16685656770
  30
0.0
  11
 384.37261684520
  21
 232.26454229454
  31
0.0
   0
LINE
   5
23F
 100
AcDbEntity
   8
LEVEL001
 100
AcDbLine
   6
CONTINUOUS
  62
15
  10
 384.37261684520
  20
 232.26454229454
  30
0.0
  11
 384.12905892617
  21
 232.30859145939
  31
0.0
   0
LINE
   5
240
 100
AcDbEntity
   8
LEVEL001
 100
AcDbLine
   6
CONTINUOUS
  62
15
  10
 384.12905892617
  20
 232.30859145939
  30
0.0
  11
 383.90258515605
  21
 232.29780251591
  31
0.0
   0
LINE
   5
241
 100
AcDbEntity
   8
LEVEL001
 100
AcDbLine
   6
CONTINUOUS
  62
15
  10
 383.90258515605
  20
 232.29780251591
  30
0.0
  11
 383.69937314877
  21
 232.23246975839
  31
0.0
   0
LINE
   5
242
 100
AcDbEntity
   8
LEVEL001
 100
AcDbLine
   6
CONTINUOUS
  62
15
  10
 383.69937314877
  20
 232.23246975839
  30
0.0
  11
 383.52496599808
  21
 232.11437529420
  31
0.0
   0
LINE
   5
243
 100
AcDbEntity
   8
LEVEL001
 100
AcDbLine
   6
CONTINUOUS
  62
15
  10
 383.52496599808
  20
 232.11437529420
  30
0.0
  11
 383.38412107663
  21
 231.94674043233
  31
0.0
   0
LINE
   5
244
 100
AcDbEntity
   8
LEVEL001
 100
AcDbLine
   6
CONTINUOUS
  62
15
  10
 383.28068026647
  20
 231.73413781485
  30
0.0
  11
 383.21746516351
  21
 231.48236668694
  31
0.0
   0
LINE
   5
245
 100
AcDbEntity
   8
LEVEL001
 100
AcDbLine
   6
CONTINUOUS
  62
15
  10
 383.21746516351
  20
 231.48236668694
  30
0.0
  11
 383.19620011068
  21
 231.19829470875
  31
0.0
   0
LINE
   5
246
 100
AcDbEntity
   8
LEVEL001
 100
AcDbLine
   6
CONTINUOUS
  62
15
  10
 383.19620011068
  20
 231.19829470875
  30
0.0
  11
 383.21746516351
  21
 230.88967062327
  31
0.0
   0
LINE
   5
247
 100
AcDbEntity
   8
LEVEL001
 100
AcDbLine
   6
CONTINUOUS
  62
15
  10
 383.21746516351
  20
 230.88967062327
  30
0.0
  11
 383.28068026647
  21
 230.56491289099
  31
0.0
   0
LINE
   5
248
 100
AcDbEntity
   8
LEVEL001
 100
AcDbLine
   6
CONTINUOUS
  62
15
  10
 383.28068026647
  20
 230.56491289099
  30
0.0
  11
 383.38412107663
  21
 230.23288005639
  31
0.0
   0
LINE
   5
249
 100
AcDbEntity
   8
LEVEL001
 100
AcDbLine
   6
CONTINUOUS
  62
15
  10
 383.38412107663
  20
 230.23288005639
  30
0.0
  11
 383.52496599808
  21
 229.90262910953
  31
0.0
   0
LINE
   5
24A
 100
AcDbEntity
   8
LEVEL001
 100
AcDbLine
   6
CONTINUOUS
  62
15
  10
 383.52496599808
  20
 229.90262910953
  30
0.0
  11
 383.69937314877
  21
 229.58316843533
  31
0.0
   0
LINE
   5
24B
 100
AcDbEntity
   8
LEVEL001
 100
AcDbLine
   6
CONTINUOUS
  62
15
  10
 383.69937314877
  20
 229.58316843533
  30
0.0
  11
 383.90258515605
  21
 229.28321208823
  31
0.0
   0
LINE
   5
24C
 100
AcDbEntity
   8
LEVEL001
 100
AcDbLine
   6
CONTINUOUS
  62
15
  10
 383.90258515605
  20
 229.28321208823
  30
0.0
  11
 384.12905892617
  21
 229.01094209560
  31
0.0
   0
LINE
   5
24D
 100
AcDbEntity
   8
LEVEL001
 100
AcDbLine
   6
CONTINUOUS
  62
15
  10
 384.12905892617
  20
 229.01094209560
  30
0.0
  11
 384.37261684520
  21
 228.77378527285
  31
0.0
   0
LINE
   5
24E
 100
AcDbEntity
   8
LEVEL001
 100
AcDbLine
   6
CONTINUOUS
  62
15
  10
 385.81136797779
  20
 231.01324109570
  30
0.0
  11
 385.60815597041
  21
 231.31319744269
  31
0.0
   0
LINE
   5
24F
 100
AcDbEntity
   8
LEVEL001
 100
AcDbLine
   6
CONTINUOUS
  62
15
  10
 391.69541331600
  20
 241.32828226584
  30
0.0
  11
 392.40233489612
  21
 240.92018512422
  31
0.0
   0
LINE
   5
250
 100
AcDbEntity
   8
LEVEL001
 100
AcDbLine
   6
CONTINUOUS
  62
15
  10
 376.17148674505
  20
 254.73553097377
  30
0.0
  11
 376.10125314917
  21
 254.77607596567
  31
0.0
   0
LINE
   5
251
 100
AcDbEntity
   8
LEVEL001
 100
AcDbLine
   6
CONTINUOUS
  62
15
  10
 370.72599479861
  20
 229.32435815450
  30
0.0
  11
 375.37875741885
  21
 226.63837546658
  31
0.0
   0
LINE
   5
252
 100
AcDbEntity
   8
LEVEL001
 100
AcDbLine
   6
CONTINUOUS
  62
15
  10
 358.15363622914
  20
 236.58222626857
  30
0.0
  11
 362.80639884931
  21
 233.89624358072
  31
0.0
   0
LINE
   5
253
 100
AcDbEntity
   8
LEVEL001
 100
AcDbLine
   6
CONTINUOUS
  62
15
  10
 400.49691662366
  20
 252.74407961768
  30
0.0
  11
 399.80395197807
  21
 253.14411959249
  31
0.0
   0
LINE
   5
254
 100
AcDbEntity
   8
LEVEL001
 100
AcDbLine
   6
CONTINUOUS
  62
15
  10
 399.68198135174
  20
 253.35539533507
  30
0.0
  11
 399.68198135174
  21
 254.15560533076
  31
0.0
   0
LINE
   5
255
 100
AcDbEntity
   8
LEVEL001
 100
AcDbLine
   6
CONTINUOUS
  62
15
  10
 401.37193084542
  20
 218.14610908153
  30
0.0
  11
 401.37193084542
  21
 253.01240174910
  31
0.0
   0
LINE
   5
256
 100
AcDbEntity
   8
LEVEL001
 100
AcDbLine
   6
CONTINUOUS
  62
15
  10
 400.35191343323
  20
 254.77907446201
  30
0.0
  11
 382.53282254734
  21
 265.06581667104
  31
0.0
   0
ARC
   5
257
 100
AcDbEntity
   8
LEVEL001
   6
CONTINUOUS
  62
15
 100
AcDbCircle
  10
 390.31269396477
  20
 242.16870350063
  30
0.0
  40
 1.5459687612852
 100
AcDbArc
  50
 1.6236807460407
  51
 30.396378643259
   0
LINE
   5
258
 100
AcDbEntity
   8
LEVEL001
 100
AcDbLine
   6
CONTINUOUS
  62
15
  10
 391.10525774923
  20
 242.64708128843
  30
0.0
  11
 391.11557988301
  21
 242.64112244750
  31
0.0
   0
LINE
   5
259
 100
AcDbEntity
   8
LEVEL001
 100
AcDbLine
   6
CONTINUOUS
  62
15
  10
 391.85804200327
  20
 242.21250818877
  30
0.0
  11
 391.11557988301
  21
 242.64112244750
  31
0.0
   0
ARC
   5
25A
 100
AcDbEntity
   8
LEVEL001
   6
CONTINUOUS
  62
15
 100
AcDbCircle
  10
 393.25200692513
  20
 242.03975319131
  30
0.0
  40
 1.4046289519122
 100
AcDbArc
  50
 172.93531745605
  51
 232.77774022981
   0
ARC
   5
25B
 100
AcDbEntity
   8
LEVEL001
   6
CONTINUOUS
  62
15
 100
AcDbCircle
  10
 392.49339984471
  20
 242.46518938179
  30
0.0
  40
 1.3890069439805
 100
AcDbArc
  50
 172.72331106055
  51
 234.93527281558
   0
LINE
   5
25C
 100
AcDbEntity
   8
LEVEL001
 100
AcDbLine
   6
CONTINUOUS
  62
15
  10
 397.25308741511
  20
 251.92746141577
  30
0.0
  11
 397.99554953530
  21
 252.35607567450
  31
0.0
   0
ARC
   5
25D
 100
AcDbEntity
   8
LEVEL001
   6
CONTINUOUS
  62
15
 100
AcDbCircle
  10
 397.87961423050
  20
 252.17483087369
  30
0.0
  40
 0.21515267306011
 100
AcDbArc
  50
 2.6054784857618
  51
 57.394521660274
   0
LINE
   5
25E
 100
AcDbEntity
   8
LEVEL001
 100
AcDbLine
   6
CONTINUOUS
  62
15
  10
 398.09454448471
  20
 252.18461139298
  30
0.0
  11
 397.35208236445
  21
 251.75599713432
  31
0.0
   0
ARC
   5
25F
 100
AcDbEntity
   8
LEVEL001
   6
CONTINUOUS
  62
15
 100
AcDbCircle
  10
 397.13715211023
  20
 251.74621661497
  30
0.0
  40
 0.21515267306034
 100
AcDbArc
  50
 2.6054784841004
  51
 57.394521657128
   0
LINE
   5
260
 100
AcDbEntity
   8
LEVEL001
 100
AcDbLine
   6
CONTINUOUS
  62
15
  10
 392.40233489612
  20
 214.71724145690
  30
0.0
  11
 392.40233489612
  21
 249.01195555614
  31
0.0
   0
LINE
   5
261
 100
AcDbEntity
   8
LEVEL001
 100
AcDbLine
   6
CONTINUOUS
  62
15
  10
 392.40233489612
  20
 249.01195555614
  30
0.0
  11
 375.07821875707
  21
 259.01295492597
  31
0.0
   0
LINE
   5
262
 100
AcDbEntity
   8
LEVEL001
 100
AcDbLine
   6
CONTINUOUS
  62
15
  10
 375.07821875707
  20
 259.01295492597
  30
0.0
  11
 375.07821875707
  21
 254.12139369274
  31
0.0
   0
LINE
   5
263
 100
AcDbEntity
   8
LEVEL001
 100
AcDbLine
   6
CONTINUOUS
  62
15
  10
 375.07821875707
  20
 226.81187274305
  30
0.0
  11
 375.07821875707
  21
 224.71824082673
  31
0.0
   0
LINE
   5
264
 100
AcDbEntity
   8
LEVEL001
 100
AcDbLine
   6
CONTINUOUS
  62
15
  10
 375.07821875707
  20
 224.71824082673
  30
0.0
  11
 392.40233489612
  21
 214.71724145690
  31
0.0
   0
LINE
   5
265
 100
AcDbEntity
   8
LEVEL001
 100
AcDbLine
   6
CONTINUOUS
  62
15
  10
 397.25308741511
  20
 251.92746141577
  30
0.0
  11
 370.22746623815
  21
 267.52902043273
  31
0.0
   0
LINE
   5
266
 100
AcDbEntity
   8
LEVEL001
 100
AcDbLine
   6
CONTINUOUS
  62
15
  10
 397.35208236445
  20
 206.25834309605
  30
0.0
  11
 397.35208236445
  21
 251.75599713432
  31
0.0
   0
LINE
   5
267
 100
AcDbEntity
   8
LEVEL001
 100
AcDbLine
   6
CONTINUOUS
  62
15
  10
 370.22746623815
  20
 221.80273496710
  30
0.0
  11
 397.25308741511
  21
 206.20117595021
  31
0.0
   0
ARC
   5
268
 100
AcDbEntity
   8
LEVEL001
   6
CONTINUOUS
  62
15
 100
AcDbCircle
  10
 370.34340154294
  20
 221.98397976790
  30
0.0
  40
 0.21515267305992
 100
AcDbArc
  50
 182.60547848760
  51
 237.39452166347
   0
LINE
   5
269
 100
AcDbEntity
   8
LEVEL001
 100
AcDbLine
   6
CONTINUOUS
  62
15
  10
 370.12847128874
  20
 267.47185328689
  30
0.0
  11
 370.12847128874
  21
 251.34090026794
  31
0.0
   0
LINE
   5
26A
 100
AcDbEntity
   8
LEVEL001
 100
AcDbLine
   6
CONTINUOUS
  62
15
  10
 370.12847128874
  20
 229.75246119700
  30
0.0
  11
 370.12847128874
  21
 221.97419924862
  31
0.0
   0
LINE
   5
26B
 100
AcDbEntity
   8
LEVEL001
 100
AcDbLine
   6
CONTINUOUS
  62
15
  10
 398.09454448471
  20
 206.68695735471
  30
0.0
  11
 398.09454448471
  21
 252.18461139298
  31
0.0
   0
LINE
   5
26C
 100
AcDbEntity
   8
LEVEL001
 100
AcDbLine
   6
CONTINUOUS
  62
15
  10
 397.99554953530
  20
 252.35607567450
  30
0.0
  11
 370.96992835834
  21
 267.95763469139
  31
0.0
   0
LINE
   5
26D
 100
AcDbEntity
   8
LEVEL001
 100
AcDbLine
   6
CONTINUOUS
  62
15
  10
 375.07821875707
  20
 224.71824082673
  30
0.0
  11
 375.82068087733
  21
 225.14685508546
  31
0.0
   0
LINE
   5
26E
 100
AcDbEntity
   8
LEVEL001
 100
AcDbLine
   6
CONTINUOUS
  62
15
  10
 375.82068087733
  20
 258.58434066724
  30
0.0
  11
 375.82068087733
  21
 254.53846770646
  31
0.0
   0
LINE
   5
26F
 100
AcDbEntity
   8
LEVEL001
 100
AcDbLine
   6
CONTINUOUS
  62
15
  10
 375.82068087733
  20
 226.64780301317
  30
0.0
  11
 375.82068087733
  21
 225.14685508546
  31
0.0
   0
LINE
   5
270
 100
AcDbEntity
   8
LEVEL001
 100
AcDbLine
   6
CONTINUOUS
  62
15
  10
 375.82068087733
  20
 225.14685508546
  30
0.0
  11
 392.40233489612
  21
 215.57446997436
  31
0.0
   0
LINE
   5
271
 100
AcDbEntity
   8
LEVEL001
 100
AcDbLine
   6
CONTINUOUS
  62
15
  10
 370.23156816997
  20
 230.34275833268
  30
0.0
  11
 353.00644698026
  21
 240.28660913467
  31
0.0
   0
LINE
   5
272
 100
AcDbEntity
   8
LEVEL001
 100
AcDbLine
   6
CONTINUOUS
  62
15
  10
 353.57104071766
  20
 242.03985468355
  30
0.0
  11
 370.79616190737
  21
 232.09600388156
  31
0.0
   0
LINE
   5
273
 100
AcDbEntity
   8
LEVEL001
 100
AcDbLine
   6
CONTINUOUS
  62
15
  10
 370.79616190737
  20
 232.09600388156
  30
0.0
  11
 370.58420967128
  21
 231.94139577924
  31
0.0
   0
LINE
   5
274
 100
AcDbEntity
   8
LEVEL001
 100
AcDbLine
   6
CONTINUOUS
  62
15
  10
 370.58420967128
  20
 231.94139577924
  30
0.0
  11
 370.38900175684
  21
 231.72805052817
  31
0.0
   0
LINE
   5
275
 100
AcDbEntity
   8
LEVEL001
 100
AcDbLine
   6
CONTINUOUS
  62
15
  10
 370.38900175684
  20
 231.72805052817
  30
0.0
  11
 370.22672271355
  21
 231.47365643157
  31
0.0
   0
LINE
   5
276
 100
AcDbEntity
   8
LEVEL001
 100
AcDbLine
   6
CONTINUOUS
  62
15
  10
 370.22672271355
  20
 231.47365643157
  30
0.0
  11
 370.11082698157
  21
 231.19930512315
  31
0.0
   0
LINE
   5
277
 100
AcDbEntity
   8
LEVEL001
 100
AcDbLine
   6
CONTINUOUS
  62
15
  10
 370.11082698157
  20
 231.19930512315
  30
0.0
  11
 370.05092339356
  21
 230.92774287485
  31
0.0
   0
LINE
   5
278
 100
AcDbEntity
   8
LEVEL001
 100
AcDbLine
   6
CONTINUOUS
  62
15
  10
 370.05092339356
  20
 230.92774287485
  30
0.0
  11
 370.05197851357
  21
 230.68148471977
  31
0.0
   0
LINE
   5
279
 100
AcDbEntity
   8
LEVEL001
 100
AcDbLine
   6
CONTINUOUS
  62
15
  10
 370.05197851357
  20
 230.68148471977
  30
0.0
  11
 370.11390486218
  21
 230.48094774635
  31
0.0
   0
LINE
   5
27A
 100
AcDbEntity
   8
LEVEL001
 100
AcDbLine
   6
CONTINUOUS
  62
15
  10
 370.11390486218
  20
 230.48094774635
  30
0.0
  11
 370.23156816997
  21
 230.34275833268
  31
0.0
   0
LINE
   5
27B
 100
AcDbEntity
   8
LEVEL001
 100
AcDbLine
   6
CONTINUOUS
  62
15
  10
 375.34911371490
  20
 226.65754008212
  30
0.0
  11
 375.46279495635
  21
 226.60337917413
  31
0.0
   0
LINE
   5
27C
 100
AcDbEntity
   8
LEVEL001
 100
AcDbLine
   6
CONTINUOUS
  62
15
  10
 375.46279495635
  20
 226.60337917413
  30
0.0
  11
 375.59542001360
  21
 226.58979151116
  31
0.0
   0
LINE
   5
27D
 100
AcDbEntity
   8
LEVEL001
 100
AcDbLine
   6
CONTINUOUS
  62
15
  10
 375.59542001360
  20
 226.58979151116
  30
0.0
  11
 375.74129074238
  21
 226.61736087781
  31
0.0
   0
LINE
   5
27E
 100
AcDbEntity
   8
LEVEL001
 100
AcDbLine
   6
CONTINUOUS
  62
15
  10
 375.74129074238
  20
 226.61736087781
  30
0.0
  11
 375.89413990703
  21
 226.68490277524
  31
0.0
   0
LINE
   5
27F
 100
AcDbEntity
   8
LEVEL001
 100
AcDbLine
   6
CONTINUOUS
  62
15
  10
 375.89413990703
  20
 226.68490277524
  30
0.0
  11
 376.04740044838
  21
 226.78951531229
  31
0.0
   0
LINE
   5
280
 100
AcDbEntity
   8
LEVEL001
 100
AcDbLine
   6
CONTINUOUS
  62
15
  10
 376.04740044838
  20
 226.78951531229
  30
0.0
  11
 376.19448763268
  21
 226.92670388318
  31
0.0
   0
LINE
   5
281
 100
AcDbEntity
   8
LEVEL001
 100
AcDbLine
   6
CONTINUOUS
  62
15
  10
 376.19448763268
  20
 226.92670388318
  30
0.0
  11
 376.32908196024
  21
 227.09057427546
  31
0.0
   0
LINE
   5
282
 100
AcDbEntity
   8
LEVEL001
 100
AcDbLine
   6
CONTINUOUS
  62
15
  10
 376.32908196024
  20
 227.09057427546
  30
0.0
  11
 376.44540067828
  21
 227.27408591027
  31
0.0
   0
LINE
   5
283
 100
AcDbEntity
   8
LEVEL001
 100
AcDbLine
   6
CONTINUOUS
  62
15
  10
 370.23156816997
  20
 230.34275833268
  30
0.0
  11
 375.34911371490
  21
 226.65754008212
  31
0.0
   0
LINE
   5
284
 100
AcDbEntity
   8
LEVEL001
 100
AcDbLine
   6
CONTINUOUS
  62
15
  10
 370.79616190737
  20
 232.09600388156
  30
0.0
  11
 392.40233489612
  21
 244.23315275919
  31
0.0
   0
LINE
   5
285
 100
AcDbEntity
   8
LEVEL001
 100
AcDbLine
   6
CONTINUOUS
  62
15
  10
 370.78616920857
  20
 231.23294502266
  30
0.0
  11
 392.40233489612
  21
 243.37570724390
  31
0.0
   0
LINE
   5
286
 100
AcDbEntity
   8
LEVEL001
 100
AcDbLine
   6
CONTINUOUS
  62
15
  10
 370.78616920857
  20
 231.23294502266
  30
0.0
  11
 375.90371475343
  21
 227.54772677210
  31
0.0
   0
LINE
   5
287
 100
AcDbEntity
   8
LEVEL001
 100
AcDbLine
   6
CONTINUOUS
  62
15
  10
 380.99317691149
  20
 236.75553840211
  30
0.0
  11
 375.90371475343
  21
 227.54772677210
  31
0.0
   0
LINE
   5
288
 100
AcDbEntity
   8
LEVEL001
 100
AcDbLine
   6
CONTINUOUS
  62
15
  10
 381.53486283627
  20
 236.48189754028
  30
0.0
  11
 380.99317691149
  21
 236.75553840211
  31
0.0
   0
LINE
   5
289
 100
AcDbEntity
   8
LEVEL001
 100
AcDbLine
   6
CONTINUOUS
  62
15
  10
 381.53486283627
  20
 236.48189754028
  30
0.0
  11
 376.44540067828
  21
 227.27408591027
  31
0.0
   0
LINE
   5
28A
 100
AcDbEntity
   8
LEVEL001
 100
AcDbLine
   6
CONTINUOUS
  62
15
  10
 353.57104071766
  20
 242.03985468355
  30
0.0
  11
 379.37270768755
  21
 256.53379923668
  31
0.0
   0
LINE
   5
28B
 100
AcDbEntity
   8
LEVEL001
 100
AcDbLine
   6
CONTINUOUS
  62
15
  10
 370.69635109466
  20
 229.34352277004
  30
0.0
  11
 375.34911371490
  21
 226.65754008212
  31
0.0
   0
LINE
   5
28C
 100
AcDbEntity
   8
LEVEL001
 100
AcDbLine
   6
CONTINUOUS
  62
15
  10
 368.21148327692
  20
 231.13291187308
  30
0.0
  11
 370.69635109466
  21
 229.34352277004
  31
0.0
   0
ARC
   5
28D
 100
AcDbEntity
   8
LEVEL001
   6
CONTINUOUS
  62
15
 100
AcDbCircle
  10
 335.37098921229
  20
 183.91514610146
  30
0.0
  40
 57.515349732638
 100
AcDbArc
  50
 55.180946848501
  51
 60.043101433901
   0
LINE
   5
28E
 100
AcDbEntity
   8
LEVEL001
 100
AcDbLine
   6
CONTINUOUS
  62
15
  10
 361.12133748230
  20
 235.46097632078
  30
0.0
  11
 364.09118596327
  21
 233.74651928600
  31
0.0
   0
LINE
   5
28F
 100
AcDbEntity
   8
LEVEL001
 100
AcDbLine
   6
CONTINUOUS
  62
15
  10
 360.29188732762
  20
 235.70479729930
  30
0.0
  11
 360.06495617268
  21
 235.87256559328
  31
0.0
   0
LINE
   5
290
 100
AcDbEntity
   8
LEVEL001
 100
AcDbLine
   6
CONTINUOUS
  62
15
  10
 360.06495617268
  20
 235.87256559328
  30
0.0
  11
 359.90455242092
  21
 236.00102318996
  31
0.0
   0
LINE
   5
291
 100
AcDbEntity
   8
LEVEL001
 100
AcDbLine
   6
CONTINUOUS
  62
15
  10
 359.90455242092
  20
 236.00102318996
  30
0.0
  11
 359.81462574499
  21
 236.08700703700
  31
0.0
   0
LINE
   5
292
 100
AcDbEntity
   8
LEVEL001
 100
AcDbLine
   6
CONTINUOUS
  62
15
  10
 359.81462574499
  20
 236.08700703700
  30
0.0
  11
 359.79739043816
  21
 236.12839992665
  31
0.0
   0
LINE
   5
293
 100
AcDbEntity
   8
LEVEL001
 100
AcDbLine
   6
CONTINUOUS
  62
15
  10
 359.79739043816
  20
 236.12839992665
  30
0.0
  11
 359.85327089083
  21
 236.12418262860
  31
0.0
   0
LINE
   5
294
 100
AcDbEntity
   8
LEVEL001
 100
AcDbLine
   6
CONTINUOUS
  62
15
  10
 359.85327089083
  20
 236.12418262860
  30
0.0
  11
 359.98089114079
  21
 236.07445898680
  31
0.0
   0
LINE
   5
295
 100
AcDbEntity
   8
LEVEL001
 100
AcDbLine
   6
CONTINUOUS
  62
15
  10
 359.98089114079
  20
 236.07445898680
  30
0.0
  11
 360.17710875406
  21
 235.98045336229
  31
0.0
   0
LINE
   5
296
 100
AcDbEntity
   8
LEVEL001
 100
AcDbLine
   6
CONTINUOUS
  62
15
  10
 360.17710875406
  20
 235.98045336229
  30
0.0
  11
 360.43709220170
  21
 235.84448048553
  31
0.0
   0
LINE
   5
297
 100
AcDbEntity
   8
LEVEL001
 100
AcDbLine
   6
CONTINUOUS
  62
15
  10
 360.43709220170
  20
 235.84448048553
  30
0.0
  11
 360.75443982838
  21
 235.66988845995
  31
0.0
   0
LINE
   5
298
 100
AcDbEntity
   8
LEVEL001
 100
AcDbLine
   6
CONTINUOUS
  62
15
  10
 360.75443982838
  20
 235.66988845995
  30
0.0
  11
 361.12133748230
  21
 235.46097632078
  31
0.0
   0
LINE
   5
299
 100
AcDbEntity
   8
LEVEL001
 100
AcDbLine
   6
CONTINUOUS
  62
15
  10
 360.29188732762
  20
 235.70479729930
  30
0.0
  11
 362.77675514536
  21
 233.91540819626
  31
0.0
   0
LINE
   5
29A
 100
AcDbEntity
   8
LEVEL001
 100
AcDbLine
   6
CONTINUOUS
  62
15
  10
 358.12399252519
  20
 236.60139088411
  30
0.0
  11
 362.77675514536
  21
 233.91540819626
  31
0.0
   0
LINE
   5
29B
 100
AcDbEntity
   8
LEVEL001
 100
AcDbLine
   6
CONTINUOUS
  62
15
  10
 353.00644698026
  20
 240.28660913467
  30
0.0
  11
 358.12399252519
  21
 236.60139088411
  31
0.0
   0
LINE
   5
29C
 100
AcDbEntity
   8
LEVEL001
 100
AcDbLine
   6
CONTINUOUS
  62
15
  10
 372.26127547827
  20
 232.06157785902
  30
0.0
  11
 371.51368772666
  21
 230.70904845996
  31
0.0
   0
ARC
   5
29D
 100
AcDbEntity
   8
LEVEL001
   6
CONTINUOUS
  62
15
 100
AcDbCircle
  10
 380.64370891722
  20
 236.95336688097
  30
0.0
  40
 0.40157687436760
 100
AcDbArc
  50
 330.48646429951
  51
 5.9144249711537
   0
ARC
   5
29E
 100
AcDbEntity
   8
LEVEL001
   6
CONTINUOUS
  62
15
 100
AcDbCircle
  10
 381.26093689238
  20
 236.66553644761
  30
0.0
  40
 0.32978579573589
 100
AcDbArc
  50
 326.16225084389
  51
 53.601554120629
   0
LINE
   5
29F
 100
AcDbEntity
   8
LEVEL001
 100
AcDbLine
   6
CONTINUOUS
  62
15
  10
 370.72599479861
  20
 229.32435815450
  30
0.0
  11
 370.69635109466
  21
 229.34352277004
  31
0.0
   0
LINE
   5
2A0
 100
AcDbEntity
   8
LEVEL001
 100
AcDbLine
   6
CONTINUOUS
  62
15
  10
 381.45663081198
  20
 236.93098429728
  30
0.0
  11
 381.19673134880
  21
 237.08102106374
  31
0.0
   0
ARC
   5
2A1
 100
AcDbEntity
   8
LEVEL001
   6
CONTINUOUS
  62
15
 100
AcDbCircle
  10
 363.03172619785
  20
 234.50661001873
  30
0.0
  40
 0.64383991218938
 100
AcDbArc
  50
 246.67063141625
  51
 318.48199574823
   0
LINE
   5
2A2
 100
AcDbEntity
   8
LEVEL001
 100
AcDbLine
   6
CONTINUOUS
  62
15
  10
 358.15363622914
  20
 236.58222626857
  30
0.0
  11
 358.12399252519
  21
 236.60139088411
  31
0.0
   0
LINE
   5
2A3
 100
AcDbEntity
   8
LEVEL001
 100
AcDbLine
   6
CONTINUOUS
  62
15
  10
 398.08598600590
  20
 252.23604826882
  30
0.0
  11
 399.62896619990
  21
 253.12679177478
  31
0.0
   0
LINE
   5
2A4
 100
AcDbEntity
   8
LEVEL001
 100
AcDbLine
   6
CONTINUOUS
  62
15
  10
 400.32193084542
  20
 252.72675179997
  30
0.0
  11
 399.62896619990
  21
 253.12679177478
  31
0.0
   0
LINE
   5
2A5
 100
AcDbEntity
   8
LEVEL001
 100
AcDbLine
   6
CONTINUOUS
  62
15
  10
 398.09454448471
  20
 251.44090902385
  30
0.0
  11
 400.32193084542
  21
 252.72675179997
  31
0.0
   0
LINE
   5
2A6
 100
AcDbEntity
   8
LEVEL001
 100
AcDbLine
   6
CONTINUOUS
  62
15
  10
 397.35264554140
  20
 252.72721625018
  30
0.0
  11
 399.57946872516
  21
 254.01273391116
  31
0.0
   0
LINE
   5
2A7
 100
AcDbEntity
   8
LEVEL001
 100
AcDbLine
   6
CONTINUOUS
  62
15
  10
 399.57946872516
  20
 253.21252391554
  30
0.0
  11
 399.57946872516
  21
 254.01273391116
  31
0.0
   0
LINE
   5
2A8
 100
AcDbEntity
   8
LEVEL001
 100
AcDbLine
   6
CONTINUOUS
  62
15
  10
 398.03674342930
  20
 252.32192755910
  30
0.0
  11
 399.57946872516
  21
 253.21252391554
  31
0.0
   0
LINE
   5
2A9
 100
AcDbEntity
   8
LEVEL001
 100
AcDbLine
   6
CONTINUOUS
  62
15
  10
 400.56941821884
  20
 252.29804465124
  30
0.0
  11
 401.06439296568
  21
 252.58378749037
  31
0.0
   0
LINE
   5
2AA
 100
AcDbEntity
   8
LEVEL001
 100
AcDbLine
   6
CONTINUOUS
  62
15
  10
 401.06439296568
  20
 217.71749482287
  30
0.0
  11
 401.06439296568
  21
 252.58378749037
  31
0.0
   0
LINE
   5
2AB
 100
AcDbEntity
   8
LEVEL001
 100
AcDbLine
   6
CONTINUOUS
  62
15
  10
 401.06439296568
  20
 217.71749482287
  30
0.0
  11
 400.56941821884
  21
 217.43175198374
  31
0.0
   0
LINE
   5
2AC
 100
AcDbEntity
   8
LEVEL001
 100
AcDbLine
   6
CONTINUOUS
  62
15
  10
 400.56941821884
  20
 217.43175198374
  30
0.0
  11
 400.56941821884
  21
 217.14596269954
  31
0.0
   0
ARC
   5
2AD
 100
AcDbEntity
   8
LEVEL001
   6
CONTINUOUS
  62
15
 100
AcDbCircle
  10
 400.03209258335
  20
 217.17041399786
  30
0.0
  40
 0.53788168265022
 100
AcDbArc
  50
 302.60547834114
  51
 357.39452151626
   0
LINE
   5
2AE
 100
AcDbEntity
   8
LEVEL001
 100
AcDbLine
   6
CONTINUOUS
  62
15
  10
 398.09454448471
  20
 215.43145921969
  30
0.0
  11
 400.32193084542
  21
 216.71730199581
  31
0.0
   0
ARC
   5
2AF
 100
AcDbEntity
   8
LEVEL001
   6
CONTINUOUS
  62
15
 100
AcDbCircle
  10
 400.41854219013
  20
 252.60830845422
  30
0.0
  40
 0.15284821909998
 100
AcDbArc
  50
 350.78596305342
  51
 129.20328517696
   0
LINE
   5
2B0
 100
AcDbEntity
   8
LEVEL001
 100
AcDbLine
   6
CONTINUOUS
  62
15
  10
 400.56941821884
  20
 252.58383393537
  30
0.0
  11
 400.56941821884
  21
 252.29804465124
  31
0.0
   0
LINE
   5
2B1
 100
AcDbEntity
   8
LEVEL001
 100
AcDbLine
   6
CONTINUOUS
  62
15
  10
 399.82695609858
  20
 254.72709100902
  30
0.0
  11
 382.00786521269
  21
 265.01383321798
  31
0.0
   0
LINE
   5
2B2
 100
AcDbEntity
   8
LEVEL001
 100
AcDbLine
   6
CONTINUOUS
  62
15
  10
 399.82695609858
  20
 254.72709100902
  30
0.0
  11
 399.33198135174
  21
 254.44134816989
  31
0.0
   0
LINE
   5
2B3
 100
AcDbEntity
   8
LEVEL001
 100
AcDbLine
   6
CONTINUOUS
  62
15
  10
 399.33198135174
  20
 254.44134816989
  30
0.0
  11
 399.57946872516
  21
 254.29847675029
  31
0.0
   0
ARC
   5
2B4
 100
AcDbEntity
   8
LEVEL001
   6
CONTINUOUS
  62
15
 100
AcDbCircle
  10
 399.52524426578
  20
 254.15560533075
  30
0.0
  40
 0.15281536089199
 100
AcDbArc
  50
 290.78342079870
  51
 69.216579201567
   0
ARC
   5
2B5
 100
AcDbEntity
   8
LEVEL001
   6
CONTINUOUS
  62
15
 100
AcDbCircle
  10
 399.73148821908
  20
 252.98368330956
  30
0.0
  40
 0.17604203256565
 100
AcDbArc
  50
 65.692880955251
  51
 125.61757747789
   0
ARC
   5
2B6
 100
AcDbEntity
   8
LEVEL001
   6
CONTINUOUS
  62
15
 100
AcDbCircle
  10
 399.50682137989
  20
 253.37286256696
  30
0.0
  40
 0.17602874747263
 100
AcDbArc
  50
 294.37465830214
  51
 354.30520076601
   0
LINE
   5
2B7
 100
AcDbEntity
   8
LEVEL001
 100
AcDbLine
   6
CONTINUOUS
  62
15
  10
 399.82695609858
  20
 253.29814458823
  30
0.0
  11
 400.56941821884
  21
 253.72675884696
  31
0.0
   0
LINE
   5
2B8
 100
AcDbEntity
   8
LEVEL001
 100
AcDbLine
   6
CONTINUOUS
  62
15
  10
 400.56941821884
  20
 253.72675884696
  30
0.0
  11
 401.06439296568
  21
 253.44101600776
  31
0.0
   0
ARC
   5
2B9
 100
AcDbEntity
   8
LEVEL001
   6
CONTINUOUS
  62
15
 100
AcDbCircle
  10
 400.90171958754
  20
 253.01240174910
  30
0.0
  40
 0.45844608267603
 100
AcDbArc
  50
 290.78342079966
  51
 69.216579200292
   0
LINE
   5
2BA
 100
AcDbEntity
   8
LEVEL001
 100
AcDbLine
   6
CONTINUOUS
  62
15
  10
 399.82695609858
  20
 253.29814458823
  30
0.0
  11
 400.37142832009
  21
 252.98382746518
  31
0.0
   0
LINE
   5
2BB
 100
AcDbEntity
   8
LEVEL001
 100
AcDbLine
   6
CONTINUOUS
  62
15
  10
 400.22652224612
  20
 252.90017496926
  30
0.0
  11
 400.37142832009
  21
 252.98382746518
  31
0.0
   0
ARC
   5
2BC
 100
AcDbEntity
   8
LEVEL001
   6
CONTINUOUS
  62
15
 100
AcDbCircle
  10
 400.11679013307
  20
 254.37176097200
  30
0.0
  40
 0.45854465729993
 100
AcDbArc
  50
 350.78596300916
  51
 129.20328523615
   0
LINE
   5
2BD
 100
AcDbEntity
   8
LEVEL001
 100
AcDbLine
   6
CONTINUOUS
  62
15
  10
 400.56941821884
  20
 253.72675884696
  30
0.0
  11
 400.56941821884
  21
 254.29833741522
  31
0.0
   0
LINE
   5
2BE
 100
AcDbEntity
   8
LEVEL001
 100
AcDbLine
   6
CONTINUOUS
  62
15
  10
 399.82695609858
  20
 253.92688101340
  30
0.0
  11
 399.82695609858
  21
 253.29814458823
  31
0.0
   0
LINE
   5
2BF
 100
AcDbEntity
   8
LEVEL001
 100
AcDbLine
   6
CONTINUOUS
  62
15
  10
 399.82695609858
  20
 253.92688101340
  30
0.0
  11
 399.68198135174
  21
 253.84318887347
  31
0.0
   0
ARC
   5
2C0
 100
AcDbEntity
   8
LEVEL001
   6
CONTINUOUS
  62
15
 100
AcDbCircle
  10
 400.84645092983
  20
 218.19851077729
  30
0.0
  40
 0.52808624241848
 100
AcDbArc
  50
 294.37465829465
  51
 354.30520075088
   0
LINE
   5
2C1
 100
AcDbEntity
   8
LEVEL001
 100
AcDbLine
   6
CONTINUOUS
  62
15
  10
 388.44253692147
  20
 229.86235505163
  30
0.0
  11
 388.47300672398
  21
 229.39769227123
  31
0.0
   0
LINE
   5
2C2
 100
AcDbEntity
   8
LEVEL001
 100
AcDbLine
   6
CONTINUOUS
  62
15
  10
 388.47300672398
  20
 229.39769227123
  30
0.0
  11
 388.56366586374
  21
 228.90929134549
  31
0.0
   0
LINE
   5
2C3
 100
AcDbEntity
   8
LEVEL001
 100
AcDbLine
   6
CONTINUOUS
  62
15
  10
 388.56366586374
  20
 228.90929134549
  30
0.0
  11
 388.71228201198
  21
 228.40917832614
  31
0.0
   0
LINE
   5
2C4
 100
AcDbEntity
   8
LEVEL001
 100
AcDbLine
   6
CONTINUOUS
  62
15
  10
 388.71228201198
  20
 228.40917832614
  30
0.0
  11
 388.91519574580
  21
 227.90966765539
  31
0.0
   0
LINE
   5
2C5
 100
AcDbEntity
   8
LEVEL001
 100
AcDbLine
   6
CONTINUOUS
  62
15
  10
 388.91519574580
  20
 227.90966765539
  30
0.0
  11
 389.16741065567
  21
 227.42305894385
  31
0.0
   0
LINE
   5
2C6
 100
AcDbEntity
   8
LEVEL001
 100
AcDbLine
   6
CONTINUOUS
  62
15
  10
 389.16741065567
  20
 227.42305894385
  30
0.0
  11
 389.46271637344
  21
 226.96133411294
  31
0.0
   0
LINE
   5
2C7
 100
AcDbEntity
   8
LEVEL001
 100
AcDbLine
   6
CONTINUOUS
  62
15
  10
 389.46271637344
  20
 226.96133411294
  30
0.0
  11
 389.79384149231
  21
 226.53586236029
  31
0.0
   0
LINE
   5
2C8
 100
AcDbEntity
   8
LEVEL001
 100
AcDbLine
   6
CONTINUOUS
  62
15
  10
 389.79384149231
  20
 226.53586236029
  30
0.0
  11
 390.15263261283
  21
 226.15712021259
  31
0.0
   0
LINE
   5
2C9
 100
AcDbEntity
   8
LEVEL001
 100
AcDbLine
   6
CONTINUOUS
  62
15
  10
 390.15263261283
  20
 226.15712021259
  30
0.0
  11
 390.53025510703
  21
 225.83443355851
  31
0.0
   0
LINE
   5
2CA
 100
AcDbEntity
   8
LEVEL001
 100
AcDbLine
   6
CONTINUOUS
  62
15
  10
 390.53025510703
  20
 225.83443355851
  30
0.0
  11
 390.91741065567
  21
 225.57574801433
  31
0.0
   0
LINE
   5
2CB
 100
AcDbEntity
   8
LEVEL001
 100
AcDbLine
   6
CONTINUOUS
  62
15
  10
 390.91741065567
  20
 225.57574801433
  30
0.0
  11
 391.30456620431
  21
 225.38743327667
  31
0.0
   0
LINE
   5
2CC
 100
AcDbEntity
   8
LEVEL001
 100
AcDbLine
   6
CONTINUOUS
  62
15
  10
 391.30456620431
  20
 225.38743327667
  30
0.0
  11
 391.68218869844
  21
 225.27412627944
  31
0.0
   0
LINE
   5
2CD
 100
AcDbEntity
   8
LEVEL001
 100
AcDbLine
   6
CONTINUOUS
  62
15
  10
 391.68218869844
  20
 225.27412627944
  30
0.0
  11
 392.04097981903
  21
 225.23861701691
  31
0.0
   0
LINE
   5
2CE
 100
AcDbEntity
   8
LEVEL001
 100
AcDbLine
   6
CONTINUOUS
  62
15
  10
 392.04097981903
  20
 225.23861701691
  30
0.0
  11
 392.37210493790
  21
 225.28177984501
  31
0.0
   0
LINE
   5
2CF
 100
AcDbEntity
   8
LEVEL001
 100
AcDbLine
   6
CONTINUOUS
  62
15
  10
 392.37210493790
  20
 225.28177984501
  30
0.0
  11
 392.40233489612
  21
 225.29009806520
  31
0.0
   0
ARC
   5
2D0
 100
AcDbEntity
   8
LEVEL001
   6
CONTINUOUS
  62
15
 100
AcDbCircle
  10
 396.37027127104
  20
 242.45321341556
  30
0.0
  40
 9.7407658348198
 100
AcDbArc
  50
 192.94080037330
  51
 215.52404247700
   0
LINE
   5
2D1
 100
AcDbEntity
   8
LEVEL001
 100
AcDbLine
   6
CONTINUOUS
  62
15
  10
 388.44253692147
  20
 236.79339476723
  30
0.0
  11
 388.44253692147
  21
 229.86235505163
  31
0.0
   0
LINE
   5
2D2
 100
AcDbEntity
   8
LEVEL001
 100
AcDbLine
   6
CONTINUOUS
  62
15
  10
 381.46339299118
  20
 229.03291125274
  30
0.0
  11
 381.46339299118
  21
 236.35259490465
  31
0.0
   0
LINE
   5
2D3
 100
AcDbEntity
   8
LEVEL001
 100
AcDbLine
   6
CONTINUOUS
  62
15
  10
 381.46339299118
  20
 236.92692688168
  30
0.0
  11
 381.46339299118
  21
 237.23081677519
  31
0.0
   0
LINE
   5
2D4
 100
AcDbEntity
   8
LEVEL001
 100
AcDbLine
   6
CONTINUOUS
  62
15
  10
 392.40233489612
  20
 222.08925808265
  30
0.0
  11
 382.00786521269
  21
 228.08985770452
  31
0.0
   0
LINE
   5
2D5
 100
AcDbEntity
   8
LEVEL001
 100
AcDbLine
   6
CONTINUOUS
  62
15
  10
 382.00786521269
  20
 228.71859412969
  30
0.0
  11
 382.00786521269
  21
 228.08985770452
  31
0.0
   0
LINE
   5
2D6
 100
AcDbEntity
   8
LEVEL001
 100
AcDbLine
   6
CONTINUOUS
  62
15
  10
 382.00786521269
  20
 228.71859412969
  30
0.0
  11
 381.46339299118
  21
 229.03291125274
  31
0.0
   0
LINE
   5
2D7
 100
AcDbEntity
   8
LEVEL001
 100
AcDbLine
   6
CONTINUOUS
  62
15
  10
 380.96841824434
  20
 228.74716841361
  30
0.0
  11
 381.46339299118
  21
 229.03291125274
  31
0.0
   0
LINE
   5
2D8
 100
AcDbEntity
   8
LEVEL001
 100
AcDbLine
   6
CONTINUOUS
  62
15
  10
 380.96841824434
  20
 228.46137912941
  30
0.0
  11
 380.96841824434
  21
 228.74716841361
  31
0.0
   0
ARC
   5
2D9
 100
AcDbEntity
   8
LEVEL001
   6
CONTINUOUS
  62
15
 100
AcDbCircle
  10
 380.43109260885
  20
 228.48583042765
  30
0.0
  40
 0.53788168265046
 100
AcDbArc
  50
 302.60547834126
  51
 357.39452151649
   0
LINE
   5
2DA
 100
AcDbEntity
   8
LEVEL001
 100
AcDbLine
   6
CONTINUOUS
  62
15
  10
 375.82068087733
  20
 225.20386431823
  30
0.0
  11
 380.72093087092
  21
 228.03271842568
  31
0.0
   0
ARC
   5
2DB
 100
AcDbEntity
   8
LEVEL001
   6
CONTINUOUS
  62
15
 100
AcDbCircle
  10
 376.11569599416
  20
 254.19543083179
  30
0.0
  40
 0.58063207806988
 100
AcDbArc
  50
 79.137308098205
  51
 120.53689128341
   0
LINE
   5
2DC
 100
AcDbEntity
   8
LEVEL001
 100
AcDbLine
   6
CONTINUOUS
  62
15
  10
 388.44253692147
  20
 236.79339476723
  30
0.0
  11
 389.18499904173
  21
 237.22200902596
  31
0.0
   0
ARC
   5
2DD
 100
AcDbEntity
   8
LEVEL001
   6
CONTINUOUS
  62
15
 100
AcDbCircle
  10
 397.11558221091
  20
 242.88339710004
  30
0.0
  40
 9.7439963223068
 100
AcDbArc
  50
 193.00787531039
  51
 215.52181991449
   0
LINE
   5
2DE
 100
AcDbEntity
   8
LEVEL001
 100
AcDbLine
   6
CONTINUOUS
  62
15
  10
 398.09454448471
  20
 215.43131988462
  30
0.0
  11
 399.57946872516
  21
 216.28854840208
  31
0.0
   0
LINE
   5
2DF
 100
AcDbEntity
   8
LEVEL001
 100
AcDbLine
   6
CONTINUOUS
  62
15
  10
 375.87030707815
  20
 225.11820648954
  30
0.0
  11
 380.77042834559
  21
 227.94698628492
  31
0.0
   0
ARC
   5
2E0
 100
AcDbEntity
   8
LEVEL001
   6
CONTINUOUS
  62
15
 100
AcDbCircle
  10
 381.01791571900
  20
 227.46933740523
  30
0.0
  40
 0.53795766776908
 100
AcDbArc
  50
 62.609672236379
  51
 117.39032776303
   0
LINE
   5
2E1
 100
AcDbEntity
   8
LEVEL001
 100
AcDbLine
   6
CONTINUOUS
  62
15
  10
 381.51289046585
  20
 227.80411486539
  30
0.0
  11
 381.26540309243
  21
 227.94698628492
  31
0.0
   0
LINE
   5
2E2
 100
AcDbEntity
   8
LEVEL001
 100
AcDbLine
   6
CONTINUOUS
  62
15
  10
 381.51289046585
  20
 227.80411486539
  30
0.0
  11
 382.00786521269
  21
 228.08985770452
  31
0.0
   0
LINE
   5
2E3
 100
AcDbEntity
   8
LEVEL001
 100
AcDbLine
   6
CONTINUOUS
  62
15
  10
 399.58707587569
  20
 216.29307925162
  30
0.0
  11
 399.57946872516
  21
 216.28854840208
  31
0.0
   0
LINE
   5
2E4
 100
AcDbEntity
   8
LEVEL001
 100
AcDbLine
   6
CONTINUOUS
  62
15
  10
 388.44253692147
  20
 229.86235505163
  30
0.0
  11
 389.18499904173
  21
 230.29096931029
  31
0.0
   0
LINE
   5
2E5
 100
AcDbEntity
   8
LEVEL001
 100
AcDbLine
   6
CONTINUOUS
  62
15
  10
 389.18499904173
  20
 237.22200902596
  30
0.0
  11
 389.18499904173
  21
 230.29096931029
  31
0.0
   0
ARC
   5
2E6
 100
AcDbEntity
   8
LEVEL001
   6
CONTINUOUS
  62
15
 100
AcDbCircle
  10
 394.18491525505
  20
 230.37958148940
  30
0.0
  40
 5.0007013766643
 100
AcDbArc
  50
 181.01533149631
  51
 249.11667689402
   0
LINE
   5
2E7
 100
AcDbEntity
   8
LEVEL001
 100
AcDbLine
   6
CONTINUOUS
  62
15
  10
 392.40233489612
  20
 242.51826172861
  30
0.0
  11
 391.85804200327
  21
 242.21250818877
  31
0.0
   0
LINE
   5
2E8
 100
AcDbEntity
   8
LEVEL001
 100
AcDbLine
   6
CONTINUOUS
  62
15
  10
 381.17916227924
  20
 237.07115173560
  30
0.0
  11
 381.45663081198
  21
 236.93098429728
  31
0.0
   0
LINE
   5
2E9
 100
AcDbEntity
   8
LEVEL001
 100
AcDbLine
   6
CONTINUOUS
  62
15
  10
 360.39347394303
  20
 235.86785334616
  30
0.0
  11
 360.29188732762
  21
 235.70479729930
  31
0.0
   0
LINE
   5
2EA
 100
AcDbEntity
   8
LEVEL001
 100
AcDbLine
   6
CONTINUOUS
  62
15
  10
 399.57946872516
  20
 216.28854840208
  30
0.0
  11
 399.57946872516
  21
 216.28868773715
  31
0.0
   0
ARC
   5
2EB
 100
AcDbEntity
   8
LEVEL001
   6
CONTINUOUS
  62
15
 100
AcDbCircle
  10
 386.52002257205
  20
 231.32391802345
  30
0.0
  40
 2.1476550385214
 100
AcDbArc
  50
 158.58974674306
  51
 260.06424916740
   0
ARC
   5
2EC
 100
AcDbEntity
   8
LEVEL001
   6
CONTINUOUS
  62
15
 100
AcDbCircle
  10
 386.37286730391
  20
 231.23097785409
  30
0.0
  40
 2.1476550385214
 100
AcDbArc
  50
 158.17569366865
  51
 259.81468742161
   0
LINE
   5
2ED
 100
AcDbEntity
   8
LEVEL001
 100
AcDbLine
   6
CONTINUOUS
  62
15
  10
 397.32308172635
  20
 206.19424482314
  30
0.0
  11
 398.06554384661
  21
 206.62285908180
  31
0.0
   0
ARC
   5
2EE
 100
AcDbEntity
   8
LEVEL001
   6
CONTINUOUS
  62
15
 100
AcDbCircle
  10
 397.29173195300
  20
 206.24855328844
  30
0.0
  40
 0.61139287640043E-1
 100
AcDbArc
  50
 230.79671474947
  51
 9.2140370102634
   0
LINE
   5
2EF
 100
AcDbEntity
   8
LEVEL001
 100
AcDbLine
   6
CONTINUOUS
  62
15
  10
 397.35208236445
  20
 206.25834309605
  30
0.0
  11
 398.09454448471
  21
 206.68695735471
  31
0.0
   0
ARC
   5
2F0
 100
AcDbEntity
   8
LEVEL001
   6
CONTINUOUS
  62
15
 100
AcDbCircle
  10
 398.02794850685
  20
 206.67847839085
  30
0.0
  40
 0.67133576517919E-1
 100
AcDbArc
  50
 304.05635079053
  51
 7.2558294372818
   0
LINE
   5
2F1
 100
AcDbEntity
   8
LEVEL001
 100
AcDbLine
   6
CONTINUOUS
  62
15
  10
 370.89993404710
  20
 267.96456581846
  30
0.0
  11
 370.15747192684
  21
 267.53595155980
  31
0.0
   0
ARC
   5
2F2
 100
AcDbEntity
   8
LEVEL001
   6
CONTINUOUS
  62
15
 100
AcDbCircle
  10
 370.18882170019
  20
 267.48164309448
  30
0.0
  40
 0.61139287639991E-1
 100
AcDbArc
  50
 50.796714756788
  51
 189.21403700061
   0
LINE
   5
2F3
 100
AcDbEntity
   8
LEVEL001
 100
AcDbLine
   6
CONTINUOUS
  62
15
  10
 370.96992835834
  20
 267.95763469139
  30
0.0
  11
 370.22746623815
  21
 267.52902043273
  31
0.0
   0
LINE
   5
2F4
 100
AcDbEntity
   8
LEVEL001
 100
AcDbLine
   6
CONTINUOUS
  62
15
  10
 381.51289046585
  20
 264.72809037885
  30
0.0
  11
 382.00786521269
  21
 265.01383321798
  31
0.0
   0
LINE
   5
2F5
 100
AcDbEntity
   8
LEVEL001
 100
AcDbLine
   6
CONTINUOUS
  62
15
  10
 378.54360516190
  20
 263.58544413747
  30
0.0
  11
 380.77042834559
  21
 264.87096179845
  31
0.0
   0
ARC
   5
2F6
 100
AcDbEntity
   8
LEVEL001
   6
CONTINUOUS
  62
15
 100
AcDbCircle
  10
 381.01791571899
  20
 264.39331291868
  30
0.0
  40
 0.53795766776870
 100
AcDbArc
  50
 62.609672235097
  51
 117.39032776080
   0
LINE
   5
2F7
 100
AcDbEntity
   8
LEVEL001
 100
AcDbLine
   6
CONTINUOUS
  62
15
  10
 381.51289046585
  20
 264.72809037885
  30
0.0
  11
 381.26540309243
  21
 264.87096179845
  31
0.0
   0
ARC
   5
2F8
 100
AcDbEntity
   8
LEVEL001
   6
CONTINUOUS
  62
15
 100
AcDbCircle
  10
 382.31543127030
  20
 264.58450782239
  30
0.0
  40
 0.52812609769712
 100
AcDbArc
  50
 65.692880953894
  51
 125.61757747520
   0
ARC
   5
2F9
 100
AcDbEntity
   8
LEVEL001
   6
CONTINUOUS
  62
15
 100
AcDbCircle
  10
 370.92891955073
  20
 267.90039130534
  30
0.0
  40
 0.70416813026093E-1
 100
AcDbArc
  50
 54.382422536770
  51
 114.30711907015
   0
LINE
   5
2FA
 100
AcDbEntity
   8
LEVEL001
 100
AcDbLine
   6
CONTINUOUS
  62
15
  10
 353.00644698026
  20
 240.28660913467
  30
0.0
  11
 352.88878367247
  21
 240.42479854841
  31
0.0
   0
LINE
   5
2FB
 100
AcDbEntity
   8
LEVEL001
 100
AcDbLine
   6
CONTINUOUS
  62
15
  10
 352.88878367247
  20
 240.42479854841
  30
0.0
  11
 352.82685732386
  21
 240.62533552176
  31
0.0
   0
LINE
   5
2FC
 100
AcDbEntity
   8
LEVEL001
 100
AcDbLine
   6
CONTINUOUS
  62
15
  10
 352.82685732386
  20
 240.62533552176
  30
0.0
  11
 352.82580220385
  21
 240.87159367684
  31
0.0
   0
LINE
   5
2FD
 100
AcDbEntity
   8
LEVEL001
 100
AcDbLine
   6
CONTINUOUS
  62
15
  10
 352.82580220385
  20
 240.87159367684
  30
0.0
  11
 352.88570579186
  21
 241.14315592514
  31
0.0
   0
LINE
   5
2FE
 100
AcDbEntity
   8
LEVEL001
 100
AcDbLine
   6
CONTINUOUS
  62
15
  10
 352.88570579186
  20
 241.14315592514
  30
0.0
  11
 353.00160152384
  21
 241.41750723356
  31
0.0
   0
LINE
   5
2FF
 100
AcDbEntity
   8
LEVEL001
 100
AcDbLine
   6
CONTINUOUS
  62
15
  10
 353.00160152384
  20
 241.41750723356
  30
0.0
  11
 353.16388056713
  21
 241.67190133016
  31
0.0
   0
LINE
   5
300
 100
AcDbEntity
   8
LEVEL001
 100
AcDbLine
   6
CONTINUOUS
  62
15
  10
 353.16388056713
  20
 241.67190133016
  30
0.0
  11
 353.35908848157
  21
 241.88524658123
  31
0.0
   0
LINE
   5
301
 100
AcDbEntity
   8
LEVEL001
 100
AcDbLine
   6
CONTINUOUS
  62
15
  10
 353.35908848157
  20
 241.88524658123
  30
0.0
  11
 353.57104071766
  21
 242.03985468355
  31
0.0
   0
ENDBLK
   5
302
 100
AcDbEntity
   8
0
 100
AcDbBlockEnd
   0
BLOCK
   5
303
 100
AcDbEntity
   8
0
 100
AcDbBlockBegin
   2
*D35
  70
65
  10
0.0
  20
0.0
  30
0.0
   3
*D35
   0
LINE
   5
304
 100
AcDbEntity
   8
LEVEL001
 100
AcDbLine
   6
CONTINUOUS
  62
3
  10
 343.61238938055
  20
 168.33628318585
  30
0.0
  11
 341.91611243211
  21
 170.17275929900
  31
0.0
   0
LINE
   5
305
 100
AcDbEntity
   8
LEVEL001
 100
AcDbLine
   6
CONTINUOUS
  62
3
  10
 341.91611243211
  20
 170.17275929900
  30
0.0
  11
 332.47328325782
  21
 180.39604874185
  31
0.0
   0
INSERT
   5
306
 100
AcDbEntity
   8
LEVEL001
   6
CONTINUOUS
  62
3
 100
AcDbBlockReference
   2
_OPEN30
  10
 340.21983548367
  20
 172.00923541215
  30
0.0
  41
 3.0000000000000
  42
 3.0000000000000
  43
 3.0000000000000
  50
 312.72737941291
   0
MTEXT
   5
307
 100
AcDbEntity
   8
LEVEL001
  62
3
 100
AcDbMText
  10
 338.55000769756
  20
 176.34361791657
  30
0.0
  40
 4.0000000000000
  41
0.0
  71
9
  72
1
   1
\A1;R5
   7
GMM001
  11
 0.67851077937718
  21
-0.73459044526115
  31
0.0
   0
ENDBLK
   5
308
 100
AcDbEntity
   8
0
 100
AcDbBlockEnd
   0
BLOCK
   5
309
 100
AcDbEntity
   8
0
 100
AcDbBlockBegin
   2
*D36
  70
65
  10
0.0
  20
0.0
  30
0.0
   3
*D36
   0
LINE
   5
30A
 100
AcDbEntity
   8
LEVEL001
 100
AcDbLine
   6
CONTINUOUS
  62
3
  10
 338.61238938055
  20
 100.83628318585
  30
0.0
  11
 338.61238938055
  21
 88.590281778268
  31
0.0
   0
LINE
   5
30B
 100
AcDbEntity
   8
LEVEL001
 100
AcDbLine
   6
CONTINUOUS
  62
3
  10
 385.61238938055
  20
 100.83628318585
  30
0.0
  11
 385.61238938055
  21
 88.590281778268
  31
0.0
   0
LINE
   5
30C
 100
AcDbEntity
   8
LEVEL001
 100
AcDbLine
   6
CONTINUOUS
  62
3
  10
 338.61238938055
  20
 89.590281778268
  30
0.0
  11
 362.11238938055
  21
 89.590281778268
  31
0.0
   0
LINE
   5
30D
 100
AcDbEntity
   8
LEVEL001
 100
AcDbLine
   6
CONTINUOUS
  62
3
  10
 385.61238938055
  20
 89.590281778268
  30
0.0
  11
 362.11238938055
  21
 89.590281778268
  31
0.0
   0
INSERT
   5
30E
 100
AcDbEntity
   8
LEVEL001
   6
CONTINUOUS
  62
3
 100
AcDbBlockReference
   2
_OPEN30
  10
 338.61238938055
  20
 89.590281778268
  30
0.0
  41
 3.0000000000000
  42
 3.0000000000000
  43
 3.0000000000000
  50
 180.00000000000
   0
INSERT
   5
30F
 100
AcDbEntity
   8
LEVEL001
   6
CONTINUOUS
  62
3
 100
AcDbBlockReference
   2
_OPEN30
  10
 385.61238938055
  20
 89.590281778268
  30
0.0
  41
 3.0000000000000
  42
 3.0000000000000
  43
 3.0000000000000
  50
0.0
   0
MTEXT
   5
310
 100
AcDbEntity
   8
LEVEL001
  62
3
 100
AcDbMText
  10
 362.11238938055
  20
 91.304567492554
  30
0.0
  40
 4.0000000000000
  41
0.0
  71
8
  72
1
   1
\A1;47
   7
GMM001
   0
ENDBLK
   5
311
 100
AcDbEntity
   8
0
 100
AcDbBlockEnd
   0
BLOCK
   5
312
 100
AcDbEntity
   8
0
 100
AcDbBlockBegin
   2
*D37
  70
65
  10
0.0
  20
0.0
  30
0.0
   3
*D37
   0
LINE
   5
313
 100
AcDbEntity
   8
LEVEL001
 100
AcDbLine
   6
CONTINUOUS
  62
3
  10
 386.11238938055
  20
 101.33628318585
  30
0.0
  11
 398.62207018695
  21
 101.33628318585
  31
0.0
   0
LINE
   5
314
 100
AcDbEntity
   8
LEVEL001
 100
AcDbLine
   6
CONTINUOUS
  62
3
  10
 386.11238938055
  20
 173.33628318585
  30
0.0
  11
 398.62207018695
  21
 173.33628318585
  31
0.0
   0
LINE
   5
315
 100
AcDbEntity
   8
LEVEL001
 100
AcDbLine
   6
CONTINUOUS
  62
3
  10
 397.62207018695
  20
 101.33628318585
  30
0.0
  11
 397.62207018695
  21
 137.33628318585
  31
0.0
   0
LINE
   5
316
 100
AcDbEntity
   8
LEVEL001
 100
AcDbLine
   6
CONTINUOUS
  62
3
  10
 397.62207018695
  20
 173.33628318585
  30
0.0
  11
 397.62207018695
  21
 137.33628318585
  31
0.0
   0
INSERT
   5
317
 100
AcDbEntity
   8
LEVEL001
   6
CONTINUOUS
  62
3
 100
AcDbBlockReference
   2
_OPEN30
  10
 397.62207018695
  20
 101.33628318585
  30
0.0
  41
 3.0000000000000
  42
 3.0000000000000
  43
 3.0000000000000
  50
 270.00000000000
   0
INSERT
   5
318
 100
AcDbEntity
   8
LEVEL001
   6
CONTINUOUS
  62
3
 100
AcDbBlockReference
   2
_OPEN30
  10
 397.62207018695
  20
 173.33628318585
  30
0.0
  41
 3.0000000000000
  42
 3.0000000000000
  43
 3.0000000000000
  50
 90.000000000000
   0
MTEXT
   5
319
 100
AcDbEntity
   8
LEVEL001
  62
3
 100
AcDbMText
  10
 395.90778447267
  20
 137.33628318585
  30
0.0
  40
 4.0000000000000
  41
0.0
  71
8
  72
1
   1
\A1;72
   7
GMM001
  11
0.0
  21
 1.0000000000000
  31
0.0
   0
ENDBLK
   5
31A
 100
AcDbEntity
   8
0
 100
AcDbBlockEnd
   0
ENDSEC
   0
SECTION
   2
ENTITIES
   0
LINE
   5
31B
 100
AcDbEntity
   8
LEVEL001
 100
AcDbLine
   6
CONTINUOUS
  62
7
  10
 88.900094766048
  20
 157.52987000866
  30
0.0
  11
 88.900094766048
  21
 217.52987000866
  31
0.0
   0
LINE
   5
31C
 100
AcDbEntity
   8
LEVEL001
 100
AcDbLine
   6
CONTINUOUS
  62
7
  10
 88.900094766048
  20
 217.52987000866
  30
0.0
  11
 53.900094766048
  21
 217.52987000866
  31
0.0
   0
LINE
   5
31D
 100
AcDbEntity
   8
LEVEL001
 100
AcDbLine
   6
CONTINUOUS
  62
7
  10
 53.900094766048
  20
 217.52987000866
  30
0.0
  11
 53.900094766048
  21
 157.52987000866
  31
0.0
   0
LINE
   5
31E
 100
AcDbEntity
   8
LEVEL001
 100
AcDbLine
   6
CONTINUOUS
  62
7
  10
 53.900094766048
  20
 157.52987000866
  30
0.0
  11
 88.900094766048
  21
 157.52987000866
  31
0.0
   0
ARC
   5
31F
 100
AcDbEntity
   8
LEVEL001
   6
CONTINUOUS
  62
7
 100
AcDbCircle
  10
 98.700094766048
  20
 147.72987000867
  30
0.0
  40
 0.20000000000000
 100
AcDbArc
  50
 270.00000000000
  51
0.0
   0
POINT
   5
320
 100
AcDbEntity
   8
LEVEL001
 100
AcDbPoint
  62
7
  10
 98.900094766048
  20
 147.52987000866
  30
0.0
   0
ARC
   5
321
 100
AcDbEntity
   8
LEVEL001
   6
CONTINUOUS
  62
7
 100
AcDbCircle
  10
 44.100094766049
  20
 147.72987000866
  30
0.0
  40
 0.20000000000000
 100
AcDbArc
  50
 180.00000000000
  51
 269.99999999981
   0
POINT
   5
322
 100
AcDbEntity
   8
LEVEL001
 100
AcDbPoint
  62
7
  10
 43.900094766048
  20
 147.52987000866
  30
0.0
   0
LINE
   5
323
 100
AcDbEntity
   8
LEVEL001
 100
AcDbLine
   6
CONTINUOUS
  62
7
  10
 44.100094766048
  20
 147.52987000866
  30
0.0
  11
 98.700094766048
  21
 147.52987000866
  31
0.0
   0
ARC
   5
324
 100
AcDbEntity
   8
LEVEL001
   6
CONTINUOUS
  62
7
 100
AcDbCircle
  10
 44.100094766048
  20
 227.32987000866
  30
0.0
  40
 0.20000000000000
 100
AcDbArc
  50
 90.000000000004
  51
 179.99999999902
   0
POINT
   5
325
 100
AcDbEntity
   8
LEVEL001
 100
AcDbPoint
  62
7
  10
 43.900094766048
  20
 227.52987000866
  30
0.0
   0
LINE
   5
326
 100
AcDbEntity
   8
LEVEL001
 100
AcDbLine
   6
CONTINUOUS
  62
7
  10
 43.900094766048
  20
 227.32987000866
  30
0.0
  11
 43.900094766048
  21
 147.72987000866
  31
0.0
   0
LINE
   5
327
 100
AcDbEntity
   8
LEVEL001
 100
AcDbLine
   6
CONTINUOUS
  62
7
  10
 98.900094766048
  20
 147.72987000866
  30
0.0
  11
 98.900094766048
  21
 227.32987000866
  31
0.0
   0
ARC
   5
328
 100
AcDbEntity
   8
LEVEL001
   6
CONTINUOUS
  62
7
 100
AcDbCircle
  10
 98.700094766038
  20
 227.32987000866
  30
0.0
  40
 0.20000000000000
 100
AcDbArc
  50
 0.81422199841432E-11
  51
 89.999999997158
   0
POINT
   5
329
 100
AcDbEntity
   8
LEVEL001
 100
AcDbPoint
  62
7
  10
 98.900094766048
  20
 227.52987000866
  30
0.0
   0
LINE
   5
32A
 100
AcDbEntity
   8
LEVEL001
 100
AcDbLine
   6
CONTINUOUS
  62
7
  10
 98.700094766048
  20
 227.52987000866
  30
0.0
  11
 44.100094766048
  21
 227.52987000866
  31
0.0
   0
DIMENSION
   5
32B
 100
AcDbEntity
   8
LEVEL001
   6
CONTINUOUS
  62
3
 100
AcDbDimension
   2
*D1
  10
 113.16349531806
  20
 157.52987000866
  30
0.0
  11
 113.16349531806
  21
 152.52987000866
  31
0.0
  70
0
   3
GMM001
 100
AcDbAlignedDimension
  13
 98.900094766048
  23
 147.52987000866
  33
0.0
  14
 88.900094766048
  24
 157.52987000866
  34
0.0
  50
 90.000000000000
 100
AcDbRotatedDimension
   0
DIMENSION
   5
32C
 100
AcDbEntity
   8
LEVEL001
   6
CONTINUOUS
  62
3
 100
AcDbDimension
   2
*D2
  10
 113.16349531806
  20
 217.52987000866
  30
0.0
  11
 113.16349531806
  21
 222.52987000866
  31
0.0
  70
0
   3
GMM001
 100
AcDbAlignedDimension
  13
 98.900094766048
  23
 227.52987000866
  33
0.0
  14
 88.900094766048
  24
 217.52987000866
  34
0.0
  50
 270.00000000000
 100
AcDbRotatedDimension
   0
DIMENSION
   5
32D
 100
AcDbEntity
   8
LEVEL001
   6
CONTINUOUS
  62
3
 100
AcDbDimension
   2
*D3
  10
 113.16349531806
  20
 157.52987000866
  30
0.0
  11
 113.16349531806
  21
 187.52987000866
  31
0.0
  70
0
   3
GMM001
 100
AcDbAlignedDimension
  13
 113.16349531806
  23
 217.52987000866
  33
0.0
  14
 113.16349531806
  24
 157.52987000866
  34
0.0
  50
 270.00000000000
 100
AcDbRotatedDimension
   0
DIMENSION
   5
32E
 100
AcDbEntity
   8
LEVEL001
   6
CONTINUOUS
  62
3
 100
AcDbDimension
   2
*D4
  10
 123.16332445221
  20
 227.52987000866
  30
0.0
  11
 123.16332445221
  21
 187.52987000866
  31
0.0
  70
0
   3
GMM001
 100
AcDbAlignedDimension
  13
 114.16349531806
  23
 147.52987000866
  33
0.0
  14
 114.16349531806
  24
 227.52987000866
  34
0.0
  50
 90.000000000000
 100
AcDbRotatedDimension
   0
LINE
   5
32F
 100
AcDbEntity
   8
LEVEL001
 100
AcDbLine
   6
CONTINUOUS
  62
7
  10
 88.700094766048
  20
 207.02987000866
  30
0.0
  11
 88.900094766048
  21
 207.02987000866
  31
0.0
   0
LINE
   5
330
 100
AcDbEntity
   8
LEVEL001
 100
AcDbLine
   6
CONTINUOUS
  62
7
  10
 88.900094766048
  20
 210.02987000866
  30
0.0
  11
 88.700094766048
  21
 210.02987000866
  31
0.0
   0
LINE
   5
331
 100
AcDbEntity
   8
LEVEL001
 100
AcDbLine
   6
CONTINUOUS
  62
7
  10
 88.700094766048
  20
 159.43421177746
  30
0.0
  11
 88.700094766048
  21
 217.02987000866
  31
0.0
   0
LINE
   5
332
 100
AcDbEntity
   8
LEVEL001
 100
AcDbLine
   6
CONTINUOUS
  62
7
  10
 88.700094766048
  20
 159.43421177746
  30
0.0
  11
 88.700094766048
  21
 157.93421177746
  31
0.0
   0
LINE
   5
333
 100
AcDbEntity
   8
LEVEL001
 100
AcDbLine
   6
CONTINUOUS
  62
7
  10
 54.000094766048
  20
 207.02987000866
  30
0.0
  11
 54.100094766048
  21
 207.02987000866
  31
0.0
   0
LINE
   5
334
 100
AcDbEntity
   8
LEVEL001
 100
AcDbLine
   6
CONTINUOUS
  62
7
  10
 54.100094766048
  20
 210.02987000866
  30
0.0
  11
 54.000094766048
  21
 210.02987000866
  31
0.0
   0
LINE
   5
335
 100
AcDbEntity
   8
LEVEL001
 100
AcDbLine
   6
CONTINUOUS
  62
7
  10
 54.100094766048
  20
 159.43421177746
  30
0.0
  11
 54.100094766048
  21
 217.02987000866
  31
0.0
   0
LINE
   5
336
 100
AcDbEntity
   8
LEVEL001
 100
AcDbLine
   6
CONTINUOUS
  62
7
  10
 54.100094766048
  20
 157.93421177746
  30
0.0
  11
 54.100094766048
  21
 159.43421177746
  31
0.0
   0
LINE
   5
337
 100
AcDbEntity
   8
LEVEL001
 100
AcDbLine
   6
CONTINUOUS
  62
7
  10
 54.100094766048
  20
 157.93421177746
  30
0.0
  11
 88.700094766048
  21
 157.93421177746
  31
0.0
   0
LINE
   5
338
 100
AcDbEntity
   8
LEVEL001
 100
AcDbLine
   6
CONTINUOUS
  62
7
  10
 88.700094766048
  20
 217.02987000866
  30
0.0
  11
 54.100094766048
  21
 217.02987000866
  31
0.0
   0
LINE
   5
339
 100
AcDbEntity
   8
LEVEL001
 100
AcDbLine
   6
DASHDOT
  62
3
  10
 92.760973247977
  20
 206.02987000866
  30
0.0
  11
 50.689552113151
  21
 206.02987000866
  31
0.0
   0
DIMENSION
   5
33A
 100
AcDbEntity
   8
LEVEL001
   6
CONTINUOUS
  62
3
 100
AcDbDimension
   2
*D5
  10
 88.900094766048
  20
 129.86740262874
  30
0.0
  11
 71.400094766048
  21
 129.86740262874
  31
0.0
  70
0
   3
GMM001
 100
AcDbAlignedDimension
  13
 53.900094766048
  23
 129.86740262874
  33
0.0
  14
 88.900094766048
  24
 129.86740262874
  34
0.0
 100
AcDbRotatedDimension
   0
DIMENSION
   5
33B
 100
AcDbEntity
   8
LEVEL001
   6
CONTINUOUS
  62
3
 100
AcDbDimension
   2
*D6
  10
 53.900094766048
  20
 129.86740262874
  30
0.0
  11
 48.900094766048
  21
 129.86740262874
  31
0.0
  70
0
   3
GMM001
 100
AcDbAlignedDimension
  13
 43.900094766048
  23
 147.52987000866
  33
0.0
  14
 53.900094766048
  24
 157.52987000866
  34
0.0
 100
AcDbRotatedDimension
   0
DIMENSION
   5
33C
 100
AcDbEntity
   8
LEVEL001
   6
CONTINUOUS
  62
3
 100
AcDbDimension
   2
*D7
  10
 98.900094766048
  20
 129.86740262874
  30
0.0
  11
 93.900094766048
  21
 129.86740262874
  31
0.0
  70
0
   3
GMM001
 100
AcDbAlignedDimension
  13
 88.900094766048
  23
 157.52987000866
  33
0.0
  14
 98.900094766048
  24
 147.52987000866
  34
0.0
 100
AcDbRotatedDimension
   0
DIMENSION
   5
33D
 100
AcDbEntity
   8
LEVEL001
   6
CONTINUOUS
  62
3
 100
AcDbDimension
   2
*D8
  10
 88.700094766048
  20
 175.63035806120
  30
0.0
  11
 71.400094766048
  21
 175.63035806120
  31
0.0
  70
0
   3
GMM001
 100
AcDbAlignedDimension
  13
 54.100094766048
  23
 175.49191165018
  33
0.0
  14
 88.700094766048
  24
 175.42268844468
  34
0.0
 100
AcDbRotatedDimension
   0
LINE
   5
33E
 100
AcDbEntity
   8
LEVEL001
 100
AcDbLine
   6
DASHDOT
  62
3
  10
 71.400094766048
  20
 177.01482217132
  30
0.0
  11
 71.400094766048
  21
 141.49919034611
  31
0.0
   0
LINE
   5
33F
 100
AcDbEntity
   8
LEVEL001
 100
AcDbLine
   6
DASHDOT
  62
3
  10
 71.400094766048
  20
 234.56139324334
  30
0.0
  11
 71.400094766048
  21
 182.20656258430
  31
0.0
   0
LINE
   5
340
 100
AcDbEntity
   8
LEVEL001
 100
AcDbLine
   6
CONTINUOUS
  62
7
  10
 52.400094766048
  20
 100.16876412176
  30
0.0
  11
 52.400094766048
  21
 101.66876412176
  31
0.0
   0
LINE
   5
341
 100
AcDbEntity
   8
LEVEL001
 100
AcDbLine
   6
CONTINUOUS
  62
7
  10
 53.400094766048
  20
 88.668764121755
  30
0.0
  11
 53.400094766048
  21
 89.668764121755
  31
0.0
   0
LINE
   5
342
 100
AcDbEntity
   8
LEVEL001
 100
AcDbLine
   6
CONTINUOUS
  62
7
  10
 53.400094766048
  20
 89.668764121755
  30
0.0
  11
 52.400094766048
  21
 89.668764121755
  31
0.0
   0
LINE
   5
343
 100
AcDbEntity
   8
LEVEL001
 100
AcDbLine
   6
CONTINUOUS
  62
7
  10
 52.400094766048
  20
 100.16876412176
  30
0.0
  11
 52.400094766048
  21
 89.668764121755
  31
0.0
   0
LINE
   5
344
 100
AcDbEntity
   8
LEVEL001
 100
AcDbLine
   6
CONTINUOUS
  62
7
  10
 53.400094766048
  20
 88.668764121755
  30
0.0
  11
 53.400094766048
  21
 87.168764121755
  31
0.0
   0
LINE
   5
345
 100
AcDbEntity
   8
LEVEL001
 100
AcDbLine
   6
CONTINUOUS
  62
7
  10
 50.900094766048
  20
 100.16876412176
  30
0.0
  11
 50.900094766048
  21
 89.668764121755
  31
0.0
   0
LINE
   5
346
 100
AcDbEntity
   8
LEVEL001
 100
AcDbLine
   6
CONTINUOUS
  62
7
  10
 43.900094766048
  20
 101.66876412176
  30
0.0
  11
 43.900094766048
  21
 103.16876412176
  31
0.0
   0
LINE
   5
347
 100
AcDbEntity
   8
LEVEL001
 100
AcDbLine
   6
CONTINUOUS
  62
7
  10
 43.900094766048
  20
 103.16876412176
  30
0.0
  11
 71.400094766048
  21
 103.16876412176
  31
0.0
   0
LINE
   5
348
 100
AcDbEntity
   8
LEVEL001
 100
AcDbLine
   6
CONTINUOUS
  62
7
  10
 43.900094766048
  20
 101.66876412176
  30
0.0
  11
 71.400094766048
  21
 101.66876412176
  31
0.0
   0
LINE
   5
349
 100
AcDbEntity
   8
LEVEL001
 100
AcDbLine
   6
CONTINUOUS
  62
7
  10
 52.400094766048
  20
 100.16876412176
  30
0.0
  11
 71.400094766048
  21
 100.16876412176
  31
0.0
   0
LINE
   5
34A
 100
AcDbEntity
   8
LEVEL001
 100
AcDbLine
   6
CONTINUOUS
  62
7
  10
 71.400094766048
  20
 87.168764121755
  30
0.0
  11
 53.400094766048
  21
 87.168764121755
  31
0.0
   0
LINE
   5
34B
 100
AcDbEntity
   8
LEVEL001
 100
AcDbLine
   6
CONTINUOUS
  62
7
  10
 90.400094766048
  20
 100.16876412176
  30
0.0
  11
 90.400094766048
  21
 101.66876412176
  31
0.0
   0
LINE
   5
34C
 100
AcDbEntity
   8
LEVEL001
 100
AcDbLine
   6
CONTINUOUS
  62
7
  10
 89.400094766048
  20
 88.668764121755
  30
0.0
  11
 89.400094766048
  21
 89.668764121755
  31
0.0
   0
LINE
   5
34D
 100
AcDbEntity
   8
LEVEL001
 100
AcDbLine
   6
CONTINUOUS
  62
7
  10
 89.400094766048
  20
 89.668764121755
  30
0.0
  11
 90.400094766048
  21
 89.668764121755
  31
0.0
   0
LINE
   5
34E
 100
AcDbEntity
   8
LEVEL001
 100
AcDbLine
   6
CONTINUOUS
  62
7
  10
 90.400094766048
  20
 100.16876412176
  30
0.0
  11
 90.400094766048
  21
 89.668764121755
  31
0.0
   0
LINE
   5
34F
 100
AcDbEntity
   8
LEVEL001
 100
AcDbLine
   6
CONTINUOUS
  62
7
  10
 89.400094766048
  20
 88.668764121755
  30
0.0
  11
 89.400094766048
  21
 87.168764121755
  31
0.0
   0
LINE
   5
350
 100
AcDbEntity
   8
LEVEL001
 100
AcDbLine
   6
CONTINUOUS
  62
7
  10
 91.900094766048
  20
 100.16876412176
  30
0.0
  11
 91.900094766048
  21
 89.668764121755
  31
0.0
   0
LINE
   5
351
 100
AcDbEntity
   8
LEVEL001
 100
AcDbLine
   6
CONTINUOUS
  62
7
  10
 98.900094766048
  20
 101.66876412176
  30
0.0
  11
 98.900094766048
  21
 103.16876412176
  31
0.0
   0
LINE
   5
352
 100
AcDbEntity
   8
LEVEL001
 100
AcDbLine
   6
DASHDOT
  62
3
  10
 71.400094766048
  20
 108.82038115458
  30
0.0
  11
 71.400094766048
  21
 80.435418748561
  31
0.0
   0
LINE
   5
353
 100
AcDbEntity
   8
LEVEL001
 100
AcDbLine
   6
CONTINUOUS
  62
7
  10
 98.900094766048
  20
 103.16876412176
  30
0.0
  11
 71.400094766048
  21
 103.16876412176
  31
0.0
   0
LINE
   5
354
 100
AcDbEntity
   8
LEVEL001
 100
AcDbLine
   6
CONTINUOUS
  62
7
  10
 98.900094766048
  20
 101.66876412176
  30
0.0
  11
 71.400094766048
  21
 101.66876412176
  31
0.0
   0
LINE
   5
355
 100
AcDbEntity
   8
LEVEL001
 100
AcDbLine
   6
CONTINUOUS
  62
7
  10
 90.400094766048
  20
 100.16876412176
  30
0.0
  11
 71.400094766048
  21
 100.16876412176
  31
0.0
   0
LINE
   5
356
 100
AcDbEntity
   8
LEVEL001
 100
AcDbLine
   6
CONTINUOUS
  62
7
  10
 71.400094766048
  20
 87.168764121755
  30
0.0
  11
 89.400094766048
  21
 87.168764121755
  31
0.0
   0
LINE
   5
357
 100
AcDbEntity
   8
LEVEL001
 100
AcDbLine
   6
CONTINUOUS
  62
7
  10
 50.900094766048
  20
 89.668764121755
  30
0.0
  11
 50.900094766048
  21
 88.668764121755
  31
0.0
   0
ARC
   5
358
 100
AcDbEntity
   8
LEVEL001
   6
CONTINUOUS
  62
7
 100
AcDbCircle
  10
 52.400094766048
  20
 88.668764121755
  30
0.0
  40
 1.5000000000000
 100
AcDbArc
  50
 180.00000000000
  51
 270.00000000001
   0
POINT
   5
359
 100
AcDbEntity
   8
LEVEL001
 100
AcDbPoint
  62
7
  10
 50.900094766048
  20
 87.168764121755
  30
0.0
   0
LINE
   5
35A
 100
AcDbEntity
   8
LEVEL001
 100
AcDbLine
   6
CONTINUOUS
  62
7
  10
 53.400094766048
  20
 87.168764121755
  30
0.0
  11
 52.400094766048
  21
 87.168764121755
  31
0.0
   0
LINE
   5
35B
 100
AcDbEntity
   8
LEVEL001
 100
AcDbLine
   6
CONTINUOUS
  62
7
  10
 91.900094766048
  20
 89.668764121755
  30
0.0
  11
 91.900094766048
  21
 88.668764121755
  31
0.0
   0
ARC
   5
35C
 100
AcDbEntity
   8
LEVEL001
   6
CONTINUOUS
  62
7
 100
AcDbCircle
  10
 90.400094766049
  20
 88.668764121755
  30
0.0
  40
 1.5000000000000
 100
AcDbArc
  50
 269.99999999998
  51
0.0
   0
POINT
   5
35D
 100
AcDbEntity
   8
LEVEL001
 100
AcDbPoint
  62
7
  10
 91.900094766048
  20
 87.168764121755
  30
0.0
   0
LINE
   5
35E
 100
AcDbEntity
   8
LEVEL001
 100
AcDbLine
   6
CONTINUOUS
  62
7
  10
 89.400094766048
  20
 87.168764121755
  30
0.0
  11
 90.400094766048
  21
 87.168764121755
  31
0.0
   0
LINE
   5
35F
 100
AcDbEntity
   8
LEVEL001
 100
AcDbLine
   6
CONTINUOUS
  62
7
  10
 91.900094766048
  20
 89.668764121755
  30
0.0
  11
 90.400094766048
  21
 89.668764121755
  31
0.0
   0
LINE
   5
360
 100
AcDbEntity
   8
LEVEL001
 100
AcDbLine
   6
CONTINUOUS
  62
7
  10
 90.400094766048
  20
 89.668764121755
  30
0.0
  11
 90.400094766048
  21
 88.668764121755
  31
0.0
   0
LINE
   5
361
 100
AcDbEntity
   8
LEVEL001
 100
AcDbLine
   6
CONTINUOUS
  62
7
  10
 89.400094766048
  20
 88.668764121755
  30
0.0
  11
 90.400094766048
  21
 88.668764121755
  31
0.0
   0
ARC
   5
362
 100
AcDbEntity
   8
LEVEL001
   6
CONTINUOUS
  62
7
 100
AcDbCircle
  10
 91.900094766048
  20
 100.16876412176
  30
0.0
  40
 1.5000000000000
 100
AcDbArc
  50
 90.000000000015
  51
 180.00000000000
   0
LINE
   5
363
 100
AcDbEntity
   8
LEVEL001
 100
AcDbLine
   6
CONTINUOUS
  62
7
  10
 94.400094766048
  20
 100.16876412176
  30
0.0
  11
 91.900094766048
  21
 100.16876412176
  31
0.0
   0
LINE
   5
364
 100
AcDbEntity
   8
LEVEL001
 100
AcDbLine
   6
CONTINUOUS
  62
7
  10
 94.400094766048
  20
 100.16876412176
  30
0.0
  11
 94.400094766048
  21
 101.66876412176
  31
0.0
   0
LINE
   5
365
 100
AcDbEntity
   8
LEVEL001
 100
AcDbLine
   6
CONTINUOUS
  62
7
  10
 48.400094766048
  20
 100.16876412176
  30
0.0
  11
 50.900094766048
  21
 100.16876412176
  31
0.0
   0
LINE
   5
366
 100
AcDbEntity
   8
LEVEL001
 100
AcDbLine
   6
CONTINUOUS
  62
7
  10
 48.400094766048
  20
 100.16876412176
  30
0.0
  11
 48.400094766048
  21
 101.66876412176
  31
0.0
   0
LINE
   5
367
 100
AcDbEntity
   8
LEVEL001
 100
AcDbLine
   6
CONTINUOUS
  62
7
  10
 50.900094766048
  20
 89.668764121755
  30
0.0
  11
 52.400094766048
  21
 89.668764121755
  31
0.0
   0
LINE
   5
368
 100
AcDbEntity
   8
LEVEL001
 100
AcDbLine
   6
CONTINUOUS
  62
7
  10
 52.400094766048
  20
 89.668764121755
  30
0.0
  11
 52.400094766048
  21
 88.668764121755
  31
0.0
   0
LINE
   5
369
 100
AcDbEntity
   8
LEVEL001
 100
AcDbLine
   6
CONTINUOUS
  62
7
  10
 53.400094766048
  20
 88.668764121755
  30
0.0
  11
 52.400094766048
  21
 88.668764121755
  31
0.0
   0
ARC
   5
36A
 100
AcDbEntity
   8
LEVEL001
   6
CONTINUOUS
  62
7
 100
AcDbCircle
  10
 50.900094766048
  20
 100.16876412176
  30
0.0
  40
 1.5000000000000
 100
AcDbArc
  50
0.0
  51
 90.000000000002
   0
DIMENSION
   5
36B
 100
AcDbEntity
   8
LEVEL001
   6
CONTINUOUS
  62
3
 100
AcDbDimension
   2
*D9
  10
 91.900094766048
  20
 73.415924707727
  30
0.0
  11
 71.400094766048
  21
 73.415924707727
  31
0.0
  70
0
   3
GMM001
 100
AcDbAlignedDimension
  13
 50.900094766048
  23
 87.168764121755
  33
0.0
  14
 91.900094766048
  24
 87.168764121755
  34
0.0
 100
AcDbRotatedDimension
   0
DIMENSION
   5
36C
 100
AcDbEntity
   8
LEVEL001
   6
CONTINUOUS
  62
3
 100
AcDbDimension
   2
*D10
  10
 94.400094766048
  20
 64.549759294193
  30
0.0
  11
 71.400094766048
  21
 64.549759294193
  31
0.0
  70
0
   3
GMM001
 100
AcDbAlignedDimension
  13
 48.400094766048
  23
 100.16876412176
  33
0.0
  14
 94.400094766048
  24
 100.16876412176
  34
0.0
 100
AcDbRotatedDimension
   0
DIMENSION
   5
36D
 100
AcDbEntity
   8
LEVEL001
   6
CONTINUOUS
  62
3
 100
AcDbDimension
   2
*D11
  10
 94.400094766048
  20
 64.549759294193
  30
0.0
  11
 105.64859100665
  21
 64.549759294193
  31
0.0
  70
128
   3
GMM002
 100
AcDbAlignedDimension
  13
 98.900094766048
  23
 101.66876412176
  33
0.0
  14
 94.400094766048
  24
 64.549759294193
  34
0.0
  50
 180.00000000000
 100
AcDbRotatedDimension
   0
DIMENSION
   5
36E
 100
AcDbEntity
   8
LEVEL001
   6
CONTINUOUS
  62
3
 100
AcDbDimension
   2
*D12
  10
 48.400094766048
  20
 64.549759294193
  30
0.0
  11
 37.416260179582
  21
 64.549759294193
  31
0.0
  70
128
   3
GMM002
 100
AcDbAlignedDimension
  13
 43.900094766048
  23
 101.66876412176
  33
0.0
  14
 48.400094766048
  24
 64.549759294193
  34
0.0
 100
AcDbRotatedDimension
   0
LINE
   5
36F
 100
AcDbEntity
   8
LEVEL001
 100
AcDbLine
   6
CONTINUOUS
  62
15
  10
 50.300094766048
  20
 98.068764121755
  30
0.0
  11
 50.700094766048
  21
 98.068764121755
  31
0.0
   0
LINE
   5
370
 100
AcDbEntity
   8
LEVEL001
 100
AcDbLine
   6
CONTINUOUS
  62
15
  10
 50.700094766048
  20
 98.818764121755
  30
0.0
  11
 50.900094766048
  21
 98.818764121755
  31
0.0
   0
LINE
   5
371
 100
AcDbEntity
   8
LEVEL001
 100
AcDbLine
   6
CONTINUOUS
  62
15
  10
 50.700094766048
  20
 98.068764121755
  30
0.0
  11
 50.700094766048
  21
 100.16876412176
  31
0.0
   0
LINE
   5
372
 100
AcDbEntity
   8
LEVEL001
 100
AcDbLine
   6
CONTINUOUS
  62
15
  10
 50.300094766048
  20
 100.16876412176
  30
0.0
  11
 50.300094766048
  21
 98.068764121755
  31
0.0
   0
LINE
   5
373
 100
AcDbEntity
   8
LEVEL001
 100
AcDbLine
   6
CONTINUOUS
  62
15
  10
 92.500094766048
  20
 98.068764121755
  30
0.0
  11
 92.100094766048
  21
 98.068764121755
  31
0.0
   0
LINE
   5
374
 100
AcDbEntity
   8
LEVEL001
 100
AcDbLine
   6
CONTINUOUS
  62
15
  10
 92.100094766048
  20
 98.818764121755
  30
0.0
  11
 91.900094766048
  21
 98.818764121755
  31
0.0
   0
LINE
   5
375
 100
AcDbEntity
   8
LEVEL001
 100
AcDbLine
   6
CONTINUOUS
  62
15
  10
 92.100094766048
  20
 98.068764121755
  30
0.0
  11
 92.100094766048
  21
 100.16876412176
  31
0.0
   0
LINE
   5
376
 100
AcDbEntity
   8
LEVEL001
 100
AcDbLine
   6
CONTINUOUS
  62
15
  10
 92.500094766048
  20
 100.16876412176
  30
0.0
  11
 92.500094766048
  21
 98.068764121755
  31
0.0
   0
LINE
   5
377
 100
AcDbEntity
   8
LEVEL001
 100
AcDbLine
   6
CONTINUOUS
  62
15
  10
 93.600094766048
  20
 98.668764121755
  30
0.0
  11
 92.500094766048
  21
 98.668764121755
  31
0.0
   0
LINE
   5
378
 100
AcDbEntity
   8
LEVEL001
 100
AcDbLine
   6
CONTINUOUS
  62
15
  10
 93.900094766048
  20
 98.968764121755
  30
0.0
  11
 93.600094766048
  21
 98.668764121755
  31
0.0
   0
POINT
   5
379
 100
AcDbEntity
   8
LEVEL001
 100
AcDbPoint
  62
15
  10
 93.900094766048
  20
 98.668764121755
  30
0.0
   0
LINE
   5
37A
 100
AcDbEntity
   8
LEVEL001
 100
AcDbLine
   6
CONTINUOUS
  62
15
  10
 93.900094766048
  20
 100.16876412176
  30
0.0
  11
 93.900094766048
  21
 98.968764121755
  31
0.0
   0
LINE
   5
37B
 100
AcDbEntity
   8
LEVEL001
 100
AcDbLine
   6
CONTINUOUS
  62
15
  10
 48.900094766048
  20
 98.968764121755
  30
0.0
  11
 49.200094766048
  21
 98.668764121755
  31
0.0
   0
POINT
   5
37C
 100
AcDbEntity
   8
LEVEL001
 100
AcDbPoint
  62
15
  10
 48.900094766048
  20
 98.668764121755
  30
0.0
   0
LINE
   5
37D
 100
AcDbEntity
   8
LEVEL001
 100
AcDbLine
   6
CONTINUOUS
  62
15
  10
 49.200094766048
  20
 98.668764121755
  30
0.0
  11
 50.300094766048
  21
 98.668764121755
  31
0.0
   0
LINE
   5
37E
 100
AcDbEntity
   8
LEVEL001
 100
AcDbLine
   6
CONTINUOUS
  62
15
  10
 48.900094766048
  20
 100.16876412176
  30
0.0
  11
 48.900094766048
  21
 98.968764121755
  31
0.0
   0
POINT
   5
37F
 100
AcDbEntity
   8
LEVEL001
 100
AcDbPoint
  62
15
  10
 48.900094766048
  20
 101.66876412176
  30
0.0
   0
LINE
   5
380
 100
AcDbEntity
   8
LEVEL001
 100
AcDbLine
   6
DASHDOT
  62
3
  10
 58.900094766048
  20
 89.823419887081
  30
0.0
  11
 58.900094766048
  21
 84.046607485706
  31
0.0
   0
LINE
   5
381
 100
AcDbEntity
   8
LEVEL001
 100
AcDbLine
   6
DASHDOT
  62
3
  10
 83.900094766048
  20
 89.823419887081
  30
0.0
  11
 83.900094766048
  21
 84.046607485706
  31
0.0
   0
DIMENSION
   5
382
 100
AcDbEntity
   8
LEVEL001
   6
CONTINUOUS
  62
3
 100
AcDbDimension
   2
*D13
  10
 98.900094766048
  20
 116.58045656334
  30
0.0
  11
 71.400094766048
  21
 116.58045656334
  31
0.0
  70
0
   3
GMM001
 100
AcDbAlignedDimension
  13
 43.900094766048
  23
 103.16876412176
  33
0.0
  14
 98.900094766048
  24
 103.16876412176
  34
0.0
 100
AcDbRotatedDimension
   0
LINE
   5
383
 100
AcDbEntity
   8
LEVEL001
 100
AcDbLine
   6
DIVIDE
  62
3
  10
 128.19560727139
  20
 209.02987000866
  30
0.0
  11
 185.79126550258
  21
 209.02987000866
  31
0.0
   0
LINE
   5
384
 100
AcDbEntity
   8
LEVEL001
 100
AcDbLine
   6
DIVIDE
  62
3
  10
 128.19560727138
  20
 207.52987000866
  30
0.0
  11
 185.79126550258
  21
 207.52987000866
  31
0.0
   0
LINE
   5
385
 100
AcDbEntity
   8
LEVEL001
 100
AcDbLine
   6
DIVIDE
  62
3
  10
 127.08866767858
  20
 206.51760288096
  30
0.0
  11
 137.58307409198
  21
 195.04170522016
  31
0.0
   0
LINE
   5
386
 100
AcDbEntity
   8
LEVEL001
 100
AcDbLine
   6
DIVIDE
  62
3
  10
 128.19560727138
  20
 207.52987000866
  30
0.0
  11
 138.69001368488
  21
 196.05397234786
  31
0.0
   0
LINE
   5
387
 100
AcDbEntity
   8
LEVEL001
 100
AcDbLine
   6
DIVIDE
  62
3
  10
 130.22014152678
  20
 205.31599082286
  30
0.0
  11
 129.11320193388
  21
 204.30372369526
  31
0.0
   0
LINE
   5
388
 100
AcDbEntity
   8
LEVEL001
 100
AcDbLine
   6
DIVIDE
  62
3
  10
 149.16072322941
  20
 207.52987000863
  30
0.0
  11
 138.69001368488
  21
 196.05397234786
  31
0.0
   0
LINE
   5
389
 100
AcDbEntity
   8
LEVEL001
 100
AcDbLine
   6
DIVIDE
  62
3
  10
 150.26880161296
  20
 206.51884958558
  30
0.0
  11
 139.79809206848
  21
 195.04295192486
  31
0.0
   0
LINE
   5
38A
 100
AcDbEntity
   8
LEVEL001
 100
AcDbLine
   6
DIVIDE
  62
3
  10
 149.16072322931
  20
 207.52987000874
  30
0.0
  11
 150.26880161298
  21
 206.51884958556
  31
0.0
   0
ARC
   5
38B
 100
AcDbEntity
   8
LEVEL001
   6
DIVIDE
  62
3
 100
AcDbCircle
  10
 138.69001368488
  20
 196.05397234786
  30
0.0
  40
 1.5000000000000
 100
AcDbArc
  50
 222.44209544980
  51
 317.62240146054
   0
LINE
   5
38C
 100
AcDbEntity
   8
LEVEL001
 100
AcDbLine
   6
DIVIDE
  62
3
  10
 142.19680774897
  20
 193.57439362782
  30
0.0
  11
 145.96277886503
  21
 189.64519070223
  31
0.0
   0
LINE
   5
38D
 100
AcDbEntity
   8
LEVEL001
 100
AcDbLine
   6
DIVIDE
  62
3
  10
 142.19680774897
  20
 193.57439362782
  30
0.0
  11
 141.63997184748
  21
 187.61611802053
  31
0.0
   0
ARC
   5
38E
 100
AcDbEntity
   8
LEVEL001
   6
DIVIDE
  62
3
 100
AcDbCircle
  10
 177.79126550258
  20
 208.52987000866
  30
0.0
  40
 38.608699752148
 100
AcDbArc
  50
 202.79034712289
  51
 254.11100114448
   0
ARC
   5
38F
 100
AcDbEntity
   8
LEVEL001
   6
DIVIDE
  62
3
 100
AcDbCircle
  10
 128.19560727138
  20
 207.52987000866
  30
0.0
  40
 1.5000000000000
 100
AcDbArc
  50
 89.999999999940
  51
 222.44209544989
   0
LINE
   5
390
 100
AcDbEntity
   8
LEVEL001
 100
AcDbLine
   6
CONTINUOUS
  62
7
  10
 174.79126550258
  20
 219.02987000866
  30
0.0
  11
 173.29126550258
  21
 219.02987000866
  31
0.0
   0
LINE
   5
391
 100
AcDbEntity
   8
LEVEL001
 100
AcDbLine
   6
CONTINUOUS
  62
7
  10
 174.79126550258
  20
 156.02987000866
  30
0.0
  11
 173.29126550258
  21
 156.02987000866
  31
0.0
   0
LINE
   5
392
 100
AcDbEntity
   8
LEVEL001
 100
AcDbLine
   6
CONTINUOUS
  62
7
  10
 186.29126550258
  20
 157.02987000866
  30
0.0
  11
 185.29126550258
  21
 157.02987000866
  31
0.0
   0
LINE
   5
393
 100
AcDbEntity
   8
LEVEL001
 100
AcDbLine
   6
CONTINUOUS
  62
7
  10
 185.29126550258
  20
 157.02987000866
  30
0.0
  11
 185.29126550258
  21
 156.02987000866
  31
0.0
   0
LINE
   5
394
 100
AcDbEntity
   8
LEVEL001
 100
AcDbLine
   6
CONTINUOUS
  62
7
  10
 185.29126550258
  20
 219.02987000866
  30
0.0
  11
 185.29126550258
  21
 218.02987000866
  31
0.0
   0
LINE
   5
395
 100
AcDbEntity
   8
LEVEL001
 100
AcDbLine
   6
CONTINUOUS
  62
7
  10
 185.29126550258
  20
 218.02987000866
  30
0.0
  11
 186.29126550258
  21
 218.02987000866
  31
0.0
   0
LINE
   5
396
 100
AcDbEntity
   8
LEVEL001
 100
AcDbLine
   6
CONTINUOUS
  62
7
  10
 174.79126550258
  20
 219.02987000866
  30
0.0
  11
 185.29126550258
  21
 219.02987000866
  31
0.0
   0
LINE
   5
397
 100
AcDbEntity
   8
LEVEL001
 100
AcDbLine
   6
CONTINUOUS
  62
7
  10
 174.79126550258
  20
 156.02987000866
  30
0.0
  11
 185.29126550258
  21
 156.02987000866
  31
0.0
   0
LINE
   5
398
 100
AcDbEntity
   8
LEVEL001
 100
AcDbLine
   6
CONTINUOUS
  62
7
  10
 187.79126550258
  20
 218.02987000866
  30
0.0
  11
 187.79126550258
  21
 157.02987000866
  31
0.0
   0
LINE
   5
399
 100
AcDbEntity
   8
LEVEL001
 100
AcDbLine
   6
CONTINUOUS
  62
7
  10
 187.79126550258
  20
 157.02987000866
  30
0.0
  11
 186.29126550258
  21
 157.02987000866
  31
0.0
   0
LINE
   5
39A
 100
AcDbEntity
   8
LEVEL001
 100
AcDbLine
   6
CONTINUOUS
  62
7
  10
 186.29126550258
  20
 218.02987000866
  30
0.0
  11
 187.79126550258
  21
 218.02987000866
  31
0.0
   0
LINE
   5
39B
 100
AcDbEntity
   8
LEVEL001
 100
AcDbLine
   6
CONTINUOUS
  62
7
  10
 174.79126550258
  20
 220.52987000866
  30
0.0
  11
 185.29126550258
  21
 220.52987000866
  31
0.0
   0
LINE
   5
39C
 100
AcDbEntity
   8
LEVEL001
 100
AcDbLine
   6
CONTINUOUS
  62
7
  10
 174.79126550258
  20
 154.52987000866
  30
0.0
  11
 185.29126550258
  21
 154.52987000866
  31
0.0
   0
LINE
   5
39D
 100
AcDbEntity
   8
LEVEL001
 100
AcDbLine
   6
CONTINUOUS
  62
7
  10
 171.79126550258
  20
 227.52987000866
  30
0.0
  11
 173.29126550258
  21
 227.52987000866
  31
0.0
   0
LINE
   5
39E
 100
AcDbEntity
   8
LEVEL001
 100
AcDbLine
   6
CONTINUOUS
  62
7
  10
 173.29126550258
  20
 147.52987000866
  30
0.0
  11
 171.79126550258
  21
 147.52987000866
  31
0.0
   0
LINE
   5
39F
 100
AcDbEntity
   8
LEVEL001
 100
AcDbLine
   6
CONTINUOUS
  62
7
  10
 171.79126550258
  20
 147.52987000866
  30
0.0
  11
 171.79126550258
  21
 227.52987000866
  31
0.0
   0
LINE
   5
3A0
 100
AcDbEntity
   8
LEVEL001
 100
AcDbLine
   6
CONTINUOUS
  62
7
  10
 173.29126550258
  20
 147.52987000866
  30
0.0
  11
 173.29126550258
  21
 227.52987000866
  31
0.0
   0
LINE
   5
3A1
 100
AcDbEntity
   8
LEVEL001
 100
AcDbLine
   6
CONTINUOUS
  62
7
  10
 185.29126550258
  20
 154.52987000866
  30
0.0
  11
 186.29126550258
  21
 154.52987000866
  31
0.0
   0
ARC
   5
3A2
 100
AcDbEntity
   8
LEVEL001
   6
CONTINUOUS
  62
7
 100
AcDbCircle
  10
 186.29126550258
  20
 156.02987000866
  30
0.0
  40
 1.5000000000000
 100
AcDbArc
  50
 270.00000000000
  51
0.0
   0
POINT
   5
3A3
 100
AcDbEntity
   8
LEVEL001
 100
AcDbPoint
  62
7
  10
 187.79126550258
  20
 154.52987000866
  30
0.0
   0
LINE
   5
3A4
 100
AcDbEntity
   8
LEVEL001
 100
AcDbLine
   6
CONTINUOUS
  62
7
  10
 187.79126550258
  20
 156.02987000866
  30
0.0
  11
 187.79126550258
  21
 157.02987000866
  31
0.0
   0
DIMENSION
   5
3A5
 100
AcDbEntity
   8
LEVEL001
   6
CONTINUOUS
  62
3
 100
AcDbDimension
   2
*D14
  10
 187.79126550258
  20
 134.69572121282
  30
0.0
  11
 180.54126550258
  21
 134.69572121282
  31
0.0
  70
0
   3
GMM001
 100
AcDbAlignedDimension
  13
 173.29126550258
  23
 134.69572121282
  33
0.0
  14
 187.79126550258
  24
 154.52987000866
  34
0.0
 100
AcDbRotatedDimension
   0
DIMENSION
   5
3A6
 100
AcDbEntity
   8
LEVEL001
   6
CONTINUOUS
  62
3
 100
AcDbDimension
   2
*D15
  10
 171.79126550258
  20
 126.01925751871
  30
0.0
  11
 179.79126550258
  21
 126.01925751871
  31
0.0
  70
0
   3
GMM001
 100
AcDbAlignedDimension
  13
 187.79126550258
  23
 133.69572121282
  33
0.0
  14
 171.79126550258
  24
 133.69572121282
  34
0.0
  50
 180.00000000000
 100
AcDbRotatedDimension
   0
DIMENSION
   5
3A7
 100
AcDbEntity
   8
LEVEL001
   6
CONTINUOUS
  62
3
 100
AcDbDimension
   2
*D16
  10
 173.29126550258
  20
 134.69572121282
  30
0.0
  11
 164.73374670559
  21
 134.69572121282
  31
0.0
  70
128
   3
GMM003
 100
AcDbAlignedDimension
  13
 171.79126550258
  23
 147.52987000866
  33
0.0
  14
 173.29126550258
  24
 147.52987000866
  34
0.0
 100
AcDbRotatedDimension
   0
LINE
   5
3A8
 100
AcDbEntity
   8
LEVEL001
 100
AcDbLine
   6
DASHDOT
  62
3
  10
 191.49839758378
  20
 212.52987000866
  30
0.0
  11
 183.72245664059
  21
 212.52987000866
  31
0.0
   0
LINE
   5
3A9
 100
AcDbEntity
   8
LEVEL001
 100
AcDbLine
   6
DASHDOT
  62
3
  10
 191.49839758378
  20
 162.52987000866
  30
0.0
  11
 183.58982066941
  21
 162.52987000866
  31
0.0
   0
LINE
   5
3AA
 100
AcDbEntity
   8
LEVEL001
 100
AcDbLine
   6
DASHDOT
  62
3
  10
 182.83336749084
  20
 184.52987000866
  30
0.0
  11
 191.88837591050
  21
 184.52987000866
  31
0.0
   0
CIRCLE
   5
3AB
 100
AcDbEntity
   8
LEVEL001
 100
AcDbCircle
   6
CONTINUOUS
  62
7
  10
 174.79126550258
  20
 206.02987000866
  30
0.0
  40
 1.5000000000000
   0
LINE
   5
3AC
 100
AcDbEntity
   8
LEVEL001
 100
AcDbLine
   6
CONTINUOUS
  62
7
  10
 174.79126550258
  20
 207.62987000866
  30
0.0
  11
 173.29126550258
  21
 207.62987000866
  31
0.0
   0
LINE
   5
3AD
 100
AcDbEntity
   8
LEVEL001
 100
AcDbLine
   6
CONTINUOUS
  62
7
  10
 174.79126550258
  20
 204.42987000866
  30
0.0
  11
 173.29126550258
  21
 204.42987000866
  31
0.0
   0
ARC
   5
3AE
 100
AcDbEntity
   8
LEVEL001
   6
CONTINUOUS
  62
7
 100
AcDbCircle
  10
 174.79126550258
  20
 206.02987000866
  30
0.0
  40
 1.6000000000000
 100
AcDbArc
  50
 270.00000000000
  51
 90.000000000000
   0
LINE
   5
3AF
 100
AcDbEntity
   8
LEVEL001
 100
AcDbLine
   6
DIVIDE
  62
3
  10
 185.79126550258
  20
 209.02987000866
  30
0.0
  11
 185.79126550258
  21
 207.52987000866
  31
0.0
   0
LINE
   5
3B0
 100
AcDbEntity
   8
LEVEL001
 100
AcDbLine
   6
CONTINUOUS
  62
7
  10
 174.79126550258
  20
 223.02987000866
  30
0.0
  11
 173.29126550258
  21
 223.02987000866
  31
0.0
   0
LINE
   5
3B1
 100
AcDbEntity
   8
LEVEL001
 100
AcDbLine
   6
CONTINUOUS
  62
7
  10
 174.79126550258
  20
 220.52987000866
  30
0.0
  11
 174.79126550258
  21
 223.02987000866
  31
0.0
   0
ARC
   5
3B2
 100
AcDbEntity
   8
LEVEL001
   6
CONTINUOUS
  62
7
 100
AcDbCircle
  10
 174.79126550258
  20
 220.52987000866
  30
0.0
  40
 1.5000000000000
 100
AcDbArc
  50
 180.00000000000
  51
 270.00000000001
   0
LINE
   5
3B3
 100
AcDbEntity
   8
LEVEL001
 100
AcDbLine
   6
CONTINUOUS
  62
7
  10
 186.29126550258
  20
 219.02987000866
  30
0.0
  11
 185.29126550258
  21
 219.02987000866
  31
0.0
   0
LINE
   5
3B4
 100
AcDbEntity
   8
LEVEL001
 100
AcDbLine
   6
CONTINUOUS
  62
7
  10
 185.29126550258
  20
 219.02987000866
  30
0.0
  11
 185.29126550258
  21
 220.52987000866
  31
0.0
   0
LINE
   5
3B5
 100
AcDbEntity
   8
LEVEL001
 100
AcDbLine
   6
CONTINUOUS
  62
7
  10
 186.29126550258
  20
 219.02987000866
  30
0.0
  11
 186.29126550258
  21
 218.02987000866
  31
0.0
   0
LINE
   5
3B6
 100
AcDbEntity
   8
LEVEL001
 100
AcDbLine
   6
CONTINUOUS
  62
7
  10
 174.79126550258
  20
 152.02987000866
  30
0.0
  11
 174.79126550258
  21
 154.52987000866
  31
0.0
   0
LINE
   5
3B7
 100
AcDbEntity
   8
LEVEL001
 100
AcDbLine
   6
CONTINUOUS
  62
7
  10
 174.79126550258
  20
 152.02987000866
  30
0.0
  11
 173.29126550258
  21
 152.02987000866
  31
0.0
   0
LINE
   5
3B8
 100
AcDbEntity
   8
LEVEL001
 100
AcDbLine
   6
CONTINUOUS
  62
7
  10
 186.29126550258
  20
 220.52987000866
  30
0.0
  11
 185.29126550258
  21
 220.52987000866
  31
0.0
   0
ARC
   5
3B9
 100
AcDbEntity
   8
LEVEL001
   6
CONTINUOUS
  62
7
 100
AcDbCircle
  10
 186.29126550258
  20
 219.02987000866
  30
0.0
  40
 1.5000000000000
 100
AcDbArc
  50
0.0
  51
 90.000000000000
   0
POINT
   5
3BA
 100
AcDbEntity
   8
LEVEL001
 100
AcDbPoint
  62
7
  10
 187.79126550258
  20
 220.52987000866
  30
0.0
   0
LINE
   5
3BB
 100
AcDbEntity
   8
LEVEL001
 100
AcDbLine
   6
CONTINUOUS
  62
7
  10
 187.79126550258
  20
 218.02987000866
  30
0.0
  11
 187.79126550258
  21
 219.02987000866
  31
0.0
   0
LINE
   5
3BC
 100
AcDbEntity
   8
LEVEL001
 100
AcDbLine
   6
CONTINUOUS
  62
7
  10
 281.58472127041
  20
 218.02987000866
  30
0.0
  11
 283.08472127041
  21
 218.02987000866
  31
0.0
   0
LINE
   5
3BD
 100
AcDbEntity
   8
LEVEL001
 100
AcDbLine
   6
CONTINUOUS
  62
7
  10
 283.08472127041
  20
 218.02987000866
  30
0.0
  11
 283.08472127041
  21
 157.02987000866
  31
0.0
   0
LINE
   5
3BE
 100
AcDbEntity
   8
LEVEL001
 100
AcDbLine
   6
CONTINUOUS
  62
7
  10
 283.08472127041
  20
 157.02987000866
  30
0.0
  11
 281.58472127041
  21
 157.02987000866
  31
0.0
   0
CIRCLE
   5
3BF
 100
AcDbEntity
   8
LEVEL001
 100
AcDbCircle
   6
CONTINUOUS
  62
7
  10
 250.08472127041
  20
 162.52987000866
  30
0.0
  40
 2.2500000000000
   0
CIRCLE
   5
3C0
 100
AcDbEntity
   8
LEVEL001
 100
AcDbCircle
   6
CONTINUOUS
  62
7
  10
 275.08472127041
  20
 212.52987000866
  30
0.0
  40
 2.2500000000000
   0
CIRCLE
   5
3C1
 100
AcDbEntity
   8
LEVEL001
 100
AcDbCircle
   6
CONTINUOUS
  62
7
  10
 250.08472127041
  20
 212.52987000866
  30
0.0
  40
 2.2500000000000
   0
LINE
   5
3C2
 100
AcDbEntity
   8
LEVEL001
 100
AcDbLine
   6
CONTINUOUS
  62
7
  10
 244.58472127041
  20
 156.02987000866
  30
0.0
  11
 244.58472127041
  21
 157.02987000866
  31
0.0
   0
LINE
   5
3C3
 100
AcDbEntity
   8
LEVEL001
 100
AcDbLine
   6
CONTINUOUS
  62
7
  10
 244.58472127041
  20
 157.02987000866
  30
0.0
  11
 243.58472127041
  21
 157.02987000866
  31
0.0
   0
LINE
   5
3C4
 100
AcDbEntity
   8
LEVEL001
 100
AcDbLine
   6
CONTINUOUS
  62
7
  10
 244.58472127041
  20
 218.02987000866
  30
0.0
  11
 243.58472127041
  21
 218.02987000866
  31
0.0
   0
LINE
   5
3C5
 100
AcDbEntity
   8
LEVEL001
 100
AcDbLine
   6
CONTINUOUS
  62
7
  10
 244.58472127041
  20
 218.02987000866
  30
0.0
  11
 244.58472127041
  21
 219.02987000866
  31
0.0
   0
LINE
   5
3C6
 100
AcDbEntity
   8
LEVEL001
 100
AcDbLine
   6
CONTINUOUS
  62
7
  10
 280.58472127041
  20
 157.02987000866
  30
0.0
  11
 280.58472127041
  21
 156.02987000866
  31
0.0
   0
CIRCLE
   5
3C7
 100
AcDbEntity
   8
LEVEL001
 100
AcDbCircle
   6
CONTINUOUS
  62
7
  10
 275.08472127041
  20
 162.52987000866
  30
0.0
  40
 2.2500000000000
   0
LINE
   5
3C8
 100
AcDbEntity
   8
LEVEL001
 100
AcDbLine
   6
CONTINUOUS
  62
7
  10
 280.58472127041
  20
 218.02987000866
  30
0.0
  11
 281.58472127041
  21
 218.02987000866
  31
0.0
   0
LINE
   5
3C9
 100
AcDbEntity
   8
LEVEL001
 100
AcDbLine
   6
CONTINUOUS
  62
7
  10
 280.58472127041
  20
 157.02987000866
  30
0.0
  11
 281.58472127041
  21
 157.02987000866
  31
0.0
   0
LINE
   5
3CA
 100
AcDbEntity
   8
LEVEL001
 100
AcDbLine
   6
CONTINUOUS
  62
7
  10
 244.58472127041
  20
 219.02987000866
  30
0.0
  11
 244.58472127041
  21
 220.52987000866
  31
0.0
   0
LINE
   5
3CB
 100
AcDbEntity
   8
LEVEL001
 100
AcDbLine
   6
CONTINUOUS
  62
7
  10
 244.58472127041
  20
 220.52987000866
  30
0.0
  11
 280.58472127041
  21
 220.52987000866
  31
0.0
   0
LINE
   5
3CC
 100
AcDbEntity
   8
LEVEL001
 100
AcDbLine
   6
CONTINUOUS
  62
7
  10
 244.58472127041
  20
 156.02987000866
  30
0.0
  11
 244.58472127041
  21
 154.52987000866
  31
0.0
   0
LINE
   5
3CD
 100
AcDbEntity
   8
LEVEL001
 100
AcDbLine
   6
CONTINUOUS
  62
7
  10
 280.58472127041
  20
 154.52987000866
  30
0.0
  11
 280.58472127041
  21
 156.02987000866
  31
0.0
   0
LINE
   5
3CE
 100
AcDbEntity
   8
LEVEL001
 100
AcDbLine
   6
CONTINUOUS
  62
7
  10
 280.58472127041
  20
 154.52987000866
  30
0.0
  11
 244.58472127041
  21
 154.52987000866
  31
0.0
   0
LINE
   5
3CF
 100
AcDbEntity
   8
LEVEL001
 100
AcDbLine
   6
CONTINUOUS
  62
7
  10
 243.58472127041
  20
 157.02987000866
  30
0.0
  11
 242.08472127041
  21
 157.02987000866
  31
0.0
   0
LINE
   5
3D0
 100
AcDbEntity
   8
LEVEL001
 100
AcDbLine
   6
CONTINUOUS
  62
7
  10
 242.08472127041
  20
 157.02987000866
  30
0.0
  11
 242.08472127041
  21
 218.02987000866
  31
0.0
   0
LINE
   5
3D1
 100
AcDbEntity
   8
LEVEL001
 100
AcDbLine
   6
CONTINUOUS
  62
7
  10
 242.08472127041
  20
 218.02987000866
  30
0.0
  11
 243.58472127041
  21
 218.02987000866
  31
0.0
   0
LINE
   5
3D2
 100
AcDbEntity
   8
LEVEL001
 100
AcDbLine
   6
CONTINUOUS
  62
7
  10
 283.08472127041
  20
 218.02987000866
  30
0.0
  11
 283.08472127041
  21
 219.02987000866
  31
0.0
   0
LINE
   5
3D3
 100
AcDbEntity
   8
LEVEL001
 100
AcDbLine
   6
CONTINUOUS
  62
7
  10
 283.08472127041
  20
 156.02987000866
  30
0.0
  11
 283.08472127041
  21
 157.02987000866
  31
0.0
   0
LINE
   5
3D4
 100
AcDbEntity
   8
LEVEL001
 100
AcDbLine
   6
CONTINUOUS
  62
7
  10
 280.58472127041
  20
 154.52987000866
  30
0.0
  11
 281.58472127041
  21
 154.52987000866
  31
0.0
   0
LINE
   5
3D5
 100
AcDbEntity
   8
LEVEL001
 100
AcDbLine
   6
CONTINUOUS
  62
7
  10
 280.58472127041
  20
 220.52987000866
  30
0.0
  11
 281.58472127041
  21
 220.52987000866
  31
0.0
   0
LINE
   5
3D6
 100
AcDbEntity
   8
LEVEL001
 100
AcDbLine
   6
CONTINUOUS
  62
7
  10
 242.08472127041
  20
 219.02987000866
  30
0.0
  11
 242.08472127041
  21
 218.02987000866
  31
0.0
   0
LINE
   5
3D7
 100
AcDbEntity
   8
LEVEL001
 100
AcDbLine
   6
CONTINUOUS
  62
7
  10
 244.58472127041
  20
 154.52987000866
  30
0.0
  11
 243.58472127041
  21
 154.52987000866
  31
0.0
   0
LINE
   5
3D8
 100
AcDbEntity
   8
LEVEL001
 100
AcDbLine
   6
CONTINUOUS
  62
7
  10
 242.08472127041
  20
 157.02987000866
  30
0.0
  11
 242.08472127041
  21
 156.02987000866
  31
0.0
   0
LINE
   5
3D9
 100
AcDbEntity
   8
LEVEL001
 100
AcDbLine
   6
CONTINUOUS
  62
7
  10
 244.58472127041
  20
 220.52987000866
  30
0.0
  11
 243.58472127041
  21
 220.52987000866
  31
0.0
   0
ARC
   5
3DA
 100
AcDbEntity
   8
LEVEL001
   6
CONTINUOUS
  62
15
 100
AcDbCircle
  10
 289.88472127041
  20
 227.32987000865
  30
0.0
  40
 0.20000000000000
 100
AcDbArc
  50
 0.36314301131070E-8
  51
 90.000000000000
   0
POINT
   5
3DB
 100
AcDbEntity
   8
LEVEL001
 100
AcDbPoint
  62
15
  10
 290.08472127041
  20
 227.52987000866
  30
0.0
   0
LINE
   5
3DC
 100
AcDbEntity
   8
LEVEL001
 100
AcDbLine
   6
CONTINUOUS
  62
15
  10
 235.28472127041
  20
 227.52987000866
  30
0.0
  11
 289.88472127041
  21
 227.52987000866
  31
0.0
   0
ARC
   5
3DD
 100
AcDbEntity
   8
LEVEL001
   6
CONTINUOUS
  62
15
 100
AcDbCircle
  10
 235.28472127041
  20
 227.32987000868
  30
0.0
  40
 0.20000000000000
 100
AcDbArc
  50
 89.999999999984
  51
 180.00000000542
   0
POINT
   5
3DE
 100
AcDbEntity
   8
LEVEL001
 100
AcDbPoint
  62
15
  10
 235.08472127041
  20
 227.52987000866
  30
0.0
   0
ARC
   5
3DF
 100
AcDbEntity
   8
LEVEL001
   6
CONTINUOUS
  62
15
 100
AcDbCircle
  10
 289.88472127041
  20
 147.72987000868
  30
0.0
  40
 0.20000000000000
 100
AcDbArc
  50
 270.00000000000
  51
0.0
   0
POINT
   5
3E0
 100
AcDbEntity
   8
LEVEL001
 100
AcDbPoint
  62
15
  10
 290.08472127041
  20
 147.52987000866
  30
0.0
   0
LINE
   5
3E1
 100
AcDbEntity
   8
LEVEL001
 100
AcDbLine
   6
CONTINUOUS
  62
15
  10
 290.08472127041
  20
 227.32987000866
  30
0.0
  11
 290.08472127041
  21
 147.72987000866
  31
0.0
   0
LINE
   5
3E2
 100
AcDbEntity
   8
LEVEL001
 100
AcDbLine
   6
CONTINUOUS
  62
15
  10
 235.08472127041
  20
 147.72987000866
  30
0.0
  11
 235.08472127041
  21
 227.32987000866
  31
0.0
   0
ARC
   5
3E3
 100
AcDbEntity
   8
LEVEL001
   6
CONTINUOUS
  62
15
 100
AcDbCircle
  10
 235.28472127043
  20
 147.72987000866
  30
0.0
  40
 0.20000000000000
 100
AcDbArc
  50
 180.00000000001
  51
 269.99999999604
   0
POINT
   5
3E4
 100
AcDbEntity
   8
LEVEL001
 100
AcDbPoint
  62
15
  10
 235.08472127041
  20
 147.52987000866
  30
0.0
   0
LINE
   5
3E5
 100
AcDbEntity
   8
LEVEL001
 100
AcDbLine
   6
CONTINUOUS
  62
15
  10
 289.88472127041
  20
 147.52987000866
  30
0.0
  11
 235.28472127041
  21
 147.52987000866
  31
0.0
   0
LINE
   5
3E6
 100
AcDbEntity
   8
LEVEL001
 100
AcDbLine
   6
DASHDOT
  62
3
  10
 262.58472127041
  20
 234.56139324334
  30
0.0
  11
 262.58472127041
  21
 141.49919034611
  31
0.0
   0
LINE
   5
3E7
 100
AcDbEntity
   8
LEVEL001
 100
AcDbLine
   6
DASHDOT
  62
3
  10
 250.08472127041
  20
 167.54392076916
  30
0.0
  11
 250.08472127041
  21
 157.51581924816
  31
0.0
   0
LINE
   5
3E8
 100
AcDbEntity
   8
LEVEL001
 100
AcDbLine
   6
DASHDOT
  62
3
  10
 255.07886999170
  20
 162.52987000866
  30
0.0
  11
 245.09057254913
  21
 162.52987000866
  31
0.0
   0
LINE
   5
3E9
 100
AcDbEntity
   8
LEVEL001
 100
AcDbLine
   6
DASHDOT
  62
3
  10
 250.08472127041
  20
 216.86993851624
  30
0.0
  11
 250.08472127041
  21
 208.18980150108
  31
0.0
   0
LINE
   5
3EA
 100
AcDbEntity
   8
LEVEL001
 100
AcDbLine
   6
DASHDOT
  62
3
  10
 254.94623402053
  20
 212.52987000866
  30
0.0
  11
 245.22320852030
  21
 212.52987000866
  31
0.0
   0
LINE
   5
3EB
 100
AcDbEntity
   8
LEVEL001
 100
AcDbLine
   6
DASHDOT
  62
3
  10
 270.22320852030
  20
 212.52987000866
  30
0.0
  11
 279.94623402053
  21
 212.52987000866
  31
0.0
   0
LINE
   5
3EC
 100
AcDbEntity
   8
LEVEL001
 100
AcDbLine
   6
DASHDOT
  62
3
  10
 275.08472127041
  20
 216.86993851624
  30
0.0
  11
 275.08472127041
  21
 208.18980150108
  31
0.0
   0
LINE
   5
3ED
 100
AcDbEntity
   8
LEVEL001
 100
AcDbLine
   6
DASHDOT
  62
3
  10
 275.08472127041
  20
 167.54392076916
  30
0.0
  11
 275.08472127041
  21
 157.51581924816
  31
0.0
   0
LINE
   5
3EE
 100
AcDbEntity
   8
LEVEL001
 100
AcDbLine
   6
DASHDOT
  62
3
  10
 270.09057254913
  20
 162.52987000866
  30
0.0
  11
 280.07886999170
  21
 162.52987000866
  31
0.0
   0
DIMENSION
   5
3EF
 100
AcDbEntity
   8
LEVEL001
   6
CONTINUOUS
  62
3
 100
AcDbDimension
   2
*D17
  10
 224.43526168262
  20
 227.52987000866
  30
0.0
  11
 224.43526168262
  21
 220.02987000866
  31
0.0
  70
0
   3
GMM001
 100
AcDbAlignedDimension
  13
 245.22320852030
  23
 212.52987000866
  33
0.0
  14
 235.08472127041
  24
 227.52987000866
  34
0.0
  50
 90.000000000000
 100
AcDbRotatedDimension
   0
DIMENSION
   5
3F0
 100
AcDbEntity
   8
LEVEL001
   6
CONTINUOUS
  62
3
 100
AcDbDimension
   2
*D18
  10
 290.08472127041
  20
 238.05648145016
  30
0.0
  11
 282.58472127041
  21
 238.05648145016
  31
0.0
  70
0
   3
GMM001
 100
AcDbAlignedDimension
  13
 275.08472127041
  23
 238.05648145016
  33
0.0
  14
 290.08472127041
  24
 227.52987000866
  34
0.0
 100
AcDbRotatedDimension
   0
DIMENSION
   5
3F1
 100
AcDbEntity
   8
LEVEL001
   6
CONTINUOUS
  62
3
 100
AcDbDimension
   2
*D19
  10
 235.08472127041
  20
 238.05648145016
  30
0.0
  11
 242.58472127041
  21
 238.05648145016
  31
0.0
  70
0
   3
GMM001
 100
AcDbAlignedDimension
  13
 250.08472127041
  23
 238.05648145016
  33
0.0
  14
 235.08472127041
  24
 227.52987000866
  34
0.0
  50
 180.00000000000
 100
AcDbRotatedDimension
   0
DIMENSION
   5
3F2
 100
AcDbEntity
   8
LEVEL001
   6
CONTINUOUS
  62
3
 100
AcDbDimension
   2
*D20
  10
 275.08472127041
  20
 238.05648145016
  30
0.0
  11
 262.58472127041
  21
 238.05648145016
  31
0.0
  70
0
   3
GMM001
 100
AcDbAlignedDimension
  13
 250.08472127041
  23
 216.86993851624
  33
0.0
  14
 275.08472127041
  24
 216.86993851624
  34
0.0
 100
AcDbRotatedDimension
   0
DIMENSION
   5
3F3
 100
AcDbEntity
   8
LEVEL001
   6
CONTINUOUS
  62
3
 100
AcDbDimension
   2
*D21
  10
 224.43526168262
  20
 162.52987000866
  30
0.0
  11
 224.43526168262
  21
 187.52987000866
  31
0.0
  70
0
   3
GMM001
 100
AcDbAlignedDimension
  13
 245.22320852030
  23
 212.52987000866
  33
0.0
  14
 245.09057254913
  24
 162.52987000866
  34
0.0
  50
 270.00000000000
 100
AcDbRotatedDimension
   0
DIMENSION
   5
3F4
 100
AcDbEntity
   8
LEVEL001
   6
CONTINUOUS
  62
3
 100
AcDbDimension
   2
*D22
  10
 224.43526168262
  20
 147.52987000866
  30
0.0
  11
 224.43526168262
  21
 155.02987000866
  31
0.0
  70
0
   3
GMM001
 100
AcDbAlignedDimension
  13
 224.43526168262
  23
 162.52987000866
  33
0.0
  14
 235.08472127041
  24
 147.52987000866
  34
0.0
  50
 270.00000000000
 100
AcDbRotatedDimension
   0
LINE
   5
3F5
 100
AcDbEntity
   8
LEVEL001
 100
AcDbLine
   6
DASHDOT
  62
3
  10
 251.20869473212
  20
 184.52987000866
  30
0.0
  11
 274.14603809052
  21
 184.52987000866
  31
0.0
   0
LINE
   5
3F6
 100
AcDbEntity
   8
LEVEL001
 100
AcDbLine
   6
DASHDOT
  62
3
  10
 254.56107568450
  20
 165.52987000866
  30
0.0
  11
 270.44077493262
  21
 165.52987000866
  31
0.0
   0
LINE
   5
3F7
 100
AcDbEntity
   8
LEVEL001
 100
AcDbLine
   6
DASHDOT
  62
3
  10
 237.90600780914
  20
 206.02987000866
  30
0.0
  11
 288.17626146018
  21
 206.02987000866
  31
0.0
   0
LINE
   5
3F8
 100
AcDbEntity
   8
LEVEL001
 100
AcDbLine
   6
CONTINUOUS
  62
7
  10
 242.08472127041
  20
 219.02987000866
  30
0.0
  11
 243.58472127041
  21
 219.02987000866
  31
0.0
   0
LINE
   5
3F9
 100
AcDbEntity
   8
LEVEL001
 100
AcDbLine
   6
CONTINUOUS
  62
7
  10
 243.58472127041
  20
 219.02987000866
  30
0.0
  11
 243.58472127041
  21
 218.02987000866
  31
0.0
   0
LINE
   5
3FA
 100
AcDbEntity
   8
LEVEL001
 100
AcDbLine
   6
CONTINUOUS
  62
7
  10
 243.58472127041
  20
 219.02987000866
  30
0.0
  11
 243.58472127041
  21
 220.52987000866
  31
0.0
   0
LINE
   5
3FB
 100
AcDbEntity
   8
LEVEL001
 100
AcDbLine
   6
CONTINUOUS
  62
7
  10
 244.58472127041
  20
 219.02987000866
  30
0.0
  11
 243.58472127041
  21
 219.02987000866
  31
0.0
   0
LINE
   5
3FC
 100
AcDbEntity
   8
LEVEL001
 100
AcDbLine
   6
CONTINUOUS
  62
7
  10
 280.58472127041
  20
 218.92987000866
  30
0.0
  11
 280.58472127041
  21
 218.02987000866
  31
0.0
   0
LINE
   5
3FD
 100
AcDbEntity
   8
LEVEL001
 100
AcDbLine
   6
CONTINUOUS
  62
7
  10
 280.58472127041
  20
 218.92987000866
  30
0.0
  11
 280.58472127041
  21
 220.52987000866
  31
0.0
   0
LINE
   5
3FE
 100
AcDbEntity
   8
LEVEL001
 100
AcDbLine
   6
CONTINUOUS
  62
7
  10
 281.58472127041
  20
 220.52987000866
  30
0.0
  11
 281.58472127041
  21
 219.02987000866
  31
0.0
   0
LINE
   5
3FF
 100
AcDbEntity
   8
LEVEL001
 100
AcDbLine
   6
CONTINUOUS
  62
7
  10
 281.58472127041
  20
 219.02987000866
  30
0.0
  11
 280.58472127041
  21
 219.02987000866
  31
0.0
   0
LINE
   5
400
 100
AcDbEntity
   8
LEVEL001
 100
AcDbLine
   6
CONTINUOUS
  62
7
  10
 281.58472127041
  20
 219.02987000866
  30
0.0
  11
 283.08472127041
  21
 219.02987000866
  31
0.0
   0
LINE
   5
401
 100
AcDbEntity
   8
LEVEL001
 100
AcDbLine
   6
CONTINUOUS
  62
7
  10
 281.58472127041
  20
 218.02987000866
  30
0.0
  11
 281.58472127041
  21
 219.02987000866
  31
0.0
   0
LINE
   5
402
 100
AcDbEntity
   8
LEVEL001
 100
AcDbLine
   6
CONTINUOUS
  62
15
  10
 243.58472127041
  20
 223.02987000866
  30
0.0
  11
 281.58472127041
  21
 223.02987000866
  31
0.0
   0
LINE
   5
403
 100
AcDbEntity
   8
LEVEL001
 100
AcDbLine
   6
CONTINUOUS
  62
15
  10
 243.58472127041
  20
 220.52987000866
  30
0.0
  11
 243.58472127041
  21
 223.02987000866
  31
0.0
   0
LINE
   5
404
 100
AcDbEntity
   8
LEVEL001
 100
AcDbLine
   6
CONTINUOUS
  62
15
  10
 281.58472127041
  20
 223.02987000866
  30
0.0
  11
 281.58472127041
  21
 220.52987000866
  31
0.0
   0
DIMENSION
   5
405
 100
AcDbEntity
   8
LEVEL001
   6
CONTINUOUS
  62
3
 100
AcDbDimension
   2
*D23
  10
 209.97832032476
  20
 223.02987000866
  30
0.0
  11
 209.97832032476
  21
 187.52987000866
  31
0.0
  70
0
   3
GMM001
 100
AcDbAlignedDimension
  13
 174.79126550258
  23
 152.02987000866
  33
0.0
  14
 174.79126550258
  24
 223.02987000866
  34
0.0
  50
 90.000000000000
 100
AcDbRotatedDimension
   0
DIMENSION
   5
406
 100
AcDbEntity
   8
LEVEL001
   6
CONTINUOUS
  62
3
 100
AcDbDimension
   2
*D24
  10
 209.97832032476
  20
 152.02987000866
  30
0.0
  11
 209.97832032476
  21
 141.13425597357
  31
0.0
  70
128
   3
GMM003
 100
AcDbAlignedDimension
  13
 173.29126550258
  23
 147.52987000866
  33
0.0
  14
 209.97832032476
  24
 152.02987000866
  34
0.0
  50
 90.000000000000
 100
AcDbRotatedDimension
   0
DIMENSION
   5
407
 100
AcDbEntity
   8
LEVEL001
   6
CONTINUOUS
  62
3
 100
AcDbDimension
   2
*D25
  10
 209.97832032476
  20
 223.02987000866
  30
0.0
  11
 209.97832032476
  21
 233.48438128686
  31
0.0
  70
128
   3
GMM003
 100
AcDbAlignedDimension
  13
 173.29126550258
  23
 227.52987000866
  33
0.0
  14
 209.97832032476
  24
 223.02987000866
  34
0.0
  50
 270.00000000000
 100
AcDbRotatedDimension
   0
ARC
   5
408
 100
AcDbEntity
   8
LEVEL001
   6
CONTINUOUS
  62
7
 100
AcDbCircle
  10
 174.79126550258
  20
 154.52987000866
  30
0.0
  40
 1.5000000000000
 100
AcDbArc
  50
 90.000000000000
  51
 180.00000000002
   0
LINE
   5
409
 100
AcDbEntity
   8
LEVEL001
 100
AcDbLine
   6
CONTINUOUS
  62
7
  10
 185.29126550258
  20
 154.52987000866
  30
0.0
  11
 185.29126550258
  21
 156.02987000866
  31
0.0
   0
LINE
   5
40A
 100
AcDbEntity
   8
LEVEL001
 100
AcDbLine
   6
CONTINUOUS
  62
7
  10
 186.29126550258
  20
 156.02987000866
  30
0.0
  11
 185.29126550258
  21
 156.02987000866
  31
0.0
   0
LINE
   5
40B
 100
AcDbEntity
   8
LEVEL001
 100
AcDbLine
   6
CONTINUOUS
  62
7
  10
 186.29126550258
  20
 156.02987000866
  30
0.0
  11
 186.29126550258
  21
 157.02987000866
  31
0.0
   0
LINE
   5
40C
 100
AcDbEntity
   8
LEVEL001
 100
AcDbLine
   6
CONTINUOUS
  62
7
  10
 173.29126550258
  20
 209.52987000866
  30
0.0
  11
 174.79126550258
  21
 209.52987000866
  31
0.0
   0
LINE
   5
40D
 100
AcDbEntity
   8
LEVEL001
 100
AcDbLine
   6
CONTINUOUS
  62
7
  10
 173.29126550258
  20
 201.02987000866
  30
0.0
  11
 174.79126550258
  21
 201.02987000866
  31
0.0
   0
LINE
   5
40E
 100
AcDbEntity
   8
LEVEL001
 100
AcDbLine
   6
CONTINUOUS
  62
7
  10
 173.29126550258
  20
 202.52987000866
  30
0.0
  11
 174.79126550258
  21
 202.52987000866
  31
0.0
   0
LINE
   5
40F
 100
AcDbEntity
   8
LEVEL001
 100
AcDbLine
   6
CONTINUOUS
  62
7
  10
 173.29126550258
  20
 211.02987000866
  30
0.0
  11
 174.79126550258
  21
 211.02987000866
  31
0.0
   0
LINE
   5
410
 100
AcDbEntity
   8
LEVEL001
 100
AcDbLine
   6
CONTINUOUS
  62
7
  10
 174.79126550258
  20
 156.02987000866
  30
0.0
  11
 174.79126550258
  21
 202.52987000866
  31
0.0
   0
LINE
   5
411
 100
AcDbEntity
   8
LEVEL001
 100
AcDbLine
   6
CONTINUOUS
  62
7
  10
 174.79126550258
  20
 209.52987000866
  30
0.0
  11
 174.79126550258
  21
 219.02987000866
  31
0.0
   0
LINE
   5
412
 100
AcDbEntity
   8
LEVEL001
 100
AcDbLine
   6
DASHDOT
  62
3
  10
 180.49301456309
  20
 206.02987000866
  30
0.0
  11
 170.13151080369
  21
 206.02987000866
  31
0.0
   0
LINE
   5
413
 100
AcDbEntity
   8
LEVEL001
 100
AcDbLine
   6
DASHDOT
  62
3
  10
 174.79126550258
  20
 209.35740319612
  30
0.0
  11
 174.79126550258
  21
 202.82404121975
  31
0.0
   0
LINE
   5
414
 100
AcDbEntity
   8
LEVEL001
 100
AcDbLine
   6
CONTINUOUS
  62
15
  10
 174.79126550258
  20
 210.52987000866
  30
0.0
  11
 173.29126550258
  21
 210.52987000866
  31
0.0
   0
LINE
   5
415
 100
AcDbEntity
   8
LEVEL001
 100
AcDbLine
   6
CONTINUOUS
  62
15
  10
 174.79126550258
  20
 201.52987000866
  30
0.0
  11
 173.29126550258
  21
 201.52987000866
  31
0.0
   0
LINE
   5
416
 100
AcDbEntity
   8
LEVEL001
 100
AcDbLine
   6
CONTINUOUS
  62
15
  10
 281.58472127041
  20
 152.02987000866
  30
0.0
  11
 243.58472127041
  21
 152.02987000866
  31
0.0
   0
LINE
   5
417
 100
AcDbEntity
   8
LEVEL001
 100
AcDbLine
   6
CONTINUOUS
  62
15
  10
 243.58472127041
  20
 152.02987000866
  30
0.0
  11
 243.58472127041
  21
 154.52987000866
  31
0.0
   0
LINE
   5
418
 100
AcDbEntity
   8
LEVEL001
 100
AcDbLine
   6
CONTINUOUS
  62
15
  10
 281.58472127041
  20
 154.52987000866
  30
0.0
  11
 281.58472127041
  21
 152.02987000866
  31
0.0
   0
LINE
   5
419
 100
AcDbEntity
   8
LEVEL001
 100
AcDbLine
   6
CONTINUOUS
  62
7
  10
 281.58472127041
  20
 156.02987000866
  30
0.0
  11
 281.58472127041
  21
 154.52987000866
  31
0.0
   0
LINE
   5
41A
 100
AcDbEntity
   8
LEVEL001
 100
AcDbLine
   6
CONTINUOUS
  62
7
  10
 280.58472127041
  20
 156.02987000866
  30
0.0
  11
 281.58472127041
  21
 156.02987000866
  31
0.0
   0
LINE
   5
41B
 100
AcDbEntity
   8
LEVEL001
 100
AcDbLine
   6
CONTINUOUS
  62
7
  10
 283.08472127041
  20
 156.02987000866
  30
0.0
  11
 281.58472127041
  21
 156.02987000866
  31
0.0
   0
LINE
   5
41C
 100
AcDbEntity
   8
LEVEL001
 100
AcDbLine
   6
CONTINUOUS
  62
7
  10
 281.58472127041
  20
 156.02987000866
  30
0.0
  11
 281.58472127041
  21
 157.02987000866
  31
0.0
   0
LINE
   5
41D
 100
AcDbEntity
   8
LEVEL001
 100
AcDbLine
   6
CONTINUOUS
  62
7
  10
 243.58472127041
  20
 154.52987000866
  30
0.0
  11
 243.58472127041
  21
 156.02987000866
  31
0.0
   0
LINE
   5
41E
 100
AcDbEntity
   8
LEVEL001
 100
AcDbLine
   6
CONTINUOUS
  62
7
  10
 243.58472127041
  20
 156.02987000866
  30
0.0
  11
 244.58472127041
  21
 156.02987000866
  31
0.0
   0
LINE
   5
41F
 100
AcDbEntity
   8
LEVEL001
 100
AcDbLine
   6
CONTINUOUS
  62
7
  10
 243.58472127041
  20
 156.02987000866
  30
0.0
  11
 242.08472127041
  21
 156.02987000866
  31
0.0
   0
LINE
   5
420
 100
AcDbEntity
   8
LEVEL001
 100
AcDbLine
   6
CONTINUOUS
  62
7
  10
 243.58472127041
  20
 157.02987000866
  30
0.0
  11
 243.58472127041
  21
 156.02987000866
  31
0.0
   0
LINE
   5
421
 100
AcDbEntity
   8
LEVEL001
 100
AcDbLine
   6
CONTINUOUS
  62
15
  10
 239.58472127041
  20
 219.02987000866
  30
0.0
  11
 242.08472127041
  21
 219.02987000866
  31
0.0
   0
LINE
   5
422
 100
AcDbEntity
   8
LEVEL001
 100
AcDbLine
   6
CONTINUOUS
  62
15
  10
 242.08472127041
  20
 156.02987000866
  30
0.0
  11
 239.58472127041
  21
 156.02987000866
  31
0.0
   0
LINE
   5
423
 100
AcDbEntity
   8
LEVEL001
 100
AcDbLine
   6
CONTINUOUS
  62
15
  10
 283.08472127041
  20
 219.02987000866
  30
0.0
  11
 285.58472127041
  21
 219.02987000866
  31
0.0
   0
LINE
   5
424
 100
AcDbEntity
   8
LEVEL001
 100
AcDbLine
   6
CONTINUOUS
  62
15
  10
 285.58472127041
  20
 156.02987000866
  30
0.0
  11
 283.08472127041
  21
 156.02987000866
  31
0.0
   0
ARC
   5
425
 100
AcDbEntity
   8
LEVEL001
   6
CONTINUOUS
  62
15
 100
AcDbCircle
  10
 240.08472127041
  20
 200.52987000866
  30
0.0
  40
 0.50000000000000
 100
AcDbArc
  50
 90.000000000000
  51
 179.99999999990
   0
POINT
   5
426
 100
AcDbEntity
   8
LEVEL001
 100
AcDbPoint
  62
15
  10
 239.58472127041
  20
 201.02987000866
  30
0.0
   0
ARC
   5
427
 100
AcDbEntity
   8
LEVEL001
   6
CONTINUOUS
  62
15
 100
AcDbCircle
  10
 240.08472127041
  20
 211.52987000867
  30
0.0
  40
 0.50000000000000
 100
AcDbArc
  50
 180.00000000076
  51
 270.00000000000
   0
POINT
   5
428
 100
AcDbEntity
   8
LEVEL001
 100
AcDbPoint
  62
15
  10
 239.58472127041
  20
 211.02987000866
  30
0.0
   0
LINE
   5
429
 100
AcDbEntity
   8
LEVEL001
 100
AcDbLine
   6
CONTINUOUS
  62
15
  10
 239.58472127041
  20
 211.52987000866
  30
0.0
  11
 239.58472127041
  21
 219.02987000866
  31
0.0
   0
LINE
   5
42A
 100
AcDbEntity
   8
LEVEL001
 100
AcDbLine
   6
CONTINUOUS
  62
15
  10
 240.08472127041
  20
 211.02987000866
  30
0.0
  11
 242.08472127041
  21
 211.02987000866
  31
0.0
   0
LINE
   5
42B
 100
AcDbEntity
   8
LEVEL001
 100
AcDbLine
   6
CONTINUOUS
  62
15
  10
 239.58472127041
  20
 156.02987000866
  30
0.0
  11
 239.58472127041
  21
 200.52987000867
  31
0.0
   0
LINE
   5
42C
 100
AcDbEntity
   8
LEVEL001
 100
AcDbLine
   6
CONTINUOUS
  62
15
  10
 240.08472127041
  20
 201.02987000866
  30
0.0
  11
 242.08472127041
  21
 201.02987000866
  31
0.0
   0
ARC
   5
42D
 100
AcDbEntity
   8
LEVEL001
   6
CONTINUOUS
  62
15
 100
AcDbCircle
  10
 285.08472127041
  20
 211.52987000866
  30
0.0
  40
 0.50000000000000
 100
AcDbArc
  50
 270.00000000000
  51
 0.10422041580220E-9
   0
POINT
   5
42E
 100
AcDbEntity
   8
LEVEL001
 100
AcDbPoint
  62
15
  10
 285.58472127041
  20
 211.02987000866
  30
0.0
   0
LINE
   5
42F
 100
AcDbEntity
   8
LEVEL001
 100
AcDbLine
   6
CONTINUOUS
  62
15
  10
 285.08472127041
  20
 211.02987000866
  30
0.0
  11
 283.08472127041
  21
 211.02987000866
  31
0.0
   0
LINE
   5
430
 100
AcDbEntity
   8
LEVEL001
 100
AcDbLine
   6
CONTINUOUS
  62
15
  10
 283.28472127041
  20
 203.92987000866
  30
0.0
  11
 283.28472127041
  21
 208.12987000866
  31
0.0
   0
LINE
   5
431
 100
AcDbEntity
   8
LEVEL001
 100
AcDbLine
   6
CONTINUOUS
  62
15
  10
 283.68472127041
  20
 208.12987000866
  30
0.0
  11
 283.28472127041
  21
 208.12987000866
  31
0.0
   0
LINE
   5
432
 100
AcDbEntity
   8
LEVEL001
 100
AcDbLine
   6
CONTINUOUS
  62
15
  10
 283.68472127041
  20
 208.12987000866
  30
0.0
  11
 283.68472127041
  21
 203.92987000866
  31
0.0
   0
LINE
   5
433
 100
AcDbEntity
   8
LEVEL001
 100
AcDbLine
   6
CONTINUOUS
  62
15
  10
 283.28472127041
  20
 207.37987000866
  30
0.0
  11
 283.08472127041
  21
 207.37987000866
  31
0.0
   0
LINE
   5
434
 100
AcDbEntity
   8
LEVEL001
 100
AcDbLine
   6
CONTINUOUS
  62
15
  10
 283.68472127041
  20
 203.92987000866
  30
0.0
  11
 283.28472127041
  21
 203.92987000866
  31
0.0
   0
LINE
   5
435
 100
AcDbEntity
   8
LEVEL001
 100
AcDbLine
   6
CONTINUOUS
  62
15
  10
 283.28472127041
  20
 204.67987000866
  30
0.0
  11
 283.08472127041
  21
 204.67987000866
  31
0.0
   0
ARC
   5
436
 100
AcDbEntity
   8
LEVEL001
   6
CONTINUOUS
  62
15
 100
AcDbCircle
  10
 285.08472127041
  20
 200.52987000867
  30
0.0
  40
 0.50000000000000
 100
AcDbArc
  50
0.0
  51
 90.000000000000
   0
POINT
   5
437
 100
AcDbEntity
   8
LEVEL001
 100
AcDbPoint
  62
15
  10
 285.58472127041
  20
 201.02987000866
  30
0.0
   0
LINE
   5
438
 100
AcDbEntity
   8
LEVEL001
 100
AcDbLine
   6
CONTINUOUS
  62
15
  10
 285.08472127041
  20
 201.02987000866
  30
0.0
  11
 283.08472127041
  21
 201.02987000866
  31
0.0
   0
LINE
   5
439
 100
AcDbEntity
   8
LEVEL001
 100
AcDbLine
   6
CONTINUOUS
  62
15
  10
 285.58472127041
  20
 219.02987000866
  30
0.0
  11
 285.58472127041
  21
 211.52987000866
  31
0.0
   0
LINE
   5
43A
 100
AcDbEntity
   8
LEVEL001
 100
AcDbLine
   6
CONTINUOUS
  62
15
  10
 285.58472127041
  20
 200.52987000867
  30
0.0
  11
 285.58472127041
  21
 156.02987000866
  31
0.0
   0
LINE
   5
43B
 100
AcDbEntity
   8
LEVEL001
 100
AcDbLine
   6
CONTINUOUS
  62
15
  10
 241.88472127041
  20
 203.92987000866
  30
0.0
  11
 241.88472127041
  21
 208.12987000866
  31
0.0
   0
LINE
   5
43C
 100
AcDbEntity
   8
LEVEL001
 100
AcDbLine
   6
CONTINUOUS
  62
15
  10
 241.48472127041
  20
 208.12987000866
  30
0.0
  11
 241.88472127041
  21
 208.12987000866
  31
0.0
   0
LINE
   5
43D
 100
AcDbEntity
   8
LEVEL001
 100
AcDbLine
   6
CONTINUOUS
  62
15
  10
 241.48472127041
  20
 208.12987000866
  30
0.0
  11
 241.48472127041
  21
 203.92987000866
  31
0.0
   0
LINE
   5
43E
 100
AcDbEntity
   8
LEVEL001
 100
AcDbLine
   6
CONTINUOUS
  62
15
  10
 241.88472127041
  20
 207.37987000866
  30
0.0
  11
 242.08472127041
  21
 207.37987000866
  31
0.0
   0
LINE
   5
43F
 100
AcDbEntity
   8
LEVEL001
 100
AcDbLine
   6
CONTINUOUS
  62
15
  10
 241.48472127041
  20
 203.92987000866
  30
0.0
  11
 241.88472127041
  21
 203.92987000866
  31
0.0
   0
LINE
   5
440
 100
AcDbEntity
   8
LEVEL001
 100
AcDbLine
   6
CONTINUOUS
  62
15
  10
 241.88472127041
  20
 204.67987000866
  30
0.0
  11
 242.08472127041
  21
 204.67987000866
  31
0.0
   0
ARC
   5
441
 100
AcDbEntity
   8
LEVEL001
   6
CONTINUOUS
  62
15
 100
AcDbCircle
  10
 173.38587049171
  20
 207.43168663840
  30
0.0
  40
 0.10000000000000
 100
AcDbArc
  50
 135.07303549185
  51
 259.28327804834
   0
ARC
   5
442
 100
AcDbEntity
   8
LEVEL001
   6
CONTINUOUS
  62
15
 100
AcDbCircle
  10
 173.38587049170
  20
 204.62805337893
  30
0.0
  40
 0.10000000000000
 100
AcDbArc
  50
 100.71672194835
  51
 224.92696451402
   0
ARC
   5
443
 100
AcDbEntity
   8
LEVEL001
   6
CONTINUOUS
  62
15
 100
AcDbCircle
  10
 174.79126550258
  20
 206.02987000866
  30
0.0
  40
 2.0850000000000
 100
AcDbArc
  50
 224.92696452768
  51
 135.07303547230
   0
LINE
   5
444
 100
AcDbEntity
   8
LEVEL001
 100
AcDbLine
   6
CONTINUOUS
  62
15
  10
 173.36727515310
  20
 204.72630923568
  30
0.0
  11
 173.89595823299
  21
 204.82636475607
  31
0.0
   0
LINE
   5
445
 100
AcDbEntity
   8
LEVEL001
 100
AcDbLine
   6
CONTINUOUS
  62
15
  10
 173.36727515310
  20
 207.33343078164
  30
0.0
  11
 173.89595823299
  21
 207.23337526125
  31
0.0
   0
LINE
   5
446
 100
AcDbEntity
   8
LEVEL001
 100
AcDbLine
   6
CONTINUOUS
  62
15
  10
 285.08472127041
  20
 207.22987000866
  30
0.0
  11
 284.78472127041
  21
 207.52987000866
  31
0.0
   0
POINT
   5
447
 100
AcDbEntity
   8
LEVEL001
 100
AcDbPoint
  62
15
  10
 285.08472127041
  20
 207.52987000866
  30
0.0
   0
LINE
   5
448
 100
AcDbEntity
   8
LEVEL001
 100
AcDbLine
   6
CONTINUOUS
  62
15
  10
 284.78472127041
  20
 207.52987000866
  30
0.0
  11
 283.68472127041
  21
 207.52987000866
  31
0.0
   0
LINE
   5
449
 100
AcDbEntity
   8
LEVEL001
 100
AcDbLine
   6
CONTINUOUS
  62
15
  10
 285.08472127041
  20
 207.22987000866
  30
0.0
  11
 285.08472127041
  21
 204.82987000866
  31
0.0
   0
LINE
   5
44A
 100
AcDbEntity
   8
LEVEL001
 100
AcDbLine
   6
CONTINUOUS
  62
15
  10
 285.08472127041
  20
 204.82987000866
  30
0.0
  11
 284.78472127041
  21
 204.52987000866
  31
0.0
   0
POINT
   5
44B
 100
AcDbEntity
   8
LEVEL001
 100
AcDbPoint
  62
15
  10
 285.08472127041
  20
 204.52987000866
  30
0.0
   0
LINE
   5
44C
 100
AcDbEntity
   8
LEVEL001
 100
AcDbLine
   6
CONTINUOUS
  62
15
  10
 284.78472127041
  20
 204.52987000866
  30
0.0
  11
 283.68472127041
  21
 204.52987000866
  31
0.0
   0
LINE
   5
44D
 100
AcDbEntity
   8
LEVEL001
 100
AcDbLine
   6
CONTINUOUS
  62
15
  10
 240.08472127041
  20
 207.22987000866
  30
0.0
  11
 240.38472127041
  21
 207.52987000866
  31
0.0
   0
POINT
   5
44E
 100
AcDbEntity
   8
LEVEL001
 100
AcDbPoint
  62
15
  10
 240.08472127041
  20
 207.52987000866
  30
0.0
   0
LINE
   5
44F
 100
AcDbEntity
   8
LEVEL001
 100
AcDbLine
   6
CONTINUOUS
  62
15
  10
 240.38472127041
  20
 207.52987000866
  30
0.0
  11
 241.48472127041
  21
 207.52987000866
  31
0.0
   0
LINE
   5
450
 100
AcDbEntity
   8
LEVEL001
 100
AcDbLine
   6
CONTINUOUS
  62
15
  10
 240.08472127041
  20
 207.22987000866
  30
0.0
  11
 240.08472127041
  21
 204.82987000866
  31
0.0
   0
LINE
   5
451
 100
AcDbEntity
   8
LEVEL001
 100
AcDbLine
   6
CONTINUOUS
  62
15
  10
 240.08472127041
  20
 204.82987000866
  30
0.0
  11
 240.38472127041
  21
 204.52987000866
  31
0.0
   0
POINT
   5
452
 100
AcDbEntity
   8
LEVEL001
 100
AcDbPoint
  62
15
  10
 240.08472127041
  20
 204.52987000866
  30
0.0
   0
LINE
   5
453
 100
AcDbEntity
   8
LEVEL001
 100
AcDbLine
   6
CONTINUOUS
  62
15
  10
 240.38472127041
  20
 204.52987000866
  30
0.0
  11
 241.48472127041
  21
 204.52987000866
  31
0.0
   0
DIMENSION
   5
454
 100
AcDbEntity
   8
LEVEL001
   6
CONTINUOUS
  62
3
 100
AcDbDimension
   2
*D26
  10
 262.58472127041
  20
 184.52987000866
  30
0.0
  11
 255.74633298728
  21
 193.75594316523
  31
0.0
  70
132
   3
GMM004
 100
AcDbRadialDimension
  15
 257.22551783645
  25
 191.76028760057
  35
0.0
  40
 3.0181789975082
   0
ARC
   5
455
 100
AcDbEntity
   8
LEVEL001
   6
CONTINUOUS
  62
7
 100
AcDbCircle
  10
 262.58472127041
  20
 165.42444099624
  30
0.0
  40
 5.5000000000000
 100
AcDbArc
  50
 178.90163500964
  51
 1.0983649903566
   0
LINE
   5
456
 100
AcDbEntity
   8
LEVEL001
 100
AcDbLine
   6
CONTINUOUS
  62
7
  10
 257.08472127041
  20
 165.52987000866
  30
0.0
  11
 257.08472127041
  21
 177.40596658427
  31
0.0
   0
LINE
   5
457
 100
AcDbEntity
   8
LEVEL001
 100
AcDbLine
   6
CONTINUOUS
  62
7
  10
 268.08472127041
  20
 165.52987000866
  30
0.0
  11
 268.08472127041
  21
 177.40596658427
  31
0.0
   0
ARC
   5
458
 100
AcDbEntity
   8
LEVEL001
   6
CONTINUOUS
  62
7
 100
AcDbCircle
  10
 262.58472127041
  20
 184.52987000866
  30
0.0
  40
 9.0000000000000
 100
AcDbArc
  50
 307.66988696433
  51
 232.33011303567
   0
DIMENSION
   5
459
 100
AcDbEntity
   8
LEVEL001
   6
CONTINUOUS
  62
3
 100
AcDbDimension
   2
*D27
  10
 262.58472127041
  20
 165.42444099622
  30
0.0
  11
 253.54443872526
  21
 143.97999064758
  31
0.0
  70
132
   3
GMM004
 100
AcDbRadialDimension
  15
 260.44819168821
  25
 160.35638009047
  35
0.0
  40
 17.854599174134
   0
DIMENSION
   5
45A
 100
AcDbEntity
   8
LEVEL001
   6
CONTINUOUS
  62
3
 100
AcDbDimension
   2
*D28
  10
 201.13066010770
  20
 220.52987000866
  30
0.0
  11
 201.13066010770
  21
 187.52987000866
  31
0.0
  70
0
   3
GMM001
 100
AcDbAlignedDimension
  13
 187.79126550258
  23
 154.52987000866
  33
0.0
  14
 187.79126550258
  24
 220.52987000866
  34
0.0
  50
 90.000000000000
 100
AcDbRotatedDimension
   0
INSERT
   5
45B
 100
AcDbEntity
   8
LEVEL001
 100
AcDbBlockReference
   2
*D29
  10
0.0
  20
0.0
  30
0.0
   0
DIMENSION
   5
45C
 100
AcDbEntity
   8
LEVEL001
   6
CONTINUOUS
  62
3
 100
AcDbDimension
   2
*D30
  10
 305.89999602683
  20
 152.02987000866
  30
0.0
  11
 305.89999602683
  21
 140.74624169008
  31
0.0
  70
128
   3
GMM003
 100
AcDbAlignedDimension
  13
 290.08472127041
  23
 147.52987000866
  33
0.0
  14
 305.89999602683
  24
 152.02987000866
  34
0.0
  50
 90.000000000000
 100
AcDbRotatedDimension
   0
DIMENSION
   5
45D
 100
AcDbEntity
   8
LEVEL001
   6
CONTINUOUS
  62
3
 100
AcDbDimension
   2
*D31
  10
 305.89999602683
  20
 223.02987000866
  30
0.0
  11
 305.89999602683
  21
 234.62500275202
  31
0.0
  70
128
   3
GMM003
 100
AcDbAlignedDimension
  13
 290.08472127041
  23
 227.52987000866
  33
0.0
  14
 305.89999602683
  24
 223.02987000866
  34
0.0
  50
 270.00000000000
 100
AcDbRotatedDimension
   0
DIMENSION
   5
45E
 100
AcDbEntity
   8
LEVEL001
   6
CONTINUOUS
  62
3
 100
AcDbDimension
   2
*D32
  10
 305.89999602683
  20
 152.02987000866
  30
0.0
  11
 305.89999602683
  21
 158.77987000866
  31
0.0
  70
0
   3
GMM001
 100
AcDbAlignedDimension
  13
 270.44077493262
  23
 165.52987000866
  33
0.0
  14
 281.58472127041
  24
 152.02987000866
  34
0.0
  50
 270.00000000000
 100
AcDbRotatedDimension
   0
DIMENSION
   5
45F
 100
AcDbEntity
   8
LEVEL001
   6
CONTINUOUS
  62
3
 100
AcDbDimension
   2
*D33
  10
 305.89999602683
  20
 223.02987000866
  30
0.0
  11
 305.89999602683
  21
 203.77987000866
  31
0.0
  70
0
   3
GMM001
 100
AcDbAlignedDimension
  13
 274.14603809052
  23
 184.52987000866
  33
0.0
  14
 281.58472127041
  24
 223.02987000866
  34
0.0
  50
 90.000000000000
 100
AcDbRotatedDimension
   0
DIMENSION
   5
460
 100
AcDbEntity
   8
LEVEL001
   6
CONTINUOUS
  62
3
 100
AcDbDimension
   2
*D34
  10
 305.89999602683
  20
 165.52987000866
  30
0.0
  11
 305.89999602683
  21
 175.02987000866
  31
0.0
  70
0
   3
GMM001
 100
AcDbAlignedDimension
  13
 305.89999602683
  23
 184.52987000866
  33
0.0
  14
 305.89999602683
  24
 165.52987000866
  34
0.0
  50
 270.00000000000
 100
AcDbRotatedDimension
   0
INSERT
   5
461
 100
AcDbEntity
   8
0
 100
AcDbBlockReference
   2
BLOCK001
  10
0.0
  20
0.0
  30
0.0
   0
INSERT
   5
462
 100
AcDbEntity
   8
0
 100
AcDbBlockReference
   2
BLOCK002
  10
0.0
  20
0.0
  30
0.0
   0
LINE
   5
463
 100
AcDbEntity
   8
LEVEL001
 100
AcDbLine
   6
CONTINUOUS
  62
7
  10
 380.61238938055
  20
 173.33628318585
  30
0.0
  11
 343.61238938055
  21
 173.33628318585
  31
0.0
   0
ARC
   5
464
 100
AcDbEntity
   8
LEVEL001
   6
CONTINUOUS
  62
7
 100
AcDbCircle
  10
 380.61238938055
  20
 168.33628318585
  30
0.0
  40
 5.0000000000000
 100
AcDbArc
  50
0.0
  51
 90.000000000000
   0
POINT
   5
465
 100
AcDbEntity
   8
LEVEL001
 100
AcDbPoint
  62
7
  10
 385.61238938055
  20
 173.33628318585
  30
0.0
   0
LINE
   5
466
 100
AcDbEntity
   8
LEVEL001
 100
AcDbLine
   6
CONTINUOUS
  62
7
  10
 385.61238938055
  20
 106.33628318585
  30
0.0
  11
 385.61238938055
  21
 168.33628318585
  31
0.0
   0
LINE
   5
467
 100
AcDbEntity
   8
LEVEL001
 100
AcDbLine
   6
DASHDOT
  62
3
  10
 362.11238938055
  20
 180.61212983521
  30
0.0
  11
 362.11238938055
  21
 96.505935144946
  31
0.0
   0
ARC
   5
468
 100
AcDbEntity
   8
LEVEL001
   6
CONTINUOUS
  62
7
 100
AcDbCircle
  10
 380.61238938055
  20
 106.33628318585
  30
0.0
  40
 5.0000000000000
 100
AcDbArc
  50
 270.00000000000
  51
0.0
   0
POINT
   5
469
 100
AcDbEntity
   8
LEVEL001
 100
AcDbPoint
  62
7
  10
 385.61238938055
  20
 101.33628318585
  30
0.0
   0
LINE
   5
46A
 100
AcDbEntity
   8
LEVEL001
 100
AcDbLine
   6
CONTINUOUS
  62
7
  10
 338.61238938055
  20
 168.33628318585
  30
0.0
  11
 338.61238938055
  21
 106.33628318585
  31
0.0
   0
LINE
   5
46B
 100
AcDbEntity
   8
LEVEL001
 100
AcDbLine
   6
CONTINUOUS
  62
7
  10
 343.61238938055
  20
 101.33628318585
  30
0.0
  11
 380.61238938055
  21
 101.33628318585
  31
0.0
   0
ARC
   5
46C
 100
AcDbEntity
   8
LEVEL001
   6
CONTINUOUS
  62
7
 100
AcDbCircle
  10
 343.61238938055
  20
 106.33628318585
  30
0.0
  40
 5.0000000000000
 100
AcDbArc
  50
 180.00000000000
  51
 270.00000000000
   0
POINT
   5
46D
 100
AcDbEntity
   8
LEVEL001
 100
AcDbPoint
  62
7
  10
 338.61238938055
  20
 101.33628318585
  30
0.0
   0
ARC
   5
46E
 100
AcDbEntity
   8
LEVEL001
   6
CONTINUOUS
  62
7
 100
AcDbCircle
  10
 343.61238938055
  20
 168.33628318585
  30
0.0
  40
 5.0000000000000
 100
AcDbArc
  50
 90.000000000000
  51
 180.00000000000
   0
POINT
   5
46F
 100
AcDbEntity
   8
LEVEL001
 100
AcDbPoint
  62
7
  10
 338.61238938055
  20
 173.33628318585
  30
0.0
   0
DIMENSION
   5
470
 100
AcDbEntity
   8
LEVEL001
   6
CONTINUOUS
  62
3
 100
AcDbDimension
   2
*D35
  10
 343.61238938055
  20
 168.33628318585
  30
0.0
  11
 337.29070979140
  21
 175.18045658049
  31
0.0
  70
132
   3
GMM004
 100
AcDbRadialDimension
  15
 340.21983548367
  25
 172.00923541215
  35
0.0
  40
 4.6449108204364
   0
DIMENSION
   5
471
 100
AcDbEntity
   8
LEVEL001
   6
CONTINUOUS
  62
3
 100
AcDbDimension
   2
*D36
  10
 385.61238938055
  20
 89.590281778268
  30
0.0
  11
 362.11238938055
  21
 89.590281778268
  31
0.0
  70
0
   3
GMM001
 100
AcDbAlignedDimension
  13
 338.61238938055
  23
 101.33628318585
  33
0.0
  14
 385.61238938055
  24
 101.33628318585
  34
0.0
 100
AcDbRotatedDimension
   0
DIMENSION
   5
472
 100
AcDbEntity
   8
LEVEL001
   6
CONTINUOUS
  62
3
 100
AcDbDimension
   2
*D37
  10
 397.62207018695
  20
 173.33628318585
  30
0.0
  11
 397.62207018695
  21
 137.33628318585
  31
0.0
  70
0
   3
GMM001
 100
AcDbAlignedDimension
  13
 385.61238938055
  23
 101.33628318585
  33
0.0
  14
 385.61238938055
  24
 173.33628318585
  34
0.0
  50
 90.000000000000
 100
AcDbRotatedDimension
   0
TEXT
   5
473
 100
AcDbEntity
   8
LEVEL001
  62
7
 100
AcDbText
  10
 351.95408325708
  20
 81.763870743851
  30
0.0
  40
 4.0000000000000
   1
参考掘込図
   7
STANDARD
 100
AcDbText
   0
LINE
   5
474
 100
AcDbEntity
   8
LEVEL001
 100
AcDbLine
   6
CONTINUOUS
  62
7
  10
 351.26743336550
  20
 80.762520983177
  30
0.0
  11
 372.71514963063
  21
 80.762520983177
  31
0.0
   0
ENDSEC
  0
SECTION
  2
OBJECTS
  0
DICTIONARY
  5
C
100
AcDbDictionary
  3
ACAD_GROUP
350
D
  3
ACAD_MLINESTYLE
350
1B
  0
DICTIONARY
  5
D
102
{ACAD_REACTORS
330
C
102
}
100
AcDbDictionary
  0
DICTIONARY
  5
1B
102
{ACAD_REACTORS
330
C
102
}
100
AcDbDictionary
  3
STANDARD
350
1C
  0
MLINESTYLE
  5
1C
102
{ACAD_REACTORS
330
1B
102
}
100
AcDbMlineStyle
  2
STANDARD
 70
     0
  3

 62
   256
 51
90.0
 52
90.0
 71
     2
 49
0.5
 62
   256
  6
BYLAYER
 49
-0.5
 62
   256
  6
BYLAYER
  0
ENDSEC
   0
EOF
