   0
SECTION
   2
HEADER
   9
$ACADVER
   1
AC1015
   9
$LIMMIN
  10
0.0
  20
0.0
   9
$LIMMAX
  10
 420.00000000000
  20
 297.00000000000
   9
$EXTMIN
  10
0.0
  20
0.0
  30
0.0
   9
$EXTMAX
  10
 420.00000000000
  20
 297.00000000000
  30
0.0
   9
$LTSCALE
  40
 8.4000000000000
   9
$HANDSEED
   5
311
   0
ENDSEC
   0
SECTION
   2
TABLES
  0
TABLE
  2
VPORT
  5
8
100
AcDbSymbolTable
 70
     1
  0
VPORT
  5
310
100
AcDbSymbolTableRecord
100
AcDbViewportTableRecord
  2
*ACTIVE
 70
     0
 10
0.0
 20
0.0
 11
1.0
 21
1.0
  12
 210.00000000000
  22
 148.50000000000
 13
0.0
 23
0.0
 14
1.0
 24
1.0
 15
0.0
 25
0.0
 16
0.0
 26
0.0
 36
1.0
 17
0.0
 27
0.0
 37
0.0
  40
 420.00000000000
  41
 1.4787878787879
 42
50.0
 43
0.0
 44
0.0
 50
0.0
 51
0.0
 71
     0
 72
   100
 73
     1
 74
     1
 75
     0
 76
     0
 77
     0
 78
     0
  0
ENDTAB
  0
TABLE
  2
LTYPE
  5
5
100
AcDbSymbolTable
 70
    25
  0
LTYPE
  5
12
100
AcDbSymbolTableRecord
100
AcDbLinetypeTableRecord
  2
BYBLOCK
 70
     0
  3

 72
    65
 73
     0
 40
0.0
  0
LTYPE
  5
13
100
AcDbSymbolTableRecord
100
AcDbLinetypeTableRecord
  2
BYLAYER
 70
     0
  3

 72
    65
 73
     0
 40
0.0
  0
LTYPE
  5
14
100
AcDbSymbolTableRecord
100
AcDbLinetypeTableRecord
  2
CONTINUOUS
 70
     0
  3
Solid line
 72
    65
 73
     0
 40
0.0
  0
LTYPE
  5
20
100
AcDbSymbolTableRecord
100
AcDbLinetypeTableRecord
  2
BORDER
 70
     0
  3
__ __ . __ __ . __ __ . __ __ . __ __ . __ __ .
 72
    65
 73
     6
 40
1.75
 49
0.5
 74
     0
 49
-0.25
 74
     0
 49
0.5
 74
     0
 49
-0.25
 74
     0
 49
0.0
 74
     0
 49
-0.25
 74
     0
  0
LTYPE
  5
21
100
AcDbSymbolTableRecord
100
AcDbLinetypeTableRecord
  2
BORDER2
 70
     0
  3
__.__.__.__.__.__.__.__.__.__.__.__.__.__.__.__
 72
    65
 73
     6
 40
0.875
 49
0.25
 74
     0
 49
-0.125
 74
     0
 49
0.25
 74
     0
 49
-0.125
 74
     0
 49
0.0
 74
     0
 49
-0.125
 74
     0
  0
LTYPE
  5
22
100
AcDbSymbolTableRecord
100
AcDbLinetypeTableRecord
  2
BORDERX2
 70
     0
  3
____  ____  .  ____  ____  .  ____  ____  .  __
 72
    65
 73
     6
 40
3.5
 49
1.0
 74
     0
 49
-0.5
 74
     0
 49
1.0
 74
     0
 49
-0.5
 74
     0
 49
0.0
 74
     0
 49
-0.5
 74
     0
  0
LTYPE
  5
23
100
AcDbSymbolTableRecord
100
AcDbLinetypeTableRecord
  2
CENTER
 70
     0
  3
____ _ ____ _ ____ _ ____ _ ____ _ ____ _ ____ 
 72
    65
 73
     4
 40
2.0
 49
1.25
 74
     0
 49
-0.25
 74
     0
 49
0.25
 74
     0
 49
-0.25
 74
     0
  0
LTYPE
  5
24
100
AcDbSymbolTableRecord
100
AcDbLinetypeTableRecord
  2
CENTER2
 70
     0
  3
___ _ ___ _ ___ _ ___ _ ___ _ ___ _ ___ _ ___ _
 72
    65
 73
     4
 40
1.125
 49
0.75
 74
     0
 49
-0.125
 74
     0
 49
0.125
 74
     0
 49
-0.125
 74
     0
  0
LTYPE
  5
25
100
AcDbSymbolTableRecord
100
AcDbLinetypeTableRecord
  2
CENTERX2
 70
     0
  3
________  __  ________  __  ________  __  _____
 72
    65
 73
     4
 40
4.0
 49
2.5
 74
     0
 49
-0.5
 74
     0
 49
0.5
 74
     0
 49
-0.5
 74
     0
  0
LTYPE
  5
26
100
AcDbSymbolTableRecord
100
AcDbLinetypeTableRecord
  2
DASHDOT
 70
     0
  3
__ . __ . __ . __ . __ . __ . __ . __ . __ . __
 72
    65
 73
     4
 40
1.0
 49
0.5
 74
     0
 49
-0.25
 74
     0
 49
0.0
 74
     0
 49
-0.25
 74
     0
  0
LTYPE
  5
27
100
AcDbSymbolTableRecord
100
AcDbLinetypeTableRecord
  2
DASHDOT2
 70
     0
  3
_._._._._._._._._._._._._._._._._._._._._._._._
 72
    65
 73
     4
 40
0.5
 49
0.25
 74
     0
 49
-0.125
 74
     0
 49
0.0
 74
     0
 49
-0.125
 74
     0
  0
LTYPE
  5
28
100
AcDbSymbolTableRecord
100
AcDbLinetypeTableRecord
  2
DASHDOTX2
 70
     0
  3
____  .  ____  .  ____  .  ____  .  ____  .  __
 72
    65
 73
     4
 40
2.0
 49
1.0
 74
     0
 49
-0.5
 74
     0
 49
0.0
 74
     0
 49
-0.5
 74
     0
  0
LTYPE
  5
29
100
AcDbSymbolTableRecord
100
AcDbLinetypeTableRecord
  2
DASHED
 70
     0
  3
__ __ __ __ __ __ __ __ __ __ __ __ __ __ __ __
 72
    65
 73
     2
 40
0.75
 49
0.5
 74
     0
 49
-0.25
 74
     0
  0
LTYPE
  5
2A
100
AcDbSymbolTableRecord
100
AcDbLinetypeTableRecord
  2
DASHED2
 70
     0
  3
_ _ _ _ _ _ _ _ _ _ _ _ _ _ _ _ _ _ _ _ _ _ _ _
 72
    65
 73
     2
 40
0.375
 49
0.25
 74
     0
 49
-0.125
 74
     0
  0
LTYPE
  5
2B
100
AcDbSymbolTableRecord
100
AcDbLinetypeTableRecord
  2
DASHEDX2
 70
     0
  3
____  ____  ____  ____  ____  ____  ____  ____ 
 72
    65
 73
     2
 40
1.5
 49
1.0
 74
     0
 49
-0.5
 74
     0
  0
LTYPE
  5
2C
100
AcDbSymbolTableRecord
100
AcDbLinetypeTableRecord
  2
DIVIDE
 70
     0
  3
____ . . ____ . . ____ . . ____ . . ____ . . __
 72
    65
 73
     6
 40
1.25
 49
0.5
 74
     0
 49
-0.25
 74
     0
 49
0.0
 74
     0
 49
-0.25
 74
     0
 49
0.0
 74
     0
 49
-0.25
 74
     0
  0
LTYPE
  5
2D
100
AcDbSymbolTableRecord
100
AcDbLinetypeTableRecord
  2
DIVIDE2
 70
     0
  3
__..__..__..__..__..__..__..__..__..__..__..__.
 72
    65
 73
     6
 40
0.625
 49
0.25
 74
     0
 49
-0.125
 74
     0
 49
0.0
 74
     0
 49
-0.125
 74
     0
 49
0.0
 74
     0
 49
-0.125
 74
     0
  0
LTYPE
  5
2E
100
AcDbSymbolTableRecord
100
AcDbLinetypeTableRecord
  2
DIVIDEX2
 70
     0
  3
________  .  .  ________  .  .  ________  .  . 
 72
    65
 73
     6
 40
2.5
 49
1.0
 74
     0
 49
-0.5
 74
     0
 49
0.0
 74
     0
 49
-0.5
 74
     0
 49
0.0
 74
     0
 49
-0.5
 74
     0
  0
LTYPE
  5
2F
100
AcDbSymbolTableRecord
100
AcDbLinetypeTableRecord
  2
DOT
 70
     0
  3
. . . . . . . . . . . . . . . . . . . . . . . .
 72
    65
 73
     2
 40
0.25
 49
0.0
 74
     0
 49
-0.25
 74
     0
  0
LTYPE
  5
30
100
AcDbSymbolTableRecord
100
AcDbLinetypeTableRecord
  2
DOT2
 70
     0
  3
...............................................
 72
    65
 73
     2
 40
0.125
 49
0.0
 74
     0
 49
-0.125
 74
     0
  0
LTYPE
  5
31
100
AcDbSymbolTableRecord
100
AcDbLinetypeTableRecord
  2
DOTX2
 70
     0
  3
.  .  .  .  .  .  .  .  .  .  .  .  .  .  .  . 
 72
    65
 73
     2
 40
0.5
 49
0.0
 74
     0
 49
-0.5
 74
     0
  0
LTYPE
  5
32
100
AcDbSymbolTableRecord
100
AcDbLinetypeTableRecord
  2
HIDDEN
 70
     0
  3
__ __ __ __ __ __ __ __ __ __ __ __ __ __ __ __
 72
    65
 73
     2
 40
0.375
 49
0.25
 74
     0
 49
-0.125
 74
     0
  0
LTYPE
  5
33
100
AcDbSymbolTableRecord
100
AcDbLinetypeTableRecord
  2
HIDDEN2
 70
     0
  3
_ _ _ _ _ _ _ _ _ _ _ _ _ _ _ _ _ _ _ _ _ _ _ _
 72
    65
 73
     2
 40
0.1875
 49
0.125
 74
     0
 49
-0.0625
 74
     0
  0
LTYPE
  5
34
100
AcDbSymbolTableRecord
100
AcDbLinetypeTableRecord
  2
HIDDENX2
 70
     0
  3
____ ____ ____ ____ ____ ____ ____ ____ ____ __
 72
    65
 73
     2
 40
0.75
 49
0.5
 74
     0
 49
-0.25
 74
     0
  0
LTYPE
  5
35
100
AcDbSymbolTableRecord
100
AcDbLinetypeTableRecord
  2
PHANTOM
 70
     0
  3
______  __  __  ______  __  __  ______  __  __ 
 72
    65
 73
     6
 40
2.5
 49
1.25
 74
     0
 49
-0.25
 74
     0
 49
0.25
 74
     0
 49
-0.25
 74
     0
 49
0.25
 74
     0
 49
-0.25
 74
     0
  0
LTYPE
  5
36
100
AcDbSymbolTableRecord
100
AcDbLinetypeTableRecord
  2
PHANTOM2
 70
     0
  3
___ _ _ ___ _ _ ___ _ _ ___ _ _ ___ _ _ ___ _ _
 72
    65
 73
     6
 40
1.25
 49
0.625
 74
     0
 49
-0.125
 74
     0
 49
0.125
 74
     0
 49
-0.125
 74
     0
 49
0.125
 74
     0
 49
-0.125
 74
     0
  0
LTYPE
  5
37
100
AcDbSymbolTableRecord
100
AcDbLinetypeTableRecord
  2
PHANTOMX2
 70
     0
  3
____________    ____    ____    ____________   
 72
    65
 73
     6
 40
5.0
 49
2.5
 74
     0
 49
-0.5
 74
     0
 49
0.5
 74
     0
 49
-0.5
 74
     0
 49
0.5
 74
     0
 49
-0.5
 74
     0
  0
ENDTAB
   0
TABLE
   2
LAYER
   5
2
 100
AcDbSymbolTable
  70
2
   0
LAYER
   5
E
 100
AcDbSymbolTableRecord
 100
AcDbLayerTableRecord
   2
0
  70
0
  62
7
   6
CONTINUOUS
 390
30
   0
LAYER
   5
39
 100
AcDbSymbolTableRecord
 100
AcDbLayerTableRecord
   2
LEVEL001
  70
0
  62
7
   6
CONTINUOUS
 390
30
   0
ENDTAB
  0
TABLE
  2
STYLE
  5
3
100
AcDbSymbolTable
  70
3
  0
STYLE
  5
F
100
AcDbSymbolTableRecord
100
AcDbTextStyleTableRecord
  2
STANDARD
 70
     0
 40
0.0
 41
1.0
 50
0.0
 71
     0
 42
0.2
  3
TXT
  4
BIGFONT
  0
STYLE
  5
38
100
AcDbSymbolTableRecord
100
AcDbTextStyleTableRecord
  2
STANDARD1
 70
     4
 40
0.0
 41
1.0
 50
0.0
 71
     0
 42
0.2
  3
TXT
  4
BIGFONT
   0
STYLE
   5
3A
 100
AcDbSymbolTableRecord
 100
AcDbTextStyleTableRecord
   2
GMM001
  70
0
  40
0.0
  41
 1.0000000000000
  50
0.0
  71
     0
  42
1.0
   3
txt.shx
   4
bigfont.shx
   0
ENDTAB
  0
TABLE
  2
VIEW
  5
6
100
AcDbSymbolTable
 70
     0
  0
ENDTAB
  0
TABLE
  2
UCS
  5
7
100
AcDbSymbolTable
 70
     0
  0
ENDTAB
  0
TABLE
  2
APPID
  5
9
100
AcDbSymbolTable
 70
     1
  0
APPID
  5
10
100
AcDbSymbolTableRecord
100
AcDbRegAppTableRecord
  2
ACAD
 70
     0
  0
ENDTAB
   0
TABLE
   2
DIMSTYLE
   5
A
 100
AcDbSymbolTable
  70
8
 100
AcDbDimStyleTable
  0
DIMSTYLE
105
1D
100
AcDbSymbolTableRecord
100
AcDbDimStyleTableRecord
  2
STANDARD
 70
     0
  3

  4

  5

  6

  7

 40
1.0
 41
0.18
 42
0.0625
 43
0.38
 44
0.18
 45
0.0
 46
0.0
 47
0.0
 48
0.0
140
0.18
141
0.09
142
0.0
143
25.4
144
1.0
145
0.0
146
1.0
147
0.09
 71
     0
 72
     0
 73
     1
 74
     1
 75
     0
 76
     0
 77
     0
 78
     0
170
     0
171
     2
172
     0
173
     0
174
     0
175
     0
176
     0
177
     0
178
     0
270
     2
271
     4
272
     4
273
     2
274
     2
340
F
275
     0
280
     0
281
     0
282
     0
283
     1
284
     0
285
     0
286
     0
287
     3
288
     0
   0
DIMSTYLE
 105
3B
 100
AcDbSymbolTableRecord
 100
AcDbDimStyleTableRecord
   2
GMM001
  70
0
   3

   4

   5

   6
_OPEN30
   7
_OPEN30
  40
 1.0000000000000
  41
 2.0000000000000
  42
0.0
  43
 8.0000000000000
  44
 2.0000000000000
  45
0.0
  46
 2.5000000000000
  47
0.0
  48
0.0
 140
 4.0000000000000
 141
 1.0000000000000
 142
0.0
 143
 0.39400000000000E-1
 144
 1.0000000000000
 145
0.0
 146
 0.62500000000000
 147
 1.7142857142857
  71
0
  72
0
  73
0
  74
0
  75
0
  76
1
  77
1
  78
8
 170
0
 171
2
 172
1
 173
1
 174
0
 175
0
 176
2
 177
2
 178
2
 270
2
 271
6
 272
0
 273
2
 274
2
 340
3A
 275
1
 280
0
 281
0
 282
0
 283
1
 284
0
 285
0
 286
0
 287
3
 288
0
   0
DIMSTYLE
 105
3C
 100
AcDbSymbolTableRecord
 100
AcDbDimStyleTableRecord
   2
GMM002
  70
0
   3

   4

   5

   6
_OPEN30
   7
_OPEN30
  40
 1.0000000000000
  41
 2.0000000000000
  42
0.0
  43
 8.0000000000000
  44
 2.0000000000000
  45
0.0
  46
 2.5000000000000
  47
0.0
  48
0.0
 140
 4.0000000000000
 141
 1.0000000000000
 142
0.0
 143
 0.39400000000000E-1
 144
 1.0000000000000
 145
0.0
 146
 0.62500000000000
 147
 1.7142857142857
  71
0
  72
0
  73
0
  74
0
  75
0
  76
0
  77
1
  78
8
 170
0
 171
2
 172
1
 173
1
 174
0
 175
0
 176
2
 177
2
 178
2
 270
2
 271
6
 272
0
 273
2
 274
2
 340
3A
 275
1
 280
0
 281
0
 282
0
 283
1
 284
0
 285
0
 286
0
 287
3
 288
0
   0
DIMSTYLE
 105
3D
 100
AcDbSymbolTableRecord
 100
AcDbDimStyleTableRecord
   2
GMM003
  70
0
   3

   4

   5

   6
_NONE
   7
_OPEN30
  40
 1.0000000000000
  41
 2.0000000000000
  42
0.0
  43
 8.0000000000000
  44
 2.0000000000000
  45
0.0
  46
 2.5000000000000
  47
0.0
  48
0.0
 140
 4.0000000000000
 141
 1.0000000000000
 142
0.0
 143
 0.39400000000000E-1
 144
 1.0000000000000
 145
0.0
 146
 0.62500000000000
 147
 1.7500000000000
  71
0
  72
0
  73
0
  74
0
  75
0
  76
0
  77
1
  78
8
 170
0
 171
2
 172
1
 173
1
 174
0
 175
0
 176
2
 177
2
 178
2
 270
2
 271
6
 272
0
 273
2
 274
2
 340
3A
 275
1
 280
0
 281
0
 282
0
 283
1
 284
0
 285
0
 286
0
 287
3
 288
1
   0
DIMSTYLE
 105
3E
 100
AcDbSymbolTableRecord
 100
AcDbDimStyleTableRecord
   2
GMM004
  70
0
   3
%%c<>
   4

   5

   6
_OPEN30
   7
_OPEN30
  40
 1.0000000000000
  41
 2.0000000000000
  42
0.0
  43
 8.0000000000000
  44
 2.0000000000000
  45
0.0
  46
 2.5000000000000
  47
0.0
  48
0.0
 140
 4.0000000000000
 141
 1.0000000000000
 142
0.0
 143
 0.39400000000000E-1
 144
 1.0000000000000
 145
0.0
 146
 0.62500000000000
 147
 1.7142857142857
  71
0
  72
0
  73
0
  74
0
  75
0
  76
0
  77
1
  78
8
 170
0
 171
2
 172
1
 173
1
 174
0
 175
0
 176
2
 177
2
 178
2
 270
2
 271
6
 272
0
 273
2
 274
2
 340
3A
 275
1
 280
0
 281
0
 282
0
 283
1
 284
0
 285
0
 286
0
 287
3
 288
0
   0
DIMSTYLE
 105
3F
 100
AcDbSymbolTableRecord
 100
AcDbDimStyleTableRecord
   2
GMM005
  70
0
   3

   4

   5

   6
_OPEN30
   7
_OPEN30
  40
 1.0000000000000
  41
 2.0000000000000
  42
0.0
  43
 8.0000000000000
  44
 2.0000000000000
  45
0.0
  46
 2.5000000000000
  47
0.0
  48
0.0
 140
 4.0000000000000
 141
 1.0000000000000
 142
0.0
 143
 0.39400000000000E-1
 144
 1.0000000000000
 145
0.0
 146
 0.62500000000000
 147
 1.7142857142857
  71
0
  72
0
  73
0
  74
0
  75
0
  76
0
  77
1
  78
8
 170
0
 171
2
 172
1
 173
1
 174
0
 175
0
 176
2
 177
2
 178
2
 270
2
 271
6
 272
0
 273
2
 274
2
 340
3A
 275
1
 280
0
 281
0
 282
0
 283
1
 284
0
 285
0
 286
0
 287
3
 288
0
   0
DIMSTYLE
 105
40
 100
AcDbSymbolTableRecord
 100
AcDbDimStyleTableRecord
   2
GMM006
  70
0
   3
%%c<>
   4

   5

   6
_OPEN30
   7
_OPEN30
  40
 1.0000000000000
  41
 3.0000000000000
  42
0.0
  43
 8.0000000000000
  44
 2.0000000000000
  45
0.0
  46
0.0
  47
0.0
  48
0.0
 140
 4.0000000000000
 141
 1.0000000000000
 142
0.0
 143
 0.39400000000000E-1
 144
 1.0000000000000
 145
0.0
 146
 0.62500000000000
 147
 1.7142860000000
  71
0
  72
0
  73
0
  74
0
  75
0
  76
0
  77
3
  78
8
 170
0
 171
2
 172
1
 173
1
 174
0
 175
0
 176
2
 177
2
 178
2
 270
2
 271
6
 272
0
 273
2
 274
2
 340
3A
 275
1
 280
0
 281
0
 282
0
 283
1
 284
0
 285
0
 286
0
 287
3
 288
1
   0
ENDTAB
  0
TABLE
  2
BLOCK_RECORD
  5
1
100
AcDbSymbolTable
 70
     0
  0
BLOCK_RECORD
  5
18
100
AcDbSymbolTableRecord
100
AcDbBlockTableRecord
  2
*MODEL_SPACE
  0
BLOCK_RECORD
  5
15
100
AcDbSymbolTableRecord
100
AcDbBlockTableRecord
  2
*PAPER_SPACE
   0
BLOCK_RECORD
   5
41
 100
AcDbSymbolTableRecord
 100
AcDbBlockTableRecord
   2
BLOCK001
   0
BLOCK_RECORD
   5
42
 100
AcDbSymbolTableRecord
 100
AcDbBlockTableRecord
   2
BLOCK002
   0
BLOCK_RECORD
   5
43
 100
AcDbSymbolTableRecord
 100
AcDbBlockTableRecord
   2
*D1
   0
BLOCK_RECORD
   5
44
 100
AcDbSymbolTableRecord
 100
AcDbBlockTableRecord
   2
*D2
   0
BLOCK_RECORD
   5
45
 100
AcDbSymbolTableRecord
 100
AcDbBlockTableRecord
   2
*D3
   0
BLOCK_RECORD
   5
46
 100
AcDbSymbolTableRecord
 100
AcDbBlockTableRecord
   2
*D4
   0
BLOCK_RECORD
   5
47
 100
AcDbSymbolTableRecord
 100
AcDbBlockTableRecord
   2
*D5
   0
BLOCK_RECORD
   5
48
 100
AcDbSymbolTableRecord
 100
AcDbBlockTableRecord
   2
*D6
   0
BLOCK_RECORD
   5
49
 100
AcDbSymbolTableRecord
 100
AcDbBlockTableRecord
   2
*D7
   0
BLOCK_RECORD
   5
4A
 100
AcDbSymbolTableRecord
 100
AcDbBlockTableRecord
   2
*D8
   0
BLOCK_RECORD
   5
4B
 100
AcDbSymbolTableRecord
 100
AcDbBlockTableRecord
   2
*D9
   0
BLOCK_RECORD
   5
4C
 100
AcDbSymbolTableRecord
 100
AcDbBlockTableRecord
   2
*D10
   0
BLOCK_RECORD
   5
4D
 100
AcDbSymbolTableRecord
 100
AcDbBlockTableRecord
   2
*D11
   0
BLOCK_RECORD
   5
4E
 100
AcDbSymbolTableRecord
 100
AcDbBlockTableRecord
   2
*D12
   0
BLOCK_RECORD
   5
4F
 100
AcDbSymbolTableRecord
 100
AcDbBlockTableRecord
   2
*D13
   0
BLOCK_RECORD
   5
50
 100
AcDbSymbolTableRecord
 100
AcDbBlockTableRecord
   2
*D14
   0
BLOCK_RECORD
   5
51
 100
AcDbSymbolTableRecord
 100
AcDbBlockTableRecord
   2
*D15
   0
BLOCK_RECORD
   5
52
 100
AcDbSymbolTableRecord
 100
AcDbBlockTableRecord
   2
*D16
   0
BLOCK_RECORD
   5
53
 100
AcDbSymbolTableRecord
 100
AcDbBlockTableRecord
   2
*D17
   0
BLOCK_RECORD
   5
54
 100
AcDbSymbolTableRecord
 100
AcDbBlockTableRecord
   2
*D18
   0
BLOCK_RECORD
   5
55
 100
AcDbSymbolTableRecord
 100
AcDbBlockTableRecord
   2
*D19
   0
BLOCK_RECORD
   5
56
 100
AcDbSymbolTableRecord
 100
AcDbBlockTableRecord
   2
_ARCHTICK
   0
BLOCK_RECORD
   5
57
 100
AcDbSymbolTableRecord
 100
AcDbBlockTableRecord
   2
_BOXBLANK
   0
BLOCK_RECORD
   5
58
 100
AcDbSymbolTableRecord
 100
AcDbBlockTableRecord
   2
_BOXFILLED
   0
BLOCK_RECORD
   5
59
 100
AcDbSymbolTableRecord
 100
AcDbBlockTableRecord
   2
_CLOSED
   0
BLOCK_RECORD
   5
5A
 100
AcDbSymbolTableRecord
 100
AcDbBlockTableRecord
   2
_CLOSEDBLANK
   0
BLOCK_RECORD
   5
5B
 100
AcDbSymbolTableRecord
 100
AcDbBlockTableRecord
   2
_DATUMBLANK
   0
BLOCK_RECORD
   5
5C
 100
AcDbSymbolTableRecord
 100
AcDbBlockTableRecord
   2
_DATUMFILLED
   0
BLOCK_RECORD
   5
5D
 100
AcDbSymbolTableRecord
 100
AcDbBlockTableRecord
   2
_DOT
   0
BLOCK_RECORD
   5
5E
 100
AcDbSymbolTableRecord
 100
AcDbBlockTableRecord
   2
_DOTBLANK
   0
BLOCK_RECORD
   5
5F
 100
AcDbSymbolTableRecord
 100
AcDbBlockTableRecord
   2
_DOTSMALL
   0
BLOCK_RECORD
   5
60
 100
AcDbSymbolTableRecord
 100
AcDbBlockTableRecord
   2
_INTEGRAL
   0
BLOCK_RECORD
   5
61
 100
AcDbSymbolTableRecord
 100
AcDbBlockTableRecord
   2
_NONE
   0
BLOCK_RECORD
   5
62
 100
AcDbSymbolTableRecord
 100
AcDbBlockTableRecord
   2
_OBLIQUE
   0
BLOCK_RECORD
   5
63
 100
AcDbSymbolTableRecord
 100
AcDbBlockTableRecord
   2
_OPEN
   0
BLOCK_RECORD
   5
64
 100
AcDbSymbolTableRecord
 100
AcDbBlockTableRecord
   2
_OPEN30
   0
BLOCK_RECORD
   5
65
 100
AcDbSymbolTableRecord
 100
AcDbBlockTableRecord
   2
_OPEN90
   0
BLOCK_RECORD
   5
66
 100
AcDbSymbolTableRecord
 100
AcDbBlockTableRecord
   2
_ORIGIN
   0
ENDTAB
   0
ENDSEC
  0
SECTION
  2
BLOCKS
  0
BLOCK
  5
19
100
AcDbEntity
  8
0
100
AcDbBlockBegin
  2
*MODEL_SPACE
 70
     0
 10
0.0
 20
0.0
 30
0.0
  3
*MODEL_SPACE
  1

  0
ENDBLK
  5
1A
100
AcDbEntity
  8
0
100
AcDbBlockEnd
  0
BLOCK
  5
16
100
AcDbEntity
 67
     1
  8
0
100
AcDbBlockBegin
  2
*PAPER_SPACE
 70
     0
 10
0.0
 20
0.0
 30
0.0
  3
*PAPER_SPACE
  1

  0
ENDBLK
  5
17
100
AcDbEntity
 67
     1
  8
0
100
AcDbBlockEnd
   0
BLOCK
   5
67
 100
AcDbEntity
   8
0
 100
AcDbBlockBegin
   2
_ARCHTICK
  70
0
  10
0.0
  20
0.0
  30
0.0
   3
_ARCHTICK
   0
POLYLINE
   5
68
 100
AcDbEntity
   8
0
   6
BYBLOCK
  62
0
 100
AcDb2dPolyline
  66
1
  10
0.0
  20
0.0
  30
0.0
  70
1
  40
 0.15000000000000
  41
 0.15000000000000
   0
VERTEX
   5
69
 100
AcDbEntity
   8
0
   6
BYBLOCK
  62
0
 100
AcDbVertex
 100
AcDb2dVertex
  10
-0.50000000000000
  20
-0.50000000000000
  30
0.0
  40
 0.15000000000000
  41
 0.15000000000000
   0
VERTEX
   5
6A
 100
AcDbEntity
   8
0
   6
BYBLOCK
  62
0
 100
AcDbVertex
 100
AcDb2dVertex
  10
 0.50000000000000
  20
 0.50000000000000
  30
0.0
  40
 0.15000000000000
  41
 0.15000000000000
   0
SEQEND
   5
6B
 100
AcDbEntity
   8
0
   6
BYBLOCK
  62
0
   0
ENDBLK
   5
6C
 100
AcDbEntity
   8
0
 100
AcDbBlockEnd
   0
BLOCK
   5
6D
 100
AcDbEntity
   8
0
 100
AcDbBlockBegin
   2
_OBLIQUE
  70
0
  10
0.0
  20
0.0
  30
0.0
   3
_OBLIQUE
   0
LINE
   5
6E
 100
AcDbEntity
   8
0
 100
AcDbLine
   6
BYBLOCK
  62
0
  10
-0.50000000000000
  20
-0.50000000000000
  30
0.0
  11
 0.50000000000000
  21
 0.50000000000000
  31
0.0
   0
ENDBLK
   5
6F
 100
AcDbEntity
   8
0
 100
AcDbBlockEnd
   0
BLOCK
   5
70
 100
AcDbEntity
   8
0
 100
AcDbBlockBegin
   2
_BOXBLANK
  70
0
  10
0.0
  20
0.0
  30
0.0
   3
_BOXBLANK
   0
LINE
   5
71
 100
AcDbEntity
   8
0
 100
AcDbLine
   6
BYBLOCK
  62
0
  10
-0.50000000000000
  20
-0.50000000000000
  30
0.0
  11
 0.50000000000000
  21
-0.50000000000000
  31
0.0
   0
LINE
   5
72
 100
AcDbEntity
   8
0
 100
AcDbLine
   6
BYBLOCK
  62
0
  10
 0.50000000000000
  20
-0.50000000000000
  30
0.0
  11
 0.50000000000000
  21
 0.50000000000000
  31
0.0
   0
LINE
   5
73
 100
AcDbEntity
   8
0
 100
AcDbLine
   6
BYBLOCK
  62
0
  10
 0.50000000000000
  20
 0.50000000000000
  30
0.0
  11
-0.50000000000000
  21
 0.50000000000000
  31
0.0
   0
LINE
   5
74
 100
AcDbEntity
   8
0
 100
AcDbLine
   6
BYBLOCK
  62
0
  10
-0.50000000000000
  20
 0.50000000000000
  30
0.0
  11
-0.50000000000000
  21
-0.50000000000000
  31
0.0
   0
LINE
   5
75
 100
AcDbEntity
   8
0
 100
AcDbLine
   6
BYBLOCK
  62
0
  10
-0.50000000000000
  20
0.0
  30
0.0
  11
-1.0000000000000
  21
0.0
  31
0.0
   0
ENDBLK
   5
76
 100
AcDbEntity
   8
0
 100
AcDbBlockEnd
   0
BLOCK
   5
77
 100
AcDbEntity
   8
0
 100
AcDbBlockBegin
   2
_BOXFILLED
  70
0
  10
0.0
  20
0.0
  30
0.0
   3
_BOXFILLED
   0
SOLID
   5
78
 100
AcDbEntity
   8
0
 100
AcDbTrace
   6
BYBLOCK
  62
0
  10
-0.50000000000000
  20
 0.50000000000000
  30
0.0
  11
 0.50000000000000
  21
 0.50000000000000
  31
0.0
  12
-0.50000000000000
  22
-0.50000000000000
  32
0.0
  13
 0.50000000000000
  23
-0.50000000000000
  33
0.0
   0
LINE
   5
79
 100
AcDbEntity
   8
0
 100
AcDbLine
   6
BYBLOCK
  62
0
  10
-0.50000000000000
  20
0.0
  30
0.0
  11
-1.0000000000000
  21
0.0
  31
0.0
   0
ENDBLK
   5
7A
 100
AcDbEntity
   8
0
 100
AcDbBlockEnd
   0
BLOCK
   5
7B
 100
AcDbEntity
   8
0
 100
AcDbBlockBegin
   2
_CLOSED
  70
0
  10
0.0
  20
0.0
  30
0.0
   3
_CLOSED
   0
LINE
   5
7C
 100
AcDbEntity
   8
0
 100
AcDbLine
   6
BYBLOCK
  62
0
  10
-1.0000000000000
  20
 0.16666666666667
  30
0.0
  11
0.0
  21
0.0
  31
0.0
   0
LINE
   5
7D
 100
AcDbEntity
   8
0
 100
AcDbLine
   6
BYBLOCK
  62
0
  10
0.0
  20
0.0
  30
0.0
  11
-1.0000000000000
  21
-0.16666666666667
  31
0.0
   0
LINE
   5
7E
 100
AcDbEntity
   8
0
 100
AcDbLine
   6
BYBLOCK
  62
0
  10
-1.0000000000000
  20
 0.16666666666667
  30
0.0
  11
-1.0000000000000
  21
-0.16666666666667
  31
0.0
   0
LINE
   5
7F
 100
AcDbEntity
   8
0
 100
AcDbLine
   6
BYBLOCK
  62
0
  10
0.0
  20
0.0
  30
0.0
  11
-1.0000000000000
  21
0.0
  31
0.0
   0
ENDBLK
   5
80
 100
AcDbEntity
   8
0
 100
AcDbBlockEnd
   0
BLOCK
   5
81
 100
AcDbEntity
   8
0
 100
AcDbBlockBegin
   2
_OPEN
  70
0
  10
0.0
  20
0.0
  30
0.0
   3
_OPEN
   0
LINE
   5
82
 100
AcDbEntity
   8
0
 100
AcDbLine
   6
BYBLOCK
  62
0
  10
-1.0000000000000
  20
 0.16666666666667
  30
0.0
  11
0.0
  21
0.0
  31
0.0
   0
LINE
   5
83
 100
AcDbEntity
   8
0
 100
AcDbLine
   6
BYBLOCK
  62
0
  10
0.0
  20
0.0
  30
0.0
  11
-1.0000000000000
  21
-0.16666666666667
  31
0.0
   0
LINE
   5
84
 100
AcDbEntity
   8
0
 100
AcDbLine
   6
BYBLOCK
  62
0
  10
0.0
  20
0.0
  30
0.0
  11
-1.0000000000000
  21
0.0
  31
0.0
   0
ENDBLK
   5
85
 100
AcDbEntity
   8
0
 100
AcDbBlockEnd
   0
BLOCK
   5
86
 100
AcDbEntity
   8
0
 100
AcDbBlockBegin
   2
_OPEN30
  70
0
  10
0.0
  20
0.0
  30
0.0
   3
_OPEN30
   0
LINE
   5
87
 100
AcDbEntity
   8
0
 100
AcDbLine
   6
BYBLOCK
  62
0
  10
-1.0000000000000
  20
 0.26794919243110
  30
0.0
  11
0.0
  21
0.0
  31
0.0
   0
LINE
   5
88
 100
AcDbEntity
   8
0
 100
AcDbLine
   6
BYBLOCK
  62
0
  10
0.0
  20
0.0
  30
0.0
  11
-1.0000000000000
  21
-0.26794919243110
  31
0.0
   0
LINE
   5
89
 100
AcDbEntity
   8
0
 100
AcDbLine
   6
BYBLOCK
  62
0
  10
0.0
  20
0.0
  30
0.0
  11
-1.0000000000000
  21
0.0
  31
0.0
   0
ENDBLK
   5
8A
 100
AcDbEntity
   8
0
 100
AcDbBlockEnd
   0
BLOCK
   5
8B
 100
AcDbEntity
   8
0
 100
AcDbBlockBegin
   2
_OPEN90
  70
0
  10
0.0
  20
0.0
  30
0.0
   3
_OPEN90
   0
LINE
   5
8C
 100
AcDbEntity
   8
0
 100
AcDbLine
   6
BYBLOCK
  62
0
  10
-0.50000000000000
  20
 0.50000000000000
  30
0.0
  11
0.0
  21
0.0
  31
0.0
   0
LINE
   5
8D
 100
AcDbEntity
   8
0
 100
AcDbLine
   6
BYBLOCK
  62
0
  10
0.0
  20
0.0
  30
0.0
  11
-0.50000000000000
  21
-0.50000000000000
  31
0.0
   0
LINE
   5
8E
 100
AcDbEntity
   8
0
 100
AcDbLine
   6
BYBLOCK
  62
0
  10
0.0
  20
0.0
  30
0.0
  11
-1.0000000000000
  21
0.0
  31
0.0
   0
ENDBLK
   5
8F
 100
AcDbEntity
   8
0
 100
AcDbBlockEnd
   0
BLOCK
   5
90
 100
AcDbEntity
   8
0
 100
AcDbBlockBegin
   2
_CLOSEDBLANK
  70
0
  10
0.0
  20
0.0
  30
0.0
   3
_CLOSEDBLANK
   0
LINE
   5
91
 100
AcDbEntity
   8
0
 100
AcDbLine
   6
BYBLOCK
  62
0
  10
-1.0000000000000
  20
 0.16666666666667
  30
0.0
  11
0.0
  21
0.0
  31
0.0
   0
LINE
   5
92
 100
AcDbEntity
   8
0
 100
AcDbLine
   6
BYBLOCK
  62
0
  10
0.0
  20
0.0
  30
0.0
  11
-1.0000000000000
  21
-0.16666666666667
  31
0.0
   0
LINE
   5
93
 100
AcDbEntity
   8
0
 100
AcDbLine
   6
BYBLOCK
  62
0
  10
-1.0000000000000
  20
 0.16666666666667
  30
0.0
  11
-1.0000000000000
  21
-0.16666666666667
  31
0.0
   0
ENDBLK
   5
94
 100
AcDbEntity
   8
0
 100
AcDbBlockEnd
   0
BLOCK
   5
95
 100
AcDbEntity
   8
0
 100
AcDbBlockBegin
   2
_DOT
  70
0
  10
0.0
  20
0.0
  30
0.0
   3
_DOT
   0
POLYLINE
   5
96
 100
AcDbEntity
   8
0
   6
BYBLOCK
  62
0
 100
AcDb2dPolyline
  66
1
  10
0.0
  20
0.0
  30
0.0
  70
1
  40
 0.50000000000000
  41
 0.50000000000000
   0
VERTEX
   5
97
 100
AcDbEntity
   8
0
   6
BYBLOCK
  62
0
 100
AcDbVertex
 100
AcDb2dVertex
  10
-0.25000000000000
  20
0.0
  30
0.0
  42
 1.0000000000000
  40
 0.50000000000000
  41
 0.50000000000000
   0
VERTEX
   5
98
 100
AcDbEntity
   8
0
   6
BYBLOCK
  62
0
 100
AcDbVertex
 100
AcDb2dVertex
  10
 0.25000000000000
  20
0.0
  30
0.0
  42
 1.0000000000000
  40
 0.50000000000000
  41
 0.50000000000000
   0
SEQEND
   5
99
 100
AcDbEntity
   8
0
   6
BYBLOCK
  62
0
   0
LINE
   5
9A
 100
AcDbEntity
   8
0
 100
AcDbLine
   6
BYBLOCK
  62
0
  10
-0.50000000000000
  20
0.0
  30
0.0
  11
-1.0000000000000
  21
0.0
  31
0.0
   0
ENDBLK
   5
9B
 100
AcDbEntity
   8
0
 100
AcDbBlockEnd
   0
BLOCK
   5
9C
 100
AcDbEntity
   8
0
 100
AcDbBlockBegin
   2
_DOTSMALL
  70
0
  10
0.0
  20
0.0
  30
0.0
   3
_DOTSMALL
   0
POLYLINE
   5
9D
 100
AcDbEntity
   8
0
   6
BYBLOCK
  62
0
 100
AcDb2dPolyline
  66
1
  10
0.0
  20
0.0
  30
0.0
  70
1
  40
 0.50000000000000
  41
 0.50000000000000
   0
VERTEX
   5
9E
 100
AcDbEntity
   8
0
   6
BYBLOCK
  62
0
 100
AcDbVertex
 100
AcDb2dVertex
  10
-0.62500000000000E-1
  20
0.0
  30
0.0
  42
 1.0000000000000
  40
 0.50000000000000
  41
 0.50000000000000
   0
VERTEX
   5
9F
 100
AcDbEntity
   8
0
   6
BYBLOCK
  62
0
 100
AcDbVertex
 100
AcDb2dVertex
  10
 0.62500000000000E-1
  20
0.0
  30
0.0
  42
 1.0000000000000
  40
 0.50000000000000
  41
 0.50000000000000
   0
SEQEND
   5
A0
 100
AcDbEntity
   8
0
   6
BYBLOCK
  62
0
   0
ENDBLK
   5
A1
 100
AcDbEntity
   8
0
 100
AcDbBlockEnd
   0
BLOCK
   5
A2
 100
AcDbEntity
   8
0
 100
AcDbBlockBegin
   2
_DATUMBLANK
  70
0
  10
0.0
  20
0.0
  30
0.0
   3
_DATUMBLANK
   0
LINE
   5
A3
 100
AcDbEntity
   8
0
 100
AcDbLine
   6
BYBLOCK
  62
0
  10
0.0
  20
 0.57735027000000
  30
0.0
  11
-1.0000000000000
  21
0.0
  31
0.0
   0
LINE
   5
A4
 100
AcDbEntity
   8
0
 100
AcDbLine
   6
BYBLOCK
  62
0
  10
-1.0000000000000
  20
0.0
  30
0.0
  11
0.0
  21
-0.57735027000000
  31
0.0
   0
LINE
   5
A5
 100
AcDbEntity
   8
0
 100
AcDbLine
   6
BYBLOCK
  62
0
  10
0.0
  20
-0.57735027000000
  30
0.0
  11
0.0
  21
 0.57735027000000
  31
0.0
   0
ENDBLK
   5
A6
 100
AcDbEntity
   8
0
 100
AcDbBlockEnd
   0
BLOCK
   5
A7
 100
AcDbEntity
   8
0
 100
AcDbBlockBegin
   2
_DATUMFILLED
  70
0
  10
0.0
  20
0.0
  30
0.0
   3
_DATUMFILLED
   0
SOLID
   5
A8
 100
AcDbEntity
   8
0
 100
AcDbTrace
   6
BYBLOCK
  62
0
  10
0.0
  20
 0.57735027000000
  30
0.0
  11
-1.0000000000000
  21
0.0
  31
0.0
  12
0.0
  22
-0.57735027000000
  32
0.0
  13
0.0
  23
-0.57735027000000
  33
0.0
   0
ENDBLK
   5
A9
 100
AcDbEntity
   8
0
 100
AcDbBlockEnd
   0
BLOCK
   5
AA
 100
AcDbEntity
   8
0
 100
AcDbBlockBegin
   2
_ORIGIN
  70
0
  10
0.0
  20
0.0
  30
0.0
   3
_ORIGIN
   0
CIRCLE
   5
AB
 100
AcDbEntity
   8
0
 100
AcDbCircle
   6
BYBLOCK
  62
0
  10
0.0
  20
0.0
  30
0.0
  40
 0.50000000000000
   0
LINE
   5
AC
 100
AcDbEntity
   8
0
 100
AcDbLine
   6
BYBLOCK
  62
0
  10
0.0
  20
0.0
  30
0.0
  11
-1.0000000000000
  21
0.0
  31
0.0
   0
ENDBLK
   5
AD
 100
AcDbEntity
   8
0
 100
AcDbBlockEnd
   0
BLOCK
   5
AE
 100
AcDbEntity
   8
0
 100
AcDbBlockBegin
   2
_NONE
  70
0
  10
0.0
  20
0.0
  30
0.0
   3
_NONE
   0
CIRCLE
   5
AF
 100
AcDbEntity
   8
0
 100
AcDbCircle
   6
BYBLOCK
  62
0
  10
0.0
  20
0.0
  30
0.0
  40
 0.25000000000000
   0
ENDBLK
   5
B0
 100
AcDbEntity
   8
0
 100
AcDbBlockEnd
   0
BLOCK
   5
B1
 100
AcDbEntity
   8
0
 100
AcDbBlockBegin
   2
_DOTBLANK
  70
0
  10
0.0
  20
0.0
  30
0.0
   3
_DOTBLANK
   0
CIRCLE
   5
B2
 100
AcDbEntity
   8
0
 100
AcDbCircle
   6
BYBLOCK
  62
0
  10
0.0
  20
0.0
  30
0.0
  40
 0.50000000000000
   0
LINE
   5
B3
 100
AcDbEntity
   8
0
 100
AcDbLine
   6
BYBLOCK
  62
0
  10
-0.50000000000000
  20
0.0
  30
0.0
  11
-1.0000000000000
  21
0.0
  31
0.0
   0
ENDBLK
   5
B4
 100
AcDbEntity
   8
0
 100
AcDbBlockEnd
   0
BLOCK
   5
B5
 100
AcDbEntity
   8
0
 100
AcDbBlockBegin
   2
_INTEGRAL
  70
0
  10
0.0
  20
0.0
  30
0.0
   3
_INTEGRAL
   0
ARC
   5
B6
 100
AcDbEntity
   8
0
   6
BYBLOCK
  62
0
 100
AcDbCircle
  10
 0.44488800000000
  20
-0.91335000000000E-1
  30
0.0
  40
 0.45416700000000
 100
AcDbArc
  50
 102.00000000000
  51
 168.00000000000
   0
ARC
   5
B7
 100
AcDbEntity
   8
0
   6
BYBLOCK
  62
0
 100
AcDbCircle
  10
-0.44488800000000
  20
 0.91335000000000E-1
  30
0.0
  40
 0.45416700000000
 100
AcDbArc
  50
 282.00000000000
  51
 348.00000000000
   0
ENDBLK
   5
B8
 100
AcDbEntity
   8
0
 100
AcDbBlockEnd
   0
BLOCK
   5
B9
 100
AcDbEntity
   8
0
 100
AcDbBlockBegin
   2
BLOCK001
  70
64
  10
0.0
  20
0.0
  30
0.0
   3
BLOCK001
   0
POLYLINE
   5
BA
 100
AcDbEntity
   8
LEVEL001
   6
CONTINUOUS
  62
8
 100
AcDb2dPolyline
  66
1
  10
0.0
  20
0.0
  30
0.0
  70
0
   0
VERTEX
   5
BB
 100
AcDbEntity
   8
LEVEL001
   6
CONTINUOUS
  62
8
 100
AcDbVertex
 100
AcDb2dVertex
  10
 307.10155371992
  20
 15.438322639640
  30
0.0
   0
VERTEX
   5
BC
 100
AcDbEntity
   8
LEVEL001
   6
CONTINUOUS
  62
8
 100
AcDbVertex
 100
AcDb2dVertex
  10
 308.58925452741
  20
 20.990497639639
  30
0.0
   0
VERTEX
   5
BD
 100
AcDbEntity
   8
LEVEL001
   6
CONTINUOUS
  62
8
 100
AcDbVertex
 100
AcDb2dVertex
  10
 310.92377952741
  20
 20.990497639639
  30
0.0
   0
VERTEX
   5
BE
 100
AcDbEntity
   8
LEVEL001
   6
CONTINUOUS
  62
8
 100
AcDbVertex
 100
AcDb2dVertex
  10
 309.43607871992
  20
 15.438322639640
  30
0.0
   0
VERTEX
   5
BF
 100
AcDbEntity
   8
LEVEL001
   6
CONTINUOUS
  62
8
 100
AcDbVertex
 100
AcDb2dVertex
  10
 310.26353669538
  20
 15.438322639640
  30
0.0
   0
VERTEX
   5
C0
 100
AcDbEntity
   8
LEVEL001
   6
CONTINUOUS
  62
8
 100
AcDbVertex
 100
AcDb2dVertex
  10
 309.95236188415
  20
 17.365117639639
  30
0.0
   0
VERTEX
   5
C1
 100
AcDbEntity
   8
LEVEL001
   6
CONTINUOUS
  62
8
 100
AcDbVertex
 100
AcDb2dVertex
  10
 312.98365452741
  20
 20.990497639639
  30
0.0
   0
VERTEX
   5
C2
 100
AcDbEntity
   8
LEVEL001
   6
CONTINUOUS
  62
8
 100
AcDbVertex
 100
AcDb2dVertex
  10
 315.45550452741
  20
 20.990497639639
  30
0.0
   0
VERTEX
   5
C3
 100
AcDbEntity
   8
LEVEL001
   6
CONTINUOUS
  62
8
 100
AcDbVertex
 100
AcDb2dVertex
  10
 312.42421188415
  20
 17.365117639639
  30
0.0
   0
VERTEX
   5
C4
 100
AcDbEntity
   8
LEVEL001
   6
CONTINUOUS
  62
8
 100
AcDbVertex
 100
AcDb2dVertex
  10
 312.79449083648
  20
 15.438322639640
  30
0.0
   0
VERTEX
   5
C5
 100
AcDbEntity
   8
LEVEL001
   6
CONTINUOUS
  62
8
 100
AcDbVertex
 100
AcDb2dVertex
  10
 315.56285434997
  20
 15.438322639640
  30
0.0
   0
SEQEND
   5
C6
 100
AcDbEntity
   8
LEVEL001
   6
CONTINUOUS
  62
8
   0
ARC
   5
C7
 100
AcDbEntity
   8
LEVEL001
   6
CONTINUOUS
  62
8
 100
AcDbCircle
  10
 315.60251464633
  20
 17.286628371669
  30
0.0
  40
 1.8487311914286
 100
AcDbArc
  50
 268.77075588920
  51
 271.22924411287
   0
POLYLINE
   5
C8
 100
AcDbEntity
   8
LEVEL001
   6
CONTINUOUS
  62
8
 100
AcDb2dPolyline
  66
1
  10
0.0
  20
0.0
  30
0.0
  70
0
   0
VERTEX
   5
C9
 100
AcDbEntity
   8
LEVEL001
   6
CONTINUOUS
  62
8
 100
AcDbVertex
 100
AcDb2dVertex
  10
 315.64217494275
  20
 15.438322639640
  30
0.0
   0
VERTEX
   5
CA
 100
AcDbEntity
   8
LEVEL001
   6
CONTINUOUS
  62
8
 100
AcDbVertex
 100
AcDb2dVertex
  10
 330.11828327922
  20
 15.438322639640
  30
0.0
   0
VERTEX
   5
CB
 100
AcDbEntity
   8
LEVEL001
   6
CONTINUOUS
  62
8
 100
AcDbVertex
 100
AcDb2dVertex
  10
 330.11828327922
  20
 15.213322639641
  30
0.0
   0
VERTEX
   5
CC
 100
AcDbEntity
   8
LEVEL001
   6
CONTINUOUS
  62
8
 100
AcDbVertex
 100
AcDb2dVertex
  10
 312.83772987555
  20
 15.213322639641
  30
0.0
   0
VERTEX
   5
CD
 100
AcDbEntity
   8
LEVEL001
   6
CONTINUOUS
  62
8
 100
AcDbVertex
 100
AcDb2dVertex
  10
 313.28453327922
  20
 12.888322639639
  30
0.0
   0
VERTEX
   5
CE
 100
AcDbEntity
   8
LEVEL001
   6
CONTINUOUS
  62
8
 100
AcDbVertex
 100
AcDb2dVertex
  10
 310.67535827922
  20
 12.888322639639
  30
0.0
   0
VERTEX
   5
CF
 100
AcDbEntity
   8
LEVEL001
   6
CONTINUOUS
  62
8
 100
AcDbVertex
 100
AcDb2dVertex
  10
 310.29987389395
  20
 15.213322639641
  30
0.0
   0
VERTEX
   5
D0
 100
AcDbEntity
   8
LEVEL001
   6
CONTINUOUS
  62
8
 100
AcDbVertex
 100
AcDb2dVertex
  10
 309.37579015162
  20
 15.213322639641
  30
0.0
   0
VERTEX
   5
D1
 100
AcDbEntity
   8
LEVEL001
   6
CONTINUOUS
  62
8
 100
AcDbVertex
 100
AcDb2dVertex
  10
 308.75280827922
  20
 12.888322639640
  30
0.0
   0
VERTEX
   5
D2
 100
AcDbEntity
   8
LEVEL001
   6
CONTINUOUS
  62
8
 100
AcDbVertex
 100
AcDb2dVertex
  10
 306.41828327922
  20
 12.888322639640
  30
0.0
   0
VERTEX
   5
D3
 100
AcDbEntity
   8
LEVEL001
   6
CONTINUOUS
  62
8
 100
AcDbVertex
 100
AcDb2dVertex
  10
 307.04126515162
  20
 15.213322639641
  30
0.0
   0
VERTEX
   5
D4
 100
AcDbEntity
   8
LEVEL001
   6
CONTINUOUS
  62
8
 100
AcDbVertex
 100
AcDb2dVertex
  10
 305.89328327922
  20
 15.213322639641
  30
0.0
   0
VERTEX
   5
D5
 100
AcDbEntity
   8
LEVEL001
   6
CONTINUOUS
  62
8
 100
AcDbVertex
 100
AcDb2dVertex
  10
 305.89328327922
  20
 15.438322639640
  30
0.0
   0
VERTEX
   5
D6
 100
AcDbEntity
   8
LEVEL001
   6
CONTINUOUS
  62
8
 100
AcDbVertex
 100
AcDb2dVertex
  10
 307.10155371992
  20
 15.438322639640
  30
0.0
   0
SEQEND
   5
D7
 100
AcDbEntity
   8
LEVEL001
   6
CONTINUOUS
  62
8
   0
ENDBLK
   5
D8
 100
AcDbEntity
   8
0
 100
AcDbBlockEnd
   0
BLOCK
   5
D9
 100
AcDbEntity
   8
0
 100
AcDbBlockBegin
   2
BLOCK002
  70
64
  10
0.0
  20
0.0
  30
0.0
   3
BLOCK002
   0
POLYLINE
   5
DA
 100
AcDbEntity
   8
LEVEL001
   6
CONTINUOUS
  62
8
 100
AcDb2dPolyline
  66
1
  10
0.0
  20
0.0
  30
0.0
  70
0
   0
VERTEX
   5
DB
 100
AcDbEntity
   8
LEVEL001
   6
CONTINUOUS
  62
8
 100
AcDbVertex
 100
AcDb2dVertex
  10
 309.95236188415
  20
 17.365117639639
  30
0.0
   0
VERTEX
   5
DC
 100
AcDbEntity
   8
LEVEL001
   6
CONTINUOUS
  62
8
 100
AcDbVertex
 100
AcDb2dVertex
  10
 312.98365452741
  20
 20.990497639639
  30
0.0
   0
VERTEX
   5
DD
 100
AcDbEntity
   8
LEVEL001
   6
CONTINUOUS
  62
8
 100
AcDbVertex
 100
AcDb2dVertex
  10
 315.45550452741
  20
 20.990497639639
  30
0.0
   0
VERTEX
   5
DE
 100
AcDbEntity
   8
LEVEL001
   6
CONTINUOUS
  62
8
 100
AcDbVertex
 100
AcDb2dVertex
  10
 312.42421188415
  20
 17.365117639639
  30
0.0
   0
VERTEX
   5
DF
 100
AcDbEntity
   8
LEVEL001
   6
CONTINUOUS
  62
8
 100
AcDbVertex
 100
AcDb2dVertex
  10
 312.79449083648
  20
 15.438322639640
  30
0.0
   0
VERTEX
   5
E0
 100
AcDbEntity
   8
LEVEL001
   6
CONTINUOUS
  62
8
 100
AcDbVertex
 100
AcDb2dVertex
  10
 315.56285434997
  20
 15.438322639640
  30
0.0
   0
SEQEND
   5
E1
 100
AcDbEntity
   8
LEVEL001
   6
CONTINUOUS
  62
8
   0
ARC
   5
E2
 100
AcDbEntity
   8
LEVEL001
   6
CONTINUOUS
  62
8
 100
AcDbCircle
  10
 315.60251464633
  20
 17.286628371669
  30
0.0
  40
 1.8487311914286
 100
AcDbArc
  50
 268.77075588920
  51
 271.22924411287
   0
POLYLINE
   5
E3
 100
AcDbEntity
   8
LEVEL001
   6
CONTINUOUS
  62
8
 100
AcDb2dPolyline
  66
1
  10
0.0
  20
0.0
  30
0.0
  70
0
   0
VERTEX
   5
E4
 100
AcDbEntity
   8
LEVEL001
   6
CONTINUOUS
  62
8
 100
AcDbVertex
 100
AcDb2dVertex
  10
 315.64217494275
  20
 15.438322639640
  30
0.0
   0
VERTEX
   5
E5
 100
AcDbEntity
   8
LEVEL001
   6
CONTINUOUS
  62
8
 100
AcDbVertex
 100
AcDb2dVertex
  10
 330.11828327922
  20
 15.438322639640
  30
0.0
   0
VERTEX
   5
E6
 100
AcDbEntity
   8
LEVEL001
   6
CONTINUOUS
  62
8
 100
AcDbVertex
 100
AcDb2dVertex
  10
 330.11828327922
  20
 15.213322639641
  30
0.0
   0
VERTEX
   5
E7
 100
AcDbEntity
   8
LEVEL001
   6
CONTINUOUS
  62
8
 100
AcDbVertex
 100
AcDb2dVertex
  10
 312.83772987555
  20
 15.213322639641
  30
0.0
   0
VERTEX
   5
E8
 100
AcDbEntity
   8
LEVEL001
   6
CONTINUOUS
  62
8
 100
AcDbVertex
 100
AcDb2dVertex
  10
 313.28453327922
  20
 12.888322639639
  30
0.0
   0
VERTEX
   5
E9
 100
AcDbEntity
   8
LEVEL001
   6
CONTINUOUS
  62
8
 100
AcDbVertex
 100
AcDb2dVertex
  10
 310.67535827922
  20
 12.888322639639
  30
0.0
   0
VERTEX
   5
EA
 100
AcDbEntity
   8
LEVEL001
   6
CONTINUOUS
  62
8
 100
AcDbVertex
 100
AcDb2dVertex
  10
 310.29987389395
  20
 15.213322639641
  30
0.0
   0
VERTEX
   5
EB
 100
AcDbEntity
   8
LEVEL001
   6
CONTINUOUS
  62
8
 100
AcDbVertex
 100
AcDb2dVertex
  10
 309.37579015162
  20
 15.213322639641
  30
0.0
   0
VERTEX
   5
EC
 100
AcDbEntity
   8
LEVEL001
   6
CONTINUOUS
  62
8
 100
AcDbVertex
 100
AcDb2dVertex
  10
 308.75280827922
  20
 12.888322639640
  30
0.0
   0
VERTEX
   5
ED
 100
AcDbEntity
   8
LEVEL001
   6
CONTINUOUS
  62
8
 100
AcDbVertex
 100
AcDb2dVertex
  10
 306.41828327922
  20
 12.888322639640
  30
0.0
   0
VERTEX
   5
EE
 100
AcDbEntity
   8
LEVEL001
   6
CONTINUOUS
  62
8
 100
AcDbVertex
 100
AcDb2dVertex
  10
 307.04126515162
  20
 15.213322639641
  30
0.0
   0
VERTEX
   5
EF
 100
AcDbEntity
   8
LEVEL001
   6
CONTINUOUS
  62
8
 100
AcDbVertex
 100
AcDb2dVertex
  10
 305.89328327922
  20
 15.213322639641
  30
0.0
   0
VERTEX
   5
F0
 100
AcDbEntity
   8
LEVEL001
   6
CONTINUOUS
  62
8
 100
AcDbVertex
 100
AcDb2dVertex
  10
 305.89328327922
  20
 15.438322639640
  30
0.0
   0
VERTEX
   5
F1
 100
AcDbEntity
   8
LEVEL001
   6
CONTINUOUS
  62
8
 100
AcDbVertex
 100
AcDb2dVertex
  10
 307.10155371992
  20
 15.438322639640
  30
0.0
   0
VERTEX
   5
F2
 100
AcDbEntity
   8
LEVEL001
   6
CONTINUOUS
  62
8
 100
AcDbVertex
 100
AcDb2dVertex
  10
 308.58925452741
  20
 20.990497639639
  30
0.0
   0
VERTEX
   5
F3
 100
AcDbEntity
   8
LEVEL001
   6
CONTINUOUS
  62
8
 100
AcDbVertex
 100
AcDb2dVertex
  10
 310.92377952741
  20
 20.990497639639
  30
0.0
   0
VERTEX
   5
F4
 100
AcDbEntity
   8
LEVEL001
   6
CONTINUOUS
  62
8
 100
AcDbVertex
 100
AcDb2dVertex
  10
 309.43607871992
  20
 15.438322639640
  30
0.0
   0
VERTEX
   5
F5
 100
AcDbEntity
   8
LEVEL001
   6
CONTINUOUS
  62
8
 100
AcDbVertex
 100
AcDb2dVertex
  10
 310.26353669538
  20
 15.438322639640
  30
0.0
   0
VERTEX
   5
F6
 100
AcDbEntity
   8
LEVEL001
   6
CONTINUOUS
  62
8
 100
AcDbVertex
 100
AcDb2dVertex
  10
 309.95236188415
  20
 17.365117639639
  30
0.0
   0
SEQEND
   5
F7
 100
AcDbEntity
   8
LEVEL001
   6
CONTINUOUS
  62
8
   0
ENDBLK
   5
F8
 100
AcDbEntity
   8
0
 100
AcDbBlockEnd
   0
BLOCK
   5
F9
 100
AcDbEntity
   8
0
 100
AcDbBlockBegin
   2
*D1
  70
65
  10
0.0
  20
0.0
  30
0.0
   3
*D1
   0
LINE
   5
FA
 100
AcDbEntity
   8
LEVEL001
 100
AcDbLine
   6
CONTINUOUS
  62
2
  10
 89.010330578512
  20
 242.22851000568
  30
0.0
  11
 89.010330578512
  21
 260.24421065119
  31
0.0
   0
LINE
   5
FB
 100
AcDbEntity
   8
LEVEL001
 100
AcDbLine
   6
CONTINUOUS
  62
2
  10
 79.010330578512
  20
 258.80226437631
  30
0.0
  11
 79.010330578512
  21
 256.24421065119
  31
0.0
   0
LINE
   5
FC
 100
AcDbEntity
   8
LEVEL001
 100
AcDbLine
   6
CONTINUOUS
  62
2
  10
 89.010330578512
  20
 258.24421065119
  30
0.0
  11
 79.010330578512
  21
 258.24421065119
  31
0.0
   0
INSERT
   5
FD
 100
AcDbEntity
   8
LEVEL001
   6
CONTINUOUS
  62
2
 100
AcDbBlockReference
   2
_OPEN30
  10
 89.010330578512
  20
 258.24421065119
  30
0.0
  41
 2.0000000000000
  42
 2.0000000000000
  43
 2.0000000000000
  50
0.0
   0
INSERT
   5
FE
 100
AcDbEntity
   8
LEVEL001
   6
CONTINUOUS
  62
2
 100
AcDbBlockReference
   2
_OPEN30
  10
 79.010330578512
  20
 258.24421065119
  30
0.0
  41
 2.0000000000000
  42
 2.0000000000000
  43
 2.0000000000000
  50
 180.00000000000
   0
MTEXT
   5
FF
 100
AcDbEntity
   8
LEVEL001
  62
2
 100
AcDbMText
  10
 84.010330578512
  20
 259.95849636548
  30
0.0
  40
 4.0000000000000
  41
0.0
  71
8
  72
1
   1
\A1;10
   7
GMM001
   0
ENDBLK
   5
100
 100
AcDbEntity
   8
0
 100
AcDbBlockEnd
   0
BLOCK
   5
101
 100
AcDbEntity
   8
0
 100
AcDbBlockBegin
   2
*D2
  70
65
  10
0.0
  20
0.0
  30
0.0
   3
*D2
   0
LINE
   5
102
 100
AcDbEntity
   8
LEVEL001
 100
AcDbLine
   6
CONTINUOUS
  62
2
  10
 79.010330578512
  20
 258.80226437631
  30
0.0
  11
 79.010330578512
  21
 256.24421065119
  31
0.0
   0
LINE
   5
103
 100
AcDbEntity
   8
LEVEL001
 100
AcDbLine
   6
CONTINUOUS
  62
2
  10
 69.010330578512
  20
 242.22851000568
  30
0.0
  11
 69.010330578512
  21
 260.24421065119
  31
0.0
   0
LINE
   5
104
 100
AcDbEntity
   8
LEVEL001
 100
AcDbLine
   6
CONTINUOUS
  62
2
  10
 79.010330578512
  20
 258.24421065119
  30
0.0
  11
 69.010330578512
  21
 258.24421065119
  31
0.0
   0
INSERT
   5
105
 100
AcDbEntity
   8
LEVEL001
   6
CONTINUOUS
  62
2
 100
AcDbBlockReference
   2
_OPEN30
  10
 79.010330578512
  20
 258.24421065119
  30
0.0
  41
 2.0000000000000
  42
 2.0000000000000
  43
 2.0000000000000
  50
0.0
   0
INSERT
   5
106
 100
AcDbEntity
   8
LEVEL001
   6
CONTINUOUS
  62
2
 100
AcDbBlockReference
   2
_OPEN30
  10
 69.010330578512
  20
 258.24421065119
  30
0.0
  41
 2.0000000000000
  42
 2.0000000000000
  43
 2.0000000000000
  50
 180.00000000000
   0
MTEXT
   5
107
 100
AcDbEntity
   8
LEVEL001
  62
2
 100
AcDbMText
  10
 74.010330578512
  20
 259.95849636548
  30
0.0
  40
 4.0000000000000
  41
0.0
  71
8
  72
1
   1
\A1;10
   7
GMM001
   0
ENDBLK
   5
108
 100
AcDbEntity
   8
0
 100
AcDbBlockEnd
   0
BLOCK
   5
109
 100
AcDbEntity
   8
0
 100
AcDbBlockBegin
   2
*D3
  70
65
  10
0.0
  20
0.0
  30
0.0
   3
*D3
   0
LINE
   5
10A
 100
AcDbEntity
   8
LEVEL001
 100
AcDbLine
   6
CONTINUOUS
  62
2
  10
 89.010330578512
  20
 258.24421065119
  30
0.0
  11
 89.010330578512
  21
 267.69059479589
  31
0.0
   0
LINE
   5
10B
 100
AcDbEntity
   8
LEVEL001
 100
AcDbLine
   6
CONTINUOUS
  62
2
  10
 69.010330578512
  20
 258.24421065119
  30
0.0
  11
 69.010330578512
  21
 267.69059479589
  31
0.0
   0
LINE
   5
10C
 100
AcDbEntity
   8
LEVEL001
 100
AcDbLine
   6
CONTINUOUS
  62
2
  10
 89.010330578512
  20
 265.69059479589
  30
0.0
  11
 69.010330578512
  21
 265.69059479589
  31
0.0
   0
INSERT
   5
10D
 100
AcDbEntity
   8
LEVEL001
   6
CONTINUOUS
  62
2
 100
AcDbBlockReference
   2
_OPEN30
  10
 89.010330578512
  20
 265.69059479589
  30
0.0
  41
 2.0000000000000
  42
 2.0000000000000
  43
 2.0000000000000
  50
0.0
   0
INSERT
   5
10E
 100
AcDbEntity
   8
LEVEL001
   6
CONTINUOUS
  62
2
 100
AcDbBlockReference
   2
_OPEN30
  10
 69.010330578512
  20
 265.69059479589
  30
0.0
  41
 2.0000000000000
  42
 2.0000000000000
  43
 2.0000000000000
  50
 180.00000000000
   0
MTEXT
   5
10F
 100
AcDbEntity
   8
LEVEL001
  62
2
 100
AcDbMText
  10
 79.010330578512
  20
 267.40488051018
  30
0.0
  40
 4.0000000000000
  41
0.0
  71
8
  72
1
   1
\A1;20
   7
GMM001
   0
ENDBLK
   5
110
 100
AcDbEntity
   8
0
 100
AcDbBlockEnd
   0
BLOCK
   5
111
 100
AcDbEntity
   8
0
 100
AcDbBlockBegin
   2
*D4
  70
65
  10
0.0
  20
0.0
  30
0.0
   3
*D4
   0
LINE
   5
112
 100
AcDbEntity
   8
LEVEL001
 100
AcDbLine
   6
CONTINUOUS
  62
2
  10
 69.010330578512
  20
 242.22851000568
  30
0.0
  11
 51.688533057851
  21
 242.22851000568
  31
0.0
   0
LINE
   5
113
 100
AcDbEntity
   8
LEVEL001
 100
AcDbLine
   6
CONTINUOUS
  62
2
  10
 61.552685950413
  20
 202.22851000568
  30
0.0
  11
 51.688533057851
  21
 202.22851000568
  31
0.0
   0
LINE
   5
114
 100
AcDbEntity
   8
LEVEL001
 100
AcDbLine
   6
CONTINUOUS
  62
2
  10
 53.688533057851
  20
 242.22851000568
  30
0.0
  11
 53.688533057851
  21
 202.22851000568
  31
0.0
   0
INSERT
   5
115
 100
AcDbEntity
   8
LEVEL001
   6
CONTINUOUS
  62
2
 100
AcDbBlockReference
   2
_OPEN30
  10
 53.688533057851
  20
 242.22851000568
  30
0.0
  41
 2.0000000000000
  42
 2.0000000000000
  43
 2.0000000000000
  50
 90.000000000000
   0
INSERT
   5
116
 100
AcDbEntity
   8
LEVEL001
   6
CONTINUOUS
  62
2
 100
AcDbBlockReference
   2
_OPEN30
  10
 53.688533057851
  20
 202.22851000568
  30
0.0
  41
 2.0000000000000
  42
 2.0000000000000
  43
 2.0000000000000
  50
 270.00000000000
   0
MTEXT
   5
117
 100
AcDbEntity
   8
LEVEL001
  62
2
 100
AcDbMText
  10
 51.974247343566
  20
 222.22851000568
  30
0.0
  40
 4.0000000000000
  41
0.0
  71
8
  72
1
   1
\A1;40
   7
GMM001
  11
0.0
  21
 1.0000000000000
  31
0.0
   0
ENDBLK
   5
118
 100
AcDbEntity
   8
0
 100
AcDbBlockEnd
   0
BLOCK
   5
119
 100
AcDbEntity
   8
0
 100
AcDbBlockBegin
   2
*D5
  70
65
  10
0.0
  20
0.0
  30
0.0
   3
*D5
   0
LINE
   5
11A
 100
AcDbEntity
   8
LEVEL001
 100
AcDbLine
   6
CONTINUOUS
  62
2
  10
 53.688533057851
  20
 242.22851000568
  30
0.0
  11
 43.509814049587
  21
 242.22851000568
  31
0.0
   0
LINE
   5
11B
 100
AcDbEntity
   8
LEVEL001
 100
AcDbLine
   6
CONTINUOUS
  62
2
  10
 82.943181818182
  20
 192.22851000568
  30
0.0
  11
 43.509814049587
  21
 192.22851000568
  31
0.0
   0
LINE
   5
11C
 100
AcDbEntity
   8
LEVEL001
 100
AcDbLine
   6
CONTINUOUS
  62
2
  10
 45.509814049587
  20
 242.22851000568
  30
0.0
  11
 45.509814049587
  21
 192.22851000568
  31
0.0
   0
INSERT
   5
11D
 100
AcDbEntity
   8
LEVEL001
   6
CONTINUOUS
  62
2
 100
AcDbBlockReference
   2
_OPEN30
  10
 45.509814049587
  20
 242.22851000568
  30
0.0
  41
 2.0000000000000
  42
 2.0000000000000
  43
 2.0000000000000
  50
 90.000000000000
   0
INSERT
   5
11E
 100
AcDbEntity
   8
LEVEL001
   6
CONTINUOUS
  62
2
 100
AcDbBlockReference
   2
_OPEN30
  10
 45.509814049587
  20
 192.22851000568
  30
0.0
  41
 2.0000000000000
  42
 2.0000000000000
  43
 2.0000000000000
  50
 270.00000000000
   0
MTEXT
   5
11F
 100
AcDbEntity
   8
LEVEL001
  62
2
 100
AcDbMText
  10
 43.795528335301
  20
 217.22851000568
  30
0.0
  40
 4.0000000000000
  41
0.0
  71
8
  72
1
   1
\A1;50
   7
GMM001
  11
0.0
  21
 1.0000000000000
  31
0.0
   0
ENDBLK
   5
120
 100
AcDbEntity
   8
0
 100
AcDbBlockEnd
   0
BLOCK
   5
121
 100
AcDbEntity
   8
0
 100
AcDbBlockBegin
   2
*D6
  70
65
  10
0.0
  20
0.0
  30
0.0
   3
*D6
   0
LINE
   5
122
 100
AcDbEntity
   8
LEVEL001
 100
AcDbLine
   6
CONTINUOUS
  62
2
  10
 89.010330578512
  20
 106.97064287282
  30
0.0
  11
 89.010330578512
  21
 71.322915600088
  31
0.0
   0
LINE
   5
123
 100
AcDbEntity
   8
LEVEL001
 100
AcDbLine
   6
CONTINUOUS
  62
2
  10
 79.010330578512
  20
 86.766097418270
  30
0.0
  11
 79.010330578512
  21
 71.322915600088
  31
0.0
   0
LINE
   5
124
 100
AcDbEntity
   8
LEVEL001
 100
AcDbLine
   6
CONTINUOUS
  62
2
  10
 89.010330578512
  20
 73.322915600088
  30
0.0
  11
 79.010330578512
  21
 73.322915600088
  31
0.0
   0
INSERT
   5
125
 100
AcDbEntity
   8
LEVEL001
   6
CONTINUOUS
  62
2
 100
AcDbBlockReference
   2
_OPEN30
  10
 89.010330578512
  20
 73.322915600088
  30
0.0
  41
 2.0000000000000
  42
 2.0000000000000
  43
 2.0000000000000
  50
0.0
   0
INSERT
   5
126
 100
AcDbEntity
   8
LEVEL001
   6
CONTINUOUS
  62
2
 100
AcDbBlockReference
   2
_OPEN30
  10
 79.010330578512
  20
 73.322915600088
  30
0.0
  41
 2.0000000000000
  42
 2.0000000000000
  43
 2.0000000000000
  50
 180.00000000000
   0
MTEXT
   5
127
 100
AcDbEntity
   8
LEVEL001
  62
2
 100
AcDbMText
  10
 84.010330578512
  20
 75.037201314373
  30
0.0
  40
 4.0000000000000
  41
0.0
  71
8
  72
1
   1
\A1;10
   7
GMM001
   0
ENDBLK
   5
128
 100
AcDbEntity
   8
0
 100
AcDbBlockEnd
   0
BLOCK
   5
129
 100
AcDbEntity
   8
0
 100
AcDbBlockBegin
   2
*D7
  70
65
  10
0.0
  20
0.0
  30
0.0
   3
*D7
   0
LINE
   5
12A
 100
AcDbEntity
   8
LEVEL001
 100
AcDbLine
   6
CONTINUOUS
  62
2
  10
 79.010330578512
  20
 86.766097418270
  30
0.0
  11
 79.010330578512
  21
 71.322915600088
  31
0.0
   0
LINE
   5
12B
 100
AcDbEntity
   8
LEVEL001
 100
AcDbLine
   6
CONTINUOUS
  62
2
  10
 69.010330578512
  20
 107.08996105463
  30
0.0
  11
 69.010330578512
  21
 71.322915600088
  31
0.0
   0
LINE
   5
12C
 100
AcDbEntity
   8
LEVEL001
 100
AcDbLine
   6
CONTINUOUS
  62
2
  10
 79.010330578512
  20
 73.322915600088
  30
0.0
  11
 69.010330578512
  21
 73.322915600088
  31
0.0
   0
INSERT
   5
12D
 100
AcDbEntity
   8
LEVEL001
   6
CONTINUOUS
  62
2
 100
AcDbBlockReference
   2
_OPEN30
  10
 79.010330578512
  20
 73.322915600088
  30
0.0
  41
 2.0000000000000
  42
 2.0000000000000
  43
 2.0000000000000
  50
0.0
   0
INSERT
   5
12E
 100
AcDbEntity
   8
LEVEL001
   6
CONTINUOUS
  62
2
 100
AcDbBlockReference
   2
_OPEN30
  10
 69.010330578512
  20
 73.322915600088
  30
0.0
  41
 2.0000000000000
  42
 2.0000000000000
  43
 2.0000000000000
  50
 180.00000000000
   0
MTEXT
   5
12F
 100
AcDbEntity
   8
LEVEL001
  62
2
 100
AcDbMText
  10
 74.010330578512
  20
 75.037201314373
  30
0.0
  40
 4.0000000000000
  41
0.0
  71
8
  72
1
   1
\A1;10
   7
GMM001
   0
ENDBLK
   5
130
 100
AcDbEntity
   8
0
 100
AcDbBlockEnd
   0
BLOCK
   5
131
 100
AcDbEntity
   8
0
 100
AcDbBlockBegin
   2
*D8
  70
65
  10
0.0
  20
0.0
  30
0.0
   3
*D8
   0
LINE
   5
132
 100
AcDbEntity
   8
LEVEL001
 100
AcDbLine
   6
CONTINUOUS
  62
2
  10
 69.841840796284
  20
 140.56155196372
  30
0.0
  11
 51.688533057851
  21
 140.56155196372
  31
0.0
   0
LINE
   5
133
 100
AcDbEntity
   8
LEVEL001
 100
AcDbLine
   6
CONTINUOUS
  62
2
  10
 69.841840796284
  20
 104.56155196372
  30
0.0
  11
 51.688533057851
  21
 104.56155196372
  31
0.0
   0
LINE
   5
134
 100
AcDbEntity
   8
LEVEL001
 100
AcDbLine
   6
CONTINUOUS
  62
2
  10
 53.688533057851
  20
 140.56155196372
  30
0.0
  11
 53.688533057851
  21
 104.56155196372
  31
0.0
   0
INSERT
   5
135
 100
AcDbEntity
   8
LEVEL001
   6
CONTINUOUS
  62
2
 100
AcDbBlockReference
   2
_OPEN30
  10
 53.688533057851
  20
 140.56155196372
  30
0.0
  41
 2.0000000000000
  42
 2.0000000000000
  43
 2.0000000000000
  50
 90.000000000000
   0
INSERT
   5
136
 100
AcDbEntity
   8
LEVEL001
   6
CONTINUOUS
  62
2
 100
AcDbBlockReference
   2
_OPEN30
  10
 53.688533057851
  20
 104.56155196372
  30
0.0
  41
 2.0000000000000
  42
 2.0000000000000
  43
 2.0000000000000
  50
 270.00000000000
   0
MTEXT
   5
137
 100
AcDbEntity
   8
LEVEL001
  62
2
 100
AcDbMText
  10
 51.974247343566
  20
 122.56155196372
  30
0.0
  40
 4.0000000000000
  41
0.0
  71
8
  72
1
   1
\A1;36
   7
GMM001
  11
0.0
  21
 1.0000000000000
  31
0.0
   0
ENDBLK
   5
138
 100
AcDbEntity
   8
0
 100
AcDbBlockEnd
   0
BLOCK
   5
139
 100
AcDbEntity
   8
0
 100
AcDbBlockBegin
   2
*D9
  70
65
  10
0.0
  20
0.0
  30
0.0
   3
*D9
   0
LINE
   5
13A
 100
AcDbEntity
   8
LEVEL001
 100
AcDbLine
   6
CONTINUOUS
  62
2
  10
 79.010330578512
  20
 148.56155196372
  30
0.0
  11
 43.509814049587
  21
 148.56155196372
  31
0.0
   0
LINE
   5
13B
 100
AcDbEntity
   8
LEVEL001
 100
AcDbLine
   6
CONTINUOUS
  62
2
  10
 79.010330578512
  20
 96.561551963724
  30
0.0
  11
 43.509814049587
  21
 96.561551963724
  31
0.0
   0
LINE
   5
13C
 100
AcDbEntity
   8
LEVEL001
 100
AcDbLine
   6
CONTINUOUS
  62
2
  10
 45.509814049587
  20
 148.56155196372
  30
0.0
  11
 45.509814049587
  21
 96.561551963724
  31
0.0
   0
INSERT
   5
13D
 100
AcDbEntity
   8
LEVEL001
   6
CONTINUOUS
  62
2
 100
AcDbBlockReference
   2
_OPEN30
  10
 45.509814049587
  20
 148.56155196372
  30
0.0
  41
 2.0000000000000
  42
 2.0000000000000
  43
 2.0000000000000
  50
 90.000000000000
   0
INSERT
   5
13E
 100
AcDbEntity
   8
LEVEL001
   6
CONTINUOUS
  62
2
 100
AcDbBlockReference
   2
_OPEN30
  10
 45.509814049587
  20
 96.561551963724
  30
0.0
  41
 2.0000000000000
  42
 2.0000000000000
  43
 2.0000000000000
  50
 270.00000000000
   0
MTEXT
   5
13F
 100
AcDbEntity
   8
LEVEL001
  62
2
 100
AcDbMText
  10
 43.795528335301
  20
 122.56155196372
  30
0.0
  40
 4.0000000000000
  41
0.0
  71
8
  72
1
   1
\A1;52
   7
GMM001
  11
0.0
  21
 1.0000000000000
  31
0.0
   0
ENDBLK
   5
140
 100
AcDbEntity
   8
0
 100
AcDbBlockEnd
   0
BLOCK
   5
141
 100
AcDbEntity
   8
0
 100
AcDbBlockBegin
   2
*D10
  70
65
  10
0.0
  20
0.0
  30
0.0
   3
*D10
   0
LINE
   5
142
 100
AcDbEntity
   8
LEVEL001
 100
AcDbLine
   6
CONTINUOUS
  62
2
  10
 87.510330578512
  20
 192.22851000568
  30
0.0
  11
 87.510330578512
  21
 179.00910441128
  31
0.0
   0
LINE
   5
143
 100
AcDbEntity
   8
LEVEL001
 100
AcDbLine
   6
CONTINUOUS
  62
2
  10
 79.010330578512
  20
 180.87448902666
  30
0.0
  11
 79.010330578512
  21
 183.00910441128
  31
0.0
   0
LINE
   5
144
 100
AcDbEntity
   8
LEVEL001
 100
AcDbLine
   6
CONTINUOUS
  62
2
  10
 87.510330578512
  20
 181.00910441128
  30
0.0
  11
 79.010330578512
  21
 181.00910441128
  31
0.0
   0
INSERT
   5
145
 100
AcDbEntity
   8
LEVEL001
   6
CONTINUOUS
  62
2
 100
AcDbBlockReference
   2
_OPEN30
  10
 87.510330578512
  20
 181.00910441128
  30
0.0
  41
 2.0000000000000
  42
 2.0000000000000
  43
 2.0000000000000
  50
0.0
   0
INSERT
   5
146
 100
AcDbEntity
   8
LEVEL001
   6
CONTINUOUS
  62
2
 100
AcDbBlockReference
   2
_OPEN30
  10
 79.010330578512
  20
 181.00910441128
  30
0.0
  41
 2.0000000000000
  42
 2.0000000000000
  43
 2.0000000000000
  50
 180.00000000000
   0
MTEXT
   5
147
 100
AcDbEntity
   8
LEVEL001
  62
2
 100
AcDbMText
  10
 83.260330578512
  20
 182.72339012556
  30
0.0
  40
 4.0000000000000
  41
0.0
  71
8
  72
1
   1
\A1;8.5
   7
GMM001
   0
ENDBLK
   5
148
 100
AcDbEntity
   8
0
 100
AcDbBlockEnd
   0
BLOCK
   5
149
 100
AcDbEntity
   8
0
 100
AcDbBlockBegin
   2
*D11
  70
65
  10
0.0
  20
0.0
  30
0.0
   3
*D11
   0
LINE
   5
14A
 100
AcDbEntity
   8
LEVEL001
 100
AcDbLine
   6
CONTINUOUS
  62
2
  10
 79.010330578512
  20
 180.87448902666
  30
0.0
  11
 79.010330578512
  21
 183.00910441128
  31
0.0
   0
LINE
   5
14B
 100
AcDbEntity
   8
LEVEL001
 100
AcDbLine
   6
CONTINUOUS
  62
2
  10
 76.510330578512
  20
 193.25910441128
  30
0.0
  11
 76.510330578512
  21
 179.00910441128
  31
0.0
   0
LINE
   5
14C
 100
AcDbEntity
   8
LEVEL001
 100
AcDbLine
   6
CONTINUOUS
  62
2
  10
 79.010330578512
  20
 181.00910441128
  30
0.0
  11
 76.510330578512
  21
 181.00910441128
  31
0.0
   0
LINE
   5
14D
 100
AcDbEntity
   8
LEVEL001
 100
AcDbLine
   6
CONTINUOUS
  62
2
  10
 76.510330578512
  20
 181.00910441128
  30
0.0
  11
 66.460505403687
  21
 181.00910441128
  31
0.0
   0
INSERT
   5
14E
 100
AcDbEntity
   8
LEVEL001
   6
CONTINUOUS
  62
2
 100
AcDbBlockReference
   2
_OPEN30
  10
 76.510330578512
  20
 181.00910441128
  30
0.0
  41
 2.0000000000000
  42
 2.0000000000000
  43
 2.0000000000000
  50
0.0
   0
LINE
   5
14F
 100
AcDbEntity
   8
LEVEL001
 100
AcDbLine
   6
CONTINUOUS
  62
2
  10
 76.510330578512
  20
 181.00910441128
  30
0.0
  11
 66.460505403687
  21
 181.00910441128
  31
0.0
   0
MTEXT
   5
150
 100
AcDbEntity
   8
LEVEL001
  62
2
 100
AcDbMText
  10
 76.460505403687
  20
 182.75910441128
  30
0.0
  40
 4.0000000000000
  41
0.0
  71
9
  72
1
   1
\A1;2.5
   7
GMM001
   0
ENDBLK
   5
151
 100
AcDbEntity
   8
0
 100
AcDbBlockEnd
   0
BLOCK
   5
152
 100
AcDbEntity
   8
0
 100
AcDbBlockBegin
   2
*D12
  70
65
  10
0.0
  20
0.0
  30
0.0
   3
*D12
   0
LINE
   5
153
 100
AcDbEntity
   8
LEVEL001
 100
AcDbLine
   6
CONTINUOUS
  62
2
  10
 362.81811462963
  20
 100.56155196372
  30
0.0
  11
 350.03594007342
  21
 100.56155196372
  31
0.0
   0
LINE
   5
154
 100
AcDbEntity
   8
LEVEL001
 100
AcDbLine
   6
CONTINUOUS
  62
2
  10
 360.66352824929
  20
 108.56155196372
  30
0.0
  11
 350.03594007342
  21
 108.56155196372
  31
0.0
   0
LINE
   5
155
 100
AcDbEntity
   8
LEVEL001
 100
AcDbLine
   6
CONTINUOUS
  62
2
  10
 352.03594007342
  20
 100.56155196372
  30
0.0
  11
 352.03594007342
  21
 108.56155196372
  31
0.0
   0
INSERT
   5
156
 100
AcDbEntity
   8
LEVEL001
   6
CONTINUOUS
  62
2
 100
AcDbBlockReference
   2
_OPEN30
  10
 352.03594007342
  20
 100.56155196372
  30
0.0
  41
 2.0000000000000
  42
 2.0000000000000
  43
 2.0000000000000
  50
 270.00000000000
   0
INSERT
   5
157
 100
AcDbEntity
   8
LEVEL001
   6
CONTINUOUS
  62
2
 100
AcDbBlockReference
   2
_OPEN30
  10
 352.03594007342
  20
 108.56155196372
  30
0.0
  41
 2.0000000000000
  42
 2.0000000000000
  43
 2.0000000000000
  50
 90.000000000000
   0
MTEXT
   5
158
 100
AcDbEntity
   8
LEVEL001
  62
2
 100
AcDbMText
  10
 350.32165435913
  20
 104.56155196372
  30
0.0
  40
 4.0000000000000
  41
0.0
  71
8
  72
1
   1
\A1;%%c8
   7
GMM001
  11
0.0
  21
 1.0000000000000
  31
0.0
   0
ENDBLK
   5
159
 100
AcDbEntity
   8
0
 100
AcDbBlockEnd
   0
BLOCK
   5
15A
 100
AcDbEntity
   8
0
 100
AcDbBlockBegin
   2
*D13
  70
65
  10
0.0
  20
0.0
  30
0.0
   3
*D13
   0
LINE
   5
15B
 100
AcDbEntity
   8
LEVEL001
 100
AcDbLine
   6
CONTINUOUS
  62
2
  10
 321.83750069339
  20
 113.56155196372
  30
0.0
  11
 308.48476239669
  21
 113.56155196372
  31
0.0
   0
LINE
   5
15C
 100
AcDbEntity
   8
LEVEL001
 100
AcDbLine
   6
CONTINUOUS
  62
2
  10
 321.74980922551
  20
 131.56155196372
  30
0.0
  11
 308.48476239669
  21
 131.56155196372
  31
0.0
   0
LINE
   5
15D
 100
AcDbEntity
   8
LEVEL001
 100
AcDbLine
   6
CONTINUOUS
  62
2
  10
 310.48476239669
  20
 113.56155196372
  30
0.0
  11
 310.48476239669
  21
 131.56155196372
  31
0.0
   0
INSERT
   5
15E
 100
AcDbEntity
   8
LEVEL001
   6
CONTINUOUS
  62
2
 100
AcDbBlockReference
   2
_OPEN30
  10
 310.48476239669
  20
 113.56155196372
  30
0.0
  41
 2.0000000000000
  42
 2.0000000000000
  43
 2.0000000000000
  50
 270.00000000000
   0
INSERT
   5
15F
 100
AcDbEntity
   8
LEVEL001
   6
CONTINUOUS
  62
2
 100
AcDbBlockReference
   2
_OPEN30
  10
 310.48476239669
  20
 131.56155196372
  30
0.0
  41
 2.0000000000000
  42
 2.0000000000000
  43
 2.0000000000000
  50
 90.000000000000
   0
MTEXT
   5
160
 100
AcDbEntity
   8
LEVEL001
  62
2
 100
AcDbMText
  10
 308.77047668241
  20
 122.56155196372
  30
0.0
  40
 4.0000000000000
  41
0.0
  71
8
  72
1
   1
\A1;18
   7
GMM001
  11
0.0
  21
 1.0000000000000
  31
0.0
   0
ENDBLK
   5
161
 100
AcDbEntity
   8
0
 100
AcDbBlockEnd
   0
BLOCK
   5
162
 100
AcDbEntity
   8
0
 100
AcDbBlockBegin
   2
*D14
  70
65
  10
0.0
  20
0.0
  30
0.0
   3
*D14
   0
LINE
   5
163
 100
AcDbEntity
   8
LEVEL001
 100
AcDbLine
   6
CONTINUOUS
  62
2
  10
 370.54131930956
  20
 148.56155196372
  30
0.0
  11
 394.09839876033
  21
 148.56155196372
  31
0.0
   0
LINE
   5
164
 100
AcDbEntity
   8
LEVEL001
 100
AcDbLine
   6
CONTINUOUS
  62
2
  10
 370.54131930956
  20
 96.561551963724
  30
0.0
  11
 394.09839876033
  21
 96.561551963724
  31
0.0
   0
LINE
   5
165
 100
AcDbEntity
   8
LEVEL001
 100
AcDbLine
   6
CONTINUOUS
  62
2
  10
 392.09839876033
  20
 148.56155196372
  30
0.0
  11
 392.09839876033
  21
 96.561551963724
  31
0.0
   0
INSERT
   5
166
 100
AcDbEntity
   8
LEVEL001
   6
CONTINUOUS
  62
2
 100
AcDbBlockReference
   2
_OPEN30
  10
 392.09839876033
  20
 148.56155196372
  30
0.0
  41
 2.0000000000000
  42
 2.0000000000000
  43
 2.0000000000000
  50
 90.000000000000
   0
INSERT
   5
167
 100
AcDbEntity
   8
LEVEL001
   6
CONTINUOUS
  62
2
 100
AcDbBlockReference
   2
_OPEN30
  10
 392.09839876033
  20
 96.561551963724
  30
0.0
  41
 2.0000000000000
  42
 2.0000000000000
  43
 2.0000000000000
  50
 270.00000000000
   0
MTEXT
   5
168
 100
AcDbEntity
   8
LEVEL001
  62
2
 100
AcDbMText
  10
 390.38411304604
  20
 122.56155196372
  30
0.0
  40
 4.0000000000000
  41
0.0
  71
8
  72
1
   1
\A1;52
   7
GMM001
  11
0.0
  21
 1.0000000000000
  31
0.0
   0
ENDBLK
   5
169
 100
AcDbEntity
   8
0
 100
AcDbBlockEnd
   0
BLOCK
   5
16A
 100
AcDbEntity
   8
0
 100
AcDbBlockBegin
   2
*D15
  70
65
  10
0.0
  20
0.0
  30
0.0
   3
*D15
   0
LINE
   5
16B
 100
AcDbEntity
   8
LEVEL001
 100
AcDbLine
   6
CONTINUOUS
  62
2
  10
 365.54131930956
  20
 147.56155196372
  30
0.0
  11
 365.54131930956
  21
 165.06465113728
  31
0.0
   0
LINE
   5
16C
 100
AcDbEntity
   8
LEVEL001
 100
AcDbLine
   6
CONTINUOUS
  62
2
  10
 370.54131930956
  20
 148.56155196372
  30
0.0
  11
 370.54131930956
  21
 165.06465113728
  31
0.0
   0
LINE
   5
16D
 100
AcDbEntity
   8
LEVEL001
 100
AcDbLine
   6
CONTINUOUS
  62
2
  10
 365.54131930956
  20
 163.06465113728
  30
0.0
  11
 370.54131930956
  21
 163.06465113728
  31
0.0
   0
INSERT
   5
16E
 100
AcDbEntity
   8
LEVEL001
   6
CONTINUOUS
  62
2
 100
AcDbBlockReference
   2
_OPEN30
  10
 365.54131930956
  20
 163.06465113728
  30
0.0
  41
 2.0000000000000
  42
 2.0000000000000
  43
 2.0000000000000
  50
 180.00000000000
   0
INSERT
   5
16F
 100
AcDbEntity
   8
LEVEL001
   6
CONTINUOUS
  62
2
 100
AcDbBlockReference
   2
_OPEN30
  10
 370.54131930956
  20
 163.06465113728
  30
0.0
  41
 2.0000000000000
  42
 2.0000000000000
  43
 2.0000000000000
  50
0.0
   0
MTEXT
   5
170
 100
AcDbEntity
   8
LEVEL001
  62
2
 100
AcDbMText
  10
 368.04131930956
  20
 164.77893685156
  30
0.0
  40
 4.0000000000000
  41
0.0
  71
8
  72
1
   1
\A1;5
   7
GMM001
   0
ENDBLK
   5
171
 100
AcDbEntity
   8
0
 100
AcDbBlockEnd
   0
BLOCK
   5
172
 100
AcDbEntity
   8
0
 100
AcDbBlockBegin
   2
*D16
  70
65
  10
0.0
  20
0.0
  30
0.0
   3
*D16
   0
LINE
   5
173
 100
AcDbEntity
   8
LEVEL001
 100
AcDbLine
   6
CONTINUOUS
  62
2
  10
 79.010330578512
  20
 172.68305546023
  30
0.0
  11
 79.010330578512
  21
 176.00938254224
  31
0.0
   0
LINE
   5
174
 100
AcDbEntity
   8
LEVEL001
 100
AcDbLine
   6
CONTINUOUS
  62
2
  10
 283.01033057851
  20
 175.26764700505
  30
0.0
  11
 283.01033057851
  21
 172.00938254224
  31
0.0
   0
LINE
   5
175
 100
AcDbEntity
   8
LEVEL001
 100
AcDbLine
   6
CONTINUOUS
  62
2
  10
 79.010330578512
  20
 174.00938254224
  30
0.0
  11
 283.01033057851
  21
 174.00938254224
  31
0.0
   0
INSERT
   5
176
 100
AcDbEntity
   8
LEVEL001
   6
CONTINUOUS
  62
2
 100
AcDbBlockReference
   2
_OPEN30
  10
 79.010330578512
  20
 174.00938254224
  30
0.0
  41
 2.0000000000000
  42
 2.0000000000000
  43
 2.0000000000000
  50
 180.00000000000
   0
INSERT
   5
177
 100
AcDbEntity
   8
LEVEL001
   6
CONTINUOUS
  62
2
 100
AcDbBlockReference
   2
_OPEN30
  10
 283.01033057851
  20
 174.00938254224
  30
0.0
  41
 2.0000000000000
  42
 2.0000000000000
  43
 2.0000000000000
  50
0.0
   0
MTEXT
   5
178
 100
AcDbEntity
   8
LEVEL001
  62
2
 100
AcDbMText
  10
 181.01033057851
  20
 175.72366825652
  30
0.0
  40
 4.0000000000000
  41
0.0
  71
8
  72
1
   1
\A1;L
   7
GMM001
   0
ENDBLK
   5
179
 100
AcDbEntity
   8
0
 100
AcDbBlockEnd
   0
BLOCK
   5
17A
 100
AcDbEntity
   8
0
 100
AcDbBlockBegin
   2
*D17
  70
65
  10
0.0
  20
0.0
  30
0.0
   3
*D17
   0
LINE
   5
17B
 100
AcDbEntity
   8
LEVEL001
 100
AcDbLine
   6
CONTINUOUS
  62
2
  10
 69.010330578512
  20
 73.322915600088
  30
0.0
  11
 69.010330578512
  21
 61.857006509179
  31
0.0
   0
LINE
   5
17C
 100
AcDbEntity
   8
LEVEL001
 100
AcDbLine
   6
CONTINUOUS
  62
2
  10
 89.010330578512
  20
 73.322915600088
  30
0.0
  11
 89.010330578512
  21
 61.857006509179
  31
0.0
   0
LINE
   5
17D
 100
AcDbEntity
   8
LEVEL001
 100
AcDbLine
   6
CONTINUOUS
  62
2
  10
 69.010330578512
  20
 63.857006509179
  30
0.0
  11
 89.010330578512
  21
 63.857006509179
  31
0.0
   0
INSERT
   5
17E
 100
AcDbEntity
   8
LEVEL001
   6
CONTINUOUS
  62
2
 100
AcDbBlockReference
   2
_OPEN30
  10
 69.010330578512
  20
 63.857006509179
  30
0.0
  41
 2.0000000000000
  42
 2.0000000000000
  43
 2.0000000000000
  50
 180.00000000000
   0
INSERT
   5
17F
 100
AcDbEntity
   8
LEVEL001
   6
CONTINUOUS
  62
2
 100
AcDbBlockReference
   2
_OPEN30
  10
 89.010330578512
  20
 63.857006509179
  30
0.0
  41
 2.0000000000000
  42
 2.0000000000000
  43
 2.0000000000000
  50
0.0
   0
MTEXT
   5
180
 100
AcDbEntity
   8
LEVEL001
  62
2
 100
AcDbMText
  10
 79.010330578512
  20
 65.571292223464
  30
0.0
  40
 4.0000000000000
  41
0.0
  71
8
  72
1
   1
\A1;20
   7
GMM001
   0
ENDBLK
   5
181
 100
AcDbEntity
   8
0
 100
AcDbBlockEnd
   0
BLOCK
   5
182
 100
AcDbEntity
   8
0
 100
AcDbBlockBegin
   2
*D18
  70
65
  10
0.0
  20
0.0
  30
0.0
   3
*D18
   0
LINE
   5
183
 100
AcDbEntity
   8
LEVEL001
 100
AcDbLine
   6
CONTINUOUS
  62
2
  10
 208.65311420307
  20
 128.91155196372
  30
0.0
  11
 205.26430502086
  21
 128.91155196372
  31
0.0
   0
LINE
   5
184
 100
AcDbEntity
   8
LEVEL001
 100
AcDbLine
   6
CONTINUOUS
  62
2
  10
 209.03188034367
  20
 116.21155196372
  30
0.0
  11
 205.26430502086
  21
 116.21155196372
  31
0.0
   0
LINE
   5
185
 100
AcDbEntity
   8
LEVEL001
 100
AcDbLine
   6
CONTINUOUS
  62
2
  10
 207.26430502086
  20
 150.38763198923
  30
0.0
  11
 207.26430502086
  21
 122.56155196372
  31
0.0
   0
LINE
   5
186
 100
AcDbEntity
   8
LEVEL001
 100
AcDbLine
   6
CONTINUOUS
  62
2
  10
 207.26430502086
  20
 112.46155196372
  30
0.0
  11
 207.26430502086
  21
 122.56155196372
  31
0.0
   0
INSERT
   5
187
 100
AcDbEntity
   8
LEVEL001
   6
CONTINUOUS
  62
2
 100
AcDbBlockReference
   2
_OPEN30
  10
 207.26430502086
  20
 128.91155196372
  30
0.0
  41
 3.0000000000000
  42
 3.0000000000000
  43
 3.0000000000000
  50
 270.00000000000
   0
INSERT
   5
188
 100
AcDbEntity
   8
LEVEL001
   6
CONTINUOUS
  62
2
 100
AcDbBlockReference
   2
_OPEN30
  10
 207.26430502086
  20
 116.21155196372
  30
0.0
  41
 3.0000000000000
  42
 3.0000000000000
  43
 3.0000000000000
  50
 90.000000000000
   0
MTEXT
   5
189
 100
AcDbEntity
   8
LEVEL001
  62
2
 100
AcDbMText
  10
 205.55001902086
  20
 141.38763198923
  30
0.0
  40
 4.0000000000000
  41
0.0
  71
8
  72
1
   1
\A1;%%c12.7
   7
GMM001
  11
0.0
  21
 1.0000000000000
  31
0.0
   0
ENDBLK
   5
18A
 100
AcDbEntity
   8
0
 100
AcDbBlockEnd
   0
BLOCK
   5
18B
 100
AcDbEntity
   8
0
 100
AcDbBlockBegin
   2
*D19
  70
65
  10
0.0
  20
0.0
  30
0.0
   3
*D19
   0
LINE
   5
18C
 100
AcDbEntity
   8
LEVEL001
 100
AcDbLine
   6
CONTINUOUS
  62
2
  10
 371.49524884886
  20
 106.81155196372
  30
0.0
  11
 383.22881036831
  21
 106.81155196372
  31
0.0
   0
LINE
   5
18D
 100
AcDbEntity
   8
LEVEL001
 100
AcDbLine
   6
CONTINUOUS
  62
2
  10
 371.49524884886
  20
 102.31155196372
  30
0.0
  11
 383.22881036831
  21
 102.31155196372
  31
0.0
   0
LINE
   5
18E
 100
AcDbEntity
   8
LEVEL001
 100
AcDbLine
   6
CONTINUOUS
  62
2
  10
 381.22881036831
  20
 122.33534440753
  30
0.0
  11
 381.22881036831
  21
 104.56155196372
  31
0.0
   0
LINE
   5
18F
 100
AcDbEntity
   8
LEVEL001
 100
AcDbLine
   6
CONTINUOUS
  62
2
  10
 381.22881036831
  20
 98.561551963724
  30
0.0
  11
 381.22881036831
  21
 104.56155196372
  31
0.0
   0
INSERT
   5
190
 100
AcDbEntity
   8
LEVEL001
   6
CONTINUOUS
  62
2
 100
AcDbBlockReference
   2
_OPEN30
  10
 381.22881036831
  20
 106.81155196372
  30
0.0
  41
 3.0000000000000
  42
 3.0000000000000
  43
 3.0000000000000
  50
 270.00000000000
   0
INSERT
   5
191
 100
AcDbEntity
   8
LEVEL001
   6
CONTINUOUS
  62
2
 100
AcDbBlockReference
   2
_OPEN30
  10
 381.22881036831
  20
 102.31155196372
  30
0.0
  41
 3.0000000000000
  42
 3.0000000000000
  43
 3.0000000000000
  50
 90.000000000000
   0
MTEXT
   5
192
 100
AcDbEntity
   8
LEVEL001
  62
2
 100
AcDbMText
  10
 379.51452436831
  20
 115.33534440753
  30
0.0
  40
 4.0000000000000
  41
0.0
  71
8
  72
1
   1
\A1;%%c4.5
   7
GMM001
  11
0.0
  21
 1.0000000000000
  31
0.0
   0
ENDBLK
   5
193
 100
AcDbEntity
   8
0
 100
AcDbBlockEnd
   0
ENDSEC
   0
SECTION
   2
ENTITIES
   0
TEXT
   5
194
 100
AcDbEntity
   8
LEVEL001
  62
7
 100
AcDbText
  10
 353.27226812741
  20
 27.025876073756
  30
0.0
  40
 5.0000000000000
   1
組立図
  41
 0.80000000000000
   7
STANDARD
 100
AcDbText
   0
TEXT
   5
195
 100
AcDbEntity
   8
LEVEL001
  62
7
 100
AcDbText
  10
 350.32926072160
  20
 34.516872932779
  30
0.0
  40
 5.0000000000000
   1
表１　　　　　　　　　
  41
 0.80000000000000
   7
STANDARD
 100
AcDbText
   0
LINE
   5
196
 100
AcDbEntity
   8
LEVEL001
 100
AcDbLine
   6
CONTINUOUS
  62
8
  10
 392.00000000000
  20
 21.730973451327
  30
0.0
  11
 402.00000000000
  21
 21.730973451327
  31
0.0
   0
LINE
   5
197
 100
AcDbEntity
   8
LEVEL001
 100
AcDbLine
   6
CONTINUOUS
  62
8
  10
 392.00000000000
  20
 16.730973451327
  30
0.0
  11
 402.00000000000
  21
 16.730973451327
  31
0.0
   0
LINE
   5
198
 100
AcDbEntity
   8
LEVEL001
 100
AcDbLine
   6
CONTINUOUS
  62
8
  10
 397.00000000000
  20
 21.730973451327
  30
0.0
  11
 397.00000000000
  21
 11.730973451327
  31
0.0
   0
LINE
   5
199
 100
AcDbEntity
   8
LEVEL001
 100
AcDbLine
   6
CONTINUOUS
  62
8
  10
 341.00000000000
  20
 11.730973451327
  30
0.0
  11
 341.00000000000
  21
 26.730973451327
  31
0.0
   0
LINE
   5
19A
 100
AcDbEntity
   8
LEVEL001
 100
AcDbLine
   6
CONTINUOUS
  62
8
  10
 295.69695514066
  20
 26.730973451327
  30
0.0
  11
 295.69695514066
  21
 11.730973451327
  31
0.0
   0
LINE
   5
19B
 100
AcDbEntity
   8
LEVEL001
 100
AcDbLine
   6
CONTINUOUS
  62
8
  10
 279.41198317335
  20
 26.730973451327
  30
0.0
  11
 279.41198317335
  21
 11.730973451327
  31
0.0
   0
POLYLINE
   5
19C
 100
AcDbEntity
   8
LEVEL001
   6
CONTINUOUS
  62
8
 100
AcDb2dPolyline
  66
1
  10
0.0
  20
0.0
  30
0.0
  70
0
   0
VERTEX
   5
19D
 100
AcDbEntity
   8
LEVEL001
   6
CONTINUOUS
  62
8
 100
AcDbVertex
 100
AcDb2dVertex
  10
 287.41014305184
  20
 18.099392093948
  30
0.0
   0
VERTEX
   5
19E
 100
AcDbEntity
   8
LEVEL001
   6
CONTINUOUS
  62
8
 100
AcDbVertex
 100
AcDb2dVertex
  10
 287.41014305184
  20
 15.108793693827
  30
0.0
   0
VERTEX
   5
19F
 100
AcDbEntity
   8
LEVEL001
   6
CONTINUOUS
  62
8
 100
AcDbVertex
 100
AcDb2dVertex
  10
 293.43848405007
  20
 14.311395729041
  30
0.0
   0
VERTEX
   5
1A0
 100
AcDbEntity
   8
LEVEL001
   6
CONTINUOUS
  62
8
 100
AcDbVertex
 100
AcDb2dVertex
  10
 293.43848405007
  20
 18.896790058734
  30
0.0
   0
VERTEX
   5
1A1
 100
AcDbEntity
   8
LEVEL001
   6
CONTINUOUS
  62
8
 100
AcDbVertex
 100
AcDb2dVertex
  10
 287.41014305184
  20
 18.099392093948
  30
0.0
   0
SEQEND
   5
1A2
 100
AcDbEntity
   8
LEVEL001
   6
CONTINUOUS
  62
8
   0
CIRCLE
   5
1A3
 100
AcDbEntity
   8
LEVEL001
 100
AcDbCircle
   6
CONTINUOUS
  62
8
  10
 283.85876904087
  20
 16.604092893887
  30
0.0
  40
 1.4952992000607
   0
CIRCLE
   5
1A4
 100
AcDbEntity
   8
LEVEL001
 100
AcDbCircle
   6
CONTINUOUS
  62
8
  10
 283.85876904087
  20
 16.604092893887
  30
0.0
  40
 2.2926971648466
   0
LINE
   5
1A5
 100
AcDbEntity
   8
LEVEL001
 100
AcDbLine
   6
DASHDOT
  62
8
  10
 283.85876904087
  20
 19.384310585121
  30
0.0
  11
 283.85876904087
  21
 13.846577426414
  31
0.0
   0
LINE
   5
1A6
 100
AcDbEntity
   8
LEVEL001
 100
AcDbLine
   6
DASHDOT
  62
8
  10
 281.06714872566
  20
 16.604092893887
  30
0.0
  11
 294.11171244742
  21
 16.604092893887
  31
0.0
   0
LINE
   5
1A7
 100
AcDbEntity
   8
LEVEL001
 100
AcDbLine
   6
CONTINUOUS
  62
8
  10
 227.41198317335
  20
 41.730973451327
  30
0.0
  11
 402.00000000000
  21
 41.730973451327
  31
0.0
   0
LINE
   5
1A8
 100
AcDbEntity
   8
LEVEL001
 100
AcDbLine
   6
CONTINUOUS
  62
8
  10
 279.41198317335
  20
 26.730973451327
  30
0.0
  11
 279.41198317335
  21
 41.730973451327
  31
0.0
   0
LINE
   5
1A9
 100
AcDbEntity
   8
LEVEL001
 100
AcDbLine
   6
CONTINUOUS
  62
8
  10
 392.00000000000
  20
 41.730973451327
  30
0.0
  11
 392.00000000000
  21
 11.730973451327
  31
0.0
   0
LINE
   5
1AA
 100
AcDbEntity
   8
LEVEL001
 100
AcDbLine
   6
CONTINUOUS
  62
8
  10
 341.00000000000
  20
 41.730973451327
  30
0.0
  11
 341.00000000000
  21
 26.730973451327
  31
0.0
   0
LINE
   5
1AB
 100
AcDbEntity
   8
LEVEL001
 100
AcDbLine
   6
CONTINUOUS
  62
8
  10
 341.00000000000
  20
 34.230973451327
  30
0.0
  11
 391.82654662566
  21
 34.230973451327
  31
0.0
   0
LINE
   5
1AC
 100
AcDbEntity
   8
LEVEL001
 100
AcDbLine
   6
CONTINUOUS
  62
8
  10
 399.58032447968
  20
 35.954657902664
  30
0.0
  11
 394.37930700766
  21
 28.939952286555
  31
0.0
   0
LINE
   5
1AD
 100
AcDbEntity
   8
LEVEL001
 100
AcDbLine
   6
CONTINUOUS
  62
8
  10
 279.41198317335
  20
 26.730973451327
  30
0.0
  11
 402.00000000000
  21
 26.730973451327
  31
0.0
   0
LINE
   5
1AE
 100
AcDbEntity
   8
LEVEL001
 100
AcDbLine
   6
CONTINUOUS
  62
8
  10
 262.07864984001
  20
 33.730973451327
  30
0.0
  11
 262.07864984001
  21
 11.730973451327
  31
0.0
   0
LINE
   5
1AF
 100
AcDbEntity
   8
LEVEL001
 100
AcDbLine
   6
CONTINUOUS
  62
8
  10
 279.41198317335
  20
 33.730973451327
  30
0.0
  11
 227.41198317335
  21
 33.730973451327
  31
0.0
   0
LINE
   5
1B0
 100
AcDbEntity
   8
LEVEL001
 100
AcDbLine
   6
CONTINUOUS
  62
8
  10
 244.74531650668
  20
 33.730973451327
  30
0.0
  11
 244.74531650668
  21
 11.730973451327
  31
0.0
   0
TEXT
   5
1B1
 100
AcDbEntity
   8
LEVEL001
  62
2
 100
AcDbText
  10
 392.91826757962
  20
 22.329692721881
  30
0.0
  40
 2.5000000000000
   1
ＲＥＶ.
   7
STANDARD
  72
1
  11
 397.29326757962
  21
 23.996359388548
  31
0.0
 100
AcDbText
  73
2
   0
TEXT
   5
1B2
 100
AcDbEntity
   8
LEVEL001
  62
2
 100
AcDbText
  10
 277.93991800322
  20
 23.162653716889
  30
0.0
  40
 2.5000000000000
   1
ＰＲＯＪＥＣＴＩＯＮ
  41
 0.76000000000000
   7
STANDARD
  72
1
  11
 287.43991800322
  21
 24.829320383555
  31
0.0
 100
AcDbText
  73
2
   0
TEXT
   5
1B3
 100
AcDbEntity
   8
LEVEL001
  62
2
 100
AcDbText
  10
 280.72327826531
  20
 38.680933584017
  30
0.0
  40
 2.5000000000000
   1
ＴＩＴＬＥ
  41
 0.76000000000000
   7
STANDARD
 100
AcDbText
   0
TEXT
   5
1B4
 100
AcDbEntity
   8
LEVEL001
  62
2
 100
AcDbText
  10
 391.55881737529
  20
 37.887476788181
  30
0.0
  40
 2.5000000000000
   1
ＳＣＡＬＥ
  41
 0.88000000000000
   7
STANDARD
  72
1
  11
 397.05881737529
  21
 39.554143454848
  31
0.0
 100
AcDbText
  73
2
   0
TEXT
   5
1B5
 100
AcDbEntity
   8
LEVEL001
  62
2
 100
AcDbText
  10
 341.59989527462
  20
 38.680933584017
  30
0.0
  40
 2.5000000000000
   1
ＰＴ.ＮＯ
  41
 0.76000000000000
   7
STANDARD
 100
AcDbText
   0
TEXT
   5
1B6
 100
AcDbEntity
   8
LEVEL001
  62
2
 100
AcDbText
  10
 341.59989527462
  20
 30.871314998174
  30
0.0
  40
 2.5000000000000
   1
ＰＴ.ＮＡＭＥ
  41
 0.76000000000000
   7
STANDARD
 100
AcDbText
   0
TEXT
   5
1B7
 100
AcDbEntity
   8
LEVEL001
  62
2
 100
AcDbText
  10
 392.73996445112
  20
 32.274198735804
  30
0.0
  40
 4.0000000000000
   1
１ 　
   7
STANDARD
 100
AcDbText
   0
TEXT
   5
1B8
 100
AcDbEntity
   8
LEVEL001
  62
2
 100
AcDbText
  10
 397.35511870750
  20
 28.266141232757
  30
0.0
  40
 4.0000000000000
   1
１ 　
   7
STANDARD
 100
AcDbText
   0
TEXT
   5
1B9
 100
AcDbEntity
   8
LEVEL001
  62
2
 100
AcDbText
  10
 265.61640595996
  20
 29.714839993956
  30
0.0
  40
 3.0000000000000
   1
ＤＷＮ．
   7
STANDARD
  72
1
  11
 271.61640595996
  21
 31.714839993956
  31
0.0
 100
AcDbText
  73
2
   0
TEXT
   5
1BA
 100
AcDbEntity
   8
LEVEL001
  62
2
 100
AcDbText
  10
 246.53332187543
  20
 29.714839993956
  30
0.0
  40
 3.0000000000000
   1
ＣＨＫＤ．
   7
STANDARD
  72
1
  11
 254.03332187543
  21
 31.714839993956
  31
0.0
 100
AcDbText
  73
2
   0
TEXT
   5
1BB
 100
AcDbEntity
   8
LEVEL001
  62
2
 100
AcDbText
  10
 229.47773031344
  20
 29.714839993956
  30
0.0
  40
 3.0000000000000
   1
ＡＰＰＤ．
   7
STANDARD
  72
1
  11
 236.97773031344
  21
 31.714839993956
  31
0.0
 100
AcDbText
  73
2
   0
POLYLINE
   5
1BC
 100
AcDbEntity
   8
LEVEL001
   6
CONTINUOUS
  62
8
 100
AcDb2dPolyline
  66
1
  10
0.0
  20
0.0
  30
0.0
  70
0
   0
VERTEX
   5
1BD
 100
AcDbEntity
   8
LEVEL001
   6
CONTINUOUS
  62
8
 100
AcDbVertex
 100
AcDb2dVertex
  10
 25.500000000000
  20
 11.730973451327
  30
0.0
   0
VERTEX
   5
1BE
 100
AcDbEntity
   8
LEVEL001
   6
CONTINUOUS
  62
8
 100
AcDbVertex
 100
AcDb2dVertex
  10
 25.500000000000
  20
 281.73097345133
  30
0.0
   0
VERTEX
   5
1BF
 100
AcDbEntity
   8
LEVEL001
   6
CONTINUOUS
  62
8
 100
AcDbVertex
 100
AcDb2dVertex
  10
 402.00000000000
  20
 281.73097345133
  30
0.0
   0
VERTEX
   5
1C0
 100
AcDbEntity
   8
LEVEL001
   6
CONTINUOUS
  62
8
 100
AcDbVertex
 100
AcDb2dVertex
  10
 402.00000000000
  20
 11.730973451327
  30
0.0
   0
VERTEX
   5
1C1
 100
AcDbEntity
   8
LEVEL001
   6
CONTINUOUS
  62
8
 100
AcDbVertex
 100
AcDb2dVertex
  10
 25.500000000000
  20
 11.730973451327
  30
0.0
   0
SEQEND
   5
1C2
 100
AcDbEntity
   8
LEVEL001
   6
CONTINUOUS
  62
8
   0
TEXT
   5
1C3
 100
AcDbEntity
   8
LEVEL001
  62
2
 100
AcDbText
  10
 228.44990547429
  20
 38.117660776115
  30
0.0
  40
 2.5000000000000
   1
ＤＡＴＥ．
   7
STANDARD
  72
1
  11
 234.69990547429
  21
 39.784327442782
  31
0.0
 100
AcDbText
  73
2
   0
TEXT
   5
1C4
 100
AcDbEntity
   8
LEVEL001
  62
2
 100
AcDbText
  10
 255.74099535138
  20
 34.654689038999
  30
0.0
  40
 3.8000000000000
   1
／
  41
 0.78947368421053
   7
STANDARD
 100
AcDbText
   0
TEXT
   5
1C5
 100
AcDbEntity
   8
LEVEL001
  62
2
 100
AcDbText
  10
 268.02853963722
  20
 34.654689038999
  30
0.0
  40
 3.8000000000000
   1
／
  41
 0.78947368421053
   7
STANDARD
 100
AcDbText
   0
TEXT
   5
1C6
 100
AcDbEntity
   8
LEVEL001
  62
2
 100
AcDbText
  10
 341.91273375713
  20
 23.494558923172
  30
0.0
  40
 2.5000000000000
   1
ＫＵＲＩＫＩ　ＷＯＲＫＳ　ＤＷＧ．ＮＯ．
  41
 0.80000000000000
   7
STANDARD
 100
AcDbText
   0
TEXT
   5
1C7
 100
AcDbEntity
   8
LEVEL001
  62
2
 100
AcDbText
  10
 297.69114317809
  20
 22.482761193768
  30
0.0
  40
 3.7000000000000
   1
Kuriki Manufacturer Co.,Ltd.
  41
 0.54054054054054
   7
STANDARD
 100
AcDbText
   0
TEXT
   5
1C8
 100
AcDbEntity
   8
LEVEL001
  62
2
 100
AcDbText
  10
 247.28828967161
  20
 33.905012683483
  30
0.0
  40
 5.0000000000000
   1
０２
  41
 0.80000000000000
   7
STANDARD
 100
AcDbText
   0
LINE
   5
1C9
 100
AcDbEntity
   8
LEVEL001
 100
AcDbLine
   6
CONTINUOUS
  62
8
  10
 310.67535827922
  20
 12.888322639639
  30
0.0
  11
 313.28453327922
  21
 12.888322639639
  31
0.0
   0
POLYLINE
   5
1CA
 100
AcDbEntity
   8
LEVEL001
   6
CONTINUOUS
  62
8
 100
AcDb2dPolyline
  66
1
  10
0.0
  20
0.0
  30
0.0
  70
0
   0
VERTEX
   5
1CB
 100
AcDbEntity
   8
LEVEL001
   6
CONTINUOUS
  62
8
 100
AcDbVertex
 100
AcDb2dVertex
  10
 306.19328327922
  20
 15.438322639640
  30
0.0
   0
VERTEX
   5
1CC
 100
AcDbEntity
   8
LEVEL001
   6
CONTINUOUS
  62
8
 100
AcDbVertex
 100
AcDb2dVertex
  10
 305.89328327922
  20
 15.438322639640
  30
0.0
   0
VERTEX
   5
1CD
 100
AcDbEntity
   8
LEVEL001
   6
CONTINUOUS
  62
8
 100
AcDbVertex
 100
AcDb2dVertex
  10
 305.89328327922
  20
 15.213322639641
  30
0.0
   0
VERTEX
   5
1CE
 100
AcDbEntity
   8
LEVEL001
   6
CONTINUOUS
  62
8
 100
AcDbVertex
 100
AcDb2dVertex
  10
 306.19328327922
  20
 15.213322639641
  30
0.0
   0
SEQEND
   5
1CF
 100
AcDbEntity
   8
LEVEL001
   6
CONTINUOUS
  62
8
   0
LINE
   5
1D0
 100
AcDbEntity
   8
LEVEL001
 100
AcDbLine
   6
CONTINUOUS
  62
8
  10
 318.76328327922
  20
 19.863322639641
  30
0.0
  11
 317.57760810271
  21
 15.438322639641
  31
0.0
   0
LINE
   5
1D1
 100
AcDbEntity
   8
LEVEL001
 100
AcDbLine
   6
CONTINUOUS
  62
8
  10
 322.54328327922
  20
 19.863322639641
  30
0.0
  11
 321.35760810271
  21
 15.438322639641
  31
0.0
   0
LINE
   5
1D2
 100
AcDbEntity
   8
LEVEL001
 100
AcDbLine
   6
CONTINUOUS
  62
8
  10
 323.81828327922
  20
 19.863322639641
  30
0.0
  11
 322.63260810271
  21
 15.438322639641
  31
0.0
   0
LINE
   5
1D3
 100
AcDbEntity
   8
LEVEL001
 100
AcDbLine
   6
CONTINUOUS
  62
8
  10
 324.41828327922
  20
 19.863322639641
  30
0.0
  11
 323.23260810271
  21
 15.438322639641
  31
0.0
   0
LINE
   5
1D4
 100
AcDbEntity
   8
LEVEL001
 100
AcDbLine
   6
CONTINUOUS
  62
8
  10
 325.69328327922
  20
 19.863322639641
  30
0.0
  11
 324.50760810271
  21
 15.438322639641
  31
0.0
   0
LINE
   5
1D5
 100
AcDbEntity
   8
LEVEL001
 100
AcDbLine
   6
CONTINUOUS
  62
8
  10
 328.31828327922
  20
 19.863322639641
  30
0.0
  11
 327.13260810271
  21
 15.438322639641
  31
0.0
   0
LINE
   5
1D6
 100
AcDbEntity
   8
LEVEL001
 100
AcDbLine
   6
CONTINUOUS
  62
8
  10
 329.59328327922
  20
 19.863322639641
  30
0.0
  11
 328.40760810271
  21
 15.438322639641
  31
0.0
   0
LINE
   5
1D7
 100
AcDbEntity
   8
LEVEL001
 100
AcDbLine
   6
CONTINUOUS
  62
8
  10
 315.11828327922
  20
 19.863322639640
  30
0.0
  11
 316.39328327922
  21
 19.863322639641
  31
0.0
   0
LINE
   5
1D8
 100
AcDbEntity
   8
LEVEL001
 100
AcDbLine
   6
CONTINUOUS
  62
8
  10
 316.91828327922
  20
 19.863322639641
  30
0.0
  11
 318.19328327922
  21
 19.863322639641
  31
0.0
   0
LINE
   5
1D9
 100
AcDbEntity
   8
LEVEL001
 100
AcDbLine
   6
CONTINUOUS
  62
8
  10
 322.54328327922
  20
 19.863322639641
  30
0.0
  11
 323.81828327922
  21
 19.863322639641
  31
0.0
   0
LINE
   5
1DA
 100
AcDbEntity
   8
LEVEL001
 100
AcDbLine
   6
CONTINUOUS
  62
8
  10
 324.41828327922
  20
 19.863322639641
  30
0.0
  11
 325.69328327922
  21
 19.863322639641
  31
0.0
   0
LINE
   5
1DB
 100
AcDbEntity
   8
LEVEL001
 100
AcDbLine
   6
CONTINUOUS
  62
8
  10
 328.31828327922
  20
 19.863322639641
  30
0.0
  11
 329.59328327922
  21
 19.863322639641
  31
0.0
   0
LINE
   5
1DC
 100
AcDbEntity
   8
LEVEL001
 100
AcDbLine
   6
CONTINUOUS
  62
8
  10
 317.57760810271
  20
 15.438322639641
  30
0.0
  11
 318.85260810271
  21
 15.438322639641
  31
0.0
   0
LINE
   5
1DD
 100
AcDbEntity
   8
LEVEL001
 100
AcDbLine
   6
CONTINUOUS
  62
8
  10
 321.35760810271
  20
 15.438322639641
  30
0.0
  11
 322.63260810271
  21
 15.438322639641
  31
0.0
   0
LINE
   5
1DE
 100
AcDbEntity
   8
LEVEL001
 100
AcDbLine
   6
CONTINUOUS
  62
8
  10
 323.23260810271
  20
 15.438322639641
  30
0.0
  11
 324.54759097368
  21
 15.438322639641
  31
0.0
   0
LINE
   5
1DF
 100
AcDbEntity
   8
LEVEL001
 100
AcDbLine
   6
CONTINUOUS
  62
8
  10
 327.13260810271
  20
 15.438322639641
  30
0.0
  11
 328.40760810271
  21
 15.438322639641
  31
0.0
   0
LINE
   5
1E0
 100
AcDbEntity
   8
LEVEL001
 100
AcDbLine
   6
CONTINUOUS
  62
8
  10
 319.69664805887
  20
 18.588322639641
  30
0.0
  11
 318.85260810271
  21
 15.438322639641
  31
0.0
   0
LINE
   5
1E1
 100
AcDbEntity
   8
LEVEL001
 100
AcDbLine
   6
CONTINUOUS
  62
8
  10
 326.81828327922
  20
 19.863322639641
  30
0.0
  11
 325.16274387821
  21
 17.883322639640
  31
0.0
   0
LINE
   5
1E2
 100
AcDbEntity
   8
LEVEL001
 100
AcDbLine
   6
CONTINUOUS
  62
8
  10
 328.16828327922
  20
 19.863322639641
  30
0.0
  11
 326.51274387821
  21
 17.883322639640
  31
0.0
   0
LINE
   5
1E3
 100
AcDbEntity
   8
LEVEL001
 100
AcDbLine
   6
CONTINUOUS
  62
8
  10
 326.81828327922
  20
 19.863322639641
  30
0.0
  11
 328.16828327922
  21
 19.863322639641
  31
0.0
   0
LINE
   5
1E4
 100
AcDbEntity
   8
LEVEL001
 100
AcDbLine
   6
CONTINUOUS
  62
8
  10
 326.51274387821
  20
 17.883322639640
  30
0.0
  11
 326.98260810271
  21
 15.438322639640
  31
0.0
   0
LINE
   5
1E5
 100
AcDbEntity
   8
LEVEL001
 100
AcDbLine
   6
CONTINUOUS
  62
8
  10
 325.16274387821
  20
 17.883322639640
  30
0.0
  11
 325.55760810271
  21
 15.438322639640
  31
0.0
   0
LINE
   5
1E6
 100
AcDbEntity
   8
LEVEL001
 100
AcDbLine
   6
CONTINUOUS
  62
8
  10
 325.55760810271
  20
 15.438322639640
  30
0.0
  11
 326.98260810271
  21
 15.438322639640
  31
0.0
   0
LINE
   5
1E7
 100
AcDbEntity
   8
LEVEL001
 100
AcDbLine
   6
CONTINUOUS
  62
8
  10
 319.62515411498
  20
 15.438322639640
  30
0.0
  11
 321.05015411498
  21
 15.438322639640
  31
0.0
   0
LINE
   5
1E8
 100
AcDbEntity
   8
LEVEL001
 100
AcDbLine
   6
CONTINUOUS
  62
8
  10
 319.41924332306
  20
 16.713322639641
  30
0.0
  11
 319.62515411498
  21
 15.438322639640
  31
0.0
   0
LINE
   5
1E9
 100
AcDbEntity
   8
LEVEL001
 100
AcDbLine
   6
CONTINUOUS
  62
8
  10
 319.73274387821
  20
 17.883322639640
  30
0.0
  11
 319.41924332306
  21
 16.713322639641
  31
0.0
   0
LINE
   5
1EA
 100
AcDbEntity
   8
LEVEL001
 100
AcDbLine
   6
CONTINUOUS
  62
8
  10
 308.58925452741
  20
 20.990497639639
  30
0.0
  11
 310.92377952741
  21
 20.990497639639
  31
0.0
   0
LINE
   5
1EB
 100
AcDbEntity
   8
LEVEL001
 100
AcDbLine
   6
CONTINUOUS
  62
8
  10
 312.98365452741
  20
 20.990497639639
  30
0.0
  11
 309.95236188415
  21
 17.365117639639
  31
0.0
   0
LINE
   5
1EC
 100
AcDbEntity
   8
LEVEL001
 100
AcDbLine
   6
CONTINUOUS
  62
8
  10
 315.45550452741
  20
 20.990497639639
  30
0.0
  11
 312.42421188415
  21
 17.365117639639
  31
0.0
   0
LINE
   5
1ED
 100
AcDbEntity
   8
LEVEL001
 100
AcDbLine
   6
CONTINUOUS
  62
8
  10
 312.98365452741
  20
 20.990497639639
  30
0.0
  11
 315.45550452741
  21
 20.990497639639
  31
0.0
   0
LINE
   5
1EE
 100
AcDbEntity
   8
LEVEL001
 100
AcDbLine
   6
CONTINUOUS
  62
8
  10
 306.41828327922
  20
 12.888322639640
  30
0.0
  11
 308.82601691596
  21
 12.888322639640
  31
0.0
   0
LINE
   5
1EF
 100
AcDbEntity
   8
LEVEL001
 100
AcDbLine
   6
CONTINUOUS
  62
8
  10
 318.76328327922
  20
 19.863322639641
  30
0.0
  11
 320.51148269989
  21
 19.863322639641
  31
0.0
   0
LINE
   5
1F0
 100
AcDbEntity
   8
LEVEL001
 100
AcDbLine
   6
CONTINUOUS
  62
8
  10
 320.73602164885
  20
 17.072952048836
  30
0.0
  11
 321.05015411498
  21
 15.438322639640
  31
0.0
   0
ARC
   5
1F1
 100
AcDbEntity
   8
LEVEL001
   6
CONTINUOUS
  62
8
 100
AcDbCircle
  10
 320.20249553644
  20
 18.474637262344
  30
0.0
  40
 1.4997905021646
 100
AcDbArc
  50
 290.83842144360
  51
 358.29082922063
   0
ARC
   5
1F2
 100
AcDbEntity
   8
LEVEL001
   6
CONTINUOUS
  62
8
 100
AcDbCircle
  10
 320.40274450549
  20
 18.558134039000
  30
0.0
  40
 1.3051886006409
 100
AcDbArc
  50
 354.36180963061
  51
 90.000000000082
   0
LINE
   5
1F3
 100
AcDbEntity
   8
LEVEL001
 100
AcDbLine
   6
CONTINUOUS
  62
8
  10
 319.69664805887
  20
 18.588322639641
  30
0.0
  11
 320.07164805887
  21
 18.588322639641
  31
0.0
   0
ARC
   5
1F4
 100
AcDbEntity
   8
LEVEL001
   6
CONTINUOUS
  62
8
 100
AcDbCircle
  10
 320.07164805887
  20
 18.288322639631
  30
0.0
  40
 0.30000000000000
 100
AcDbArc
  50
 0.18360706065152E-8
  51
 90.000000000000
   0
LINE
   5
1F5
 100
AcDbEntity
   8
LEVEL001
 100
AcDbLine
   6
CONTINUOUS
  62
8
  10
 320.37164805887
  20
 18.288322639641
  30
0.0
  11
 320.37164805887
  21
 18.228322639641
  31
0.0
   0
ARC
   5
1F6
 100
AcDbEntity
   8
LEVEL001
   6
CONTINUOUS
  62
8
 100
AcDbCircle
  10
 320.02664805888
  20
 18.228322639640
  30
0.0
  40
 0.34500000000000
 100
AcDbArc
  50
 269.99999999840
  51
 0.47201275274060E-11
   0
LINE
   5
1F7
 100
AcDbEntity
   8
LEVEL001
 100
AcDbLine
   6
CONTINUOUS
  62
8
  10
 320.02664805887
  20
 17.883322639640
  30
0.0
  11
 319.73274387821
  21
 17.883322639640
  31
0.0
   0
LINE
   5
1F8
 100
AcDbEntity
   8
LEVEL001
 100
AcDbLine
   6
CONTINUOUS
  62
8
  10
 318.19328327922
  20
 19.863322639641
  30
0.0
  11
 317.31861731108
  21
 16.599024806876
  31
0.0
   0
ARC
   5
1F9
 100
AcDbEntity
   8
LEVEL001
   6
CONTINUOUS
  62
8
 100
AcDbCircle
  10
 315.60251464636
  20
 17.286628371667
  30
0.0
  40
 1.8487311914286
 100
AcDbArc
  50
 268.77075588819
  51
 338.16513925632
   0
LINE
   5
1FA
 100
AcDbEntity
   8
LEVEL001
 100
AcDbLine
   6
CONTINUOUS
  62
8
  10
 315.11828327922
  20
 19.863322639640
  30
0.0
  11
 314.34470916633
  21
 16.976304746903
  31
0.0
   0
ARC
   5
1FB
 100
AcDbEntity
   8
LEVEL001
   6
CONTINUOUS
  62
8
 100
AcDbCircle
  10
 315.65866926284
  20
 16.763610971125
  30
0.0
  40
 1.3310634009983
 100
AcDbArc
  50
 170.80515514276
  51
 264.66082673521
   0
LINE
   5
1FC
 100
AcDbEntity
   8
LEVEL001
 100
AcDbLine
   6
CONTINUOUS
  62
8
  10
 316.39328327922
  20
 19.863322639641
  30
0.0
  11
 315.60489774824
  21
 16.921027782082
  31
0.0
   0
ARC
   5
1FD
 100
AcDbEntity
   8
LEVEL001
   6
CONTINUOUS
  62
8
 100
AcDbCircle
  10
 315.76427550961
  20
 16.878322639641
  30
0.0
  40
 0.16500000000000
 100
AcDbArc
  50
 165.00000000256
  51
 269.99999999011
   0
LINE
   5
1FE
 100
AcDbEntity
   8
LEVEL001
 100
AcDbLine
   6
CONTINUOUS
  62
8
  10
 315.76427550958
  20
 16.713322639641
  30
0.0
  11
 315.86706503631
  21
 16.713322639641
  31
0.0
   0
ARC
   5
1FF
 100
AcDbEntity
   8
LEVEL001
   6
CONTINUOUS
  62
8
 100
AcDbCircle
  10
 315.86706503630
  20
 16.983322639620
  30
0.0
  40
 0.27000000000000
 100
AcDbArc
  50
 270.00000000113
  51
 345.00000000440
   0
LINE
   5
200
 100
AcDbEntity
   8
LEVEL001
 100
AcDbLine
   6
CONTINUOUS
  62
8
  10
 316.91828327922
  20
 19.863322639641
  30
0.0
  11
 316.12786500941
  21
 16.913441497463
  31
0.0
   0
LINE
   5
201
 100
AcDbEntity
   8
LEVEL001
 100
AcDbLine
   6
CONTINUOUS
  62
8
  10
 309.95236188415
  20
 17.365117639639
  30
0.0
  11
 310.26353669538
  21
 15.438322639640
  31
0.0
   0
LINE
   5
202
 100
AcDbEntity
   8
LEVEL001
 100
AcDbLine
   6
CONTINUOUS
  62
8
  10
 310.29987389395
  20
 15.213322639641
  30
0.0
  11
 310.67535827922
  21
 12.888322639639
  31
0.0
   0
POLYLINE
   5
203
 100
AcDbEntity
   8
LEVEL001
   6
CONTINUOUS
  62
8
 100
AcDb2dPolyline
  66
1
  10
0.0
  20
0.0
  30
0.0
  70
0
   0
VERTEX
   5
204
 100
AcDbEntity
   8
LEVEL001
   6
CONTINUOUS
  62
8
 100
AcDbVertex
 100
AcDb2dVertex
  10
 312.83772987555
  20
 15.213322639641
  30
0.0
   0
VERTEX
   5
205
 100
AcDbEntity
   8
LEVEL001
   6
CONTINUOUS
  62
8
 100
AcDbVertex
 100
AcDb2dVertex
  10
 330.11828327922
  20
 15.213322639641
  30
0.0
   0
VERTEX
   5
206
 100
AcDbEntity
   8
LEVEL001
   6
CONTINUOUS
  62
8
 100
AcDbVertex
 100
AcDb2dVertex
  10
 330.11828327922
  20
 15.438322639640
  30
0.0
   0
VERTEX
   5
207
 100
AcDbEntity
   8
LEVEL001
   6
CONTINUOUS
  62
8
 100
AcDbVertex
 100
AcDb2dVertex
  10
 312.79449083648
  20
 15.438322639640
  30
0.0
   0
SEQEND
   5
208
 100
AcDbEntity
   8
LEVEL001
   6
CONTINUOUS
  62
8
   0
LINE
   5
209
 100
AcDbEntity
   8
LEVEL001
 100
AcDbLine
   6
CONTINUOUS
  62
8
  10
 312.42421188415
  20
 17.365117639639
  30
0.0
  11
 312.79449083648
  21
 15.438322639640
  31
0.0
   0
LINE
   5
20A
 100
AcDbEntity
   8
LEVEL001
 100
AcDbLine
   6
CONTINUOUS
  62
8
  10
 312.83772987555
  20
 15.213322639641
  30
0.0
  11
 313.28453327922
  21
 12.888322639639
  31
0.0
   0
LINE
   5
20B
 100
AcDbEntity
   8
LEVEL001
 100
AcDbLine
   6
CONTINUOUS
  62
8
  10
 310.92377952741
  20
 20.990497639639
  30
0.0
  11
 309.43607871992
  21
 15.438322639640
  31
0.0
   0
LINE
   5
20C
 100
AcDbEntity
   8
LEVEL001
 100
AcDbLine
   6
CONTINUOUS
  62
8
  10
 309.37579015162
  20
 15.213322639641
  30
0.0
  11
 308.75280827922
  21
 12.888322639640
  31
0.0
   0
LINE
   5
20D
 100
AcDbEntity
   8
LEVEL001
 100
AcDbLine
   6
CONTINUOUS
  62
8
  10
 308.58925452741
  20
 20.990497639639
  30
0.0
  11
 307.10155371992
  21
 15.438322639640
  31
0.0
   0
LINE
   5
20E
 100
AcDbEntity
   8
LEVEL001
 100
AcDbLine
   6
CONTINUOUS
  62
8
  10
 307.04126515162
  20
 15.213322639641
  30
0.0
  11
 306.41828327922
  21
 12.888322639640
  31
0.0
   0
LINE
   5
20F
 100
AcDbEntity
   8
LEVEL001
 100
AcDbLine
   6
CONTINUOUS
  62
8
  10
 310.26353669538
  20
 15.438322639640
  30
0.0
  11
 309.43607871992
  21
 15.438322639640
  31
0.0
   0
LINE
   5
210
 100
AcDbEntity
   8
LEVEL001
 100
AcDbLine
   6
CONTINUOUS
  62
8
  10
 307.10155371992
  20
 15.438322639640
  30
0.0
  11
 306.19328327922
  21
 15.438322639640
  31
0.0
   0
LINE
   5
211
 100
AcDbEntity
   8
LEVEL001
 100
AcDbLine
   6
CONTINUOUS
  62
8
  10
 306.19328327922
  20
 15.213322639641
  30
0.0
  11
 307.04126515162
  21
 15.213322639641
  31
0.0
   0
LINE
   5
212
 100
AcDbEntity
   8
LEVEL001
 100
AcDbLine
   6
CONTINUOUS
  62
8
  10
 309.37579015162
  20
 15.213322639641
  30
0.0
  11
 310.29987389395
  21
 15.213322639641
  31
0.0
   0
INSERT
   5
213
 100
AcDbEntity
   8
LEVEL001
 100
AcDbBlockReference
   2
BLOCK001
  10
0.0
  20
0.0
  30
0.0
   0
INSERT
   5
214
 100
AcDbEntity
   8
LEVEL001
 100
AcDbBlockReference
   2
BLOCK002
  10
0.0
  20
0.0
  30
0.0
   0
TEXT
   5
215
 100
AcDbEntity
   8
LEVEL001
  62
7
 100
AcDbText
  10
 343.01329241905
  20
 11.451820250633
  30
0.0
  40
 11.000000000000
   1
Ｋ３-１００１７８
  41
 0.50000000000000
   7
STANDARD
 100
AcDbText
   0
TEXT
   5
216
 100
AcDbEntity
   8
LEVEL001
  62
2
 100
AcDbText
  10
 259.95249960181
  20
 33.905012683483
  30
0.0
  40
 5.0000000000000
   1
０７
  41
 0.80000000000000
   7
STANDARD
 100
AcDbText
   0
TEXT
   5
217
 100
AcDbEntity
   8
LEVEL001
  62
2
 100
AcDbText
  10
 271.01706252867
  20
 33.905012683483
  30
0.0
  40
 5.0000000000000
   1
２４
  41
 0.80000000000000
   7
STANDARD
 100
AcDbText
   0
LINE
   5
218
 100
AcDbEntity
   8
LEVEL001
 100
AcDbLine
   6
DASHDOT
  62
2
  10
 79.010330578512
  20
 262.75123727841
  30
0.0
  11
 79.010330578512
  21
 194.22851000568
  31
0.0
   0
ELLIPSE
   5
219
 100
AcDbEntity
   8
LEVEL001
   6
CONTINUOUS
  62
2
 100
AcDbEllipse
  10
 79.010330578512
  20
 233.85176175393
  30
0.0
  11
 4.0000000000000
  21
0.0
  31
0.0
  40
 0.35496764587974
  41
0.0
  42
 6.2831853071796
   0
LINE
   5
21A
 100
AcDbEntity
   8
LEVEL001
 100
AcDbLine
   6
DASHDOT
  62
2
  10
 79.010330578512
  20
 194.72851000568
  30
0.0
  11
 79.010330578512
  21
 172.68305546023
  31
0.0
   0
DIMENSION
   5
21B
 100
AcDbEntity
   8
LEVEL001
   6
CONTINUOUS
  62
2
 100
AcDbDimension
   2
*D1
  10
 79.010330578512
  20
 258.24421065119
  30
0.0
  11
 84.010330578512
  21
 258.24421065119
  31
0.0
  70
0
   3
GMM001
 100
AcDbAlignedDimension
  13
 89.010330578512
  23
 242.22851000568
  33
0.0
  14
 79.010330578512
  24
 258.80226437631
  34
0.0
  50
 180.00000000000
 100
AcDbRotatedDimension
   0
DIMENSION
   5
21C
 100
AcDbEntity
   8
LEVEL001
   6
CONTINUOUS
  62
2
 100
AcDbDimension
   2
*D2
  10
 69.010330578512
  20
 258.24421065119
  30
0.0
  11
 74.010330578512
  21
 258.24421065119
  31
0.0
  70
0
   3
GMM002
 100
AcDbAlignedDimension
  13
 79.010330578512
  23
 258.80226437631
  33
0.0
  14
 69.010330578512
  24
 242.22851000568
  34
0.0
  50
 180.00000000000
 100
AcDbRotatedDimension
   0
DIMENSION
   5
21D
 100
AcDbEntity
   8
LEVEL001
   6
CONTINUOUS
  62
2
 100
AcDbDimension
   2
*D3
  10
 69.010330578512
  20
 265.69059479589
  30
0.0
  11
 79.010330578512
  21
 265.69059479589
  31
0.0
  70
0
   3
GMM002
 100
AcDbAlignedDimension
  13
 89.010330578512
  23
 258.24421065119
  33
0.0
  14
 69.010330578512
  24
 258.24421065119
  34
0.0
  50
 180.00000000000
 100
AcDbRotatedDimension
   0
LINE
   5
21E
 100
AcDbEntity
   8
LEVEL001
 100
AcDbLine
   6
CONTINUOUS
  62
7
  10
 89.010330578512
  20
 242.22851000568
  30
0.0
  11
 69.010330578512
  21
 242.22851000568
  31
0.0
   0
ARC
   5
21F
 100
AcDbEntity
   8
LEVEL001
   6
CONTINUOUS
  62
7
 100
AcDbCircle
  10
 80.488717484264
  20
 197.22851000568
  30
0.0
  40
 5.0000000000000
 100
AcDbArc
  50
 192.59832830318
  51
 270.00000000000
   0
ARC
   5
220
 100
AcDbEntity
   8
LEVEL001
   6
CONTINUOUS
  62
7
 100
AcDbCircle
  10
 368.38603971458
  20
 261.57236637609
  30
0.0
  40
 300.00000000000
 100
AcDbArc
  50
 183.69696921450
  51
 192.59832830317
   0
LINE
   5
221
 100
AcDbEntity
   8
LEVEL001
 100
AcDbLine
   6
CONTINUOUS
  62
7
  10
 89.010330578512
  20
 242.22851000568
  30
0.0
  11
 87.568531387966
  21
 194.16853698747
  31
0.0
   0
LINE
   5
222
 100
AcDbEntity
   8
LEVEL001
 100
AcDbLine
   6
CONTINUOUS
  62
7
  10
 85.569430780921
  20
 192.22851000568
  30
0.0
  11
 80.488717484264
  21
 192.22851000568
  31
0.0
   0
ARC
   5
223
 100
AcDbEntity
   8
LEVEL001
   6
CONTINUOUS
  62
7
 100
AcDbCircle
  10
 85.569430780921
  20
 194.22851000568
  30
0.0
  40
 2.0000000000000
 100
AcDbArc
  50
 270.00000000001
  51
 358.28164199835
   0
POINT
   5
224
 100
AcDbEntity
   8
LEVEL001
 100
AcDbPoint
  62
7
  10
 87.510330578512
  20
 192.22851000568
  30
0.0
   0
LINE
   5
225
 100
AcDbEntity
   8
LEVEL001
 100
AcDbLine
   6
CONTINUOUS
  62
7
  10
 88.901343432753
  20
 239.19351536383
  30
0.0
  11
 89.010330578512
  21
 242.22851000568
  31
0.0
   0
ARC
   5
226
 100
AcDbEntity
   8
LEVEL001
   6
CONTINUOUS
  62
7
 100
AcDbCircle
  10
 86.901649612429
  20
 239.22851000568
  30
0.0
  40
 2.0000000000000
 100
AcDbArc
  50
 270.00000000000
  51
 358.99742619625
   0
POINT
   5
227
 100
AcDbEntity
   8
LEVEL001
 100
AcDbPoint
  62
7
  10
 88.866955838986
  20
 237.22851000568
  30
0.0
   0
LINE
   5
228
 100
AcDbEntity
   8
LEVEL001
 100
AcDbLine
   6
CONTINUOUS
  62
7
  10
 69.010330578512
  20
 242.22851000568
  30
0.0
  11
 69.211632115684
  21
 239.14358666747
  31
0.0
   0
ARC
   5
229
 100
AcDbEntity
   8
LEVEL001
   6
CONTINUOUS
  62
7
 100
AcDbCircle
  10
 71.209828308912
  20
 239.22851000568
  30
0.0
  40
 2.0000000000000
 100
AcDbArc
  50
 182.43360610072
  51
 269.99999999998
   0
POINT
   5
22A
 100
AcDbEntity
   8
LEVEL001
 100
AcDbPoint
  62
7
  10
 69.293022873810
  20
 237.22851000568
  30
0.0
   0
LINE
   5
22B
 100
AcDbEntity
   8
LEVEL001
 100
AcDbLine
   6
CONTINUOUS
  62
7
  10
 71.209828308911
  20
 237.22851000568
  30
0.0
  11
 86.901649612429
  21
 237.22851000568
  31
0.0
   0
LINE
   5
22C
 100
AcDbEntity
   8
LEVEL001
 100
AcDbLine
   6
CONTINUOUS
  62
7
  10
 79.010330578512
  20
 195.82851000568
  30
0.0
  11
 79.010330578512
  21
 197.82851000568
  31
0.0
   0
LINE
   5
22D
 100
AcDbEntity
   8
LEVEL001
 100
AcDbLine
   6
DASHDOT
  62
2
  10
 61.552685950413
  20
 202.22851000568
  30
0.0
  11
 295.90444214876
  21
 202.22851000568
  31
0.0
   0
LINE
   5
22E
 100
AcDbEntity
   8
LEVEL001
 100
AcDbLine
   6
CONTINUOUS
  62
7
  10
 88.000830578512
  20
 208.57851000568
  30
0.0
  11
 179.01033057851
  21
 208.57851000568
  31
0.0
   0
LINE
   5
22F
 100
AcDbEntity
   8
LEVEL001
 100
AcDbLine
   6
CONTINUOUS
  62
7
  10
 183.01033057851
  20
 208.57851000568
  30
0.0
  11
 274.01983057851
  21
 208.57851000568
  31
0.0
   0
LINE
   5
230
 100
AcDbEntity
   8
LEVEL001
 100
AcDbLine
   6
CONTINUOUS
  62
7
  10
 88.000830578512
  20
 195.87851000568
  30
0.0
  11
 179.01033057851
  21
 195.87851000568
  31
0.0
   0
LINE
   5
231
 100
AcDbEntity
   8
LEVEL001
 100
AcDbLine
   6
CONTINUOUS
  62
7
  10
 183.01033057851
  20
 195.87851000568
  30
0.0
  11
 274.01983057851
  21
 195.87851000568
  31
0.0
   0
DIMENSION
   5
232
 100
AcDbEntity
   8
LEVEL001
   6
CONTINUOUS
  62
2
 100
AcDbDimension
   2
*D4
  10
 53.688533057851
  20
 202.22851000568
  30
0.0
  11
 53.688533057851
  21
 222.22851000568
  31
0.0
  70
0
   3
GMM002
 100
AcDbAlignedDimension
  13
 69.010330578512
  23
 242.22851000568
  33
0.0
  14
 61.552685950413
  24
 202.22851000568
  34
0.0
  50
 270.00000000000
 100
AcDbRotatedDimension
   0
DIMENSION
   5
233
 100
AcDbEntity
   8
LEVEL001
   6
CONTINUOUS
  62
2
 100
AcDbDimension
   2
*D5
  10
 45.509814049587
  20
 192.22851000568
  30
0.0
  11
 45.509814049587
  21
 217.22851000568
  31
0.0
  70
0
   3
GMM002
 100
AcDbAlignedDimension
  13
 53.688533057851
  23
 242.22851000568
  33
0.0
  14
 82.943181818182
  24
 192.22851000568
  34
0.0
  50
 270.00000000000
 100
AcDbRotatedDimension
   0
LINE
   5
234
 100
AcDbEntity
   8
LEVEL001
 100
AcDbLine
   6
DASHDOT
  62
2
  10
 79.010330578512
  20
 86.766097418270
  30
0.0
  11
 79.010330578512
  21
 158.83427923645
  31
0.0
   0
CIRCLE
   5
235
 100
AcDbEntity
   8
LEVEL001
 100
AcDbCircle
   6
CONTINUOUS
  62
7
  10
 79.010330578512
  20
 104.56155196372
  30
0.0
  40
 4.0000000000000
   0
CIRCLE
   5
236
 100
AcDbEntity
   8
LEVEL001
 100
AcDbCircle
   6
CONTINUOUS
  62
7
  10
 79.010330578512
  20
 104.56155196372
  30
0.0
  40
 2.2500000000000
   0
POINT
   5
237
 100
AcDbEntity
   8
LEVEL001
 100
AcDbPoint
  62
7
  10
 76.010330578512
  20
 114.56155196372
  30
0.0
   0
CIRCLE
   5
238
 100
AcDbEntity
   8
LEVEL001
 100
AcDbCircle
   6
CONTINUOUS
  62
7
  10
 79.010330578512
  20
 140.56155196372
  30
0.0
  40
 4.0000000000000
   0
CIRCLE
   5
239
 100
AcDbEntity
   8
LEVEL001
 100
AcDbCircle
   6
CONTINUOUS
  62
7
  10
 79.010330578512
  20
 140.56155196372
  30
0.0
  40
 2.2500000000000
   0
POINT
   5
23A
 100
AcDbEntity
   8
LEVEL001
 100
AcDbPoint
  62
7
  10
 87.010330578512
  20
 131.56155196372
  30
0.0
   0
POINT
   5
23B
 100
AcDbEntity
   8
LEVEL001
 100
AcDbPoint
  62
7
  10
 76.010330578512
  20
 130.56155196372
  30
0.0
   0
LINE
   5
23C
 100
AcDbEntity
   8
LEVEL001
 100
AcDbLine
   6
DASHDOT
  62
2
  10
 88.010330578512
  20
 104.56155196372
  30
0.0
  11
 69.055785123967
  21
 104.56155196372
  31
0.0
   0
LINE
   5
23D
 100
AcDbEntity
   8
LEVEL001
 100
AcDbLine
   6
DASHDOT
  62
2
  10
 88.010330578512
  20
 140.56155196372
  30
0.0
  11
 69.055785123967
  21
 140.56155196372
  31
0.0
   0
DIMENSION
   5
23E
 100
AcDbEntity
   8
LEVEL001
   6
CONTINUOUS
  62
2
 100
AcDbDimension
   2
*D6
  10
 79.010330578512
  20
 73.322915600088
  30
0.0
  11
 84.010330578512
  21
 73.322915600088
  31
0.0
  70
0
   3
GMM001
 100
AcDbAlignedDimension
  13
 89.010330578512
  23
 106.97064287282
  33
0.0
  14
 79.010330578512
  24
 86.766097418270
  34
0.0
  50
 180.00000000000
 100
AcDbRotatedDimension
   0
DIMENSION
   5
23F
 100
AcDbEntity
   8
LEVEL001
   6
CONTINUOUS
  62
2
 100
AcDbDimension
   2
*D7
  10
 69.010330578512
  20
 73.322915600088
  30
0.0
  11
 74.010330578512
  21
 73.322915600088
  31
0.0
  70
0
   3
GMM002
 100
AcDbAlignedDimension
  13
 79.010330578512
  23
 86.766097418270
  33
0.0
  14
 69.010330578512
  24
 107.08996105463
  34
0.0
  50
 180.00000000000
 100
AcDbRotatedDimension
   0
ARC
   5
240
 100
AcDbEntity
   8
LEVEL001
   6
CONTINUOUS
  62
7
 100
AcDbCircle
  10
 85.510330578512
  20
 115.75161760321
  30
0.0
  40
 2.0000000000000
 100
AcDbArc
  50
 264.80557109227
  51
0.0
   0
ARC
   5
241
 100
AcDbEntity
   8
LEVEL001
   6
CONTINUOUS
  62
7
 100
AcDbCircle
  10
 85.510330578512
  20
 129.37148632424
  30
0.0
  40
 2.0000000000000
 100
AcDbArc
  50
0.0
  51
 95.194428907737
   0
LINE
   5
242
 100
AcDbEntity
   8
LEVEL001
 100
AcDbLine
   6
CONTINUOUS
  62
7
  10
 85.329259086427
  20
 131.36327273717
  30
0.0
  11
 77.510330578512
  21
 131.36327273717
  31
0.0
   0
LINE
   5
243
 100
AcDbEntity
   8
LEVEL001
 100
AcDbLine
   6
CONTINUOUS
  62
7
  10
 87.510330578512
  20
 122.56155196372
  30
0.0
  11
 87.510330578512
  21
 115.75161760321
  31
0.0
   0
POINT
   5
244
 100
AcDbEntity
   8
LEVEL001
 100
AcDbPoint
  62
7
  10
 87.510330578512
  20
 113.56155196372
  30
0.0
   0
LINE
   5
245
 100
AcDbEntity
   8
LEVEL001
 100
AcDbLine
   6
CONTINUOUS
  62
7
  10
 87.510330578512
  20
 122.56155196372
  30
0.0
  11
 87.510330578512
  21
 129.37148632424
  31
0.0
   0
ARC
   5
246
 100
AcDbEntity
   8
LEVEL001
   6
CONTINUOUS
  62
7
 100
AcDbCircle
  10
 77.510330578512
  20
 136.55469122697
  30
0.0
  40
 5.1914184897952
 100
AcDbArc
  50
 193.27468361435
  51
 270.00000000000
   0
POINT
   5
247
 100
AcDbEntity
   8
LEVEL001
 100
AcDbPoint
  62
7
  10
 76.010330578512
  20
 114.56155196372
  30
0.0
   0
ARC
   5
248
 100
AcDbEntity
   8
LEVEL001
   6
CONTINUOUS
  62
7
 100
AcDbCircle
  10
 77.510330578512
  20
 108.56841270048
  30
0.0
  40
 5.1914184897952
 100
AcDbArc
  50
 89.999999999999
  51
 166.72531638565
   0
LINE
   5
249
 100
AcDbEntity
   8
LEVEL001
 100
AcDbLine
   6
CONTINUOUS
  62
7
  10
 85.329259086427
  20
 113.75983119028
  30
0.0
  11
 77.510330578512
  21
 113.75983119028
  31
0.0
   0
ARC
   5
24A
 100
AcDbEntity
   8
LEVEL001
   6
CONTINUOUS
  62
7
 100
AcDbCircle
  10
 79.010330578512
  20
 48.561551963724
  30
0.0
  40
 100.00000000000
 100
AcDbArc
  50
 86.173497563931
  51
 93.826502436069
   0
ARC
   5
24B
 100
AcDbEntity
   8
LEVEL001
   6
CONTINUOUS
  62
7
 100
AcDbCircle
  10
 85.550402828423
  20
 146.34308117536
  30
0.0
  40
 2.0000000000000
 100
AcDbArc
  50
 6.9620626910846
  51
 90.000000000000
   0
ARC
   5
24C
 100
AcDbEntity
   8
LEVEL001
   6
CONTINUOUS
  62
7
 100
AcDbCircle
  10
 72.470258328602
  20
 146.34308117536
  30
0.0
  40
 2.0000000000000
 100
AcDbArc
  50
 90.000000000012
  51
 173.03793730892
   0
ARC
   5
24D
 100
AcDbEntity
   8
LEVEL001
   6
CONTINUOUS
  62
7
 100
AcDbCircle
  10
 269.01033057851
  20
 122.34308117536
  30
0.0
  40
 200.00000000000
 100
AcDbArc
  50
 173.03793730892
  51
 180.00000000000
   0
ARC
   5
24E
 100
AcDbEntity
   8
LEVEL001
   6
CONTINUOUS
  62
7
 100
AcDbCircle
  10
 79.010330578513
  20
 196.56155196372
  30
0.0
  40
 100.00000000000
 100
AcDbArc
  50
 266.17349756393
  51
 273.82650243607
   0
ARC
   5
24F
 100
AcDbEntity
   8
LEVEL001
   6
CONTINUOUS
  62
7
 100
AcDbCircle
  10
 85.550402828423
  20
 98.780022752088
  30
0.0
  40
 2.0000000000000
 100
AcDbArc
  50
 270.00000000000
  51
 353.03793730892
   0
ARC
   5
250
 100
AcDbEntity
   8
LEVEL001
   6
CONTINUOUS
  62
7
 100
AcDbCircle
  10
 72.470258328602
  20
 98.780022752088
  30
0.0
  40
 2.0000000000000
 100
AcDbArc
  50
 186.96206269108
  51
 270.00000000000
   0
ARC
   5
251
 100
AcDbEntity
   8
LEVEL001
   6
CONTINUOUS
  62
7
 100
AcDbCircle
  10
 269.01033057851
  20
 122.78002275209
  30
0.0
  40
 200.00000000000
 100
AcDbArc
  50
 180.00000000000
  51
 186.96206269108
   0
LINE
   5
252
 100
AcDbEntity
   8
LEVEL001
 100
AcDbLine
   6
DASHDOT
  62
2
  10
 61.552685950413
  20
 122.56155196372
  30
0.0
  11
 295.90444214876
  21
 122.56155196372
  31
0.0
   0
LINE
   5
253
 100
AcDbEntity
   8
LEVEL001
 100
AcDbLine
   6
CONTINUOUS
  62
7
  10
 88.000830578512
  20
 128.91155196372
  30
0.0
  11
 179.01033057851
  21
 128.91155196372
  31
0.0
   0
LINE
   5
254
 100
AcDbEntity
   8
LEVEL001
 100
AcDbLine
   6
CONTINUOUS
  62
7
  10
 183.01033057851
  20
 128.91155196372
  30
0.0
  11
 274.01983057851
  21
 128.91155196372
  31
0.0
   0
LINE
   5
255
 100
AcDbEntity
   8
LEVEL001
 100
AcDbLine
   6
CONTINUOUS
  62
7
  10
 88.000830578512
  20
 116.21155196372
  30
0.0
  11
 179.01033057851
  21
 116.21155196372
  31
0.0
   0
LINE
   5
256
 100
AcDbEntity
   8
LEVEL001
 100
AcDbLine
   6
CONTINUOUS
  62
7
  10
 183.01033057851
  20
 116.21155196372
  30
0.0
  11
 274.01983057851
  21
 116.21155196372
  31
0.0
   0
DIMENSION
   5
257
 100
AcDbEntity
   8
LEVEL001
   6
CONTINUOUS
  62
2
 100
AcDbDimension
   2
*D8
  10
 53.688533057851
  20
 104.56155196372
  30
0.0
  11
 53.688533057851
  21
 122.56155196372
  31
0.0
  70
0
   3
GMM002
 100
AcDbAlignedDimension
  13
 69.841840796284
  23
 140.56155196372
  33
0.0
  14
 69.841840796284
  24
 104.56155196372
  34
0.0
  50
 270.00000000000
 100
AcDbRotatedDimension
   0
DIMENSION
   5
258
 100
AcDbEntity
   8
LEVEL001
   6
CONTINUOUS
  62
2
 100
AcDbDimension
   2
*D9
  10
 45.509814049587
  20
 96.561551963724
  30
0.0
  11
 45.509814049587
  21
 122.56155196372
  31
0.0
  70
0
   3
GMM002
 100
AcDbAlignedDimension
  13
 79.010330578512
  23
 148.56155196372
  33
0.0
  14
 79.010330578512
  24
 96.561551963724
  34
0.0
  50
 270.00000000000
 100
AcDbRotatedDimension
   0
DIMENSION
   5
259
 100
AcDbEntity
   8
LEVEL001
   6
CONTINUOUS
  62
2
 100
AcDbDimension
   2
*D10
  10
 79.010330578512
  20
 181.00910441128
  30
0.0
  11
 83.260330578512
  21
 181.00910441128
  31
0.0
  70
0
   3
GMM001
 100
AcDbAlignedDimension
  13
 87.510330578512
  23
 192.22851000568
  33
0.0
  14
 79.010330578512
  24
 180.87448902666
  34
0.0
  50
 180.00000000000
 100
AcDbRotatedDimension
   0
DIMENSION
   5
25A
 100
AcDbEntity
   8
LEVEL001
   6
CONTINUOUS
  62
2
 100
AcDbDimension
   2
*D11
  10
 76.510330578512
  20
 181.00910441128
  30
0.0
  11
 76.460505403687
  21
 181.00910441128
  31
0.0
  70
128
   3
GMM003
 100
AcDbAlignedDimension
  13
 79.010330578512
  23
 180.87448902666
  33
0.0
  14
 76.510330578512
  24
 193.25910441128
  34
0.0
  50
 180.00000000000
 100
AcDbRotatedDimension
   0
ARC
   5
25B
 100
AcDbEntity
   8
LEVEL001
   6
CONTINUOUS
  62
7
 100
AcDbCircle
  10
-110.98966942149
  20
 122.78002275209
  30
0.0
  40
 200.00000000000
 100
AcDbArc
  50
 353.03793730892
  51
 358.11793328720
   0
ARC
   5
25C
 100
AcDbEntity
   8
LEVEL001
   6
CONTINUOUS
  62
7
 100
AcDbCircle
  10
-110.98966942149
  20
 122.34308117536
  30
0.0
  40
 200.00000000000
 100
AcDbArc
  50
 1.8820667127976
  51
 6.9620626910843
   0
ELLIPSE
   5
25D
 100
AcDbEntity
   8
LEVEL001
   6
CONTINUOUS
  62
2
 100
AcDbEllipse
  10
 283.01033057851
  20
 233.85176175393
  30
0.0
  11
-4.0000000000000
  21
0.0
  31
0.0
  40
 0.35496764587974
  41
0.0
  42
 6.2831853071796
   0
LINE
   5
25E
 100
AcDbEntity
   8
LEVEL001
 100
AcDbLine
   6
DASHDOT
  62
2
  10
 283.01033057851
  20
 194.72851000568
  30
0.0
  11
 283.01033057851
  21
 172.68305546023
  31
0.0
   0
LINE
   5
25F
 100
AcDbEntity
   8
LEVEL001
 100
AcDbLine
   6
CONTINUOUS
  62
7
  10
 273.01033057851
  20
 242.22851000568
  30
0.0
  11
 293.01033057851
  21
 242.22851000568
  31
0.0
   0
ARC
   5
260
 100
AcDbEntity
   8
LEVEL001
   6
CONTINUOUS
  62
7
 100
AcDbCircle
  10
 281.53194367276
  20
 197.22851000568
  30
0.0
  40
 5.0000000000000
 100
AcDbArc
  50
 270.00000000000
  51
 347.40167169682
   0
ARC
   5
261
 100
AcDbEntity
   8
LEVEL001
   6
CONTINUOUS
  62
7
 100
AcDbCircle
  10
-6.3653785575512
  20
 261.57236637609
  30
0.0
  40
 300.00000000000
 100
AcDbArc
  50
 347.40167169683
  51
 356.30303078550
   0
LINE
   5
262
 100
AcDbEntity
   8
LEVEL001
 100
AcDbLine
   6
CONTINUOUS
  62
7
  10
 273.01033057851
  20
 242.22851000568
  30
0.0
  11
 274.45212976906
  21
 194.16853698747
  31
0.0
   0
LINE
   5
263
 100
AcDbEntity
   8
LEVEL001
 100
AcDbLine
   6
CONTINUOUS
  62
7
  10
 276.45123037610
  20
 192.22851000568
  30
0.0
  11
 281.53194367276
  21
 192.22851000568
  31
0.0
   0
ARC
   5
264
 100
AcDbEntity
   8
LEVEL001
   6
CONTINUOUS
  62
7
 100
AcDbCircle
  10
 276.45123037610
  20
 194.22851000568
  30
0.0
  40
 2.0000000000000
 100
AcDbArc
  50
 181.71835800165
  51
 269.99999999999
   0
POINT
   5
265
 100
AcDbEntity
   8
LEVEL001
 100
AcDbPoint
  62
7
  10
 274.51033057851
  20
 192.22851000568
  30
0.0
   0
LINE
   5
266
 100
AcDbEntity
   8
LEVEL001
 100
AcDbLine
   6
CONTINUOUS
  62
7
  10
 273.11931772427
  20
 239.19351536383
  30
0.0
  11
 273.01033057851
  21
 242.22851000568
  31
0.0
   0
ARC
   5
267
 100
AcDbEntity
   8
LEVEL001
   6
CONTINUOUS
  62
7
 100
AcDbCircle
  10
 275.11901154460
  20
 239.22851000568
  30
0.0
  40
 2.0000000000000
 100
AcDbArc
  50
 181.00257380380
  51
 270.00000000000
   0
POINT
   5
268
 100
AcDbEntity
   8
LEVEL001
 100
AcDbPoint
  62
7
  10
 273.15370531804
  20
 237.22851000568
  30
0.0
   0
LINE
   5
269
 100
AcDbEntity
   8
LEVEL001
 100
AcDbLine
   6
CONTINUOUS
  62
7
  10
 293.01033057851
  20
 242.22851000568
  30
0.0
  11
 292.80902904134
  21
 239.14358666747
  31
0.0
   0
ARC
   5
26A
 100
AcDbEntity
   8
LEVEL001
   6
CONTINUOUS
  62
7
 100
AcDbCircle
  10
 290.81083284811
  20
 239.22851000568
  30
0.0
  40
 2.0000000000000
 100
AcDbArc
  50
 270.00000000004
  51
 357.56639389928
   0
POINT
   5
26B
 100
AcDbEntity
   8
LEVEL001
 100
AcDbPoint
  62
7
  10
 292.72763828321
  20
 237.22851000568
  30
0.0
   0
LINE
   5
26C
 100
AcDbEntity
   8
LEVEL001
 100
AcDbLine
   6
CONTINUOUS
  62
7
  10
 290.81083284811
  20
 237.22851000568
  30
0.0
  11
 275.11901154460
  21
 237.22851000568
  31
0.0
   0
LINE
   5
26D
 100
AcDbEntity
   8
LEVEL001
 100
AcDbLine
   6
CONTINUOUS
  62
7
  10
 283.01033057851
  20
 195.82851000568
  30
0.0
  11
 283.01033057851
  21
 197.82851000568
  31
0.0
   0
LINE
   5
26E
 100
AcDbEntity
   8
LEVEL001
 100
AcDbLine
   6
DASHDOT
  62
2
  10
 283.01033057851
  20
 86.766097418270
  30
0.0
  11
 283.01033057851
  21
 158.83427923645
  31
0.0
   0
CIRCLE
   5
26F
 100
AcDbEntity
   8
LEVEL001
 100
AcDbCircle
   6
CONTINUOUS
  62
7
  10
 283.01033057851
  20
 104.56155196372
  30
0.0
  40
 4.0000000000000
   0
CIRCLE
   5
270
 100
AcDbEntity
   8
LEVEL001
 100
AcDbCircle
   6
CONTINUOUS
  62
7
  10
 283.01033057851
  20
 104.56155196372
  30
0.0
  40
 2.2500000000000
   0
POINT
   5
271
 100
AcDbEntity
   8
LEVEL001
 100
AcDbPoint
  62
7
  10
 286.01033057851
  20
 114.56155196372
  30
0.0
   0
CIRCLE
   5
272
 100
AcDbEntity
   8
LEVEL001
 100
AcDbCircle
   6
CONTINUOUS
  62
7
  10
 283.01033057851
  20
 140.56155196372
  30
0.0
  40
 4.0000000000000
   0
CIRCLE
   5
273
 100
AcDbEntity
   8
LEVEL001
 100
AcDbCircle
   6
CONTINUOUS
  62
7
  10
 283.01033057851
  20
 140.56155196372
  30
0.0
  40
 2.2500000000000
   0
POINT
   5
274
 100
AcDbEntity
   8
LEVEL001
 100
AcDbPoint
  62
7
  10
 275.01033057851
  20
 131.56155196372
  30
0.0
   0
POINT
   5
275
 100
AcDbEntity
   8
LEVEL001
 100
AcDbPoint
  62
7
  10
 286.01033057851
  20
 130.56155196372
  30
0.0
   0
LINE
   5
276
 100
AcDbEntity
   8
LEVEL001
 100
AcDbLine
   6
DASHDOT
  62
2
  10
 274.01033057851
  20
 104.56155196372
  30
0.0
  11
 292.96487603306
  21
 104.56155196372
  31
0.0
   0
LINE
   5
277
 100
AcDbEntity
   8
LEVEL001
 100
AcDbLine
   6
DASHDOT
  62
2
  10
 274.01033057851
  20
 140.56155196372
  30
0.0
  11
 292.96487603306
  21
 140.56155196372
  31
0.0
   0
ARC
   5
278
 100
AcDbEntity
   8
LEVEL001
   6
CONTINUOUS
  62
7
 100
AcDbCircle
  10
 276.51033057851
  20
 115.75161760321
  30
0.0
  40
 2.0000000000000
 100
AcDbArc
  50
 180.00000000001
  51
 275.19442890767
   0
ARC
   5
279
 100
AcDbEntity
   8
LEVEL001
   6
CONTINUOUS
  62
7
 100
AcDbCircle
  10
 276.51033057851
  20
 129.37148632424
  30
0.0
  40
 2.0000000000000
 100
AcDbArc
  50
 84.805571092324
  51
 179.99999999999
   0
LINE
   5
27A
 100
AcDbEntity
   8
LEVEL001
 100
AcDbLine
   6
CONTINUOUS
  62
7
  10
 276.69140207060
  20
 131.36327273717
  30
0.0
  11
 284.51033057851
  21
 131.36327273717
  31
0.0
   0
LINE
   5
27B
 100
AcDbEntity
   8
LEVEL001
 100
AcDbLine
   6
CONTINUOUS
  62
7
  10
 274.51033057851
  20
 122.56155196372
  30
0.0
  11
 274.51033057851
  21
 115.75161760321
  31
0.0
   0
POINT
   5
27C
 100
AcDbEntity
   8
LEVEL001
 100
AcDbPoint
  62
7
  10
 274.51033057851
  20
 113.56155196372
  30
0.0
   0
LINE
   5
27D
 100
AcDbEntity
   8
LEVEL001
 100
AcDbLine
   6
CONTINUOUS
  62
7
  10
 274.51033057851
  20
 122.56155196372
  30
0.0
  11
 274.51033057851
  21
 129.37148632424
  31
0.0
   0
ARC
   5
27E
 100
AcDbEntity
   8
LEVEL001
   6
CONTINUOUS
  62
7
 100
AcDbCircle
  10
 284.51033057851
  20
 136.55469122697
  30
0.0
  40
 5.1914184897952
 100
AcDbArc
  50
 269.99999999999
  51
 346.72531638564
   0
POINT
   5
27F
 100
AcDbEntity
   8
LEVEL001
 100
AcDbPoint
  62
7
  10
 286.01033057851
  20
 114.56155196372
  30
0.0
   0
ARC
   5
280
 100
AcDbEntity
   8
LEVEL001
   6
CONTINUOUS
  62
7
 100
AcDbCircle
  10
 284.51033057851
  20
 108.56841270048
  30
0.0
  40
 5.1914184897952
 100
AcDbArc
  50
 13.274683614356
  51
 90.000000000006
   0
LINE
   5
281
 100
AcDbEntity
   8
LEVEL001
 100
AcDbLine
   6
CONTINUOUS
  62
7
  10
 276.69140207060
  20
 113.75983119028
  30
0.0
  11
 284.51033057851
  21
 113.75983119028
  31
0.0
   0
ARC
   5
282
 100
AcDbEntity
   8
LEVEL001
   6
CONTINUOUS
  62
7
 100
AcDbCircle
  10
 283.01033057851
  20
 48.561551963724
  30
0.0
  40
 100.00000000000
 100
AcDbArc
  50
 86.173497563931
  51
 93.826502436069
   0
ARC
   5
283
 100
AcDbEntity
   8
LEVEL001
   6
CONTINUOUS
  62
7
 100
AcDbCircle
  10
 276.47025832860
  20
 146.34308117536
  30
0.0
  40
 2.0000000000000
 100
AcDbArc
  50
 90.000000000050
  51
 173.03793730892
   0
ARC
   5
284
 100
AcDbEntity
   8
LEVEL001
   6
CONTINUOUS
  62
7
 100
AcDbCircle
  10
 289.55040282842
  20
 146.34308117536
  30
0.0
  40
 2.0000000000000
 100
AcDbArc
  50
 6.9620626910807
  51
 89.999999999969
   0
ARC
   5
285
 100
AcDbEntity
   8
LEVEL001
   6
CONTINUOUS
  62
7
 100
AcDbCircle
  10
 93.010330578512
  20
 122.34308117536
  30
0.0
  40
 200.00000000000
 100
AcDbArc
  50
0.0
  51
 6.9620626910843
   0
ARC
   5
286
 100
AcDbEntity
   8
LEVEL001
   6
CONTINUOUS
  62
7
 100
AcDbCircle
  10
 283.01033057851
  20
 196.56155196372
  30
0.0
  40
 100.00000000000
 100
AcDbArc
  50
 266.17349756393
  51
 273.82650243607
   0
ARC
   5
287
 100
AcDbEntity
   8
LEVEL001
   6
CONTINUOUS
  62
7
 100
AcDbCircle
  10
 276.47025832860
  20
 98.780022752088
  30
0.0
  40
 2.0000000000000
 100
AcDbArc
  50
 186.96206269108
  51
 269.99999999996
   0
ARC
   5
288
 100
AcDbEntity
   8
LEVEL001
   6
CONTINUOUS
  62
7
 100
AcDbCircle
  10
 289.55040282842
  20
 98.780022752088
  30
0.0
  40
 2.0000000000000
 100
AcDbArc
  50
 270.00000000002
  51
 353.03793730892
   0
ARC
   5
289
 100
AcDbEntity
   8
LEVEL001
   6
CONTINUOUS
  62
7
 100
AcDbCircle
  10
 93.010330578512
  20
 122.78002275209
  30
0.0
  40
 200.00000000000
 100
AcDbArc
  50
 353.03793730892
  51
 0.17912883966003E-12
   0
LINE
   5
28A
 100
AcDbEntity
   8
LEVEL001
 100
AcDbLine
   6
DASHDOT
  62
2
  10
 383.76957542845
  20
 104.56155196372
  30
0.0
  11
 355.88812875012
  21
 104.56155196372
  31
0.0
   0
DIMENSION
   5
28B
 100
AcDbEntity
   8
LEVEL001
   6
CONTINUOUS
  62
2
 100
AcDbDimension
   2
*D12
  10
 352.03594007342
  20
 108.56155196372
  30
0.0
  11
 352.03594007342
  21
 104.56155196372
  31
0.0
  70
0
   3
GMM004
 100
AcDbAlignedDimension
  13
 362.81811462963
  23
 100.56155196372
  33
0.0
  14
 360.66352824929
  24
 108.56155196372
  34
0.0
  50
 90.000000000000
 100
AcDbRotatedDimension
   0
ARC
   5
28C
 100
AcDbEntity
   8
LEVEL001
   6
CONTINUOUS
  62
7
 100
AcDbCircle
  10
 323.05447902723
  20
 115.56155196372
  30
0.0
  40
 2.0000000000000
 100
AcDbArc
  50
 188.38553864709
  51
 270.00000000004
   0
LINE
   5
28D
 100
AcDbEntity
   8
LEVEL001
 100
AcDbLine
   6
DASHDOT
  62
2
  10
 330.54131930956
  20
 114.14962014554
  30
0.0
  11
 330.54131930956
  21
 132.94223378191
  31
0.0
   0
ARC
   5
28E
 100
AcDbEntity
   8
LEVEL001
   6
CONTINUOUS
  62
7
 100
AcDbCircle
  10
 323.05447902723
  20
 129.56155196372
  30
0.0
  40
 2.0000000000000
 100
AcDbArc
  50
 89.999999999984
  51
 171.61446135292
   0
POINT
   5
28F
 100
AcDbEntity
   8
LEVEL001
 100
AcDbPoint
  62
7
  10
 362.54131930956
  20
 111.06155196372
  30
0.0
   0
POINT
   5
290
 100
AcDbEntity
   8
LEVEL001
 100
AcDbPoint
  62
7
  10
 362.54131930956
  20
 134.06155196372
  30
0.0
   0
POINT
   5
291
 100
AcDbEntity
   8
LEVEL001
 100
AcDbPoint
  62
7
  10
 362.54131930956
  20
 134.06155196372
  30
0.0
   0
POINT
   5
292
 100
AcDbEntity
   8
LEVEL001
 100
AcDbPoint
  62
7
  10
 362.54131930956
  20
 111.06155196372
  30
0.0
   0
LINE
   5
293
 100
AcDbEntity
   8
LEVEL001
 100
AcDbLine
   6
DASHDOT
  62
2
  10
 384.56279101967
  20
 122.56155196372
  30
0.0
  11
 314.25218872166
  21
 122.56155196372
  31
0.0
   0
POLYLINE
   5
294
 100
AcDbEntity
   8
LEVEL001
   6
CONTINUOUS
  62
7
 100
AcDb2dPolyline
  66
1
  10
0.0
  20
0.0
  30
0.0
  70
0
   0
VERTEX
   5
295
 100
AcDbEntity
   8
LEVEL001
   6
CONTINUOUS
  62
7
 100
AcDbVertex
 100
AcDb2dVertex
  10
 370.54131930956
  20
 122.56155196372
  30
0.0
   0
VERTEX
   5
296
 100
AcDbEntity
   8
LEVEL001
   6
CONTINUOUS
  62
7
 100
AcDbVertex
 100
AcDb2dVertex
  10
 370.54131930956
  20
 148.56155196372
  30
0.0
   0
VERTEX
   5
297
 100
AcDbEntity
   8
LEVEL001
   6
CONTINUOUS
  62
7
 100
AcDbVertex
 100
AcDb2dVertex
  10
 366.81041727404
  20
 147.81537155662
  30
0.0
   0
SEQEND
   5
298
 100
AcDbEntity
   8
LEVEL001
   6
CONTINUOUS
  62
7
   0
POLYLINE
   5
299
 100
AcDbEntity
   8
LEVEL001
   6
CONTINUOUS
  62
7
 100
AcDb2dPolyline
  66
1
  10
0.0
  20
0.0
  30
0.0
  70
0
   0
VERTEX
   5
29A
 100
AcDbEntity
   8
LEVEL001
   6
CONTINUOUS
  62
7
 100
AcDbVertex
 100
AcDb2dVertex
  10
 370.54131930956
  20
 122.56155196372
  30
0.0
   0
VERTEX
   5
29B
 100
AcDbEntity
   8
LEVEL001
   6
CONTINUOUS
  62
7
 100
AcDbVertex
 100
AcDb2dVertex
  10
 370.54131930956
  20
 96.561551963724
  30
0.0
   0
VERTEX
   5
29C
 100
AcDbEntity
   8
LEVEL001
   6
CONTINUOUS
  62
7
 100
AcDbVertex
 100
AcDb2dVertex
  10
 366.81041727404
  20
 97.307732370830
  30
0.0
   0
SEQEND
   5
29D
 100
AcDbEntity
   8
LEVEL001
   6
CONTINUOUS
  62
7
   0
POINT
   5
29E
 100
AcDbEntity
   8
LEVEL001
 100
AcDbPoint
  62
7
  10
 365.54131930956
  20
 97.561551963724
  30
0.0
   0
ARC
   5
29F
 100
AcDbEntity
   8
LEVEL001
   6
CONTINUOUS
  62
7
 100
AcDbCircle
  10
 367.20264954431
  20
 99.268893722206
  30
0.0
  40
 2.0000000000000
 100
AcDbArc
  50
 189.46796898031
  51
 258.69006752592
   0
ARC
   5
2A0
 100
AcDbEntity
   8
LEVEL001
   6
CONTINUOUS
  62
7
 100
AcDbCircle
  10
 356.03219632886
  20
 141.66606951709
  30
0.0
  40
 8.0000000000000
 100
AcDbArc
  50
 273.61691956007
  51
 347.50713938661
   0
POINT
   5
2A1
 100
AcDbEntity
   8
LEVEL001
 100
AcDbPoint
  62
7
  10
 362.54131930956
  20
 134.06155196372
  30
0.0
   0
LINE
   5
2A2
 100
AcDbEntity
   8
LEVEL001
 100
AcDbLine
   6
CONTINUOUS
  62
7
  10
 356.53687821772
  20
 133.68200437513
  30
0.0
  11
 322.92830855501
  21
 131.55756824921
  31
0.0
   0
LINE
   5
2A3
 100
AcDbEntity
   8
LEVEL001
 100
AcDbLine
   6
CONTINUOUS
  62
7
  10
 363.84278008224
  20
 105.18757809124
  30
0.0
  11
 365.25000360597
  21
 98.836257801991
  31
0.0
   0
ARC
   5
2A4
 100
AcDbEntity
   8
LEVEL001
   6
CONTINUOUS
  62
7
 100
AcDbCircle
  10
 356.03219632886
  20
 103.45703441036
  30
0.0
  40
 8.0000000000000
 100
AcDbArc
  50
 12.492860613394
  51
 86.383080439925
   0
POINT
   5
2A5
 100
AcDbEntity
   8
LEVEL001
 100
AcDbPoint
  62
7
  10
 362.54131930956
  20
 111.06155196372
  30
0.0
   0
LINE
   5
2A6
 100
AcDbEntity
   8
LEVEL001
 100
AcDbLine
   6
CONTINUOUS
  62
7
  10
 356.53687821772
  20
 111.44109955232
  30
0.0
  11
 322.92830855501
  21
 113.56553567823
  31
0.0
   0
LINE
   5
2A7
 100
AcDbEntity
   8
LEVEL001
 100
AcDbLine
   6
DOT
  62
2
  10
 367.24131930956
  20
 106.81155196372
  30
0.0
  11
 367.24131930956
  21
 102.31155196372
  31
0.0
   0
LINE
   5
2A8
 100
AcDbEntity
   8
LEVEL001
 100
AcDbLine
   6
DOT
  62
2
  10
 367.24131930956
  20
 138.31155196372
  30
0.0
  11
 367.24131930956
  21
 142.81155196372
  31
0.0
   0
ARC
   5
2A9
 100
AcDbEntity
   8
LEVEL001
   6
CONTINUOUS
  62
7
 100
AcDbCircle
  10
 370.54131930956
  20
 122.56155196372
  30
0.0
  40
 50.000000000000
 100
AcDbArc
  50
 180.00000000000
  51
 188.38553864708
   0
ARC
   5
2AA
 100
AcDbEntity
   8
LEVEL001
   6
CONTINUOUS
  62
7
 100
AcDbCircle
  10
 370.54131930956
  20
 122.56155196372
  30
0.0
  40
 50.000000000000
 100
AcDbArc
  50
 171.61446135292
  51
 180.00000000000
   0
DIMENSION
   5
2AB
 100
AcDbEntity
   8
LEVEL001
   6
CONTINUOUS
  62
2
 100
AcDbDimension
   2
*D13
  10
 310.48476239669
  20
 131.56155196372
  30
0.0
  11
 310.48476239669
  21
 122.56155196372
  31
0.0
  70
0
   3
GMM002
 100
AcDbAlignedDimension
  13
 321.83750069339
  23
 113.56155196372
  33
0.0
  14
 321.74980922551
  24
 131.56155196372
  34
0.0
  50
 90.000000000000
 100
AcDbRotatedDimension
   0
DIMENSION
   5
2AC
 100
AcDbEntity
   8
LEVEL001
   6
CONTINUOUS
  62
2
 100
AcDbDimension
   2
*D14
  10
 392.09839876033
  20
 96.561551963724
  30
0.0
  11
 392.09839876033
  21
 122.56155196372
  31
0.0
  70
0
   3
GMM002
 100
AcDbAlignedDimension
  13
 370.54131930956
  23
 148.56155196372
  33
0.0
  14
 370.54131930956
  24
 96.561551963724
  34
0.0
  50
 270.00000000000
 100
AcDbRotatedDimension
   0
LINE
   5
2AD
 100
AcDbEntity
   8
LEVEL001
 100
AcDbLine
   6
DASHDOT
  62
2
  10
 383.76957542845
  20
 140.56155196372
  30
0.0
  11
 355.88812875012
  21
 140.56155196372
  31
0.0
   0
ARC
   5
2AE
 100
AcDbEntity
   8
LEVEL001
   6
CONTINUOUS
  62
7
 100
AcDbCircle
  10
 367.20264954431
  20
 145.85421020524
  30
0.0
  40
 2.0000000000000
 100
AcDbArc
  50
 101.30993247409
  51
 167.12499844057
   0
POINT
   5
2AF
 100
AcDbEntity
   8
LEVEL001
 100
AcDbPoint
  62
7
  10
 365.54131930956
  20
 147.56155196372
  30
0.0
   0
LINE
   5
2B0
 100
AcDbEntity
   8
LEVEL001
 100
AcDbLine
   6
CONTINUOUS
  62
7
  10
 363.84278008224
  20
 139.93552583621
  30
0.0
  11
 365.25000360597
  21
 146.28684612546
  31
0.0
   0
DIMENSION
   5
2B1
 100
AcDbEntity
   8
LEVEL001
   6
CONTINUOUS
  62
2
 100
AcDbDimension
   2
*D15
  10
 370.54131930956
  20
 163.06465113728
  30
0.0
  11
 368.04131930956
  21
 163.06465113728
  31
0.0
  70
0
   3
GMM002
 100
AcDbAlignedDimension
  13
 365.54131930956
  23
 147.56155196372
  33
0.0
  14
 370.54131930956
  24
 148.56155196372
  34
0.0
 100
AcDbRotatedDimension
   0
ARC
   5
2B2
 100
AcDbEntity
   8
LEVEL001
   6
CONTINUOUS
  62
7
 100
AcDbCircle
  10
 473.01033057851
  20
 122.78002275209
  30
0.0
  40
 200.00000000000
 100
AcDbArc
  50
 181.88206671280
  51
 186.96206269108
   0
ARC
   5
2B3
 100
AcDbEntity
   8
LEVEL001
   6
CONTINUOUS
  62
7
 100
AcDbCircle
  10
 473.01033057851
  20
 122.78002275209
  30
0.0
  40
 200.00000000000
 100
AcDbArc
  50
 180.00000000000
  51
 180.06258728305
   0
ARC
   5
2B4
 100
AcDbEntity
   8
LEVEL001
   6
CONTINUOUS
  62
7
 100
AcDbCircle
  10
 473.01033057851
  20
 122.34308117536
  30
0.0
  40
 200.00000000000
 100
AcDbArc
  50
 173.03793730892
  51
 178.11793328720
   0
DIMENSION
   5
2B5
 100
AcDbEntity
   8
LEVEL001
   6
CONTINUOUS
  62
2
 100
AcDbDimension
   2
*D16
  10
 283.01033057851
  20
 174.00938254224
  30
0.0
  11
 181.01033057851
  21
 174.00938254224
  31
0.0
  70
0
   1
\A1;L
   3
GMM005
 100
AcDbAlignedDimension
  13
 79.010330578512
  23
 172.68305546023
  33
0.0
  14
 283.01033057851
  24
 175.26764700505
  34
0.0
 100
AcDbRotatedDimension
   0
LINE
   5
2B6
 100
AcDbEntity
   8
LEVEL001
 100
AcDbLine
   6
DOT
  62
2
  10
 79.010330578512
  20
 208.57851000568
  30
0.0
  11
 88.000830578512
  21
 208.57851000568
  31
0.0
   0
LINE
   5
2B7
 100
AcDbEntity
   8
LEVEL001
 100
AcDbLine
   6
DOT
  62
2
  10
 88.000830578512
  20
 208.07851000568
  30
0.0
  11
 179.01033057851
  21
 208.07851000568
  31
0.0
   0
LINE
   5
2B8
 100
AcDbEntity
   8
LEVEL001
 100
AcDbLine
   6
DOT
  62
2
  10
 183.01033057851
  20
 208.07851000568
  30
0.0
  11
 274.01983057851
  21
 208.07851000568
  31
0.0
   0
LINE
   5
2B9
 100
AcDbEntity
   8
LEVEL001
 100
AcDbLine
   6
DOT
  62
2
  10
 79.010330578512
  20
 195.87851000568
  30
0.0
  11
 88.000830578512
  21
 195.87851000568
  31
0.0
   0
LINE
   5
2BA
 100
AcDbEntity
   8
LEVEL001
 100
AcDbLine
   6
DOT
  62
2
  10
 88.000830578512
  20
 196.37851000568
  30
0.0
  11
 179.01033057851
  21
 196.37851000568
  31
0.0
   0
LINE
   5
2BB
 100
AcDbEntity
   8
LEVEL001
 100
AcDbLine
   6
DOT
  62
2
  10
 183.01033057851
  20
 196.37851000568
  30
0.0
  11
 274.01983057851
  21
 196.37851000568
  31
0.0
   0
LINE
   5
2BC
 100
AcDbEntity
   8
LEVEL001
 100
AcDbLine
   6
DOT
  62
2
  10
 88.000830578512
  20
 128.41155196372
  30
0.0
  11
 179.01033057851
  21
 128.41155196372
  31
0.0
   0
LINE
   5
2BD
 100
AcDbEntity
   8
LEVEL001
 100
AcDbLine
   6
DOT
  62
2
  10
 183.01033057851
  20
 128.41155196372
  30
0.0
  11
 274.01983057851
  21
 128.41155196372
  31
0.0
   0
LINE
   5
2BE
 100
AcDbEntity
   8
LEVEL001
 100
AcDbLine
   6
DOT
  62
2
  10
 88.000830578512
  20
 116.71155196372
  30
0.0
  11
 179.01033057851
  21
 116.71155196372
  31
0.0
   0
LINE
   5
2BF
 100
AcDbEntity
   8
LEVEL001
 100
AcDbLine
   6
DOT
  62
2
  10
 183.01033057851
  20
 116.71155196372
  30
0.0
  11
 274.01983057851
  21
 116.71155196372
  31
0.0
   0
LINE
   5
2C0
 100
AcDbEntity
   8
LEVEL001
 100
AcDbLine
   6
DOT
  62
2
  10
 79.010330578512
  20
 128.91155196372
  30
0.0
  11
 88.000830578512
  21
 128.91155196372
  31
0.0
   0
LINE
   5
2C1
 100
AcDbEntity
   8
LEVEL001
 100
AcDbLine
   6
DOT
  62
2
  10
 79.010330578512
  20
 116.21155196372
  30
0.0
  11
 88.000830578512
  21
 116.21155196372
  31
0.0
   0
LINE
   5
2C2
 100
AcDbEntity
   8
LEVEL001
 100
AcDbLine
   6
DOT
  62
2
  10
 274.01983057851
  20
 208.57851000568
  30
0.0
  11
 283.01033057851
  21
 208.57851000568
  31
0.0
   0
LINE
   5
2C3
 100
AcDbEntity
   8
LEVEL001
 100
AcDbLine
   6
DOT
  62
2
  10
 274.01983057851
  20
 195.87851000568
  30
0.0
  11
 283.01033057851
  21
 195.87851000568
  31
0.0
   0
CIRCLE
   5
2C4
 100
AcDbEntity
   8
LEVEL001
 100
AcDbCircle
   6
DOT
  62
2
  10
 330.54131930956
  20
 122.56155196372
  30
0.0
  40
 6.4000000000000
   0
LINE
   5
2C5
 100
AcDbEntity
   8
LEVEL001
 100
AcDbLine
   6
DOT
  62
2
  10
 274.01983057851
  20
 128.91155196372
  30
0.0
  11
 283.01033057851
  21
 128.91155196372
  31
0.0
   0
LINE
   5
2C6
 100
AcDbEntity
   8
LEVEL001
 100
AcDbLine
   6
DOT
  62
2
  10
 274.01983057851
  20
 116.21155196372
  30
0.0
  11
 283.01033057851
  21
 116.21155196372
  31
0.0
   0
DIMENSION
   5
2C7
 100
AcDbEntity
   8
LEVEL001
   6
CONTINUOUS
  62
2
 100
AcDbDimension
   2
*D17
  10
 89.010330578512
  20
 63.857006509179
  30
0.0
  11
 79.010330578512
  21
 63.857006509179
  31
0.0
  70
0
   3
GMM002
 100
AcDbAlignedDimension
  13
 69.010330578512
  23
 73.322915600088
  33
0.0
  14
 89.010330578512
  24
 73.322915600088
  34
0.0
 100
AcDbRotatedDimension
   0
CIRCLE
   5
2C8
 100
AcDbEntity
   8
LEVEL001
 100
AcDbCircle
   6
CONTINUOUS
  62
2
  10
 236.07528556750
  20
 21.580280831475
  30
0.0
  40
 5.0937102885353
   0
TEXT
   5
2C9
 100
AcDbEntity
   8
LEVEL001
  62
14
 100
AcDbText
  10
 235.94217138241
  20
 26.244944498647
  30
0.0
  40
 3.5000000000000
   1
久力
  41
 1.1428571428571
   7
STANDARD1
  72
1
  11
 235.94217138241
  21
 21.578277831980
  31
0.0
 100
AcDbText
   0
TEXT
   5
2CA
 100
AcDbEntity
   8
LEVEL001
  62
14
 100
AcDbText
  10
 253.77050040307
  20
 26.244944498647
  30
0.0
  40
 3.5000000000000
   1
田口
  41
 1.1428571428571
   7
STANDARD1
  72
1
  11
 253.77050040307
  21
 21.578277831980
  31
0.0
 100
AcDbText
   0
CIRCLE
   5
2CB
 100
AcDbEntity
   8
LEVEL001
 100
AcDbCircle
   6
CONTINUOUS
  62
2
  10
 253.77050040307
  20
 21.580280831475
  30
0.0
  40
 5.0937102885353
   0
CIRCLE
   5
2CC
 100
AcDbEntity
   8
LEVEL001
 100
AcDbCircle
   6
CONTINUOUS
  62
2
  10
 270.74404652549
  20
 21.580280831475
  30
0.0
  40
 5.0937102885353
   0
TEXT
   5
2CD
 100
AcDbEntity
   8
LEVEL001
  62
14
 100
AcDbText
  10
 270.74404652549
  20
 26.244944498647
  30
0.0
  40
 3.5000000000000
   1
堀内
  41
 1.1428571428571
   7
STANDARD1
  72
1
  11
 270.74404652549
  21
 21.578277831980
  31
0.0
 100
AcDbText
   0
TEXT
   5
2CE
 100
AcDbEntity
   8
LEVEL001
  62
14
 100
AcDbText
  10
 228.73748191783
  20
 11.876536841449
  30
0.0
  40
 3.0000000000000
   1
'03.10.10
  41
 0.50000000000000
   7
STANDARD
  72
1
  11
 235.48748191783
  21
 13.876536841449
  31
0.0
 100
AcDbText
  73
2
   0
TEXT
   5
2CF
 100
AcDbEntity
   8
LEVEL001
  62
14
 100
AcDbText
  10
 246.07081525116
  20
 11.876536841449
  30
0.0
  40
 3.0000000000000
   1
'03.10.10
  41
 0.50000000000000
   7
STANDARD
  72
1
  11
 252.82081525116
  21
 13.876536841449
  31
0.0
 100
AcDbText
  73
2
   0
TEXT
   5
2D0
 100
AcDbEntity
   8
LEVEL001
  62
14
 100
AcDbText
  10
 263.40414858449
  20
 11.876536841449
  30
0.0
  40
 3.0000000000000
   1
'03.10.10
  41
 0.50000000000000
   7
STANDARD
  72
1
  11
 270.15414858449
  21
 13.876536841449
  31
0.0
 100
AcDbText
  73
2
   0
TEXT
   5
2D1
 100
AcDbEntity
   8
LEVEL001
  62
7
 100
AcDbText
  10
 284.85449681501
  20
 30.771374503268
  30
0.0
  40
 6.0000000000000
   1
タオル掛　ＴＢ
  41
 0.83333333333333
   7
STANDARD
 100
AcDbText
   0
LINE
   5
2D2
 100
AcDbEntity
   8
LEVEL001
 100
AcDbLine
   6
CONTINUOUS
  62
8
  10
 227.41198317335
  20
 41.730973451327
  30
0.0
  11
 227.41198317335
  21
 11.730973451327
  31
0.0
   0
DIMENSION
   5
2D3
 100
AcDbEntity
   8
LEVEL001
   6
CONTINUOUS
  62
2
 100
AcDbDimension
   2
*D18
  10
 207.26430502086
  20
 116.21155196372
  30
0.0
  11
 207.26430502086
  21
 141.38763198923
  31
0.0
  70
128
  53
 90.000000000000
   3
GMM006
 100
AcDbAlignedDimension
  13
 208.65311420307
  23
 128.91155196372
  33
0.0
  14
 209.03188034367
  24
 116.21155196372
  34
0.0
  50
 270.00000000000
 100
AcDbRotatedDimension
   0
LINE
   5
2D4
 100
AcDbEntity
   8
LEVEL001
 100
AcDbLine
   6
DASHDOT
  62
2
  10
 283.01033057851
  20
 254.49556251429
  30
0.0
  11
 283.01033057851
  21
 194.22851000568
  31
0.0
   0
POLYLINE
   5
2D5
 100
AcDbEntity
   8
LEVEL001
   6
DOT
  62
2
 100
AcDb2dPolyline
  66
1
  10
0.0
  20
0.0
  30
0.0
  70
0
   0
VERTEX
   5
2D6
 100
AcDbEntity
   8
LEVEL001
   6
DOT
  62
2
 100
AcDbVertex
 100
AcDb2dVertex
  10
 370.54131930956
  20
 106.81155196372
  30
0.0
   0
VERTEX
   5
2D7
 100
AcDbEntity
   8
LEVEL001
   6
DOT
  62
2
 100
AcDbVertex
 100
AcDb2dVertex
  10
 367.24131930956
  20
 106.81155196372
  30
0.0
   0
VERTEX
   5
2D8
 100
AcDbEntity
   8
LEVEL001
   6
DOT
  62
2
 100
AcDbVertex
 100
AcDb2dVertex
  10
 367.24131930956
  20
 108.56155196372
  30
0.0
   0
VERTEX
   5
2D9
 100
AcDbEntity
   8
LEVEL001
   6
DOT
  62
2
 100
AcDbVertex
 100
AcDb2dVertex
  10
 362.19205838473
  20
 108.56155196372
  30
0.0
   0
SEQEND
   5
2DA
 100
AcDbEntity
   8
LEVEL001
   6
DOT
  62
2
   0
POLYLINE
   5
2DB
 100
AcDbEntity
   8
LEVEL001
   6
DOT
  62
2
 100
AcDb2dPolyline
  66
1
  10
0.0
  20
0.0
  30
0.0
  70
0
   0
VERTEX
   5
2DC
 100
AcDbEntity
   8
LEVEL001
   6
DOT
  62
2
 100
AcDbVertex
 100
AcDb2dVertex
  10
 370.54131930956
  20
 102.31155196372
  30
0.0
   0
VERTEX
   5
2DD
 100
AcDbEntity
   8
LEVEL001
   6
DOT
  62
2
 100
AcDbVertex
 100
AcDb2dVertex
  10
 367.24131930956
  20
 102.31155196372
  30
0.0
   0
VERTEX
   5
2DE
 100
AcDbEntity
   8
LEVEL001
   6
DOT
  62
2
 100
AcDbVertex
 100
AcDb2dVertex
  10
 367.24131930956
  20
 100.56155196372
  30
0.0
   0
VERTEX
   5
2DF
 100
AcDbEntity
   8
LEVEL001
   6
DOT
  62
2
 100
AcDbVertex
 100
AcDb2dVertex
  10
 364.86774064029
  20
 100.56155196372
  30
0.0
   0
SEQEND
   5
2E0
 100
AcDbEntity
   8
LEVEL001
   6
DOT
  62
2
   0
POLYLINE
   5
2E1
 100
AcDbEntity
   8
LEVEL001
   6
DOT
  62
2
 100
AcDb2dPolyline
  66
1
  10
0.0
  20
0.0
  30
0.0
  70
0
   0
VERTEX
   5
2E2
 100
AcDbEntity
   8
LEVEL001
   6
DOT
  62
2
 100
AcDbVertex
 100
AcDb2dVertex
  10
 370.54131930956
  20
 138.31155196372
  30
0.0
   0
VERTEX
   5
2E3
 100
AcDbEntity
   8
LEVEL001
   6
DOT
  62
2
 100
AcDbVertex
 100
AcDb2dVertex
  10
 367.24131930956
  20
 138.31155196372
  30
0.0
   0
VERTEX
   5
2E4
 100
AcDbEntity
   8
LEVEL001
   6
DOT
  62
2
 100
AcDbVertex
 100
AcDb2dVertex
  10
 367.24131930956
  20
 136.56155196372
  30
0.0
   0
VERTEX
   5
2E5
 100
AcDbEntity
   8
LEVEL001
   6
DOT
  62
2
 100
AcDbVertex
 100
AcDb2dVertex
  10
 362.19205838473
  20
 136.56155196372
  30
0.0
   0
SEQEND
   5
2E6
 100
AcDbEntity
   8
LEVEL001
   6
DOT
  62
2
   0
POLYLINE
   5
2E7
 100
AcDbEntity
   8
LEVEL001
   6
DOT
  62
2
 100
AcDb2dPolyline
  66
1
  10
0.0
  20
0.0
  30
0.0
  70
0
   0
VERTEX
   5
2E8
 100
AcDbEntity
   8
LEVEL001
   6
DOT
  62
2
 100
AcDbVertex
 100
AcDb2dVertex
  10
 370.54131930956
  20
 142.81155196372
  30
0.0
   0
VERTEX
   5
2E9
 100
AcDbEntity
   8
LEVEL001
   6
DOT
  62
2
 100
AcDbVertex
 100
AcDb2dVertex
  10
 367.24131930956
  20
 142.81155196372
  30
0.0
   0
VERTEX
   5
2EA
 100
AcDbEntity
   8
LEVEL001
   6
DOT
  62
2
 100
AcDbVertex
 100
AcDb2dVertex
  10
 367.24131930956
  20
 144.56155196372
  30
0.0
   0
VERTEX
   5
2EB
 100
AcDbEntity
   8
LEVEL001
   6
DOT
  62
2
 100
AcDbVertex
 100
AcDb2dVertex
  10
 364.86774064029
  20
 144.56155196372
  30
0.0
   0
SEQEND
   5
2EC
 100
AcDbEntity
   8
LEVEL001
   6
DOT
  62
2
   0
DIMENSION
   5
2ED
 100
AcDbEntity
   8
LEVEL001
   6
CONTINUOUS
  62
2
 100
AcDbDimension
   2
*D19
  10
 381.22881036831
  20
 102.31155196372
  30
0.0
  11
 381.22881036831
  21
 115.33534440753
  31
0.0
  70
128
  53
 90.000000000000
   3
GMM006
 100
AcDbAlignedDimension
  13
 371.49524884886
  23
 106.81155196372
  33
0.0
  14
 371.49524884886
  24
 102.31155196372
  34
0.0
  50
 270.00000000000
 100
AcDbRotatedDimension
   0
TEXT
   5
2EE
 100
AcDbEntity
   8
LEVEL001
  62
2
 100
AcDbText
  10
 199.63817324985
  20
 53.748089747653
  30
0.0
  40
 4.0000000000000
   1
取付ピッチ
   7
STANDARD
 100
AcDbText
   0
LINE
   5
2EF
 100
AcDbEntity
   8
LEVEL001
 100
AcDbLine
   6
CONTINUOUS
  62
8
  10
 198.00631295518
  20
 46.748089747653
  30
0.0
  11
 220.92570068942
  21
 46.748089747653
  31
0.0
   0
TEXT
   5
2F0
 100
AcDbEntity
   8
LEVEL001
  62
2
 100
AcDbText
  10
 203.80268783617
  20
 41.748089747653
  30
0.0
  40
 4.0000000000000
   1
４００
   7
STANDARD
 100
AcDbText
   0
TEXT
   5
2F1
 100
AcDbEntity
   8
LEVEL001
  62
2
 100
AcDbText
  10
 203.80268783617
  20
 47.748089747653
  30
0.0
  40
 4.0000000000000
   1
３５０
   7
STANDARD
 100
AcDbText
   0
LINE
   5
2F2
 100
AcDbEntity
   8
LEVEL001
 100
AcDbLine
   6
CONTINUOUS
  62
8
  10
 198.00631295518
  20
 34.748089747653
  30
0.0
  11
 220.92570068942
  21
 34.748089747653
  31
0.0
   0
LINE
   5
2F3
 100
AcDbEntity
   8
LEVEL001
 100
AcDbLine
   6
CONTINUOUS
  62
8
  10
 198.00631295518
  20
 22.748089747653
  30
0.0
  11
 220.92570068942
  21
 22.748089747653
  31
0.0
   0
LINE
   5
2F4
 100
AcDbEntity
   8
LEVEL001
 100
AcDbLine
   6
CONTINUOUS
  62
8
  10
 198.00631295518
  20
 58.748089747653
  30
0.0
  11
 198.00631295518
  21
 16.748089747653
  31
0.0
   0
LINE
   5
2F5
 100
AcDbEntity
   8
LEVEL001
 100
AcDbLine
   6
CONTINUOUS
  62
8
  10
 220.92570068942
  20
 58.748089747653
  30
0.0
  11
 220.92570068942
  21
 16.748089747653
  31
0.0
   0
TEXT
   5
2F6
 100
AcDbEntity
   8
LEVEL001
  62
2
 100
AcDbText
  10
 203.80268783617
  20
 35.748089747653
  30
0.0
  40
 4.0000000000000
   1
３５０
   7
STANDARD
 100
AcDbText
   0
TEXT
   5
2F7
 100
AcDbEntity
   8
LEVEL001
  62
2
 100
AcDbText
  10
 203.80268783617
  20
 29.748089747653
  30
0.0
  40
 4.0000000000000
   1
４００
   7
STANDARD
 100
AcDbText
   0
TEXT
   5
2F8
 100
AcDbEntity
   8
LEVEL001
  62
2
 100
AcDbText
  10
 203.80268783617
  20
 23.748089747653
  30
0.0
  40
 4.0000000000000
   1
３５０
   7
STANDARD
 100
AcDbText
   0
TEXT
   5
2F9
 100
AcDbEntity
   8
LEVEL001
  62
2
 100
AcDbText
  10
 203.80268783617
  20
 17.748089747653
  30
0.0
  40
 4.0000000000000
   1
４００
   7
STANDARD
 100
AcDbText
   0
TEXT
   5
2FA
 100
AcDbEntity
   8
LEVEL001
  62
2
 100
AcDbText
  10
 153.64776566125
  20
 53.748089747653
  30
0.0
  40
 4.0000000000000
   1
品番
   7
STANDARD
 100
AcDbText
   0
TEXT
   5
2FB
 100
AcDbEntity
   8
LEVEL001
  62
2
 100
AcDbText
  10
 146.23096131417
  20
 47.333806183535
  30
0.0
  40
 4.0000000000000
   1
６１０－０１１
  41
 0.87500000000000
   7
STANDARD
 100
AcDbText
   0
TEXT
   5
2FC
 100
AcDbEntity
   8
LEVEL001
  62
2
 100
AcDbText
  10
 146.23096131417
  20
 41.333806183535
  30
0.0
  40
 4.0000000000000
   1
６１０－０１２　　
  41
 0.87500000000000
   7
STANDARD
 100
AcDbText
   0
LINE
   5
2FD
 100
AcDbEntity
   8
LEVEL001
 100
AcDbLine
   6
CONTINUOUS
  62
8
  10
 145.70687914710
  20
 46.748089747653
  30
0.0
  11
 171.62475541935
  21
 46.748089747653
  31
0.0
   0
TEXT
   5
2FE
 100
AcDbEntity
   8
LEVEL001
  62
2
 100
AcDbText
  10
 179.22896091963
  20
 53.748089747653
  30
0.0
  40
 4.0000000000000
   1
色調　　
   7
STANDARD
 100
AcDbText
   0
LINE
   5
2FF
 100
AcDbEntity
   8
LEVEL001
 100
AcDbLine
   6
CONTINUOUS
  62
8
  10
 145.70687914710
  20
 58.748089747653
  30
0.0
  11
 220.92570068942
  21
 58.748089747653
  31
0.0
   0
LINE
   5
300
 100
AcDbEntity
   8
LEVEL001
 100
AcDbLine
   6
CONTINUOUS
  62
8
  10
 145.70687914710
  20
 52.748089747653
  30
0.0
  11
 220.92570068942
  21
 52.748089747653
  31
0.0
   0
LINE
   5
301
 100
AcDbEntity
   8
LEVEL001
 100
AcDbLine
   6
CONTINUOUS
  62
8
  10
 145.70687914710
  20
 40.748089747653
  30
0.0
  11
 220.92570068942
  21
 40.748089747653
  31
0.0
   0
TEXT
   5
302
 100
AcDbEntity
   8
LEVEL001
  62
8
 100
AcDbText
  10
 145.70687914710
  20
 59.631877409059
  30
0.0
  40
 4.0000000000000
   1
表１
   7
STANDARD
 100
AcDbText
   0
LINE
   5
303
 100
AcDbEntity
   8
LEVEL001
 100
AcDbLine
   6
CONTINUOUS
  62
8
  10
 145.70687914710
  20
 34.748089747653
  30
0.0
  11
 171.62475541935
  21
 34.748089747653
  31
0.0
   0
LINE
   5
304
 100
AcDbEntity
   8
LEVEL001
 100
AcDbLine
   6
CONTINUOUS
  62
8
  10
 145.70687914710
  20
 28.748089747653
  30
0.0
  11
 220.92570068942
  21
 28.748089747653
  31
0.0
   0
LINE
   5
305
 100
AcDbEntity
   8
LEVEL001
 100
AcDbLine
   6
CONTINUOUS
  62
8
  10
 145.70687914710
  20
 22.748089747653
  30
0.0
  11
 171.62475541935
  21
 22.748089747653
  31
0.0
   0
LINE
   5
306
 100
AcDbEntity
   8
LEVEL001
 100
AcDbLine
   6
CONTINUOUS
  62
8
  10
 145.70687914710
  20
 16.748089747653
  30
0.0
  11
 220.92570068942
  21
 16.748089747653
  31
0.0
   0
LINE
   5
307
 100
AcDbEntity
   8
LEVEL001
 100
AcDbLine
   6
CONTINUOUS
  62
8
  10
 145.70687914710
  20
 58.748089747653
  30
0.0
  11
 145.70687914710
  21
 16.748089747653
  31
0.0
   0
LINE
   5
308
 100
AcDbEntity
   8
LEVEL001
 100
AcDbLine
   6
CONTINUOUS
  62
8
  10
 171.62475541935
  20
 58.748089747653
  30
0.0
  11
 171.62475541935
  21
 16.748089747653
  31
0.0
   0
TEXT
   5
309
 100
AcDbEntity
   8
LEVEL001
  62
2
 100
AcDbText
  10
 174.33100727277
  20
 44.470169819898
  30
0.0
  40
 4.0000000000000
   1
材着ホワイト　　　
  41
 0.87500000000000
   7
STANDARD
 100
AcDbText
   0
TEXT
   5
30A
 100
AcDbEntity
   8
LEVEL001
  62
2
 100
AcDbText
  10
 174.33100727277
  20
 32.470169819898
  30
0.0
  40
 4.0000000000000
   1
材着ブラック
  41
 0.87500000000000
   7
STANDARD
 100
AcDbText
   0
TEXT
   5
30B
 100
AcDbEntity
   8
LEVEL001
  62
2
 100
AcDbText
  10
 174.33100727277
  20
 20.470169819898
  30
0.0
  40
 4.0000000000000
   1
クローム
  41
 0.87500000000000
   7
STANDARD
 100
AcDbText
   0
TEXT
   5
30C
 100
AcDbEntity
   8
LEVEL001
  62
2
 100
AcDbText
  10
 146.23096131417
  20
 35.333806183535
  30
0.0
  40
 4.0000000000000
   1
６１０－０１５
  41
 0.87500000000000
   7
STANDARD
 100
AcDbText
   0
TEXT
   5
30D
 100
AcDbEntity
   8
LEVEL001
  62
2
 100
AcDbText
  10
 146.23096131417
  20
 29.333806183535
  30
0.0
  40
 4.0000000000000
   1
６１０－０１６　　
  41
 0.87500000000000
   7
STANDARD
 100
AcDbText
   0
TEXT
   5
30E
 100
AcDbEntity
   8
LEVEL001
  62
2
 100
AcDbText
  10
 146.23096131417
  20
 23.333806183535
  30
0.0
  40
 4.0000000000000
   1
６１０－０１７
  41
 0.87500000000000
   7
STANDARD
 100
AcDbText
   0
TEXT
   5
30F
 100
AcDbEntity
   8
LEVEL001
  62
2
 100
AcDbText
  10
 146.23096131417
  20
 17.333806183535
  30
0.0
  40
 4.0000000000000
   1
６１０－０１８　　
  41
 0.87500000000000
   7
STANDARD
 100
AcDbText
   0
ENDSEC
  0
SECTION
  2
OBJECTS
  0
DICTIONARY
  5
C
100
AcDbDictionary
  3
ACAD_GROUP
350
D
  3
ACAD_MLINESTYLE
350
1B
  0
DICTIONARY
  5
D
102
{ACAD_REACTORS
330
C
102
}
100
AcDbDictionary
  0
DICTIONARY
  5
1B
102
{ACAD_REACTORS
330
C
102
}
100
AcDbDictionary
  3
STANDARD
350
1C
  0
MLINESTYLE
  5
1C
102
{ACAD_REACTORS
330
1B
102
}
100
AcDbMlineStyle
  2
STANDARD
 70
     0
  3

 62
   256
 51
90.0
 52
90.0
 71
     2
 49
0.5
 62
   256
  6
BYLAYER
 49
-0.5
 62
   256
  6
BYLAYER
  0
ENDSEC
   0
EOF
