   0
SECTION
   2
HEADER
   9
$ACADVER
   1
AC1015
   9
$LIMMIN
  10
0.0
  20
0.0
   9
$LIMMAX
  10
 420.00000000000
  20
 297.00000000000
   9
$EXTMIN
  10
0.0
  20
0.0
  30
0.0
   9
$EXTMAX
  10
 420.00000000000
  20
 297.00000000000
  30
0.0
   9
$LTSCALE
  40
 8.4000000000000
   9
$HANDSEED
   5
2EA
   0
ENDSEC
   0
SECTION
   2
TABLES
  0
TABLE
  2
VPORT
  5
8
100
AcDbSymbolTable
 70
     1
  0
VPORT
  5
2E9
100
AcDbSymbolTableRecord
100
AcDbViewportTableRecord
  2
*ACTIVE
 70
     0
 10
0.0
 20
0.0
 11
1.0
 21
1.0
  12
 210.00000000000
  22
 148.50000000000
 13
0.0
 23
0.0
 14
1.0
 24
1.0
 15
0.0
 25
0.0
 16
0.0
 26
0.0
 36
1.0
 17
0.0
 27
0.0
 37
0.0
  40
 420.00000000000
  41
 1.4787878787879
 42
50.0
 43
0.0
 44
0.0
 50
0.0
 51
0.0
 71
     0
 72
   100
 73
     1
 74
     1
 75
     0
 76
     0
 77
     0
 78
     0
  0
ENDTAB
  0
TABLE
  2
LTYPE
  5
5
100
AcDbSymbolTable
 70
    25
  0
LTYPE
  5
12
100
AcDbSymbolTableRecord
100
AcDbLinetypeTableRecord
  2
BYBLOCK
 70
     0
  3

 72
    65
 73
     0
 40
0.0
  0
LTYPE
  5
13
100
AcDbSymbolTableRecord
100
AcDbLinetypeTableRecord
  2
BYLAYER
 70
     0
  3

 72
    65
 73
     0
 40
0.0
  0
LTYPE
  5
14
100
AcDbSymbolTableRecord
100
AcDbLinetypeTableRecord
  2
CONTINUOUS
 70
     0
  3
Solid line
 72
    65
 73
     0
 40
0.0
  0
LTYPE
  5
20
100
AcDbSymbolTableRecord
100
AcDbLinetypeTableRecord
  2
BORDER
 70
     0
  3
__ __ . __ __ . __ __ . __ __ . __ __ . __ __ .
 72
    65
 73
     6
 40
1.75
 49
0.5
 74
     0
 49
-0.25
 74
     0
 49
0.5
 74
     0
 49
-0.25
 74
     0
 49
0.0
 74
     0
 49
-0.25
 74
     0
  0
LTYPE
  5
21
100
AcDbSymbolTableRecord
100
AcDbLinetypeTableRecord
  2
BORDER2
 70
     0
  3
__.__.__.__.__.__.__.__.__.__.__.__.__.__.__.__
 72
    65
 73
     6
 40
0.875
 49
0.25
 74
     0
 49
-0.125
 74
     0
 49
0.25
 74
     0
 49
-0.125
 74
     0
 49
0.0
 74
     0
 49
-0.125
 74
     0
  0
LTYPE
  5
22
100
AcDbSymbolTableRecord
100
AcDbLinetypeTableRecord
  2
BORDERX2
 70
     0
  3
____  ____  .  ____  ____  .  ____  ____  .  __
 72
    65
 73
     6
 40
3.5
 49
1.0
 74
     0
 49
-0.5
 74
     0
 49
1.0
 74
     0
 49
-0.5
 74
     0
 49
0.0
 74
     0
 49
-0.5
 74
     0
  0
LTYPE
  5
23
100
AcDbSymbolTableRecord
100
AcDbLinetypeTableRecord
  2
CENTER
 70
     0
  3
____ _ ____ _ ____ _ ____ _ ____ _ ____ _ ____ 
 72
    65
 73
     4
 40
2.0
 49
1.25
 74
     0
 49
-0.25
 74
     0
 49
0.25
 74
     0
 49
-0.25
 74
     0
  0
LTYPE
  5
24
100
AcDbSymbolTableRecord
100
AcDbLinetypeTableRecord
  2
CENTER2
 70
     0
  3
___ _ ___ _ ___ _ ___ _ ___ _ ___ _ ___ _ ___ _
 72
    65
 73
     4
 40
1.125
 49
0.75
 74
     0
 49
-0.125
 74
     0
 49
0.125
 74
     0
 49
-0.125
 74
     0
  0
LTYPE
  5
25
100
AcDbSymbolTableRecord
100
AcDbLinetypeTableRecord
  2
CENTERX2
 70
     0
  3
________  __  ________  __  ________  __  _____
 72
    65
 73
     4
 40
4.0
 49
2.5
 74
     0
 49
-0.5
 74
     0
 49
0.5
 74
     0
 49
-0.5
 74
     0
  0
LTYPE
  5
26
100
AcDbSymbolTableRecord
100
AcDbLinetypeTableRecord
  2
DASHDOT
 70
     0
  3
__ . __ . __ . __ . __ . __ . __ . __ . __ . __
 72
    65
 73
     4
 40
1.0
 49
0.5
 74
     0
 49
-0.25
 74
     0
 49
0.0
 74
     0
 49
-0.25
 74
     0
  0
LTYPE
  5
27
100
AcDbSymbolTableRecord
100
AcDbLinetypeTableRecord
  2
DASHDOT2
 70
     0
  3
_._._._._._._._._._._._._._._._._._._._._._._._
 72
    65
 73
     4
 40
0.5
 49
0.25
 74
     0
 49
-0.125
 74
     0
 49
0.0
 74
     0
 49
-0.125
 74
     0
  0
LTYPE
  5
28
100
AcDbSymbolTableRecord
100
AcDbLinetypeTableRecord
  2
DASHDOTX2
 70
     0
  3
____  .  ____  .  ____  .  ____  .  ____  .  __
 72
    65
 73
     4
 40
2.0
 49
1.0
 74
     0
 49
-0.5
 74
     0
 49
0.0
 74
     0
 49
-0.5
 74
     0
  0
LTYPE
  5
29
100
AcDbSymbolTableRecord
100
AcDbLinetypeTableRecord
  2
DASHED
 70
     0
  3
__ __ __ __ __ __ __ __ __ __ __ __ __ __ __ __
 72
    65
 73
     2
 40
0.75
 49
0.5
 74
     0
 49
-0.25
 74
     0
  0
LTYPE
  5
2A
100
AcDbSymbolTableRecord
100
AcDbLinetypeTableRecord
  2
DASHED2
 70
     0
  3
_ _ _ _ _ _ _ _ _ _ _ _ _ _ _ _ _ _ _ _ _ _ _ _
 72
    65
 73
     2
 40
0.375
 49
0.25
 74
     0
 49
-0.125
 74
     0
  0
LTYPE
  5
2B
100
AcDbSymbolTableRecord
100
AcDbLinetypeTableRecord
  2
DASHEDX2
 70
     0
  3
____  ____  ____  ____  ____  ____  ____  ____ 
 72
    65
 73
     2
 40
1.5
 49
1.0
 74
     0
 49
-0.5
 74
     0
  0
LTYPE
  5
2C
100
AcDbSymbolTableRecord
100
AcDbLinetypeTableRecord
  2
DIVIDE
 70
     0
  3
____ . . ____ . . ____ . . ____ . . ____ . . __
 72
    65
 73
     6
 40
1.25
 49
0.5
 74
     0
 49
-0.25
 74
     0
 49
0.0
 74
     0
 49
-0.25
 74
     0
 49
0.0
 74
     0
 49
-0.25
 74
     0
  0
LTYPE
  5
2D
100
AcDbSymbolTableRecord
100
AcDbLinetypeTableRecord
  2
DIVIDE2
 70
     0
  3
__..__..__..__..__..__..__..__..__..__..__..__.
 72
    65
 73
     6
 40
0.625
 49
0.25
 74
     0
 49
-0.125
 74
     0
 49
0.0
 74
     0
 49
-0.125
 74
     0
 49
0.0
 74
     0
 49
-0.125
 74
     0
  0
LTYPE
  5
2E
100
AcDbSymbolTableRecord
100
AcDbLinetypeTableRecord
  2
DIVIDEX2
 70
     0
  3
________  .  .  ________  .  .  ________  .  . 
 72
    65
 73
     6
 40
2.5
 49
1.0
 74
     0
 49
-0.5
 74
     0
 49
0.0
 74
     0
 49
-0.5
 74
     0
 49
0.0
 74
     0
 49
-0.5
 74
     0
  0
LTYPE
  5
2F
100
AcDbSymbolTableRecord
100
AcDbLinetypeTableRecord
  2
DOT
 70
     0
  3
. . . . . . . . . . . . . . . . . . . . . . . .
 72
    65
 73
     2
 40
0.25
 49
0.0
 74
     0
 49
-0.25
 74
     0
  0
LTYPE
  5
30
100
AcDbSymbolTableRecord
100
AcDbLinetypeTableRecord
  2
DOT2
 70
     0
  3
...............................................
 72
    65
 73
     2
 40
0.125
 49
0.0
 74
     0
 49
-0.125
 74
     0
  0
LTYPE
  5
31
100
AcDbSymbolTableRecord
100
AcDbLinetypeTableRecord
  2
DOTX2
 70
     0
  3
.  .  .  .  .  .  .  .  .  .  .  .  .  .  .  . 
 72
    65
 73
     2
 40
0.5
 49
0.0
 74
     0
 49
-0.5
 74
     0
  0
LTYPE
  5
32
100
AcDbSymbolTableRecord
100
AcDbLinetypeTableRecord
  2
HIDDEN
 70
     0
  3
__ __ __ __ __ __ __ __ __ __ __ __ __ __ __ __
 72
    65
 73
     2
 40
0.375
 49
0.25
 74
     0
 49
-0.125
 74
     0
  0
LTYPE
  5
33
100
AcDbSymbolTableRecord
100
AcDbLinetypeTableRecord
  2
HIDDEN2
 70
     0
  3
_ _ _ _ _ _ _ _ _ _ _ _ _ _ _ _ _ _ _ _ _ _ _ _
 72
    65
 73
     2
 40
0.1875
 49
0.125
 74
     0
 49
-0.0625
 74
     0
  0
LTYPE
  5
34
100
AcDbSymbolTableRecord
100
AcDbLinetypeTableRecord
  2
HIDDENX2
 70
     0
  3
____ ____ ____ ____ ____ ____ ____ ____ ____ __
 72
    65
 73
     2
 40
0.75
 49
0.5
 74
     0
 49
-0.25
 74
     0
  0
LTYPE
  5
35
100
AcDbSymbolTableRecord
100
AcDbLinetypeTableRecord
  2
PHANTOM
 70
     0
  3
______  __  __  ______  __  __  ______  __  __ 
 72
    65
 73
     6
 40
2.5
 49
1.25
 74
     0
 49
-0.25
 74
     0
 49
0.25
 74
     0
 49
-0.25
 74
     0
 49
0.25
 74
     0
 49
-0.25
 74
     0
  0
LTYPE
  5
36
100
AcDbSymbolTableRecord
100
AcDbLinetypeTableRecord
  2
PHANTOM2
 70
     0
  3
___ _ _ ___ _ _ ___ _ _ ___ _ _ ___ _ _ ___ _ _
 72
    65
 73
     6
 40
1.25
 49
0.625
 74
     0
 49
-0.125
 74
     0
 49
0.125
 74
     0
 49
-0.125
 74
     0
 49
0.125
 74
     0
 49
-0.125
 74
     0
  0
LTYPE
  5
37
100
AcDbSymbolTableRecord
100
AcDbLinetypeTableRecord
  2
PHANTOMX2
 70
     0
  3
____________    ____    ____    ____________   
 72
    65
 73
     6
 40
5.0
 49
2.5
 74
     0
 49
-0.5
 74
     0
 49
0.5
 74
     0
 49
-0.5
 74
     0
 49
0.5
 74
     0
 49
-0.5
 74
     0
  0
ENDTAB
   0
TABLE
   2
LAYER
   5
2
 100
AcDbSymbolTable
  70
2
   0
LAYER
   5
E
 100
AcDbSymbolTableRecord
 100
AcDbLayerTableRecord
   2
0
  70
0
  62
7
   6
CONTINUOUS
 390
30
   0
LAYER
   5
39
 100
AcDbSymbolTableRecord
 100
AcDbLayerTableRecord
   2
LEVEL001
  70
0
  62
7
   6
CONTINUOUS
 390
30
   0
ENDTAB
  0
TABLE
  2
STYLE
  5
3
100
AcDbSymbolTable
  70
3
  0
STYLE
  5
F
100
AcDbSymbolTableRecord
100
AcDbTextStyleTableRecord
  2
STANDARD
 70
     0
 40
0.0
 41
1.0
 50
0.0
 71
     0
 42
0.2
  3
TXT
  4
BIGFONT
  0
STYLE
  5
38
100
AcDbSymbolTableRecord
100
AcDbTextStyleTableRecord
  2
STANDARD1
 70
     4
 40
0.0
 41
1.0
 50
0.0
 71
     0
 42
0.2
  3
TXT
  4
BIGFONT
   0
STYLE
   5
3A
 100
AcDbSymbolTableRecord
 100
AcDbTextStyleTableRecord
   2
GMM001
  70
0
  40
0.0
  41
 0.95000000000000
  50
0.0
  71
     0
  42
1.0
   3
txt.shx
   4
bigfont.shx
   0
ENDTAB
  0
TABLE
  2
VIEW
  5
6
100
AcDbSymbolTable
 70
     0
  0
ENDTAB
  0
TABLE
  2
UCS
  5
7
100
AcDbSymbolTable
 70
     0
  0
ENDTAB
  0
TABLE
  2
APPID
  5
9
100
AcDbSymbolTable
 70
     1
  0
APPID
  5
10
100
AcDbSymbolTableRecord
100
AcDbRegAppTableRecord
  2
ACAD
 70
     0
  0
ENDTAB
   0
TABLE
   2
DIMSTYLE
   5
A
 100
AcDbSymbolTable
  70
8
 100
AcDbDimStyleTable
  0
DIMSTYLE
105
1D
100
AcDbSymbolTableRecord
100
AcDbDimStyleTableRecord
  2
STANDARD
 70
     0
  3

  4

  5

  6

  7

 40
1.0
 41
0.18
 42
0.0625
 43
0.38
 44
0.18
 45
0.0
 46
0.0
 47
0.0
 48
0.0
140
0.18
141
0.09
142
0.0
143
25.4
144
1.0
145
0.0
146
1.0
147
0.09
 71
     0
 72
     0
 73
     1
 74
     1
 75
     0
 76
     0
 77
     0
 78
     0
170
     0
171
     2
172
     0
173
     0
174
     0
175
     0
176
     0
177
     0
178
     0
270
     2
271
     4
272
     4
273
     2
274
     2
340
F
275
     0
280
     0
281
     0
282
     0
283
     1
284
     0
285
     0
286
     0
287
     3
288
     0
   0
DIMSTYLE
 105
3B
 100
AcDbSymbolTableRecord
 100
AcDbDimStyleTableRecord
   2
GMM001
  70
0
   3

   4

   5

   6
_OPEN30
   7
_OPEN30
  40
 1.0000000000000
  41
 3.0000000000000
  42
 1.0000000000000
  43
 8.0000000000000
  44
 1.0000000000000
  45
0.0
  46
0.0
  47
0.0
  48
0.0
 140
 4.0000000000000
 141
 1.0000000000000
 142
0.0
 143
 0.39400000000000E-1
 144
 1.0000000000000
 145
0.0
 146
 0.62500000000000
 147
 1.7142857142857
  71
0
  72
0
  73
0
  74
0
  75
0
  76
0
  77
3
  78
8
 170
0
 171
2
 172
1
 173
1
 174
0
 175
0
 176
3
 177
3
 178
3
 270
2
 271
6
 272
0
 273
2
 274
2
 340
3A
 275
0
 280
0
 281
0
 282
0
 283
1
 284
0
 285
0
 286
0
 287
3
 288
0
   0
DIMSTYLE
 105
3C
 100
AcDbSymbolTableRecord
 100
AcDbDimStyleTableRecord
   2
GMM002
  70
0
   3

   4

   5

   6
_OPEN30
   7
_OPEN30
  40
 1.0000000000000
  41
 3.0000000000000
  42
 1.0000000000000
  43
 8.0000000000000
  44
 1.0000000000000
  45
0.0
  46
0.0
  47
0.0
  48
0.0
 140
 4.0000000000000
 141
 1.0000000000000
 142
0.0
 143
 0.39400000000000E-1
 144
 1.0000000000000
 145
0.0
 146
 0.62500000000000
 147
 1.9340047826894
  71
0
  72
0
  73
0
  74
0
  75
0
  76
0
  77
3
  78
8
 170
0
 171
2
 172
1
 173
1
 174
0
 175
0
 176
3
 177
3
 178
3
 270
2
 271
6
 272
0
 273
2
 274
2
 340
3A
 275
0
 280
0
 281
0
 282
0
 283
1
 284
0
 285
0
 286
0
 287
3
 288
1
   0
DIMSTYLE
 105
3D
 100
AcDbSymbolTableRecord
 100
AcDbDimStyleTableRecord
   2
GMM003
  70
0
   3
R<>
   4

   5

   6
_NONE
   7
_OPEN30
  40
 1.0000000000000
  41
 3.0000000000000
  42
 1.0000000000000
  43
 8.0000000000000
  44
 1.0000000000000
  45
0.0
  46
0.0
  47
0.0
  48
0.0
 140
 4.0000000000000
 141
 1.0000000000000
 142
0.0
 143
 0.39400000000000E-1
 144
 1.0000000000000
 145
0.0
 146
 0.62500000000000
 147
 1.7142857142857
  71
0
  72
0
  73
0
  74
0
  75
0
  76
0
  77
3
  78
8
 170
0
 171
2
 172
1
 173
1
 174
0
 175
0
 176
3
 177
3
 178
3
 270
2
 271
6
 272
0
 273
2
 274
2
 340
3A
 275
0
 280
0
 281
0
 282
0
 283
1
 284
0
 285
0
 286
0
 287
3
 288
1
   0
DIMSTYLE
 105
3E
 100
AcDbSymbolTableRecord
 100
AcDbDimStyleTableRecord
   2
GMM004
  70
0
   3
R<>
   4

   5

   6
_NONE
   7
_OPEN30
  40
 1.0000000000000
  41
 3.0000000000000
  42
 1.0000000000000
  43
 8.0000000000000
  44
 1.0000000000000
  45
0.0
  46
0.0
  47
0.0
  48
0.0
 140
 4.0000000000000
 141
 1.0000000000000
 142
0.0
 143
 0.39400000000000E-1
 144
 1.0000000000000
 145
0.0
 146
 0.62500000000000
 147
 1.0201899339398
  71
0
  72
0
  73
0
  74
0
  75
0
  76
0
  77
3
  78
8
 170
0
 171
2
 172
1
 173
1
 174
0
 175
0
 176
3
 177
3
 178
3
 270
2
 271
6
 272
0
 273
2
 274
2
 340
3A
 275
0
 280
0
 281
0
 282
0
 283
1
 284
0
 285
0
 286
0
 287
3
 288
1
   0
DIMSTYLE
 105
3F
 100
AcDbSymbolTableRecord
 100
AcDbDimStyleTableRecord
   2
GMM005
  70
0
   3

   4

   5

   6
_OPEN30
   7
_OPEN30
  40
 1.0000000000000
  41
 3.0000000000000
  42
 1.0000000000000
  43
 8.0000000000000
  44
 1.0000000000000
  45
0.0
  46
0.0
  47
0.0
  48
0.0
 140
 4.0000000000000
 141
 1.0000000000000
 142
0.0
 143
 0.39400000000000E-1
 144
 1.0000000000000
 145
0.0
 146
 0.62500000000000
 147
 1.2334948569639
  71
0
  72
0
  73
0
  74
0
  75
0
  76
0
  77
3
  78
8
 170
0
 171
2
 172
1
 173
1
 174
0
 175
0
 176
3
 177
3
 178
3
 270
2
 271
6
 272
0
 273
2
 274
2
 340
3A
 275
0
 280
0
 281
0
 282
0
 283
1
 284
0
 285
0
 286
0
 287
3
 288
1
   0
DIMSTYLE
 105
40
 100
AcDbSymbolTableRecord
 100
AcDbDimStyleTableRecord
   2
GMM006
  70
0
   3
4-R<>
   4

   5

   6
_NONE
   7
_OPEN30
  40
 1.0000000000000
  41
 3.0000000000000
  42
 1.0000000000000
  43
 8.0000000000000
  44
 1.0000000000000
  45
0.0
  46
0.0
  47
0.0
  48
0.0
 140
 4.0000000000000
 141
 1.0000000000000
 142
0.0
 143
 0.39400000000000E-1
 144
 1.0000000000000
 145
0.0
 146
 0.62500000000000
 147
 1.7142857142857
  71
0
  72
0
  73
0
  74
0
  75
0
  76
0
  77
3
  78
8
 170
0
 171
2
 172
1
 173
1
 174
0
 175
0
 176
3
 177
3
 178
3
 270
2
 271
6
 272
0
 273
2
 274
2
 340
3A
 275
0
 280
0
 281
0
 282
0
 283
1
 284
0
 285
0
 286
0
 287
3
 288
1
   0
ENDTAB
  0
TABLE
  2
BLOCK_RECORD
  5
1
100
AcDbSymbolTable
 70
     0
  0
BLOCK_RECORD
  5
18
100
AcDbSymbolTableRecord
100
AcDbBlockTableRecord
  2
*MODEL_SPACE
  0
BLOCK_RECORD
  5
15
100
AcDbSymbolTableRecord
100
AcDbBlockTableRecord
  2
*PAPER_SPACE
   0
BLOCK_RECORD
   5
41
 100
AcDbSymbolTableRecord
 100
AcDbBlockTableRecord
   2
*D1
   0
BLOCK_RECORD
   5
42
 100
AcDbSymbolTableRecord
 100
AcDbBlockTableRecord
   2
*D2
   0
BLOCK_RECORD
   5
43
 100
AcDbSymbolTableRecord
 100
AcDbBlockTableRecord
   2
*D3
   0
BLOCK_RECORD
   5
44
 100
AcDbSymbolTableRecord
 100
AcDbBlockTableRecord
   2
*D4
   0
BLOCK_RECORD
   5
45
 100
AcDbSymbolTableRecord
 100
AcDbBlockTableRecord
   2
*D5
   0
BLOCK_RECORD
   5
46
 100
AcDbSymbolTableRecord
 100
AcDbBlockTableRecord
   2
*D6
   0
BLOCK_RECORD
   5
47
 100
AcDbSymbolTableRecord
 100
AcDbBlockTableRecord
   2
*D7
   0
BLOCK_RECORD
   5
48
 100
AcDbSymbolTableRecord
 100
AcDbBlockTableRecord
   2
*D8
   0
BLOCK_RECORD
   5
49
 100
AcDbSymbolTableRecord
 100
AcDbBlockTableRecord
   2
*D9
   0
BLOCK_RECORD
   5
4A
 100
AcDbSymbolTableRecord
 100
AcDbBlockTableRecord
   2
*D10
   0
BLOCK_RECORD
   5
4B
 100
AcDbSymbolTableRecord
 100
AcDbBlockTableRecord
   2
*D11
   0
BLOCK_RECORD
   5
4C
 100
AcDbSymbolTableRecord
 100
AcDbBlockTableRecord
   2
*D12
   0
BLOCK_RECORD
   5
4D
 100
AcDbSymbolTableRecord
 100
AcDbBlockTableRecord
   2
*D13
   0
BLOCK_RECORD
   5
4E
 100
AcDbSymbolTableRecord
 100
AcDbBlockTableRecord
   2
*D14
   0
BLOCK_RECORD
   5
4F
 100
AcDbSymbolTableRecord
 100
AcDbBlockTableRecord
   2
*D15
   0
BLOCK_RECORD
   5
50
 100
AcDbSymbolTableRecord
 100
AcDbBlockTableRecord
   2
*D16
   0
BLOCK_RECORD
   5
51
 100
AcDbSymbolTableRecord
 100
AcDbBlockTableRecord
   2
*D17
   0
BLOCK_RECORD
   5
52
 100
AcDbSymbolTableRecord
 100
AcDbBlockTableRecord
   2
*D18
   0
BLOCK_RECORD
   5
53
 100
AcDbSymbolTableRecord
 100
AcDbBlockTableRecord
   2
*D19
   0
BLOCK_RECORD
   5
54
 100
AcDbSymbolTableRecord
 100
AcDbBlockTableRecord
   2
*D20
   0
BLOCK_RECORD
   5
55
 100
AcDbSymbolTableRecord
 100
AcDbBlockTableRecord
   2
*D21
   0
BLOCK_RECORD
   5
56
 100
AcDbSymbolTableRecord
 100
AcDbBlockTableRecord
   2
*D22
   0
BLOCK_RECORD
   5
57
 100
AcDbSymbolTableRecord
 100
AcDbBlockTableRecord
   2
*D23
   0
BLOCK_RECORD
   5
58
 100
AcDbSymbolTableRecord
 100
AcDbBlockTableRecord
   2
*D24
   0
BLOCK_RECORD
   5
59
 100
AcDbSymbolTableRecord
 100
AcDbBlockTableRecord
   2
*D25
   0
BLOCK_RECORD
   5
5A
 100
AcDbSymbolTableRecord
 100
AcDbBlockTableRecord
   2
_ARCHTICK
   0
BLOCK_RECORD
   5
5B
 100
AcDbSymbolTableRecord
 100
AcDbBlockTableRecord
   2
_BOXBLANK
   0
BLOCK_RECORD
   5
5C
 100
AcDbSymbolTableRecord
 100
AcDbBlockTableRecord
   2
_BOXFILLED
   0
BLOCK_RECORD
   5
5D
 100
AcDbSymbolTableRecord
 100
AcDbBlockTableRecord
   2
_CLOSED
   0
BLOCK_RECORD
   5
5E
 100
AcDbSymbolTableRecord
 100
AcDbBlockTableRecord
   2
_CLOSEDBLANK
   0
BLOCK_RECORD
   5
5F
 100
AcDbSymbolTableRecord
 100
AcDbBlockTableRecord
   2
_DATUMBLANK
   0
BLOCK_RECORD
   5
60
 100
AcDbSymbolTableRecord
 100
AcDbBlockTableRecord
   2
_DATUMFILLED
   0
BLOCK_RECORD
   5
61
 100
AcDbSymbolTableRecord
 100
AcDbBlockTableRecord
   2
_DOT
   0
BLOCK_RECORD
   5
62
 100
AcDbSymbolTableRecord
 100
AcDbBlockTableRecord
   2
_DOTBLANK
   0
BLOCK_RECORD
   5
63
 100
AcDbSymbolTableRecord
 100
AcDbBlockTableRecord
   2
_DOTSMALL
   0
BLOCK_RECORD
   5
64
 100
AcDbSymbolTableRecord
 100
AcDbBlockTableRecord
   2
_INTEGRAL
   0
BLOCK_RECORD
   5
65
 100
AcDbSymbolTableRecord
 100
AcDbBlockTableRecord
   2
_NONE
   0
BLOCK_RECORD
   5
66
 100
AcDbSymbolTableRecord
 100
AcDbBlockTableRecord
   2
_OBLIQUE
   0
BLOCK_RECORD
   5
67
 100
AcDbSymbolTableRecord
 100
AcDbBlockTableRecord
   2
_OPEN
   0
BLOCK_RECORD
   5
68
 100
AcDbSymbolTableRecord
 100
AcDbBlockTableRecord
   2
_OPEN30
   0
BLOCK_RECORD
   5
69
 100
AcDbSymbolTableRecord
 100
AcDbBlockTableRecord
   2
_OPEN90
   0
BLOCK_RECORD
   5
6A
 100
AcDbSymbolTableRecord
 100
AcDbBlockTableRecord
   2
_ORIGIN
   0
ENDTAB
   0
ENDSEC
  0
SECTION
  2
BLOCKS
  0
BLOCK
  5
19
100
AcDbEntity
  8
0
100
AcDbBlockBegin
  2
*MODEL_SPACE
 70
     0
 10
0.0
 20
0.0
 30
0.0
  3
*MODEL_SPACE
  1

  0
ENDBLK
  5
1A
100
AcDbEntity
  8
0
100
AcDbBlockEnd
  0
BLOCK
  5
16
100
AcDbEntity
 67
     1
  8
0
100
AcDbBlockBegin
  2
*PAPER_SPACE
 70
     0
 10
0.0
 20
0.0
 30
0.0
  3
*PAPER_SPACE
  1

  0
ENDBLK
  5
17
100
AcDbEntity
 67
     1
  8
0
100
AcDbBlockEnd
   0
BLOCK
   5
6B
 100
AcDbEntity
   8
0
 100
AcDbBlockBegin
   2
_ARCHTICK
  70
0
  10
0.0
  20
0.0
  30
0.0
   3
_ARCHTICK
   0
POLYLINE
   5
6C
 100
AcDbEntity
   8
0
   6
BYBLOCK
  62
0
 100
AcDb2dPolyline
  66
1
  10
0.0
  20
0.0
  30
0.0
  70
1
  40
 0.15000000000000
  41
 0.15000000000000
   0
VERTEX
   5
6D
 100
AcDbEntity
   8
0
   6
BYBLOCK
  62
0
 100
AcDbVertex
 100
AcDb2dVertex
  10
-0.50000000000000
  20
-0.50000000000000
  30
0.0
  40
 0.15000000000000
  41
 0.15000000000000
   0
VERTEX
   5
6E
 100
AcDbEntity
   8
0
   6
BYBLOCK
  62
0
 100
AcDbVertex
 100
AcDb2dVertex
  10
 0.50000000000000
  20
 0.50000000000000
  30
0.0
  40
 0.15000000000000
  41
 0.15000000000000
   0
SEQEND
   5
6F
 100
AcDbEntity
   8
0
   6
BYBLOCK
  62
0
   0
ENDBLK
   5
70
 100
AcDbEntity
   8
0
 100
AcDbBlockEnd
   0
BLOCK
   5
71
 100
AcDbEntity
   8
0
 100
AcDbBlockBegin
   2
_OBLIQUE
  70
0
  10
0.0
  20
0.0
  30
0.0
   3
_OBLIQUE
   0
LINE
   5
72
 100
AcDbEntity
   8
0
 100
AcDbLine
   6
BYBLOCK
  62
0
  10
-0.50000000000000
  20
-0.50000000000000
  30
0.0
  11
 0.50000000000000
  21
 0.50000000000000
  31
0.0
   0
ENDBLK
   5
73
 100
AcDbEntity
   8
0
 100
AcDbBlockEnd
   0
BLOCK
   5
74
 100
AcDbEntity
   8
0
 100
AcDbBlockBegin
   2
_BOXBLANK
  70
0
  10
0.0
  20
0.0
  30
0.0
   3
_BOXBLANK
   0
LINE
   5
75
 100
AcDbEntity
   8
0
 100
AcDbLine
   6
BYBLOCK
  62
0
  10
-0.50000000000000
  20
-0.50000000000000
  30
0.0
  11
 0.50000000000000
  21
-0.50000000000000
  31
0.0
   0
LINE
   5
76
 100
AcDbEntity
   8
0
 100
AcDbLine
   6
BYBLOCK
  62
0
  10
 0.50000000000000
  20
-0.50000000000000
  30
0.0
  11
 0.50000000000000
  21
 0.50000000000000
  31
0.0
   0
LINE
   5
77
 100
AcDbEntity
   8
0
 100
AcDbLine
   6
BYBLOCK
  62
0
  10
 0.50000000000000
  20
 0.50000000000000
  30
0.0
  11
-0.50000000000000
  21
 0.50000000000000
  31
0.0
   0
LINE
   5
78
 100
AcDbEntity
   8
0
 100
AcDbLine
   6
BYBLOCK
  62
0
  10
-0.50000000000000
  20
 0.50000000000000
  30
0.0
  11
-0.50000000000000
  21
-0.50000000000000
  31
0.0
   0
LINE
   5
79
 100
AcDbEntity
   8
0
 100
AcDbLine
   6
BYBLOCK
  62
0
  10
-0.50000000000000
  20
0.0
  30
0.0
  11
-1.0000000000000
  21
0.0
  31
0.0
   0
ENDBLK
   5
7A
 100
AcDbEntity
   8
0
 100
AcDbBlockEnd
   0
BLOCK
   5
7B
 100
AcDbEntity
   8
0
 100
AcDbBlockBegin
   2
_BOXFILLED
  70
0
  10
0.0
  20
0.0
  30
0.0
   3
_BOXFILLED
   0
SOLID
   5
7C
 100
AcDbEntity
   8
0
 100
AcDbTrace
   6
BYBLOCK
  62
0
  10
-0.50000000000000
  20
 0.50000000000000
  30
0.0
  11
 0.50000000000000
  21
 0.50000000000000
  31
0.0
  12
-0.50000000000000
  22
-0.50000000000000
  32
0.0
  13
 0.50000000000000
  23
-0.50000000000000
  33
0.0
   0
LINE
   5
7D
 100
AcDbEntity
   8
0
 100
AcDbLine
   6
BYBLOCK
  62
0
  10
-0.50000000000000
  20
0.0
  30
0.0
  11
-1.0000000000000
  21
0.0
  31
0.0
   0
ENDBLK
   5
7E
 100
AcDbEntity
   8
0
 100
AcDbBlockEnd
   0
BLOCK
   5
7F
 100
AcDbEntity
   8
0
 100
AcDbBlockBegin
   2
_CLOSED
  70
0
  10
0.0
  20
0.0
  30
0.0
   3
_CLOSED
   0
LINE
   5
80
 100
AcDbEntity
   8
0
 100
AcDbLine
   6
BYBLOCK
  62
0
  10
-1.0000000000000
  20
 0.16666666666667
  30
0.0
  11
0.0
  21
0.0
  31
0.0
   0
LINE
   5
81
 100
AcDbEntity
   8
0
 100
AcDbLine
   6
BYBLOCK
  62
0
  10
0.0
  20
0.0
  30
0.0
  11
-1.0000000000000
  21
-0.16666666666667
  31
0.0
   0
LINE
   5
82
 100
AcDbEntity
   8
0
 100
AcDbLine
   6
BYBLOCK
  62
0
  10
-1.0000000000000
  20
 0.16666666666667
  30
0.0
  11
-1.0000000000000
  21
-0.16666666666667
  31
0.0
   0
LINE
   5
83
 100
AcDbEntity
   8
0
 100
AcDbLine
   6
BYBLOCK
  62
0
  10
0.0
  20
0.0
  30
0.0
  11
-1.0000000000000
  21
0.0
  31
0.0
   0
ENDBLK
   5
84
 100
AcDbEntity
   8
0
 100
AcDbBlockEnd
   0
BLOCK
   5
85
 100
AcDbEntity
   8
0
 100
AcDbBlockBegin
   2
_OPEN
  70
0
  10
0.0
  20
0.0
  30
0.0
   3
_OPEN
   0
LINE
   5
86
 100
AcDbEntity
   8
0
 100
AcDbLine
   6
BYBLOCK
  62
0
  10
-1.0000000000000
  20
 0.16666666666667
  30
0.0
  11
0.0
  21
0.0
  31
0.0
   0
LINE
   5
87
 100
AcDbEntity
   8
0
 100
AcDbLine
   6
BYBLOCK
  62
0
  10
0.0
  20
0.0
  30
0.0
  11
-1.0000000000000
  21
-0.16666666666667
  31
0.0
   0
LINE
   5
88
 100
AcDbEntity
   8
0
 100
AcDbLine
   6
BYBLOCK
  62
0
  10
0.0
  20
0.0
  30
0.0
  11
-1.0000000000000
  21
0.0
  31
0.0
   0
ENDBLK
   5
89
 100
AcDbEntity
   8
0
 100
AcDbBlockEnd
   0
BLOCK
   5
8A
 100
AcDbEntity
   8
0
 100
AcDbBlockBegin
   2
_OPEN30
  70
0
  10
0.0
  20
0.0
  30
0.0
   3
_OPEN30
   0
LINE
   5
8B
 100
AcDbEntity
   8
0
 100
AcDbLine
   6
BYBLOCK
  62
0
  10
-1.0000000000000
  20
 0.26794919243110
  30
0.0
  11
0.0
  21
0.0
  31
0.0
   0
LINE
   5
8C
 100
AcDbEntity
   8
0
 100
AcDbLine
   6
BYBLOCK
  62
0
  10
0.0
  20
0.0
  30
0.0
  11
-1.0000000000000
  21
-0.26794919243110
  31
0.0
   0
LINE
   5
8D
 100
AcDbEntity
   8
0
 100
AcDbLine
   6
BYBLOCK
  62
0
  10
0.0
  20
0.0
  30
0.0
  11
-1.0000000000000
  21
0.0
  31
0.0
   0
ENDBLK
   5
8E
 100
AcDbEntity
   8
0
 100
AcDbBlockEnd
   0
BLOCK
   5
8F
 100
AcDbEntity
   8
0
 100
AcDbBlockBegin
   2
_OPEN90
  70
0
  10
0.0
  20
0.0
  30
0.0
   3
_OPEN90
   0
LINE
   5
90
 100
AcDbEntity
   8
0
 100
AcDbLine
   6
BYBLOCK
  62
0
  10
-0.50000000000000
  20
 0.50000000000000
  30
0.0
  11
0.0
  21
0.0
  31
0.0
   0
LINE
   5
91
 100
AcDbEntity
   8
0
 100
AcDbLine
   6
BYBLOCK
  62
0
  10
0.0
  20
0.0
  30
0.0
  11
-0.50000000000000
  21
-0.50000000000000
  31
0.0
   0
LINE
   5
92
 100
AcDbEntity
   8
0
 100
AcDbLine
   6
BYBLOCK
  62
0
  10
0.0
  20
0.0
  30
0.0
  11
-1.0000000000000
  21
0.0
  31
0.0
   0
ENDBLK
   5
93
 100
AcDbEntity
   8
0
 100
AcDbBlockEnd
   0
BLOCK
   5
94
 100
AcDbEntity
   8
0
 100
AcDbBlockBegin
   2
_CLOSEDBLANK
  70
0
  10
0.0
  20
0.0
  30
0.0
   3
_CLOSEDBLANK
   0
LINE
   5
95
 100
AcDbEntity
   8
0
 100
AcDbLine
   6
BYBLOCK
  62
0
  10
-1.0000000000000
  20
 0.16666666666667
  30
0.0
  11
0.0
  21
0.0
  31
0.0
   0
LINE
   5
96
 100
AcDbEntity
   8
0
 100
AcDbLine
   6
BYBLOCK
  62
0
  10
0.0
  20
0.0
  30
0.0
  11
-1.0000000000000
  21
-0.16666666666667
  31
0.0
   0
LINE
   5
97
 100
AcDbEntity
   8
0
 100
AcDbLine
   6
BYBLOCK
  62
0
  10
-1.0000000000000
  20
 0.16666666666667
  30
0.0
  11
-1.0000000000000
  21
-0.16666666666667
  31
0.0
   0
ENDBLK
   5
98
 100
AcDbEntity
   8
0
 100
AcDbBlockEnd
   0
BLOCK
   5
99
 100
AcDbEntity
   8
0
 100
AcDbBlockBegin
   2
_DOT
  70
0
  10
0.0
  20
0.0
  30
0.0
   3
_DOT
   0
POLYLINE
   5
9A
 100
AcDbEntity
   8
0
   6
BYBLOCK
  62
0
 100
AcDb2dPolyline
  66
1
  10
0.0
  20
0.0
  30
0.0
  70
1
  40
 0.50000000000000
  41
 0.50000000000000
   0
VERTEX
   5
9B
 100
AcDbEntity
   8
0
   6
BYBLOCK
  62
0
 100
AcDbVertex
 100
AcDb2dVertex
  10
-0.25000000000000
  20
0.0
  30
0.0
  42
 1.0000000000000
  40
 0.50000000000000
  41
 0.50000000000000
   0
VERTEX
   5
9C
 100
AcDbEntity
   8
0
   6
BYBLOCK
  62
0
 100
AcDbVertex
 100
AcDb2dVertex
  10
 0.25000000000000
  20
0.0
  30
0.0
  42
 1.0000000000000
  40
 0.50000000000000
  41
 0.50000000000000
   0
SEQEND
   5
9D
 100
AcDbEntity
   8
0
   6
BYBLOCK
  62
0
   0
LINE
   5
9E
 100
AcDbEntity
   8
0
 100
AcDbLine
   6
BYBLOCK
  62
0
  10
-0.50000000000000
  20
0.0
  30
0.0
  11
-1.0000000000000
  21
0.0
  31
0.0
   0
ENDBLK
   5
9F
 100
AcDbEntity
   8
0
 100
AcDbBlockEnd
   0
BLOCK
   5
A0
 100
AcDbEntity
   8
0
 100
AcDbBlockBegin
   2
_DOTSMALL
  70
0
  10
0.0
  20
0.0
  30
0.0
   3
_DOTSMALL
   0
POLYLINE
   5
A1
 100
AcDbEntity
   8
0
   6
BYBLOCK
  62
0
 100
AcDb2dPolyline
  66
1
  10
0.0
  20
0.0
  30
0.0
  70
1
  40
 0.50000000000000
  41
 0.50000000000000
   0
VERTEX
   5
A2
 100
AcDbEntity
   8
0
   6
BYBLOCK
  62
0
 100
AcDbVertex
 100
AcDb2dVertex
  10
-0.62500000000000E-1
  20
0.0
  30
0.0
  42
 1.0000000000000
  40
 0.50000000000000
  41
 0.50000000000000
   0
VERTEX
   5
A3
 100
AcDbEntity
   8
0
   6
BYBLOCK
  62
0
 100
AcDbVertex
 100
AcDb2dVertex
  10
 0.62500000000000E-1
  20
0.0
  30
0.0
  42
 1.0000000000000
  40
 0.50000000000000
  41
 0.50000000000000
   0
SEQEND
   5
A4
 100
AcDbEntity
   8
0
   6
BYBLOCK
  62
0
   0
ENDBLK
   5
A5
 100
AcDbEntity
   8
0
 100
AcDbBlockEnd
   0
BLOCK
   5
A6
 100
AcDbEntity
   8
0
 100
AcDbBlockBegin
   2
_DATUMBLANK
  70
0
  10
0.0
  20
0.0
  30
0.0
   3
_DATUMBLANK
   0
LINE
   5
A7
 100
AcDbEntity
   8
0
 100
AcDbLine
   6
BYBLOCK
  62
0
  10
0.0
  20
 0.57735027000000
  30
0.0
  11
-1.0000000000000
  21
0.0
  31
0.0
   0
LINE
   5
A8
 100
AcDbEntity
   8
0
 100
AcDbLine
   6
BYBLOCK
  62
0
  10
-1.0000000000000
  20
0.0
  30
0.0
  11
0.0
  21
-0.57735027000000
  31
0.0
   0
LINE
   5
A9
 100
AcDbEntity
   8
0
 100
AcDbLine
   6
BYBLOCK
  62
0
  10
0.0
  20
-0.57735027000000
  30
0.0
  11
0.0
  21
 0.57735027000000
  31
0.0
   0
ENDBLK
   5
AA
 100
AcDbEntity
   8
0
 100
AcDbBlockEnd
   0
BLOCK
   5
AB
 100
AcDbEntity
   8
0
 100
AcDbBlockBegin
   2
_DATUMFILLED
  70
0
  10
0.0
  20
0.0
  30
0.0
   3
_DATUMFILLED
   0
SOLID
   5
AC
 100
AcDbEntity
   8
0
 100
AcDbTrace
   6
BYBLOCK
  62
0
  10
0.0
  20
 0.57735027000000
  30
0.0
  11
-1.0000000000000
  21
0.0
  31
0.0
  12
0.0
  22
-0.57735027000000
  32
0.0
  13
0.0
  23
-0.57735027000000
  33
0.0
   0
ENDBLK
   5
AD
 100
AcDbEntity
   8
0
 100
AcDbBlockEnd
   0
BLOCK
   5
AE
 100
AcDbEntity
   8
0
 100
AcDbBlockBegin
   2
_ORIGIN
  70
0
  10
0.0
  20
0.0
  30
0.0
   3
_ORIGIN
   0
CIRCLE
   5
AF
 100
AcDbEntity
   8
0
 100
AcDbCircle
   6
BYBLOCK
  62
0
  10
0.0
  20
0.0
  30
0.0
  40
 0.50000000000000
   0
LINE
   5
B0
 100
AcDbEntity
   8
0
 100
AcDbLine
   6
BYBLOCK
  62
0
  10
0.0
  20
0.0
  30
0.0
  11
-1.0000000000000
  21
0.0
  31
0.0
   0
ENDBLK
   5
B1
 100
AcDbEntity
   8
0
 100
AcDbBlockEnd
   0
BLOCK
   5
B2
 100
AcDbEntity
   8
0
 100
AcDbBlockBegin
   2
_NONE
  70
0
  10
0.0
  20
0.0
  30
0.0
   3
_NONE
   0
CIRCLE
   5
B3
 100
AcDbEntity
   8
0
 100
AcDbCircle
   6
BYBLOCK
  62
0
  10
0.0
  20
0.0
  30
0.0
  40
 0.25000000000000
   0
ENDBLK
   5
B4
 100
AcDbEntity
   8
0
 100
AcDbBlockEnd
   0
BLOCK
   5
B5
 100
AcDbEntity
   8
0
 100
AcDbBlockBegin
   2
_DOTBLANK
  70
0
  10
0.0
  20
0.0
  30
0.0
   3
_DOTBLANK
   0
CIRCLE
   5
B6
 100
AcDbEntity
   8
0
 100
AcDbCircle
   6
BYBLOCK
  62
0
  10
0.0
  20
0.0
  30
0.0
  40
 0.50000000000000
   0
LINE
   5
B7
 100
AcDbEntity
   8
0
 100
AcDbLine
   6
BYBLOCK
  62
0
  10
-0.50000000000000
  20
0.0
  30
0.0
  11
-1.0000000000000
  21
0.0
  31
0.0
   0
ENDBLK
   5
B8
 100
AcDbEntity
   8
0
 100
AcDbBlockEnd
   0
BLOCK
   5
B9
 100
AcDbEntity
   8
0
 100
AcDbBlockBegin
   2
_INTEGRAL
  70
0
  10
0.0
  20
0.0
  30
0.0
   3
_INTEGRAL
   0
ARC
   5
BA
 100
AcDbEntity
   8
0
   6
BYBLOCK
  62
0
 100
AcDbCircle
  10
 0.44488800000000
  20
-0.91335000000000E-1
  30
0.0
  40
 0.45416700000000
 100
AcDbArc
  50
 102.00000000000
  51
 168.00000000000
   0
ARC
   5
BB
 100
AcDbEntity
   8
0
   6
BYBLOCK
  62
0
 100
AcDbCircle
  10
-0.44488800000000
  20
 0.91335000000000E-1
  30
0.0
  40
 0.45416700000000
 100
AcDbArc
  50
 282.00000000000
  51
 348.00000000000
   0
ENDBLK
   5
BC
 100
AcDbEntity
   8
0
 100
AcDbBlockEnd
   0
BLOCK
   5
BD
 100
AcDbEntity
   8
0
 100
AcDbBlockBegin
   2
*D1
  70
65
  10
0.0
  20
0.0
  30
0.0
   3
*D1
   0
LINE
   5
BE
 100
AcDbEntity
   8
LEVEL001
 100
AcDbLine
   6
CONTINUOUS
  62
3
  10
 124.56133793924
  20
 176.79816809863
  30
0.0
  11
 124.56133793924
  21
 156.89460664677
  31
0.0
   0
LINE
   5
BF
 100
AcDbEntity
   8
LEVEL001
 100
AcDbLine
   6
CONTINUOUS
  62
3
  10
 141.56133793916
  20
 176.79816809863
  30
0.0
  11
 141.56133793916
  21
 156.89460664677
  31
0.0
   0
LINE
   5
C0
 100
AcDbEntity
   8
LEVEL001
 100
AcDbLine
   6
CONTINUOUS
  62
3
  10
 124.56133793924
  20
 157.89460664677
  30
0.0
  11
 133.06133793920
  21
 157.89460664677
  31
0.0
   0
LINE
   5
C1
 100
AcDbEntity
   8
LEVEL001
 100
AcDbLine
   6
CONTINUOUS
  62
3
  10
 141.56133793916
  20
 157.89460664677
  30
0.0
  11
 133.06133793920
  21
 157.89460664677
  31
0.0
   0
INSERT
   5
C2
 100
AcDbEntity
   8
LEVEL001
   6
CONTINUOUS
  62
3
 100
AcDbBlockReference
   2
_OPEN30
  10
 124.56133793924
  20
 157.89460664677
  30
0.0
  41
 3.0000000000000
  42
 3.0000000000000
  43
 3.0000000000000
  50
 180.00000000000
   0
INSERT
   5
C3
 100
AcDbEntity
   8
LEVEL001
   6
CONTINUOUS
  62
3
 100
AcDbBlockReference
   2
_OPEN30
  10
 141.56133793916
  20
 157.89460664677
  30
0.0
  41
 3.0000000000000
  42
 3.0000000000000
  43
 3.0000000000000
  50
0.0
   0
MTEXT
   5
C4
 100
AcDbEntity
   8
LEVEL001
  62
3
 100
AcDbMText
  10
 133.06133793920
  20
 159.60889236105
  30
0.0
  40
 4.0000000000000
  41
0.0
  71
8
  72
1
   1
\A1;17
   7
GMM001
   0
ENDBLK
   5
C5
 100
AcDbEntity
   8
0
 100
AcDbBlockEnd
   0
BLOCK
   5
C6
 100
AcDbEntity
   8
0
 100
AcDbBlockBegin
   2
*D2
  70
65
  10
0.0
  20
0.0
  30
0.0
   3
*D2
   0
LINE
   5
C7
 100
AcDbEntity
   8
LEVEL001
 100
AcDbLine
   6
CONTINUOUS
  62
3
  10
 131.81133793920
  20
 189.79907890735
  30
0.0
  11
 131.81133793920
  21
 190.79907890735
  31
0.0
   0
LINE
   5
C8
 100
AcDbEntity
   8
LEVEL001
 100
AcDbLine
   6
CONTINUOUS
  62
3
  10
 128.06133793920
  20
 189.79907890735
  30
0.0
  11
 133.06133793920
  21
 189.79907890735
  31
0.0
   0
LINE
   5
C9
 100
AcDbEntity
   8
LEVEL001
 100
AcDbLine
   6
CONTINUOUS
  62
3
  10
 138.06133793920
  20
 189.79907890735
  30
0.0
  11
 133.06133793920
  21
 189.79907890735
  31
0.0
   0
INSERT
   5
CA
 100
AcDbEntity
   8
LEVEL001
   6
CONTINUOUS
  62
3
 100
AcDbBlockReference
   2
_OPEN30
  10
 131.81133793920
  20
 189.79907890735
  30
0.0
  41
 3.0000000000000
  42
 3.0000000000000
  43
 3.0000000000000
  50
0.0
   0
INSERT
   5
CB
 100
AcDbEntity
   8
LEVEL001
   6
CONTINUOUS
  62
3
 100
AcDbBlockReference
   2
_OPEN30
  10
 134.31133793920
  20
 189.79907890735
  30
0.0
  41
 3.0000000000000
  42
 3.0000000000000
  43
 3.0000000000000
  50
 180.00000000000
   0
MTEXT
   5
CC
 100
AcDbEntity
   8
LEVEL001
  62
3
 100
AcDbMText
  10
 133.06133793920
  20
 191.51336462164
  30
0.0
  40
 4.0000000000000
  41
0.0
  71
8
  72
1
   1
\A1;2.5
   7
GMM001
   0
ENDBLK
   5
CD
 100
AcDbEntity
   8
0
 100
AcDbBlockEnd
   0
BLOCK
   5
CE
 100
AcDbEntity
   8
0
 100
AcDbBlockBegin
   2
*D3
  70
65
  10
0.0
  20
0.0
  30
0.0
   3
*D3
   0
LINE
   5
CF
 100
AcDbEntity
   8
LEVEL001
 100
AcDbLine
   6
CONTINUOUS
  62
3
  10
 117.56133793920
  20
 172.59239673273
  30
0.0
  11
 110.54686260647
  21
 172.59239673273
  31
0.0
   0
LINE
   5
D0
 100
AcDbEntity
   8
LEVEL001
 100
AcDbLine
   6
CONTINUOUS
  62
3
  10
 117.56133793920
  20
 174.09239673273
  30
0.0
  11
 110.54686260647
  21
 174.09239673273
  31
0.0
   0
LINE
   5
D1
 100
AcDbEntity
   8
LEVEL001
 100
AcDbLine
   6
CONTINUOUS
  62
3
  10
 111.54686260647
  20
 160.33697706369
  30
0.0
  11
 111.54686260647
  21
 173.34239673273
  31
0.0
   0
LINE
   5
D2
 100
AcDbEntity
   8
LEVEL001
 100
AcDbLine
   6
CONTINUOUS
  62
3
  10
 111.54686260647
  20
 177.84239673273
  30
0.0
  11
 111.54686260647
  21
 173.34239673273
  31
0.0
   0
INSERT
   5
D3
 100
AcDbEntity
   8
LEVEL001
   6
CONTINUOUS
  62
3
 100
AcDbBlockReference
   2
_OPEN30
  10
 111.54686260647
  20
 172.59239673273
  30
0.0
  41
 3.0000000000000
  42
 3.0000000000000
  43
 3.0000000000000
  50
 90.000000000000
   0
INSERT
   5
D4
 100
AcDbEntity
   8
LEVEL001
   6
CONTINUOUS
  62
3
 100
AcDbBlockReference
   2
_OPEN30
  10
 111.54686260647
  20
 174.09239673273
  30
0.0
  41
 3.0000000000000
  42
 3.0000000000000
  43
 3.0000000000000
  50
 270.00000000000
   0
MTEXT
   5
D5
 100
AcDbEntity
   8
LEVEL001
  62
3
 100
AcDbMText
  10
 109.61285782378
  20
 169.83697706369
  30
0.0
  40
 4.0000000000000
  41
0.0
  71
9
  72
1
   1
\A1;1.5
   7
GMM001
  11
0.0
  21
 1.0000000000000
  31
0.0
   0
ENDBLK
   5
D6
 100
AcDbEntity
   8
0
 100
AcDbBlockEnd
   0
BLOCK
   5
D7
 100
AcDbEntity
   8
0
 100
AcDbBlockBegin
   2
*D4
  70
65
  10
0.0
  20
0.0
  30
0.0
   3
*D4
   0
LINE
   5
D8
 100
AcDbEntity
   8
LEVEL001
 100
AcDbLine
   6
CONTINUOUS
  62
3
  10
 109.54686260647
  20
 172.59239673273
  30
0.0
  11
 101.98198428314
  21
 172.59239673273
  31
0.0
   0
LINE
   5
D9
 100
AcDbEntity
   8
LEVEL001
 100
AcDbLine
   6
CONTINUOUS
  62
3
  10
 119.06133793940
  20
 176.59239673273
  30
0.0
  11
 101.98198428314
  21
 176.59239673273
  31
0.0
   0
LINE
   5
DA
 100
AcDbEntity
   8
LEVEL001
 100
AcDbLine
   6
CONTINUOUS
  62
3
  10
 102.98198428314
  20
 168.84239673273
  30
0.0
  11
 102.98198428314
  21
 174.59239673273
  31
0.0
   0
LINE
   5
DB
 100
AcDbEntity
   8
LEVEL001
 100
AcDbLine
   6
CONTINUOUS
  62
3
  10
 102.98198428314
  20
 180.34239673273
  30
0.0
  11
 102.98198428314
  21
 174.59239673273
  31
0.0
   0
INSERT
   5
DC
 100
AcDbEntity
   8
LEVEL001
   6
CONTINUOUS
  62
3
 100
AcDbBlockReference
   2
_OPEN30
  10
 102.98198428314
  20
 172.59239673273
  30
0.0
  41
 3.0000000000000
  42
 3.0000000000000
  43
 3.0000000000000
  50
 90.000000000000
   0
INSERT
   5
DD
 100
AcDbEntity
   8
LEVEL001
   6
CONTINUOUS
  62
3
 100
AcDbBlockReference
   2
_OPEN30
  10
 102.98198428314
  20
 176.59239673273
  30
0.0
  41
 3.0000000000000
  42
 3.0000000000000
  43
 3.0000000000000
  50
 270.00000000000
   0
MTEXT
   5
DE
 100
AcDbEntity
   8
LEVEL001
  62
3
 100
AcDbMText
  10
 101.26769856885
  20
 174.59239673273
  30
0.0
  40
 4.0000000000000
  41
0.0
  71
8
  72
1
   1
\A1;4
   7
GMM001
  11
0.0
  21
 1.0000000000000
  31
0.0
   0
ENDBLK
   5
DF
 100
AcDbEntity
   8
0
 100
AcDbBlockEnd
   0
BLOCK
   5
E0
 100
AcDbEntity
   8
0
 100
AcDbBlockBegin
   2
*D5
  70
65
  10
0.0
  20
0.0
  30
0.0
   3
*D5
   0
LINE
   5
E1
 100
AcDbEntity
   8
LEVEL001
 100
AcDbLine
   6
CONTINUOUS
  62
3
  10
 133.06133793920
  20
 232.59239673273
  30
0.0
  11
 137.77383468337
  21
 225.21982089818
  31
0.0
   0
LINE
   5
E2
 100
AcDbEntity
   8
LEVEL001
 100
AcDbLine
   6
CONTINUOUS
  62
3
  10
 137.77383468337
  20
 225.21982089818
  30
0.0
  11
 156.67798154878
  21
 195.64478585434
  31
0.0
   0
INSERT
   5
E3
 100
AcDbEntity
   8
LEVEL001
   6
CONTINUOUS
  62
3
 100
AcDbBlockReference
   2
_OPEN30
  10
 142.48633142753
  20
 217.84724506363
  30
0.0
  41
 3.0000000000000
  42
 3.0000000000000
  43
 3.0000000000000
  50
 122.58641735178
   0
MTEXT
   5
E4
 100
AcDbEntity
   8
LEVEL001
  62
3
 100
AcDbMText
  10
 148.91283950368
  20
 210.97617015353
  30
0.0
  40
 4.0000000000000
  41
0.0
  71
7
  72
1
   1
\A1;R17.5
   7
GMM001
  11
 0.53857105647640
  21
-0.84258009537723
  31
0.0
   0
ENDBLK
   5
E5
 100
AcDbEntity
   8
0
 100
AcDbBlockEnd
   0
BLOCK
   5
E6
 100
AcDbEntity
   8
0
 100
AcDbBlockBegin
   2
*D6
  70
65
  10
0.0
  20
0.0
  30
0.0
   3
*D6
   0
LINE
   5
E7
 100
AcDbEntity
   8
LEVEL001
 100
AcDbLine
   6
CONTINUOUS
  62
3
  10
 133.06133793919
  20
 232.59239673273
  30
0.0
  11
 135.74522025368
  21
 222.95928842223
  31
0.0
   0
LINE
   5
E8
 100
AcDbEntity
   8
LEVEL001
 100
AcDbLine
   6
CONTINUOUS
  62
3
  10
 135.74522025368
  20
 222.95928842223
  30
0.0
  11
 142.18379627233
  21
 199.84966851891
  31
0.0
   0
INSERT
   5
E9
 100
AcDbEntity
   8
LEVEL001
   6
CONTINUOUS
  62
3
 100
AcDbBlockReference
   2
_OPEN30
  10
 138.42910256817
  20
 213.32618011172
  30
0.0
  41
 3.0000000000000
  42
 3.0000000000000
  43
 3.0000000000000
  50
 105.56837971919
   0
MTEXT
   5
EA
 100
AcDbEntity
   8
LEVEL001
  62
3
 100
AcDbMText
  10
 141.63674336616
  20
 205.61434722801
  30
0.0
  40
 4.0000000000000
  41
0.0
  71
8
  72
1
   1
\A1;R20
   7
GMM001
  11
 0.26838823144871
  21
-0.96331083105083
  31
0.0
   0
ENDBLK
   5
EB
 100
AcDbEntity
   8
0
 100
AcDbBlockEnd
   0
BLOCK
   5
EC
 100
AcDbEntity
   8
0
 100
AcDbBlockBegin
   2
*D7
  70
65
  10
0.0
  20
0.0
  30
0.0
   3
*D7
   0
LINE
   5
ED
 100
AcDbEntity
   8
LEVEL001
 100
AcDbLine
   6
CONTINUOUS
  62
3
  10
 100.98198428314
  20
 172.59239673273
  30
0.0
  11
 92.617575652728
  21
 172.59239673273
  31
0.0
   0
LINE
   5
EE
 100
AcDbEntity
   8
LEVEL001
 100
AcDbLine
   6
CONTINUOUS
  62
3
  10
 117.56133793920
  20
 218.99239673273
  30
0.0
  11
 92.617575652728
  21
 218.99239673273
  31
0.0
   0
LINE
   5
EF
 100
AcDbEntity
   8
LEVEL001
 100
AcDbLine
   6
CONTINUOUS
  62
3
  10
 93.617575652728
  20
 172.59239673273
  30
0.0
  11
 93.617575652728
  21
 195.79239673273
  31
0.0
   0
LINE
   5
F0
 100
AcDbEntity
   8
LEVEL001
 100
AcDbLine
   6
CONTINUOUS
  62
3
  10
 93.617575652728
  20
 218.99239673273
  30
0.0
  11
 93.617575652728
  21
 195.79239673273
  31
0.0
   0
INSERT
   5
F1
 100
AcDbEntity
   8
LEVEL001
   6
CONTINUOUS
  62
3
 100
AcDbBlockReference
   2
_OPEN30
  10
 93.617575652728
  20
 172.59239673273
  30
0.0
  41
 3.0000000000000
  42
 3.0000000000000
  43
 3.0000000000000
  50
 270.00000000000
   0
INSERT
   5
F2
 100
AcDbEntity
   8
LEVEL001
   6
CONTINUOUS
  62
3
 100
AcDbBlockReference
   2
_OPEN30
  10
 93.617575652728
  20
 218.99239673273
  30
0.0
  41
 3.0000000000000
  42
 3.0000000000000
  43
 3.0000000000000
  50
 90.000000000000
   0
MTEXT
   5
F3
 100
AcDbEntity
   8
LEVEL001
  62
3
 100
AcDbMText
  10
 91.903289938442
  20
 195.79239673273
  30
0.0
  40
 4.0000000000000
  41
0.0
  71
8
  72
1
   1
\A1;46.4
   7
GMM001
  11
0.0
  21
 1.0000000000000
  31
0.0
   0
ENDBLK
   5
F4
 100
AcDbEntity
   8
0
 100
AcDbBlockEnd
   0
BLOCK
   5
F5
 100
AcDbEntity
   8
0
 100
AcDbBlockBegin
   2
*D8
  70
65
  10
0.0
  20
0.0
  30
0.0
   3
*D8
   0
LINE
   5
F6
 100
AcDbEntity
   8
LEVEL001
 100
AcDbLine
   6
CONTINUOUS
  62
3
  10
 118.56133793920
  20
 171.59239673273
  30
0.0
  11
 118.56133793920
  21
 147.08127075197
  31
0.0
   0
LINE
   5
F7
 100
AcDbEntity
   8
LEVEL001
 100
AcDbLine
   6
CONTINUOUS
  62
3
  10
 147.56133793920
  20
 171.59239673273
  30
0.0
  11
 147.56133793920
  21
 147.08127075197
  31
0.0
   0
LINE
   5
F8
 100
AcDbEntity
   8
LEVEL001
 100
AcDbLine
   6
CONTINUOUS
  62
3
  10
 118.56133793920
  20
 148.08127075197
  30
0.0
  11
 133.06133793920
  21
 148.08127075197
  31
0.0
   0
LINE
   5
F9
 100
AcDbEntity
   8
LEVEL001
 100
AcDbLine
   6
CONTINUOUS
  62
3
  10
 147.56133793920
  20
 148.08127075197
  30
0.0
  11
 133.06133793920
  21
 148.08127075197
  31
0.0
   0
INSERT
   5
FA
 100
AcDbEntity
   8
LEVEL001
   6
CONTINUOUS
  62
3
 100
AcDbBlockReference
   2
_OPEN30
  10
 118.56133793920
  20
 148.08127075197
  30
0.0
  41
 3.0000000000000
  42
 3.0000000000000
  43
 3.0000000000000
  50
 180.00000000000
   0
INSERT
   5
FB
 100
AcDbEntity
   8
LEVEL001
   6
CONTINUOUS
  62
3
 100
AcDbBlockReference
   2
_OPEN30
  10
 147.56133793920
  20
 148.08127075197
  30
0.0
  41
 3.0000000000000
  42
 3.0000000000000
  43
 3.0000000000000
  50
0.0
   0
MTEXT
   5
FC
 100
AcDbEntity
   8
LEVEL001
  62
3
 100
AcDbMText
  10
 133.06133793920
  20
 149.79555646626
  30
0.0
  40
 4.0000000000000
  41
0.0
  71
8
  72
1
   1
\A1;29
   7
GMM001
   0
ENDBLK
   5
FD
 100
AcDbEntity
   8
0
 100
AcDbBlockEnd
   0
BLOCK
   5
FE
 100
AcDbEntity
   8
0
 100
AcDbBlockBegin
   2
*D9
  70
65
  10
0.0
  20
0.0
  30
0.0
   3
*D9
   0
POLYLINE
   5
FF
 100
AcDbEntity
   8
LEVEL001
   6
CONTINUOUS
  62
3
 100
AcDb2dPolyline
  66
1
  10
0.0
  20
0.0
  30
0.0
  70
0
   0
VERTEX
   5
100
 100
AcDbEntity
   8
LEVEL001
   6
CONTINUOUS
  62
3
 100
AcDbVertex
 100
AcDb2dVertex
  10
 125.66551835868
  20
 216.73201045962
  30
0.0
   0
VERTEX
   5
101
 100
AcDbEntity
   8
LEVEL001
   6
CONTINUOUS
  62
3
 100
AcDbVertex
 100
AcDb2dVertex
  10
 125.83055195256
  20
 223.57907676927
  30
0.0
   0
VERTEX
   5
102
 100
AcDbEntity
   8
LEVEL001
   6
CONTINUOUS
  62
3
 100
AcDbVertex
 100
AcDb2dVertex
  10
 116.59600231486
  20
 237.78357312711
  30
0.0
   0
VERTEX
   5
103
 100
AcDbEntity
   8
LEVEL001
   6
CONTINUOUS
  62
3
 100
AcDbVertex
 100
AcDb2dVertex
  10
 91.896002314858
  20
 237.78357312711
  30
0.0
   0
SEQEND
   5
104
 100
AcDbEntity
   8
LEVEL001
   6
CONTINUOUS
  62
3
   0
INSERT
   5
105
 100
AcDbEntity
   8
LEVEL001
   6
CONTINUOUS
  62
3
 100
AcDbBlockReference
   2
_OPEN30
  10
 125.66551835868
  20
 216.73201045962
  30
0.0
  41
 3.0000000000000
  42
 3.0000000000000
  43
 3.0000000000000
  50
 268.61927758123
   0
MTEXT
   5
106
 100
AcDbEntity
   8
LEVEL001
  62
3
 100
AcDbMText
  10
 91.896002314858
  20
 239.49785884140
  30
0.0
  40
 4.0000000000000
  41
0.0
  71
7
  72
1
   1
\A1;２－%%c４.２穴
   7
GMM001
   0
ENDBLK
   5
107
 100
AcDbEntity
   8
0
 100
AcDbBlockEnd
   0
BLOCK
   5
108
 100
AcDbEntity
   8
0
 100
AcDbBlockBegin
   2
*D10
  70
65
  10
0.0
  20
0.0
  30
0.0
   3
*D10
   0
POLYLINE
   5
109
 100
AcDbEntity
   8
LEVEL001
   6
CONTINUOUS
  62
3
 100
AcDb2dPolyline
  66
1
  10
0.0
  20
0.0
  30
0.0
  70
0
   0
VERTEX
   5
10A
 100
AcDbEntity
   8
LEVEL001
   6
CONTINUOUS
  62
3
 100
AcDbVertex
 100
AcDb2dVertex
  10
 141.56133793916
  20
 177.79816809863
  30
0.0
   0
VERTEX
   5
10B
 100
AcDbEntity
   8
LEVEL001
   6
CONTINUOUS
  62
3
 100
AcDbVertex
 100
AcDb2dVertex
  10
 145.26426684958
  20
 182.17952245393
  30
0.0
   0
VERTEX
   5
10C
 100
AcDbEntity
   8
LEVEL001
   6
CONTINUOUS
  62
3
 100
AcDbVertex
 100
AcDb2dVertex
  10
 156.21402877541
  20
 161.59397003338
  30
0.0
   0
VERTEX
   5
10D
 100
AcDbEntity
   8
LEVEL001
   6
CONTINUOUS
  62
3
 100
AcDbVertex
 100
AcDb2dVertex
  10
 180.91402877541
  20
 161.59397003338
  30
0.0
   0
SEQEND
   5
10E
 100
AcDbEntity
   8
LEVEL001
   6
CONTINUOUS
  62
3
   0
INSERT
   5
10F
 100
AcDbEntity
   8
LEVEL001
   6
CONTINUOUS
  62
3
 100
AcDbBlockReference
   2
_OPEN30
  10
 141.56133793916
  20
 177.79816809863
  30
0.0
  41
 3.0000000000000
  42
 3.0000000000000
  43
 3.0000000000000
  50
 229.79696823834
   0
MTEXT
   5
110
 100
AcDbEntity
   8
LEVEL001
  62
3
 100
AcDbMText
  10
 156.21402877541
  20
 163.30825574766
  30
0.0
  40
 4.0000000000000
  41
0.0
  71
7
  72
1
   1
\A1;４－%%c４.５穴
   7
GMM001
   0
ENDBLK
   5
111
 100
AcDbEntity
   8
0
 100
AcDbBlockEnd
   0
BLOCK
   5
112
 100
AcDbEntity
   8
0
 100
AcDbBlockBegin
   2
*D11
  70
65
  10
0.0
  20
0.0
  30
0.0
   3
*D11
   0
LINE
   5
113
 100
AcDbEntity
   8
LEVEL001
 100
AcDbLine
   6
CONTINUOUS
  62
3
  10
 148.56133793920
  20
 172.59239673273
  30
0.0
  11
 173.50215208034
  21
 172.59239673273
  31
0.0
   0
LINE
   5
114
 100
AcDbEntity
   8
LEVEL001
 100
AcDbLine
   6
CONTINUOUS
  62
3
  10
 153.13937144152
  20
 232.59239673273
  30
0.0
  11
 173.50215208034
  21
 232.59239673273
  31
0.0
   0
LINE
   5
115
 100
AcDbEntity
   8
LEVEL001
 100
AcDbLine
   6
CONTINUOUS
  62
3
  10
 172.50215208034
  20
 172.59239673273
  30
0.0
  11
 172.50215208034
  21
 202.59239673273
  31
0.0
   0
LINE
   5
116
 100
AcDbEntity
   8
LEVEL001
 100
AcDbLine
   6
CONTINUOUS
  62
3
  10
 172.50215208034
  20
 232.59239673273
  30
0.0
  11
 172.50215208034
  21
 202.59239673273
  31
0.0
   0
INSERT
   5
117
 100
AcDbEntity
   8
LEVEL001
   6
CONTINUOUS
  62
3
 100
AcDbBlockReference
   2
_OPEN30
  10
 172.50215208034
  20
 172.59239673273
  30
0.0
  41
 3.0000000000000
  42
 3.0000000000000
  43
 3.0000000000000
  50
 270.00000000000
   0
INSERT
   5
118
 100
AcDbEntity
   8
LEVEL001
   6
CONTINUOUS
  62
3
 100
AcDbBlockReference
   2
_OPEN30
  10
 172.50215208034
  20
 232.59239673273
  30
0.0
  41
 3.0000000000000
  42
 3.0000000000000
  43
 3.0000000000000
  50
 90.000000000000
   0
MTEXT
   5
119
 100
AcDbEntity
   8
LEVEL001
  62
3
 100
AcDbMText
  10
 170.78786636606
  20
 202.59239673273
  30
0.0
  40
 4.0000000000000
  41
0.0
  71
8
  72
1
   1
\A1;60
   7
GMM001
  11
0.0
  21
 1.0000000000000
  31
0.0
   0
ENDBLK
   5
11A
 100
AcDbEntity
   8
0
 100
AcDbBlockEnd
   0
BLOCK
   5
11B
 100
AcDbEntity
   8
0
 100
AcDbBlockBegin
   2
*D12
  70
65
  10
0.0
  20
0.0
  30
0.0
   3
*D12
   0
LINE
   5
11C
 100
AcDbEntity
   8
LEVEL001
 100
AcDbLine
   6
CONTINUOUS
  62
3
  10
 206.15119639813
  20
 221.52185457338
  30
0.0
  11
 206.15119639813
  21
 242.45055096700
  31
0.0
   0
LINE
   5
11D
 100
AcDbEntity
   8
LEVEL001
 100
AcDbLine
   6
CONTINUOUS
  62
3
  10
 251.15119639813
  20
 221.52185457338
  30
0.0
  11
 251.15119639813
  21
 242.45055096700
  31
0.0
   0
LINE
   5
11E
 100
AcDbEntity
   8
LEVEL001
 100
AcDbLine
   6
CONTINUOUS
  62
3
  10
 206.15119639813
  20
 241.45055096700
  30
0.0
  11
 228.65119639813
  21
 241.45055096700
  31
0.0
   0
LINE
   5
11F
 100
AcDbEntity
   8
LEVEL001
 100
AcDbLine
   6
CONTINUOUS
  62
3
  10
 251.15119639813
  20
 241.45055096700
  30
0.0
  11
 228.65119639813
  21
 241.45055096700
  31
0.0
   0
INSERT
   5
120
 100
AcDbEntity
   8
LEVEL001
   6
CONTINUOUS
  62
3
 100
AcDbBlockReference
   2
_OPEN30
  10
 206.15119639813
  20
 241.45055096700
  30
0.0
  41
 3.0000000000000
  42
 3.0000000000000
  43
 3.0000000000000
  50
 180.00000000000
   0
INSERT
   5
121
 100
AcDbEntity
   8
LEVEL001
   6
CONTINUOUS
  62
3
 100
AcDbBlockReference
   2
_OPEN30
  10
 251.15119639813
  20
 241.45055096700
  30
0.0
  41
 3.0000000000000
  42
 3.0000000000000
  43
 3.0000000000000
  50
0.0
   0
MTEXT
   5
122
 100
AcDbEntity
   8
LEVEL001
  62
3
 100
AcDbMText
  10
 228.65119639813
  20
 243.16483668129
  30
0.0
  40
 4.0000000000000
  41
0.0
  71
8
  72
1
   1
\A1;45
   7
GMM001
   0
ENDBLK
   5
123
 100
AcDbEntity
   8
0
 100
AcDbBlockEnd
   0
BLOCK
   5
124
 100
AcDbEntity
   8
0
 100
AcDbBlockBegin
   2
*D13
  70
65
  10
0.0
  20
0.0
  30
0.0
   3
*D13
   0
LINE
   5
125
 100
AcDbEntity
   8
LEVEL001
 100
AcDbLine
   6
CONTINUOUS
  62
3
  10
 216.65119639813
  20
 220.19997419936
  30
0.0
  11
 216.65119639813
  21
 233.96757165508
  31
0.0
   0
LINE
   5
126
 100
AcDbEntity
   8
LEVEL001
 100
AcDbLine
   6
CONTINUOUS
  62
3
  10
 240.65119639813
  20
 219.77366562441
  30
0.0
  11
 240.65119639813
  21
 233.96757165508
  31
0.0
   0
LINE
   5
127
 100
AcDbEntity
   8
LEVEL001
 100
AcDbLine
   6
CONTINUOUS
  62
3
  10
 216.65119639813
  20
 232.96757165508
  30
0.0
  11
 228.65119639813
  21
 232.96757165508
  31
0.0
   0
LINE
   5
128
 100
AcDbEntity
   8
LEVEL001
 100
AcDbLine
   6
CONTINUOUS
  62
3
  10
 240.65119639813
  20
 232.96757165508
  30
0.0
  11
 228.65119639813
  21
 232.96757165508
  31
0.0
   0
INSERT
   5
129
 100
AcDbEntity
   8
LEVEL001
   6
CONTINUOUS
  62
3
 100
AcDbBlockReference
   2
_OPEN30
  10
 216.65119639813
  20
 232.96757165508
  30
0.0
  41
 3.0000000000000
  42
 3.0000000000000
  43
 3.0000000000000
  50
 180.00000000000
   0
INSERT
   5
12A
 100
AcDbEntity
   8
LEVEL001
   6
CONTINUOUS
  62
3
 100
AcDbBlockReference
   2
_OPEN30
  10
 240.65119639813
  20
 232.96757165508
  30
0.0
  41
 3.0000000000000
  42
 3.0000000000000
  43
 3.0000000000000
  50
0.0
   0
MTEXT
   5
12B
 100
AcDbEntity
   8
LEVEL001
  62
3
 100
AcDbMText
  10
 228.65119639813
  20
 234.68185736937
  30
0.0
  40
 4.0000000000000
  41
0.0
  71
8
  72
1
   1
\A1;24
   7
GMM001
   0
ENDBLK
   5
12C
 100
AcDbEntity
   8
0
 100
AcDbBlockEnd
   0
BLOCK
   5
12D
 100
AcDbEntity
   8
0
 100
AcDbBlockBegin
   2
*D14
  70
65
  10
0.0
  20
0.0
  30
0.0
   3
*D14
   0
LINE
   5
12E
 100
AcDbEntity
   8
LEVEL001
 100
AcDbLine
   6
CONTINUOUS
  62
3
  10
 249.65119639813
  20
 195.71030901608
  30
0.0
  11
 249.65119639813
  21
 196.71030901608
  31
0.0
   0
LINE
   5
12F
 100
AcDbEntity
   8
LEVEL001
 100
AcDbLine
   6
CONTINUOUS
  62
3
  10
 251.15119639813
  20
 195.71030901608
  30
0.0
  11
 251.15119639813
  21
 196.71030901608
  31
0.0
   0
LINE
   5
130
 100
AcDbEntity
   8
LEVEL001
 100
AcDbLine
   6
CONTINUOUS
  62
3
  10
 245.90119639813
  20
 195.71030901608
  30
0.0
  11
 250.40119639813
  21
 195.71030901608
  31
0.0
   0
LINE
   5
131
 100
AcDbEntity
   8
LEVEL001
 100
AcDbLine
   6
CONTINUOUS
  62
3
  10
 262.02632110062
  20
 195.71030901608
  30
0.0
  11
 250.40119639813
  21
 195.71030901608
  31
0.0
   0
INSERT
   5
132
 100
AcDbEntity
   8
LEVEL001
   6
CONTINUOUS
  62
3
 100
AcDbBlockReference
   2
_OPEN30
  10
 249.65119639813
  20
 195.71030901608
  30
0.0
  41
 3.0000000000000
  42
 3.0000000000000
  43
 3.0000000000000
  50
0.0
   0
INSERT
   5
133
 100
AcDbEntity
   8
LEVEL001
   6
CONTINUOUS
  62
3
 100
AcDbBlockReference
   2
_OPEN30
  10
 251.15119639813
  20
 195.71030901608
  30
0.0
  41
 3.0000000000000
  42
 3.0000000000000
  43
 3.0000000000000
  50
 180.00000000000
   0
MTEXT
   5
134
 100
AcDbEntity
   8
LEVEL001
  62
3
 100
AcDbMText
  10
 252.52632110062
  20
 196.94380387305
  30
0.0
  40
 4.0000000000000
  41
0.0
  71
7
  72
1
   1
\A1;1.5
   7
GMM001
   0
ENDBLK
   5
135
 100
AcDbEntity
   8
0
 100
AcDbBlockEnd
   0
BLOCK
   5
136
 100
AcDbEntity
   8
0
 100
AcDbBlockBegin
   2
*D15
  70
65
  10
0.0
  20
0.0
  30
0.0
   3
*D15
   0
LINE
   5
137
 100
AcDbEntity
   8
LEVEL001
 100
AcDbLine
   6
CONTINUOUS
  62
3
  10
 208.55119639814
  20
 194.59239673273
  30
0.0
  11
 218.22181999560
  21
 194.59239673273
  31
0.0
   0
LINE
   5
138
 100
AcDbEntity
   8
LEVEL001
 100
AcDbLine
   6
CONTINUOUS
  62
3
  10
 208.55119639814
  20
 200.59239673273
  30
0.0
  11
 218.22181999560
  21
 200.59239673273
  31
0.0
   0
LINE
   5
139
 100
AcDbEntity
   8
LEVEL001
 100
AcDbLine
   6
CONTINUOUS
  62
3
  10
 217.22181999560
  20
 194.59239673273
  30
0.0
  11
 217.22181999560
  21
 197.59239673273
  31
0.0
   0
LINE
   5
13A
 100
AcDbEntity
   8
LEVEL001
 100
AcDbLine
   6
CONTINUOUS
  62
3
  10
 217.22181999560
  20
 200.59239673273
  30
0.0
  11
 217.22181999560
  21
 197.59239673273
  31
0.0
   0
INSERT
   5
13B
 100
AcDbEntity
   8
LEVEL001
   6
CONTINUOUS
  62
3
 100
AcDbBlockReference
   2
_OPEN30
  10
 217.22181999560
  20
 194.59239673273
  30
0.0
  41
 3.0000000000000
  42
 3.0000000000000
  43
 3.0000000000000
  50
 270.00000000000
   0
INSERT
   5
13C
 100
AcDbEntity
   8
LEVEL001
   6
CONTINUOUS
  62
3
 100
AcDbBlockReference
   2
_OPEN30
  10
 217.22181999560
  20
 200.59239673273
  30
0.0
  41
 3.0000000000000
  42
 3.0000000000000
  43
 3.0000000000000
  50
 90.000000000000
   0
MTEXT
   5
13D
 100
AcDbEntity
   8
LEVEL001
  62
3
 100
AcDbMText
  10
 215.50753428132
  20
 197.59239673273
  30
0.0
  40
 4.0000000000000
  41
0.0
  71
8
  72
1
   1
\A1;6
   7
GMM001
  11
0.0
  21
 1.0000000000000
  31
0.0
   0
ENDBLK
   5
13E
 100
AcDbEntity
   8
0
 100
AcDbBlockEnd
   0
BLOCK
   5
13F
 100
AcDbEntity
   8
0
 100
AcDbBlockBegin
   2
*D16
  70
65
  10
0.0
  20
0.0
  30
0.0
   3
*D16
   0
LINE
   5
140
 100
AcDbEntity
   8
LEVEL001
 100
AcDbLine
   6
CONTINUOUS
  62
3
  10
 205.15119639813
  20
 172.59239673273
  30
0.0
  11
 192.29743957530
  21
 172.59239673273
  31
0.0
   0
LINE
   5
141
 100
AcDbEntity
   8
LEVEL001
 100
AcDbLine
   6
CONTINUOUS
  62
3
  10
 202.02380967988
  20
 197.59239673273
  30
0.0
  11
 192.29743957530
  21
 197.59239673273
  31
0.0
   0
LINE
   5
142
 100
AcDbEntity
   8
LEVEL001
 100
AcDbLine
   6
CONTINUOUS
  62
3
  10
 193.29743957530
  20
 172.59239673273
  30
0.0
  11
 193.29743957530
  21
 185.09239673273
  31
0.0
   0
LINE
   5
143
 100
AcDbEntity
   8
LEVEL001
 100
AcDbLine
   6
CONTINUOUS
  62
3
  10
 193.29743957530
  20
 197.59239673273
  30
0.0
  11
 193.29743957530
  21
 185.09239673273
  31
0.0
   0
INSERT
   5
144
 100
AcDbEntity
   8
LEVEL001
   6
CONTINUOUS
  62
3
 100
AcDbBlockReference
   2
_OPEN30
  10
 193.29743957530
  20
 172.59239673273
  30
0.0
  41
 3.0000000000000
  42
 3.0000000000000
  43
 3.0000000000000
  50
 270.00000000000
   0
INSERT
   5
145
 100
AcDbEntity
   8
LEVEL001
   6
CONTINUOUS
  62
3
 100
AcDbBlockReference
   2
_OPEN30
  10
 193.29743957530
  20
 197.59239673273
  30
0.0
  41
 3.0000000000000
  42
 3.0000000000000
  43
 3.0000000000000
  50
 90.000000000000
   0
MTEXT
   5
146
 100
AcDbEntity
   8
LEVEL001
  62
3
 100
AcDbMText
  10
 191.58315386101
  20
 185.09239673273
  30
0.0
  40
 4.0000000000000
  41
0.0
  71
8
  72
1
   1
\A1;25
   7
GMM001
  11
0.0
  21
 1.0000000000000
  31
0.0
   0
ENDBLK
   5
147
 100
AcDbEntity
   8
0
 100
AcDbBlockEnd
   0
BLOCK
   5
148
 100
AcDbEntity
   8
0
 100
AcDbBlockBegin
   2
*D17
  70
65
  10
0.0
  20
0.0
  30
0.0
   3
*D17
   0
LINE
   5
149
 100
AcDbEntity
   8
LEVEL001
 100
AcDbLine
   6
CONTINUOUS
  62
3
  10
 206.65119639813
  20
 118.55912266960
  30
0.0
  11
 206.44885227189
  21
 118.70594519707
  31
0.0
   0
LINE
   5
14A
 100
AcDbEntity
   8
LEVEL001
 100
AcDbLine
   6
CONTINUOUS
  62
3
  10
 206.44885227189
  20
 118.70594519707
  30
0.0
  11
 185.17740321215
  21
 134.14067993335
  31
0.0
   0
INSERT
   5
14B
 100
AcDbEntity
   8
LEVEL001
   6
CONTINUOUS
  62
3
 100
AcDbBlockReference
   2
_OPEN30
  10
 206.24650814565
  20
 118.85276772455
  30
0.0
  41
 3.0000000000000
  42
 3.0000000000000
  43
 3.0000000000000
  50
 324.03505892513
   0
MTEXT
   5
14C
 100
AcDbEntity
   8
LEVEL001
  62
3
 100
AcDbMText
  10
 203.10015521173
  20
 123.25381921633
  30
0.0
  40
 4.0000000000000
  41
0.0
  71
9
  72
1
   1
\A1;4-R0.5
   7
GMM001
  11
 0.80937650497748
  21
-0.58729010990348
  31
0.0
   0
ENDBLK
   5
14D
 100
AcDbEntity
   8
0
 100
AcDbBlockEnd
   0
BLOCK
   5
14E
 100
AcDbEntity
   8
0
 100
AcDbBlockBegin
   2
*D18
  70
65
  10
0.0
  20
0.0
  30
0.0
   3
*D18
   0
LINE
   5
14F
 100
AcDbEntity
   8
LEVEL001
 100
AcDbLine
   6
CONTINUOUS
  62
3
  10
 250.85119639813
  20
 118.75912266960
  30
0.0
  11
 250.97137859458
  21
 118.84887922734
  31
0.0
   0
LINE
   5
150
 100
AcDbEntity
   8
LEVEL001
 100
AcDbLine
   6
CONTINUOUS
  62
3
  10
 250.97137859458
  20
 118.84887922734
  30
0.0
  11
 271.64370539569
  21
 134.28774579019
  31
0.0
   0
INSERT
   5
151
 100
AcDbEntity
   8
LEVEL001
   6
CONTINUOUS
  62
3
 100
AcDbBlockReference
   2
_OPEN30
  10
 251.09156079103
  20
 118.93863578508
  30
0.0
  41
 3.0000000000000
  42
 3.0000000000000
  43
 3.0000000000000
  50
 216.75375074200
   0
MTEXT
   5
152
 100
AcDbEntity
   8
LEVEL001
  62
3
 100
AcDbMText
  10
 253.87253012624
  20
 123.15517622818
  30
0.0
  40
 4.0000000000000
  41
0.0
  71
7
  72
1
   1
\A1;4-R0.3
   7
GMM001
  11
 0.80121464297217
  21
 0.59837705160457
  31
0.0
   0
ENDBLK
   5
153
 100
AcDbEntity
   8
0
 100
AcDbBlockEnd
   0
BLOCK
   5
154
 100
AcDbEntity
   8
0
 100
AcDbBlockBegin
   2
*D19
  70
65
  10
0.0
  20
0.0
  30
0.0
   3
*D19
   0
LINE
   5
155
 100
AcDbEntity
   8
LEVEL001
 100
AcDbLine
   6
CONTINUOUS
  62
3
  10
 206.15119639813
  20
 171.59239673273
  30
0.0
  11
 206.15119639813
  21
 156.89460664677
  31
0.0
   0
LINE
   5
156
 100
AcDbEntity
   8
LEVEL001
 100
AcDbLine
   6
CONTINUOUS
  62
3
  10
 251.15119639813
  20
 171.59239673273
  30
0.0
  11
 251.15119639813
  21
 156.89460664677
  31
0.0
   0
LINE
   5
157
 100
AcDbEntity
   8
LEVEL001
 100
AcDbLine
   6
CONTINUOUS
  62
3
  10
 206.15119639813
  20
 157.89460664677
  30
0.0
  11
 228.65119639813
  21
 157.89460664677
  31
0.0
   0
LINE
   5
158
 100
AcDbEntity
   8
LEVEL001
 100
AcDbLine
   6
CONTINUOUS
  62
3
  10
 251.15119639813
  20
 157.89460664677
  30
0.0
  11
 228.65119639813
  21
 157.89460664677
  31
0.0
   0
INSERT
   5
159
 100
AcDbEntity
   8
LEVEL001
   6
CONTINUOUS
  62
3
 100
AcDbBlockReference
   2
_OPEN30
  10
 206.15119639813
  20
 157.89460664677
  30
0.0
  41
 3.0000000000000
  42
 3.0000000000000
  43
 3.0000000000000
  50
 180.00000000000
   0
INSERT
   5
15A
 100
AcDbEntity
   8
LEVEL001
   6
CONTINUOUS
  62
3
 100
AcDbBlockReference
   2
_OPEN30
  10
 251.15119639813
  20
 157.89460664677
  30
0.0
  41
 3.0000000000000
  42
 3.0000000000000
  43
 3.0000000000000
  50
0.0
   0
MTEXT
   5
15B
 100
AcDbEntity
   8
LEVEL001
  62
3
 100
AcDbMText
  10
 228.65119639813
  20
 159.60889236105
  30
0.0
  40
 4.0000000000000
  41
0.0
  71
8
  72
1
   1
\A1;45
   7
GMM001
   0
ENDBLK
   5
15C
 100
AcDbEntity
   8
0
 100
AcDbBlockEnd
   0
BLOCK
   5
15D
 100
AcDbEntity
   8
0
 100
AcDbBlockBegin
   2
*D20
  70
65
  10
0.0
  20
0.0
  30
0.0
   3
*D20
   0
LINE
   5
15E
 100
AcDbEntity
   8
LEVEL001
 100
AcDbLine
   6
CONTINUOUS
  62
3
  10
 206.15119639813
  20
 120.05912266960
  30
0.0
  11
 206.15119639813
  21
 134.42223180935
  31
0.0
   0
LINE
   5
15F
 100
AcDbEntity
   8
LEVEL001
 100
AcDbLine
   6
CONTINUOUS
  62
3
  10
 215.15119639813
  20
 121.11027447131
  30
0.0
  11
 215.15119639813
  21
 134.42223180935
  31
0.0
   0
LINE
   5
160
 100
AcDbEntity
   8
LEVEL001
 100
AcDbLine
   6
CONTINUOUS
  62
3
  10
 206.15119639813
  20
 133.42223180935
  30
0.0
  11
 210.65119639813
  21
 133.42223180935
  31
0.0
   0
LINE
   5
161
 100
AcDbEntity
   8
LEVEL001
 100
AcDbLine
   6
CONTINUOUS
  62
3
  10
 215.15119639813
  20
 133.42223180935
  30
0.0
  11
 210.65119639813
  21
 133.42223180935
  31
0.0
   0
INSERT
   5
162
 100
AcDbEntity
   8
LEVEL001
   6
CONTINUOUS
  62
3
 100
AcDbBlockReference
   2
_OPEN30
  10
 206.15119639813
  20
 133.42223180935
  30
0.0
  41
 3.0000000000000
  42
 3.0000000000000
  43
 3.0000000000000
  50
 180.00000000000
   0
INSERT
   5
163
 100
AcDbEntity
   8
LEVEL001
   6
CONTINUOUS
  62
3
 100
AcDbBlockReference
   2
_OPEN30
  10
 215.15119639813
  20
 133.42223180935
  30
0.0
  41
 3.0000000000000
  42
 3.0000000000000
  43
 3.0000000000000
  50
0.0
   0
MTEXT
   5
164
 100
AcDbEntity
   8
LEVEL001
  62
3
 100
AcDbMText
  10
 210.65119639813
  20
 135.13651752364
  30
0.0
  40
 4.0000000000000
  41
0.0
  71
8
  72
1
   1
\A1;9
   7
GMM001
   0
ENDBLK
   5
165
 100
AcDbEntity
   8
0
 100
AcDbBlockEnd
   0
BLOCK
   5
166
 100
AcDbEntity
   8
0
 100
AcDbBlockBegin
   2
*D21
  70
65
  10
0.0
  20
0.0
  30
0.0
   3
*D21
   0
LINE
   5
167
 100
AcDbEntity
   8
LEVEL001
 100
AcDbLine
   6
CONTINUOUS
  62
3
  10
 233.65119639813
  20
 121.11027447131
  30
0.0
  11
 233.65119639813
  21
 134.42223180935
  31
0.0
   0
LINE
   5
168
 100
AcDbEntity
   8
LEVEL001
 100
AcDbLine
   6
CONTINUOUS
  62
3
  10
 215.15119639813
  20
 133.42223180935
  30
0.0
  11
 224.40119639813
  21
 133.42223180935
  31
0.0
   0
LINE
   5
169
 100
AcDbEntity
   8
LEVEL001
 100
AcDbLine
   6
CONTINUOUS
  62
3
  10
 233.65119639813
  20
 133.42223180935
  30
0.0
  11
 224.40119639813
  21
 133.42223180935
  31
0.0
   0
INSERT
   5
16A
 100
AcDbEntity
   8
LEVEL001
   6
CONTINUOUS
  62
3
 100
AcDbBlockReference
   2
_OPEN30
  10
 215.15119639813
  20
 133.42223180935
  30
0.0
  41
 3.0000000000000
  42
 3.0000000000000
  43
 3.0000000000000
  50
 180.00000000000
   0
INSERT
   5
16B
 100
AcDbEntity
   8
LEVEL001
   6
CONTINUOUS
  62
3
 100
AcDbBlockReference
   2
_OPEN30
  10
 233.65119639813
  20
 133.42223180935
  30
0.0
  41
 3.0000000000000
  42
 3.0000000000000
  43
 3.0000000000000
  50
0.0
   0
MTEXT
   5
16C
 100
AcDbEntity
   8
LEVEL001
  62
3
 100
AcDbMText
  10
 224.40119639813
  20
 135.13651752364
  30
0.0
  40
 4.0000000000000
  41
0.0
  71
8
  72
1
   1
\A1;18.5
   7
GMM001
   0
ENDBLK
   5
16D
 100
AcDbEntity
   8
0
 100
AcDbBlockEnd
   0
BLOCK
   5
16E
 100
AcDbEntity
   8
0
 100
AcDbBlockBegin
   2
*D22
  70
65
  10
0.0
  20
0.0
  30
0.0
   3
*D22
   0
LINE
   5
16F
 100
AcDbEntity
   8
LEVEL001
 100
AcDbLine
   6
CONTINUOUS
  62
3
  10
 251.15119639813
  20
 120.05912266960
  30
0.0
  11
 251.15119639813
  21
 134.42223180935
  31
0.0
   0
LINE
   5
170
 100
AcDbEntity
   8
LEVEL001
 100
AcDbLine
   6
CONTINUOUS
  62
3
  10
 233.65119639813
  20
 133.42223180935
  30
0.0
  11
 242.40119639813
  21
 133.42223180935
  31
0.0
   0
LINE
   5
171
 100
AcDbEntity
   8
LEVEL001
 100
AcDbLine
   6
CONTINUOUS
  62
3
  10
 251.15119639813
  20
 133.42223180935
  30
0.0
  11
 242.40119639813
  21
 133.42223180935
  31
0.0
   0
INSERT
   5
172
 100
AcDbEntity
   8
LEVEL001
   6
CONTINUOUS
  62
3
 100
AcDbBlockReference
   2
_OPEN30
  10
 233.65119639813
  20
 133.42223180935
  30
0.0
  41
 3.0000000000000
  42
 3.0000000000000
  43
 3.0000000000000
  50
 180.00000000000
   0
INSERT
   5
173
 100
AcDbEntity
   8
LEVEL001
   6
CONTINUOUS
  62
3
 100
AcDbBlockReference
   2
_OPEN30
  10
 251.15119639813
  20
 133.42223180935
  30
0.0
  41
 3.0000000000000
  42
 3.0000000000000
  43
 3.0000000000000
  50
0.0
   0
MTEXT
   5
174
 100
AcDbEntity
   8
LEVEL001
  62
3
 100
AcDbMText
  10
 242.40119639813
  20
 135.13651752364
  30
0.0
  40
 4.0000000000000
  41
0.0
  71
8
  72
1
   1
\A1;17.5
   7
GMM001
   0
ENDBLK
   5
175
 100
AcDbEntity
   8
0
 100
AcDbBlockEnd
   0
BLOCK
   5
176
 100
AcDbEntity
   8
0
 100
AcDbBlockBegin
   2
*D23
  70
65
  10
0.0
  20
0.0
  30
0.0
   3
*D23
   0
LINE
   5
177
 100
AcDbEntity
   8
LEVEL001
 100
AcDbLine
   6
CONTINUOUS
  62
3
  10
 242.65119639813
  20
 87.583254162158
  30
0.0
  11
 242.65119639813
  21
 73.615442170583
  31
0.0
   0
LINE
   5
178
 100
AcDbEntity
   8
LEVEL001
 100
AcDbLine
   6
CONTINUOUS
  62
3
  10
 224.15119639813
  20
 74.615442170583
  30
0.0
  11
 233.40119639813
  21
 74.615442170583
  31
0.0
   0
LINE
   5
179
 100
AcDbEntity
   8
LEVEL001
 100
AcDbLine
   6
CONTINUOUS
  62
3
  10
 242.65119639813
  20
 74.615442170583
  30
0.0
  11
 233.40119639813
  21
 74.615442170583
  31
0.0
   0
INSERT
   5
17A
 100
AcDbEntity
   8
LEVEL001
   6
CONTINUOUS
  62
3
 100
AcDbBlockReference
   2
_OPEN30
  10
 224.15119639813
  20
 74.615442170583
  30
0.0
  41
 3.0000000000000
  42
 3.0000000000000
  43
 3.0000000000000
  50
 180.00000000000
   0
INSERT
   5
17B
 100
AcDbEntity
   8
LEVEL001
   6
CONTINUOUS
  62
3
 100
AcDbBlockReference
   2
_OPEN30
  10
 242.65119639813
  20
 74.615442170583
  30
0.0
  41
 3.0000000000000
  42
 3.0000000000000
  43
 3.0000000000000
  50
0.0
   0
MTEXT
   5
17C
 100
AcDbEntity
   8
LEVEL001
  62
3
 100
AcDbMText
  10
 233.40119639813
  20
 76.329727884869
  30
0.0
  40
 4.0000000000000
  41
0.0
  71
8
  72
1
   1
\A1;18.5
   7
GMM001
   0
ENDBLK
   5
17D
 100
AcDbEntity
   8
0
 100
AcDbBlockEnd
   0
BLOCK
   5
17E
 100
AcDbEntity
   8
0
 100
AcDbBlockBegin
   2
*D24
  70
65
  10
0.0
  20
0.0
  30
0.0
   3
*D24
   0
LINE
   5
17F
 100
AcDbEntity
   8
LEVEL001
 100
AcDbLine
   6
CONTINUOUS
  62
3
  10
 251.15119639813
  20
 89.059122669599
  30
0.0
  11
 251.15119639813
  21
 73.615442170583
  31
0.0
   0
LINE
   5
180
 100
AcDbEntity
   8
LEVEL001
 100
AcDbLine
   6
CONTINUOUS
  62
3
  10
 251.15119639813
  20
 74.615442170583
  30
0.0
  11
 246.90119639813
  21
 74.615442170583
  31
0.0
   0
LINE
   5
181
 100
AcDbEntity
   8
LEVEL001
 100
AcDbLine
   6
CONTINUOUS
  62
3
  10
 242.65119639813
  20
 74.615442170583
  30
0.0
  11
 246.90119639813
  21
 74.615442170583
  31
0.0
   0
INSERT
   5
182
 100
AcDbEntity
   8
LEVEL001
   6
CONTINUOUS
  62
3
 100
AcDbBlockReference
   2
_OPEN30
  10
 251.15119639813
  20
 74.615442170583
  30
0.0
  41
 3.0000000000000
  42
 3.0000000000000
  43
 3.0000000000000
  50
0.0
   0
INSERT
   5
183
 100
AcDbEntity
   8
LEVEL001
   6
CONTINUOUS
  62
3
 100
AcDbBlockReference
   2
_OPEN30
  10
 242.65119639813
  20
 74.615442170583
  30
0.0
  41
 3.0000000000000
  42
 3.0000000000000
  43
 3.0000000000000
  50
 180.00000000000
   0
MTEXT
   5
184
 100
AcDbEntity
   8
LEVEL001
  62
3
 100
AcDbMText
  10
 246.90119639813
  20
 76.329727884869
  30
0.0
  40
 4.0000000000000
  41
0.0
  71
8
  72
1
   1
\A1;8.5
   7
GMM001
   0
ENDBLK
   5
185
 100
AcDbEntity
   8
0
 100
AcDbBlockEnd
   0
BLOCK
   5
186
 100
AcDbEntity
   8
0
 100
AcDbBlockBegin
   2
*D25
  70
65
  10
0.0
  20
0.0
  30
0.0
   3
*D25
   0
LINE
   5
187
 100
AcDbEntity
   8
LEVEL001
 100
AcDbLine
   6
CONTINUOUS
  62
3
  10
 206.15119639813
  20
 89.059122669599
  30
0.0
  11
 206.15119639813
  21
 73.615442170583
  31
0.0
   0
LINE
   5
188
 100
AcDbEntity
   8
LEVEL001
 100
AcDbLine
   6
CONTINUOUS
  62
3
  10
 224.15119639813
  20
 87.583254162158
  30
0.0
  11
 224.15119639813
  21
 73.615442170583
  31
0.0
   0
LINE
   5
189
 100
AcDbEntity
   8
LEVEL001
 100
AcDbLine
   6
CONTINUOUS
  62
3
  10
 206.15119639813
  20
 74.615442170583
  30
0.0
  11
 215.15119639813
  21
 74.615442170583
  31
0.0
   0
LINE
   5
18A
 100
AcDbEntity
   8
LEVEL001
 100
AcDbLine
   6
CONTINUOUS
  62
3
  10
 224.15119639813
  20
 74.615442170583
  30
0.0
  11
 215.15119639813
  21
 74.615442170583
  31
0.0
   0
INSERT
   5
18B
 100
AcDbEntity
   8
LEVEL001
   6
CONTINUOUS
  62
3
 100
AcDbBlockReference
   2
_OPEN30
  10
 206.15119639813
  20
 74.615442170583
  30
0.0
  41
 3.0000000000000
  42
 3.0000000000000
  43
 3.0000000000000
  50
 180.00000000000
   0
INSERT
   5
18C
 100
AcDbEntity
   8
LEVEL001
   6
CONTINUOUS
  62
3
 100
AcDbBlockReference
   2
_OPEN30
  10
 224.15119639813
  20
 74.615442170583
  30
0.0
  41
 3.0000000000000
  42
 3.0000000000000
  43
 3.0000000000000
  50
0.0
   0
MTEXT
   5
18D
 100
AcDbEntity
   8
LEVEL001
  62
3
 100
AcDbMText
  10
 215.15119639813
  20
 76.329727884869
  30
0.0
  40
 4.0000000000000
  41
0.0
  71
8
  72
1
   1
\A1;18
   7
GMM001
   0
ENDBLK
   5
18E
 100
AcDbEntity
   8
0
 100
AcDbBlockEnd
   0
ENDSEC
   0
SECTION
   2
ENTITIES
   0
LINE
   5
18F
 100
AcDbEntity
   8
LEVEL001
 100
AcDbLine
   6
CONTINUOUS
  62
7
  10
 118.56133793920
  20
 172.59239673273
  30
0.0
  11
 133.06133793920
  21
 172.59239673273
  31
0.0
   0
LINE
   5
190
 100
AcDbEntity
   8
LEVEL001
 100
AcDbLine
   6
CONTINUOUS
  62
7
  10
 133.06133793920
  20
 172.59239673273
  30
0.0
  11
 147.56133793920
  21
 172.59239673273
  31
0.0
   0
LINE
   5
191
 100
AcDbEntity
   8
LEVEL001
 100
AcDbLine
   6
CONTINUOUS
  62
7
  10
 120.51980693219
  20
 218.99239673273
  30
0.0
  11
 122.04816400976
  21
 218.99239673273
  31
0.0
   0
POINT
   5
192
 100
AcDbEntity
   8
LEVEL001
 100
AcDbPoint
  62
7
  10
 118.56133793920
  20
 218.99239673273
  30
0.0
   0
LINE
   5
193
 100
AcDbEntity
   8
LEVEL001
 100
AcDbLine
   6
CONTINUOUS
  62
7
  10
 144.07451186863
  20
 218.99239673273
  30
0.0
  11
 145.60286894622
  21
 218.99239673273
  31
0.0
   0
POINT
   5
194
 100
AcDbEntity
   8
LEVEL001
 100
AcDbPoint
  62
7
  10
 147.56133793920
  20
 218.99239673273
  30
0.0
   0
ARC
   5
195
 100
AcDbEntity
   8
LEVEL001
   6
CONTINUOUS
  62
7
 100
AcDbCircle
  10
 133.06133793920
  20
 232.59239673273
  30
0.0
  40
 17.500000000000
 100
AcDbArc
  50
 230.99971737201
  51
 309.00028262799
   0
LINE
   5
196
 100
AcDbEntity
   8
LEVEL001
 100
AcDbLine
   6
DASHDOT
  62
3
  10
 135.09651894894
  20
 236.95685649277
  30
0.0
  11
 123.36652560484
  21
 211.80180458880
  31
0.0
   0
LINE
   5
197
 100
AcDbEntity
   8
LEVEL001
 100
AcDbLine
   6
DASHDOT
  62
3
  10
 131.01980662619
  20
 236.97047476206
  30
0.0
  11
 142.67725483880
  21
 211.97099639464
  31
0.0
   0
LINE
   5
198
 100
AcDbEntity
   8
LEVEL001
 100
AcDbLine
   6
DASHDOT
  62
3
  10
 116.59200322238
  20
 197.59239673273
  30
0.0
  11
 122.46113407650
  21
 197.59239673273
  31
0.0
   0
LINE
   5
199
 100
AcDbEntity
   8
LEVEL001
 100
AcDbLine
   6
DASHDOT
  62
3
  10
 123.81832959181
  20
 180.57111300168
  30
0.0
  11
 126.83795380858
  21
 169.30172200493
  31
0.0
   0
LINE
   5
19A
 100
AcDbEntity
   8
LEVEL001
 100
AcDbLine
   6
DASHDOT
  62
3
  10
 142.29758650332
  20
 180.54588514708
  30
0.0
  11
 139.31934108245
  21
 169.43092191900
  31
0.0
   0
LINE
   5
19B
 100
AcDbEntity
   8
LEVEL001
 100
AcDbLine
   6
DASHDOT
  62
3
  10
 143.05512094882
  20
 197.59239673273
  30
0.0
  11
 149.68906071934
  21
 197.59239673273
  31
0.0
   0
LINE
   5
19C
 100
AcDbEntity
   8
LEVEL001
 100
AcDbLine
   6
DOT
  62
1
  10
 120.06133793920
  20
 217.09239673273
  30
0.0
  11
 121.56133793920
  21
 217.09239673273
  31
0.0
   0
LINE
   5
19D
 100
AcDbEntity
   8
LEVEL001
 100
AcDbLine
   6
DOT
  62
1
  10
 120.06133793920
  20
 217.09239673273
  30
0.0
  11
 120.06133793920
  21
 218.95421503576
  31
0.0
   0
ARC
   5
19E
 100
AcDbEntity
   8
LEVEL001
   6
DOT
  62
1
 100
AcDbCircle
  10
 128.81133793920
  20
 209.98847008270
  30
0.0
  40
 3.0000000000000
 100
AcDbArc
  50
0.0
  51
 79.351541721348
   0
ARC
   5
19F
 100
AcDbEntity
   8
LEVEL001
   6
DOT
  62
1
 100
AcDbCircle
  10
 137.31133793920
  20
 209.98847008270
  30
0.0
  40
 3.0000000000000
 100
AcDbArc
  50
 100.64845827864
  51
 180.00000000000
   0
LINE
   5
1A0
 100
AcDbEntity
   8
LEVEL001
 100
AcDbLine
   6
DOT
  62
1
  10
 122.75244915157
  20
 215.45393670961
  30
0.0
  11
 123.79952128032
  21
 217.69939013599
  31
0.0
   0
LINE
   5
1A1
 100
AcDbEntity
   8
LEVEL001
 100
AcDbLine
   6
DOT
  62
1
  10
 126.55894185707
  20
 213.67894001031
  30
0.0
  11
 127.65132048565
  21
 216.02155353911
  31
0.0
   0
LINE
   5
1A2
 100
AcDbEntity
   8
LEVEL001
 100
AcDbLine
   6
DOT
  62
1
  10
 139.56373402132
  20
 213.67894001031
  30
0.0
  11
 138.50304614373
  21
 215.95359250430
  31
0.0
   0
LINE
   5
1A3
 100
AcDbEntity
   8
LEVEL001
 100
AcDbLine
   6
DOT
  62
1
  10
 143.37022672683
  20
 215.45393670961
  30
0.0
  11
 142.30977940432
  21
 217.72807333155
  31
0.0
   0
LINE
   5
1A4
 100
AcDbEntity
   8
LEVEL001
 100
AcDbLine
   6
DOT
  62
1
  10
 120.06133793920
  20
 200.59239673273
  30
0.0
  11
 120.56133793920
  21
 200.59239673273
  31
0.0
   0
LINE
   5
1A5
 100
AcDbEntity
   8
LEVEL001
 100
AcDbLine
   6
DOT
  62
1
  10
 120.56133793920
  20
 197.59239673273
  30
0.0
  11
 120.56133793920
  21
 200.59239673273
  31
0.0
   0
LINE
   5
1A6
 100
AcDbEntity
   8
LEVEL001
 100
AcDbLine
   6
DOT
  62
1
  10
 120.56133793920
  20
 194.59239673273
  30
0.0
  11
 120.56133793920
  21
 197.59239673273
  31
0.0
   0
LINE
   5
1A7
 100
AcDbEntity
   8
LEVEL001
 100
AcDbLine
   6
DOT
  62
1
  10
 120.06133793922
  20
 194.59239673273
  30
0.0
  11
 120.56133793920
  21
 194.59239673273
  31
0.0
   0
LINE
   5
1A8
 100
AcDbEntity
   8
LEVEL001
 100
AcDbLine
   6
DOT
  62
1
  10
 145.56133793920
  20
 200.59239673273
  30
0.0
  11
 146.06133793920
  21
 200.59239673273
  31
0.0
   0
LINE
   5
1A9
 100
AcDbEntity
   8
LEVEL001
 100
AcDbLine
   6
DOT
  62
1
  10
 145.56133793920
  20
 194.59239673273
  30
0.0
  11
 145.56133793920
  21
 197.59239673273
  31
0.0
   0
LINE
   5
1AA
 100
AcDbEntity
   8
LEVEL001
 100
AcDbLine
   6
DOT
  62
1
  10
 145.56133793920
  20
 194.59239673273
  30
0.0
  11
 146.06133793917
  21
 194.59239673273
  31
0.0
   0
LINE
   5
1AB
 100
AcDbEntity
   8
LEVEL001
 100
AcDbLine
   6
DOT
  62
1
  10
 145.56133793920
  20
 197.59239673273
  30
0.0
  11
 145.56133793920
  21
 200.59239673273
  31
0.0
   0
LINE
   5
1AC
 100
AcDbEntity
   8
LEVEL001
 100
AcDbLine
   6
DOT
  62
1
  10
 120.06133793920
  20
 174.09239673273
  30
0.0
  11
 120.06133793920
  21
 215.59239673273
  31
0.0
   0
LINE
   5
1AD
 100
AcDbEntity
   8
LEVEL001
 100
AcDbLine
   6
DOT
  62
1
  10
 120.06133793920
  20
 215.59239673273
  30
0.0
  11
 120.56133793920
  21
 215.59239673273
  31
0.0
   0
LINE
   5
1AE
 100
AcDbEntity
   8
LEVEL001
 100
AcDbLine
   6
DOT
  62
1
  10
 120.56133793920
  20
 215.59239673273
  30
0.0
  11
 121.56133793920
  21
 216.59239673273
  31
0.0
   0
POINT
   5
1AF
 100
AcDbEntity
   8
LEVEL001
 100
AcDbPoint
  62
1
  10
 121.56133793920
  20
 215.59239673273
  30
0.0
   0
LINE
   5
1B0
 100
AcDbEntity
   8
LEVEL001
 100
AcDbLine
   6
DOT
  62
1
  10
 121.56133793920
  20
 216.59239673273
  30
0.0
  11
 121.56133793920
  21
 216.89239673273
  31
0.0
   0
LINE
   5
1B1
 100
AcDbEntity
   8
LEVEL001
 100
AcDbLine
   6
DOT
  62
1
  10
 120.06133793920
  20
 216.89239673273
  30
0.0
  11
 121.56133793920
  21
 216.89239673273
  31
0.0
   0
LINE
   5
1B2
 100
AcDbEntity
   8
LEVEL001
 100
AcDbLine
   6
DOT
  62
1
  10
 120.06133793920
  20
 216.89239673273
  30
0.0
  11
 120.06133793920
  21
 217.09239673273
  31
0.0
   0
ARC
   5
1B3
 100
AcDbEntity
   8
LEVEL001
   6
DOT
  62
1
 100
AcDbCircle
  10
 133.06133793919
  20
 232.59239673273
  30
0.0
  40
 20.000000000000
 100
AcDbArc
  50
 234.90036780462
  51
 259.35154172136
   0
LINE
   5
1B4
 100
AcDbEntity
   8
LEVEL001
 100
AcDbLine
   6
DOT
  62
1
  10
 121.56133793920
  20
 216.59239673273
  30
0.0
  11
 121.56133793920
  21
 216.22932856078
  31
0.0
   0
LINE
   5
1B5
 100
AcDbEntity
   8
LEVEL001
 100
AcDbLine
   6
DOT
  62
1
  10
 121.56133793920
  20
 216.89239673273
  30
0.0
  11
 121.56133793920
  21
 217.09239673273
  31
0.0
   0
LINE
   5
1B6
 100
AcDbEntity
   8
LEVEL001
 100
AcDbLine
   6
DOT
  62
1
  10
 146.06133793920
  20
 174.09239673273
  30
0.0
  11
 146.06133793920
  21
 215.59239673273
  31
0.0
   0
LINE
   5
1B7
 100
AcDbEntity
   8
LEVEL001
 100
AcDbLine
   6
DOT
  62
1
  10
 144.56133793920
  20
 216.59239673273
  30
0.0
  11
 145.56133793920
  21
 215.59239673273
  31
0.0
   0
LINE
   5
1B8
 100
AcDbEntity
   8
LEVEL001
 100
AcDbLine
   6
DOT
  62
1
  10
 146.06133793920
  20
 215.59239673273
  30
0.0
  11
 145.56133793920
  21
 215.59239673273
  31
0.0
   0
LINE
   5
1B9
 100
AcDbEntity
   8
LEVEL001
 100
AcDbLine
   6
DOT
  62
1
  10
 144.56133793920
  20
 216.59239673273
  30
0.0
  11
 144.56133793920
  21
 216.89239673273
  31
0.0
   0
LINE
   5
1BA
 100
AcDbEntity
   8
LEVEL001
 100
AcDbLine
   6
DOT
  62
1
  10
 144.56133793920
  20
 216.89239673273
  30
0.0
  11
 146.06133793920
  21
 216.89239673273
  31
0.0
   0
LINE
   5
1BB
 100
AcDbEntity
   8
LEVEL001
 100
AcDbLine
   6
DOT
  62
1
  10
 146.06133793920
  20
 216.89239673273
  30
0.0
  11
 146.06133793920
  21
 217.09239673273
  31
0.0
   0
ARC
   5
1BC
 100
AcDbEntity
   8
LEVEL001
   6
DOT
  62
1
 100
AcDbCircle
  10
 133.06133793920
  20
 232.59239673273
  30
0.0
  40
 20.000000000000
 100
AcDbArc
  50
 280.64845827864
  51
 305.09963219539
   0
LINE
   5
1BD
 100
AcDbEntity
   8
LEVEL001
 100
AcDbLine
   6
DOT
  62
1
  10
 146.06133793920
  20
 217.09239673273
  30
0.0
  11
 144.56133793920
  21
 217.09239673273
  31
0.0
   0
LINE
   5
1BE
 100
AcDbEntity
   8
LEVEL001
 100
AcDbLine
   6
DOT
  62
1
  10
 146.06133793920
  20
 217.09239673273
  30
0.0
  11
 146.06133793920
  21
 218.95421503576
  31
0.0
   0
LINE
   5
1BF
 100
AcDbEntity
   8
LEVEL001
 100
AcDbLine
   6
DOT
  62
1
  10
 144.56133793920
  20
 216.59239673273
  30
0.0
  11
 144.56133793920
  21
 216.22932856078
  31
0.0
   0
LINE
   5
1C0
 100
AcDbEntity
   8
LEVEL001
 100
AcDbLine
   6
DOT
  62
1
  10
 144.56133793920
  20
 216.89239673273
  30
0.0
  11
 144.56133793920
  21
 217.09239673273
  31
0.0
   0
LINE
   5
1C1
 100
AcDbEntity
   8
LEVEL001
 100
AcDbLine
   6
DOT
  62
1
  10
 134.31133793920
  20
 180.50812673172
  30
0.0
  11
 134.31133793920
  21
 209.98847008270
  31
0.0
   0
LINE
   5
1C2
 100
AcDbEntity
   8
LEVEL001
 100
AcDbLine
   6
DOT
  62
1
  10
 131.81133793920
  20
 180.50812673172
  30
0.0
  11
 131.81133793920
  21
 209.98847008270
  31
0.0
   0
ARC
   5
1C3
 100
AcDbEntity
   8
LEVEL001
   6
DOT
  62
1
 100
AcDbCircle
  10
 135.31133793920
  20
 176.36702201008
  30
0.0
  40
 1.0000000000000
 100
AcDbArc
  50
 75.000000000010
  51
 179.99999999998
   0
ARC
   5
1C4
 100
AcDbEntity
   8
LEVEL001
   6
DOT
  62
1
 100
AcDbCircle
  10
 135.31133793920
  20
 180.50812673173
  30
0.0
  40
 1.0000000000000
 100
AcDbArc
  50
 180.00000000009
  51
 255.00000000002
   0
ARC
   5
1C5
 100
AcDbEntity
   8
LEVEL001
   6
DOT
  62
1
 100
AcDbCircle
  10
 130.81133793920
  20
 180.50812673172
  30
0.0
  40
 1.0000000000000
 100
AcDbArc
  50
 285.00000000001
  51
 0.17912883966003E-10
   0
ARC
   5
1C6
 100
AcDbEntity
   8
LEVEL001
   6
DOT
  62
1
 100
AcDbCircle
  10
 130.81133793920
  20
 176.36702201008
  30
0.0
  40
 1.0000000000000
 100
AcDbArc
  50
 0.37454211928914E-10
  51
 104.99999999999
   0
LINE
   5
1C7
 100
AcDbEntity
   8
LEVEL001
 100
AcDbLine
   6
DOT
  62
1
  10
 131.81133793920
  20
 174.09239673273
  30
0.0
  11
 131.81133793920
  21
 176.36702201008
  31
0.0
   0
LINE
   5
1C8
 100
AcDbEntity
   8
LEVEL001
 100
AcDbLine
   6
DOT
  62
1
  10
 134.31133793920
  20
 174.09239673273
  30
0.0
  11
 134.31133793920
  21
 176.36702201008
  31
0.0
   0
LINE
   5
1C9
 100
AcDbEntity
   8
LEVEL001
 100
AcDbLine
   6
DOT
  62
1
  10
 120.06133793940
  20
 176.59239673273
  30
0.0
  11
 131.07015698430
  21
 179.54220090543
  31
0.0
   0
LINE
   5
1CA
 100
AcDbEntity
   8
LEVEL001
 100
AcDbLine
   6
DOT
  62
1
  10
 146.05493673069
  20
 176.59411193133
  30
0.0
  11
 135.05251889409
  21
 179.54220090543
  31
0.0
   0
LINE
   5
1CB
 100
AcDbEntity
   8
LEVEL001
 100
AcDbLine
   6
DOT
  62
1
  10
 122.90564292030
  20
 175.28397359457
  30
0.0
  11
 122.38800483010
  21
 177.21582524715
  31
0.0
   0
LINE
   5
1CC
 100
AcDbEntity
   8
LEVEL001
 100
AcDbLine
   6
DOT
  62
1
  10
 127.25230913863
  20
 176.44865929754
  30
0.0
  11
 126.73467104842
  21
 178.38051095012
  31
0.0
   0
LINE
   5
1CD
 100
AcDbEntity
   8
LEVEL001
 100
AcDbLine
   6
DOT
  62
1
  10
 138.87036673976
  20
 176.44865929754
  30
0.0
  11
 139.38800482997
  21
 178.38051095012
  31
0.0
   0
LINE
   5
1CE
 100
AcDbEntity
   8
LEVEL001
 100
AcDbLine
   6
DOT
  62
1
  10
 143.21703295809
  20
 175.28397359457
  30
0.0
  11
 143.73467104830
  21
 177.21582524715
  31
0.0
   0
LINE
   5
1CF
 100
AcDbEntity
   8
LEVEL001
 100
AcDbLine
   6
DOT
  62
1
  10
 144.06133793920
  20
 175.05774275672
  30
0.0
  11
 135.57015698430
  21
 177.33294783637
  31
0.0
   0
LINE
   5
1D0
 100
AcDbEntity
   8
LEVEL001
 100
AcDbLine
   6
DOT
  62
1
  10
 144.06133793920
  20
 172.59239673273
  30
0.0
  11
 144.06133793920
  21
 175.05774275672
  31
0.0
   0
LINE
   5
1D1
 100
AcDbEntity
   8
LEVEL001
 100
AcDbLine
   6
DOT
  62
1
  10
 118.56133793920
  20
 174.09239673273
  30
0.0
  11
 147.56133793920
  21
 174.09239673273
  31
0.0
   0
LINE
   5
1D2
 100
AcDbEntity
   8
LEVEL001
 100
AcDbLine
   6
DOT
  62
1
  10
 122.06133793920
  20
 175.05774275672
  30
0.0
  11
 130.55251889409
  21
 177.33294783637
  31
0.0
   0
LINE
   5
1D3
 100
AcDbEntity
   8
LEVEL001
 100
AcDbLine
   6
DOT
  62
1
  10
 122.06133793920
  20
 172.59239673273
  30
0.0
  11
 122.06133793920
  21
 175.05774275672
  31
0.0
   0
LINE
   5
1D4
 100
AcDbEntity
   8
LEVEL001
 100
AcDbLine
   6
DASHDOT
  62
3
  10
 133.06133793920
  20
 238.88181629593
  30
0.0
  11
 133.06133793920
  21
 166.51306255944
  31
0.0
   0
DIMENSION
   5
1D5
 100
AcDbEntity
   8
LEVEL001
   6
CONTINUOUS
  62
3
 100
AcDbDimension
   2
*D1
  10
 141.56133793916
  20
 157.89460664677
  30
0.0
  11
 133.06133793920
  21
 157.89460664677
  31
0.0
  70
0
   3
GMM001
 100
AcDbAlignedDimension
  13
 124.56133793924
  23
 177.79816809863
  33
0.0
  14
 141.56133793916
  24
 177.79816809863
  34
0.0
 100
AcDbRotatedDimension
   0
DIMENSION
   5
1D6
 100
AcDbEntity
   8
LEVEL001
   6
CONTINUOUS
  62
3
 100
AcDbDimension
   2
*D2
  10
 134.31133793920
  20
 189.79907890735
  30
0.0
  11
 133.06133793920
  21
 189.79907890735
  31
0.0
  70
0
   3
GMM001
 100
AcDbAlignedDimension
  13
 131.81133793920
  23
 189.71721627105
  33
0.0
  14
 134.31133793920
  24
 189.79907890735
  34
0.0
 100
AcDbRotatedDimension
   0
DIMENSION
   5
1D7
 100
AcDbEntity
   8
LEVEL001
   6
CONTINUOUS
  62
3
 100
AcDbDimension
   2
*D3
  10
 111.54686260647
  20
 174.09239673273
  30
0.0
  11
 111.54686260647
  21
 169.83697706369
  31
0.0
  70
128
   3
GMM002
 100
AcDbAlignedDimension
  13
 118.56133793920
  23
 172.59239673273
  33
0.0
  14
 118.56133793920
  24
 174.09239673273
  34
0.0
  50
 90.000000000000
 100
AcDbRotatedDimension
   0
DIMENSION
   5
1D8
 100
AcDbEntity
   8
LEVEL001
   6
CONTINUOUS
  62
3
 100
AcDbDimension
   2
*D4
  10
 102.98198428314
  20
 176.59239673273
  30
0.0
  11
 102.98198428314
  21
 174.59239673273
  31
0.0
  70
0
   3
GMM001
 100
AcDbAlignedDimension
  13
 110.54686260647
  23
 172.59239673273
  33
0.0
  14
 120.06133793940
  24
 176.59239673273
  34
0.0
  50
 90.000000000000
 100
AcDbRotatedDimension
   0
ARC
   5
1D9
 100
AcDbEntity
   8
LEVEL001
   6
CONTINUOUS
  62
7
 100
AcDbCircle
  10
 133.06133793920
  20
 232.59239673274
  30
0.0
  40
 18.500000000000
 100
AcDbArc
  50
 269.99999999998
  51
 312.68136391983
   0
ARC
   5
1DA
 100
AcDbEntity
   8
LEVEL001
   6
CONTINUOUS
  62
7
 100
AcDbCircle
  10
 133.06133793919
  20
 232.59239673274
  30
0.0
  40
 18.500000000000
 100
AcDbArc
  50
 227.31863608017
  51
 270.00000000002
   0
LINE
   5
1DB
 100
AcDbEntity
   8
LEVEL001
 100
AcDbLine
   6
DASHDOT
  62
3
  10
 125.83451159988
  20
 232.59239673273
  30
0.0
  11
 151.52060053447
  21
 232.59239673273
  31
0.0
   0
LINE
   5
1DC
 100
AcDbEntity
   8
LEVEL001
 100
AcDbLine
   6
CONTINUOUS
  62
7
  10
 118.86133793920
  20
 218.99239673273
  30
0.0
  11
 120.51980693219
  21
 218.99239673273
  31
0.0
   0
ARC
   5
1DD
 100
AcDbEntity
   8
LEVEL001
   6
CONTINUOUS
  62
7
 100
AcDbCircle
  10
 118.86133793920
  20
 218.69239673274
  30
0.0
  40
 0.30000000000000
 100
AcDbArc
  50
 90.000000000000
  51
 180.00000000169
   0
LINE
   5
1DE
 100
AcDbEntity
   8
LEVEL001
 100
AcDbLine
   6
CONTINUOUS
  62
7
  10
 118.56133793920
  20
 172.59239673273
  30
0.0
  11
 118.56133793920
  21
 218.69239673273
  31
0.0
   0
LINE
   5
1DF
 100
AcDbEntity
   8
LEVEL001
 100
AcDbLine
   6
CONTINUOUS
  62
7
  10
 145.60286894622
  20
 218.99239673273
  30
0.0
  11
 147.26133793920
  21
 218.99239673273
  31
0.0
   0
ARC
   5
1E0
 100
AcDbEntity
   8
LEVEL001
   6
CONTINUOUS
  62
7
 100
AcDbCircle
  10
 147.26133793920
  20
 218.69239673274
  30
0.0
  40
 0.30000000000000
 100
AcDbArc
  50
0.0
  51
 90.000000000000
   0
LINE
   5
1E1
 100
AcDbEntity
   8
LEVEL001
 100
AcDbLine
   6
CONTINUOUS
  62
7
  10
 147.56133793920
  20
 172.59239673273
  30
0.0
  11
 147.56133793920
  21
 218.69239673273
  31
0.0
   0
DIMENSION
   5
1E2
 100
AcDbEntity
   8
LEVEL001
   6
CONTINUOUS
  62
3
 100
AcDbDimension
   2
*D5
  10
 133.06133793920
  20
 232.59239673273
  30
0.0
  11
 147.46841648304
  21
 210.05290548529
  31
0.0
  70
132
   3
GMM003
 100
AcDbRadialDimension
  15
 142.48633142753
  25
 217.84724506363
  35
0.0
  40
 9.4080644381829
   0
DIMENSION
   5
1E3
 100
AcDbEntity
   8
LEVEL001
   6
CONTINUOUS
  62
3
 100
AcDbDimension
   2
*D6
  10
 133.06133793919
  20
 232.59239673273
  30
0.0
  11
 140.65398335307
  21
 205.34054025590
  31
0.0
  70
132
   3
GMM004
 100
AcDbRadialDimension
  15
 138.42910256817
  25
 213.32618011172
  35
0.0
  40
 8.3523245815278
   0
DIMENSION
   5
1E4
 100
AcDbEntity
   8
LEVEL001
   6
CONTINUOUS
  62
3
 100
AcDbDimension
   2
*D7
  10
 93.617575652728
  20
 218.99239673273
  30
0.0
  11
 93.617575652728
  21
 195.79239673273
  31
0.0
  70
0
   3
GMM001
 100
AcDbAlignedDimension
  13
 101.98198428314
  23
 172.59239673273
  33
0.0
  14
 118.56133793920
  24
 218.99239673273
  34
0.0
  50
 90.000000000000
 100
AcDbRotatedDimension
   0
DIMENSION
   5
1E5
 100
AcDbEntity
   8
LEVEL001
   6
CONTINUOUS
  62
3
 100
AcDbDimension
   2
*D8
  10
 147.56133793920
  20
 148.08127075197
  30
0.0
  11
 133.06133793920
  21
 148.08127075197
  31
0.0
  70
0
   3
GMM001
 100
AcDbAlignedDimension
  13
 118.56133793920
  23
 172.59239673273
  33
0.0
  14
 147.56133793920
  24
 172.59239673273
  34
0.0
 100
AcDbRotatedDimension
   0
INSERT
   5
1E6
 100
AcDbEntity
   8
LEVEL001
 100
AcDbBlockReference
   2
*D9
  10
0.0
  20
0.0
  30
0.0
   0
INSERT
   5
1E7
 100
AcDbEntity
   8
LEVEL001
 100
AcDbBlockReference
   2
*D10
  10
0.0
  20
0.0
  30
0.0
   0
DIMENSION
   5
1E8
 100
AcDbEntity
   8
LEVEL001
   6
CONTINUOUS
  62
3
 100
AcDbDimension
   2
*D11
  10
 172.50215208034
  20
 232.59239673273
  30
0.0
  11
 172.50215208034
  21
 202.59239673273
  31
0.0
  70
0
   3
GMM001
 100
AcDbAlignedDimension
  13
 147.56133793920
  23
 172.59239673273
  33
0.0
  14
 152.13937144152
  24
 232.59239673273
  34
0.0
  50
 90.000000000000
 100
AcDbRotatedDimension
   0
LINE
   5
1E9
 100
AcDbEntity
   8
LEVEL001
 100
AcDbLine
   6
CONTINUOUS
  62
7
  10
 206.15119639813
  20
 174.09239673273
  30
0.0
  11
 206.15119639813
  21
 215.09239673273
  31
0.0
   0
LINE
   5
1EA
 100
AcDbEntity
   8
LEVEL001
 100
AcDbLine
   6
CONTINUOUS
  62
7
  10
 206.15119639813
  20
 172.59239673273
  30
0.0
  11
 206.15119639813
  21
 174.09239673273
  31
0.0
   0
LINE
   5
1EB
 100
AcDbEntity
   8
LEVEL001
 100
AcDbLine
   6
CONTINUOUS
  62
7
  10
 206.15119639813
  20
 215.09239673273
  30
0.0
  11
 206.15119639813
  21
 216.09239673273
  31
0.0
   0
LINE
   5
1EC
 100
AcDbEntity
   8
LEVEL001
 100
AcDbLine
   6
CONTINUOUS
  62
7
  10
 206.15119639813
  20
 174.09239673273
  30
0.0
  11
 228.65119639813
  21
 174.09239673273
  31
0.0
   0
LINE
   5
1ED
 100
AcDbEntity
   8
LEVEL001
 100
AcDbLine
   6
CONTINUOUS
  62
7
  10
 251.15119639813
  20
 174.09239673273
  30
0.0
  11
 251.15119639813
  21
 215.09239673273
  31
0.0
   0
LINE
   5
1EE
 100
AcDbEntity
   8
LEVEL001
 100
AcDbLine
   6
CONTINUOUS
  62
7
  10
 251.15119639813
  20
 172.59239673273
  30
0.0
  11
 251.15119639813
  21
 174.09239673273
  31
0.0
   0
LINE
   5
1EF
 100
AcDbEntity
   8
LEVEL001
 100
AcDbLine
   6
CONTINUOUS
  62
7
  10
 251.15119639813
  20
 172.59239673273
  30
0.0
  11
 228.65119639813
  21
 172.59239673273
  31
0.0
   0
LINE
   5
1F0
 100
AcDbEntity
   8
LEVEL001
 100
AcDbLine
   6
CONTINUOUS
  62
7
  10
 251.15119639813
  20
 215.09239673273
  30
0.0
  11
 251.15119639813
  21
 216.09239673273
  31
0.0
   0
LINE
   5
1F1
 100
AcDbEntity
   8
LEVEL001
 100
AcDbLine
   6
CONTINUOUS
  62
7
  10
 249.65119639813
  20
 174.09239673273
  30
0.0
  11
 228.65119639813
  21
 174.09239673273
  31
0.0
   0
LINE
   5
1F2
 100
AcDbEntity
   8
LEVEL001
 100
AcDbLine
   6
CONTINUOUS
  62
7
  10
 249.65119639813
  20
 174.09239673273
  30
0.0
  11
 251.15119639813
  21
 174.09239673273
  31
0.0
   0
POINT
   5
1F3
 100
AcDbEntity
   8
LEVEL001
 100
AcDbPoint
  62
7
  10
 206.15119639813
  20
 220.52185457338
  30
0.0
   0
POINT
   5
1F4
 100
AcDbEntity
   8
LEVEL001
 100
AcDbPoint
  62
7
  10
 251.15119639813
  20
 220.52185457338
  30
0.0
   0
LINE
   5
1F5
 100
AcDbEntity
   8
LEVEL001
 100
AcDbLine
   6
CONTINUOUS
  62
7
  10
 206.15119639813
  20
 172.59239673273
  30
0.0
  11
 228.65119639813
  21
 172.59239673273
  31
0.0
   0
ELLIPSE
   5
1F6
 100
AcDbEntity
   8
LEVEL001
   6
DOT
  62
1
 100
AcDbEllipse
  10
 216.65119639813
  20
 214.46624099203
  30
0.0
  11
-2.2500000000000
  21
0.0
  31
0.0
  40
 0.32000000000000
  41
0.0
  42
 6.2831853071796
   0
ELLIPSE
   5
1F7
 100
AcDbEntity
   8
LEVEL001
   6
DOT
  62
1
 100
AcDbEllipse
  10
 240.65119639813
  20
 214.46624099203
  30
0.0
  11
-2.2500000000000
  21
0.0
  31
0.0
  40
 0.32000000000000
  41
0.0
  42
 6.2831853071796
   0
LINE
   5
1F8
 100
AcDbEntity
   8
LEVEL001
 100
AcDbLine
   6
DOT
  62
1
  10
 208.15119639813
  20
 219.92891835849
  30
0.0
  11
 249.65119639813
  21
 219.92891835849
  31
0.0
   0
LINE
   5
1F9
 100
AcDbEntity
   8
LEVEL001
 100
AcDbLine
   6
DOT
  62
1
  10
 206.15119639813
  20
 217.09239673273
  30
0.0
  11
 249.65119639813
  21
 217.09239673273
  31
0.0
   0
LINE
   5
1FA
 100
AcDbEntity
   8
LEVEL001
 100
AcDbLine
   6
DOT
  62
1
  10
 206.15119639813
  20
 215.59239673273
  30
0.0
  11
 249.65119639813
  21
 215.59239673273
  31
0.0
   0
LINE
   5
1FB
 100
AcDbEntity
   8
LEVEL001
 100
AcDbLine
   6
DOT
  62
1
  10
 208.15119639813
  20
 212.43542804772
  30
0.0
  11
 249.65119639813
  21
 212.43542804772
  31
0.0
   0
LINE
   5
1FC
 100
AcDbEntity
   8
LEVEL001
 100
AcDbLine
   6
DOT
  62
1
  10
 249.65119639813
  20
 174.09239673273
  30
0.0
  11
 249.65119639813
  21
 220.52185457338
  31
0.0
   0
LINE
   5
1FD
 100
AcDbEntity
   8
LEVEL001
 100
AcDbLine
   6
DOT
  62
1
  10
 249.65119639813
  20
 214.09239673273
  30
0.0
  11
 251.15119639813
  21
 214.09239673273
  31
0.0
   0
LINE
   5
1FE
 100
AcDbEntity
   8
LEVEL001
 100
AcDbLine
   6
DASHDOT
  62
3
  10
 240.65119639813
  20
 218.77366562441
  30
0.0
  11
 240.65119639813
  21
 210.35407126915
  31
0.0
   0
LINE
   5
1FF
 100
AcDbEntity
   8
LEVEL001
 100
AcDbLine
   6
DASHDOT
  62
3
  10
 216.65119639813
  20
 219.19997419936
  30
0.0
  11
 216.65119639813
  21
 210.03433983794
  31
0.0
   0
LINE
   5
200
 100
AcDbEntity
   8
LEVEL001
 100
AcDbLine
   6
DIVIDE
  62
3
  10
 211.70664015932
  20
 214.46624099203
  30
0.0
  11
 246.06380082025
  21
 214.46624099203
  31
0.0
   0
LINE
   5
201
 100
AcDbEntity
   8
LEVEL001
 100
AcDbLine
   6
DASHDOT
  62
3
  10
 203.02380967988
  20
 197.59239673273
  30
0.0
  11
 209.96769473247
  21
 197.59239673273
  31
0.0
   0
LINE
   5
202
 100
AcDbEntity
   8
LEVEL001
 100
AcDbLine
   6
DASHDOT
  62
3
  10
 215.15119639813
  20
 181.89374111687
  30
0.0
  11
 215.15119639813
  21
 169.77709328963
  31
0.0
   0
LINE
   5
203
 100
AcDbEntity
   8
LEVEL001
 100
AcDbLine
   6
DASHDOT
  62
3
  10
 224.15119639813
  20
 181.89374111687
  30
0.0
  11
 224.15119639813
  21
 169.77709328963
  31
0.0
   0
LINE
   5
204
 100
AcDbEntity
   8
LEVEL001
 100
AcDbLine
   6
DASHDOT
  62
3
  10
 233.65119639813
  20
 181.69631352670
  30
0.0
  11
 233.65119639813
  21
 169.77709328963
  31
0.0
   0
LINE
   5
205
 100
AcDbEntity
   8
LEVEL001
 100
AcDbLine
   6
DASHDOT
  62
3
  10
 242.65119639813
  20
 181.69631352670
  30
0.0
  11
 242.65119639813
  21
 169.77709328963
  31
0.0
   0
LINE
   5
206
 100
AcDbEntity
   8
LEVEL001
 100
AcDbLine
   6
DASHDOT
  62
3
  10
 206.96027404710
  20
 177.79816809862
  30
0.0
  11
 250.25369028176
  21
 177.79816809862
  31
0.0
   0
LINE
   5
207
 100
AcDbEntity
   8
LEVEL001
 100
AcDbLine
   6
DOT
  62
1
  10
 208.15119639813
  20
 176.59239673275
  30
0.0
  11
 208.15119639813
  21
 220.52185457338
  31
0.0
   0
LINE
   5
208
 100
AcDbEntity
   8
LEVEL001
 100
AcDbLine
   6
DOT
  62
1
  10
 208.15119639813
  20
 179.74079974374
  30
0.0
  11
 249.65119639813
  21
 179.74079974374
  31
0.0
   0
LINE
   5
209
 100
AcDbEntity
   8
LEVEL001
 100
AcDbLine
   6
DOT
  62
1
  10
 206.15119639813
  20
 176.59239673275
  30
0.0
  11
 249.65119639813
  21
 176.59239673275
  31
0.0
   0
ELLIPSE
   5
20A
 100
AcDbEntity
   8
LEVEL001
   6
DOT
  62
1
 100
AcDbEllipse
  10
 215.15119639813
  20
 177.79816809862
  30
0.0
  11
-2.2500000000000
  21
0.0
  31
0.0
  40
 0.42222222222222
  41
0.0
  42
 6.2831853071796
   0
ELLIPSE
   5
20B
 100
AcDbEntity
   8
LEVEL001
   6
DOT
  62
1
 100
AcDbEllipse
  10
 224.15119639813
  20
 177.79816809862
  30
0.0
  11
-2.2500000000000
  21
0.0
  31
0.0
  40
 0.42222222222222
  41
0.0
  42
 6.2831853071796
   0
ELLIPSE
   5
20C
 100
AcDbEntity
   8
LEVEL001
   6
DOT
  62
1
 100
AcDbEllipse
  10
 233.65119639813
  20
 177.79816809862
  30
0.0
  11
-2.2500000000000
  21
0.0
  31
0.0
  40
 0.42222222222222
  41
0.0
  42
 6.2831853071796
   0
ELLIPSE
   5
20D
 100
AcDbEntity
   8
LEVEL001
   6
DOT
  62
1
 100
AcDbEllipse
  10
 242.65119639813
  20
 177.79816809862
  30
0.0
  11
-2.2500000000000
  21
0.0
  31
0.0
  40
 0.42222222222222
  41
0.0
  42
 6.2831853071796
   0
ARC
   5
20E
 100
AcDbEntity
   8
LEVEL001
   6
DOT
  62
1
 100
AcDbCircle
  10
 210.65119639813
  20
 178.54871747614
  30
0.0
  40
 0.50000000000000
 100
AcDbArc
  50
 0.55367095894917E-9
  51
 90.000000000000
   0
POINT
   5
20F
 100
AcDbEntity
   8
LEVEL001
 100
AcDbPoint
  62
1
  10
 211.15119639813
  20
 179.04871747614
  30
0.0
   0
ARC
   5
210
 100
AcDbEntity
   8
LEVEL001
   6
DOT
  62
1
 100
AcDbCircle
  10
 208.85119639814
  20
 178.54871747614
  30
0.0
  40
 0.50000000000000
 100
AcDbArc
  50
 90.000000000117
  51
 180.00000000000
   0
POINT
   5
211
 100
AcDbEntity
   8
LEVEL001
 100
AcDbPoint
  62
1
  10
 208.35119639813
  20
 179.04871747614
  30
0.0
   0
LINE
   5
212
 100
AcDbEntity
   8
LEVEL001
 100
AcDbLine
   6
DOT
  62
1
  10
 208.85119639813
  20
 179.04871747614
  30
0.0
  11
 210.65119639813
  21
 179.04871747614
  31
0.0
   0
ARC
   5
213
 100
AcDbEntity
   8
LEVEL001
   6
DOT
  62
1
 100
AcDbCircle
  10
 219.65119639814
  20
 178.54871747614
  30
0.0
  40
 0.50000000000000
 100
AcDbArc
  50
 90.000000000430
  51
 180.00000000000
   0
POINT
   5
214
 100
AcDbEntity
   8
LEVEL001
 100
AcDbPoint
  62
1
  10
 219.15119639813
  20
 179.04871747614
  30
0.0
   0
ARC
   5
215
 100
AcDbEntity
   8
LEVEL001
   6
DOT
  62
1
 100
AcDbCircle
  10
 227.65119639813
  20
 178.54871747614
  30
0.0
  40
 0.50000000000000
 100
AcDbArc
  50
0.0
  51
 90.000000000000
   0
POINT
   5
216
 100
AcDbEntity
   8
LEVEL001
 100
AcDbPoint
  62
1
  10
 228.15119639813
  20
 179.04871747614
  30
0.0
   0
ARC
   5
217
 100
AcDbEntity
   8
LEVEL001
   6
DOT
  62
1
 100
AcDbCircle
  10
 237.65119639813
  20
 178.54871747614
  30
0.0
  40
 0.50000000000000
 100
AcDbArc
  50
 89.999999999603
  51
 180.00000000000
   0
POINT
   5
218
 100
AcDbEntity
   8
LEVEL001
 100
AcDbPoint
  62
1
  10
 237.15119639813
  20
 179.04871747614
  30
0.0
   0
LINE
   5
219
 100
AcDbEntity
   8
LEVEL001
 100
AcDbLine
   6
DOT
  62
1
  10
 208.35119639813
  20
 175.08510238182
  30
0.0
  11
 211.15119639813
  21
 175.08510238182
  31
0.0
   0
ARC
   5
21A
 100
AcDbEntity
   8
LEVEL001
   6
DOT
  62
1
 100
AcDbCircle
  10
 248.45119639813
  20
 178.54871747614
  30
0.0
  40
 0.50000000000000
 100
AcDbArc
  50
 0.58623983888736E-10
  51
 90.000000000000
   0
POINT
   5
21B
 100
AcDbEntity
   8
LEVEL001
 100
AcDbPoint
  62
1
  10
 248.95119639813
  20
 179.04871747614
  30
0.0
   0
LINE
   5
21C
 100
AcDbEntity
   8
LEVEL001
 100
AcDbLine
   6
DOT
  62
1
  10
 219.65119639813
  20
 179.04871747614
  30
0.0
  11
 227.65119639813
  21
 179.04871747614
  31
0.0
   0
LINE
   5
21D
 100
AcDbEntity
   8
LEVEL001
 100
AcDbLine
   6
DOT
  62
1
  10
 219.15119639813
  20
 175.08510238182
  30
0.0
  11
 228.15119639813
  21
 175.08510238182
  31
0.0
   0
LINE
   5
21E
 100
AcDbEntity
   8
LEVEL001
 100
AcDbLine
   6
DOT
  62
1
  10
 228.15119639813
  20
 172.59239673273
  30
0.0
  11
 228.15119639813
  21
 178.54871747614
  31
0.0
   0
LINE
   5
21F
 100
AcDbEntity
   8
LEVEL001
 100
AcDbLine
   6
DOT
  62
1
  10
 219.15119639813
  20
 172.59239673273
  30
0.0
  11
 219.15119639813
  21
 178.54871747614
  31
0.0
   0
LINE
   5
220
 100
AcDbEntity
   8
LEVEL001
 100
AcDbLine
   6
DOT
  62
1
  10
 208.35119639813
  20
 172.59239673273
  30
0.0
  11
 208.35119639813
  21
 178.54871747614
  31
0.0
   0
LINE
   5
221
 100
AcDbEntity
   8
LEVEL001
 100
AcDbLine
   6
DOT
  62
1
  10
 211.15119639813
  20
 172.59239673273
  30
0.0
  11
 211.15119639813
  21
 178.54871747614
  31
0.0
   0
LINE
   5
222
 100
AcDbEntity
   8
LEVEL001
 100
AcDbLine
   6
DOT
  62
1
  10
 237.65119639813
  20
 179.04871747614
  30
0.0
  11
 248.45119639813
  21
 179.04871747614
  31
0.0
   0
LINE
   5
223
 100
AcDbEntity
   8
LEVEL001
 100
AcDbLine
   6
DOT
  62
1
  10
 237.15119639813
  20
 172.59239673273
  30
0.0
  11
 237.15119639813
  21
 178.54871747614
  31
0.0
   0
LINE
   5
224
 100
AcDbEntity
   8
LEVEL001
 100
AcDbLine
   6
DOT
  62
1
  10
 248.95119639813
  20
 172.59239673273
  30
0.0
  11
 248.95119639813
  21
 178.54871747614
  31
0.0
   0
DIMENSION
   5
225
 100
AcDbEntity
   8
LEVEL001
   6
CONTINUOUS
  62
3
 100
AcDbDimension
   2
*D12
  10
 251.15119639813
  20
 241.45055096700
  30
0.0
  11
 228.65119639813
  21
 241.45055096700
  31
0.0
  70
0
   3
GMM001
 100
AcDbAlignedDimension
  13
 206.15119639813
  23
 220.52185457338
  33
0.0
  14
 251.15119639813
  24
 220.52185457338
  34
0.0
 100
AcDbRotatedDimension
   0
DIMENSION
   5
226
 100
AcDbEntity
   8
LEVEL001
   6
CONTINUOUS
  62
3
 100
AcDbDimension
   2
*D13
  10
 240.65119639813
  20
 232.96757165508
  30
0.0
  11
 228.65119639813
  21
 232.96757165508
  31
0.0
  70
0
   3
GMM001
 100
AcDbAlignedDimension
  13
 216.65119639813
  23
 219.19997419936
  33
0.0
  14
 240.65119639813
  24
 218.77366562441
  34
0.0
 100
AcDbRotatedDimension
   0
DIMENSION
   5
227
 100
AcDbEntity
   8
LEVEL001
   6
CONTINUOUS
  62
3
 100
AcDbDimension
   2
*D14
  10
 251.15119639813
  20
 195.71030901608
  30
0.0
  11
 252.52632110062
  21
 195.71030901608
  31
0.0
  70
128
   3
GMM005
 100
AcDbAlignedDimension
  13
 249.65119639813
  23
 195.23867862960
  33
0.0
  14
 251.15119639813
  24
 195.52891271359
  34
0.0
 100
AcDbRotatedDimension
   0
DIMENSION
   5
228
 100
AcDbEntity
   8
LEVEL001
   6
CONTINUOUS
  62
3
 100
AcDbDimension
   2
*D15
  10
 217.22181999560
  20
 200.59239673273
  30
0.0
  11
 217.22181999560
  21
 197.59239673273
  31
0.0
  70
0
   3
GMM001
 100
AcDbAlignedDimension
  13
 207.55119639814
  23
 194.59239673273
  33
0.0
  14
 207.55119639814
  24
 200.59239673273
  34
0.0
  50
 90.000000000000
 100
AcDbRotatedDimension
   0
DIMENSION
   5
229
 100
AcDbEntity
   8
LEVEL001
   6
CONTINUOUS
  62
3
 100
AcDbDimension
   2
*D16
  10
 193.29743957530
  20
 197.59239673273
  30
0.0
  11
 193.29743957530
  21
 185.09239673273
  31
0.0
  70
0
   3
GMM001
 100
AcDbAlignedDimension
  13
 206.15119639813
  23
 172.59239673273
  33
0.0
  14
 203.02380967988
  24
 197.59239673273
  34
0.0
  50
 90.000000000000
 100
AcDbRotatedDimension
   0
ARC
   5
22A
 100
AcDbEntity
   8
LEVEL001
   6
CONTINUOUS
  62
7
 100
AcDbCircle
  10
 208.85119639814
  20
 106.05912266960
  30
0.0
  40
 0.50000000000000
 100
AcDbArc
  50
 180.00000000000
  51
 269.99999999976
   0
ARC
   5
22B
 100
AcDbEntity
   8
LEVEL001
   6
CONTINUOUS
  62
7
 100
AcDbCircle
  10
 209.90119639813
  20
 106.05912266960
  30
0.0
  40
 0.50000000000000
 100
AcDbArc
  50
 270.00000000043
  51
0.0
   0
LINE
   5
22C
 100
AcDbEntity
   8
LEVEL001
 100
AcDbLine
   6
CONTINUOUS
  62
7
  10
 208.85119639814
  20
 105.55912266960
  30
0.0
  11
 209.90119639812
  21
 105.55912266960
  31
0.0
   0
ARC
   5
22D
 100
AcDbEntity
   8
LEVEL001
   6
CONTINUOUS
  62
7
 100
AcDbCircle
  10
 212.40119639814
  20
 106.05912266960
  30
0.0
  40
 0.50000000000000
 100
AcDbArc
  50
 180.00000000000
  51
 269.99999999942
   0
LINE
   5
22E
 100
AcDbEntity
   8
LEVEL001
 100
AcDbLine
   6
CONTINUOUS
  62
7
  10
 212.40119639816
  20
 105.55912266960
  30
0.0
  11
 217.90119639812
  21
 105.55912266960
  31
0.0
   0
ARC
   5
22F
 100
AcDbEntity
   8
LEVEL001
   6
CONTINUOUS
  62
7
 100
AcDbCircle
  10
 217.90119639814
  20
 106.05912266960
  30
0.0
  40
 0.50000000000000
 100
AcDbArc
  50
 269.99999999959
  51
0.0
   0
ARC
   5
230
 100
AcDbEntity
   8
LEVEL001
   6
CONTINUOUS
  62
7
 100
AcDbCircle
  10
 221.40119639813
  20
 106.05912266960
  30
0.0
  40
 0.50000000000000
 100
AcDbArc
  50
 180.00000000000
  51
 270.00000000025
   0
LINE
   5
231
 100
AcDbEntity
   8
LEVEL001
 100
AcDbLine
   6
CONTINUOUS
  62
7
  10
 221.40119639816
  20
 105.55912266960
  30
0.0
  11
 224.15119639813
  21
 105.55912266960
  31
0.0
   0
ARC
   5
232
 100
AcDbEntity
   8
LEVEL001
   6
CONTINUOUS
  62
7
 100
AcDbCircle
  10
 226.90119639814
  20
 106.05912266960
  30
0.0
  40
 0.50000000000000
 100
AcDbArc
  50
 269.99999999959
  51
0.0
   0
LINE
   5
233
 100
AcDbEntity
   8
LEVEL001
 100
AcDbLine
   6
CONTINUOUS
  62
7
  10
 224.15119639813
  20
 105.55912266960
  30
0.0
  11
 226.90119639812
  21
 105.55912266960
  31
0.0
   0
ARC
   5
234
 100
AcDbEntity
   8
LEVEL001
   6
CONTINUOUS
  62
7
 100
AcDbCircle
  10
 230.90119639814
  20
 106.05912266960
  30
0.0
  40
 0.50000000000000
 100
AcDbArc
  50
 180.00000000000
  51
 269.99999999942
   0
LINE
   5
235
 100
AcDbEntity
   8
LEVEL001
 100
AcDbLine
   6
CONTINUOUS
  62
7
  10
 230.90119639816
  20
 105.55912266960
  30
0.0
  11
 236.40119639812
  21
 105.55912266960
  31
0.0
   0
ARC
   5
236
 100
AcDbEntity
   8
LEVEL001
   6
CONTINUOUS
  62
7
 100
AcDbCircle
  10
 236.40119639814
  20
 106.05912266960
  30
0.0
  40
 0.50000000000000
 100
AcDbArc
  50
 269.99999999959
  51
0.0
   0
ARC
   5
237
 100
AcDbEntity
   8
LEVEL001
   6
CONTINUOUS
  62
7
 100
AcDbCircle
  10
 239.90119639813
  20
 106.05912266960
  30
0.0
  40
 0.50000000000000
 100
AcDbArc
  50
 180.00000000000
  51
 270.00000000025
   0
LINE
   5
238
 100
AcDbEntity
   8
LEVEL001
 100
AcDbLine
   6
CONTINUOUS
  62
7
  10
 242.15119639813
  20
 105.55912266960
  30
0.0
  11
 239.90119639816
  21
 105.55912266960
  31
0.0
   0
ARC
   5
239
 100
AcDbEntity
   8
LEVEL001
   6
CONTINUOUS
  62
7
 100
AcDbCircle
  10
 248.45119639813
  20
 106.05912266960
  30
0.0
  40
 0.50000000000000
 100
AcDbArc
  50
 270.00000000008
  51
0.0
   0
LINE
   5
23A
 100
AcDbEntity
   8
LEVEL001
 100
AcDbLine
   6
CONTINUOUS
  62
7
  10
 248.45119639813
  20
 105.55912266960
  30
0.0
  11
 246.15119639813
  21
 105.55912266960
  31
0.0
   0
LINE
   5
23B
 100
AcDbEntity
   8
LEVEL001
 100
AcDbLine
   6
CONTINUOUS
  62
7
  10
 246.15119639813
  20
 105.55912266960
  30
0.0
  11
 242.15119639813
  21
 105.55912266960
  31
0.0
   0
ARC
   5
23C
 100
AcDbEntity
   8
LEVEL001
   6
CONTINUOUS
  62
7
 100
AcDbCircle
  10
 248.45119639814
  20
 103.05912266960
  30
0.0
  40
 0.50000000000000
 100
AcDbArc
  50
0.0
  51
 90.000000000085
   0
LINE
   5
23D
 100
AcDbEntity
   8
LEVEL001
 100
AcDbLine
   6
CONTINUOUS
  62
7
  10
 248.45119639813
  20
 103.55912266960
  30
0.0
  11
 247.90119639815
  21
 103.55912266960
  31
0.0
   0
ARC
   5
23E
 100
AcDbEntity
   8
LEVEL001
   6
CONTINUOUS
  62
7
 100
AcDbCircle
  10
 247.90119639813
  20
 103.05912266960
  30
0.0
  40
 0.50000000000000
 100
AcDbArc
  50
 89.999999999577
  51
 180.00000000000
   0
ARC
   5
23F
 100
AcDbEntity
   8
LEVEL001
   6
CONTINUOUS
  62
7
 100
AcDbCircle
  10
 245.40119639814
  20
 103.05912266960
  30
0.0
  40
 0.50000000000000
 100
AcDbArc
  50
0.0
  51
 90.000000000586
   0
LINE
   5
240
 100
AcDbEntity
   8
LEVEL001
 100
AcDbLine
   6
CONTINUOUS
  62
7
  10
 245.40119639813
  20
 103.55912266960
  30
0.0
  11
 239.90119639815
  21
 103.55912266960
  31
0.0
   0
ARC
   5
241
 100
AcDbEntity
   8
LEVEL001
   6
CONTINUOUS
  62
7
 100
AcDbCircle
  10
 239.90119639813
  20
 103.05912266960
  30
0.0
  40
 0.50000000000000
 100
AcDbArc
  50
 89.999999999583
  51
 180.00000000000
   0
ARC
   5
242
 100
AcDbEntity
   8
LEVEL001
   6
CONTINUOUS
  62
7
 100
AcDbCircle
  10
 236.40119639814
  20
 103.05912266960
  30
0.0
  40
 0.50000000000000
 100
AcDbArc
  50
0.0
  51
 90.000000000580
   0
LINE
   5
243
 100
AcDbEntity
   8
LEVEL001
 100
AcDbLine
   6
CONTINUOUS
  62
7
  10
 236.40119639813
  20
 103.55912266960
  30
0.0
  11
 233.15119639813
  21
 103.55912266960
  31
0.0
   0
LINE
   5
244
 100
AcDbEntity
   8
LEVEL001
 100
AcDbLine
   6
CONTINUOUS
  62
7
  10
 233.15119639813
  20
 103.55912266960
  30
0.0
  11
 230.90119639815
  21
 103.55912266960
  31
0.0
   0
ARC
   5
245
 100
AcDbEntity
   8
LEVEL001
   6
CONTINUOUS
  62
7
 100
AcDbCircle
  10
 230.90119639814
  20
 103.05912266960
  30
0.0
  40
 0.50000000000000
 100
AcDbArc
  50
 90.000000000417
  51
 180.00000000000
   0
ARC
   5
246
 100
AcDbEntity
   8
LEVEL001
   6
CONTINUOUS
  62
7
 100
AcDbCircle
  10
 226.90119639814
  20
 103.05912266960
  30
0.0
  40
 0.50000000000000
 100
AcDbArc
  50
0.0
  51
 90.000000000580
   0
LINE
   5
247
 100
AcDbEntity
   8
LEVEL001
 100
AcDbLine
   6
CONTINUOUS
  62
7
  10
 221.40119639815
  20
 103.55912266960
  30
0.0
  11
 226.90119639813
  21
 103.55912266960
  31
0.0
   0
ARC
   5
248
 100
AcDbEntity
   8
LEVEL001
   6
CONTINUOUS
  62
7
 100
AcDbCircle
  10
 221.40119639813
  20
 103.05912266960
  30
0.0
  40
 0.50000000000000
 100
AcDbArc
  50
 89.999999999577
  51
 180.00000000000
   0
ARC
   5
249
 100
AcDbEntity
   8
LEVEL001
   6
CONTINUOUS
  62
7
 100
AcDbCircle
  10
 217.90119639814
  20
 103.05912266960
  30
0.0
  40
 0.50000000000000
 100
AcDbArc
  50
0.0
  51
 90.000000000580
   0
LINE
   5
24A
 100
AcDbEntity
   8
LEVEL001
 100
AcDbLine
   6
CONTINUOUS
  62
7
  10
 215.15119639813
  20
 103.55912266960
  30
0.0
  11
 217.90119639813
  21
 103.55912266960
  31
0.0
   0
ARC
   5
24B
 100
AcDbEntity
   8
LEVEL001
   6
CONTINUOUS
  62
7
 100
AcDbCircle
  10
 208.85119639814
  20
 103.05912266960
  30
0.0
  40
 0.50000000000000
 100
AcDbArc
  50
 90.000000000072
  51
 180.00000000000
   0
LINE
   5
24C
 100
AcDbEntity
   8
LEVEL001
 100
AcDbLine
   6
CONTINUOUS
  62
7
  10
 208.85119639814
  20
 103.55912266960
  30
0.0
  11
 211.15119639813
  21
 103.55912266960
  31
0.0
   0
LINE
   5
24D
 100
AcDbEntity
   8
LEVEL001
 100
AcDbLine
   6
CONTINUOUS
  62
7
  10
 211.15119639813
  20
 103.55912266960
  30
0.0
  11
 215.15119639813
  21
 103.55912266960
  31
0.0
   0
ARC
   5
24E
 100
AcDbEntity
   8
LEVEL001
   6
CONTINUOUS
  62
7
 100
AcDbCircle
  10
 208.85119639814
  20
 115.55912266960
  30
0.0
  40
 0.50000000000000
 100
AcDbArc
  50
 90.000000000072
  51
 180.00000000000
   0
ARC
   5
24F
 100
AcDbEntity
   8
LEVEL001
   6
CONTINUOUS
  62
7
 100
AcDbCircle
  10
 209.90119639813
  20
 115.55912266960
  30
0.0
  40
 0.50000000000000
 100
AcDbArc
  50
0.0
  51
 89.999999999746
   0
LINE
   5
250
 100
AcDbEntity
   8
LEVEL001
 100
AcDbLine
   6
CONTINUOUS
  62
7
  10
 208.85119639814
  20
 116.05912266960
  30
0.0
  11
 209.90119639813
  21
 116.05912266960
  31
0.0
   0
ARC
   5
251
 100
AcDbEntity
   8
LEVEL001
   6
CONTINUOUS
  62
7
 100
AcDbCircle
  10
 212.40119639814
  20
 115.55912266960
  30
0.0
  40
 0.50000000000000
 100
AcDbArc
  50
 90.000000000417
  51
 180.00000000000
   0
LINE
   5
252
 100
AcDbEntity
   8
LEVEL001
 100
AcDbLine
   6
CONTINUOUS
  62
7
  10
 212.40119639815
  20
 116.05912266960
  30
0.0
  11
 217.90119639813
  21
 116.05912266960
  31
0.0
   0
ELLIPSE
   5
253
 100
AcDbEntity
   8
LEVEL001
   6
CONTINUOUS
  62
7
 100
AcDbEllipse
  10
 215.15119639813
  20
 110.02912266960
  30
0.0
  11
0.0
  21
-2.5000000000000
  31
0.0
  40
 0.90000000000000
  41
0.0
  42
 6.2831853071796
   0
ELLIPSE
   5
254
 100
AcDbEntity
   8
LEVEL001
   6
CONTINUOUS
  62
7
 100
AcDbEllipse
  10
 215.15119639813
  20
 112.85912266960
  30
0.0
  11
0.0
  21
-2.5000000000000
  31
0.0
  40
 0.90000000000000
  41
-0.96915058189576
  42
 0.96915058189576
   0
LINE
   5
255
 100
AcDbEntity
   8
LEVEL001
 100
AcDbLine
   6
CONTINUOUS
  62
7
  10
 230.90119639815
  20
 116.05912266960
  30
0.0
  11
 236.40119639813
  21
 116.05912266960
  31
0.0
   0
ELLIPSE
   5
256
 100
AcDbEntity
   8
LEVEL001
   6
CONTINUOUS
  62
7
 100
AcDbEllipse
  10
 233.65119639813
  20
 110.02912266960
  30
0.0
  11
0.0
  21
-2.5000000000000
  31
0.0
  40
 0.90000000000000
  41
0.0
  42
 6.2831853071796
   0
ELLIPSE
   5
257
 100
AcDbEntity
   8
LEVEL001
   6
CONTINUOUS
  62
7
 100
AcDbEllipse
  10
 233.65119639813
  20
 112.85912266960
  30
0.0
  11
0.0
  21
-2.5000000000000
  31
0.0
  40
 0.90000000000000
  41
-0.96915058189576
  42
 0.96915058189576
   0
ARC
   5
258
 100
AcDbEntity
   8
LEVEL001
   6
CONTINUOUS
  62
7
 100
AcDbCircle
  10
 230.90119639814
  20
 115.55912266960
  30
0.0
  40
 0.50000000000000
 100
AcDbArc
  50
 90.000000000417
  51
 180.00000000000
   0
ARC
   5
259
 100
AcDbEntity
   8
LEVEL001
   6
CONTINUOUS
  62
7
 100
AcDbCircle
  10
 226.90119639814
  20
 115.55912266960
  30
0.0
  40
 0.50000000000000
 100
AcDbArc
  50
0.0
  51
 90.000000000580
   0
LINE
   5
25A
 100
AcDbEntity
   8
LEVEL001
 100
AcDbLine
   6
CONTINUOUS
  62
7
  10
 224.15119639813
  20
 116.05912266960
  30
0.0
  11
 226.90119639813
  21
 116.05912266960
  31
0.0
   0
ARC
   5
25B
 100
AcDbEntity
   8
LEVEL001
   6
CONTINUOUS
  62
7
 100
AcDbCircle
  10
 221.40119639813
  20
 115.55912266960
  30
0.0
  40
 0.50000000000000
 100
AcDbArc
  50
 89.999999999583
  51
 180.00000000000
   0
LINE
   5
25C
 100
AcDbEntity
   8
LEVEL001
 100
AcDbLine
   6
CONTINUOUS
  62
7
  10
 221.40119639815
  20
 116.05912266960
  30
0.0
  11
 224.15119639813
  21
 116.05912266960
  31
0.0
   0
ARC
   5
25D
 100
AcDbEntity
   8
LEVEL001
   6
CONTINUOUS
  62
7
 100
AcDbCircle
  10
 236.40119639814
  20
 115.55912266960
  30
0.0
  40
 0.50000000000000
 100
AcDbArc
  50
0.0
  51
 90.000000000580
   0
ARC
   5
25E
 100
AcDbEntity
   8
LEVEL001
   6
CONTINUOUS
  62
7
 100
AcDbCircle
  10
 239.90119639813
  20
 115.55912266960
  30
0.0
  40
 0.50000000000000
 100
AcDbArc
  50
 89.999999999583
  51
 180.00000000000
   0
LINE
   5
25F
 100
AcDbEntity
   8
LEVEL001
 100
AcDbLine
   6
CONTINUOUS
  62
7
  10
 242.15119639813
  20
 116.05912266960
  30
0.0
  11
 239.90119639815
  21
 116.05912266960
  31
0.0
   0
LINE
   5
260
 100
AcDbEntity
   8
LEVEL001
 100
AcDbLine
   6
CONTINUOUS
  62
7
  10
 246.15119639813
  20
 116.05912266960
  30
0.0
  11
 242.15119639813
  21
 116.05912266960
  31
0.0
   0
LINE
   5
261
 100
AcDbEntity
   8
LEVEL001
 100
AcDbLine
   6
CONTINUOUS
  62
7
  10
 248.45119639813
  20
 116.05912266960
  30
0.0
  11
 246.15119639813
  21
 116.05912266960
  31
0.0
   0
ARC
   5
262
 100
AcDbEntity
   8
LEVEL001
   6
CONTINUOUS
  62
7
 100
AcDbCircle
  10
 248.45119639814
  20
 115.55912266960
  30
0.0
  40
 0.50000000000000
 100
AcDbArc
  50
0.0
  51
 90.000000000085
   0
ARC
   5
263
 100
AcDbEntity
   8
LEVEL001
   6
CONTINUOUS
  62
7
 100
AcDbCircle
  10
 217.90119639814
  20
 115.55912266960
  30
0.0
  40
 0.50000000000000
 100
AcDbArc
  50
0.0
  51
 90.000000000580
   0
LINE
   5
264
 100
AcDbEntity
   8
LEVEL001
 100
AcDbLine
   6
CONTINUOUS
  62
7
  10
 248.95119639813
  20
 115.55912266960
  30
0.0
  11
 248.95119639813
  21
 106.05912266960
  31
0.0
   0
LINE
   5
265
 100
AcDbEntity
   8
LEVEL001
 100
AcDbLine
   6
CONTINUOUS
  62
7
  10
 239.40119639813
  20
 106.05912266960
  30
0.0
  11
 239.40119639813
  21
 115.55912266960
  31
0.0
   0
LINE
   5
266
 100
AcDbEntity
   8
LEVEL001
 100
AcDbLine
   6
CONTINUOUS
  62
7
  10
 236.90119639813
  20
 115.55912266960
  30
0.0
  11
 236.90119639813
  21
 106.05912266960
  31
0.0
   0
LINE
   5
267
 100
AcDbEntity
   8
LEVEL001
 100
AcDbLine
   6
CONTINUOUS
  62
7
  10
 230.40119639813
  20
 106.05912266960
  30
0.0
  11
 230.40119639813
  21
 115.55912266960
  31
0.0
   0
LINE
   5
268
 100
AcDbEntity
   8
LEVEL001
 100
AcDbLine
   6
CONTINUOUS
  62
7
  10
 227.40119639813
  20
 115.55912266960
  30
0.0
  11
 227.40119639813
  21
 106.05912266960
  31
0.0
   0
LINE
   5
269
 100
AcDbEntity
   8
LEVEL001
 100
AcDbLine
   6
CONTINUOUS
  62
7
  10
 220.90119639813
  20
 106.05912266960
  30
0.0
  11
 220.90119639813
  21
 115.55912266960
  31
0.0
   0
LINE
   5
26A
 100
AcDbEntity
   8
LEVEL001
 100
AcDbLine
   6
CONTINUOUS
  62
7
  10
 218.40119639813
  20
 115.55912266960
  30
0.0
  11
 218.40119639813
  21
 106.05912266960
  31
0.0
   0
LINE
   5
26B
 100
AcDbEntity
   8
LEVEL001
 100
AcDbLine
   6
CONTINUOUS
  62
7
  10
 211.90119639813
  20
 106.05912266960
  30
0.0
  11
 211.90119639813
  21
 115.55912266960
  31
0.0
   0
LINE
   5
26C
 100
AcDbEntity
   8
LEVEL001
 100
AcDbLine
   6
CONTINUOUS
  62
7
  10
 210.40119639813
  20
 115.55912266960
  30
0.0
  11
 210.40119639813
  21
 106.05912266960
  31
0.0
   0
LINE
   5
26D
 100
AcDbEntity
   8
LEVEL001
 100
AcDbLine
   6
CONTINUOUS
  62
7
  10
 208.35119639814
  20
 106.05912266960
  30
0.0
  11
 208.35119639814
  21
 115.55912266960
  31
0.0
   0
ARC
   5
26E
 100
AcDbEntity
   8
LEVEL001
   6
CONTINUOUS
  62
7
 100
AcDbCircle
  10
 208.85119639814
  20
 93.559122669599
  30
0.0
  40
 0.50000000000000
 100
AcDbArc
  50
 180.00000000000
  51
 269.99999999977
   0
LINE
   5
26F
 100
AcDbEntity
   8
LEVEL001
 100
AcDbLine
   6
CONTINUOUS
  62
7
  10
 208.85119639814
  20
 93.059122669599
  30
0.0
  11
 211.15119639813
  21
 93.059122669599
  31
0.0
   0
LINE
   5
270
 100
AcDbEntity
   8
LEVEL001
 100
AcDbLine
   6
CONTINUOUS
  62
7
  10
 211.15119639813
  20
 93.059122669599
  30
0.0
  11
 215.15119639813
  21
 93.059122669599
  31
0.0
   0
ARC
   5
271
 100
AcDbEntity
   8
LEVEL001
   6
CONTINUOUS
  62
7
 100
AcDbCircle
  10
 217.90119639814
  20
 93.559122669599
  30
0.0
  40
 0.50000000000000
 100
AcDbArc
  50
 269.99999999958
  51
0.0
   0
LINE
   5
272
 100
AcDbEntity
   8
LEVEL001
 100
AcDbLine
   6
CONTINUOUS
  62
7
  10
 215.15119639813
  20
 93.059122669599
  30
0.0
  11
 217.90119639815
  21
 93.059122669599
  31
0.0
   0
LINE
   5
273
 100
AcDbEntity
   8
LEVEL001
 100
AcDbLine
   6
CONTINUOUS
  62
7
  10
 221.40119639813
  20
 93.059122669599
  30
0.0
  11
 226.90119639815
  21
 93.059122669599
  31
0.0
   0
ARC
   5
274
 100
AcDbEntity
   8
LEVEL001
   6
CONTINUOUS
  62
7
 100
AcDbCircle
  10
 221.40119639813
  20
 93.559122669599
  30
0.0
  40
 0.50000000000000
 100
AcDbArc
  50
 180.00000000000
  51
 270.00000000026
   0
ARC
   5
275
 100
AcDbEntity
   8
LEVEL001
   6
CONTINUOUS
  62
7
 100
AcDbCircle
  10
 226.90119639814
  20
 93.559122669599
  30
0.0
  40
 0.50000000000000
 100
AcDbArc
  50
 269.99999999958
  51
0.0
   0
LINE
   5
276
 100
AcDbEntity
   8
LEVEL001
 100
AcDbLine
   6
CONTINUOUS
  62
7
  10
 233.15119639813
  20
 93.059122669599
  30
0.0
  11
 230.90119639813
  21
 93.059122669599
  31
0.0
   0
ARC
   5
277
 100
AcDbEntity
   8
LEVEL001
   6
CONTINUOUS
  62
7
 100
AcDbCircle
  10
 230.90119639814
  20
 93.559122669599
  30
0.0
  40
 0.50000000000000
 100
AcDbArc
  50
 180.00000000000
  51
 269.99999999943
   0
ARC
   5
278
 100
AcDbEntity
   8
LEVEL001
   6
CONTINUOUS
  62
7
 100
AcDbCircle
  10
 236.40119639814
  20
 93.559122669599
  30
0.0
  40
 0.50000000000000
 100
AcDbArc
  50
 269.99999999958
  51
0.0
   0
LINE
   5
279
 100
AcDbEntity
   8
LEVEL001
 100
AcDbLine
   6
CONTINUOUS
  62
7
  10
 236.40119639815
  20
 93.059122669599
  30
0.0
  11
 233.15119639813
  21
 93.059122669599
  31
0.0
   0
LINE
   5
27A
 100
AcDbEntity
   8
LEVEL001
 100
AcDbLine
   6
CONTINUOUS
  62
7
  10
 245.40119639815
  20
 93.059122669599
  30
0.0
  11
 239.90119639813
  21
 93.059122669599
  31
0.0
   0
ARC
   5
27B
 100
AcDbEntity
   8
LEVEL001
   6
CONTINUOUS
  62
7
 100
AcDbCircle
  10
 239.90119639813
  20
 93.559122669599
  30
0.0
  40
 0.50000000000000
 100
AcDbArc
  50
 180.00000000000
  51
 270.00000000026
   0
ARC
   5
27C
 100
AcDbEntity
   8
LEVEL001
   6
CONTINUOUS
  62
7
 100
AcDbCircle
  10
 247.90119639813
  20
 93.559122669599
  30
0.0
  40
 0.50000000000000
 100
AcDbArc
  50
 180.00000000000
  51
 270.00000000026
   0
LINE
   5
27D
 100
AcDbEntity
   8
LEVEL001
 100
AcDbLine
   6
CONTINUOUS
  62
7
  10
 248.45119639813
  20
 93.059122669599
  30
0.0
  11
 247.90119639813
  21
 93.059122669599
  31
0.0
   0
ARC
   5
27E
 100
AcDbEntity
   8
LEVEL001
   6
CONTINUOUS
  62
7
 100
AcDbCircle
  10
 245.40119639814
  20
 93.559122669599
  30
0.0
  40
 0.50000000000000
 100
AcDbArc
  50
 269.99999999958
  51
0.0
   0
ARC
   5
27F
 100
AcDbEntity
   8
LEVEL001
   6
CONTINUOUS
  62
7
 100
AcDbCircle
  10
 248.45119639813
  20
 93.559122669599
  30
0.0
  40
 0.50000000000000
 100
AcDbArc
  50
 270.00000000008
  51
0.0
   0
ARC
   5
280
 100
AcDbEntity
   8
LEVEL001
   6
CONTINUOUS
  62
7
 100
AcDbCircle
  10
 250.85119639814
  20
 90.359122669599
  30
0.0
  40
 0.30000000000000
 100
AcDbArc
  50
 269.99999999904
  51
 0.10856293312911E-10
   0
LINE
   5
281
 100
AcDbEntity
   8
LEVEL001
 100
AcDbLine
   6
CONTINUOUS
  62
7
  10
 239.40119639813
  20
 93.559122669599
  30
0.0
  11
 239.40119639813
  21
 103.05912266960
  31
0.0
   0
LINE
   5
282
 100
AcDbEntity
   8
LEVEL001
 100
AcDbLine
   6
CONTINUOUS
  62
7
  10
 236.90119639813
  20
 103.05912266960
  30
0.0
  11
 236.90119639813
  21
 93.559122669599
  31
0.0
   0
LINE
   5
283
 100
AcDbEntity
   8
LEVEL001
 100
AcDbLine
   6
CONTINUOUS
  62
7
  10
 230.40119639813
  20
 93.559122669599
  30
0.0
  11
 230.40119639813
  21
 103.05912266960
  31
0.0
   0
LINE
   5
284
 100
AcDbEntity
   8
LEVEL001
 100
AcDbLine
   6
CONTINUOUS
  62
7
  10
 227.40119639813
  20
 103.05912266960
  30
0.0
  11
 227.40119639813
  21
 93.559122669599
  31
0.0
   0
LINE
   5
285
 100
AcDbEntity
   8
LEVEL001
 100
AcDbLine
   6
CONTINUOUS
  62
7
  10
 220.90119639813
  20
 93.559122669599
  30
0.0
  11
 220.90119639813
  21
 103.05912266960
  31
0.0
   0
LINE
   5
286
 100
AcDbEntity
   8
LEVEL001
 100
AcDbLine
   6
CONTINUOUS
  62
7
  10
 218.40119639813
  20
 103.05912266960
  30
0.0
  11
 218.40119639813
  21
 93.559122669599
  31
0.0
   0
LINE
   5
287
 100
AcDbEntity
   8
LEVEL001
 100
AcDbLine
   6
CONTINUOUS
  62
7
  10
 208.35119639814
  20
 93.559122669599
  30
0.0
  11
 208.35119639814
  21
 103.05912266960
  31
0.0
   0
LINE
   5
288
 100
AcDbEntity
   8
LEVEL001
 100
AcDbLine
   6
CONTINUOUS
  62
7
  10
 245.90119639813
  20
 103.05912266960
  30
0.0
  11
 245.90119639813
  21
 93.559122669599
  31
0.0
   0
LINE
   5
289
 100
AcDbEntity
   8
LEVEL001
 100
AcDbLine
   6
CONTINUOUS
  62
7
  10
 247.40119639813
  20
 93.559122669599
  30
0.0
  11
 247.40119639813
  21
 103.05912266960
  31
0.0
   0
LINE
   5
28A
 100
AcDbEntity
   8
LEVEL001
 100
AcDbLine
   6
CONTINUOUS
  62
7
  10
 248.95119639813
  20
 103.05912266960
  30
0.0
  11
 248.95119639813
  21
 93.559122669599
  31
0.0
   0
ELLIPSE
   5
28B
 100
AcDbEntity
   8
LEVEL001
   6
CONTINUOUS
  62
7
 100
AcDbEllipse
  10
 224.15119639813
  20
 99.089122669599
  30
0.0
  11
0.0
  21
 2.5000000000000
  31
0.0
  40
 0.90000000000000
  41
0.0
  42
 6.2831853071796
   0
ELLIPSE
   5
28C
 100
AcDbEntity
   8
LEVEL001
   6
CONTINUOUS
  62
7
 100
AcDbEllipse
  10
 224.15119639813
  20
 96.259122669599
  30
0.0
  11
0.0
  21
 2.5000000000000
  31
0.0
  40
 0.90000000000000
  41
-0.96915058189576
  42
 0.96915058189576
   0
ELLIPSE
   5
28D
 100
AcDbEntity
   8
LEVEL001
   6
CONTINUOUS
  62
7
 100
AcDbEllipse
  10
 242.65119639813
  20
 99.089122669599
  30
0.0
  11
0.0
  21
 2.5000000000000
  31
0.0
  40
 0.90000000000000
  41
0.0
  42
 6.2831853071796
   0
ELLIPSE
   5
28E
 100
AcDbEntity
   8
LEVEL001
   6
CONTINUOUS
  62
7
 100
AcDbEllipse
  10
 242.65119639813
  20
 96.259122669599
  30
0.0
  11
0.0
  21
 2.5000000000000
  31
0.0
  40
 0.90000000000000
  41
-0.96915058189576
  42
 0.96915058189576
   0
ARC
   5
28F
 100
AcDbEntity
   8
LEVEL001
   6
CONTINUOUS
  62
7
 100
AcDbCircle
  10
 206.45119639813
  20
 90.359122669599
  30
0.0
  40
 0.30000000000000
 100
AcDbArc
  50
 179.99999999999
  51
 270.00000000043
   0
POINT
   5
290
 100
AcDbEntity
   8
LEVEL001
 100
AcDbPoint
  62
7
  10
 206.15119639813
  20
 90.059122669599
  30
0.0
   0
ARC
   5
291
 100
AcDbEntity
   8
LEVEL001
   6
CONTINUOUS
  62
7
 100
AcDbCircle
  10
 206.45119639814
  20
 118.75912266960
  30
0.0
  40
 0.30000000000000
 100
AcDbArc
  50
 90.000000000022
  51
 180.00000000000
   0
POINT
   5
292
 100
AcDbEntity
   8
LEVEL001
 100
AcDbPoint
  62
7
  10
 206.15119639813
  20
 119.05912266960
  30
0.0
   0
ARC
   5
293
 100
AcDbEntity
   8
LEVEL001
   6
CONTINUOUS
  62
7
 100
AcDbCircle
  10
 250.85119639813
  20
 118.75912266961
  30
0.0
  40
 0.30000000000000
 100
AcDbArc
  50
0.0
  51
 90.000000000005
   0
POINT
   5
294
 100
AcDbEntity
   8
LEVEL001
 100
AcDbPoint
  62
7
  10
 251.15119639813
  20
 119.05912266960
  30
0.0
   0
ELLIPSE
   5
295
 100
AcDbEntity
   8
LEVEL001
   6
DOT
  62
1
 100
AcDbEllipse
  10
 215.15119639813
  20
 112.85912266960
  30
0.0
  11
0.0
  21
-2.5000000000000
  31
0.0
  40
 0.90000000000000
  41
 0.96915058189576
  42
-0.96915058189576
   0
ELLIPSE
   5
296
 100
AcDbEntity
   8
LEVEL001
   6
DOT
  62
1
 100
AcDbEllipse
  10
 233.65119639813
  20
 112.85912266960
  30
0.0
  11
0.0
  21
-2.5000000000000
  31
0.0
  40
 0.90000000000000
  41
 0.96915058189576
  42
-0.96915058189576
   0
ELLIPSE
   5
297
 100
AcDbEntity
   8
LEVEL001
   6
DOT
  62
1
 100
AcDbEllipse
  10
 242.65119639813
  20
 96.259122669599
  30
0.0
  11
0.0
  21
 2.5000000000000
  31
0.0
  40
 0.90000000000000
  41
 0.96915058189576
  42
-0.96915058189576
   0
ELLIPSE
   5
298
 100
AcDbEntity
   8
LEVEL001
   6
DOT
  62
1
 100
AcDbEllipse
  10
 224.15119639813
  20
 96.259122669599
  30
0.0
  11
0.0
  21
 2.5000000000000
  31
0.0
  40
 0.90000000000000
  41
 0.96915058189576
  42
-0.96915058189576
   0
LINE
   5
299
 100
AcDbEntity
   8
LEVEL001
 100
AcDbLine
   6
DOT
  62
1
  10
 206.15119639813
  20
 117.55912266960
  30
0.0
  11
 249.65119639813
  21
 117.55912266960
  31
0.0
   0
LINE
   5
29A
 100
AcDbEntity
   8
LEVEL001
 100
AcDbLine
   6
DOT
  62
1
  10
 249.65119639813
  20
 91.559122669599
  30
0.0
  11
 249.65119639813
  21
 117.55912266960
  31
0.0
   0
LINE
   5
29B
 100
AcDbEntity
   8
LEVEL001
 100
AcDbLine
   6
DOT
  62
1
  10
 206.15119639813
  20
 91.559122669599
  30
0.0
  11
 249.65119639813
  21
 91.559122669599
  31
0.0
   0
LINE
   5
29C
 100
AcDbEntity
   8
LEVEL001
 100
AcDbLine
   6
DOT
  62
1
  10
 208.68119639813
  20
 105.80912266960
  30
0.0
  11
 249.65119639813
  21
 105.80912266960
  31
0.0
   0
LINE
   5
29D
 100
AcDbEntity
   8
LEVEL001
 100
AcDbLine
   6
DOT
  62
1
  10
 208.68119639813
  20
 103.30912266960
  30
0.0
  11
 249.65119639813
  21
 103.30912266960
  31
0.0
   0
ARC
   5
29E
 100
AcDbEntity
   8
LEVEL001
   6
DOT
  62
1
 100
AcDbCircle
  10
 208.68119639814
  20
 106.33912266960
  30
0.0
  40
 0.53000000000000
 100
AcDbArc
  50
 180.00000000000
  51
 269.99999999947
   0
ARC
   5
29F
 100
AcDbEntity
   8
LEVEL001
   6
DOT
  62
1
 100
AcDbCircle
  10
 208.68119639814
  20
 102.77912266960
  30
0.0
  40
 0.53000000000000
 100
AcDbArc
  50
 90.000000000378
  51
 180.00000000000
   0
LINE
   5
2A0
 100
AcDbEntity
   8
LEVEL001
 100
AcDbLine
   6
DOT
  62
1
  10
 208.15119639813
  20
 91.559122669599
  30
0.0
  11
 208.15119639813
  21
 102.77912266960
  31
0.0
   0
LINE
   5
2A1
 100
AcDbEntity
   8
LEVEL001
 100
AcDbLine
   6
DOT
  62
1
  10
 208.15119639813
  20
 106.33912266960
  30
0.0
  11
 208.15119639813
  21
 117.55912266960
  31
0.0
   0
LINE
   5
2A2
 100
AcDbEntity
   8
LEVEL001
 100
AcDbLine
   6
DOT
  62
1
  10
 206.85119639814
  20
 117.05912266960
  30
0.0
  11
 206.85119639814
  21
 117.55912266960
  31
0.0
   0
LINE
   5
2A3
 100
AcDbEntity
   8
LEVEL001
 100
AcDbLine
   6
DOT
  62
1
  10
 206.85119639814
  20
 117.05912266960
  30
0.0
  11
 207.55119639814
  21
 117.05912266960
  31
0.0
   0
LINE
   5
2A4
 100
AcDbEntity
   8
LEVEL001
 100
AcDbLine
   6
DOT
  62
1
  10
 207.55119639814
  20
 117.05912266960
  30
0.0
  11
 207.55119639814
  21
 117.55912266960
  31
0.0
   0
LINE
   5
2A5
 100
AcDbEntity
   8
LEVEL001
 100
AcDbLine
   6
DOT
  62
1
  10
 206.85119639814
  20
 92.059122669599
  30
0.0
  11
 206.85119639814
  21
 91.559122669599
  31
0.0
   0
LINE
   5
2A6
 100
AcDbEntity
   8
LEVEL001
 100
AcDbLine
   6
DOT
  62
1
  10
 206.85119639814
  20
 92.059122669599
  30
0.0
  11
 207.55119639814
  21
 92.059122669599
  31
0.0
   0
LINE
   5
2A7
 100
AcDbEntity
   8
LEVEL001
 100
AcDbLine
   6
DOT
  62
1
  10
 207.55119639814
  20
 92.059122669599
  30
0.0
  11
 207.55119639814
  21
 91.559122669599
  31
0.0
   0
LINE
   5
2A8
 100
AcDbEntity
   8
LEVEL001
 100
AcDbLine
   6
DASHDOT
  62
3
  10
 200.54580053083
  20
 104.55912266960
  30
0.0
  11
 256.98287594543
  21
 104.55912266960
  31
0.0
   0
LINE
   5
2A9
 100
AcDbEntity
   8
LEVEL001
 100
AcDbLine
   6
DASHDOT
  62
3
  10
 203.45634885645
  20
 113.05912266960
  30
0.0
  11
 240.93163402755
  21
 113.05912266960
  31
0.0
   0
LINE
   5
2AA
 100
AcDbEntity
   8
LEVEL001
 100
AcDbLine
   6
DASHDOT
  62
3
  10
 233.65119639813
  20
 120.11027447131
  30
0.0
  11
 233.65119639813
  21
 102.12874571145
  31
0.0
   0
LINE
   5
2AB
 100
AcDbEntity
   8
LEVEL001
 100
AcDbLine
   6
DASHDOT
  62
3
  10
 215.15119639813
  20
 120.11027447131
  30
0.0
  11
 215.15119639813
  21
 102.12874571145
  31
0.0
   0
LINE
   5
2AC
 100
AcDbEntity
   8
LEVEL001
 100
AcDbLine
   6
DASHDOT
  62
3
  10
 224.15119639813
  20
 107.64782879616
  30
0.0
  11
 224.15119639813
  21
 88.583254162158
  31
0.0
   0
LINE
   5
2AD
 100
AcDbEntity
   8
LEVEL001
 100
AcDbLine
   6
DASHDOT
  62
3
  10
 242.65119639813
  20
 107.64782879616
  30
0.0
  11
 242.65119639813
  21
 88.583254162158
  31
0.0
   0
LINE
   5
2AE
 100
AcDbEntity
   8
LEVEL001
 100
AcDbLine
   6
DASHDOT
  62
3
  10
 215.99800766277
  20
 96.059122669599
  30
0.0
  11
 253.64646292489
  21
 96.059122669599
  31
0.0
   0
POINT
   5
2AF
 100
AcDbEntity
   8
LEVEL001
 100
AcDbPoint
  62
7
  10
 206.15119639813
  20
 119.05912266960
  30
0.0
   0
POINT
   5
2B0
 100
AcDbEntity
   8
LEVEL001
 100
AcDbPoint
  62
7
  10
 206.15119639813
  20
 90.059122669599
  30
0.0
   0
POINT
   5
2B1
 100
AcDbEntity
   8
LEVEL001
 100
AcDbPoint
  62
7
  10
 251.15119639813
  20
 90.059122669599
  30
0.0
   0
POINT
   5
2B2
 100
AcDbEntity
   8
LEVEL001
 100
AcDbPoint
  62
7
  10
 251.15119639813
  20
 119.05912266960
  30
0.0
   0
LINE
   5
2B3
 100
AcDbEntity
   8
LEVEL001
 100
AcDbLine
   6
CONTINUOUS
  62
7
  10
 228.65119639813
  20
 119.05912266960
  30
0.0
  11
 250.85119639813
  21
 119.05912266960
  31
0.0
   0
LINE
   5
2B4
 100
AcDbEntity
   8
LEVEL001
 100
AcDbLine
   6
CONTINUOUS
  62
7
  10
 251.15119639813
  20
 104.55912266960
  30
0.0
  11
 251.15119639813
  21
 118.78409975766
  31
0.0
   0
ARC
   5
2B5
 100
AcDbEntity
   8
LEVEL001
   6
DOT
  62
1
 100
AcDbCircle
  10
 250.65119639813
  20
 118.55912266960
  30
0.0
  40
 0.50000000000000
 100
AcDbArc
  50
0.0
  51
 90.000000000000
   0
LINE
   5
2B6
 100
AcDbEntity
   8
LEVEL001
 100
AcDbLine
   6
CONTINUOUS
  62
7
  10
 228.65119639813
  20
 90.059122669599
  30
0.0
  11
 250.85119639814
  21
 90.059122669599
  31
0.0
   0
LINE
   5
2B7
 100
AcDbEntity
   8
LEVEL001
 100
AcDbLine
   6
CONTINUOUS
  62
7
  10
 251.15119639813
  20
 90.359122669599
  30
0.0
  11
 251.15119639813
  21
 104.55912266960
  31
0.0
   0
ARC
   5
2B8
 100
AcDbEntity
   8
LEVEL001
   6
DOT
  62
1
 100
AcDbCircle
  10
 250.65119639813
  20
 90.559122669596
  30
0.0
  40
 0.50000000000000
 100
AcDbArc
  50
 270.00000000000
  51
 0.30940435941277E-9
   0
ARC
   5
2B9
 100
AcDbEntity
   8
LEVEL001
   6
DOT
  62
1
 100
AcDbCircle
  10
 206.65119639813
  20
 90.559122669599
  30
0.0
  40
 0.50000000000000
 100
AcDbArc
  50
 180.00000000000
  51
 270.00000000036
   0
LINE
   5
2BA
 100
AcDbEntity
   8
LEVEL001
 100
AcDbLine
   6
CONTINUOUS
  62
7
  10
 206.45119639813
  20
 90.059122669599
  30
0.0
  11
 228.65119639813
  21
 90.059122669599
  31
0.0
   0
ARC
   5
2BB
 100
AcDbEntity
   8
LEVEL001
   6
DOT
  62
1
 100
AcDbCircle
  10
 206.65119639813
  20
 118.55912266960
  30
0.0
  40
 0.50000000000000
 100
AcDbArc
  50
 89.999999999785
  51
 180.00000000000
   0
LINE
   5
2BC
 100
AcDbEntity
   8
LEVEL001
 100
AcDbLine
   6
CONTINUOUS
  62
7
  10
 206.45119639813
  20
 119.05912266960
  30
0.0
  11
 228.65119639813
  21
 119.05912266960
  31
0.0
   0
LINE
   5
2BD
 100
AcDbEntity
   8
LEVEL001
 100
AcDbLine
   6
CONTINUOUS
  62
7
  10
 206.15119639813
  20
 90.359122669599
  30
0.0
  11
 206.15119639813
  21
 118.75912266960
  31
0.0
   0
LINE
   5
2BE
 100
AcDbEntity
   8
LEVEL001
 100
AcDbLine
   6
CONTINUOUS
  62
7
  10
 206.15119639813
  20
 216.09239673273
  30
0.0
  11
 206.15119639813
  21
 220.22185457338
  31
0.0
   0
ARC
   5
2BF
 100
AcDbEntity
   8
LEVEL001
   6
CONTINUOUS
  62
7
 100
AcDbCircle
  10
 206.45119639813
  20
 220.22185457338
  30
0.0
  40
 0.30000000000000
 100
AcDbArc
  50
 89.999999998996
  51
 180.00000000001
   0
LINE
   5
2C0
 100
AcDbEntity
   8
LEVEL001
 100
AcDbLine
   6
CONTINUOUS
  62
7
  10
 206.45119639813
  20
 220.52185457338
  30
0.0
  11
 228.65119639813
  21
 220.52185457338
  31
0.0
   0
LINE
   5
2C1
 100
AcDbEntity
   8
LEVEL001
 100
AcDbLine
   6
CONTINUOUS
  62
7
  10
 250.85119639813
  20
 220.52185457338
  30
0.0
  11
 228.65119639813
  21
 220.52185457338
  31
0.0
   0
ARC
   5
2C2
 100
AcDbEntity
   8
LEVEL001
   6
CONTINUOUS
  62
7
 100
AcDbCircle
  10
 250.85119639813
  20
 220.22185457338
  30
0.0
  40
 0.30000000000000
 100
AcDbArc
  50
0.0
  51
 90.000000000000
   0
LINE
   5
2C3
 100
AcDbEntity
   8
LEVEL001
 100
AcDbLine
   6
CONTINUOUS
  62
7
  10
 251.15119639813
  20
 216.09239673273
  30
0.0
  11
 251.15119639813
  21
 220.22185457338
  31
0.0
   0
LINE
   5
2C4
 100
AcDbEntity
   8
LEVEL001
 100
AcDbLine
   6
DASHDOT
  62
3
  10
 228.65119639813
  20
 228.58423471539
  30
0.0
  11
 228.65119639813
  21
 164.42358275172
  31
0.0
   0
DIMENSION
   5
2C5
 100
AcDbEntity
   8
LEVEL001
   6
CONTINUOUS
  62
3
 100
AcDbDimension
   2
*D17
  10
 206.65119639813
  20
 118.55912266960
  30
0.0
  11
 202.09337216618
  21
 121.86631663637
  31
0.0
  70
132
   3
GMM006
 100
AcDbRadialDimension
  15
 206.24650814565
  25
 118.85276772455
  35
0.0
  40
 5.4100638645091
   0
TEXT
   5
2C6
 100
AcDbEntity
   8
LEVEL001
  62
3
 100
AcDbText
  10
 181.08660971352
  20
 128.92368220734
  30
0.0
  40
 4.0000000000000
   1
（カバー）
  50
 324.03505892513
  41
 0.95000000000000
   7
STANDARD
 100
AcDbText
   0
DIMENSION
   5
2C7
 100
AcDbEntity
   8
LEVEL001
   6
CONTINUOUS
  62
3
 100
AcDbDimension
   2
*D18
  10
 250.85119639813
  20
 118.75912266960
  30
0.0
  11
 254.89831935757
  21
 121.78166541166
  31
0.0
  70
132
   3
GMM006
 100
AcDbRadialDimension
  15
 251.09156079103
  25
 118.93863578508
  35
0.0
  40
 5.0510398683562
   0
TEXT
   5
2C8
 100
AcDbEntity
   8
LEVEL001
  62
3
 100
AcDbText
  10
 258.98334941621
  20
 117.05957356946
  30
0.0
  40
 4.0000000000000
   1
（本体）
  50
 36.753750742004
  41
 0.95000000000000
   7
STANDARD
 100
AcDbText
   0
DIMENSION
   5
2C9
 100
AcDbEntity
   8
LEVEL001
   6
CONTINUOUS
  62
3
 100
AcDbDimension
   2
*D19
  10
 251.15119639813
  20
 157.89460664677
  30
0.0
  11
 228.65119639813
  21
 157.89460664677
  31
0.0
  70
0
   3
GMM001
 100
AcDbAlignedDimension
  13
 206.15119639813
  23
 172.59239673273
  33
0.0
  14
 251.15119639813
  24
 172.59239673273
  34
0.0
 100
AcDbRotatedDimension
   0
DIMENSION
   5
2CA
 100
AcDbEntity
   8
LEVEL001
   6
CONTINUOUS
  62
3
 100
AcDbDimension
   2
*D20
  10
 215.15119639813
  20
 133.42223180935
  30
0.0
  11
 210.65119639813
  21
 133.42223180935
  31
0.0
  70
0
   3
GMM001
 100
AcDbAlignedDimension
  13
 206.15119639813
  23
 119.05912266960
  33
0.0
  14
 215.15119639813
  24
 120.11027447131
  34
0.0
 100
AcDbRotatedDimension
   0
DIMENSION
   5
2CB
 100
AcDbEntity
   8
LEVEL001
   6
CONTINUOUS
  62
3
 100
AcDbDimension
   2
*D21
  10
 233.65119639813
  20
 133.42223180935
  30
0.0
  11
 224.40119639813
  21
 133.42223180935
  31
0.0
  70
0
   3
GMM001
 100
AcDbAlignedDimension
  13
 215.15119639813
  23
 133.42223180935
  33
0.0
  14
 233.65119639813
  24
 120.11027447131
  34
0.0
 100
AcDbRotatedDimension
   0
DIMENSION
   5
2CC
 100
AcDbEntity
   8
LEVEL001
   6
CONTINUOUS
  62
3
 100
AcDbDimension
   2
*D22
  10
 251.15119639813
  20
 133.42223180935
  30
0.0
  11
 242.40119639813
  21
 133.42223180935
  31
0.0
  70
0
   3
GMM001
 100
AcDbAlignedDimension
  13
 233.65119639813
  23
 133.42223180935
  33
0.0
  14
 251.15119639813
  24
 119.05912266960
  34
0.0
 100
AcDbRotatedDimension
   0
LINE
   5
2CD
 100
AcDbEntity
   8
LEVEL001
 100
AcDbLine
   6
DASHDOT
  62
3
  10
 228.65119639813
  20
 84.932769763209
  30
0.0
  11
 228.65119639813
  21
 125.08041649652
  31
0.0
   0
DIMENSION
   5
2CE
 100
AcDbEntity
   8
LEVEL001
   6
CONTINUOUS
  62
3
 100
AcDbDimension
   2
*D23
  10
 242.65119639813
  20
 74.615442170583
  30
0.0
  11
 233.40119639813
  21
 74.615442170583
  31
0.0
  70
0
   3
GMM001
 100
AcDbAlignedDimension
  13
 224.15119639813
  23
 74.615442170583
  33
0.0
  14
 242.65119639813
  24
 88.583254162158
  34
0.0
 100
AcDbRotatedDimension
   0
DIMENSION
   5
2CF
 100
AcDbEntity
   8
LEVEL001
   6
CONTINUOUS
  62
3
 100
AcDbDimension
   2
*D24
  10
 242.65119639813
  20
 74.615442170583
  30
0.0
  11
 246.90119639813
  21
 74.615442170583
  31
0.0
  70
0
   3
GMM001
 100
AcDbAlignedDimension
  13
 251.15119639813
  23
 90.059122669599
  33
0.0
  14
 242.65119639813
  24
 74.615442170583
  34
0.0
  50
 180.00000000000
 100
AcDbRotatedDimension
   0
DIMENSION
   5
2D0
 100
AcDbEntity
   8
LEVEL001
   6
CONTINUOUS
  62
3
 100
AcDbDimension
   2
*D25
  10
 224.15119639813
  20
 74.615442170583
  30
0.0
  11
 215.15119639813
  21
 74.615442170583
  31
0.0
  70
0
   3
GMM001
 100
AcDbAlignedDimension
  13
 206.15119639813
  23
 90.059122669599
  33
0.0
  14
 224.15119639813
  24
 88.583254162158
  34
0.0
 100
AcDbRotatedDimension
   0
ELLIPSE
   5
2D1
 100
AcDbEntity
   8
LEVEL001
   6
DOT
  62
1
 100
AcDbEllipse
  10
 216.65119639813
  20
 217.00807333155
  30
0.0
  11
-2.2500000000000
  21
0.0
  31
0.0
  40
 0.32000000000000
  41
0.0
  42
 6.2831853071796
   0
LINE
   5
2D2
 100
AcDbEntity
   8
LEVEL001
 100
AcDbLine
   6
DOT
  62
1
  10
 214.40119639813
  20
 214.46624099203
  30
0.0
  11
 214.40119639813
  21
 217.00807333155
  31
0.0
   0
LINE
   5
2D3
 100
AcDbEntity
   8
LEVEL001
 100
AcDbLine
   6
DOT
  62
1
  10
 218.90119639813
  20
 214.46624099203
  30
0.0
  11
 218.90119639813
  21
 217.00807333155
  31
0.0
   0
ELLIPSE
   5
2D4
 100
AcDbEntity
   8
LEVEL001
   6
DOT
  62
1
 100
AcDbEllipse
  10
 240.65119639813
  20
 217.00807333155
  30
0.0
  11
-2.2500000000000
  21
0.0
  31
0.0
  40
 0.32000000000000
  41
0.0
  42
 6.2831853071796
   0
LINE
   5
2D5
 100
AcDbEntity
   8
LEVEL001
 100
AcDbLine
   6
DOT
  62
1
  10
 242.90119639813
  20
 214.46624099203
  30
0.0
  11
 242.90119639813
  21
 217.00807333155
  31
0.0
   0
LINE
   5
2D6
 100
AcDbEntity
   8
LEVEL001
 100
AcDbLine
   6
DOT
  62
1
  10
 238.40119639813
  20
 214.46624099203
  30
0.0
  11
 238.40119639813
  21
 217.00807333155
  31
0.0
   0
ELLIPSE
   5
2D7
 100
AcDbEntity
   8
LEVEL001
   6
DOT
  62
1
 100
AcDbEllipse
  10
 215.15119639813
  20
 175.86631644605
  30
0.0
  11
-2.2500000000000
  21
0.0
  31
0.0
  40
 0.42222222222222
  41
0.0
  42
 6.2831853071796
   0
ELLIPSE
   5
2D8
 100
AcDbEntity
   8
LEVEL001
   6
DOT
  62
1
 100
AcDbEllipse
  10
 224.15119639813
  20
 175.86631644605
  30
0.0
  11
-2.2500000000000
  21
0.0
  31
0.0
  40
 0.42222222222222
  41
0.0
  42
 6.2831853071796
   0
ELLIPSE
   5
2D9
 100
AcDbEntity
   8
LEVEL001
   6
DOT
  62
1
 100
AcDbEllipse
  10
 233.65119639813
  20
 175.86631644605
  30
0.0
  11
-2.2500000000000
  21
0.0
  31
0.0
  40
 0.42222222222222
  41
0.0
  42
 6.2831853071796
   0
ELLIPSE
   5
2DA
 100
AcDbEntity
   8
LEVEL001
   6
DOT
  62
1
 100
AcDbEllipse
  10
 242.65119639813
  20
 175.86631644605
  30
0.0
  11
-2.2500000000000
  21
0.0
  31
0.0
  40
 0.42222222222222
  41
0.0
  42
 6.2831853071796
   0
LINE
   5
2DB
 100
AcDbEntity
   8
LEVEL001
 100
AcDbLine
   6
DOT
  62
1
  10
 212.90119639813
  20
 175.86631644605
  30
0.0
  11
 212.90119639813
  21
 177.79816809862
  31
0.0
   0
LINE
   5
2DC
 100
AcDbEntity
   8
LEVEL001
 100
AcDbLine
   6
DOT
  62
1
  10
 217.40119639813
  20
 175.86631644605
  30
0.0
  11
 217.40119639813
  21
 177.79816809862
  31
0.0
   0
LINE
   5
2DD
 100
AcDbEntity
   8
LEVEL001
 100
AcDbLine
   6
DOT
  62
1
  10
 221.90119639813
  20
 175.86631644605
  30
0.0
  11
 221.90119639813
  21
 177.79816809862
  31
0.0
   0
LINE
   5
2DE
 100
AcDbEntity
   8
LEVEL001
 100
AcDbLine
   6
DOT
  62
1
  10
 226.40119639813
  20
 175.86631644605
  30
0.0
  11
 226.40119639813
  21
 177.79816809862
  31
0.0
   0
LINE
   5
2DF
 100
AcDbEntity
   8
LEVEL001
 100
AcDbLine
   6
DOT
  62
1
  10
 231.40119639813
  20
 175.86631644605
  30
0.0
  11
 231.40119639813
  21
 177.79816809862
  31
0.0
   0
LINE
   5
2E0
 100
AcDbEntity
   8
LEVEL001
 100
AcDbLine
   6
DOT
  62
1
  10
 235.90119639813
  20
 175.86631644605
  30
0.0
  11
 235.90119639813
  21
 177.79816809862
  31
0.0
   0
LINE
   5
2E1
 100
AcDbEntity
   8
LEVEL001
 100
AcDbLine
   6
DOT
  62
1
  10
 240.40119639813
  20
 175.86631644605
  30
0.0
  11
 240.40119639813
  21
 177.79816809862
  31
0.0
   0
LINE
   5
2E2
 100
AcDbEntity
   8
LEVEL001
 100
AcDbLine
   6
DOT
  62
1
  10
 244.90119639813
  20
 175.86631644605
  30
0.0
  11
 244.90119639813
  21
 177.79816809862
  31
0.0
   0
LINE
   5
2E3
 100
AcDbEntity
   8
LEVEL001
 100
AcDbLine
   6
DOT
  62
1
  10
 206.85119639814
  20
 197.59239673273
  30
0.0
  11
 206.85119639814
  21
 200.59239673273
  31
0.0
   0
LINE
   5
2E4
 100
AcDbEntity
   8
LEVEL001
 100
AcDbLine
   6
DOT
  62
1
  10
 206.85119639814
  20
 200.59239673273
  30
0.0
  11
 207.55119639814
  21
 200.59239673273
  31
0.0
   0
LINE
   5
2E5
 100
AcDbEntity
   8
LEVEL001
 100
AcDbLine
   6
DOT
  62
1
  10
 206.85119639814
  20
 194.59239673273
  30
0.0
  11
 206.85119639814
  21
 197.59239673273
  31
0.0
   0
LINE
   5
2E6
 100
AcDbEntity
   8
LEVEL001
 100
AcDbLine
   6
DOT
  62
1
  10
 206.85119639814
  20
 194.59239673273
  30
0.0
  11
 207.55119639814
  21
 194.59239673273
  31
0.0
   0
LINE
   5
2E7
 100
AcDbEntity
   8
LEVEL001
 100
AcDbLine
   6
DOT
  62
1
  10
 207.55119639814
  20
 197.59239673273
  30
0.0
  11
 207.55119639814
  21
 200.59239673273
  31
0.0
   0
LINE
   5
2E8
 100
AcDbEntity
   8
LEVEL001
 100
AcDbLine
   6
DOT
  62
1
  10
 207.55119639814
  20
 194.59239673273
  30
0.0
  11
 207.55119639814
  21
 197.59239673273
  31
0.0
   0
ENDSEC
  0
SECTION
  2
OBJECTS
  0
DICTIONARY
  5
C
100
AcDbDictionary
  3
ACAD_GROUP
350
D
  3
ACAD_MLINESTYLE
350
1B
  0
DICTIONARY
  5
D
102
{ACAD_REACTORS
330
C
102
}
100
AcDbDictionary
  0
DICTIONARY
  5
1B
102
{ACAD_REACTORS
330
C
102
}
100
AcDbDictionary
  3
STANDARD
350
1C
  0
MLINESTYLE
  5
1C
102
{ACAD_REACTORS
330
1B
102
}
100
AcDbMlineStyle
  2
STANDARD
 70
     0
  3

 62
   256
 51
90.0
 52
90.0
 71
     2
 49
0.5
 62
   256
  6
BYLAYER
 49
-0.5
 62
   256
  6
BYLAYER
  0
ENDSEC
   0
EOF
