   0
SECTION
   2
HEADER
   9
$ACADVER
   1
AC1015
   9
$LIMMIN
  10
0.0
  20
0.0
   9
$LIMMAX
  10
 420.00000000000
  20
 297.00000000000
   9
$EXTMIN
  10
0.0
  20
0.0
  30
0.0
   9
$EXTMAX
  10
 420.00000000000
  20
 297.00000000000
  30
0.0
   9
$LTSCALE
  40
 8.4000000000000
   9
$HANDSEED
   5
430
   0
ENDSEC
   0
SECTION
   2
TABLES
  0
TABLE
  2
VPORT
  5
8
100
AcDbSymbolTable
 70
     1
  0
VPORT
  5
42F
100
AcDbSymbolTableRecord
100
AcDbViewportTableRecord
  2
*ACTIVE
 70
     0
 10
0.0
 20
0.0
 11
1.0
 21
1.0
  12
 210.00000000000
  22
 148.50000000000
 13
0.0
 23
0.0
 14
1.0
 24
1.0
 15
0.0
 25
0.0
 16
0.0
 26
0.0
 36
1.0
 17
0.0
 27
0.0
 37
0.0
  40
 420.00000000000
  41
 1.4787878787879
 42
50.0
 43
0.0
 44
0.0
 50
0.0
 51
0.0
 71
     0
 72
   100
 73
     1
 74
     1
 75
     0
 76
     0
 77
     0
 78
     0
  0
ENDTAB
  0
TABLE
  2
LTYPE
  5
5
100
AcDbSymbolTable
 70
    25
  0
LTYPE
  5
12
100
AcDbSymbolTableRecord
100
AcDbLinetypeTableRecord
  2
BYBLOCK
 70
     0
  3

 72
    65
 73
     0
 40
0.0
  0
LTYPE
  5
13
100
AcDbSymbolTableRecord
100
AcDbLinetypeTableRecord
  2
BYLAYER
 70
     0
  3

 72
    65
 73
     0
 40
0.0
  0
LTYPE
  5
14
100
AcDbSymbolTableRecord
100
AcDbLinetypeTableRecord
  2
CONTINUOUS
 70
     0
  3
Solid line
 72
    65
 73
     0
 40
0.0
  0
LTYPE
  5
20
100
AcDbSymbolTableRecord
100
AcDbLinetypeTableRecord
  2
BORDER
 70
     0
  3
__ __ . __ __ . __ __ . __ __ . __ __ . __ __ .
 72
    65
 73
     6
 40
1.75
 49
0.5
 74
     0
 49
-0.25
 74
     0
 49
0.5
 74
     0
 49
-0.25
 74
     0
 49
0.0
 74
     0
 49
-0.25
 74
     0
  0
LTYPE
  5
21
100
AcDbSymbolTableRecord
100
AcDbLinetypeTableRecord
  2
BORDER2
 70
     0
  3
__.__.__.__.__.__.__.__.__.__.__.__.__.__.__.__
 72
    65
 73
     6
 40
0.875
 49
0.25
 74
     0
 49
-0.125
 74
     0
 49
0.25
 74
     0
 49
-0.125
 74
     0
 49
0.0
 74
     0
 49
-0.125
 74
     0
  0
LTYPE
  5
22
100
AcDbSymbolTableRecord
100
AcDbLinetypeTableRecord
  2
BORDERX2
 70
     0
  3
____  ____  .  ____  ____  .  ____  ____  .  __
 72
    65
 73
     6
 40
3.5
 49
1.0
 74
     0
 49
-0.5
 74
     0
 49
1.0
 74
     0
 49
-0.5
 74
     0
 49
0.0
 74
     0
 49
-0.5
 74
     0
  0
LTYPE
  5
23
100
AcDbSymbolTableRecord
100
AcDbLinetypeTableRecord
  2
CENTER
 70
     0
  3
____ _ ____ _ ____ _ ____ _ ____ _ ____ _ ____ 
 72
    65
 73
     4
 40
2.0
 49
1.25
 74
     0
 49
-0.25
 74
     0
 49
0.25
 74
     0
 49
-0.25
 74
     0
  0
LTYPE
  5
24
100
AcDbSymbolTableRecord
100
AcDbLinetypeTableRecord
  2
CENTER2
 70
     0
  3
___ _ ___ _ ___ _ ___ _ ___ _ ___ _ ___ _ ___ _
 72
    65
 73
     4
 40
1.125
 49
0.75
 74
     0
 49
-0.125
 74
     0
 49
0.125
 74
     0
 49
-0.125
 74
     0
  0
LTYPE
  5
25
100
AcDbSymbolTableRecord
100
AcDbLinetypeTableRecord
  2
CENTERX2
 70
     0
  3
________  __  ________  __  ________  __  _____
 72
    65
 73
     4
 40
4.0
 49
2.5
 74
     0
 49
-0.5
 74
     0
 49
0.5
 74
     0
 49
-0.5
 74
     0
  0
LTYPE
  5
26
100
AcDbSymbolTableRecord
100
AcDbLinetypeTableRecord
  2
DASHDOT
 70
     0
  3
__ . __ . __ . __ . __ . __ . __ . __ . __ . __
 72
    65
 73
     4
 40
1.0
 49
0.5
 74
     0
 49
-0.25
 74
     0
 49
0.0
 74
     0
 49
-0.25
 74
     0
  0
LTYPE
  5
27
100
AcDbSymbolTableRecord
100
AcDbLinetypeTableRecord
  2
DASHDOT2
 70
     0
  3
_._._._._._._._._._._._._._._._._._._._._._._._
 72
    65
 73
     4
 40
0.5
 49
0.25
 74
     0
 49
-0.125
 74
     0
 49
0.0
 74
     0
 49
-0.125
 74
     0
  0
LTYPE
  5
28
100
AcDbSymbolTableRecord
100
AcDbLinetypeTableRecord
  2
DASHDOTX2
 70
     0
  3
____  .  ____  .  ____  .  ____  .  ____  .  __
 72
    65
 73
     4
 40
2.0
 49
1.0
 74
     0
 49
-0.5
 74
     0
 49
0.0
 74
     0
 49
-0.5
 74
     0
  0
LTYPE
  5
29
100
AcDbSymbolTableRecord
100
AcDbLinetypeTableRecord
  2
DASHED
 70
     0
  3
__ __ __ __ __ __ __ __ __ __ __ __ __ __ __ __
 72
    65
 73
     2
 40
0.75
 49
0.5
 74
     0
 49
-0.25
 74
     0
  0
LTYPE
  5
2A
100
AcDbSymbolTableRecord
100
AcDbLinetypeTableRecord
  2
DASHED2
 70
     0
  3
_ _ _ _ _ _ _ _ _ _ _ _ _ _ _ _ _ _ _ _ _ _ _ _
 72
    65
 73
     2
 40
0.375
 49
0.25
 74
     0
 49
-0.125
 74
     0
  0
LTYPE
  5
2B
100
AcDbSymbolTableRecord
100
AcDbLinetypeTableRecord
  2
DASHEDX2
 70
     0
  3
____  ____  ____  ____  ____  ____  ____  ____ 
 72
    65
 73
     2
 40
1.5
 49
1.0
 74
     0
 49
-0.5
 74
     0
  0
LTYPE
  5
2C
100
AcDbSymbolTableRecord
100
AcDbLinetypeTableRecord
  2
DIVIDE
 70
     0
  3
____ . . ____ . . ____ . . ____ . . ____ . . __
 72
    65
 73
     6
 40
1.25
 49
0.5
 74
     0
 49
-0.25
 74
     0
 49
0.0
 74
     0
 49
-0.25
 74
     0
 49
0.0
 74
     0
 49
-0.25
 74
     0
  0
LTYPE
  5
2D
100
AcDbSymbolTableRecord
100
AcDbLinetypeTableRecord
  2
DIVIDE2
 70
     0
  3
__..__..__..__..__..__..__..__..__..__..__..__.
 72
    65
 73
     6
 40
0.625
 49
0.25
 74
     0
 49
-0.125
 74
     0
 49
0.0
 74
     0
 49
-0.125
 74
     0
 49
0.0
 74
     0
 49
-0.125
 74
     0
  0
LTYPE
  5
2E
100
AcDbSymbolTableRecord
100
AcDbLinetypeTableRecord
  2
DIVIDEX2
 70
     0
  3
________  .  .  ________  .  .  ________  .  . 
 72
    65
 73
     6
 40
2.5
 49
1.0
 74
     0
 49
-0.5
 74
     0
 49
0.0
 74
     0
 49
-0.5
 74
     0
 49
0.0
 74
     0
 49
-0.5
 74
     0
  0
LTYPE
  5
2F
100
AcDbSymbolTableRecord
100
AcDbLinetypeTableRecord
  2
DOT
 70
     0
  3
. . . . . . . . . . . . . . . . . . . . . . . .
 72
    65
 73
     2
 40
0.25
 49
0.0
 74
     0
 49
-0.25
 74
     0
  0
LTYPE
  5
30
100
AcDbSymbolTableRecord
100
AcDbLinetypeTableRecord
  2
DOT2
 70
     0
  3
...............................................
 72
    65
 73
     2
 40
0.125
 49
0.0
 74
     0
 49
-0.125
 74
     0
  0
LTYPE
  5
31
100
AcDbSymbolTableRecord
100
AcDbLinetypeTableRecord
  2
DOTX2
 70
     0
  3
.  .  .  .  .  .  .  .  .  .  .  .  .  .  .  . 
 72
    65
 73
     2
 40
0.5
 49
0.0
 74
     0
 49
-0.5
 74
     0
  0
LTYPE
  5
32
100
AcDbSymbolTableRecord
100
AcDbLinetypeTableRecord
  2
HIDDEN
 70
     0
  3
__ __ __ __ __ __ __ __ __ __ __ __ __ __ __ __
 72
    65
 73
     2
 40
0.375
 49
0.25
 74
     0
 49
-0.125
 74
     0
  0
LTYPE
  5
33
100
AcDbSymbolTableRecord
100
AcDbLinetypeTableRecord
  2
HIDDEN2
 70
     0
  3
_ _ _ _ _ _ _ _ _ _ _ _ _ _ _ _ _ _ _ _ _ _ _ _
 72
    65
 73
     2
 40
0.1875
 49
0.125
 74
     0
 49
-0.0625
 74
     0
  0
LTYPE
  5
34
100
AcDbSymbolTableRecord
100
AcDbLinetypeTableRecord
  2
HIDDENX2
 70
     0
  3
____ ____ ____ ____ ____ ____ ____ ____ ____ __
 72
    65
 73
     2
 40
0.75
 49
0.5
 74
     0
 49
-0.25
 74
     0
  0
LTYPE
  5
35
100
AcDbSymbolTableRecord
100
AcDbLinetypeTableRecord
  2
PHANTOM
 70
     0
  3
______  __  __  ______  __  __  ______  __  __ 
 72
    65
 73
     6
 40
2.5
 49
1.25
 74
     0
 49
-0.25
 74
     0
 49
0.25
 74
     0
 49
-0.25
 74
     0
 49
0.25
 74
     0
 49
-0.25
 74
     0
  0
LTYPE
  5
36
100
AcDbSymbolTableRecord
100
AcDbLinetypeTableRecord
  2
PHANTOM2
 70
     0
  3
___ _ _ ___ _ _ ___ _ _ ___ _ _ ___ _ _ ___ _ _
 72
    65
 73
     6
 40
1.25
 49
0.625
 74
     0
 49
-0.125
 74
     0
 49
0.125
 74
     0
 49
-0.125
 74
     0
 49
0.125
 74
     0
 49
-0.125
 74
     0
  0
LTYPE
  5
37
100
AcDbSymbolTableRecord
100
AcDbLinetypeTableRecord
  2
PHANTOMX2
 70
     0
  3
____________    ____    ____    ____________   
 72
    65
 73
     6
 40
5.0
 49
2.5
 74
     0
 49
-0.5
 74
     0
 49
0.5
 74
     0
 49
-0.5
 74
     0
 49
0.5
 74
     0
 49
-0.5
 74
     0
  0
ENDTAB
   0
TABLE
   2
LAYER
   5
2
 100
AcDbSymbolTable
  70
2
   0
LAYER
   5
E
 100
AcDbSymbolTableRecord
 100
AcDbLayerTableRecord
   2
0
  70
0
  62
7
   6
CONTINUOUS
 390
30
   0
LAYER
   5
39
 100
AcDbSymbolTableRecord
 100
AcDbLayerTableRecord
   2
LEVEL001
  70
0
  62
7
   6
CONTINUOUS
 390
30
   0
ENDTAB
  0
TABLE
  2
STYLE
  5
3
100
AcDbSymbolTable
  70
3
  0
STYLE
  5
F
100
AcDbSymbolTableRecord
100
AcDbTextStyleTableRecord
  2
STANDARD
 70
     0
 40
0.0
 41
1.0
 50
0.0
 71
     0
 42
0.2
  3
TXT
  4
BIGFONT
  0
STYLE
  5
38
100
AcDbSymbolTableRecord
100
AcDbTextStyleTableRecord
  2
STANDARD1
 70
     4
 40
0.0
 41
1.0
 50
0.0
 71
     0
 42
0.2
  3
TXT
  4
BIGFONT
   0
STYLE
   5
3A
 100
AcDbSymbolTableRecord
 100
AcDbTextStyleTableRecord
   2
GMM001
  70
0
  40
0.0
  41
 0.95000000000000
  50
0.0
  71
     0
  42
1.0
   3
txt.shx
   4
bigfont.shx
   0
ENDTAB
  0
TABLE
  2
VIEW
  5
6
100
AcDbSymbolTable
 70
     0
  0
ENDTAB
  0
TABLE
  2
UCS
  5
7
100
AcDbSymbolTable
 70
     0
  0
ENDTAB
  0
TABLE
  2
APPID
  5
9
100
AcDbSymbolTable
 70
     1
  0
APPID
  5
10
100
AcDbSymbolTableRecord
100
AcDbRegAppTableRecord
  2
ACAD
 70
     0
  0
ENDTAB
   0
TABLE
   2
DIMSTYLE
   5
A
 100
AcDbSymbolTable
  70
11
 100
AcDbDimStyleTable
  0
DIMSTYLE
105
1D
100
AcDbSymbolTableRecord
100
AcDbDimStyleTableRecord
  2
STANDARD
 70
     0
  3

  4

  5

  6

  7

 40
1.0
 41
0.18
 42
0.0625
 43
0.38
 44
0.18
 45
0.0
 46
0.0
 47
0.0
 48
0.0
140
0.18
141
0.09
142
0.0
143
25.4
144
1.0
145
0.0
146
1.0
147
0.09
 71
     0
 72
     0
 73
     1
 74
     1
 75
     0
 76
     0
 77
     0
 78
     0
170
     0
171
     2
172
     0
173
     0
174
     0
175
     0
176
     0
177
     0
178
     0
270
     2
271
     4
272
     4
273
     2
274
     2
340
F
275
     0
280
     0
281
     0
282
     0
283
     1
284
     0
285
     0
286
     0
287
     3
288
     0
   0
DIMSTYLE
 105
3B
 100
AcDbSymbolTableRecord
 100
AcDbDimStyleTableRecord
   2
GMM001
  70
0
   3

   4

   5

   6
_OPEN30
   7
_OPEN30
  40
 1.0000000000000
  41
 3.0000000000000
  42
 1.0000000000000
  43
 8.0000000000000
  44
 1.0000000000000
  45
0.0
  46
0.0
  47
0.0
  48
0.0
 140
 4.0000000000000
 141
 1.0000000000000
 142
0.0
 143
 0.39400000000000E-1
 144
 1.0000000000000
 145
0.0
 146
 0.62500000000000
 147
 1.5350778858635
  71
0
  72
0
  73
0
  74
0
  75
0
  76
0
  77
3
  78
8
 170
0
 171
2
 172
1
 173
1
 174
0
 175
0
 176
3
 177
3
 178
3
 270
2
 271
6
 272
0
 273
2
 274
2
 340
3A
 275
0
 280
0
 281
0
 282
0
 283
1
 284
0
 285
0
 286
0
 287
3
 288
1
   0
DIMSTYLE
 105
3C
 100
AcDbSymbolTableRecord
 100
AcDbDimStyleTableRecord
   2
GMM002
  70
0
   3

   4

   5

   6
_OPEN30
   7
_OPEN30
  40
 1.0000000000000
  41
 3.0000000000000
  42
 1.0000000000000
  43
 8.0000000000000
  44
 1.0000000000000
  45
0.0
  46
0.0
  47
0.0
  48
0.0
 140
 4.0000000000000
 141
 1.0000000000000
 142
0.0
 143
 0.39400000000000E-1
 144
 1.0000000000000
 145
0.0
 146
 0.62500000000000
 147
 1.7142857142857
  71
0
  72
0
  73
0
  74
0
  75
0
  76
0
  77
3
  78
8
 170
0
 171
2
 172
1
 173
1
 174
0
 175
0
 176
3
 177
3
 178
3
 270
2
 271
4
 272
0
 273
2
 274
2
 340
3A
 275
0
 280
0
 281
0
 282
0
 283
1
 284
0
 285
0
 286
0
 287
3
 288
0
   0
DIMSTYLE
 105
3D
 100
AcDbSymbolTableRecord
 100
AcDbDimStyleTableRecord
   2
GMM003
  70
0
   3
%%c<>
   4

   5

   6
_OPEN30
   7
_OPEN30
  40
 1.0000000000000
  41
 3.0000000000000
  42
 1.0000000000000
  43
 8.0000000000000
  44
 1.0000000000000
  45
0.0
  46
0.0
  47
0.0
  48
0.0
 140
 4.0000000000000
 141
 1.0000000000000
 142
0.0
 143
 0.39400000000000E-1
 144
 1.0000000000000
 145
0.0
 146
 0.62500000000000
 147
 1.7142857142857
  71
0
  72
0
  73
0
  74
0
  75
0
  76
0
  77
3
  78
8
 170
0
 171
2
 172
1
 173
1
 174
0
 175
0
 176
3
 177
3
 178
3
 270
2
 271
6
 272
0
 273
2
 274
2
 340
3A
 275
0
 280
0
 281
0
 282
0
 283
1
 284
0
 285
0
 286
0
 287
3
 288
0
   0
DIMSTYLE
 105
3E
 100
AcDbSymbolTableRecord
 100
AcDbDimStyleTableRecord
   2
GMM004
  70
0
   3

   4

   5

   6
_OPEN30
   7
_OPEN30
  40
 1.0000000000000
  41
 3.0000000000000
  42
 1.0000000000000
  43
 8.0000000000000
  44
 1.0000000000000
  45
0.0
  46
0.0
  47
0.0
  48
0.0
 140
 4.0000000000000
 141
 1.0000000000000
 142
0.0
 143
 0.39400000000000E-1
 144
 1.0000000000000
 145
0.0
 146
 0.62500000000000
 147
 1.7142857142857
  71
0
  72
0
  73
0
  74
0
  75
0
  76
0
  77
3
  78
8
 170
0
 171
2
 172
1
 173
1
 174
0
 175
0
 176
3
 177
3
 178
3
 270
2
 271
6
 272
0
 273
2
 274
2
 340
3A
 275
0
 280
0
 281
0
 282
0
 283
1
 284
0
 285
0
 286
0
 287
3
 288
0
   0
DIMSTYLE
 105
3F
 100
AcDbSymbolTableRecord
 100
AcDbDimStyleTableRecord
   2
GMM005
  70
0
   3
(<>
   4

   5

   6
_OPEN30
   7
_OPEN30
  40
 1.0000000000000
  41
 3.0000000000000
  42
 1.0000000000000
  43
 8.0000000000000
  44
 1.0000000000000
  45
0.0
  46
0.0
  47
0.0
  48
0.0
 140
 4.0000000000000
 141
 1.0000000000000
 142
0.0
 143
 0.39400000000000E-1
 144
 1.0000000000000
 145
0.0
 146
 0.62500000000000
 147
 1.7142857142857
  71
0
  72
0
  73
0
  74
0
  75
0
  76
0
  77
3
  78
8
 170
0
 171
2
 172
1
 173
1
 174
0
 175
0
 176
3
 177
3
 178
3
 270
2
 271
6
 272
0
 273
2
 274
2
 340
3A
 275
0
 280
0
 281
0
 282
0
 283
1
 284
0
 285
0
 286
0
 287
3
 288
0
   0
DIMSTYLE
 105
40
 100
AcDbSymbolTableRecord
 100
AcDbDimStyleTableRecord
   2
GMM006
  70
0
   3

   4

   5

   6
_OPEN30
   7
_OPEN30
  40
 1.0000000000000
  41
 3.0000000000000
  42
 1.0000000000000
  43
 8.0000000000000
  44
 1.0000000000000
  45
0.0
  46
0.0
  47
0.0
  48
0.0
 140
 4.0000000000000
 141
 1.0000000000000
 142
0.0
 143
 0.39400000000000E-1
 144
 1.0000000000000
 145
0.0
 146
 0.62500000000000
 147
 1.5582986521316
  71
0
  72
0
  73
0
  74
0
  75
0
  76
0
  77
3
  78
8
 170
0
 171
2
 172
1
 173
1
 174
0
 175
0
 176
3
 177
3
 178
3
 270
2
 271
6
 272
0
 273
2
 274
2
 340
3A
 275
0
 280
0
 281
0
 282
0
 283
1
 284
0
 285
0
 286
0
 287
3
 288
1
   0
DIMSTYLE
 105
41
 100
AcDbSymbolTableRecord
 100
AcDbDimStyleTableRecord
   2
GMM007
  70
0
   3
R<>
   4

   5

   6
_NONE
   7
_OPEN30
  40
 1.0000000000000
  41
 3.0000000000000
  42
 1.0000000000000
  43
 8.0000000000000
  44
 1.0000000000000
  45
0.0
  46
0.0
  47
0.0
  48
0.0
 140
 4.0000000000000
 141
 1.0000000000000
 142
0.0
 143
 0.39400000000000E-1
 144
 1.0000000000000
 145
0.0
 146
 0.62500000000000
 147
 1.7142857142857
  71
0
  72
0
  73
0
  74
0
  75
0
  76
0
  77
3
  78
8
 170
0
 171
2
 172
1
 173
1
 174
0
 175
0
 176
3
 177
3
 178
3
 270
2
 271
6
 272
0
 273
2
 274
2
 340
3A
 275
0
 280
0
 281
0
 282
0
 283
1
 284
0
 285
0
 286
0
 287
3
 288
1
   0
DIMSTYLE
 105
42
 100
AcDbSymbolTableRecord
 100
AcDbDimStyleTableRecord
   2
GMM008
  70
0
   3

   4

   5

   6
_OPEN30
   7
_OPEN30
  40
 1.0000000000000
  41
 3.0000000000000
  42
 1.0000000000000
  43
 8.0000000000000
  44
 1.0000000000000
  45
0.0
  46
0.0
  47
0.0
  48
0.0
 140
 4.0000000000000
 141
 1.0000000000000
 142
0.0
 143
 0.39400000000000E-1
 144
 1.0000000000000
 145
0.0
 146
 0.62500000000000
 147
 1.7142857142857
  71
0
  72
0
  73
0
  74
0
  75
0
  76
0
  77
3
  78
8
 170
0
 171
2
 172
1
 173
1
 174
0
 175
0
 176
3
 177
3
 178
3
 270
2
 271
6
 272
0
 273
2
 274
2
 340
3A
 275
0
 280
0
 281
0
 282
0
 283
1
 284
0
 285
0
 286
0
 287
3
 288
1
   0
DIMSTYLE
 105
43
 100
AcDbSymbolTableRecord
 100
AcDbDimStyleTableRecord
   2
GMM009
  70
0
   3
37.5<>
   4

   5

   6
_OPEN30
   7
_OPEN30
  40
 1.0000000000000
  41
 3.0000000000000
  42
 1.0000000000000
  43
 8.0000000000000
  44
 1.0000000000000
  45
0.0
  46
0.0
  47
0.0
  48
0.0
 140
 4.0000000000000
 141
 1.0000000000000
 142
0.0
 143
 0.39400000000000E-1
 144
 1.0000000000000
 145
0.0
 146
 0.62500000000000
 147
 1.7142857142857
  71
0
  72
0
  73
0
  74
0
  75
0
  76
0
  77
3
  78
8
 170
0
 171
2
 172
1
 173
1
 174
0
 175
0
 176
3
 177
3
 178
3
 270
2
 271
6
 272
0
 273
2
 274
2
 340
3A
 275
0
 280
0
 281
0
 282
0
 283
1
 284
0
 285
0
 286
0
 287
3
 288
0
   0
ENDTAB
  0
TABLE
  2
BLOCK_RECORD
  5
1
100
AcDbSymbolTable
 70
     0
  0
BLOCK_RECORD
  5
18
100
AcDbSymbolTableRecord
100
AcDbBlockTableRecord
  2
*MODEL_SPACE
  0
BLOCK_RECORD
  5
15
100
AcDbSymbolTableRecord
100
AcDbBlockTableRecord
  2
*PAPER_SPACE
   0
BLOCK_RECORD
   5
44
 100
AcDbSymbolTableRecord
 100
AcDbBlockTableRecord
   2
*D1
   0
BLOCK_RECORD
   5
45
 100
AcDbSymbolTableRecord
 100
AcDbBlockTableRecord
   2
*D2
   0
BLOCK_RECORD
   5
46
 100
AcDbSymbolTableRecord
 100
AcDbBlockTableRecord
   2
*D3
   0
BLOCK_RECORD
   5
47
 100
AcDbSymbolTableRecord
 100
AcDbBlockTableRecord
   2
*D4
   0
BLOCK_RECORD
   5
48
 100
AcDbSymbolTableRecord
 100
AcDbBlockTableRecord
   2
*D5
   0
BLOCK_RECORD
   5
49
 100
AcDbSymbolTableRecord
 100
AcDbBlockTableRecord
   2
*D6
   0
BLOCK_RECORD
   5
4A
 100
AcDbSymbolTableRecord
 100
AcDbBlockTableRecord
   2
*D7
   0
BLOCK_RECORD
   5
4B
 100
AcDbSymbolTableRecord
 100
AcDbBlockTableRecord
   2
*D8
   0
BLOCK_RECORD
   5
4C
 100
AcDbSymbolTableRecord
 100
AcDbBlockTableRecord
   2
*D9
   0
BLOCK_RECORD
   5
4D
 100
AcDbSymbolTableRecord
 100
AcDbBlockTableRecord
   2
*D10
   0
BLOCK_RECORD
   5
4E
 100
AcDbSymbolTableRecord
 100
AcDbBlockTableRecord
   2
*D11
   0
BLOCK_RECORD
   5
4F
 100
AcDbSymbolTableRecord
 100
AcDbBlockTableRecord
   2
*D12
   0
BLOCK_RECORD
   5
50
 100
AcDbSymbolTableRecord
 100
AcDbBlockTableRecord
   2
*D13
   0
BLOCK_RECORD
   5
51
 100
AcDbSymbolTableRecord
 100
AcDbBlockTableRecord
   2
*D14
   0
BLOCK_RECORD
   5
52
 100
AcDbSymbolTableRecord
 100
AcDbBlockTableRecord
   2
*D15
   0
BLOCK_RECORD
   5
53
 100
AcDbSymbolTableRecord
 100
AcDbBlockTableRecord
   2
*D16
   0
BLOCK_RECORD
   5
54
 100
AcDbSymbolTableRecord
 100
AcDbBlockTableRecord
   2
*D17
   0
BLOCK_RECORD
   5
55
 100
AcDbSymbolTableRecord
 100
AcDbBlockTableRecord
   2
*D18
   0
BLOCK_RECORD
   5
56
 100
AcDbSymbolTableRecord
 100
AcDbBlockTableRecord
   2
*D19
   0
BLOCK_RECORD
   5
57
 100
AcDbSymbolTableRecord
 100
AcDbBlockTableRecord
   2
*D20
   0
BLOCK_RECORD
   5
58
 100
AcDbSymbolTableRecord
 100
AcDbBlockTableRecord
   2
*D21
   0
BLOCK_RECORD
   5
59
 100
AcDbSymbolTableRecord
 100
AcDbBlockTableRecord
   2
*D22
   0
BLOCK_RECORD
   5
5A
 100
AcDbSymbolTableRecord
 100
AcDbBlockTableRecord
   2
_ARCHTICK
   0
BLOCK_RECORD
   5
5B
 100
AcDbSymbolTableRecord
 100
AcDbBlockTableRecord
   2
_BOXBLANK
   0
BLOCK_RECORD
   5
5C
 100
AcDbSymbolTableRecord
 100
AcDbBlockTableRecord
   2
_BOXFILLED
   0
BLOCK_RECORD
   5
5D
 100
AcDbSymbolTableRecord
 100
AcDbBlockTableRecord
   2
_CLOSED
   0
BLOCK_RECORD
   5
5E
 100
AcDbSymbolTableRecord
 100
AcDbBlockTableRecord
   2
_CLOSEDBLANK
   0
BLOCK_RECORD
   5
5F
 100
AcDbSymbolTableRecord
 100
AcDbBlockTableRecord
   2
_DATUMBLANK
   0
BLOCK_RECORD
   5
60
 100
AcDbSymbolTableRecord
 100
AcDbBlockTableRecord
   2
_DATUMFILLED
   0
BLOCK_RECORD
   5
61
 100
AcDbSymbolTableRecord
 100
AcDbBlockTableRecord
   2
_DOT
   0
BLOCK_RECORD
   5
62
 100
AcDbSymbolTableRecord
 100
AcDbBlockTableRecord
   2
_DOTBLANK
   0
BLOCK_RECORD
   5
63
 100
AcDbSymbolTableRecord
 100
AcDbBlockTableRecord
   2
_DOTSMALL
   0
BLOCK_RECORD
   5
64
 100
AcDbSymbolTableRecord
 100
AcDbBlockTableRecord
   2
_INTEGRAL
   0
BLOCK_RECORD
   5
65
 100
AcDbSymbolTableRecord
 100
AcDbBlockTableRecord
   2
_NONE
   0
BLOCK_RECORD
   5
66
 100
AcDbSymbolTableRecord
 100
AcDbBlockTableRecord
   2
_OBLIQUE
   0
BLOCK_RECORD
   5
67
 100
AcDbSymbolTableRecord
 100
AcDbBlockTableRecord
   2
_OPEN
   0
BLOCK_RECORD
   5
68
 100
AcDbSymbolTableRecord
 100
AcDbBlockTableRecord
   2
_OPEN30
   0
BLOCK_RECORD
   5
69
 100
AcDbSymbolTableRecord
 100
AcDbBlockTableRecord
   2
_OPEN90
   0
BLOCK_RECORD
   5
6A
 100
AcDbSymbolTableRecord
 100
AcDbBlockTableRecord
   2
_ORIGIN
   0
ENDTAB
   0
ENDSEC
  0
SECTION
  2
BLOCKS
  0
BLOCK
  5
19
100
AcDbEntity
  8
0
100
AcDbBlockBegin
  2
*MODEL_SPACE
 70
     0
 10
0.0
 20
0.0
 30
0.0
  3
*MODEL_SPACE
  1

  0
ENDBLK
  5
1A
100
AcDbEntity
  8
0
100
AcDbBlockEnd
  0
BLOCK
  5
16
100
AcDbEntity
 67
     1
  8
0
100
AcDbBlockBegin
  2
*PAPER_SPACE
 70
     0
 10
0.0
 20
0.0
 30
0.0
  3
*PAPER_SPACE
  1

  0
ENDBLK
  5
17
100
AcDbEntity
 67
     1
  8
0
100
AcDbBlockEnd
   0
BLOCK
   5
6B
 100
AcDbEntity
   8
0
 100
AcDbBlockBegin
   2
_ARCHTICK
  70
0
  10
0.0
  20
0.0
  30
0.0
   3
_ARCHTICK
   0
POLYLINE
   5
6C
 100
AcDbEntity
   8
0
   6
BYBLOCK
  62
0
 100
AcDb2dPolyline
  66
1
  10
0.0
  20
0.0
  30
0.0
  70
1
  40
 0.15000000000000
  41
 0.15000000000000
   0
VERTEX
   5
6D
 100
AcDbEntity
   8
0
   6
BYBLOCK
  62
0
 100
AcDbVertex
 100
AcDb2dVertex
  10
-0.50000000000000
  20
-0.50000000000000
  30
0.0
  40
 0.15000000000000
  41
 0.15000000000000
   0
VERTEX
   5
6E
 100
AcDbEntity
   8
0
   6
BYBLOCK
  62
0
 100
AcDbVertex
 100
AcDb2dVertex
  10
 0.50000000000000
  20
 0.50000000000000
  30
0.0
  40
 0.15000000000000
  41
 0.15000000000000
   0
SEQEND
   5
6F
 100
AcDbEntity
   8
0
   6
BYBLOCK
  62
0
   0
ENDBLK
   5
70
 100
AcDbEntity
   8
0
 100
AcDbBlockEnd
   0
BLOCK
   5
71
 100
AcDbEntity
   8
0
 100
AcDbBlockBegin
   2
_OBLIQUE
  70
0
  10
0.0
  20
0.0
  30
0.0
   3
_OBLIQUE
   0
LINE
   5
72
 100
AcDbEntity
   8
0
 100
AcDbLine
   6
BYBLOCK
  62
0
  10
-0.50000000000000
  20
-0.50000000000000
  30
0.0
  11
 0.50000000000000
  21
 0.50000000000000
  31
0.0
   0
ENDBLK
   5
73
 100
AcDbEntity
   8
0
 100
AcDbBlockEnd
   0
BLOCK
   5
74
 100
AcDbEntity
   8
0
 100
AcDbBlockBegin
   2
_BOXBLANK
  70
0
  10
0.0
  20
0.0
  30
0.0
   3
_BOXBLANK
   0
LINE
   5
75
 100
AcDbEntity
   8
0
 100
AcDbLine
   6
BYBLOCK
  62
0
  10
-0.50000000000000
  20
-0.50000000000000
  30
0.0
  11
 0.50000000000000
  21
-0.50000000000000
  31
0.0
   0
LINE
   5
76
 100
AcDbEntity
   8
0
 100
AcDbLine
   6
BYBLOCK
  62
0
  10
 0.50000000000000
  20
-0.50000000000000
  30
0.0
  11
 0.50000000000000
  21
 0.50000000000000
  31
0.0
   0
LINE
   5
77
 100
AcDbEntity
   8
0
 100
AcDbLine
   6
BYBLOCK
  62
0
  10
 0.50000000000000
  20
 0.50000000000000
  30
0.0
  11
-0.50000000000000
  21
 0.50000000000000
  31
0.0
   0
LINE
   5
78
 100
AcDbEntity
   8
0
 100
AcDbLine
   6
BYBLOCK
  62
0
  10
-0.50000000000000
  20
 0.50000000000000
  30
0.0
  11
-0.50000000000000
  21
-0.50000000000000
  31
0.0
   0
LINE
   5
79
 100
AcDbEntity
   8
0
 100
AcDbLine
   6
BYBLOCK
  62
0
  10
-0.50000000000000
  20
0.0
  30
0.0
  11
-1.0000000000000
  21
0.0
  31
0.0
   0
ENDBLK
   5
7A
 100
AcDbEntity
   8
0
 100
AcDbBlockEnd
   0
BLOCK
   5
7B
 100
AcDbEntity
   8
0
 100
AcDbBlockBegin
   2
_BOXFILLED
  70
0
  10
0.0
  20
0.0
  30
0.0
   3
_BOXFILLED
   0
SOLID
   5
7C
 100
AcDbEntity
   8
0
 100
AcDbTrace
   6
BYBLOCK
  62
0
  10
-0.50000000000000
  20
 0.50000000000000
  30
0.0
  11
 0.50000000000000
  21
 0.50000000000000
  31
0.0
  12
-0.50000000000000
  22
-0.50000000000000
  32
0.0
  13
 0.50000000000000
  23
-0.50000000000000
  33
0.0
   0
LINE
   5
7D
 100
AcDbEntity
   8
0
 100
AcDbLine
   6
BYBLOCK
  62
0
  10
-0.50000000000000
  20
0.0
  30
0.0
  11
-1.0000000000000
  21
0.0
  31
0.0
   0
ENDBLK
   5
7E
 100
AcDbEntity
   8
0
 100
AcDbBlockEnd
   0
BLOCK
   5
7F
 100
AcDbEntity
   8
0
 100
AcDbBlockBegin
   2
_CLOSED
  70
0
  10
0.0
  20
0.0
  30
0.0
   3
_CLOSED
   0
LINE
   5
80
 100
AcDbEntity
   8
0
 100
AcDbLine
   6
BYBLOCK
  62
0
  10
-1.0000000000000
  20
 0.16666666666667
  30
0.0
  11
0.0
  21
0.0
  31
0.0
   0
LINE
   5
81
 100
AcDbEntity
   8
0
 100
AcDbLine
   6
BYBLOCK
  62
0
  10
0.0
  20
0.0
  30
0.0
  11
-1.0000000000000
  21
-0.16666666666667
  31
0.0
   0
LINE
   5
82
 100
AcDbEntity
   8
0
 100
AcDbLine
   6
BYBLOCK
  62
0
  10
-1.0000000000000
  20
 0.16666666666667
  30
0.0
  11
-1.0000000000000
  21
-0.16666666666667
  31
0.0
   0
LINE
   5
83
 100
AcDbEntity
   8
0
 100
AcDbLine
   6
BYBLOCK
  62
0
  10
0.0
  20
0.0
  30
0.0
  11
-1.0000000000000
  21
0.0
  31
0.0
   0
ENDBLK
   5
84
 100
AcDbEntity
   8
0
 100
AcDbBlockEnd
   0
BLOCK
   5
85
 100
AcDbEntity
   8
0
 100
AcDbBlockBegin
   2
_OPEN
  70
0
  10
0.0
  20
0.0
  30
0.0
   3
_OPEN
   0
LINE
   5
86
 100
AcDbEntity
   8
0
 100
AcDbLine
   6
BYBLOCK
  62
0
  10
-1.0000000000000
  20
 0.16666666666667
  30
0.0
  11
0.0
  21
0.0
  31
0.0
   0
LINE
   5
87
 100
AcDbEntity
   8
0
 100
AcDbLine
   6
BYBLOCK
  62
0
  10
0.0
  20
0.0
  30
0.0
  11
-1.0000000000000
  21
-0.16666666666667
  31
0.0
   0
LINE
   5
88
 100
AcDbEntity
   8
0
 100
AcDbLine
   6
BYBLOCK
  62
0
  10
0.0
  20
0.0
  30
0.0
  11
-1.0000000000000
  21
0.0
  31
0.0
   0
ENDBLK
   5
89
 100
AcDbEntity
   8
0
 100
AcDbBlockEnd
   0
BLOCK
   5
8A
 100
AcDbEntity
   8
0
 100
AcDbBlockBegin
   2
_OPEN30
  70
0
  10
0.0
  20
0.0
  30
0.0
   3
_OPEN30
   0
LINE
   5
8B
 100
AcDbEntity
   8
0
 100
AcDbLine
   6
BYBLOCK
  62
0
  10
-1.0000000000000
  20
 0.26794919243110
  30
0.0
  11
0.0
  21
0.0
  31
0.0
   0
LINE
   5
8C
 100
AcDbEntity
   8
0
 100
AcDbLine
   6
BYBLOCK
  62
0
  10
0.0
  20
0.0
  30
0.0
  11
-1.0000000000000
  21
-0.26794919243110
  31
0.0
   0
LINE
   5
8D
 100
AcDbEntity
   8
0
 100
AcDbLine
   6
BYBLOCK
  62
0
  10
0.0
  20
0.0
  30
0.0
  11
-1.0000000000000
  21
0.0
  31
0.0
   0
ENDBLK
   5
8E
 100
AcDbEntity
   8
0
 100
AcDbBlockEnd
   0
BLOCK
   5
8F
 100
AcDbEntity
   8
0
 100
AcDbBlockBegin
   2
_OPEN90
  70
0
  10
0.0
  20
0.0
  30
0.0
   3
_OPEN90
   0
LINE
   5
90
 100
AcDbEntity
   8
0
 100
AcDbLine
   6
BYBLOCK
  62
0
  10
-0.50000000000000
  20
 0.50000000000000
  30
0.0
  11
0.0
  21
0.0
  31
0.0
   0
LINE
   5
91
 100
AcDbEntity
   8
0
 100
AcDbLine
   6
BYBLOCK
  62
0
  10
0.0
  20
0.0
  30
0.0
  11
-0.50000000000000
  21
-0.50000000000000
  31
0.0
   0
LINE
   5
92
 100
AcDbEntity
   8
0
 100
AcDbLine
   6
BYBLOCK
  62
0
  10
0.0
  20
0.0
  30
0.0
  11
-1.0000000000000
  21
0.0
  31
0.0
   0
ENDBLK
   5
93
 100
AcDbEntity
   8
0
 100
AcDbBlockEnd
   0
BLOCK
   5
94
 100
AcDbEntity
   8
0
 100
AcDbBlockBegin
   2
_CLOSEDBLANK
  70
0
  10
0.0
  20
0.0
  30
0.0
   3
_CLOSEDBLANK
   0
LINE
   5
95
 100
AcDbEntity
   8
0
 100
AcDbLine
   6
BYBLOCK
  62
0
  10
-1.0000000000000
  20
 0.16666666666667
  30
0.0
  11
0.0
  21
0.0
  31
0.0
   0
LINE
   5
96
 100
AcDbEntity
   8
0
 100
AcDbLine
   6
BYBLOCK
  62
0
  10
0.0
  20
0.0
  30
0.0
  11
-1.0000000000000
  21
-0.16666666666667
  31
0.0
   0
LINE
   5
97
 100
AcDbEntity
   8
0
 100
AcDbLine
   6
BYBLOCK
  62
0
  10
-1.0000000000000
  20
 0.16666666666667
  30
0.0
  11
-1.0000000000000
  21
-0.16666666666667
  31
0.0
   0
ENDBLK
   5
98
 100
AcDbEntity
   8
0
 100
AcDbBlockEnd
   0
BLOCK
   5
99
 100
AcDbEntity
   8
0
 100
AcDbBlockBegin
   2
_DOT
  70
0
  10
0.0
  20
0.0
  30
0.0
   3
_DOT
   0
POLYLINE
   5
9A
 100
AcDbEntity
   8
0
   6
BYBLOCK
  62
0
 100
AcDb2dPolyline
  66
1
  10
0.0
  20
0.0
  30
0.0
  70
1
  40
 0.50000000000000
  41
 0.50000000000000
   0
VERTEX
   5
9B
 100
AcDbEntity
   8
0
   6
BYBLOCK
  62
0
 100
AcDbVertex
 100
AcDb2dVertex
  10
-0.25000000000000
  20
0.0
  30
0.0
  42
 1.0000000000000
  40
 0.50000000000000
  41
 0.50000000000000
   0
VERTEX
   5
9C
 100
AcDbEntity
   8
0
   6
BYBLOCK
  62
0
 100
AcDbVertex
 100
AcDb2dVertex
  10
 0.25000000000000
  20
0.0
  30
0.0
  42
 1.0000000000000
  40
 0.50000000000000
  41
 0.50000000000000
   0
SEQEND
   5
9D
 100
AcDbEntity
   8
0
   6
BYBLOCK
  62
0
   0
LINE
   5
9E
 100
AcDbEntity
   8
0
 100
AcDbLine
   6
BYBLOCK
  62
0
  10
-0.50000000000000
  20
0.0
  30
0.0
  11
-1.0000000000000
  21
0.0
  31
0.0
   0
ENDBLK
   5
9F
 100
AcDbEntity
   8
0
 100
AcDbBlockEnd
   0
BLOCK
   5
A0
 100
AcDbEntity
   8
0
 100
AcDbBlockBegin
   2
_DOTSMALL
  70
0
  10
0.0
  20
0.0
  30
0.0
   3
_DOTSMALL
   0
POLYLINE
   5
A1
 100
AcDbEntity
   8
0
   6
BYBLOCK
  62
0
 100
AcDb2dPolyline
  66
1
  10
0.0
  20
0.0
  30
0.0
  70
1
  40
 0.50000000000000
  41
 0.50000000000000
   0
VERTEX
   5
A2
 100
AcDbEntity
   8
0
   6
BYBLOCK
  62
0
 100
AcDbVertex
 100
AcDb2dVertex
  10
-0.62500000000000E-1
  20
0.0
  30
0.0
  42
 1.0000000000000
  40
 0.50000000000000
  41
 0.50000000000000
   0
VERTEX
   5
A3
 100
AcDbEntity
   8
0
   6
BYBLOCK
  62
0
 100
AcDbVertex
 100
AcDb2dVertex
  10
 0.62500000000000E-1
  20
0.0
  30
0.0
  42
 1.0000000000000
  40
 0.50000000000000
  41
 0.50000000000000
   0
SEQEND
   5
A4
 100
AcDbEntity
   8
0
   6
BYBLOCK
  62
0
   0
ENDBLK
   5
A5
 100
AcDbEntity
   8
0
 100
AcDbBlockEnd
   0
BLOCK
   5
A6
 100
AcDbEntity
   8
0
 100
AcDbBlockBegin
   2
_DATUMBLANK
  70
0
  10
0.0
  20
0.0
  30
0.0
   3
_DATUMBLANK
   0
LINE
   5
A7
 100
AcDbEntity
   8
0
 100
AcDbLine
   6
BYBLOCK
  62
0
  10
0.0
  20
 0.57735027000000
  30
0.0
  11
-1.0000000000000
  21
0.0
  31
0.0
   0
LINE
   5
A8
 100
AcDbEntity
   8
0
 100
AcDbLine
   6
BYBLOCK
  62
0
  10
-1.0000000000000
  20
0.0
  30
0.0
  11
0.0
  21
-0.57735027000000
  31
0.0
   0
LINE
   5
A9
 100
AcDbEntity
   8
0
 100
AcDbLine
   6
BYBLOCK
  62
0
  10
0.0
  20
-0.57735027000000
  30
0.0
  11
0.0
  21
 0.57735027000000
  31
0.0
   0
ENDBLK
   5
AA
 100
AcDbEntity
   8
0
 100
AcDbBlockEnd
   0
BLOCK
   5
AB
 100
AcDbEntity
   8
0
 100
AcDbBlockBegin
   2
_DATUMFILLED
  70
0
  10
0.0
  20
0.0
  30
0.0
   3
_DATUMFILLED
   0
SOLID
   5
AC
 100
AcDbEntity
   8
0
 100
AcDbTrace
   6
BYBLOCK
  62
0
  10
0.0
  20
 0.57735027000000
  30
0.0
  11
-1.0000000000000
  21
0.0
  31
0.0
  12
0.0
  22
-0.57735027000000
  32
0.0
  13
0.0
  23
-0.57735027000000
  33
0.0
   0
ENDBLK
   5
AD
 100
AcDbEntity
   8
0
 100
AcDbBlockEnd
   0
BLOCK
   5
AE
 100
AcDbEntity
   8
0
 100
AcDbBlockBegin
   2
_ORIGIN
  70
0
  10
0.0
  20
0.0
  30
0.0
   3
_ORIGIN
   0
CIRCLE
   5
AF
 100
AcDbEntity
   8
0
 100
AcDbCircle
   6
BYBLOCK
  62
0
  10
0.0
  20
0.0
  30
0.0
  40
 0.50000000000000
   0
LINE
   5
B0
 100
AcDbEntity
   8
0
 100
AcDbLine
   6
BYBLOCK
  62
0
  10
0.0
  20
0.0
  30
0.0
  11
-1.0000000000000
  21
0.0
  31
0.0
   0
ENDBLK
   5
B1
 100
AcDbEntity
   8
0
 100
AcDbBlockEnd
   0
BLOCK
   5
B2
 100
AcDbEntity
   8
0
 100
AcDbBlockBegin
   2
_NONE
  70
0
  10
0.0
  20
0.0
  30
0.0
   3
_NONE
   0
CIRCLE
   5
B3
 100
AcDbEntity
   8
0
 100
AcDbCircle
   6
BYBLOCK
  62
0
  10
0.0
  20
0.0
  30
0.0
  40
 0.25000000000000
   0
ENDBLK
   5
B4
 100
AcDbEntity
   8
0
 100
AcDbBlockEnd
   0
BLOCK
   5
B5
 100
AcDbEntity
   8
0
 100
AcDbBlockBegin
   2
_DOTBLANK
  70
0
  10
0.0
  20
0.0
  30
0.0
   3
_DOTBLANK
   0
CIRCLE
   5
B6
 100
AcDbEntity
   8
0
 100
AcDbCircle
   6
BYBLOCK
  62
0
  10
0.0
  20
0.0
  30
0.0
  40
 0.50000000000000
   0
LINE
   5
B7
 100
AcDbEntity
   8
0
 100
AcDbLine
   6
BYBLOCK
  62
0
  10
-0.50000000000000
  20
0.0
  30
0.0
  11
-1.0000000000000
  21
0.0
  31
0.0
   0
ENDBLK
   5
B8
 100
AcDbEntity
   8
0
 100
AcDbBlockEnd
   0
BLOCK
   5
B9
 100
AcDbEntity
   8
0
 100
AcDbBlockBegin
   2
_INTEGRAL
  70
0
  10
0.0
  20
0.0
  30
0.0
   3
_INTEGRAL
   0
ARC
   5
BA
 100
AcDbEntity
   8
0
   6
BYBLOCK
  62
0
 100
AcDbCircle
  10
 0.44488800000000
  20
-0.91335000000000E-1
  30
0.0
  40
 0.45416700000000
 100
AcDbArc
  50
 102.00000000000
  51
 168.00000000000
   0
ARC
   5
BB
 100
AcDbEntity
   8
0
   6
BYBLOCK
  62
0
 100
AcDbCircle
  10
-0.44488800000000
  20
 0.91335000000000E-1
  30
0.0
  40
 0.45416700000000
 100
AcDbArc
  50
 282.00000000000
  51
 348.00000000000
   0
ENDBLK
   5
BC
 100
AcDbEntity
   8
0
 100
AcDbBlockEnd
   0
BLOCK
   5
BD
 100
AcDbEntity
   8
0
 100
AcDbBlockBegin
   2
*D1
  70
65
  10
0.0
  20
0.0
  30
0.0
   3
*D1
   0
LINE
   5
BE
 100
AcDbEntity
   8
LEVEL001
 100
AcDbLine
   6
CONTINUOUS
  62
3
  10
 62.911588753559
  20
 149.12273248838
  30
0.0
  11
 54.016566465550
  21
 149.12273248838
  31
0.0
   0
LINE
   5
BF
 100
AcDbEntity
   8
LEVEL001
 100
AcDbLine
   6
CONTINUOUS
  62
3
  10
 64.911588753559
  20
 153.62273248838
  30
0.0
  11
 54.016566465550
  21
 153.62273248838
  31
0.0
   0
LINE
   5
C0
 100
AcDbEntity
   8
LEVEL001
 100
AcDbLine
   6
CONTINUOUS
  62
3
  10
 55.016566465550
  20
 136.99433162172
  30
0.0
  11
 55.016566465550
  21
 151.37273248838
  31
0.0
   0
LINE
   5
C1
 100
AcDbEntity
   8
LEVEL001
 100
AcDbLine
   6
CONTINUOUS
  62
3
  10
 55.016566465550
  20
 157.37273248838
  30
0.0
  11
 55.016566465550
  21
 151.37273248838
  31
0.0
   0
INSERT
   5
C2
 100
AcDbEntity
   8
LEVEL001
   6
CONTINUOUS
  62
3
 100
AcDbBlockReference
   2
_OPEN30
  10
 55.016566465550
  20
 149.12273248838
  30
0.0
  41
 3.0000000000000
  42
 3.0000000000000
  43
 3.0000000000000
  50
 90.000000000000
   0
INSERT
   5
C3
 100
AcDbEntity
   8
LEVEL001
   6
CONTINUOUS
  62
3
 100
AcDbBlockReference
   2
_OPEN30
  10
 55.016566465550
  20
 153.62273248838
  30
0.0
  41
 3.0000000000000
  42
 3.0000000000000
  43
 3.0000000000000
  50
 270.00000000000
   0
MTEXT
   5
C4
 100
AcDbEntity
   8
LEVEL001
  62
3
 100
AcDbMText
  10
 53.481488579687
  20
 146.49433162172
  30
0.0
  40
 4.0000000000000
  41
0.0
  71
9
  72
1
   1
\A1;4.5
   7
GMM001
  11
0.0
  21
 1.0000000000000
  31
0.0
   0
ENDBLK
   5
C5
 100
AcDbEntity
   8
0
 100
AcDbBlockEnd
   0
BLOCK
   5
C6
 100
AcDbEntity
   8
0
 100
AcDbBlockBegin
   2
*D2
  70
65
  10
0.0
  20
0.0
  30
0.0
   3
*D2
   0
LINE
   5
C7
 100
AcDbEntity
   8
LEVEL001
 100
AcDbLine
   6
CONTINUOUS
  62
3
  10
 157.93455846005
  20
 190.94472462817
  30
0.0
  11
 157.93455846005
  21
 190.94472462817
  31
0.0
   0
LINE
   5
C8
 100
AcDbEntity
   8
LEVEL001
 100
AcDbLine
   6
CONTINUOUS
  62
3
  10
 138.43264324597
  20
 192.78864188671
  30
0.0
  11
 138.43264324597
  21
 196.26819514244
  31
0.0
   0
ARC
   5
C9
 100
AcDbEntity
   8
LEVEL001
   6
CONTINUOUS
  62
3
 100
AcDbCircle
  10
 138.43264324597
  20
 149.12273248838
  30
0.0
  40
 46.145462654058
 100
AcDbArc
  50
 65.000000000000
  51
 77.500000000000
   0
ARC
   5
CA
 100
AcDbEntity
   8
LEVEL001
   6
CONTINUOUS
  62
3
 100
AcDbCircle
  10
 138.43264324597
  20
 149.12273248838
  30
0.0
  40
 46.145462654058
 100
AcDbArc
  50
 77.500000000000
  51
 90.000000000000
   0
INSERT
   5
CB
 100
AcDbEntity
   8
LEVEL001
   6
CONTINUOUS
  62
3
 100
AcDbBlockReference
   2
_OPEN30
  10
 157.93455846005
  20
 190.94472462817
  30
0.0
  41
 3.0000000000000
  42
 3.0000000000000
  43
 3.0000000000000
  50
 335.00000000000
   0
INSERT
   5
CC
 100
AcDbEntity
   8
LEVEL001
   6
CONTINUOUS
  62
3
 100
AcDbBlockReference
   2
_OPEN30
  10
 138.43264324597
  20
 195.26819514244
  30
0.0
  41
 3.0000000000000
  42
 3.0000000000000
  43
 3.0000000000000
  50
 180.00000000000
   0
MTEXT
   5
CD
 100
AcDbEntity
   8
LEVEL001
  62
3
 100
AcDbMText
  10
 148.79138870599
  20
 195.84801372216
  30
0.0
  40
 4.0000000000000
  41
0.0
  71
8
  72
1
   1
\A1;25%%d
   7
GMM001
  11
 0.97629600711993
  21
-0.21643961393810
  31
0.0
   0
ENDBLK
   5
CE
 100
AcDbEntity
   8
0
 100
AcDbBlockEnd
   0
BLOCK
   5
CF
 100
AcDbEntity
   8
0
 100
AcDbBlockBegin
   2
*D3
  70
65
  10
0.0
  20
0.0
  30
0.0
   3
*D3
   0
LINE
   5
D0
 100
AcDbEntity
   8
LEVEL001
 100
AcDbLine
   6
CONTINUOUS
  62
3
  10
 206.23331882974
  20
 190.12273248838
  30
0.0
  11
 235.15478219934
  21
 190.12273248838
  31
0.0
   0
LINE
   5
D1
 100
AcDbEntity
   8
LEVEL001
 100
AcDbLine
   6
CONTINUOUS
  62
3
  10
 206.23331882960
  20
 228.12273248838
  30
0.0
  11
 235.15478219934
  21
 228.12273248838
  31
0.0
   0
LINE
   5
D2
 100
AcDbEntity
   8
LEVEL001
 100
AcDbLine
   6
CONTINUOUS
  62
3
  10
 234.15478219934
  20
 190.12273248838
  30
0.0
  11
 234.15478219934
  21
 209.12273248838
  31
0.0
   0
LINE
   5
D3
 100
AcDbEntity
   8
LEVEL001
 100
AcDbLine
   6
CONTINUOUS
  62
3
  10
 234.15478219934
  20
 228.12273248838
  30
0.0
  11
 234.15478219934
  21
 209.12273248838
  31
0.0
   0
INSERT
   5
D4
 100
AcDbEntity
   8
LEVEL001
   6
CONTINUOUS
  62
3
 100
AcDbBlockReference
   2
_OPEN30
  10
 234.15478219934
  20
 190.12273248838
  30
0.0
  41
 3.0000000000000
  42
 3.0000000000000
  43
 3.0000000000000
  50
 270.00000000000
   0
INSERT
   5
D5
 100
AcDbEntity
   8
LEVEL001
   6
CONTINUOUS
  62
3
 100
AcDbBlockReference
   2
_OPEN30
  10
 234.15478219934
  20
 228.12273248838
  30
0.0
  41
 3.0000000000000
  42
 3.0000000000000
  43
 3.0000000000000
  50
 90.000000000000
   0
MTEXT
   5
D6
 100
AcDbEntity
   8
LEVEL001
  62
3
 100
AcDbMText
  10
 232.44049648506
  20
 209.12273248838
  30
0.0
  40
 4.0000000000000
  41
0.0
  71
8
  72
1
   1
\A1;%%c38
   7
GMM001
  11
0.0
  21
 1.0000000000000
  31
0.0
   0
ENDBLK
   5
D7
 100
AcDbEntity
   8
0
 100
AcDbBlockEnd
   0
BLOCK
   5
D8
 100
AcDbEntity
   8
0
 100
AcDbBlockBegin
   2
*D4
  70
65
  10
0.0
  20
0.0
  30
0.0
   3
*D4
   0
LINE
   5
D9
 100
AcDbEntity
   8
LEVEL001
 100
AcDbLine
   6
CONTINUOUS
  62
3
  10
 217.41523610187
  20
 178.94081521617
  30
0.0
  11
 205.73331882971
  21
 190.62273248834
  31
0.0
   0
INSERT
   5
DA
 100
AcDbEntity
   8
LEVEL001
   6
CONTINUOUS
  62
3
 100
AcDbBlockReference
   2
_OPEN30
  10
 205.73331882971
  20
 190.62273248834
  30
0.0
  41
 3.0000000000000
  42
 3.0000000000000
  43
 3.0000000000000
  50
 315.00000000000
   0
MTEXT
   5
DB
 100
AcDbEntity
   8
LEVEL001
  62
3
 100
AcDbMText
  10
 213.25340761832
  20
 185.52700980665
  30
0.0
  40
 4.0000000000000
  41
0.0
  71
7
  72
1
   1
\A1;C1
   7
GMM001
  11
 0.70710678118655
  21
-0.70710678118655
  31
0.0
   0
ENDBLK
   5
DC
 100
AcDbEntity
   8
0
 100
AcDbBlockEnd
   0
BLOCK
   5
DD
 100
AcDbEntity
   8
0
 100
AcDbBlockBegin
   2
*D5
  70
65
  10
0.0
  20
0.0
  30
0.0
   3
*D5
   0
LINE
   5
DE
 100
AcDbEntity
   8
LEVEL001
 100
AcDbLine
   6
CONTINUOUS
  62
3
  10
 139.33830692938
  20
 146.33253135886
  30
0.0
  11
 134.14192270567
  21
 135.18884942958
  31
0.0
   0
LINE
   5
DF
 100
AcDbEntity
   8
LEVEL001
 100
AcDbLine
   6
CONTINUOUS
  62
3
  10
 137.52569135533
  20
 147.17776788233
  30
0.0
  11
 132.32930713163
  21
 136.03408595305
  31
0.0
   0
LINE
   5
E0
 100
AcDbEntity
   8
LEVEL001
 100
AcDbLine
   6
CONTINUOUS
  62
3
  10
 137.96319516880
  20
 134.51033873508
  30
0.0
  11
 133.65823318040
  21
 136.51777547835
  31
0.0
   0
LINE
   5
E1
 100
AcDbEntity
   8
LEVEL001
 100
AcDbLine
   6
CONTINUOUS
  62
3
  10
 129.35327119199
  20
 138.52521222163
  30
0.0
  11
 133.65823318040
  21
 136.51777547835
  31
0.0
   0
INSERT
   5
E2
 100
AcDbEntity
   8
LEVEL001
   6
CONTINUOUS
  62
3
 100
AcDbBlockReference
   2
_OPEN30
  10
 134.56454096742
  20
 136.09515721661
  30
0.0
  41
 3.0000000000000
  42
 3.0000000000000
  43
 3.0000000000000
  50
 154.99999999985
   0
INSERT
   5
E3
 100
AcDbEntity
   8
LEVEL001
   6
CONTINUOUS
  62
3
 100
AcDbBlockReference
   2
_OPEN30
  10
 132.75192539337
  20
 136.94039374009
  30
0.0
  41
 3.0000000000000
  42
 3.0000000000000
  43
 3.0000000000000
  50
 334.99999999985
   0
MTEXT
   5
E4
 100
AcDbEntity
   8
LEVEL001
  62
3
 100
AcDbMText
  10
 134.38272162910
  20
 138.07144597041
  30
0.0
  40
 4.0000000000000
  41
0.0
  71
8
  72
1
   1
\A1;2
   7
GMM001
  11
 0.90630778703556
  21
-0.42261826174303
  31
0.0
   0
ENDBLK
   5
E5
 100
AcDbEntity
   8
0
 100
AcDbBlockEnd
   0
BLOCK
   5
E6
 100
AcDbEntity
   8
0
 100
AcDbBlockBegin
   2
*D6
  70
65
  10
0.0
  20
0.0
  30
0.0
   3
*D6
   0
LINE
   5
E7
 100
AcDbEntity
   8
LEVEL001
 100
AcDbLine
   6
CONTINUOUS
  62
3
  10
 285.30549184081
  20
 221.72709415672
  30
0.0
  11
 285.30549184081
  21
 239.74323475355
  31
0.0
   0
LINE
   5
E8
 100
AcDbEntity
   8
LEVEL001
 100
AcDbLine
   6
CONTINUOUS
  62
3
  10
 301.30549184081
  20
 221.72709415672
  30
0.0
  11
 301.30549184081
  21
 239.74323475355
  31
0.0
   0
LINE
   5
E9
 100
AcDbEntity
   8
LEVEL001
 100
AcDbLine
   6
CONTINUOUS
  62
3
  10
 285.30549184081
  20
 238.74323475355
  30
0.0
  11
 293.30549184081
  21
 238.74323475355
  31
0.0
   0
LINE
   5
EA
 100
AcDbEntity
   8
LEVEL001
 100
AcDbLine
   6
CONTINUOUS
  62
3
  10
 301.30549184081
  20
 238.74323475355
  30
0.0
  11
 293.30549184081
  21
 238.74323475355
  31
0.0
   0
INSERT
   5
EB
 100
AcDbEntity
   8
LEVEL001
   6
CONTINUOUS
  62
3
 100
AcDbBlockReference
   2
_OPEN30
  10
 285.30549184081
  20
 238.74323475355
  30
0.0
  41
 3.0000000000000
  42
 3.0000000000000
  43
 3.0000000000000
  50
 180.00000000000
   0
INSERT
   5
EC
 100
AcDbEntity
   8
LEVEL001
   6
CONTINUOUS
  62
3
 100
AcDbBlockReference
   2
_OPEN30
  10
 301.30549184081
  20
 238.74323475355
  30
0.0
  41
 3.0000000000000
  42
 3.0000000000000
  43
 3.0000000000000
  50
0.0
   0
MTEXT
   5
ED
 100
AcDbEntity
   8
LEVEL001
  62
3
 100
AcDbMText
  10
 293.30549184081
  20
 240.45752046784
  30
0.0
  40
 4.0000000000000
  41
0.0
  71
8
  72
1
   1
\A1;16
   7
GMM001
   0
ENDBLK
   5
EE
 100
AcDbEntity
   8
0
 100
AcDbBlockEnd
   0
BLOCK
   5
EF
 100
AcDbEntity
   8
0
 100
AcDbBlockBegin
   2
*D7
  70
65
  10
0.0
  20
0.0
  30
0.0
   3
*D7
   0
LINE
   5
F0
 100
AcDbEntity
   8
LEVEL001
 100
AcDbLine
   6
CONTINUOUS
  62
3
  10
 207.23331882967
  20
 191.62273248838
  30
0.0
  11
 225.72501122868
  21
 191.62273248838
  31
0.0
   0
LINE
   5
F1
 100
AcDbEntity
   8
LEVEL001
 100
AcDbLine
   6
CONTINUOUS
  62
3
  10
 207.23331882967
  20
 226.62273248838
  30
0.0
  11
 225.72501122868
  21
 226.62273248838
  31
0.0
   0
LINE
   5
F2
 100
AcDbEntity
   8
LEVEL001
 100
AcDbLine
   6
CONTINUOUS
  62
3
  10
 224.72501122868
  20
 191.62273248838
  30
0.0
  11
 224.72501122868
  21
 209.12273248838
  31
0.0
   0
LINE
   5
F3
 100
AcDbEntity
   8
LEVEL001
 100
AcDbLine
   6
CONTINUOUS
  62
3
  10
 224.72501122868
  20
 226.62273248838
  30
0.0
  11
 224.72501122868
  21
 209.12273248838
  31
0.0
   0
INSERT
   5
F4
 100
AcDbEntity
   8
LEVEL001
   6
CONTINUOUS
  62
3
 100
AcDbBlockReference
   2
_OPEN30
  10
 224.72501122868
  20
 191.62273248838
  30
0.0
  41
 3.0000000000000
  42
 3.0000000000000
  43
 3.0000000000000
  50
 270.00000000000
   0
INSERT
   5
F5
 100
AcDbEntity
   8
LEVEL001
   6
CONTINUOUS
  62
3
 100
AcDbBlockReference
   2
_OPEN30
  10
 224.72501122868
  20
 226.62273248838
  30
0.0
  41
 3.0000000000000
  42
 3.0000000000000
  43
 3.0000000000000
  50
 90.000000000000
   0
MTEXT
   5
F6
 100
AcDbEntity
   8
LEVEL001
  62
3
 100
AcDbMText
  10
 223.01072551439
  20
 209.12273248838
  30
0.0
  40
 4.0000000000000
  41
0.0
  71
8
  72
1
   1
\A1;%%c35
   7
GMM001
  11
0.0
  21
 1.0000000000000
  31
0.0
   0
ENDBLK
   5
F7
 100
AcDbEntity
   8
0
 100
AcDbBlockEnd
   0
BLOCK
   5
F8
 100
AcDbEntity
   8
0
 100
AcDbBlockBegin
   2
*D8
  70
65
  10
0.0
  20
0.0
  30
0.0
   3
*D8
   0
POLYLINE
   5
F9
 100
AcDbEntity
   8
LEVEL001
   6
CONTINUOUS
  62
3
 100
AcDb2dPolyline
  66
1
  10
0.0
  20
0.0
  30
0.0
  70
0
   0
VERTEX
   5
FA
 100
AcDbEntity
   8
LEVEL001
   6
CONTINUOUS
  62
3
 100
AcDbVertex
 100
AcDb2dVertex
  10
 301.30549184081
  20
 211.62273248838
  30
0.0
   0
VERTEX
   5
FB
 100
AcDbEntity
   8
LEVEL001
   6
CONTINUOUS
  62
3
 100
AcDbVertex
 100
AcDb2dVertex
  10
 311.00158690424
  20
 228.13381746577
  30
0.0
   0
VERTEX
   5
FC
 100
AcDbEntity
   8
LEVEL001
   6
CONTINUOUS
  62
3
 100
AcDbVertex
 100
AcDb2dVertex
  10
 331.90158690424
  20
 228.13381746577
  30
0.0
   0
SEQEND
   5
FD
 100
AcDbEntity
   8
LEVEL001
   6
CONTINUOUS
  62
3
   0
INSERT
   5
FE
 100
AcDbEntity
   8
LEVEL001
   6
CONTINUOUS
  62
3
 100
AcDbBlockReference
   2
_OPEN30
  10
 301.30549184081
  20
 211.62273248838
  30
0.0
  41
 3.0000000000000
  42
 3.0000000000000
  43
 3.0000000000000
  50
 239.57651609809
   0
MTEXT
   5
FF
 100
AcDbEntity
   8
LEVEL001
  62
3
 100
AcDbMText
  10
 311.00158690424
  20
 229.84810318005
  30
0.0
  40
 4.0000000000000
  41
0.0
  71
7
  72
1
   1
\A1;２－%%c４.５
   7
GMM001
   0
ENDBLK
   5
100
 100
AcDbEntity
   8
0
 100
AcDbBlockEnd
   0
BLOCK
   5
101
 100
AcDbEntity
   8
0
 100
AcDbBlockBegin
   2
*D9
  70
65
  10
0.0
  20
0.0
  30
0.0
   3
*D9
   0
LINE
   5
102
 100
AcDbEntity
   8
LEVEL001
 100
AcDbLine
   6
CONTINUOUS
  62
3
  10
 175.23331882967
  20
 229.52070653158
  30
0.0
  11
 175.23331882967
  21
 248.82375132673
  31
0.0
   0
LINE
   5
103
 100
AcDbEntity
   8
LEVEL001
 100
AcDbLine
   6
CONTINUOUS
  62
3
  10
 206.23331882967
  20
 240.74323475355
  30
0.0
  11
 206.23331882967
  21
 248.82375132673
  31
0.0
   0
LINE
   5
104
 100
AcDbEntity
   8
LEVEL001
 100
AcDbLine
   6
CONTINUOUS
  62
3
  10
 175.23331882967
  20
 247.82375132673
  30
0.0
  11
 190.73331882967
  21
 247.82375132673
  31
0.0
   0
LINE
   5
105
 100
AcDbEntity
   8
LEVEL001
 100
AcDbLine
   6
CONTINUOUS
  62
3
  10
 206.23331882967
  20
 247.82375132673
  30
0.0
  11
 190.73331882967
  21
 247.82375132673
  31
0.0
   0
INSERT
   5
106
 100
AcDbEntity
   8
LEVEL001
   6
CONTINUOUS
  62
3
 100
AcDbBlockReference
   2
_OPEN30
  10
 175.23331882967
  20
 247.82375132673
  30
0.0
  41
 3.0000000000000
  42
 3.0000000000000
  43
 3.0000000000000
  50
 180.00000000000
   0
INSERT
   5
107
 100
AcDbEntity
   8
LEVEL001
   6
CONTINUOUS
  62
3
 100
AcDbBlockReference
   2
_OPEN30
  10
 206.23331882967
  20
 247.82375132673
  30
0.0
  41
 3.0000000000000
  42
 3.0000000000000
  43
 3.0000000000000
  50
0.0
   0
MTEXT
   5
108
 100
AcDbEntity
   8
LEVEL001
  62
3
 100
AcDbMText
  10
 190.73331882967
  20
 249.53803704102
  30
0.0
  40
 4.0000000000000
  41
0.0
  71
8
  72
1
   1
\A1;(31)
   7
GMM001
   0
ENDBLK
   5
109
 100
AcDbEntity
   8
0
 100
AcDbBlockEnd
   0
BLOCK
   5
10A
 100
AcDbEntity
   8
0
 100
AcDbBlockBegin
   2
*D10
  70
65
  10
0.0
  20
0.0
  30
0.0
   3
*D10
   0
LINE
   5
10B
 100
AcDbEntity
   8
LEVEL001
 100
AcDbLine
   6
CONTINUOUS
  62
3
  10
 192.23331882967
  20
 227.62273248838
  30
0.0
  11
 192.23331882967
  21
 239.74323475355
  31
0.0
   0
LINE
   5
10C
 100
AcDbEntity
   8
LEVEL001
 100
AcDbLine
   6
CONTINUOUS
  62
3
  10
 206.23331882967
  20
 228.12273248838
  30
0.0
  11
 206.23331882967
  21
 239.74323475355
  31
0.0
   0
LINE
   5
10D
 100
AcDbEntity
   8
LEVEL001
 100
AcDbLine
   6
CONTINUOUS
  62
3
  10
 192.23331882967
  20
 238.74323475355
  30
0.0
  11
 199.23331882967
  21
 238.74323475355
  31
0.0
   0
LINE
   5
10E
 100
AcDbEntity
   8
LEVEL001
 100
AcDbLine
   6
CONTINUOUS
  62
3
  10
 206.23331882967
  20
 238.74323475355
  30
0.0
  11
 199.23331882967
  21
 238.74323475355
  31
0.0
   0
INSERT
   5
10F
 100
AcDbEntity
   8
LEVEL001
   6
CONTINUOUS
  62
3
 100
AcDbBlockReference
   2
_OPEN30
  10
 192.23331882967
  20
 238.74323475355
  30
0.0
  41
 3.0000000000000
  42
 3.0000000000000
  43
 3.0000000000000
  50
 180.00000000000
   0
INSERT
   5
110
 100
AcDbEntity
   8
LEVEL001
   6
CONTINUOUS
  62
3
 100
AcDbBlockReference
   2
_OPEN30
  10
 206.23331882967
  20
 238.74323475355
  30
0.0
  41
 3.0000000000000
  42
 3.0000000000000
  43
 3.0000000000000
  50
0.0
   0
MTEXT
   5
111
 100
AcDbEntity
   8
LEVEL001
  62
3
 100
AcDbMText
  10
 199.53771496801
  20
 240.30153340568
  30
0.0
  40
 4.0000000000000
  41
0.0
  71
8
  72
1
   1
\A1;14
   7
GMM001
   0
ENDBLK
   5
112
 100
AcDbEntity
   8
0
 100
AcDbBlockEnd
   0
BLOCK
   5
113
 100
AcDbEntity
   8
0
 100
AcDbBlockBegin
   2
*D11
  70
65
  10
0.0
  20
0.0
  30
0.0
   3
*D11
   0
LINE
   5
114
 100
AcDbEntity
   8
LEVEL001
 100
AcDbLine
   6
CONTINUOUS
  62
3
  10
 53.016566465550
  20
 149.12273248838
  30
0.0
  11
 44.702315994688
  21
 149.12273248838
  31
0.0
   0
LINE
   5
115
 100
AcDbEntity
   8
LEVEL001
 100
AcDbLine
   6
CONTINUOUS
  62
3
  10
 81.911588753559
  20
 228.12273248838
  30
0.0
  11
 44.702315994688
  21
 228.12273248838
  31
0.0
   0
LINE
   5
116
 100
AcDbEntity
   8
LEVEL001
 100
AcDbLine
   6
CONTINUOUS
  62
3
  10
 45.702315994688
  20
 149.12273248838
  30
0.0
  11
 45.702315994688
  21
 188.62273248838
  31
0.0
   0
LINE
   5
117
 100
AcDbEntity
   8
LEVEL001
 100
AcDbLine
   6
CONTINUOUS
  62
3
  10
 45.702315994688
  20
 228.12273248838
  30
0.0
  11
 45.702315994688
  21
 188.62273248838
  31
0.0
   0
INSERT
   5
118
 100
AcDbEntity
   8
LEVEL001
   6
CONTINUOUS
  62
3
 100
AcDbBlockReference
   2
_OPEN30
  10
 45.702315994688
  20
 149.12273248838
  30
0.0
  41
 3.0000000000000
  42
 3.0000000000000
  43
 3.0000000000000
  50
 270.00000000000
   0
INSERT
   5
119
 100
AcDbEntity
   8
LEVEL001
   6
CONTINUOUS
  62
3
 100
AcDbBlockReference
   2
_OPEN30
  10
 45.702315994688
  20
 228.12273248838
  30
0.0
  41
 3.0000000000000
  42
 3.0000000000000
  43
 3.0000000000000
  50
 90.000000000000
   0
MTEXT
   5
11A
 100
AcDbEntity
   8
LEVEL001
  62
3
 100
AcDbMText
  10
 43.988030280402
  20
 188.62273248838
  30
0.0
  40
 4.0000000000000
  41
0.0
  71
8
  72
1
   1
\A1;79
   7
GMM001
  11
0.0
  21
 1.0000000000000
  31
0.0
   0
ENDBLK
   5
11B
 100
AcDbEntity
   8
0
 100
AcDbBlockEnd
   0
BLOCK
   5
11C
 100
AcDbEntity
   8
0
 100
AcDbBlockBegin
   2
*D12
  70
65
  10
0.0
  20
0.0
  30
0.0
   3
*D12
   0
LINE
   5
11D
 100
AcDbEntity
   8
LEVEL001
 100
AcDbLine
   6
CONTINUOUS
  62
3
  10
 63.911588753559
  20
 148.12273248838
  30
0.0
  11
 63.911588753559
  21
 130.40372788216
  31
0.0
   0
LINE
   5
11E
 100
AcDbEntity
   8
LEVEL001
 100
AcDbLine
   6
CONTINUOUS
  62
3
  10
 101.91158875356
  20
 148.12273248838
  30
0.0
  11
 101.91158875356
  21
 130.40372788216
  31
0.0
   0
LINE
   5
11F
 100
AcDbEntity
   8
LEVEL001
 100
AcDbLine
   6
CONTINUOUS
  62
3
  10
 63.911588753559
  20
 131.40372788216
  30
0.0
  11
 82.911588753559
  21
 131.40372788216
  31
0.0
   0
LINE
   5
120
 100
AcDbEntity
   8
LEVEL001
 100
AcDbLine
   6
CONTINUOUS
  62
3
  10
 101.91158875356
  20
 131.40372788216
  30
0.0
  11
 82.911588753559
  21
 131.40372788216
  31
0.0
   0
INSERT
   5
121
 100
AcDbEntity
   8
LEVEL001
   6
CONTINUOUS
  62
3
 100
AcDbBlockReference
   2
_OPEN30
  10
 63.911588753559
  20
 131.40372788216
  30
0.0
  41
 3.0000000000000
  42
 3.0000000000000
  43
 3.0000000000000
  50
 180.00000000000
   0
INSERT
   5
122
 100
AcDbEntity
   8
LEVEL001
   6
CONTINUOUS
  62
3
 100
AcDbBlockReference
   2
_OPEN30
  10
 101.91158875356
  20
 131.40372788216
  30
0.0
  41
 3.0000000000000
  42
 3.0000000000000
  43
 3.0000000000000
  50
0.0
   0
MTEXT
   5
123
 100
AcDbEntity
   8
LEVEL001
  62
3
 100
AcDbMText
  10
 82.911588753559
  20
 133.11801359644
  30
0.0
  40
 4.0000000000000
  41
0.0
  71
8
  72
1
   1
\A1;38
   7
GMM001
   0
ENDBLK
   5
124
 100
AcDbEntity
   8
0
 100
AcDbBlockEnd
   0
BLOCK
   5
125
 100
AcDbEntity
   8
0
 100
AcDbBlockBegin
   2
*D13
  70
65
  10
0.0
  20
0.0
  30
0.0
   3
*D13
   0
LINE
   5
126
 100
AcDbEntity
   8
LEVEL001
 100
AcDbLine
   6
CONTINUOUS
  62
3
  10
 140.63939908387
  20
 148.12273248838
  30
0.0
  11
 140.63939908387
  21
 130.40372788216
  31
0.0
   0
LINE
   5
127
 100
AcDbEntity
   8
LEVEL001
 100
AcDbLine
   6
CONTINUOUS
  62
3
  10
 168.63939882967
  20
 148.12273248838
  30
0.0
  11
 168.63939882967
  21
 130.40372788216
  31
0.0
   0
LINE
   5
128
 100
AcDbEntity
   8
LEVEL001
 100
AcDbLine
   6
CONTINUOUS
  62
3
  10
 140.63939908387
  20
 131.40372788216
  30
0.0
  11
 154.63939895677
  21
 131.40372788216
  31
0.0
   0
LINE
   5
129
 100
AcDbEntity
   8
LEVEL001
 100
AcDbLine
   6
CONTINUOUS
  62
3
  10
 168.63939882967
  20
 131.40372788216
  30
0.0
  11
 154.63939895677
  21
 131.40372788216
  31
0.0
   0
INSERT
   5
12A
 100
AcDbEntity
   8
LEVEL001
   6
CONTINUOUS
  62
3
 100
AcDbBlockReference
   2
_OPEN30
  10
 140.63939908387
  20
 131.40372788216
  30
0.0
  41
 3.0000000000000
  42
 3.0000000000000
  43
 3.0000000000000
  50
 180.00000000000
   0
INSERT
   5
12B
 100
AcDbEntity
   8
LEVEL001
   6
CONTINUOUS
  62
3
 100
AcDbBlockReference
   2
_OPEN30
  10
 168.63939882967
  20
 131.40372788216
  30
0.0
  41
 3.0000000000000
  42
 3.0000000000000
  43
 3.0000000000000
  50
0.0
   0
MTEXT
   5
12C
 100
AcDbEntity
   8
LEVEL001
  62
3
 100
AcDbMText
  10
 154.63939895677
  20
 133.11801359644
  30
0.0
  40
 4.0000000000000
  41
0.0
  71
8
  72
1
   1
\A1;28
   7
GMM001
   0
ENDBLK
   5
12D
 100
AcDbEntity
   8
0
 100
AcDbBlockEnd
   0
BLOCK
   5
12E
 100
AcDbEntity
   8
0
 100
AcDbBlockBegin
   2
*D14
  70
65
  10
0.0
  20
0.0
  30
0.0
   3
*D14
   0
POLYLINE
   5
12F
 100
AcDbEntity
   8
LEVEL001
   6
CONTINUOUS
  62
3
 100
AcDb2dPolyline
  66
1
  10
0.0
  20
0.0
  30
0.0
  70
0
   0
VERTEX
   5
130
 100
AcDbEntity
   8
LEVEL001
   6
CONTINUOUS
  62
3
 100
AcDbVertex
 100
AcDb2dVertex
  10
 148.65331882967
  20
 94.066653272733
  30
0.0
   0
VERTEX
   5
131
 100
AcDbEntity
   8
LEVEL001
   6
CONTINUOUS
  62
3
 100
AcDbVertex
 100
AcDb2dVertex
  10
 135.46404885670
  20
 114.34004293046
  30
0.0
   0
VERTEX
   5
132
 100
AcDbEntity
   8
LEVEL001
   6
CONTINUOUS
  62
3
 100
AcDbVertex
 100
AcDb2dVertex
  10
 114.56404885670
  20
 114.34004293046
  30
0.0
   0
SEQEND
   5
133
 100
AcDbEntity
   8
LEVEL001
   6
CONTINUOUS
  62
3
   0
INSERT
   5
134
 100
AcDbEntity
   8
LEVEL001
   6
CONTINUOUS
  62
3
 100
AcDbBlockReference
   2
_OPEN30
  10
 148.65331882967
  20
 94.066653272733
  30
0.0
  41
 3.0000000000000
  42
 3.0000000000000
  43
 3.0000000000000
  50
 303.04684173797
   0
MTEXT
   5
135
 100
AcDbEntity
   8
LEVEL001
  62
3
 100
AcDbMText
  10
 114.56404885670
  20
 116.05432864474
  30
0.0
  40
 4.0000000000000
  41
0.0
  71
7
  72
1
   1
\A1;３－%%c４.５
   7
GMM001
   0
ENDBLK
   5
136
 100
AcDbEntity
   8
0
 100
AcDbBlockEnd
   0
BLOCK
   5
137
 100
AcDbEntity
   8
0
 100
AcDbBlockBegin
   2
*D15
  70
65
  10
0.0
  20
0.0
  30
0.0
   3
*D15
   0
LINE
   5
138
 100
AcDbEntity
   8
LEVEL001
 100
AcDbLine
   6
CONTINUOUS
  62
3
  10
 140.87256777405
  20
 94.066653272733
  30
0.0
  11
 121.72170115742
  21
 94.066653272733
  31
0.0
   0
LINE
   5
139
 100
AcDbEntity
   8
LEVEL001
 100
AcDbLine
   6
CONTINUOUS
  62
3
  10
 140.72105900960
  20
 74.066653272733
  30
0.0
  11
 121.72170115742
  21
 74.066653272733
  31
0.0
   0
LINE
   5
13A
 100
AcDbEntity
   8
LEVEL001
 100
AcDbLine
   6
CONTINUOUS
  62
3
  10
 122.72170115742
  20
 94.066653272733
  30
0.0
  11
 122.72170115742
  21
 84.066653272733
  31
0.0
   0
LINE
   5
13B
 100
AcDbEntity
   8
LEVEL001
 100
AcDbLine
   6
CONTINUOUS
  62
3
  10
 122.72170115742
  20
 74.066653272733
  30
0.0
  11
 122.72170115742
  21
 84.066653272733
  31
0.0
   0
INSERT
   5
13C
 100
AcDbEntity
   8
LEVEL001
   6
CONTINUOUS
  62
3
 100
AcDbBlockReference
   2
_OPEN30
  10
 122.72170115742
  20
 94.066653272733
  30
0.0
  41
 3.0000000000000
  42
 3.0000000000000
  43
 3.0000000000000
  50
 90.000000000000
   0
INSERT
   5
13D
 100
AcDbEntity
   8
LEVEL001
   6
CONTINUOUS
  62
3
 100
AcDbBlockReference
   2
_OPEN30
  10
 122.72170115742
  20
 74.066653272733
  30
0.0
  41
 3.0000000000000
  42
 3.0000000000000
  43
 3.0000000000000
  50
 270.00000000000
   0
MTEXT
   5
13E
 100
AcDbEntity
   8
LEVEL001
  62
3
 100
AcDbMText
  10
 121.00741544313
  20
 84.066653272733
  30
0.0
  40
 4.0000000000000
  41
0.0
  71
8
  72
1
   1
\A1;20
   7
GMM001
  11
0.0
  21
 1.0000000000000
  31
0.0
   0
ENDBLK
   5
13F
 100
AcDbEntity
   8
0
 100
AcDbBlockEnd
   0
BLOCK
   5
140
 100
AcDbEntity
   8
0
 100
AcDbBlockBegin
   2
*D16
  70
65
  10
0.0
  20
0.0
  30
0.0
   3
*D16
   0
LINE
   5
141
 100
AcDbEntity
   8
LEVEL001
 100
AcDbLine
   6
CONTINUOUS
  62
3
  10
 168.65331882967
  20
 103.86665327273
  30
0.0
  11
 168.65331882967
  21
 118.62006505648
  31
0.0
   0
LINE
   5
142
 100
AcDbEntity
   8
LEVEL001
 100
AcDbLine
   6
CONTINUOUS
  62
3
  10
 163.65331882967
  20
 107.24244016120
  30
0.0
  11
 163.65331882967
  21
 118.62006505648
  31
0.0
   0
LINE
   5
143
 100
AcDbEntity
   8
LEVEL001
 100
AcDbLine
   6
CONTINUOUS
  62
3
  10
 172.40331882967
  20
 117.62006505648
  30
0.0
  11
 166.15331882967
  21
 117.62006505648
  31
0.0
   0
LINE
   5
144
 100
AcDbEntity
   8
LEVEL001
 100
AcDbLine
   6
CONTINUOUS
  62
3
  10
 159.90331882967
  20
 117.62006505648
  30
0.0
  11
 166.15331882967
  21
 117.62006505648
  31
0.0
   0
INSERT
   5
145
 100
AcDbEntity
   8
LEVEL001
   6
CONTINUOUS
  62
3
 100
AcDbBlockReference
   2
_OPEN30
  10
 168.65331882967
  20
 117.62006505648
  30
0.0
  41
 3.0000000000000
  42
 3.0000000000000
  43
 3.0000000000000
  50
 180.00000000000
   0
INSERT
   5
146
 100
AcDbEntity
   8
LEVEL001
   6
CONTINUOUS
  62
3
 100
AcDbBlockReference
   2
_OPEN30
  10
 163.65331882967
  20
 117.62006505648
  30
0.0
  41
 3.0000000000000
  42
 3.0000000000000
  43
 3.0000000000000
  50
0.0
   0
MTEXT
   5
147
 100
AcDbEntity
   8
LEVEL001
  62
3
 100
AcDbMText
  10
 166.15331882967
  20
 119.33435077077
  30
0.0
  40
 4.0000000000000
  41
0.0
  71
8
  72
1
   1
\A1;5
   7
GMM001
   0
ENDBLK
   5
148
 100
AcDbEntity
   8
0
 100
AcDbBlockEnd
   0
BLOCK
   5
149
 100
AcDbEntity
   8
0
 100
AcDbBlockBegin
   2
*D17
  70
65
  10
0.0
  20
0.0
  30
0.0
   3
*D17
   0
LINE
   5
14A
 100
AcDbEntity
   8
LEVEL001
 100
AcDbLine
   6
CONTINUOUS
  62
3
  10
 148.65331882967
  20
 107.69478543892
  30
0.0
  11
 148.65331882967
  21
 118.62006505648
  31
0.0
   0
LINE
   5
14B
 100
AcDbEntity
   8
LEVEL001
 100
AcDbLine
   6
CONTINUOUS
  62
3
  10
 163.65331882967
  20
 117.62006505648
  30
0.0
  11
 156.15331882967
  21
 117.62006505648
  31
0.0
   0
LINE
   5
14C
 100
AcDbEntity
   8
LEVEL001
 100
AcDbLine
   6
CONTINUOUS
  62
3
  10
 148.65331882967
  20
 117.62006505648
  30
0.0
  11
 156.15331882967
  21
 117.62006505648
  31
0.0
   0
INSERT
   5
14D
 100
AcDbEntity
   8
LEVEL001
   6
CONTINUOUS
  62
3
 100
AcDbBlockReference
   2
_OPEN30
  10
 163.65331882967
  20
 117.62006505648
  30
0.0
  41
 3.0000000000000
  42
 3.0000000000000
  43
 3.0000000000000
  50
0.0
   0
INSERT
   5
14E
 100
AcDbEntity
   8
LEVEL001
   6
CONTINUOUS
  62
3
 100
AcDbBlockReference
   2
_OPEN30
  10
 148.65331882967
  20
 117.62006505648
  30
0.0
  41
 3.0000000000000
  42
 3.0000000000000
  43
 3.0000000000000
  50
 180.00000000000
   0
MTEXT
   5
14F
 100
AcDbEntity
   8
LEVEL001
  62
3
 100
AcDbMText
  10
 156.15331882967
  20
 119.33435077077
  30
0.0
  40
 4.0000000000000
  41
0.0
  71
8
  72
1
   1
\A1;15
   7
GMM001
   0
ENDBLK
   5
150
 100
AcDbEntity
   8
0
 100
AcDbBlockEnd
   0
BLOCK
   5
151
 100
AcDbEntity
   8
0
 100
AcDbBlockBegin
   2
*D18
  70
65
  10
0.0
  20
0.0
  30
0.0
   3
*D18
   0
LINE
   5
152
 100
AcDbEntity
   8
LEVEL001
 100
AcDbLine
   6
CONTINUOUS
  62
3
  10
 168.15331882967
  20
 102.36665327273
  30
0.0
  11
 168.32660409382
  21
 102.54685376449
  31
0.0
   0
LINE
   5
153
 100
AcDbEntity
   8
LEVEL001
 100
AcDbLine
   6
CONTINUOUS
  62
3
  10
 168.32660409382
  20
 102.54685376449
  30
0.0
  11
 182.71849551722
  21
 117.51307679817
  31
0.0
   0
INSERT
   5
154
 100
AcDbEntity
   8
LEVEL001
   6
CONTINUOUS
  62
3
 100
AcDbBlockReference
   2
_OPEN30
  10
 168.49988935797
  20
 102.72705425624
  30
0.0
  41
 3.0000000000000
  42
 3.0000000000000
  43
 3.0000000000000
  50
 226.12073206919
   0
MTEXT
   5
155
 100
AcDbEntity
   8
LEVEL001
  62
3
 100
AcDbMText
  10
 172.26405894947
  20
 109.11465244826
  30
0.0
  40
 4.0000000000000
  41
0.0
  71
7
  72
1
   1
\A1;R0.5
   7
GMM001
  11
 0.69314105660703
  21
 0.72080196701014
  31
0.0
   0
ENDBLK
   5
156
 100
AcDbEntity
   8
0
 100
AcDbBlockEnd
   0
BLOCK
   5
157
 100
AcDbEntity
   8
0
 100
AcDbBlockBegin
   2
*D19
  70
65
  10
0.0
  20
0.0
  30
0.0
   3
*D19
   0
LINE
   5
158
 100
AcDbEntity
   8
LEVEL001
 100
AcDbLine
   6
CONTINUOUS
  62
3
  10
 156.51252131114
  20
 66.766653272733
  30
0.0
  11
 155.51252131114
  21
 66.766653272733
  31
0.0
   0
LINE
   5
159
 100
AcDbEntity
   8
LEVEL001
 100
AcDbLine
   6
CONTINUOUS
  62
3
  10
 156.51252131114
  20
 70.516653272733
  30
0.0
  11
 156.51252131114
  21
 66.016653272733
  31
0.0
   0
LINE
   5
15A
 100
AcDbEntity
   8
LEVEL001
 100
AcDbLine
   6
CONTINUOUS
  62
3
  10
 156.51252131114
  20
 54.533032995353
  30
0.0
  11
 156.51252131114
  21
 66.016653272733
  31
0.0
   0
INSERT
   5
15B
 100
AcDbEntity
   8
LEVEL001
   6
CONTINUOUS
  62
3
 100
AcDbBlockReference
   2
_OPEN30
  10
 156.51252131114
  20
 66.766653272733
  30
0.0
  41
 3.0000000000000
  42
 3.0000000000000
  43
 3.0000000000000
  50
 270.00000000000
   0
INSERT
   5
15C
 100
AcDbEntity
   8
LEVEL001
   6
CONTINUOUS
  62
3
 100
AcDbBlockReference
   2
_OPEN30
  10
 156.51252131114
  20
 65.266653272733
  30
0.0
  41
 3.0000000000000
  42
 3.0000000000000
  43
 3.0000000000000
  50
 90.000000000000
   0
MTEXT
   5
15D
 100
AcDbEntity
   8
LEVEL001
  62
3
 100
AcDbMText
  10
 154.79823559685
  20
 59.283032995353
  30
0.0
  40
 4.0000000000000
  41
0.0
  71
8
  72
1
   1
\A1;1.5
   7
GMM001
  11
0.0
  21
 1.0000000000000
  31
0.0
   0
ENDBLK
   5
15E
 100
AcDbEntity
   8
0
 100
AcDbBlockEnd
   0
BLOCK
   5
15F
 100
AcDbEntity
   8
0
 100
AcDbBlockBegin
   2
*D20
  70
65
  10
0.0
  20
0.0
  30
0.0
   3
*D20
   0
LINE
   5
160
 100
AcDbEntity
   8
LEVEL001
 100
AcDbLine
   6
CONTINUOUS
  62
3
  10
 268.57511626199
  20
 209.12273248838
  30
0.0
  11
 255.19416841182
  21
 209.12273248838
  31
0.0
   0
LINE
   5
161
 100
AcDbEntity
   8
LEVEL001
 100
AcDbLine
   6
CONTINUOUS
  62
3
  10
 273.30549184081
  20
 149.12273248838
  30
0.0
  11
 255.19416841182
  21
 149.12273248838
  31
0.0
   0
LINE
   5
162
 100
AcDbEntity
   8
LEVEL001
 100
AcDbLine
   6
CONTINUOUS
  62
3
  10
 256.19416841182
  20
 209.12273248838
  30
0.0
  11
 256.19416841182
  21
 179.12273248838
  31
0.0
   0
LINE
   5
163
 100
AcDbEntity
   8
LEVEL001
 100
AcDbLine
   6
CONTINUOUS
  62
3
  10
 256.19416841182
  20
 149.12273248838
  30
0.0
  11
 256.19416841182
  21
 179.12273248838
  31
0.0
   0
INSERT
   5
164
 100
AcDbEntity
   8
LEVEL001
   6
CONTINUOUS
  62
3
 100
AcDbBlockReference
   2
_OPEN30
  10
 256.19416841182
  20
 209.12273248838
  30
0.0
  41
 3.0000000000000
  42
 3.0000000000000
  43
 3.0000000000000
  50
 90.000000000000
   0
INSERT
   5
165
 100
AcDbEntity
   8
LEVEL001
   6
CONTINUOUS
  62
3
 100
AcDbBlockReference
   2
_OPEN30
  10
 256.19416841182
  20
 149.12273248838
  30
0.0
  41
 3.0000000000000
  42
 3.0000000000000
  43
 3.0000000000000
  50
 270.00000000000
   0
MTEXT
   5
166
 100
AcDbEntity
   8
LEVEL001
  62
3
 100
AcDbMText
  10
 254.47988269753
  20
 179.12273248838
  30
0.0
  40
 4.0000000000000
  41
0.0
  71
8
  72
1
   1
\A1;60
   7
GMM001
  11
0.0
  21
 1.0000000000000
  31
0.0
   0
ENDBLK
   5
167
 100
AcDbEntity
   8
0
 100
AcDbBlockEnd
   0
BLOCK
   5
168
 100
AcDbEntity
   8
0
 100
AcDbBlockBegin
   2
*D21
  70
65
  10
0.0
  20
0.0
  30
0.0
   3
*D21
   0
LINE
   5
169
 100
AcDbEntity
   8
LEVEL001
 100
AcDbLine
   6
CONTINUOUS
  62
3
  10
 268.57511626199
  20
 209.12273248838
  30
0.0
  11
 255.19416841182
  21
 209.12273248838
  31
0.0
   0
LINE
   5
16A
 100
AcDbEntity
   8
LEVEL001
 100
AcDbLine
   6
CONTINUOUS
  62
3
  10
 268.59983089258
  20
 211.62273248838
  30
0.0
  11
 255.19416841182
  21
 211.62273248838
  31
0.0
   0
LINE
   5
16B
 100
AcDbEntity
   8
LEVEL001
 100
AcDbLine
   6
CONTINUOUS
  62
3
  10
 256.19416841182
  20
 205.37273248838
  30
0.0
  11
 256.19416841182
  21
 210.37273248838
  31
0.0
   0
LINE
   5
16C
 100
AcDbEntity
   8
LEVEL001
 100
AcDbLine
   6
CONTINUOUS
  62
3
  10
 256.19416841182
  20
 224.54980087671
  30
0.0
  11
 256.19416841182
  21
 210.37273248838
  31
0.0
   0
INSERT
   5
16D
 100
AcDbEntity
   8
LEVEL001
   6
CONTINUOUS
  62
3
 100
AcDbBlockReference
   2
_OPEN30
  10
 256.19416841182
  20
 209.12273248838
  30
0.0
  41
 3.0000000000000
  42
 3.0000000000000
  43
 3.0000000000000
  50
 90.000000000000
   0
INSERT
   5
16E
 100
AcDbEntity
   8
LEVEL001
   6
CONTINUOUS
  62
3
 100
AcDbBlockReference
   2
_OPEN30
  10
 256.19416841182
  20
 211.62273248838
  30
0.0
  41
 3.0000000000000
  42
 3.0000000000000
  43
 3.0000000000000
  50
 270.00000000000
   0
MTEXT
   5
16F
 100
AcDbEntity
   8
LEVEL001
  62
3
 100
AcDbMText
  10
 254.47988269753
  20
 219.79980087671
  30
0.0
  40
 4.0000000000000
  41
0.0
  71
8
  72
1
   1
\A1;2.5
   7
GMM001
  11
0.0
  21
 1.0000000000000
  31
0.0
   0
ENDBLK
   5
170
 100
AcDbEntity
   8
0
 100
AcDbBlockEnd
   0
BLOCK
   5
171
 100
AcDbEntity
   8
0
 100
AcDbBlockBegin
   2
*D22
  70
65
  10
0.0
  20
0.0
  30
0.0
   3
*D22
   0
LINE
   5
172
 100
AcDbEntity
   8
LEVEL001
 100
AcDbLine
   6
CONTINUOUS
  62
3
  10
 206.23331882967
  20
 190.12273248830
  30
0.0
  11
 206.23331882967
  21
 130.40372788216
  31
0.0
   0
LINE
   5
173
 100
AcDbEntity
   8
LEVEL001
 100
AcDbLine
   6
CONTINUOUS
  62
3
  10
 168.63939882967
  20
 131.40372788216
  30
0.0
  11
 187.43635882967
  21
 131.40372788216
  31
0.0
   0
LINE
   5
174
 100
AcDbEntity
   8
LEVEL001
 100
AcDbLine
   6
CONTINUOUS
  62
3
  10
 206.23331882967
  20
 131.40372788216
  30
0.0
  11
 187.43635882967
  21
 131.40372788216
  31
0.0
   0
INSERT
   5
175
 100
AcDbEntity
   8
LEVEL001
   6
CONTINUOUS
  62
3
 100
AcDbBlockReference
   2
_OPEN30
  10
 168.63939882967
  20
 131.40372788216
  30
0.0
  41
 3.0000000000000
  42
 3.0000000000000
  43
 3.0000000000000
  50
 180.00000000000
   0
INSERT
   5
176
 100
AcDbEntity
   8
LEVEL001
   6
CONTINUOUS
  62
3
 100
AcDbBlockReference
   2
_OPEN30
  10
 206.23331882967
  20
 131.40372788216
  30
0.0
  41
 3.0000000000000
  42
 3.0000000000000
  43
 3.0000000000000
  50
0.0
   0
MTEXT
   5
177
 100
AcDbEntity
   8
LEVEL001
  62
3
 100
AcDbMText
  10
 187.43635882967
  20
 133.11801359644
  30
0.0
  40
 4.0000000000000
  41
0.0
  71
8
  72
1
   1
\A1;37.5
   7
GMM001
   0
ENDBLK
   5
178
 100
AcDbEntity
   8
0
 100
AcDbBlockEnd
   0
ENDSEC
   0
SECTION
   2
ENTITIES
   0
LINE
   5
179
 100
AcDbEntity
   8
LEVEL001
 100
AcDbLine
   6
CONTINUOUS
  62
7
  10
 168.65331882967
  20
 149.12273248842
  30
0.0
  11
 196.63177831895
  21
 209.12273248838
  31
0.0
   0
LINE
   5
17A
 100
AcDbEntity
   8
LEVEL001
 100
AcDbLine
   6
CONTINUOUS
  62
7
  10
 205.23331882974
  20
 191.32273248838
  30
0.0
  11
 205.23331882974
  21
 191.62273248838
  31
0.0
   0
LINE
   5
17B
 100
AcDbEntity
   8
LEVEL001
 100
AcDbLine
   6
CONTINUOUS
  62
7
  10
 205.23331882974
  20
 191.62273248838
  30
0.0
  11
 205.23331882974
  21
 209.12273248838
  31
0.0
   0
LINE
   5
17C
 100
AcDbEntity
   8
LEVEL001
 100
AcDbLine
   6
CONTINUOUS
  62
7
  10
 205.23331882974
  20
 209.12273248838
  30
0.0
  11
 205.23331882974
  21
 211.62273248838
  31
0.0
   0
LINE
   5
17D
 100
AcDbEntity
   8
LEVEL001
 100
AcDbLine
   6
CONTINUOUS
  62
7
  10
 205.23331882974
  20
 211.62273248838
  30
0.0
  11
 205.23331882974
  21
 226.62273248838
  31
0.0
   0
LINE
   5
17E
 100
AcDbEntity
   8
LEVEL001
 100
AcDbLine
   6
CONTINUOUS
  62
7
  10
 205.23331882974
  20
 226.62273248838
  30
0.0
  11
 205.23331882974
  21
 226.92273248838
  31
0.0
   0
LINE
   5
17F
 100
AcDbEntity
   8
LEVEL001
 100
AcDbLine
   6
CONTINUOUS
  62
7
  10
 138.43264324597
  20
 149.12273248838
  30
0.0
  11
 168.65331882965
  21
 149.12273248838
  31
0.0
   0
LINE
   5
180
 100
AcDbEntity
   8
LEVEL001
 100
AcDbLine
   6
CONTINUOUS
  62
7
  10
 138.43264324597
  20
 149.12273248838
  30
0.0
  11
 139.13210473321
  21
 150.62273248838
  31
0.0
   0
LINE
   5
181
 100
AcDbEntity
   8
LEVEL001
 100
AcDbLine
   6
CONTINUOUS
  62
7
  10
 139.13210473321
  20
 150.62273248838
  30
0.0
  11
 140.67683381969
  21
 150.62273248838
  31
0.0
   0
LINE
   5
182
 100
AcDbEntity
   8
LEVEL001
 100
AcDbLine
   6
CONTINUOUS
  62
7
  10
 140.67683381969
  20
 150.62273248838
  30
0.0
  11
 141.33886057110
  21
 150.62273248838
  31
0.0
   0
CIRCLE
   5
183
 100
AcDbEntity
   8
LEVEL001
 100
AcDbCircle
   6
CONTINUOUS
  62
7
  10
 293.30549184081
  20
 209.12273248838
  30
0.0
  40
 17.500000000000
   0
CIRCLE
   5
184
 100
AcDbEntity
   8
LEVEL001
 100
AcDbCircle
   6
CONTINUOUS
  62
7
  10
 285.30549184081
  20
 211.62273248838
  30
0.0
  40
 2.2500000000000
   0
CIRCLE
   5
185
 100
AcDbEntity
   8
LEVEL001
 100
AcDbCircle
   6
CONTINUOUS
  62
7
  10
 301.30549184081
  20
 211.62273248838
  30
0.0
  40
 2.2500000000000
   0
LINE
   5
186
 100
AcDbEntity
   8
LEVEL001
 100
AcDbLine
   6
CONTINUOUS
  62
7
  10
 139.22536626484
  20
 150.82273248838
  30
0.0
  11
 166.41110273527
  21
 209.12273248838
  31
0.0
   0
LINE
   5
187
 100
AcDbEntity
   8
LEVEL001
 100
AcDbLine
   6
CONTINUOUS
  62
7
  10
 139.22536626484
  20
 150.82273248838
  30
0.0
  11
 140.77009535132
  21
 150.82273248838
  31
0.0
   0
LINE
   5
188
 100
AcDbEntity
   8
LEVEL001
 100
AcDbLine
   6
CONTINUOUS
  62
7
  10
 140.77009535132
  20
 150.82273248838
  30
0.0
  11
 141.10110872704
  21
 150.82273248838
  31
0.0
   0
LINE
   5
189
 100
AcDbEntity
   8
LEVEL001
 100
AcDbLine
   6
CONTINUOUS
  62
7
  10
 141.10110872704
  20
 150.82273248838
  30
0.0
  11
 141.43212210273
  21
 150.82273248838
  31
0.0
   0
POINT
   5
18A
 100
AcDbEntity
   8
LEVEL001
 100
AcDbPoint
  62
7
  10
 176.31653294769
  20
 224.92273248838
  30
0.0
   0
LINE
   5
18B
 100
AcDbEntity
   8
LEVEL001
 100
AcDbLine
   6
DOT
  62
7
  10
 276.50549184081
  20
 211.62273248838
  30
0.0
  11
 276.50549184081
  21
 211.62549861918
  31
0.0
   0
POINT
   5
18C
 100
AcDbEntity
   8
LEVEL001
 100
AcDbPoint
  62
7
  10
 287.80549184081
  20
 149.62273248838
  30
0.0
   0
POINT
   5
18D
 100
AcDbEntity
   8
LEVEL001
 100
AcDbPoint
  62
7
  10
 284.80549184081
  20
 149.62273248838
  30
0.0
   0
CIRCLE
   5
18E
 100
AcDbEntity
   8
LEVEL001
 100
AcDbCircle
   6
CONTINUOUS
  62
7
  10
 293.30549184081
  20
 209.12273248838
  30
0.0
  40
 19.000000000000
   0
LINE
   5
18F
 100
AcDbEntity
   8
LEVEL001
 100
AcDbLine
   6
CONTINUOUS
  62
7
  10
 274.30549184081
  20
 149.12273248838
  30
0.0
  11
 274.30549184081
  21
 209.12273248838
  31
0.0
   0
LINE
   5
190
 100
AcDbEntity
   8
LEVEL001
 100
AcDbLine
   6
CONTINUOUS
  62
7
  10
 312.30549184081
  20
 149.12273248838
  30
0.0
  11
 312.30549184081
  21
 209.12273248838
  31
0.0
   0
LINE
   5
191
 100
AcDbEntity
   8
LEVEL001
 100
AcDbLine
   6
CONTINUOUS
  62
7
  10
 101.91158875356
  20
 149.12273248838
  30
0.0
  11
 101.91158875356
  21
 209.12273248838
  31
0.0
   0
LINE
   5
192
 100
AcDbEntity
   8
LEVEL001
 100
AcDbLine
   6
CONTINUOUS
  62
7
  10
 63.911588753559
  20
 149.12273248838
  30
0.0
  11
 63.911588753559
  21
 209.12273248838
  31
0.0
   0
ARC
   5
193
 100
AcDbEntity
   8
LEVEL001
   6
CONTINUOUS
  62
7
 100
AcDbCircle
  10
 82.911588753559
  20
 209.12273248838
  30
0.0
  40
 19.000000000000
 100
AcDbArc
  50
0.0
  51
 7.5608431766691
   0
ARC
   5
194
 100
AcDbEntity
   8
LEVEL001
   6
CONTINUOUS
  62
7
 100
AcDbCircle
  10
 82.911588753559
  20
 209.12273248838
  30
0.0
  40
 19.000000000000
 100
AcDbArc
  50
 7.5608431766735
  51
 65.098937629633
   0
ARC
   5
195
 100
AcDbEntity
   8
LEVEL001
   6
CONTINUOUS
  62
7
 100
AcDbCircle
  10
 82.911588753559
  20
 209.12273248838
  30
0.0
  40
 19.000000000000
 100
AcDbArc
  50
 114.90106237037
  51
 146.26127735126
   0
ARC
   5
196
 100
AcDbEntity
   8
LEVEL001
   6
CONTINUOUS
  62
7
 100
AcDbCircle
  10
 82.911588753559
  20
 209.12273248838
  30
0.0
  40
 19.000000000000
 100
AcDbArc
  50
 146.26127735126
  51
 172.43915682333
   0
ARC
   5
197
 100
AcDbEntity
   8
LEVEL001
   6
CONTINUOUS
  62
7
 100
AcDbCircle
  10
 82.911588753559
  20
 209.12273248838
  30
0.0
  40
 19.000000000000
 100
AcDbArc
  50
 172.43915682333
  51
 180.00000000000
   0
LINE
   5
198
 100
AcDbEntity
   8
LEVEL001
 100
AcDbLine
   6
CONTINUOUS
  62
13
  10
 187.86519434563
  20
 190.12273248838
  30
0.0
  11
 205.23331882974
  21
 190.12273248838
  31
0.0
   0
LINE
   5
199
 100
AcDbEntity
   8
LEVEL001
 100
AcDbLine
   6
CONTINUOUS
  62
7
  10
 205.23331882974
  20
 190.12273248838
  30
0.0
  11
 206.23331882967
  21
 191.12273248830
  31
0.0
   0
LINE
   5
19A
 100
AcDbEntity
   8
LEVEL001
 100
AcDbLine
   6
CONTINUOUS
  62
7
  10
 205.23331882943
  20
 228.12273248838
  30
0.0
  11
 206.23331882943
  21
 227.12273248838
  31
0.0
   0
LINE
   5
19B
 100
AcDbEntity
   8
LEVEL001
 100
AcDbLine
   6
CONTINUOUS
  62
13
  10
 206.23331882967
  20
 209.12273248838
  30
0.0
  11
 206.23331882967
  21
 227.12273248838
  31
0.0
   0
LINE
   5
19C
 100
AcDbEntity
   8
LEVEL001
 100
AcDbLine
   6
CONTINUOUS
  62
13
  10
 206.23331882967
  20
 191.12273248830
  30
0.0
  11
 206.23331882967
  21
 209.12273248838
  31
0.0
   0
LINE
   5
19D
 100
AcDbEntity
   8
LEVEL001
 100
AcDbLine
   6
CONTINUOUS
  62
7
  10
 205.23331882974
  20
 190.12273248838
  30
0.0
  11
 205.23331882974
  21
 191.32273248838
  31
0.0
   0
LINE
   5
19E
 100
AcDbEntity
   8
LEVEL001
 100
AcDbLine
   6
CONTINUOUS
  62
7
  10
 205.23331882974
  20
 226.92273248838
  30
0.0
  11
 205.23331882974
  21
 228.12273248807
  31
0.0
   0
LINE
   5
19F
 100
AcDbEntity
   8
LEVEL001
 100
AcDbLine
   6
CONTINUOUS
  62
7
  10
 168.61785857317
  20
 209.12273248838
  30
0.0
  11
 177.47770407811
  21
 228.12273248838
  31
0.0
   0
LINE
   5
1A0
 100
AcDbEntity
   8
LEVEL001
 100
AcDbLine
   6
CONTINUOUS
  62
7
  10
 274.30549184081
  20
 149.12273248838
  30
0.0
  11
 293.30549184081
  21
 149.12273248838
  31
0.0
   0
LINE
   5
1A1
 100
AcDbEntity
   8
LEVEL001
 100
AcDbLine
   6
CONTINUOUS
  62
7
  10
 293.30549184081
  20
 149.12273248838
  30
0.0
  11
 312.30549184081
  21
 149.12273248838
  31
0.0
   0
LINE
   5
1A2
 100
AcDbEntity
   8
LEVEL001
 100
AcDbLine
   6
CONTINUOUS
  62
7
  10
 82.911588753559
  20
 149.12273248838
  30
0.0
  11
 101.91158875356
  21
 149.12273248838
  31
0.0
   0
LINE
   5
1A3
 100
AcDbEntity
   8
LEVEL001
 100
AcDbLine
   6
CONTINUOUS
  62
7
  10
 63.911588753559
  20
 149.12273248838
  30
0.0
  11
 82.911588753559
  21
 149.12273248838
  31
0.0
   0
LINE
   5
1A4
 100
AcDbEntity
   8
LEVEL001
 100
AcDbLine
   6
CONTINUOUS
  62
7
  10
 63.911588753559
  20
 150.62273248838
  30
0.0
  11
 101.91158875356
  21
 150.62273248838
  31
0.0
   0
LINE
   5
1A5
 100
AcDbEntity
   8
LEVEL001
 100
AcDbLine
   6
CONTINUOUS
  62
7
  10
 63.911588753559
  20
 150.82273248838
  30
0.0
  11
 101.91158875356
  21
 150.82273248838
  31
0.0
   0
LINE
   5
1A6
 100
AcDbEntity
   8
LEVEL001
 100
AcDbLine
   6
CONTINUOUS
  62
7
  10
 166.41110273527
  20
 209.12273248838
  30
0.0
  11
 175.23008485465
  21
 228.03510067523
  31
0.0
   0
LINE
   5
1A7
 100
AcDbEntity
   8
LEVEL001
 100
AcDbLine
   6
CONTINUOUS
  62
7
  10
 177.14669070243
  20
 228.12273248838
  30
0.0
  11
 205.23331882960
  21
 228.12273248838
  31
0.0
   0
LINE
   5
1A8
 100
AcDbEntity
   8
LEVEL001
 100
AcDbLine
   6
CONTINUOUS
  62
7
  10
 175.23008485465
  20
 228.03510067523
  30
0.0
  11
 177.14669070243
  21
 228.12273248838
  31
0.0
   0
LINE
   5
1A9
 100
AcDbEntity
   8
LEVEL001
 100
AcDbLine
   6
CONTINUOUS
  62
7
  10
 64.761588753559
  20
 204.22196724201
  30
0.0
  11
 64.761588753559
  21
 206.62273248838
  31
0.0
   0
LINE
   5
1AA
 100
AcDbEntity
   8
LEVEL001
 100
AcDbLine
   6
CONTINUOUS
  62
7
  10
 86.411588753559
  20
 151.82273248838
  30
0.0
  11
 79.411588753559
  21
 151.82273248838
  31
0.0
   0
LINE
   5
1AB
 100
AcDbEntity
   8
LEVEL001
 100
AcDbLine
   6
CONTINUOUS
  62
7
  10
 79.411588753559
  20
 151.82273248838
  30
0.0
  11
 79.411588753559
  21
 150.82273248838
  31
0.0
   0
LINE
   5
1AC
 100
AcDbEntity
   8
LEVEL001
 100
AcDbLine
   6
CONTINUOUS
  62
7
  10
 86.411588753559
  20
 150.82273248838
  30
0.0
  11
 86.411588753559
  21
 151.82273248838
  31
0.0
   0
LINE
   5
1AD
 100
AcDbEntity
   8
LEVEL001
 100
AcDbLine
   6
DASHDOT
  62
3
  10
 269.59983089258
  20
 211.62273248838
  30
0.0
  11
 319.03161445956
  21
 211.62273248838
  31
0.0
   0
LINE
   5
1AE
 100
AcDbEntity
   8
LEVEL001
 100
AcDbLine
   6
DASHDOT
  62
3
  10
 278.99567004927
  20
 209.12273248838
  30
0.0
  11
 307.31862883923
  21
 209.12273248838
  31
0.0
   0
ARC
   5
1AF
 100
AcDbEntity
   8
LEVEL001
   6
DOT
  62
1
 100
AcDbCircle
  10
 291.80549184081
  20
 224.62273248838
  30
0.0
  40
 0.50000000000000
 100
AcDbArc
  50
0.0
  51
 90.000000000000
   0
LINE
   5
1B0
 100
AcDbEntity
   8
LEVEL001
 100
AcDbLine
   6
DOT
  62
1
  10
 292.30549184081
  20
 213.12273248838
  30
0.0
  11
 292.30549184081
  21
 224.62273248838
  31
0.0
   0
ARC
   5
1B1
 100
AcDbEntity
   8
LEVEL001
   6
DOT
  62
1
 100
AcDbCircle
  10
 294.80549184080
  20
 224.62273248838
  30
0.0
  40
 0.50000000000000
 100
AcDbArc
  50
 89.999999999766
  51
 180.00000000000
   0
LINE
   5
1B2
 100
AcDbEntity
   8
LEVEL001
 100
AcDbLine
   6
DOT
  62
1
  10
 294.30549184081
  20
 213.12273248838
  30
0.0
  11
 294.30549184081
  21
 224.62273248838
  31
0.0
   0
CIRCLE
   5
1B3
 100
AcDbEntity
   8
LEVEL001
 100
AcDbCircle
   6
DOT
  62
1
  10
 293.30549184081
  20
 224.69542389504
  30
0.0
  40
 0.36200000000000
   0
LINE
   5
1B4
 100
AcDbEntity
   8
LEVEL001
 100
AcDbLine
   6
DOT
  62
1
  10
 294.80549184081
  20
 212.62273248838
  30
0.0
  11
 296.53579583372
  21
 212.62273248838
  31
0.0
   0
LINE
   5
1B5
 100
AcDbEntity
   8
LEVEL001
 100
AcDbLine
   6
DOT
  62
1
  10
 290.07518784789
  20
 210.62273248838
  30
0.0
  11
 291.80549184081
  21
 210.62273248838
  31
0.0
   0
LINE
   5
1B6
 100
AcDbEntity
   8
LEVEL001
 100
AcDbLine
   6
DOT
  62
1
  10
 290.07518784789
  20
 212.62273248838
  30
0.0
  11
 291.80549184081
  21
 212.62273248838
  31
0.0
   0
ARC
   5
1B7
 100
AcDbEntity
   8
LEVEL001
   6
DOT
  62
1
 100
AcDbCircle
  10
 290.07518784789
  20
 213.12273248839
  30
0.0
  40
 0.50000000000000
 100
AcDbArc
  50
 197.45760312478
  51
 270.00000000031
   0
ARC
   5
1B8
 100
AcDbEntity
   8
LEVEL001
   6
DOT
  62
1
 100
AcDbCircle
  10
 290.07518784789
  20
 210.12273248837
  30
0.0
  40
 0.50000000000000
 100
AcDbArc
  50
 89.999999999805
  51
 162.54239687562
   0
ARC
   5
1B9
 100
AcDbEntity
   8
LEVEL001
   6
DOT
  62
1
 100
AcDbCircle
  10
 291.80549184081
  20
 210.12273248838
  30
0.0
  40
 0.50000000000000
 100
AcDbArc
  50
0.0
  51
 90.000000000000
   0
ARC
   5
1BA
 100
AcDbEntity
   8
LEVEL001
   6
DOT
  62
1
 100
AcDbCircle
  10
 296.53579583372
  20
 213.12273248838
  30
0.0
  40
 0.50000000000000
 100
AcDbArc
  50
 269.99999999982
  51
 342.54239687568
   0
ARC
   5
1BB
 100
AcDbEntity
   8
LEVEL001
   6
DOT
  62
1
 100
AcDbCircle
  10
 294.80549184080
  20
 213.12273248838
  30
0.0
  40
 0.50000000000000
 100
AcDbArc
  50
 180.00000000000
  51
 270.00000000065
   0
ARC
   5
1BC
 100
AcDbEntity
   8
LEVEL001
   6
DOT
  62
1
 100
AcDbCircle
  10
 291.80549184081
  20
 213.12273248838
  30
0.0
  40
 0.50000000000000
 100
AcDbArc
  50
 270.00000000000
  51
 0.28660614345604E-9
   0
ARC
   5
1BD
 100
AcDbEntity
   8
LEVEL001
   6
DOT
  62
1
 100
AcDbCircle
  10
 280.53579583372
  20
 213.12273248839
  30
0.0
  40
 0.50000000000000
 100
AcDbArc
  50
 269.99999999969
  51
 342.54239687524
   0
ARC
   5
1BE
 100
AcDbEntity
   8
LEVEL001
   6
DOT
  62
1
 100
AcDbCircle
  10
 280.53579583372
  20
 210.12273248837
  30
0.0
  40
 0.50000000000000
 100
AcDbArc
  50
 17.457603124348
  51
 90.000000000189
   0
LINE
   5
1BF
 100
AcDbEntity
   8
LEVEL001
 100
AcDbLine
   6
DOT
  62
1
  10
 276.37179761893
  20
 210.62273248838
  30
0.0
  11
 280.53579583372
  21
 210.62273248838
  31
0.0
   0
LINE
   5
1C0
 100
AcDbEntity
   8
LEVEL001
 100
AcDbLine
   6
DOT
  62
1
  10
 276.66968708119
  20
 212.62273248838
  30
0.0
  11
 280.53579583372
  21
 212.62273248838
  31
0.0
   0
LINE
   5
1C1
 100
AcDbEntity
   8
LEVEL001
 100
AcDbLine
   6
DOT
  62
1
  10
 287.56092919427
  20
 225.12273248838
  30
0.0
  11
 299.05005448734
  21
 225.12273248838
  31
0.0
   0
ARC
   5
1C2
 100
AcDbEntity
   8
LEVEL001
   6
DOT
  62
1
 100
AcDbCircle
  10
 293.30549184081
  20
 209.12273248838
  30
0.0
  40
 17.000000000000
 100
AcDbArc
  50
 109.74992279564
  51
 183.37228668343
   0
ARC
   5
1C3
 100
AcDbEntity
   8
LEVEL001
   6
DOT
  62
1
 100
AcDbCircle
  10
 278.00549184081
  20
 208.62273248837
  30
0.0
  40
 0.50000000000000
 100
AcDbArc
  50
 0.14721133732060E-8
  51
 90.000000000000
   0
LINE
   5
1C4
 100
AcDbEntity
   8
LEVEL001
 100
AcDbLine
   6
DASHDOT
  62
3
  10
 269.57511626199
  20
 209.12273248838
  30
0.0
  11
 275.38049642883
  21
 209.12273248838
  31
0.0
   0
LINE
   5
1C5
 100
AcDbEntity
   8
LEVEL001
 100
AcDbLine
   6
DOT
  62
1
  10
 275.80551342098
  20
 209.12273248838
  30
0.0
  11
 278.00549184081
  21
 209.12273248838
  31
0.0
   0
ARC
   5
1C6
 100
AcDbEntity
   8
LEVEL001
   6
DOT
  62
1
 100
AcDbCircle
  10
 285.30549184081
  20
 211.62273248838
  30
0.0
  40
 4.5000000000000
 100
AcDbArc
  50
 17.457603123725
  51
 162.54239687627
   0
ARC
   5
1C7
 100
AcDbEntity
   8
LEVEL001
   6
DOT
  62
1
 100
AcDbCircle
  10
 285.30549184080
  20
 211.62273248838
  30
0.0
  40
 4.5000000000000
 100
AcDbArc
  50
 197.45760312369
  51
 342.54239687632
   0
LINE
   5
1C8
 100
AcDbEntity
   8
LEVEL001
 100
AcDbLine
   6
DOT
  62
1
  10
 292.30549184081
  20
 199.39388353285
  30
0.0
  11
 294.30549184081
  21
 199.39388353285
  31
0.0
   0
LINE
   5
1C9
 100
AcDbEntity
   8
LEVEL001
 100
AcDbLine
   6
DOT
  62
1
  10
 278.50549184081
  20
 204.62273248838
  30
0.0
  11
 278.50549184081
  21
 208.62273248838
  31
0.0
   0
LINE
   5
1CA
 100
AcDbEntity
   8
LEVEL001
 100
AcDbLine
   6
DOT
  62
1
  10
 278.00549184081
  20
 204.62273248838
  30
0.0
  11
 278.00549184081
  21
 208.12273248838
  31
0.0
   0
LINE
   5
1CB
 100
AcDbEntity
   8
LEVEL001
 100
AcDbLine
   6
DOT
  62
1
  10
 276.33492909233
  20
 208.12273248838
  30
0.0
  11
 278.00549184081
  21
 208.12273248838
  31
0.0
   0
ARC
   5
1CC
 100
AcDbEntity
   8
LEVEL001
   6
DOT
  62
1
 100
AcDbCircle
  10
 278.00549184082
  20
 204.62273248838
  30
0.0
  40
 0.50000000000000
 100
AcDbArc
  50
 269.99999999892
  51
0.0
   0
POINT
   5
1CD
 100
AcDbEntity
   8
LEVEL001
 100
AcDbPoint
  62
1
  10
 278.50549184081
  20
 204.12273248838
  30
0.0
   0
LINE
   5
1CE
 100
AcDbEntity
   8
LEVEL001
 100
AcDbLine
   6
DOT
  62
1
  10
 276.30549184081
  20
 153.62273248838
  30
0.0
  11
 276.30549184081
  21
 205.12273248838
  31
0.0
   0
ARC
   5
1CF
 100
AcDbEntity
   8
LEVEL001
   6
DOT
  62
1
 100
AcDbCircle
  10
 277.30549184081
  20
 202.92273248837
  30
0.0
  40
 0.20000000000000
 100
AcDbArc
  50
 0.35337234732924E-8
  51
 89.999999999967
   0
POINT
   5
1D0
 100
AcDbEntity
   8
LEVEL001
 100
AcDbPoint
  62
1
  10
 277.50549184081
  20
 203.12273248838
  30
0.0
   0
ARC
   5
1D1
 100
AcDbEntity
   8
LEVEL001
   6
DOT
  62
1
 100
AcDbCircle
  10
 276.70549184081
  20
 202.92273248838
  30
0.0
  40
 0.20000000000000
 100
AcDbArc
  50
 90.000000000016
  51
 180.00000000069
   0
POINT
   5
1D2
 100
AcDbEntity
   8
LEVEL001
 100
AcDbPoint
  62
1
  10
 276.50549184081
  20
 203.12273248838
  30
0.0
   0
LINE
   5
1D3
 100
AcDbEntity
   8
LEVEL001
 100
AcDbLine
   6
DOT
  62
1
  10
 276.39193429181
  20
 204.62273248838
  30
0.0
  11
 278.00549184081
  21
 204.62273248838
  31
0.0
   0
LINE
   5
1D4
 100
AcDbEntity
   8
LEVEL001
 100
AcDbLine
   6
DOT
  62
1
  10
 276.30549184081
  20
 204.12273248838
  30
0.0
  11
 278.00549184081
  21
 204.12273248838
  31
0.0
   0
LINE
   5
1D5
 100
AcDbEntity
   8
LEVEL001
 100
AcDbLine
   6
DOT
  62
1
  10
 276.70549184081
  20
 203.12273248838
  30
0.0
  11
 277.30549184081
  21
 203.12273248838
  31
0.0
   0
ARC
   5
1D6
 100
AcDbEntity
   8
LEVEL001
   6
DOT
  62
1
 100
AcDbCircle
  10
 276.70549184080
  20
 154.32273248838
  30
0.0
  40
 0.20000000000000
 100
AcDbArc
  50
 180.00000000000
  51
 270.00000000044
   0
LINE
   5
1D7
 100
AcDbEntity
   8
LEVEL001
 100
AcDbLine
   6
DOT
  62
1
  10
 276.70549184081
  20
 154.12273248838
  30
0.0
  11
 277.30549184081
  21
 154.12273248838
  31
0.0
   0
ARC
   5
1D8
 100
AcDbEntity
   8
LEVEL001
   6
DOT
  62
1
 100
AcDbCircle
  10
 277.30549184081
  20
 154.32273248839
  30
0.0
  40
 0.20000000000000
 100
AcDbArc
  50
 270.00000000002
  51
0.0
   0
POINT
   5
1D9
 100
AcDbEntity
   8
LEVEL001
 100
AcDbPoint
  62
1
  10
 277.50549184081
  20
 154.12273248838
  30
0.0
   0
POINT
   5
1DA
 100
AcDbEntity
   8
LEVEL001
 100
AcDbPoint
  62
1
  10
 276.50549184081
  20
 154.12273248838
  30
0.0
   0
LINE
   5
1DB
 100
AcDbEntity
   8
LEVEL001
 100
AcDbLine
   6
DOT
  62
1
  10
 276.50549184081
  20
 154.32273248838
  30
0.0
  11
 276.50549184081
  21
 202.92273248838
  31
0.0
   0
LINE
   5
1DC
 100
AcDbEntity
   8
LEVEL001
 100
AcDbLine
   6
DOT
  62
1
  10
 277.50549184081
  20
 154.32273248839
  30
0.0
  11
 277.50549184081
  21
 202.92273248838
  31
0.0
   0
LINE
   5
1DD
 100
AcDbEntity
   8
LEVEL001
 100
AcDbLine
   6
DOT
  62
1
  10
 292.30549184081
  20
 154.12273248838
  30
0.0
  11
 292.30549184081
  21
 210.12273248838
  31
0.0
   0
ARC
   5
1DE
 100
AcDbEntity
   8
LEVEL001
   6
DOT
  62
1
 100
AcDbCircle
  10
 294.80549184080
  20
 154.12273248838
  30
0.0
  40
 0.50000000000000
 100
AcDbArc
  50
 180.00000000000
  51
 270.00000000069
   0
ARC
   5
1DF
 100
AcDbEntity
   8
LEVEL001
   6
DOT
  62
1
 100
AcDbCircle
  10
 291.80549184080
  20
 154.12273248838
  30
0.0
  40
 0.50000000000000
 100
AcDbArc
  50
 270.00000000023
  51
0.0
   0
LINE
   5
1E0
 100
AcDbEntity
   8
LEVEL001
 100
AcDbLine
   6
DASHDOT
  62
3
  10
 311.02011707072
  20
 209.12273248838
  30
0.0
  11
 318.78579845506
  21
 209.12273248838
  31
0.0
   0
ARC
   5
1E1
 100
AcDbEntity
   8
LEVEL001
   6
DOT
  62
1
 100
AcDbCircle
  10
 293.30549184081
  20
 209.12273248838
  30
0.0
  40
 17.000000000000
 100
AcDbArc
  50
 356.62771331657
  51
 70.250077204357
   0
ARC
   5
1E2
 100
AcDbEntity
   8
LEVEL001
   6
DOT
  62
1
 100
AcDbCircle
  10
 301.30549184081
  20
 211.62273248838
  30
0.0
  40
 4.5000000000000
 100
AcDbArc
  50
 17.457603123721
  51
 162.54239687628
   0
ARC
   5
1E3
 100
AcDbEntity
   8
LEVEL001
   6
DOT
  62
1
 100
AcDbCircle
  10
 301.30549184081
  20
 211.62273248838
  30
0.0
  40
 4.5000000000000
 100
AcDbArc
  50
 197.45760312368
  51
 342.54239687631
   0
LINE
   5
1E4
 100
AcDbEntity
   8
LEVEL001
 100
AcDbLine
   6
DOT
  62
1
  10
 296.53579583372
  20
 210.62273248838
  30
0.0
  11
 294.80549184081
  21
 210.62273248838
  31
0.0
   0
ARC
   5
1E5
 100
AcDbEntity
   8
LEVEL001
   6
DOT
  62
1
 100
AcDbCircle
  10
 296.53579583372
  20
 210.12273248838
  30
0.0
  40
 0.50000000000000
 100
AcDbArc
  50
 17.457603123910
  51
 90.000000000052
   0
ARC
   5
1E6
 100
AcDbEntity
   8
LEVEL001
   6
DOT
  62
1
 100
AcDbCircle
  10
 294.80549184081
  20
 210.12273248838
  30
0.0
  40
 0.50000000000000
 100
AcDbArc
  50
 90.000000000000
  51
 179.99999999971
   0
LINE
   5
1E7
 100
AcDbEntity
   8
LEVEL001
 100
AcDbLine
   6
DOT
  62
1
  10
 294.30549184081
  20
 154.12273248838
  30
0.0
  11
 294.30549184081
  21
 210.12273248838
  31
0.0
   0
ARC
   5
1E8
 100
AcDbEntity
   8
LEVEL001
   6
DOT
  62
1
 100
AcDbCircle
  10
 306.07518784789
  20
 213.12273248838
  30
0.0
  40
 0.50000000000000
 100
AcDbArc
  50
 197.45760312347
  51
 269.99999999992
   0
LINE
   5
1E9
 100
AcDbEntity
   8
LEVEL001
 100
AcDbLine
   6
DOT
  62
1
  10
 309.94129660042
  20
 212.62273248838
  30
0.0
  11
 306.07518784789
  21
 212.62273248838
  31
0.0
   0
ARC
   5
1EA
 100
AcDbEntity
   8
LEVEL001
   6
DOT
  62
1
 100
AcDbCircle
  10
 306.07518784789
  20
 210.12273248838
  30
0.0
  40
 0.50000000000000
 100
AcDbArc
  50
 90.000000000202
  51
 162.54239687693
   0
LINE
   5
1EB
 100
AcDbEntity
   8
LEVEL001
 100
AcDbLine
   6
DOT
  62
1
  10
 310.23918606268
  20
 210.62273248838
  30
0.0
  11
 306.07518784789
  21
 210.62273248838
  31
0.0
   0
ARC
   5
1EC
 100
AcDbEntity
   8
LEVEL001
   6
DOT
  62
1
 100
AcDbCircle
  10
 308.60549184081
  20
 208.62273248837
  30
0.0
  40
 0.50000000000000
 100
AcDbArc
  50
 90.000000000000
  51
 179.99999999926
   0
LINE
   5
1ED
 100
AcDbEntity
   8
LEVEL001
 100
AcDbLine
   6
DOT
  62
1
  10
 310.80547026064
  20
 209.12273248838
  30
0.0
  11
 308.60549184081
  21
 209.12273248838
  31
0.0
   0
LINE
   5
1EE
 100
AcDbEntity
   8
LEVEL001
 100
AcDbLine
   6
DOT
  62
1
  10
 308.10549184081
  20
 204.62273248838
  30
0.0
  11
 308.10549184081
  21
 208.62273248838
  31
0.0
   0
LINE
   5
1EF
 100
AcDbEntity
   8
LEVEL001
 100
AcDbLine
   6
DOT
  62
1
  10
 308.60549184081
  20
 204.62273248838
  30
0.0
  11
 308.60549184081
  21
 208.12273248838
  31
0.0
   0
LINE
   5
1F0
 100
AcDbEntity
   8
LEVEL001
 100
AcDbLine
   6
DOT
  62
1
  10
 310.27605458928
  20
 208.12273248838
  30
0.0
  11
 308.60549184081
  21
 208.12273248838
  31
0.0
   0
ARC
   5
1F1
 100
AcDbEntity
   8
LEVEL001
   6
DOT
  62
1
 100
AcDbCircle
  10
 308.60549184080
  20
 204.62273248838
  30
0.0
  40
 0.50000000000000
 100
AcDbArc
  50
 180.00000000000
  51
 270.00000000035
   0
POINT
   5
1F2
 100
AcDbEntity
   8
LEVEL001
 100
AcDbPoint
  62
1
  10
 308.10549184081
  20
 204.12273248838
  30
0.0
   0
LINE
   5
1F3
 100
AcDbEntity
   8
LEVEL001
 100
AcDbLine
   6
DOT
  62
1
  10
 310.21904938980
  20
 204.62273248838
  30
0.0
  11
 308.60549184080
  21
 204.62273248838
  31
0.0
   0
LINE
   5
1F4
 100
AcDbEntity
   8
LEVEL001
 100
AcDbLine
   6
DOT
  62
1
  10
 310.30549184081
  20
 204.12273248838
  30
0.0
  11
 308.60549184081
  21
 204.12273248838
  31
0.0
   0
LINE
   5
1F5
 100
AcDbEntity
   8
LEVEL001
 100
AcDbLine
   6
DOT
  62
1
  10
 310.30549184081
  20
 153.62273248838
  30
0.0
  11
 310.30549184081
  21
 205.12273248838
  31
0.0
   0
LINE
   5
1F6
 100
AcDbEntity
   8
LEVEL001
 100
AcDbLine
   6
DOT
  62
1
  10
 310.10549184081
  20
 154.32273248838
  30
0.0
  11
 310.10549184081
  21
 202.92273248838
  31
0.0
   0
LINE
   5
1F7
 100
AcDbEntity
   8
LEVEL001
 100
AcDbLine
   6
DOT
  62
1
  10
 309.10549184081
  20
 154.32273248839
  30
0.0
  11
 309.10549184081
  21
 202.92273248838
  31
0.0
   0
ARC
   5
1F8
 100
AcDbEntity
   8
LEVEL001
   6
DOT
  62
1
 100
AcDbCircle
  10
 309.30549184081
  20
 202.92273248838
  30
0.0
  40
 0.20000000000000
 100
AcDbArc
  50
 90.000000000033
  51
 179.99999999933
   0
POINT
   5
1F9
 100
AcDbEntity
   8
LEVEL001
 100
AcDbPoint
  62
1
  10
 309.10549184081
  20
 203.12273248838
  30
0.0
   0
ARC
   5
1FA
 100
AcDbEntity
   8
LEVEL001
   6
DOT
  62
1
 100
AcDbCircle
  10
 309.90549184081
  20
 202.92273248841
  30
0.0
  40
 0.20000000000000
 100
AcDbArc
  50
0.0
  51
 89.999999999984
   0
POINT
   5
1FB
 100
AcDbEntity
   8
LEVEL001
 100
AcDbPoint
  62
1
  10
 310.10549184081
  20
 203.12273248838
  30
0.0
   0
LINE
   5
1FC
 100
AcDbEntity
   8
LEVEL001
 100
AcDbLine
   6
DOT
  62
1
  10
 309.90549184081
  20
 203.12273248838
  30
0.0
  11
 309.30549184081
  21
 203.12273248838
  31
0.0
   0
LINE
   5
1FD
 100
AcDbEntity
   8
LEVEL001
 100
AcDbLine
   6
DOT
  62
1
  10
 279.06556317667
  20
 198.95049420762
  30
0.0
  11
 307.54542050494
  21
 198.95049420762
  31
0.0
   0
ARC
   5
1FE
 100
AcDbEntity
   8
LEVEL001
   6
DOT
  62
1
 100
AcDbCircle
  10
 309.90549184078
  20
 154.32273248838
  30
0.0
  40
 0.20000000000000
 100
AcDbArc
  50
 270.00000000713
  51
0.0
   0
LINE
   5
1FF
 100
AcDbEntity
   8
LEVEL001
 100
AcDbLine
   6
DOT
  62
1
  10
 309.90549184081
  20
 154.12273248838
  30
0.0
  11
 309.30549184081
  21
 154.12273248838
  31
0.0
   0
ARC
   5
200
 100
AcDbEntity
   8
LEVEL001
   6
DOT
  62
1
 100
AcDbCircle
  10
 309.30549184081
  20
 154.32273248838
  30
0.0
  40
 0.20000000000000
 100
AcDbArc
  50
 180.00000000184
  51
 269.99999999997
   0
POINT
   5
201
 100
AcDbEntity
   8
LEVEL001
 100
AcDbPoint
  62
1
  10
 309.10549184081
  20
 154.12273248838
  30
0.0
   0
POINT
   5
202
 100
AcDbEntity
   8
LEVEL001
 100
AcDbPoint
  62
1
  10
 310.10549184081
  20
 154.12273248838
  30
0.0
   0
LINE
   5
203
 100
AcDbEntity
   8
LEVEL001
 100
AcDbLine
   6
DOT
  62
1
  10
 276.30549184081
  20
 153.62273248838
  30
0.0
  11
 310.30549184081
  21
 153.62273248838
  31
0.0
   0
LINE
   5
204
 100
AcDbEntity
   8
LEVEL001
 100
AcDbLine
   6
DASHDOT
  62
3
  10
 286.30549184081
  20
 155.49959038167
  30
0.0
  11
 286.30549184081
  21
 147.18832175401
  31
0.0
   0
LINE
   5
205
 100
AcDbEntity
   8
LEVEL001
 100
AcDbLine
   6
DOT
  62
1
  10
 274.30549184081
  20
 150.82273248838
  30
0.0
  11
 312.30549184081
  21
 150.82273248838
  31
0.0
   0
LINE
   5
206
 100
AcDbEntity
   8
LEVEL001
 100
AcDbLine
   6
DOT
  62
1
  10
 274.30549184081
  20
 150.62273248838
  30
0.0
  11
 312.30549184081
  21
 150.62273248838
  31
0.0
   0
LINE
   5
207
 100
AcDbEntity
   8
LEVEL001
 100
AcDbLine
   6
DOT
  62
1
  10
 289.80549184081
  20
 151.82273248838
  30
0.0
  11
 293.30549184081
  21
 151.82273248838
  31
0.0
   0
LINE
   5
208
 100
AcDbEntity
   8
LEVEL001
 100
AcDbLine
   6
DOT
  62
1
  10
 289.80549184081
  20
 150.82273248838
  30
0.0
  11
 289.80549184081
  21
 151.82273248838
  31
0.0
   0
LINE
   5
209
 100
AcDbEntity
   8
LEVEL001
 100
AcDbLine
   6
DOT
  62
1
  10
 281.05549184081
  20
 149.12273248838
  30
0.0
  11
 281.05549184081
  21
 153.62273248838
  31
0.0
   0
LINE
   5
20A
 100
AcDbEntity
   8
LEVEL001
 100
AcDbLine
   6
DOT
  62
1
  10
 284.60549184081
  20
 153.62273248838
  30
0.0
  11
 284.60549184081
  21
 149.12273248838
  31
0.0
   0
ARC
   5
20B
 100
AcDbEntity
   8
LEVEL001
   6
DOT
  62
1
 100
AcDbCircle
  10
 285.10549184082
  20
 149.62273248838
  30
0.0
  40
 0.30000000000000
 100
AcDbArc
  50
 180.00000000000
  51
 269.99999999708
   0
LINE
   5
20C
 100
AcDbEntity
   8
LEVEL001
 100
AcDbLine
   6
DOT
  62
1
  10
 285.10549184081
  20
 149.32273248838
  30
0.0
  11
 286.30549184081
  21
 149.32273248838
  31
0.0
   0
ARC
   5
20D
 100
AcDbEntity
   8
LEVEL001
   6
DOT
  62
1
 100
AcDbCircle
  10
 287.50549184081
  20
 149.62273248838
  30
0.0
  40
 0.30000000000000
 100
AcDbArc
  50
 269.99999999999
  51
0.0
   0
LINE
   5
20E
 100
AcDbEntity
   8
LEVEL001
 100
AcDbLine
   6
DOT
  62
1
  10
 286.30549184081
  20
 149.32273248838
  30
0.0
  11
 287.50549184081
  21
 149.32273248838
  31
0.0
   0
LINE
   5
20F
 100
AcDbEntity
   8
LEVEL001
 100
AcDbLine
   6
DOT
  62
1
  10
 285.55549184081
  20
 149.12273248838
  30
0.0
  11
 285.55549184081
  21
 153.62273248838
  31
0.0
   0
LINE
   5
210
 100
AcDbEntity
   8
LEVEL001
 100
AcDbLine
   6
DOT
  62
1
  10
 288.00549184081
  20
 153.62273248838
  30
0.0
  11
 288.00549184081
  21
 149.12273248838
  31
0.0
   0
LINE
   5
211
 100
AcDbEntity
   8
LEVEL001
 100
AcDbLine
   6
DOT
  62
1
  10
 287.80549184081
  20
 149.62273248838
  30
0.0
  11
 287.80549184081
  21
 152.96723940889
  31
0.0
   0
LINE
   5
212
 100
AcDbEntity
   8
LEVEL001
 100
AcDbLine
   6
DOT
  62
1
  10
 284.80549184081
  20
 152.96723940889
  30
0.0
  11
 287.80549184081
  21
 152.96723940889
  31
0.0
   0
LINE
   5
213
 100
AcDbEntity
   8
LEVEL001
 100
AcDbLine
   6
DOT
  62
1
  10
 284.80549184081
  20
 149.62273248838
  30
0.0
  11
 284.80549184081
  21
 152.96723940889
  31
0.0
   0
LINE
   5
214
 100
AcDbEntity
   8
LEVEL001
 100
AcDbLine
   6
DOT
  62
1
  10
 296.80549184081
  20
 151.82273248838
  30
0.0
  11
 293.30549184081
  21
 151.82273248838
  31
0.0
   0
LINE
   5
215
 100
AcDbEntity
   8
LEVEL001
 100
AcDbLine
   6
DOT
  62
1
  10
 296.80549184081
  20
 150.82273248838
  30
0.0
  11
 296.80549184081
  21
 151.82273248838
  31
0.0
   0
LINE
   5
216
 100
AcDbEntity
   8
LEVEL001
 100
AcDbLine
   6
DASHDOT
  62
3
  10
 300.30549184081
  20
 155.49959038167
  30
0.0
  11
 300.30549184081
  21
 147.18832175401
  31
0.0
   0
LINE
   5
217
 100
AcDbEntity
   8
LEVEL001
 100
AcDbLine
   6
DOT
  62
1
  10
 302.00549184081
  20
 153.62273248838
  30
0.0
  11
 302.00549184081
  21
 149.12273248838
  31
0.0
   0
LINE
   5
218
 100
AcDbEntity
   8
LEVEL001
 100
AcDbLine
   6
DOT
  62
1
  10
 301.05549184081
  20
 149.12273248838
  30
0.0
  11
 301.05549184081
  21
 153.62273248838
  31
0.0
   0
LINE
   5
219
 100
AcDbEntity
   8
LEVEL001
 100
AcDbLine
   6
DOT
  62
1
  10
 298.60549184081
  20
 153.62273248838
  30
0.0
  11
 298.60549184081
  21
 149.12273248838
  31
0.0
   0
LINE
   5
21A
 100
AcDbEntity
   8
LEVEL001
 100
AcDbLine
   6
DOT
  62
1
  10
 298.80549184081
  20
 149.62273248838
  30
0.0
  11
 298.80549184081
  21
 152.96723940889
  31
0.0
   0
LINE
   5
21B
 100
AcDbEntity
   8
LEVEL001
 100
AcDbLine
   6
DOT
  62
1
  10
 301.80549184081
  20
 152.96723940889
  30
0.0
  11
 298.80549184081
  21
 152.96723940889
  31
0.0
   0
LINE
   5
21C
 100
AcDbEntity
   8
LEVEL001
 100
AcDbLine
   6
DOT
  62
1
  10
 301.80549184081
  20
 149.62273248838
  30
0.0
  11
 301.80549184081
  21
 152.96723940889
  31
0.0
   0
POINT
   5
21D
 100
AcDbEntity
   8
LEVEL001
 100
AcDbPoint
  62
7
  10
 298.80549184081
  20
 149.62273248838
  30
0.0
   0
POINT
   5
21E
 100
AcDbEntity
   8
LEVEL001
 100
AcDbPoint
  62
7
  10
 301.80549184081
  20
 149.62273248838
  30
0.0
   0
ARC
   5
21F
 100
AcDbEntity
   8
LEVEL001
   6
DOT
  62
1
 100
AcDbCircle
  10
 301.50549184082
  20
 149.62273248838
  30
0.0
  40
 0.30000000000000
 100
AcDbArc
  50
 269.99999999754
  51
 0.54281466565966E-11
   0
LINE
   5
220
 100
AcDbEntity
   8
LEVEL001
 100
AcDbLine
   6
DOT
  62
1
  10
 301.50549184081
  20
 149.32273248838
  30
0.0
  11
 300.30549184081
  21
 149.32273248838
  31
0.0
   0
ARC
   5
221
 100
AcDbEntity
   8
LEVEL001
   6
DOT
  62
1
 100
AcDbCircle
  10
 299.10549184081
  20
 149.62273248838
  30
0.0
  40
 0.30000000000000
 100
AcDbArc
  50
 179.99999999953
  51
 270.00000000001
   0
LINE
   5
222
 100
AcDbEntity
   8
LEVEL001
 100
AcDbLine
   6
DOT
  62
1
  10
 300.30549184081
  20
 149.32273248838
  30
0.0
  11
 299.10549184081
  21
 149.32273248838
  31
0.0
   0
LINE
   5
223
 100
AcDbEntity
   8
LEVEL001
 100
AcDbLine
   6
DOT
  62
1
  10
 305.55549184081
  20
 149.12273248838
  30
0.0
  11
 305.55549184081
  21
 153.62273248838
  31
0.0
   0
LINE
   5
224
 100
AcDbEntity
   8
LEVEL001
 100
AcDbLine
   6
DASHDOT
  62
3
  10
 303.30549184081
  20
 157.00880775965
  30
0.0
  11
 303.30549184081
  21
 145.52706605802
  31
0.0
   0
LINE
   5
225
 100
AcDbEntity
   8
LEVEL001
 100
AcDbLine
   6
DASHDOT
  62
3
  10
 283.30549184081
  20
 156.81158358297
  30
0.0
  11
 283.30549184081
  21
 145.52706605802
  31
0.0
   0
LINE
   5
226
 100
AcDbEntity
   8
LEVEL001
 100
AcDbLine
   6
DASHDOT
  62
3
  10
 285.30549184081
  20
 220.72709415672
  30
0.0
  11
 285.30549184081
  21
 203.21620080798
  31
0.0
   0
LINE
   5
227
 100
AcDbEntity
   8
LEVEL001
 100
AcDbLine
   6
DASHDOT
  62
3
  10
 301.30549184081
  20
 220.72709415672
  30
0.0
  11
 301.30549184081
  21
 203.21620080798
  31
0.0
   0
LINE
   5
228
 100
AcDbEntity
   8
LEVEL001
 100
AcDbLine
   6
DASHDOT
  62
3
  10
 75.911588753559
  20
 155.49959038167
  30
0.0
  11
 75.911588753559
  21
 147.18832175401
  31
0.0
   0
LINE
   5
229
 100
AcDbEntity
   8
LEVEL001
 100
AcDbLine
   6
DASHDOT
  62
3
  10
 89.911588753559
  20
 155.49959038167
  30
0.0
  11
 89.911588753559
  21
 147.18832175401
  31
0.0
   0
LINE
   5
22A
 100
AcDbEntity
   8
LEVEL001
 100
AcDbLine
   6
DASHDOT
  62
3
  10
 72.911588753559
  20
 159.30126548633
  30
0.0
  11
 72.911588753559
  21
 144.18214386104
  31
0.0
   0
LINE
   5
22B
 100
AcDbEntity
   8
LEVEL001
 100
AcDbLine
   6
DASHDOT
  62
3
  10
 92.911588753559
  20
 159.49848966300
  30
0.0
  11
 92.911588753559
  21
 144.77381639106
  31
0.0
   0
ARC
   5
22C
 100
AcDbEntity
   8
LEVEL001
   6
DOT
  62
1
 100
AcDbCircle
  10
 81.411588753559
  20
 224.62273248838
  30
0.0
  40
 0.50000000000000
 100
AcDbArc
  50
0.0
  51
 90.000000000000
   0
CIRCLE
   5
22D
 100
AcDbEntity
   8
LEVEL001
 100
AcDbCircle
   6
DOT
  62
1
  10
 82.911588753559
  20
 224.69542389504
  30
0.0
  40
 0.36200000000000
   0
LINE
   5
22E
 100
AcDbEntity
   8
LEVEL001
 100
AcDbLine
   6
DOT
  62
1
  10
 81.911588753559
  20
 213.12273248838
  30
0.0
  11
 81.911588753559
  21
 224.62273248838
  31
0.0
   0
ARC
   5
22F
 100
AcDbEntity
   8
LEVEL001
   6
DOT
  62
1
 100
AcDbCircle
  10
 82.911588753559
  20
 209.12273248838
  30
0.0
  40
 17.500000000000
 100
AcDbArc
  50
 90.000000000000
  51
 193.21298036016
   0
LINE
   5
230
 100
AcDbEntity
   8
LEVEL001
 100
AcDbLine
   6
DOT
  62
1
  10
 77.167026107021
  20
 225.12273248838
  30
0.0
  11
 82.911588753559
  21
 225.12273248838
  31
0.0
   0
ARC
   5
231
 100
AcDbEntity
   8
LEVEL001
   6
DOT
  62
1
 100
AcDbCircle
  10
 82.911588753559
  20
 209.12273248838
  30
0.0
  40
 17.000000000000
 100
AcDbArc
  50
 90.000000000000
  51
 183.37228668343
   0
LINE
   5
232
 100
AcDbEntity
   8
LEVEL001
 100
AcDbLine
   6
DASHDOT
  62
3
  10
 74.911588753559
  20
 219.24872292961
  30
0.0
  11
 74.911588753559
  21
 204.17692665490
  31
0.0
   0
LINE
   5
233
 100
AcDbEntity
   8
LEVEL001
 100
AcDbLine
   6
DOT
  62
1
  10
 66.275783993945
  20
 212.62273248838
  30
0.0
  11
 70.141892746474
  21
 212.62273248838
  31
0.0
   0
ARC
   5
234
 100
AcDbEntity
   8
LEVEL001
   6
DOT
  62
1
 100
AcDbCircle
  10
 70.141892746476
  20
 213.12273248838
  30
0.0
  40
 0.50000000000000
 100
AcDbArc
  50
 269.99999999982
  51
 342.54239687570
   0
LINE
   5
235
 100
AcDbEntity
   8
LEVEL001
 100
AcDbLine
   6
DOT
  62
1
  10
 65.977894531683
  20
 210.62273248838
  30
0.0
  11
 70.141892746474
  21
 210.62273248838
  31
0.0
   0
ARC
   5
236
 100
AcDbEntity
   8
LEVEL001
   6
DOT
  62
1
 100
AcDbCircle
  10
 70.141892746475
  20
 210.12273248838
  30
0.0
  40
 0.50000000000000
 100
AcDbArc
  50
 17.457603123897
  51
 90.000000000057
   0
LINE
   5
237
 100
AcDbEntity
   8
LEVEL001
 100
AcDbLine
   6
DOT
  62
1
  10
 79.681284760644
  20
 210.62273248838
  30
0.0
  11
 81.411588753559
  21
 210.62273248838
  31
0.0
   0
CIRCLE
   5
238
 100
AcDbEntity
   8
LEVEL001
 100
AcDbCircle
   6
DOT
  62
1
  10
 74.911588753559
  20
 211.62273248838
  30
0.0
  40
 2.2500000000000
   0
ARC
   5
239
 100
AcDbEntity
   8
LEVEL001
   6
DOT
  62
1
 100
AcDbCircle
  10
 79.681284760643
  20
 210.12273248838
  30
0.0
  40
 0.50000000000000
 100
AcDbArc
  50
 89.999999999888
  51
 162.54239687592
   0
ARC
   5
23A
 100
AcDbEntity
   8
LEVEL001
   6
DOT
  62
1
 100
AcDbCircle
  10
 79.681284760642
  20
 213.12273248839
  30
0.0
  40
 0.50000000000000
 100
AcDbArc
  50
 197.45760312449
  51
 270.00000000024
   0
LINE
   5
23B
 100
AcDbEntity
   8
LEVEL001
 100
AcDbLine
   6
DOT
  62
1
  10
 79.681284760644
  20
 212.62273248838
  30
0.0
  11
 81.411588753559
  21
 212.62273248838
  31
0.0
   0
ARC
   5
23C
 100
AcDbEntity
   8
LEVEL001
   6
DOT
  62
1
 100
AcDbCircle
  10
 81.411588753559
  20
 210.12273248838
  30
0.0
  40
 0.50000000000000
 100
AcDbArc
  50
0.0
  51
 90.000000000000
   0
ARC
   5
23D
 100
AcDbEntity
   8
LEVEL001
   6
DOT
  62
1
 100
AcDbCircle
  10
 81.411588753559
  20
 213.12273248838
  30
0.0
  40
 0.50000000000000
 100
AcDbArc
  50
 270.00000000000
  51
0.0
   0
ARC
   5
23E
 100
AcDbEntity
   8
LEVEL001
   6
DOT
  62
1
 100
AcDbCircle
  10
 74.911588753558
  20
 211.62273248838
  30
0.0
  40
 4.5000000000000
 100
AcDbArc
  50
 17.457603123750
  51
 162.54239687624
   0
ARC
   5
23F
 100
AcDbEntity
   8
LEVEL001
   6
DOT
  62
1
 100
AcDbCircle
  10
 74.911588753560
  20
 211.62273248838
  30
0.0
  40
 4.5000000000000
 100
AcDbArc
  50
 197.45760312370
  51
 342.54239687629
   0
ARC
   5
240
 100
AcDbEntity
   8
LEVEL001
   6
DOT
  62
1
 100
AcDbCircle
  10
 82.911588753559
  20
 209.12273248838
  30
0.0
  40
 18.800000000000
 100
AcDbArc
  50
 180.00000000000
  51
0.0
   0
ARC
   5
241
 100
AcDbEntity
   8
LEVEL001
   6
DOT
  62
1
 100
AcDbCircle
  10
 82.911588753560
  20
 209.12273248838
  30
0.0
  40
 17.500000000000
 100
AcDbArc
  50
 193.21298036016
  51
 270.00000000000
   0
LINE
   5
242
 100
AcDbEntity
   8
LEVEL001
 100
AcDbLine
   6
DOT
  62
1
  10
 81.911588753559
  20
 199.39388353285
  30
0.0
  11
 82.911588753559
  21
 199.39388353285
  31
0.0
   0
LINE
   5
243
 100
AcDbEntity
   8
LEVEL001
 100
AcDbLine
   6
DOT
  62
1
  10
 68.671660089428
  20
 198.95049420762
  30
0.0
  11
 82.911588753559
  21
 198.95049420762
  31
0.0
   0
LINE
   5
244
 100
AcDbEntity
   8
LEVEL001
 100
AcDbLine
   6
DASHDOT
  62
3
  10
 69.403638874142
  20
 209.12273248838
  30
0.0
  11
 97.437258301928
  21
 209.12273248838
  31
0.0
   0
ARC
   5
245
 100
AcDbEntity
   8
LEVEL001
   6
DOT
  62
1
 100
AcDbCircle
  10
 67.611588753559
  20
 208.62273248838
  30
0.0
  40
 0.50000000000000
 100
AcDbArc
  50
 0.26706481549313E-9
  51
 90.000000000000
   0
POINT
   5
246
 100
AcDbEntity
   8
LEVEL001
 100
AcDbPoint
  62
1
  10
 68.111588753559
  20
 209.12273248838
  30
0.0
   0
ARC
   5
247
 100
AcDbEntity
   8
LEVEL001
   6
DOT
  62
1
 100
AcDbCircle
  10
 67.611588753558
  20
 204.62273248838
  30
0.0
  40
 0.50000000000000
 100
AcDbArc
  50
 270.00000000012
  51
0.0
   0
POINT
   5
248
 100
AcDbEntity
   8
LEVEL001
 100
AcDbPoint
  62
1
  10
 68.111588753559
  20
 204.12273248838
  30
0.0
   0
LINE
   5
249
 100
AcDbEntity
   8
LEVEL001
 100
AcDbLine
   6
DOT
  62
1
  10
 68.911588753559
  20
 204.83820883602
  30
0.0
  11
 68.911588753559
  21
 208.87213622865
  31
0.0
   0
LINE
   5
24A
 100
AcDbEntity
   8
LEVEL001
 100
AcDbLine
   6
DOT
  62
1
  10
 67.411588753559
  20
 204.28880509576
  30
0.0
  11
 67.411588753559
  21
 208.87213622865
  31
0.0
   0
LINE
   5
24B
 100
AcDbEntity
   8
LEVEL001
 100
AcDbLine
   6
DOT
  62
1
  10
 65.411611733727
  20
 209.12273248838
  30
0.0
  11
 67.611588753559
  21
 209.12273248838
  31
0.0
   0
LINE
   5
24C
 100
AcDbEntity
   8
LEVEL001
 100
AcDbLine
   6
DOT
  62
1
  10
 68.911588753559
  20
 208.87213622865
  30
0.0
  11
 67.411588753559
  21
 208.87213622865
  31
0.0
   0
LINE
   5
24D
 100
AcDbEntity
   8
LEVEL001
 100
AcDbLine
   6
DOT
  62
1
  10
 68.111588753559
  20
 204.62273248838
  30
0.0
  11
 68.111588753559
  21
 208.62273248838
  31
0.0
   0
LINE
   5
24E
 100
AcDbEntity
   8
LEVEL001
 100
AcDbLine
   6
DOT
  62
1
  10
 68.911588753559
  20
 204.83820883602
  30
0.0
  11
 66.311588753559
  21
 204.83820883602
  31
0.0
   0
LINE
   5
24F
 100
AcDbEntity
   8
LEVEL001
 100
AcDbLine
   6
DOT
  62
1
  10
 68.911588753559
  20
 205.47213622866
  30
0.0
  11
 67.411588753559
  21
 205.47213622866
  31
0.0
   0
LINE
   5
250
 100
AcDbEntity
   8
LEVEL001
 100
AcDbLine
   6
DOT
  62
1
  10
 68.911588753559
  20
 208.23820883601
  30
0.0
  11
 66.311588753559
  21
 208.23820883601
  31
0.0
   0
LINE
   5
251
 100
AcDbEntity
   8
LEVEL001
 100
AcDbLine
   6
DOT
  62
1
  10
 65.911588753559
  20
 153.62273248838
  30
0.0
  11
 65.911588753559
  21
 204.96942055692
  31
0.0
   0
LINE
   5
252
 100
AcDbEntity
   8
LEVEL001
 100
AcDbLine
   6
DOT
  62
1
  10
 67.111588753559
  20
 205.12273248838
  30
0.0
  11
 67.111588753559
  21
 208.12273248838
  31
0.0
   0
LINE
   5
253
 100
AcDbEntity
   8
LEVEL001
 100
AcDbLine
   6
DOT
  62
1
  10
 67.411588753559
  20
 204.28880509576
  30
0.0
  11
 66.311588753559
  21
 204.28880509576
  31
0.0
   0
LINE
   5
254
 100
AcDbEntity
   8
LEVEL001
 100
AcDbLine
   6
DOT
  62
1
  10
 65.941026005082
  20
 208.12273248838
  30
0.0
  11
 67.111588753559
  21
 208.12273248838
  31
0.0
   0
LINE
   5
255
 100
AcDbEntity
   8
LEVEL001
 100
AcDbLine
   6
DOT
  62
1
  10
 67.411588753559
  20
 207.68880509575
  30
0.0
  11
 66.311588753559
  21
 207.68880509575
  31
0.0
   0
LINE
   5
256
 100
AcDbEntity
   8
LEVEL001
 100
AcDbLine
   6
DOT
  62
1
  10
 65.874863716158
  20
 205.12273248838
  30
0.0
  11
 67.111588753559
  21
 205.12273248838
  31
0.0
   0
LINE
   5
257
 100
AcDbEntity
   8
LEVEL001
 100
AcDbLine
   6
DOT
  62
1
  10
 66.146554245370
  20
 204.12273248838
  30
0.0
  11
 67.611588753559
  21
 204.12273248838
  31
0.0
   0
LINE
   5
258
 100
AcDbEntity
   8
LEVEL001
 100
AcDbLine
   6
DOT
  62
1
  10
 66.311588753559
  20
 204.12273248838
  30
0.0
  11
 66.311588753559
  21
 208.23820883601
  31
0.0
   0
ARC
   5
259
 100
AcDbEntity
   8
LEVEL001
   6
DOT
  62
1
 100
AcDbCircle
  10
 66.311588753559
  20
 202.92273248839
  30
0.0
  40
 0.20000000000000
 100
AcDbArc
  50
 90.000000000004
  51
 180.00000000197
   0
POINT
   5
25A
 100
AcDbEntity
   8
LEVEL001
 100
AcDbPoint
  62
1
  10
 66.111588753559
  20
 203.12273248838
  30
0.0
   0
ARC
   5
25B
 100
AcDbEntity
   8
LEVEL001
   6
DOT
  62
1
 100
AcDbCircle
  10
 66.911588753559
  20
 202.92273248838
  30
0.0
  40
 0.20000000000000
 100
AcDbArc
  50
0.0
  51
 89.999999999996
   0
POINT
   5
25C
 100
AcDbEntity
   8
LEVEL001
 100
AcDbPoint
  62
1
  10
 67.111588753559
  20
 203.12273248838
  30
0.0
   0
LINE
   5
25D
 100
AcDbEntity
   8
LEVEL001
 100
AcDbLine
   6
DOT
  62
1
  10
 66.311588753559
  20
 203.12273248838
  30
0.0
  11
 66.911588753559
  21
 203.12273248838
  31
0.0
   0
ARC
   5
25E
 100
AcDbEntity
   8
LEVEL001
   6
DOT
  62
1
 100
AcDbCircle
  10
 66.311588753562
  20
 154.32273248838
  30
0.0
  40
 0.20000000000000
 100
AcDbArc
  50
 180.00000000000
  51
 269.99999999920
   0
POINT
   5
25F
 100
AcDbEntity
   8
LEVEL001
 100
AcDbPoint
  62
1
  10
 66.111588753559
  20
 154.12273248838
  30
0.0
   0
ARC
   5
260
 100
AcDbEntity
   8
LEVEL001
   6
DOT
  62
1
 100
AcDbCircle
  10
 66.911588753559
  20
 154.32273248838
  30
0.0
  40
 0.20000000000000
 100
AcDbArc
  50
 270.00000000000
  51
0.0
   0
LINE
   5
261
 100
AcDbEntity
   8
LEVEL001
 100
AcDbLine
   6
DOT
  62
1
  10
 66.311588753559
  20
 154.12273248838
  30
0.0
  11
 66.911588753559
  21
 154.12273248838
  31
0.0
   0
POINT
   5
262
 100
AcDbEntity
   8
LEVEL001
 100
AcDbPoint
  62
1
  10
 67.111588753559
  20
 154.12273248838
  30
0.0
   0
LINE
   5
263
 100
AcDbEntity
   8
LEVEL001
 100
AcDbLine
   6
DOT
  62
1
  10
 66.111588753559
  20
 154.32273248838
  30
0.0
  11
 66.111588753559
  21
 202.92273248838
  31
0.0
   0
LINE
   5
264
 100
AcDbEntity
   8
LEVEL001
 100
AcDbLine
   6
DOT
  62
1
  10
 67.111588753559
  20
 154.32273248838
  30
0.0
  11
 67.111588753559
  21
 202.92273248838
  31
0.0
   0
LINE
   5
265
 100
AcDbEntity
   8
LEVEL001
 100
AcDbLine
   6
DOT
  62
1
  10
 65.911588753559
  20
 153.62273248838
  30
0.0
  11
 82.911588753559
  21
 153.62273248838
  31
0.0
   0
ARC
   5
266
 100
AcDbEntity
   8
LEVEL001
   6
DOT
  62
1
 100
AcDbCircle
  10
 81.411588753561
  20
 154.12273248838
  30
0.0
  40
 0.50000000000000
 100
AcDbArc
  50
 269.99999999978
  51
0.0
   0
LINE
   5
267
 100
AcDbEntity
   8
LEVEL001
 100
AcDbLine
   6
DOT
  62
1
  10
 81.911588753559
  20
 154.12273248838
  30
0.0
  11
 81.911588753559
  21
 210.12273248838
  31
0.0
   0
ARC
   5
268
 100
AcDbEntity
   8
LEVEL001
   6
DOT
  62
1
 100
AcDbCircle
  10
 82.911588753559
  20
 209.12273248838
  30
0.0
  40
 17.500000000000
 100
AcDbArc
  50
 346.78701963984
  51
 90.000000000000
   0
ARC
   5
269
 100
AcDbEntity
   8
LEVEL001
   6
DOT
  62
1
 100
AcDbCircle
  10
 82.911588753559
  20
 209.12273248838
  30
0.0
  40
 17.000000000000
 100
AcDbArc
  50
 356.62771331657
  51
 90.000000000000
   0
ARC
   5
26A
 100
AcDbEntity
   8
LEVEL001
   6
DOT
  62
1
 100
AcDbCircle
  10
 84.411588753559
  20
 224.62273248838
  30
0.0
  40
 0.50000000000000
 100
AcDbArc
  50
 90.000000000000
  51
 180.00000000023
   0
LINE
   5
26B
 100
AcDbEntity
   8
LEVEL001
 100
AcDbLine
   6
DOT
  62
1
  10
 83.911588753559
  20
 213.12273248838
  30
0.0
  11
 83.911588753559
  21
 224.62273248838
  31
0.0
   0
LINE
   5
26C
 100
AcDbEntity
   8
LEVEL001
 100
AcDbLine
   6
DOT
  62
1
  10
 88.656151400097
  20
 225.12273248838
  30
0.0
  11
 82.911588753559
  21
 225.12273248838
  31
0.0
   0
ARC
   5
26D
 100
AcDbEntity
   8
LEVEL001
   6
DOT
  62
1
 100
AcDbCircle
  10
 86.141892746476
  20
 213.12273248839
  30
0.0
  40
 0.50000000000000
 100
AcDbArc
  50
 269.99999999976
  51
 342.54239687548
   0
LINE
   5
26E
 100
AcDbEntity
   8
LEVEL001
 100
AcDbLine
   6
DOT
  62
1
  10
 86.141892746474
  20
 212.62273248838
  30
0.0
  11
 84.411588753559
  21
 212.62273248838
  31
0.0
   0
ARC
   5
26F
 100
AcDbEntity
   8
LEVEL001
   6
DOT
  62
1
 100
AcDbCircle
  10
 84.411588753559
  20
 213.12273248838
  30
0.0
  40
 0.50000000000000
 100
AcDbArc
  50
 180.00000000019
  51
 270.00000000000
   0
ARC
   5
270
 100
AcDbEntity
   8
LEVEL001
   6
DOT
  62
1
 100
AcDbCircle
  10
 90.911588753560
  20
 211.62273248838
  30
0.0
  40
 4.5000000000000
 100
AcDbArc
  50
 17.457603123761
  51
 162.54239687625
   0
CIRCLE
   5
271
 100
AcDbEntity
   8
LEVEL001
 100
AcDbCircle
   6
DOT
  62
1
  10
 90.911588753559
  20
 211.62273248838
  30
0.0
  40
 2.2500000000000
   0
LINE
   5
272
 100
AcDbEntity
   8
LEVEL001
 100
AcDbLine
   6
DASHDOT
  62
3
  10
 90.911588753559
  20
 219.24872292961
  30
0.0
  11
 90.911588753559
  21
 204.17692665490
  31
0.0
   0
LINE
   5
273
 100
AcDbEntity
   8
LEVEL001
 100
AcDbLine
   6
DOT
  62
1
  10
 99.547393513173
  20
 212.62273248838
  30
0.0
  11
 95.681284760644
  21
 212.62273248838
  31
0.0
   0
ARC
   5
274
 100
AcDbEntity
   8
LEVEL001
   6
DOT
  62
1
 100
AcDbCircle
  10
 95.681284760642
  20
 213.12273248838
  30
0.0
  40
 0.50000000000000
 100
AcDbArc
  50
 197.45760312427
  51
 270.00000000017
   0
LINE
   5
275
 100
AcDbEntity
   8
LEVEL001
 100
AcDbLine
   6
DOT
  62
1
  10
 99.845282975435
  20
 210.62273248838
  30
0.0
  11
 95.681284760644
  21
 210.62273248838
  31
0.0
   0
ARC
   5
276
 100
AcDbEntity
   8
LEVEL001
   6
DOT
  62
1
 100
AcDbCircle
  10
 95.681284760643
  20
 210.12273248838
  30
0.0
  40
 0.50000000000000
 100
AcDbArc
  50
 89.999999999951
  51
 162.54239687613
   0
LINE
   5
277
 100
AcDbEntity
   8
LEVEL001
 100
AcDbLine
   6
DOT
  62
1
  10
 86.141892746474
  20
 210.62273248838
  30
0.0
  11
 84.411588753559
  21
 210.62273248838
  31
0.0
   0
ARC
   5
278
 100
AcDbEntity
   8
LEVEL001
   6
DOT
  62
1
 100
AcDbCircle
  10
 86.141892746475
  20
 210.12273248838
  30
0.0
  40
 0.50000000000000
 100
AcDbArc
  50
 17.457603124115
  51
 90.000000000122
   0
ARC
   5
279
 100
AcDbEntity
   8
LEVEL001
   6
DOT
  62
1
 100
AcDbCircle
  10
 84.411588753559
  20
 210.12273248838
  30
0.0
  40
 0.50000000000000
 100
AcDbArc
  50
 90.000000000000
  51
 180.00000000018
   0
ARC
   5
27A
 100
AcDbEntity
   8
LEVEL001
   6
DOT
  62
1
 100
AcDbCircle
  10
 90.911588753558
  20
 211.62273248838
  30
0.0
  40
 4.5000000000000
 100
AcDbArc
  50
 197.45760312370
  51
 342.54239687630
   0
LINE
   5
27B
 100
AcDbEntity
   8
LEVEL001
 100
AcDbLine
   6
DOT
  62
1
  10
 83.911588753559
  20
 199.39388353285
  30
0.0
  11
 82.911588753559
  21
 199.39388353285
  31
0.0
   0
LINE
   5
27C
 100
AcDbEntity
   8
LEVEL001
 100
AcDbLine
   6
DOT
  62
1
  10
 97.151517417690
  20
 198.95049420762
  30
0.0
  11
 82.911588753559
  21
 198.95049420762
  31
0.0
   0
LINE
   5
27D
 100
AcDbEntity
   8
LEVEL001
 100
AcDbLine
   6
DOT
  62
1
  10
 83.911588753559
  20
 154.12273248838
  30
0.0
  11
 83.911588753559
  21
 210.12273248838
  31
0.0
   0
ARC
   5
27E
 100
AcDbEntity
   8
LEVEL001
   6
DOT
  62
1
 100
AcDbCircle
  10
 82.911588753559
  20
 209.12273248838
  30
0.0
  40
 17.500000000000
 100
AcDbArc
  50
 270.00000000000
  51
 346.78701963984
   0
ARC
   5
27F
 100
AcDbEntity
   8
LEVEL001
   6
DOT
  62
1
 100
AcDbCircle
  10
 98.211588753559
  20
 208.62273248838
  30
0.0
  40
 0.50000000000000
 100
AcDbArc
  50
 90.000000000000
  51
 179.99999999972
   0
POINT
   5
280
 100
AcDbEntity
   8
LEVEL001
 100
AcDbPoint
  62
1
  10
 97.711588753559
  20
 209.12273248838
  30
0.0
   0
ARC
   5
281
 100
AcDbEntity
   8
LEVEL001
   6
DOT
  62
1
 100
AcDbCircle
  10
 98.211588753553
  20
 204.62273248838
  30
0.0
  40
 0.50000000000000
 100
AcDbArc
  50
 180.00000000000
  51
 270.00000000072
   0
POINT
   5
282
 100
AcDbEntity
   8
LEVEL001
 100
AcDbPoint
  62
1
  10
 97.711588753559
  20
 204.12273248838
  30
0.0
   0
LINE
   5
283
 100
AcDbEntity
   8
LEVEL001
 100
AcDbLine
   6
DOT
  62
1
  10
 96.911588753559
  20
 204.83820883602
  30
0.0
  11
 96.911588753559
  21
 208.87213622865
  31
0.0
   0
LINE
   5
284
 100
AcDbEntity
   8
LEVEL001
 100
AcDbLine
   6
DOT
  62
1
  10
 98.411588753559
  20
 204.28880509576
  30
0.0
  11
 98.411588753559
  21
 208.87213622865
  31
0.0
   0
LINE
   5
285
 100
AcDbEntity
   8
LEVEL001
 100
AcDbLine
   6
DOT
  62
1
  10
 100.41156577339
  20
 209.12273248838
  30
0.0
  11
 98.211588753559
  21
 209.12273248838
  31
0.0
   0
LINE
   5
286
 100
AcDbEntity
   8
LEVEL001
 100
AcDbLine
   6
DOT
  62
1
  10
 96.911588753559
  20
 208.87213622865
  30
0.0
  11
 98.411588753559
  21
 208.87213622865
  31
0.0
   0
LINE
   5
287
 100
AcDbEntity
   8
LEVEL001
 100
AcDbLine
   6
DOT
  62
1
  10
 97.711588753559
  20
 204.62273248838
  30
0.0
  11
 97.711588753559
  21
 208.62273248838
  31
0.0
   0
LINE
   5
288
 100
AcDbEntity
   8
LEVEL001
 100
AcDbLine
   6
DOT
  62
1
  10
 96.911588753559
  20
 204.83820883602
  30
0.0
  11
 99.511588753559
  21
 204.83820883602
  31
0.0
   0
LINE
   5
289
 100
AcDbEntity
   8
LEVEL001
 100
AcDbLine
   6
DOT
  62
1
  10
 96.911588753559
  20
 205.47213622866
  30
0.0
  11
 98.411588753559
  21
 205.47213622866
  31
0.0
   0
LINE
   5
28A
 100
AcDbEntity
   8
LEVEL001
 100
AcDbLine
   6
DOT
  62
1
  10
 96.911588753559
  20
 208.23820883601
  30
0.0
  11
 99.511588753559
  21
 208.23820883601
  31
0.0
   0
LINE
   5
28B
 100
AcDbEntity
   8
LEVEL001
 100
AcDbLine
   6
DOT
  62
1
  10
 98.711588753559
  20
 205.12273248838
  30
0.0
  11
 98.711588753559
  21
 208.12273248838
  31
0.0
   0
LINE
   5
28C
 100
AcDbEntity
   8
LEVEL001
 100
AcDbLine
   6
DOT
  62
1
  10
 98.411588753559
  20
 204.28880509576
  30
0.0
  11
 99.511588753559
  21
 204.28880509576
  31
0.0
   0
LINE
   5
28D
 100
AcDbEntity
   8
LEVEL001
 100
AcDbLine
   6
DOT
  62
1
  10
 99.882151502036
  20
 208.12273248838
  30
0.0
  11
 98.711588753559
  21
 208.12273248838
  31
0.0
   0
LINE
   5
28E
 100
AcDbEntity
   8
LEVEL001
 100
AcDbLine
   6
DOT
  62
1
  10
 98.411588753559
  20
 207.68880509575
  30
0.0
  11
 99.511588753559
  21
 207.68880509575
  31
0.0
   0
LINE
   5
28F
 100
AcDbEntity
   8
LEVEL001
 100
AcDbLine
   6
DOT
  62
1
  10
 99.948313790960
  20
 205.12273248838
  30
0.0
  11
 98.711588753559
  21
 205.12273248838
  31
0.0
   0
LINE
   5
290
 100
AcDbEntity
   8
LEVEL001
 100
AcDbLine
   6
DOT
  62
1
  10
 99.676623261749
  20
 204.12273248838
  30
0.0
  11
 98.211588753559
  21
 204.12273248838
  31
0.0
   0
LINE
   5
291
 100
AcDbEntity
   8
LEVEL001
 100
AcDbLine
   6
DOT
  62
1
  10
 99.911588753559
  20
 153.62273248838
  30
0.0
  11
 99.911588753559
  21
 204.96942055692
  31
0.0
   0
ARC
   5
292
 100
AcDbEntity
   8
LEVEL001
   6
DOT
  62
1
 100
AcDbCircle
  10
 99.511588753559
  20
 202.92273248839
  30
0.0
  40
 0.20000000000000
 100
AcDbArc
  50
0.0
  51
 90.000000000000
   0
POINT
   5
293
 100
AcDbEntity
   8
LEVEL001
 100
AcDbPoint
  62
1
  10
 99.711588753559
  20
 203.12273248838
  30
0.0
   0
ARC
   5
294
 100
AcDbEntity
   8
LEVEL001
   6
DOT
  62
1
 100
AcDbCircle
  10
 98.911588753559
  20
 202.92273248839
  30
0.0
  40
 0.20000000000000
 100
AcDbArc
  50
 90.000000000000
  51
 180.00000000313
   0
POINT
   5
295
 100
AcDbEntity
   8
LEVEL001
 100
AcDbPoint
  62
1
  10
 98.711588753559
  20
 203.12273248838
  30
0.0
   0
LINE
   5
296
 100
AcDbEntity
   8
LEVEL001
 100
AcDbLine
   6
DOT
  62
1
  10
 99.511588753559
  20
 203.12273248838
  30
0.0
  11
 98.911588753559
  21
 203.12273248838
  31
0.0
   0
LINE
   5
297
 100
AcDbEntity
   8
LEVEL001
 100
AcDbLine
   6
DOT
  62
1
  10
 99.711588753559
  20
 154.32273248838
  30
0.0
  11
 99.711588753559
  21
 202.92273248838
  31
0.0
   0
LINE
   5
298
 100
AcDbEntity
   8
LEVEL001
 100
AcDbLine
   6
DOT
  62
1
  10
 98.711588753559
  20
 154.32273248838
  30
0.0
  11
 98.711588753559
  21
 202.92273248838
  31
0.0
   0
LINE
   5
299
 100
AcDbEntity
   8
LEVEL001
 100
AcDbLine
   6
DOT
  62
1
  10
 99.511588753559
  20
 204.12273248838
  30
0.0
  11
 99.511588753559
  21
 208.23820883601
  31
0.0
   0
ARC
   5
29A
 100
AcDbEntity
   8
LEVEL001
   6
DOT
  62
1
 100
AcDbCircle
  10
 99.511588753556
  20
 154.32273248838
  30
0.0
  40
 0.20000000000000
 100
AcDbArc
  50
 270.00000000074
  51
0.0
   0
POINT
   5
29B
 100
AcDbEntity
   8
LEVEL001
 100
AcDbPoint
  62
1
  10
 99.711588753559
  20
 154.12273248838
  30
0.0
   0
ARC
   5
29C
 100
AcDbEntity
   8
LEVEL001
   6
DOT
  62
1
 100
AcDbCircle
  10
 98.911588753559
  20
 154.32273248838
  30
0.0
  40
 0.20000000000000
 100
AcDbArc
  50
 180.00000000063
  51
 270.00000000000
   0
LINE
   5
29D
 100
AcDbEntity
   8
LEVEL001
 100
AcDbLine
   6
DOT
  62
1
  10
 99.511588753559
  20
 154.12273248838
  30
0.0
  11
 98.911588753559
  21
 154.12273248838
  31
0.0
   0
POINT
   5
29E
 100
AcDbEntity
   8
LEVEL001
 100
AcDbPoint
  62
1
  10
 98.711588753559
  20
 154.12273248838
  30
0.0
   0
LINE
   5
29F
 100
AcDbEntity
   8
LEVEL001
 100
AcDbLine
   6
DOT
  62
1
  10
 99.911588753559
  20
 153.62273248838
  30
0.0
  11
 82.911588753559
  21
 153.62273248838
  31
0.0
   0
ARC
   5
2A0
 100
AcDbEntity
   8
LEVEL001
   6
DOT
  62
1
 100
AcDbCircle
  10
 84.411588753557
  20
 154.12273248838
  30
0.0
  40
 0.50000000000000
 100
AcDbArc
  50
 180.00000000000
  51
 270.00000000023
   0
ARC
   5
2A1
 100
AcDbEntity
   8
LEVEL001
   6
DOT
  62
1
 100
AcDbCircle
  10
 66.111588753562
  20
 150.87273248838
  30
0.0
  40
 0.50000000000000
 100
AcDbArc
  50
 90.000000000300
  51
 180.00000000000
   0
POINT
   5
2A2
 100
AcDbEntity
   8
LEVEL001
 100
AcDbPoint
  62
1
  10
 65.611588753559
  20
 151.37273248838
  30
0.0
   0
ARC
   5
2A3
 100
AcDbEntity
   8
LEVEL001
   6
DOT
  62
1
 100
AcDbCircle
  10
 71.161588753559
  20
 150.87273248838
  30
0.0
  40
 0.50000000000000
 100
AcDbArc
  50
0.0
  51
 90.000000000000
   0
POINT
   5
2A4
 100
AcDbEntity
   8
LEVEL001
 100
AcDbPoint
  62
1
  10
 71.661588753559
  20
 151.37273248838
  30
0.0
   0
LINE
   5
2A5
 100
AcDbEntity
   8
LEVEL001
 100
AcDbLine
   6
DOT
  62
1
  10
 71.661588753559
  20
 149.12273248838
  30
0.0
  11
 71.661588753559
  21
 150.87273248838
  31
0.0
   0
LINE
   5
2A6
 100
AcDbEntity
   8
LEVEL001
 100
AcDbLine
   6
DOT
  62
1
  10
 65.611588753559
  20
 149.12273248838
  30
0.0
  11
 65.611588753559
  21
 150.87273248838
  31
0.0
   0
LINE
   5
2A7
 100
AcDbEntity
   8
LEVEL001
 100
AcDbLine
   6
DOT
  62
1
  10
 70.661588753559
  20
 149.12273248838
  30
0.0
  11
 70.661588753559
  21
 153.62273248838
  31
0.0
   0
LINE
   5
2A8
 100
AcDbEntity
   8
LEVEL001
 100
AcDbLine
   6
DOT
  62
1
  10
 74.211588753559
  20
 153.62273248838
  30
0.0
  11
 74.211588753559
  21
 149.12273248838
  31
0.0
   0
LINE
   5
2A9
 100
AcDbEntity
   8
LEVEL001
 100
AcDbLine
   6
DOT
  62
1
  10
 75.161588753559
  20
 149.12273248838
  30
0.0
  11
 75.161588753559
  21
 153.62273248838
  31
0.0
   0
LINE
   5
2AA
 100
AcDbEntity
   8
LEVEL001
 100
AcDbLine
   6
DOT
  62
1
  10
 77.611588753559
  20
 153.62273248838
  30
0.0
  11
 77.611588753559
  21
 149.12273248838
  31
0.0
   0
LINE
   5
2AB
 100
AcDbEntity
   8
LEVEL001
 100
AcDbLine
   6
DOT
  62
1
  10
 80.661588753559
  20
 149.12273248838
  30
0.0
  11
 80.661588753559
  21
 153.62273248838
  31
0.0
   0
ARC
   5
2AC
 100
AcDbEntity
   8
LEVEL001
   6
DOT
  62
1
 100
AcDbCircle
  10
 81.161588753559
  20
 150.87273248838
  30
0.0
  40
 0.50000000000000
 100
AcDbArc
  50
0.0
  51
 90.000000000000
   0
POINT
   5
2AD
 100
AcDbEntity
   8
LEVEL001
 100
AcDbPoint
  62
1
  10
 81.661588753559
  20
 151.37273248838
  30
0.0
   0
LINE
   5
2AE
 100
AcDbEntity
   8
LEVEL001
 100
AcDbLine
   6
DOT
  62
1
  10
 81.661588753559
  20
 149.12273248838
  30
0.0
  11
 81.661588753559
  21
 150.87273248838
  31
0.0
   0
LINE
   5
2AF
 100
AcDbEntity
   8
LEVEL001
 100
AcDbLine
   6
DOT
  62
1
  10
 66.111588753559
  20
 151.37273248838
  30
0.0
  11
 71.161588753559
  21
 151.37273248838
  31
0.0
   0
POINT
   5
2B0
 100
AcDbEntity
   8
LEVEL001
 100
AcDbPoint
  62
1
  10
 74.161588753559
  20
 151.37273248838
  30
0.0
   0
ARC
   5
2B1
 100
AcDbEntity
   8
LEVEL001
   6
DOT
  62
1
 100
AcDbCircle
  10
 74.661588753559
  20
 150.87273248838
  30
0.0
  40
 0.50000000000000
 100
AcDbArc
  50
 90.000000000000
  51
 180.00000000021
   0
LINE
   5
2B2
 100
AcDbEntity
   8
LEVEL001
 100
AcDbLine
   6
DOT
  62
1
  10
 74.161588753559
  20
 149.12273248838
  30
0.0
  11
 74.161588753559
  21
 150.87273248838
  31
0.0
   0
ARC
   5
2B3
 100
AcDbEntity
   8
LEVEL001
   6
DOT
  62
1
 100
AcDbCircle
  10
 74.711588753562
  20
 149.62273248838
  30
0.0
  40
 0.30000000000000
 100
AcDbArc
  50
 180.00000000000
  51
 269.99999999951
   0
ARC
   5
2B4
 100
AcDbEntity
   8
LEVEL001
   6
DOT
  62
1
 100
AcDbCircle
  10
 77.111588753559
  20
 149.62273248837
  30
0.0
  40
 0.30000000000000
 100
AcDbArc
  50
 270.00000000000
  51
 0.91192863826918E-9
   0
LINE
   5
2B5
 100
AcDbEntity
   8
LEVEL001
 100
AcDbLine
   6
DOT
  62
1
  10
 74.711588753559
  20
 149.32273248838
  30
0.0
  11
 77.111588753559
  21
 149.32273248838
  31
0.0
   0
LINE
   5
2B6
 100
AcDbEntity
   8
LEVEL001
 100
AcDbLine
   6
DOT
  62
1
  10
 74.411588753559
  20
 149.62273248838
  30
0.0
  11
 74.411588753559
  21
 152.96723940889
  31
0.0
   0
LINE
   5
2B7
 100
AcDbEntity
   8
LEVEL001
 100
AcDbLine
   6
DOT
  62
1
  10
 77.411588753559
  20
 149.62273248838
  30
0.0
  11
 77.411588753559
  21
 152.96723940889
  31
0.0
   0
LINE
   5
2B8
 100
AcDbEntity
   8
LEVEL001
 100
AcDbLine
   6
DOT
  62
1
  10
 74.411588753559
  20
 152.96723940889
  30
0.0
  11
 77.411588753559
  21
 152.96723940889
  31
0.0
   0
LINE
   5
2B9
 100
AcDbEntity
   8
LEVEL001
 100
AcDbLine
   6
DOT
  62
1
  10
 74.661588753559
  20
 151.37273248838
  30
0.0
  11
 81.161588753559
  21
 151.37273248838
  31
0.0
   0
ARC
   5
2BA
 100
AcDbEntity
   8
LEVEL001
   6
DOT
  62
1
 100
AcDbCircle
  10
 99.711588753560
  20
 150.87273248838
  30
0.0
  40
 0.50000000000000
 100
AcDbArc
  50
0.0
  51
 90.000000000111
   0
POINT
   5
2BB
 100
AcDbEntity
   8
LEVEL001
 100
AcDbPoint
  62
1
  10
 100.21158875356
  20
 151.37273248838
  30
0.0
   0
ARC
   5
2BC
 100
AcDbEntity
   8
LEVEL001
   6
DOT
  62
1
 100
AcDbCircle
  10
 94.661588753559
  20
 150.87273248838
  30
0.0
  40
 0.50000000000000
 100
AcDbArc
  50
 90.000000000000
  51
 180.00000000021
   0
POINT
   5
2BD
 100
AcDbEntity
   8
LEVEL001
 100
AcDbPoint
  62
1
  10
 94.161588753559
  20
 151.37273248838
  30
0.0
   0
LINE
   5
2BE
 100
AcDbEntity
   8
LEVEL001
 100
AcDbLine
   6
DOT
  62
1
  10
 95.161588753559
  20
 149.12273248838
  30
0.0
  11
 95.161588753559
  21
 153.62273248838
  31
0.0
   0
LINE
   5
2BF
 100
AcDbEntity
   8
LEVEL001
 100
AcDbLine
   6
DOT
  62
1
  10
 99.711588753559
  20
 151.37273248838
  30
0.0
  11
 94.661588753559
  21
 151.37273248838
  31
0.0
   0
LINE
   5
2C0
 100
AcDbEntity
   8
LEVEL001
 100
AcDbLine
   6
DOT
  62
1
  10
 94.161588753559
  20
 149.12273248838
  30
0.0
  11
 94.161588753559
  21
 150.87273248838
  31
0.0
   0
LINE
   5
2C1
 100
AcDbEntity
   8
LEVEL001
 100
AcDbLine
   6
DOT
  62
1
  10
 100.21158875356
  20
 149.12273248838
  30
0.0
  11
 100.21158875356
  21
 150.87273248838
  31
0.0
   0
LINE
   5
2C2
 100
AcDbEntity
   8
LEVEL001
 100
AcDbLine
   6
DOT
  62
1
  10
 91.611588753559
  20
 153.62273248838
  30
0.0
  11
 91.611588753559
  21
 149.12273248838
  31
0.0
   0
LINE
   5
2C3
 100
AcDbEntity
   8
LEVEL001
 100
AcDbLine
   6
DOT
  62
1
  10
 90.661588753559
  20
 149.12273248838
  30
0.0
  11
 90.661588753559
  21
 153.62273248838
  31
0.0
   0
LINE
   5
2C4
 100
AcDbEntity
   8
LEVEL001
 100
AcDbLine
   6
DOT
  62
1
  10
 88.211588753559
  20
 153.62273248838
  30
0.0
  11
 88.211588753559
  21
 149.12273248838
  31
0.0
   0
LINE
   5
2C5
 100
AcDbEntity
   8
LEVEL001
 100
AcDbLine
   6
DOT
  62
1
  10
 91.661588753559
  20
 149.12273248838
  30
0.0
  11
 91.661588753559
  21
 150.87273248838
  31
0.0
   0
ARC
   5
2C6
 100
AcDbEntity
   8
LEVEL001
   6
DOT
  62
1
 100
AcDbCircle
  10
 91.111588753556
  20
 149.62273248838
  30
0.0
  40
 0.30000000000000
 100
AcDbArc
  50
 270.00000000055
  51
 0.54281466563125E-11
   0
ARC
   5
2C7
 100
AcDbEntity
   8
LEVEL001
   6
DOT
  62
1
 100
AcDbCircle
  10
 88.711588753559
  20
 149.62273248837
  30
0.0
  40
 0.30000000000000
 100
AcDbArc
  50
 179.99999999915
  51
 270.00000000000
   0
LINE
   5
2C8
 100
AcDbEntity
   8
LEVEL001
 100
AcDbLine
   6
DOT
  62
1
  10
 91.411588753559
  20
 149.62273248838
  30
0.0
  11
 91.411588753559
  21
 152.96723940889
  31
0.0
   0
LINE
   5
2C9
 100
AcDbEntity
   8
LEVEL001
 100
AcDbLine
   6
DOT
  62
1
  10
 88.411588753559
  20
 149.62273248838
  30
0.0
  11
 88.411588753559
  21
 152.96723940889
  31
0.0
   0
LINE
   5
2CA
 100
AcDbEntity
   8
LEVEL001
 100
AcDbLine
   6
DOT
  62
1
  10
 91.111588753559
  20
 149.32273248838
  30
0.0
  11
 88.711588753559
  21
 149.32273248838
  31
0.0
   0
LINE
   5
2CB
 100
AcDbEntity
   8
LEVEL001
 100
AcDbLine
   6
DOT
  62
1
  10
 91.161588753559
  20
 151.37273248838
  30
0.0
  11
 84.661588753559
  21
 151.37273248838
  31
0.0
   0
POINT
   5
2CC
 100
AcDbEntity
   8
LEVEL001
 100
AcDbPoint
  62
1
  10
 91.661588753559
  20
 151.37273248838
  30
0.0
   0
ARC
   5
2CD
 100
AcDbEntity
   8
LEVEL001
   6
DOT
  62
1
 100
AcDbCircle
  10
 91.161588753559
  20
 150.87273248838
  30
0.0
  40
 0.50000000000000
 100
AcDbArc
  50
0.0
  51
 90.000000000000
   0
LINE
   5
2CE
 100
AcDbEntity
   8
LEVEL001
 100
AcDbLine
   6
DOT
  62
1
  10
 91.411588753559
  20
 152.96723940889
  30
0.0
  11
 88.411588753559
  21
 152.96723940889
  31
0.0
   0
ARC
   5
2CF
 100
AcDbEntity
   8
LEVEL001
   6
DOT
  62
1
 100
AcDbCircle
  10
 84.661588753559
  20
 150.87273248838
  30
0.0
  40
 0.50000000000000
 100
AcDbArc
  50
 90.000000000000
  51
 180.00000000021
   0
POINT
   5
2D0
 100
AcDbEntity
   8
LEVEL001
 100
AcDbPoint
  62
1
  10
 84.161588753559
  20
 151.37273248838
  30
0.0
   0
LINE
   5
2D1
 100
AcDbEntity
   8
LEVEL001
 100
AcDbLine
   6
DOT
  62
1
  10
 85.161588753559
  20
 149.12273248838
  30
0.0
  11
 85.161588753559
  21
 153.62273248838
  31
0.0
   0
LINE
   5
2D2
 100
AcDbEntity
   8
LEVEL001
 100
AcDbLine
   6
DOT
  62
1
  10
 84.161588753559
  20
 149.12273248838
  30
0.0
  11
 84.161588753559
  21
 150.87273248838
  31
0.0
   0
LINE
   5
2D3
 100
AcDbEntity
   8
LEVEL001
 100
AcDbLine
   6
DASHDOT
  62
3
  10
 59.517845844040
  20
 209.12273248838
  30
0.0
  11
 63.254700031052
  21
 209.12273248838
  31
0.0
   0
DIMENSION
   5
2D4
 100
AcDbEntity
   8
LEVEL001
   6
CONTINUOUS
  62
3
 100
AcDbDimension
   2
*D1
  10
 55.016566465550
  20
 153.62273248838
  30
0.0
  11
 55.016566465550
  21
 146.49433162172
  31
0.0
  70
128
   3
GMM001
 100
AcDbAlignedDimension
  13
 63.911588753559
  23
 149.12273248838
  33
0.0
  14
 65.911588753559
  24
 153.62273248838
  34
0.0
  50
 90.000000000000
 100
AcDbRotatedDimension
   0
LINE
   5
2D5
 100
AcDbEntity
   8
LEVEL001
 100
AcDbLine
   6
DASHDOT
  62
3
  10
 138.43264324597
  20
 149.12273248838
  30
0.0
  11
 138.43264324597
  21
 191.78864188671
  31
0.0
   0
DIMENSION
   5
2D6
 100
AcDbEntity
   8
LEVEL001
   6
CONTINUOUS
  62
3
 100
AcDbDimension
   2
*D2
  10
 166.41110273527
  20
 209.12273248838
  30
0.0
  11
 148.42034936781
  21
 194.17436342424
  31
0.0
  70
2
   3
GMM002
 100
AcDb2LineAngularDimension
  13
 138.43264324597
  23
 149.12273248838
  33
0.0
  14
 138.43264324597
  24
 191.78864188671
  34
0.0
  15
 139.22536626484
  25
 150.82273248838
  35
0.0
  16
 138.43310470060
  26
 195.26819514013
  36
0.0
   0
LINE
   5
2D7
 100
AcDbEntity
   8
LEVEL001
 100
AcDbLine
   6
DASHDOT
  62
3
  10
 172.09700844844
  20
 224.82273248838
  30
0.0
  11
 179.04552741381
  21
 224.82273248838
  31
0.0
   0
ARC
   5
2D8
 100
AcDbEntity
   8
LEVEL001
   6
DOT
  62
1
 100
AcDbCircle
  10
 175.60787543052
  20
 224.82273248838
  30
0.0
  40
 0.50000000000000
 100
AcDbArc
  50
 281.86989764496
  51
 26.719671662053
   0
ARC
   5
2D9
 100
AcDbEntity
   8
LEVEL001
   6
CONTINUOUS
  62
7
 100
AcDbCircle
  10
 82.911588753564
  20
 209.12273248838
  30
0.0
  40
 19.000000000000
 100
AcDbArc
  50
 90.000000000015
  51
 114.90106237038
   0
ARC
   5
2DA
 100
AcDbEntity
   8
LEVEL001
   6
CONTINUOUS
  62
7
 100
AcDbCircle
  10
 82.911588753556
  20
 209.12273248838
  30
0.0
  40
 19.000000000000
 100
AcDbArc
  50
 65.098937629622
  51
 89.999999999990
   0
LINE
   5
2DB
 100
AcDbEntity
   8
LEVEL001
 100
AcDbLine
   6
DOT
  62
1
  10
 176.07878110365
  20
 225.12273248838
  30
0.0
  11
 190.23331882967
  21
 225.12273248838
  31
0.0
   0
LINE
   5
2DC
 100
AcDbEntity
   8
LEVEL001
 100
AcDbLine
   6
DOT
  62
1
  10
 190.23331882967
  20
 226.62273248838
  30
0.0
  11
 206.23331882967
  21
 226.62273248838
  31
0.0
   0
LINE
   5
2DD
 100
AcDbEntity
   8
LEVEL001
 100
AcDbLine
   6
DOT
  62
1
  10
 188.23331882967
  20
 216.12273248838
  30
0.0
  11
 190.23331882967
  21
 216.12273248838
  31
0.0
   0
LINE
   5
2DE
 100
AcDbEntity
   8
LEVEL001
 100
AcDbLine
   6
DOT
  62
1
  10
 192.23331882967
  20
 191.62273248838
  30
0.0
  11
 192.23331882967
  21
 226.62273248838
  31
0.0
   0
LINE
   5
2DF
 100
AcDbEntity
   8
LEVEL001
 100
AcDbLine
   6
DOT
  62
1
  10
 190.23331882967
  20
 198.95049420762
  30
0.0
  11
 190.23331882967
  21
 226.62273248838
  31
0.0
   0
LINE
   5
2E0
 100
AcDbEntity
   8
LEVEL001
 100
AcDbLine
   6
DOT
  62
1
  10
 188.23331882967
  20
 199.39388353300
  30
0.0
  11
 188.23331882967
  21
 225.12273248838
  31
0.0
   0
LINE
   5
2E1
 100
AcDbEntity
   8
LEVEL001
 100
AcDbLine
   6
DOT
  62
1
  10
 188.23331882967
  20
 207.12273248838
  30
0.0
  11
 190.23331882967
  21
 207.12273248838
  31
0.0
   0
LINE
   5
2E2
 100
AcDbEntity
   8
LEVEL001
 100
AcDbLine
   6
DOT
  62
1
  10
 188.23331882967
  20
 210.62273248838
  30
0.0
  11
 190.23331882967
  21
 210.62273248838
  31
0.0
   0
LINE
   5
2E3
 100
AcDbEntity
   8
LEVEL001
 100
AcDbLine
   6
DOT
  62
1
  10
 190.23331882967
  20
 213.87573248838
  30
0.0
  11
 192.23331882967
  21
 213.87573248838
  31
0.0
   0
LINE
   5
2E4
 100
AcDbEntity
   8
LEVEL001
 100
AcDbLine
   6
DOT
  62
1
  10
 190.23331882967
  20
 209.37273248838
  30
0.0
  11
 192.23331882967
  21
 209.37273248838
  31
0.0
   0
LINE
   5
2E5
 100
AcDbEntity
   8
LEVEL001
 100
AcDbLine
   6
DASHDOT
  62
3
  10
 177.06430873886
  20
 211.62273248838
  30
0.0
  11
 211.27055687654
  21
 211.62273248838
  31
0.0
   0
LINE
   5
2E6
 100
AcDbEntity
   8
LEVEL001
 100
AcDbLine
   6
DOT
  62
1
  10
 169.09663641296
  20
 153.62273248838
  30
0.0
  11
 190.23331882967
  21
 198.95049420762
  31
0.0
   0
LINE
   5
2E7
 100
AcDbEntity
   8
LEVEL001
 100
AcDbLine
   6
DOT
  62
1
  10
 188.47139430123
  20
 191.62273248838
  30
0.0
  11
 206.23331882967
  21
 191.62273248838
  31
0.0
   0
LINE
   5
2E8
 100
AcDbEntity
   8
LEVEL001
 100
AcDbLine
   6
DASHDOT
  62
3
  10
 161.91627307460
  20
 206.62273248838
  30
0.0
  11
 171.98410418226
  21
 206.62273248838
  31
0.0
   0
LINE
   5
2E9
 100
AcDbEntity
   8
LEVEL001
 100
AcDbLine
   6
DASHDOT
  62
3
  10
 162.49757728917
  20
 209.60274630297
  30
0.0
  11
 172.56406016149
  21
 204.90866824892
  31
0.0
   0
POINT
   5
2EA
 100
AcDbEntity
   8
LEVEL001
 100
AcDbPoint
  62
1
  10
 171.03866542191
  20
 207.68880509575
  30
0.0
   0
ARC
   5
2EB
 100
AcDbEntity
   8
LEVEL001
   6
DOT
  62
1
 100
AcDbCircle
  10
 170.63998760728
  20
 207.54369823817
  30
0.0
  40
 0.30000000000000
 100
AcDbArc
  50
 334.99999999885
  51
 65.000000000017
   0
ARC
   5
2EC
 100
AcDbEntity
   8
LEVEL001
   6
DOT
  62
1
 100
AcDbCircle
  10
 169.30811252660
  20
 204.68748291039
  30
0.0
  40
 0.30000000000000
 100
AcDbArc
  50
 245.00000000000
  51
 335.00000000082
   0
POINT
   5
2ED
 100
AcDbEntity
   8
LEVEL001
 100
AcDbPoint
  62
1
  10
 169.45321938419
  20
 204.28880509576
  30
0.0
   0
LINE
   5
2EE
 100
AcDbEntity
   8
LEVEL001
 100
AcDbLine
   6
DOT
  62
1
  10
 168.27501926105
  20
 204.83820883602
  30
0.0
  11
 169.86046529877
  21
 208.23820883601
  31
0.0
   0
LINE
   5
2EF
 100
AcDbEntity
   8
LEVEL001
 100
AcDbLine
   6
DOT
  62
1
  10
 168.24481244664
  20
 208.32273248838
  30
0.0
  11
 169.67920374136
  21
 208.32273248838
  31
0.0
   0
LINE
   5
2F0
 100
AcDbEntity
   8
LEVEL001
 100
AcDbLine
   6
DOT
  62
1
  10
 166.51947411147
  20
 204.62273248838
  30
0.0
  11
 167.95386540618
  21
 204.62273248838
  31
0.0
   0
LINE
   5
2F1
 100
AcDbEntity
   8
LEVEL001
 100
AcDbLine
   6
DOT
  62
1
  10
 168.50100361815
  20
 208.87213622865
  30
0.0
  11
 170.76677308580
  21
 207.81559057428
  31
0.0
   0
LINE
   5
2F2
 100
AcDbEntity
   8
LEVEL001
 100
AcDbLine
   6
DOT
  62
1
  10
 166.91555758043
  20
 205.47213622866
  30
0.0
  11
 169.18132704807
  21
 204.41559057429
  31
0.0
   0
LINE
   5
2F3
 100
AcDbEntity
   8
LEVEL001
 100
AcDbLine
   6
DOT
  62
1
  10
 167.95386540618
  20
 204.62273248838
  30
0.0
  11
 169.67920374136
  21
 208.32273248838
  31
0.0
   0
LINE
   5
2F4
 100
AcDbEntity
   8
LEVEL001
 100
AcDbLine
   6
DOT
  62
1
  10
 169.58000486271
  20
 204.56069743188
  30
0.0
  11
 170.91187994339
  21
 207.41691275964
  31
0.0
   0
LINE
   5
2F5
 100
AcDbEntity
   8
LEVEL001
 100
AcDbLine
   6
DOT
  62
1
  10
 165.82001262421
  20
 203.12273248832
  30
0.0
  11
 166.54505885389
  21
 202.78463787891
  31
0.0
   0
LINE
   5
2F6
 100
AcDbEntity
   8
LEVEL001
 100
AcDbLine
   6
DOT
  62
1
  10
 143.85363970990
  20
 154.12273248837
  30
0.0
  11
 166.54505885390
  21
 202.78463787890
  31
0.0
   0
LINE
   5
2F7
 100
AcDbEntity
   8
LEVEL001
 100
AcDbLine
   6
DOT
  62
1
  10
 142.97093737464
  20
 154.12273248838
  30
0.0
  11
 143.85363970987
  21
 154.12273248838
  31
0.0
   0
LINE
   5
2F8
 100
AcDbEntity
   8
LEVEL001
 100
AcDbLine
   6
DOT
  62
1
  10
 146.38939882967
  20
 149.12273248838
  30
0.0
  11
 146.38939882967
  21
 153.62273248838
  31
0.0
   0
LINE
   5
2F9
 100
AcDbEntity
   8
LEVEL001
 100
AcDbLine
   6
DOT
  62
1
  10
 150.88939882967
  20
 149.12273248838
  30
0.0
  11
 150.88939882967
  21
 153.62273248838
  31
0.0
   0
ARC
   5
2FA
 100
AcDbEntity
   8
LEVEL001
   6
DOT
  62
1
 100
AcDbCircle
  10
 150.40331882967
  20
 150.87273248838
  30
0.0
  40
 0.50000000000000
 100
AcDbArc
  50
 90.000000000000
  51
 180.00000000023
   0
POINT
   5
2FB
 100
AcDbEntity
   8
LEVEL001
 100
AcDbPoint
  62
1
  10
 149.90331882967
  20
 151.37273248838
  30
0.0
   0
LINE
   5
2FC
 100
AcDbEntity
   8
LEVEL001
 100
AcDbLine
   6
DOT
  62
1
  10
 149.90331882967
  20
 149.12273248838
  30
0.0
  11
 149.90331882967
  21
 150.87273248838
  31
0.0
   0
ARC
   5
2FD
 100
AcDbEntity
   8
LEVEL001
   6
DOT
  62
1
 100
AcDbCircle
  10
 146.90331882967
  20
 150.87273248838
  30
0.0
  40
 0.50000000000000
 100
AcDbArc
  50
0.0
  51
 90.000000000000
   0
LINE
   5
2FE
 100
AcDbEntity
   8
LEVEL001
 100
AcDbLine
   6
DOT
  62
1
  10
 147.40331882967
  20
 149.12273248838
  30
0.0
  11
 147.40331882967
  21
 150.87273248838
  31
0.0
   0
POINT
   5
2FF
 100
AcDbEntity
   8
LEVEL001
 100
AcDbPoint
  62
1
  10
 147.40331882967
  20
 151.37273248838
  30
0.0
   0
ARC
   5
300
 100
AcDbEntity
   8
LEVEL001
   6
DOT
  62
1
 100
AcDbCircle
  10
 161.90331882967
  20
 150.87273248838
  30
0.0
  40
 0.50000000000000
 100
AcDbArc
  50
0.0
  51
 90.000000000000
   0
POINT
   5
301
 100
AcDbEntity
   8
LEVEL001
 100
AcDbPoint
  62
1
  10
 162.40331882967
  20
 151.37273248838
  30
0.0
   0
LINE
   5
302
 100
AcDbEntity
   8
LEVEL001
 100
AcDbLine
   6
DOT
  62
1
  10
 162.40331882967
  20
 149.12273248838
  30
0.0
  11
 162.40331882967
  21
 150.87273248838
  31
0.0
   0
LINE
   5
303
 100
AcDbEntity
   8
LEVEL001
 100
AcDbLine
   6
DOT
  62
1
  10
 161.38939882967
  20
 149.12273248838
  30
0.0
  11
 161.38939882967
  21
 153.62273248838
  31
0.0
   0
ARC
   5
304
 100
AcDbEntity
   8
LEVEL001
   6
DOT
  62
1
 100
AcDbCircle
  10
 165.40331882967
  20
 150.87273248838
  30
0.0
  40
 0.50000000000000
 100
AcDbArc
  50
 90.000000000000
  51
 180.00000000023
   0
POINT
   5
305
 100
AcDbEntity
   8
LEVEL001
 100
AcDbPoint
  62
1
  10
 164.90331882967
  20
 151.37273248838
  30
0.0
   0
LINE
   5
306
 100
AcDbEntity
   8
LEVEL001
 100
AcDbLine
   6
DOT
  62
1
  10
 164.90331882967
  20
 149.12273248838
  30
0.0
  11
 164.90331882967
  21
 150.87273248838
  31
0.0
   0
LINE
   5
307
 100
AcDbEntity
   8
LEVEL001
 100
AcDbLine
   6
DOT
  62
1
  10
 165.88939882967
  20
 149.12273248838
  30
0.0
  11
 165.88939882967
  21
 153.62273248838
  31
0.0
   0
LINE
   5
308
 100
AcDbEntity
   8
LEVEL001
 100
AcDbLine
   6
DOT
  62
1
  10
 167.40331882967
  20
 149.12273248838
  30
0.0
  11
 167.40331882967
  21
 150.87273248838
  31
0.0
   0
LINE
   5
309
 100
AcDbEntity
   8
LEVEL001
 100
AcDbLine
   6
DOT
  62
1
  10
 142.74440621249
  20
 153.62273248838
  30
0.0
  11
 169.09663641296
  21
 153.62273248838
  31
0.0
   0
LINE
   5
30A
 100
AcDbEntity
   8
LEVEL001
 100
AcDbLine
   6
DOT
  62
1
  10
 166.92032225837
  20
 153.68801488907
  30
0.0
  11
 188.23331882967
  21
 199.39388353300
  31
0.0
   0
POINT
   5
30B
 100
AcDbEntity
   8
LEVEL001
 100
AcDbPoint
  62
1
  10
 167.40331882967
  20
 151.37273248838
  30
0.0
   0
ARC
   5
30C
 100
AcDbEntity
   8
LEVEL001
   6
DOT
  62
1
 100
AcDbCircle
  10
 166.90331882967
  20
 150.87273248838
  30
0.0
  40
 0.50000000000000
 100
AcDbArc
  50
0.0
  51
 90.000000000000
   0
LINE
   5
30D
 100
AcDbEntity
   8
LEVEL001
 100
AcDbLine
   6
DOT
  62
1
  10
 165.40331882967
  20
 151.37273248838
  30
0.0
  11
 166.90331882967
  21
 151.37273248838
  31
0.0
   0
LINE
   5
30E
 100
AcDbEntity
   8
LEVEL001
 100
AcDbLine
   6
DOT
  62
1
  10
 141.68623125665
  20
 151.37273248838
  30
0.0
  11
 146.90331882967
  21
 151.37273248838
  31
0.0
   0
LINE
   5
30F
 100
AcDbEntity
   8
LEVEL001
 100
AcDbLine
   6
DOT
  62
1
  10
 150.40331882967
  20
 151.37273248838
  30
0.0
  11
 161.90331882967
  21
 151.37273248838
  31
0.0
   0
LINE
   5
310
 100
AcDbEntity
   8
LEVEL001
 100
AcDbLine
   6
DOT
  62
1
  10
 143.43212210273
  20
 151.56244395465
  30
0.0
  11
 143.43212210273
  21
 155.76227685655
  31
0.0
   0
LINE
   5
311
 100
AcDbEntity
   8
LEVEL001
 100
AcDbLine
   6
DOT
  62
1
  10
 139.69167392299
  20
 151.82273248838
  30
0.0
  11
 141.87727345548
  21
 151.82273248838
  31
0.0
   0
LINE
   5
312
 100
AcDbEntity
   8
LEVEL001
 100
AcDbLine
   6
DOT
  62
1
  10
 144.13939882967
  20
 149.12273248838
  30
0.0
  11
 144.13939882967
  21
 153.62273248838
  31
0.0
   0
LINE
   5
313
 100
AcDbEntity
   8
LEVEL001
 100
AcDbLine
   6
DOT
  62
1
  10
 141.73212210273
  20
 149.32273248838
  30
0.0
  11
 142.38772749392
  21
 149.32273248838
  31
0.0
   0
ARC
   5
314
 100
AcDbEntity
   8
LEVEL001
   6
DOT
  62
1
 100
AcDbCircle
  10
 141.73212210274
  20
 149.62273248838
  30
0.0
  40
 0.30000000000000
 100
AcDbArc
  50
 179.99999999999
  51
 269.99999999887
   0
LINE
   5
315
 100
AcDbEntity
   8
LEVEL001
 100
AcDbLine
   6
DOT
  62
1
  10
 141.43212210273
  20
 149.62273248838
  30
0.0
  11
 141.43212210273
  21
 150.82273248838
  31
0.0
   0
LINE
   5
316
 100
AcDbEntity
   8
LEVEL001
 100
AcDbLine
   6
DOT
  62
1
  10
 141.33939882967
  20
 149.12273248838
  30
0.0
  11
 141.33939882967
  21
 150.62388678760
  31
0.0
   0
ARC
   5
317
 100
AcDbEntity
   8
LEVEL001
   6
DOT
  62
1
 100
AcDbCircle
  10
 142.38939882967
  20
 150.87273248838
  30
0.0
  40
 0.50000000000000
 100
AcDbArc
  50
 90.000000000000
  51
 180.00000000010
   0
LINE
   5
318
 100
AcDbEntity
   8
LEVEL001
 100
AcDbLine
   6
DOT
  62
1
  10
 141.88939882967
  20
 149.12273248838
  30
0.0
  11
 141.88939882967
  21
 150.87273248838
  31
0.0
   0
POINT
   5
319
 100
AcDbEntity
   8
LEVEL001
 100
AcDbPoint
  62
1
  10
 141.88939882967
  20
 151.37273248838
  30
0.0
   0
LINE
   5
31A
 100
AcDbEntity
   8
LEVEL001
 100
AcDbLine
   6
DOT
  62
1
  10
 142.38772749392
  20
 149.32273248838
  30
0.0
  11
 143.43212210271
  21
 151.56244395466
  31
0.0
   0
LINE
   5
31B
 100
AcDbEntity
   8
LEVEL001
 100
AcDbLine
   6
DASHDOT
  62
3
  10
 148.63939882967
  20
 158.16645913503
  30
0.0
  11
 148.63939882967
  21
 144.61233479666
  31
0.0
   0
LINE
   5
31C
 100
AcDbEntity
   8
LEVEL001
 100
AcDbLine
   6
DASHDOT
  62
3
  10
 163.63939882967
  20
 158.16645913503
  30
0.0
  11
 163.63939882967
  21
 144.61233479666
  31
0.0
   0
DIMENSION
   5
31D
 100
AcDbEntity
   8
LEVEL001
   6
CONTINUOUS
  62
3
 100
AcDbDimension
   2
*D3
  10
 234.15478219934
  20
 228.12273248838
  30
0.0
  11
 234.15478219934
  21
 209.12273248838
  31
0.0
  70
0
   3
GMM003
 100
AcDbAlignedDimension
  13
 205.23331882974
  23
 190.12273248838
  33
0.0
  14
 205.23331882960
  24
 228.12273248838
  34
0.0
  50
 90.000000000000
 100
AcDbRotatedDimension
   0
INSERT
   5
31E
 100
AcDbEntity
   8
LEVEL001
 100
AcDbBlockReference
   2
*D4
  10
0.0
  20
0.0
  30
0.0
   0
DIMENSION
   5
31F
 100
AcDbEntity
   8
LEVEL001
   6
CONTINUOUS
  62
3
 100
AcDbDimension
   2
*D5
  10
 132.75192539337
  20
 136.94039374009
  30
0.0
  11
 133.65823318040
  21
 136.51777547835
  31
0.0
  70
0
   3
GMM004
 100
AcDbAlignedDimension
  13
 139.76092519112
  23
 147.23883914589
  33
0.0
  14
 137.94830961707
  24
 148.08407566937
  34
0.0
  50
 154.99999999985
 100
AcDbRotatedDimension
   0
LINE
   5
320
 100
AcDbEntity
   8
LEVEL001
 100
AcDbLine
   6
DASHDOT
  62
3
  10
 82.911588753559
  20
 233.58291405445
  30
0.0
  11
 82.911588753559
  21
 141.62645270562
  31
0.0
   0
DIMENSION
   5
321
 100
AcDbEntity
   8
LEVEL001
   6
CONTINUOUS
  62
3
 100
AcDbDimension
   2
*D6
  10
 301.30549184081
  20
 238.74323475355
  30
0.0
  11
 293.30549184081
  21
 238.74323475355
  31
0.0
  70
0
   3
GMM004
 100
AcDbAlignedDimension
  13
 285.30549184081
  23
 220.72709415672
  33
0.0
  14
 301.30549184081
  24
 220.72709415672
  34
0.0
 100
AcDbRotatedDimension
   0
DIMENSION
   5
322
 100
AcDbEntity
   8
LEVEL001
   6
CONTINUOUS
  62
3
 100
AcDbDimension
   2
*D7
  10
 224.72501122868
  20
 226.62273248838
  30
0.0
  11
 224.72501122868
  21
 209.12273248838
  31
0.0
  70
0
   3
GMM003
 100
AcDbAlignedDimension
  13
 206.23331882967
  23
 191.62273248838
  33
0.0
  14
 206.23331882967
  24
 226.62273248838
  34
0.0
  50
 90.000000000000
 100
AcDbRotatedDimension
   0
INSERT
   5
323
 100
AcDbEntity
   8
LEVEL001
 100
AcDbBlockReference
   2
*D8
  10
0.0
  20
0.0
  30
0.0
   0
DIMENSION
   5
324
 100
AcDbEntity
   8
LEVEL001
   6
CONTINUOUS
  62
3
 100
AcDbDimension
   2
*D9
  10
 206.23331882967
  20
 247.82375132673
  30
0.0
  11
 190.73331882967
  21
 247.82375132673
  31
0.0
  70
0
   1
\A1;(31)
   3
GMM005
 100
AcDbAlignedDimension
  13
 175.23331882967
  23
 228.52070653158
  33
0.0
  14
 206.23331882967
  24
 239.74323475355
  34
0.0
 100
AcDbRotatedDimension
   0
DIMENSION
   5
325
 100
AcDbEntity
   8
LEVEL001
   6
CONTINUOUS
  62
3
 100
AcDbDimension
   2
*D10
  10
 206.23331882967
  20
 238.74323475355
  30
0.0
  11
 199.53771496801
  21
 238.74323475355
  31
0.0
  70
128
   3
GMM006
 100
AcDbAlignedDimension
  13
 192.23331882967
  23
 226.62273248838
  33
0.0
  14
 206.23331882967
  24
 227.12273248838
  34
0.0
 100
AcDbRotatedDimension
   0
DIMENSION
   5
326
 100
AcDbEntity
   8
LEVEL001
   6
CONTINUOUS
  62
3
 100
AcDbDimension
   2
*D11
  10
 45.702315994688
  20
 228.12273248838
  30
0.0
  11
 45.702315994688
  21
 188.62273248838
  31
0.0
  70
0
   3
GMM004
 100
AcDbAlignedDimension
  13
 54.016566465550
  23
 149.12273248838
  33
0.0
  14
 82.911588753559
  24
 228.12273248838
  34
0.0
  50
 90.000000000000
 100
AcDbRotatedDimension
   0
DIMENSION
   5
327
 100
AcDbEntity
   8
LEVEL001
   6
CONTINUOUS
  62
3
 100
AcDbDimension
   2
*D12
  10
 101.91158875356
  20
 131.40372788216
  30
0.0
  11
 82.911588753559
  21
 131.40372788216
  31
0.0
  70
0
   3
GMM004
 100
AcDbAlignedDimension
  13
 63.911588753559
  23
 149.12273248838
  33
0.0
  14
 101.91158875356
  24
 149.12273248838
  34
0.0
 100
AcDbRotatedDimension
   0
DIMENSION
   5
328
 100
AcDbEntity
   8
LEVEL001
   6
CONTINUOUS
  62
3
 100
AcDbDimension
   2
*D13
  10
 168.63939882967
  20
 131.40372788216
  30
0.0
  11
 154.63939895677
  21
 131.40372788216
  31
0.0
  70
0
   3
GMM004
 100
AcDbAlignedDimension
  13
 140.63939908387
  23
 149.12273248838
  33
0.0
  14
 168.63939882967
  24
 149.12273248838
  34
0.0
 100
AcDbRotatedDimension
   0
LINE
   5
329
 100
AcDbEntity
   8
LEVEL001
 100
AcDbLine
   6
CONTINUOUS
  62
7
  10
 206.23331882967
  20
 66.566653272733
  30
0.0
  11
 206.23331882967
  21
 84.066653272733
  31
0.0
   0
LINE
   5
32A
 100
AcDbEntity
   8
LEVEL001
 100
AcDbLine
   6
CONTINUOUS
  62
7
  10
 168.65331882967
  20
 65.266653272733
  30
0.0
  11
 187.86519434563
  21
 65.266653272733
  31
0.0
   0
LINE
   5
32B
 100
AcDbEntity
   8
LEVEL001
 100
AcDbLine
   6
CONTINUOUS
  62
7
  10
 168.65331882967
  20
 65.266653272733
  30
0.0
  11
 168.65331882967
  21
 66.566653272733
  31
0.0
   0
LINE
   5
32C
 100
AcDbEntity
   8
LEVEL001
 100
AcDbLine
   6
CONTINUOUS
  62
7
  10
 205.23331882974
  20
 86.566653272734
  30
0.0
  11
 205.23331882974
  21
 101.56665327273
  31
0.0
   0
LINE
   5
32D
 100
AcDbEntity
   8
LEVEL001
 100
AcDbLine
   6
CONTINUOUS
  62
7
  10
 205.23331882974
  20
 84.066653272733
  30
0.0
  11
 205.23331882974
  21
 86.566653272734
  31
0.0
   0
LINE
   5
32E
 100
AcDbEntity
   8
LEVEL001
 100
AcDbLine
   6
CONTINUOUS
  62
7
  10
 205.23331882974
  20
 66.566653272733
  30
0.0
  11
 205.23331882974
  21
 84.066653272733
  31
0.0
   0
LINE
   5
32F
 100
AcDbEntity
   8
LEVEL001
 100
AcDbLine
   6
CONTINUOUS
  62
7
  10
 205.23331882974
  20
 65.266653272733
  30
0.0
  11
 205.23331882974
  21
 66.266653272733
  31
0.0
   0
LINE
   5
330
 100
AcDbEntity
   8
LEVEL001
 100
AcDbLine
   6
CONTINUOUS
  62
7
  10
 205.23331882974
  20
 66.266653272733
  30
0.0
  11
 205.23331882974
  21
 66.566653272733
  31
0.0
   0
LINE
   5
331
 100
AcDbEntity
   8
LEVEL001
 100
AcDbLine
   6
CONTINUOUS
  62
7
  10
 205.23331882974
  20
 101.56665327273
  30
0.0
  11
 205.23331882974
  21
 101.86665327273
  31
0.0
   0
LINE
   5
332
 100
AcDbEntity
   8
LEVEL001
 100
AcDbLine
   6
CONTINUOUS
  62
7
  10
 205.23331882974
  20
 101.86665327273
  30
0.0
  11
 205.23331882974
  21
 102.86665327259
  31
0.0
   0
LINE
   5
333
 100
AcDbEntity
   8
LEVEL001
 100
AcDbLine
   6
CONTINUOUS
  62
7
  10
 205.23331882943
  20
 102.86665327273
  30
0.0
  11
 206.23331882943
  21
 101.86665327273
  31
0.0
   0
LINE
   5
334
 100
AcDbEntity
   8
LEVEL001
 100
AcDbLine
   6
CONTINUOUS
  62
7
  10
 205.23331882974
  20
 65.266653272733
  30
0.0
  11
 206.23331882967
  21
 66.266653272657
  31
0.0
   0
LINE
   5
335
 100
AcDbEntity
   8
LEVEL001
 100
AcDbLine
   6
CONTINUOUS
  62
7
  10
 206.23331882967
  20
 84.066653272733
  30
0.0
  11
 206.23331882967
  21
 101.86665327250
  31
0.0
   0
LINE
   5
336
 100
AcDbEntity
   8
LEVEL001
 100
AcDbLine
   6
CONTINUOUS
  62
7
  10
 206.23331882967
  20
 66.266653272657
  30
0.0
  11
 206.23331882967
  21
 66.566653272733
  31
0.0
   0
LINE
   5
337
 100
AcDbEntity
   8
LEVEL001
 100
AcDbLine
   6
DOT
  62
7
  10
 140.63939882967
  20
 101.36665327273
  30
0.0
  11
 140.65331882967
  21
 101.36665327273
  31
0.0
   0
ARC
   5
338
 100
AcDbEntity
   8
LEVEL001
   6
CONTINUOUS
  62
7
 100
AcDbCircle
  10
 166.90331882967
  20
 100.86665327273
  30
0.0
  40
 0.50000000000000
 100
AcDbArc
  50
 0.39082655925824E-10
  51
 90.000000000000
   0
POINT
   5
339
 100
AcDbEntity
   8
LEVEL001
 100
AcDbPoint
  62
7
  10
 167.40331882967
  20
 101.36665327273
  30
0.0
   0
POINT
   5
33A
 100
AcDbEntity
   8
LEVEL001
 100
AcDbPoint
  62
7
  10
 164.90331882967
  20
 101.36665327273
  30
0.0
   0
POINT
   5
33B
 100
AcDbEntity
   8
LEVEL001
 100
AcDbPoint
  62
7
  10
 147.40331882967
  20
 101.36665327273
  30
0.0
   0
ARC
   5
33C
 100
AcDbEntity
   8
LEVEL001
   6
CONTINUOUS
  62
7
 100
AcDbCircle
  10
 142.38939882967
  20
 100.86665327273
  30
0.0
  40
 0.50000000000000
 100
AcDbArc
  50
 90.000000000000
  51
 179.99999999986
   0
POINT
   5
33D
 100
AcDbEntity
   8
LEVEL001
 100
AcDbPoint
  62
7
  10
 141.88939882967
  20
 101.36665327273
  30
0.0
   0
LINE
   5
33E
 100
AcDbEntity
   8
LEVEL001
 100
AcDbLine
   6
CONTINUOUS
  62
7
  10
 141.88939882967
  20
 100.11665327273
  30
0.0
  11
 141.88939882967
  21
 100.86665327273
  31
0.0
   0
CIRCLE
   5
33F
 100
AcDbEntity
   8
LEVEL001
 100
AcDbCircle
   6
CONTINUOUS
  62
7
  10
 163.65331882967
  20
 84.066653272733
  30
0.0
  40
 2.2500000000000
   0
ARC
   5
340
 100
AcDbEntity
   8
LEVEL001
   6
CONTINUOUS
  62
7
 100
AcDbCircle
  10
 165.40331882967
  20
 88.750401771531
  30
0.0
  40
 0.50000000000000
 100
AcDbArc
  50
 179.99999999988
  51
 249.51268488496
   0
ARC
   5
341
 100
AcDbEntity
   8
LEVEL001
   6
CONTINUOUS
  62
7
 100
AcDbCircle
  10
 161.90331882966
  20
 88.750401771531
  30
0.0
  40
 0.50000000000000
 100
AcDbArc
  50
 290.48731511513
  51
 0.14655995972086E-9
   0
ARC
   5
342
 100
AcDbEntity
   8
LEVEL001
   6
CONTINUOUS
  62
7
 100
AcDbCircle
  10
 163.65331882967
  20
 84.066653272734
  30
0.0
  40
 4.5000000000000
 100
AcDbArc
  50
 110.48731511473
  51
 125.82261735929
   0
ARC
   5
343
 100
AcDbEntity
   8
LEVEL001
   6
CONTINUOUS
  62
7
 100
AcDbCircle
  10
 160.72692985603
  20
 88.120817499179
  30
0.0
  40
 0.50000000000000
 100
AcDbArc
  50
 236.30993247398
  51
 305.82261735915
   0
ARC
   5
344
 100
AcDbEntity
   8
LEVEL001
   6
CONTINUOUS
  62
7
 100
AcDbCircle
  10
 165.40331882967
  20
 79.382904773935
  30
0.0
  40
 0.50000000000000
 100
AcDbArc
  50
 110.48731511497
  51
 180.00000000009
   0
ARC
   5
345
 100
AcDbEntity
   8
LEVEL001
   6
CONTINUOUS
  62
7
 100
AcDbCircle
  10
 161.90331882966
  20
 79.382904773935
  30
0.0
  40
 0.50000000000000
 100
AcDbArc
  50
0.0
  51
 69.512684884949
   0
ARC
   5
346
 100
AcDbEntity
   8
LEVEL001
   6
CONTINUOUS
  62
7
 100
AcDbCircle
  10
 163.65331882967
  20
 84.066653272733
  30
0.0
  40
 4.5000000000000
 100
AcDbArc
  50
 234.17738263968
  51
 249.51268488526
   0
ARC
   5
347
 100
AcDbEntity
   8
LEVEL001
   6
CONTINUOUS
  62
7
 100
AcDbCircle
  10
 160.72692985596
  20
 80.012489046340
  30
0.0
  40
 0.50000000000000
 100
AcDbArc
  50
 54.177382639774
  51
 123.69006752600
   0
ARC
   5
348
 100
AcDbEntity
   8
LEVEL001
   6
CONTINUOUS
  62
7
 100
AcDbCircle
  10
 158.78547916922
  20
 82.924665076555
  30
0.0
  40
 0.50000000000000
 100
AcDbArc
  50
 303.69006752606
  51
 13.202752410473
   0
ARC
   5
349
 100
AcDbEntity
   8
LEVEL001
   6
CONTINUOUS
  62
7
 100
AcDbCircle
  10
 163.65331882967
  20
 84.066653272735
  30
0.0
  40
 4.5000000000000
 100
AcDbArc
  50
 180.00000000002
  51
 193.20275241027
   0
ARC
   5
34A
 100
AcDbEntity
   8
LEVEL001
   6
CONTINUOUS
  62
7
 100
AcDbCircle
  10
 158.78547916924
  20
 85.208641468995
  30
0.0
  40
 0.50000000000000
 100
AcDbArc
  50
 346.79724758898
  51
 56.309932474111
   0
ARC
   5
34B
 100
AcDbEntity
   8
LEVEL001
   6
CONTINUOUS
  62
7
 100
AcDbCircle
  10
 163.65331882967
  20
 84.066653272732
  30
0.0
  40
 4.5000000000000
 100
AcDbArc
  50
 166.79724758871
  51
 179.99999999999
   0
CIRCLE
   5
34C
 100
AcDbEntity
   8
LEVEL001
 100
AcDbCircle
   6
CONTINUOUS
  62
7
  10
 148.65331882967
  20
 94.066653272733
  30
0.0
  40
 2.2500000000000
   0
CIRCLE
   5
34D
 100
AcDbEntity
   8
LEVEL001
 100
AcDbCircle
   6
CONTINUOUS
  62
7
  10
 148.65331882967
  20
 74.066653272733
  30
0.0
  40
 2.2500000000000
   0
LINE
   5
34E
 100
AcDbEntity
   8
LEVEL001
 100
AcDbLine
   6
CONTINUOUS
  62
7
  10
 149.90331882967
  20
 78.750401771532
  30
0.0
  11
 149.90331882967
  21
 84.066653272733
  31
0.0
   0
ARC
   5
34F
 100
AcDbEntity
   8
LEVEL001
   6
CONTINUOUS
  62
7
 100
AcDbCircle
  10
 150.40331882967
  20
 78.750401771532
  30
0.0
  40
 0.50000000000000
 100
AcDbArc
  50
 180.00000000002
  51
 249.51268488535
   0
ARC
   5
350
 100
AcDbEntity
   8
LEVEL001
   6
CONTINUOUS
  62
7
 100
AcDbCircle
  10
 148.65331882967
  20
 74.066653272733
  30
0.0
  40
 4.5000000000000
 100
AcDbArc
  50
 54.177382641722
  51
 69.512684885287
   0
LINE
   5
351
 100
AcDbEntity
   8
LEVEL001
 100
AcDbLine
   6
CONTINUOUS
  62
7
  10
 149.90331882967
  20
 84.066653272733
  30
0.0
  11
 149.90331882967
  21
 89.382904773934
  31
0.0
   0
ARC
   5
352
 100
AcDbEntity
   8
LEVEL001
   6
CONTINUOUS
  62
7
 100
AcDbCircle
  10
 150.40331882967
  20
 89.382904773935
  30
0.0
  40
 0.50000000000000
 100
AcDbArc
  50
 110.48731511481
  51
 180.00000000003
   0
ARC
   5
353
 100
AcDbEntity
   8
LEVEL001
   6
CONTINUOUS
  62
7
 100
AcDbCircle
  10
 151.57970780330
  20
 90.012489046290
  30
0.0
  40
 0.50000000000000
 100
AcDbArc
  50
 56.309932474026
  51
 125.82261735934
   0
ARC
   5
354
 100
AcDbEntity
   8
LEVEL001
   6
CONTINUOUS
  62
7
 100
AcDbCircle
  10
 148.65331882967
  20
 94.066653272734
  30
0.0
  40
 4.5000000000000
 100
AcDbArc
  50
 290.48731511471
  51
 305.82261735930
   0
LINE
   5
355
 100
AcDbEntity
   8
LEVEL001
 100
AcDbLine
   6
CONTINUOUS
  62
7
  10
 159.06282926736
  20
 85.624666616166
  30
0.0
  11
 151.85705790142
  21
 90.428514193458
  31
0.0
   0
ARC
   5
356
 100
AcDbEntity
   8
LEVEL001
   6
CONTINUOUS
  62
7
 100
AcDbCircle
  10
 148.65331882967
  20
 74.066653272733
  30
0.0
  40
 4.5000000000000
 100
AcDbArc
  50
 290.48731511472
  51
 13.202752412266
   0
ARC
   5
357
 100
AcDbEntity
   8
LEVEL001
   6
CONTINUOUS
  62
7
 100
AcDbCircle
  10
 150.40331882967
  20
 69.382904773935
  30
0.0
  40
 0.50000000000000
 100
AcDbArc
  50
 110.48731511475
  51
 180.00000000001
   0
LINE
   5
358
 100
AcDbEntity
   8
LEVEL001
 100
AcDbLine
   6
CONTINUOUS
  62
7
  10
 160.44957975785
  20
 80.428514193509
  30
0.0
  11
 153.24380839196
  21
 75.624666616250
  31
0.0
   0
ARC
   5
359
 100
AcDbEntity
   8
LEVEL001
   6
CONTINUOUS
  62
7
 100
AcDbCircle
  10
 153.52115849007
  20
 75.208641469081
  30
0.0
  40
 0.50000000000000
 100
AcDbArc
  50
 123.69006752598
  51
 193.20275241229
   0
LINE
   5
35A
 100
AcDbEntity
   8
LEVEL001
 100
AcDbLine
   6
CONTINUOUS
  62
7
  10
 160.44957975792
  20
 87.704792352010
  30
0.0
  11
 153.24380839198
  21
 92.508639929304
  31
0.0
   0
ARC
   5
35B
 100
AcDbEntity
   8
LEVEL001
   6
CONTINUOUS
  62
7
 100
AcDbCircle
  10
 161.90331882967
  20
 100.86665327273
  30
0.0
  40
 0.50000000000000
 100
AcDbArc
  50
0.0
  51
 90.000000000039
   0
POINT
   5
35C
 100
AcDbEntity
   8
LEVEL001
 100
AcDbPoint
  62
7
  10
 162.40331882967
  20
 101.36665327273
  30
0.0
   0
LINE
   5
35D
 100
AcDbEntity
   8
LEVEL001
 100
AcDbLine
   6
CONTINUOUS
  62
7
  10
 161.90331882967
  20
 101.36665327273
  30
0.0
  11
 150.40331882967
  21
 101.36665327273
  31
0.0
   0
LINE
   5
35E
 100
AcDbEntity
   8
LEVEL001
 100
AcDbLine
   6
CONTINUOUS
  62
7
  10
 162.40331882967
  20
 88.750401771532
  30
0.0
  11
 162.40331882967
  21
 100.86665327273
  31
0.0
   0
ARC
   5
35F
 100
AcDbEntity
   8
LEVEL001
   6
CONTINUOUS
  62
7
 100
AcDbCircle
  10
 150.40331882967
  20
 100.86665327273
  30
0.0
  40
 0.50000000000000
 100
AcDbArc
  50
 90.000000000000
  51
 179.99999999999
   0
POINT
   5
360
 100
AcDbEntity
   8
LEVEL001
 100
AcDbPoint
  62
7
  10
 149.90331882967
  20
 101.36665327273
  30
0.0
   0
LINE
   5
361
 100
AcDbEntity
   8
LEVEL001
 100
AcDbLine
   6
CONTINUOUS
  62
7
  10
 149.90331882967
  20
 98.750401771532
  30
0.0
  11
 149.90331882967
  21
 100.86665327273
  31
0.0
   0
ARC
   5
362
 100
AcDbEntity
   8
LEVEL001
   6
CONTINUOUS
  62
7
 100
AcDbCircle
  10
 150.40331882967
  20
 98.750401771532
  30
0.0
  40
 0.50000000000000
 100
AcDbArc
  50
 180.00000000000
  51
 249.51268488529
   0
ARC
   5
363
 100
AcDbEntity
   8
LEVEL001
   6
CONTINUOUS
  62
7
 100
AcDbCircle
  10
 148.65331882967
  20
 94.066653272733
  30
0.0
  40
 4.5000000000000
 100
AcDbArc
  50
 0.14475057750305E-11
  51
 69.512684885279
   0
ARC
   5
364
 100
AcDbEntity
   8
LEVEL001
   6
CONTINUOUS
  62
7
 100
AcDbCircle
  10
 153.52115849009
  20
 92.924665076471
  30
0.0
  40
 0.50000000000000
 100
AcDbArc
  50
 166.79724758854
  51
 236.30993247395
   0
ARC
   5
365
 100
AcDbEntity
   8
LEVEL001
   6
CONTINUOUS
  62
7
 100
AcDbCircle
  10
 148.65331882967
  20
 94.066653272735
  30
0.0
  40
 4.5000000000000
 100
AcDbArc
  50
 346.79724758874
  51
0.0
   0
LINE
   5
366
 100
AcDbEntity
   8
LEVEL001
 100
AcDbLine
   6
CONTINUOUS
  62
7
  10
 164.90331882967
  20
 88.750401771532
  30
0.0
  11
 164.90331882967
  21
 100.86665327273
  31
0.0
   0
ARC
   5
367
 100
AcDbEntity
   8
LEVEL001
   6
CONTINUOUS
  62
7
 100
AcDbCircle
  10
 165.40331882967
  20
 100.86665327273
  30
0.0
  40
 0.50000000000000
 100
AcDbArc
  50
 90.000000000000
  51
 179.99999999999
   0
ARC
   5
368
 100
AcDbEntity
   8
LEVEL001
   6
CONTINUOUS
  62
7
 100
AcDbCircle
  10
 146.90331882967
  20
 69.382904773935
  30
0.0
  40
 0.50000000000000
 100
AcDbArc
  50
0.0
  51
 69.512684885082
   0
LINE
   5
369
 100
AcDbEntity
   8
LEVEL001
 100
AcDbLine
   6
CONTINUOUS
  62
7
  10
 147.40331882967
  20
 98.750401771532
  30
0.0
  11
 147.40331882967
  21
 100.86665327273
  31
0.0
   0
ARC
   5
36A
 100
AcDbEntity
   8
LEVEL001
   6
CONTINUOUS
  62
7
 100
AcDbCircle
  10
 146.90331882967
  20
 98.750401771532
  30
0.0
  40
 0.50000000000000
 100
AcDbArc
  50
 290.48731511488
  51
 0.56995539891677E-10
   0
ARC
   5
36B
 100
AcDbEntity
   8
LEVEL001
   6
CONTINUOUS
  62
7
 100
AcDbCircle
  10
 146.90331882967
  20
 100.86665327273
  30
0.0
  40
 0.50000000000000
 100
AcDbArc
  50
 0.39082655925824E-10
  51
 90.000000000000
   0
ARC
   5
36C
 100
AcDbEntity
   8
LEVEL001
   6
CONTINUOUS
  62
7
 100
AcDbCircle
  10
 151.57970780323
  20
 78.120817499229
  30
0.0
  40
 0.50000000000000
 100
AcDbArc
  50
 234.17738264165
  51
 303.69006752597
   0
ARC
   5
36D
 100
AcDbEntity
   8
LEVEL001
   6
CONTINUOUS
  62
7
 100
AcDbCircle
  10
 151.57970780323
  20
 78.120817499229
  30
0.0
  40
 0.50000000000000
 100
AcDbArc
  50
 234.17738264168
  51
 303.69006752597
   0
ARC
   5
36E
 100
AcDbEntity
   8
LEVEL001
   6
CONTINUOUS
  62
7
 100
AcDbCircle
  10
 143.96957033087
  20
 72.316653272733
  30
0.0
  40
 0.50000000000000
 100
AcDbArc
  50
 20.487315114700
  51
 89.999999999990
   0
ARC
   5
36F
 100
AcDbEntity
   8
LEVEL001
   6
CONTINUOUS
  62
7
 100
AcDbCircle
  10
 148.65331882967
  20
 74.066653272733
  30
0.0
  40
 4.5000000000000
 100
AcDbArc
  50
 200.48731511472
  51
 249.51268488528
   0
ARC
   5
370
 100
AcDbEntity
   8
LEVEL001
   6
CONTINUOUS
  62
7
 100
AcDbCircle
  10
 142.38939882967
  20
 72.316653272733
  30
0.0
  40
 0.50000000000000
 100
AcDbArc
  50
 89.999999999941
  51
 180.00000000000
   0
POINT
   5
371
 100
AcDbEntity
   8
LEVEL001
 100
AcDbPoint
  62
7
  10
 141.88939882967
  20
 72.816653272733
  30
0.0
   0
LINE
   5
372
 100
AcDbEntity
   8
LEVEL001
 100
AcDbLine
   6
CONTINUOUS
  62
7
  10
 142.38939882967
  20
 72.816653272733
  30
0.0
  11
 143.96957033087
  21
 72.816653272733
  31
0.0
   0
LINE
   5
373
 100
AcDbEntity
   8
LEVEL001
 100
AcDbLine
   6
CONTINUOUS
  62
7
  10
 141.88939882967
  20
 95.816653272733
  30
0.0
  11
 141.88939882967
  21
 100.11665327273
  31
0.0
   0
ARC
   5
374
 100
AcDbEntity
   8
LEVEL001
   6
CONTINUOUS
  62
7
 100
AcDbCircle
  10
 142.38939882967
  20
 95.816653272733
  30
0.0
  40
 0.50000000000000
 100
AcDbArc
  50
 180.00000000000
  51
 270.00000000017
   0
POINT
   5
375
 100
AcDbEntity
   8
LEVEL001
 100
AcDbPoint
  62
7
  10
 141.88939882967
  20
 95.316653272733
  30
0.0
   0
LINE
   5
376
 100
AcDbEntity
   8
LEVEL001
 100
AcDbLine
   6
CONTINUOUS
  62
7
  10
 142.38939882967
  20
 95.316653272733
  30
0.0
  11
 143.96957033087
  21
 95.316653272733
  31
0.0
   0
ARC
   5
377
 100
AcDbEntity
   8
LEVEL001
   6
CONTINUOUS
  62
7
 100
AcDbCircle
  10
 143.96957033087
  20
 95.816653272733
  30
0.0
  40
 0.50000000000000
 100
AcDbArc
  50
 270.00000000000
  51
 339.51268488528
   0
ARC
   5
378
 100
AcDbEntity
   8
LEVEL001
   6
CONTINUOUS
  62
7
 100
AcDbCircle
  10
 148.65331882967
  20
 94.066653272733
  30
0.0
  40
 4.5000000000000
 100
AcDbArc
  50
 110.48731511473
  51
 159.51268488528
   0
LINE
   5
379
 100
AcDbEntity
   8
LEVEL001
 100
AcDbLine
   6
CONTINUOUS
  62
7
  10
 165.40331882967
  20
 101.36665327274
  30
0.0
  11
 166.90331882967
  21
 101.36665327273
  31
0.0
   0
ARC
   5
37A
 100
AcDbEntity
   8
LEVEL001
   6
CONTINUOUS
  62
7
 100
AcDbCircle
  10
 166.90331882967
  20
 80.266982234340
  30
0.0
  40
 0.50000000000000
 100
AcDbArc
  50
 0.52110207901045E-10
  51
 130.54160187343
   0
ARC
   5
37B
 100
AcDbEntity
   8
LEVEL001
   6
CONTINUOUS
  62
7
 100
AcDbCircle
  10
 163.65331882967
  20
 84.066653272733
  30
0.0
  40
 4.5000000000000
 100
AcDbArc
  50
 290.48731511473
  51
 310.54160187352
   0
ARC
   5
37C
 100
AcDbEntity
   8
LEVEL001
   6
CONTINUOUS
  62
7
 100
AcDbCircle
  10
 166.90331882967
  20
 87.866324311126
  30
0.0
  40
 0.50000000000000
 100
AcDbArc
  50
 229.45839812652
  51
0.0
   0
ARC
   5
37D
 100
AcDbEntity
   8
LEVEL001
   6
CONTINUOUS
  62
7
 100
AcDbCircle
  10
 163.65331882967
  20
 84.066653272733
  30
0.0
  40
 4.5000000000000
 100
AcDbArc
  50
 49.458398126492
  51
 69.512684885274
   0
ARC
   5
37E
 100
AcDbEntity
   8
LEVEL001
   6
CONTINUOUS
  62
7
 100
AcDbCircle
  10
 145.75331882967
  20
 90.241734972950
  30
0.0
  40
 0.30000000000000
 100
AcDbArc
  50
 52.831100344641
  51
 179.99999999961
   0
ARC
   5
37F
 100
AcDbEntity
   8
LEVEL001
   6
CONTINUOUS
  62
7
 100
AcDbCircle
  10
 145.75331882967
  20
 77.891571572518
  30
0.0
  40
 0.30000000000000
 100
AcDbArc
  50
 180.00000000061
  51
 307.16889965499
   0
POINT
   5
380
 100
AcDbEntity
   8
LEVEL001
 100
AcDbPoint
  62
7
  10
 141.88939882967
  20
 87.916653272733
  30
0.0
   0
POINT
   5
381
 100
AcDbEntity
   8
LEVEL001
 100
AcDbPoint
  62
7
  10
 145.45331882967
  20
 80.216653272733
  30
0.0
   0
LINE
   5
382
 100
AcDbEntity
   8
LEVEL001
 100
AcDbLine
   6
CONTINUOUS
  62
7
  10
 147.40331882967
  20
 84.066653272733
  30
0.0
  11
 147.40331882967
  21
 89.523801745333
  31
0.0
   0
ARC
   5
383
 100
AcDbEntity
   8
LEVEL001
   6
CONTINUOUS
  62
7
 100
AcDbCircle
  10
 147.10331882967
  20
 89.523801745334
  30
0.0
  40
 0.30000000000000
 100
AcDbArc
  50
0.0
  51
 71.160595452452
   0
ARC
   5
384
 100
AcDbEntity
   8
LEVEL001
   6
CONTINUOUS
  62
7
 100
AcDbCircle
  10
 148.65331882967
  20
 94.066653272733
  30
0.0
  40
 4.5000000000000
 100
AcDbArc
  50
 232.83110034401
  51
 251.16059545273
   0
LINE
   5
385
 100
AcDbEntity
   8
LEVEL001
 100
AcDbLine
   6
CONTINUOUS
  62
7
  10
 147.40331882967
  20
 78.609504800133
  30
0.0
  11
 147.40331882967
  21
 84.066653272733
  31
0.0
   0
ARC
   5
386
 100
AcDbEntity
   8
LEVEL001
   6
CONTINUOUS
  62
7
 100
AcDbCircle
  10
 147.10331882966
  20
 78.609504800132
  30
0.0
  40
 0.30000000000000
 100
AcDbArc
  50
 288.83940454769
  51
 0.13570366640818E-9
   0
ARC
   5
387
 100
AcDbEntity
   8
LEVEL001
   6
CONTINUOUS
  62
7
 100
AcDbCircle
  10
 148.65331882967
  20
 74.066653272733
  30
0.0
  40
 4.5000000000000
 100
AcDbArc
  50
 108.83940454727
  51
 127.16889965599
   0
POINT
   5
388
 100
AcDbEntity
   8
LEVEL001
 100
AcDbPoint
  62
7
  10
 141.88939882967
  20
 75.366653272733
  30
0.0
   0
ARC
   5
389
 100
AcDbEntity
   8
LEVEL001
   6
CONTINUOUS
  62
7
 100
AcDbCircle
  10
 141.65331882967
  20
 75.666653272729
  30
0.0
  40
 0.30000000000000
 100
AcDbArc
  50
 179.99999999918
  51
 270.00000000001
   0
POINT
   5
38A
 100
AcDbEntity
   8
LEVEL001
 100
AcDbPoint
  62
7
  10
 141.35331882967
  20
 75.366653272733
  30
0.0
   0
LINE
   5
38B
 100
AcDbEntity
   8
LEVEL001
 100
AcDbLine
   6
CONTINUOUS
  62
7
  10
 141.35331882967
  20
 77.066653272733
  30
0.0
  11
 141.35331882967
  21
 75.666653272733
  31
0.0
   0
POINT
   5
38C
 100
AcDbEntity
   8
LEVEL001
 100
AcDbPoint
  62
7
  10
 142.65331882967
  20
 75.366653272733
  30
0.0
   0
ARC
   5
38D
 100
AcDbEntity
   8
LEVEL001
   6
CONTINUOUS
  62
7
 100
AcDbCircle
  10
 143.85331882967
  20
 75.666653272731
  30
0.0
  40
 0.30000000000000
 100
AcDbArc
  50
 269.99999999998
  51
 0.51567393235465E-9
   0
LINE
   5
38E
 100
AcDbEntity
   8
LEVEL001
 100
AcDbLine
   6
CONTINUOUS
  62
7
  10
 144.15331882967
  20
 77.066653272733
  30
0.0
  11
 144.15331882967
  21
 75.666653272733
  31
0.0
   0
LINE
   5
38F
 100
AcDbEntity
   8
LEVEL001
 100
AcDbLine
   6
CONTINUOUS
  62
7
  10
 141.65331882967
  20
 75.366653272733
  30
0.0
  11
 143.85331882967
  21
 75.366653272733
  31
0.0
   0
POINT
   5
390
 100
AcDbEntity
   8
LEVEL001
 100
AcDbPoint
  62
7
  10
 142.65331882967
  20
 78.766653272733
  30
0.0
   0
LINE
   5
391
 100
AcDbEntity
   8
LEVEL001
 100
AcDbLine
   6
CONTINUOUS
  62
7
  10
 141.35331882967
  20
 78.466653272733
  30
0.0
  11
 141.35331882967
  21
 77.066653272733
  31
0.0
   0
ARC
   5
392
 100
AcDbEntity
   8
LEVEL001
   6
CONTINUOUS
  62
7
 100
AcDbCircle
  10
 141.65331882967
  20
 78.466653272733
  30
0.0
  40
 0.30000000000000
 100
AcDbArc
  50
 90.000000000901
  51
 180.00000000000
   0
POINT
   5
393
 100
AcDbEntity
   8
LEVEL001
 100
AcDbPoint
  62
7
  10
 141.35331882967
  20
 78.766653272733
  30
0.0
   0
LINE
   5
394
 100
AcDbEntity
   8
LEVEL001
 100
AcDbLine
   6
CONTINUOUS
  62
7
  10
 144.15331882967
  20
 78.466653272733
  30
0.0
  11
 144.15331882967
  21
 77.066653272733
  31
0.0
   0
ARC
   5
395
 100
AcDbEntity
   8
LEVEL001
   6
CONTINUOUS
  62
7
 100
AcDbCircle
  10
 143.85331882966
  20
 78.466653272733
  30
0.0
  40
 0.30000000000000
 100
AcDbArc
  50
0.0
  51
 89.999999999397
   0
LINE
   5
396
 100
AcDbEntity
   8
LEVEL001
 100
AcDbLine
   6
CONTINUOUS
  62
7
  10
 141.65331882967
  20
 78.766653272733
  30
0.0
  11
 143.85331882967
  21
 78.766653272733
  31
0.0
   0
ARC
   5
397
 100
AcDbEntity
   8
LEVEL001
   6
CONTINUOUS
  62
7
 100
AcDbCircle
  10
 142.18939882967
  20
 80.566653272734
  30
0.0
  40
 0.30000000000000
 100
AcDbArc
  50
 180.00000000017
  51
 270.00000000001
   0
POINT
   5
398
 100
AcDbEntity
   8
LEVEL001
 100
AcDbPoint
  62
7
  10
 141.88939882967
  20
 80.266653272733
  30
0.0
   0
LINE
   5
399
 100
AcDbEntity
   8
LEVEL001
 100
AcDbLine
   6
CONTINUOUS
  62
7
  10
 142.18939882967
  20
 80.266653272733
  30
0.0
  11
 144.45331882967
  21
 80.266653272733
  31
0.0
   0
ARC
   5
39A
 100
AcDbEntity
   8
LEVEL001
   6
CONTINUOUS
  62
7
 100
AcDbCircle
  10
 144.45331882967
  20
 79.266653272734
  30
0.0
  40
 1.0000000000000
 100
AcDbArc
  50
0.0
  51
 90.000000000000
   0
ARC
   5
39B
 100
AcDbEntity
   8
LEVEL001
   6
CONTINUOUS
  62
7
 100
AcDbCircle
  10
 141.65331882967
  20
 92.466653272735
  30
0.0
  40
 0.30000000000000
 100
AcDbArc
  50
 89.999999999984
  51
 180.00000000041
   0
POINT
   5
39C
 100
AcDbEntity
   8
LEVEL001
 100
AcDbPoint
  62
7
  10
 141.35331882967
  20
 92.766653272733
  30
0.0
   0
LINE
   5
39D
 100
AcDbEntity
   8
LEVEL001
 100
AcDbLine
   6
CONTINUOUS
  62
7
  10
 141.35331882967
  20
 91.066653272733
  30
0.0
  11
 141.35331882967
  21
 92.466653272733
  31
0.0
   0
ARC
   5
39E
 100
AcDbEntity
   8
LEVEL001
   6
CONTINUOUS
  62
7
 100
AcDbCircle
  10
 143.85331882967
  20
 92.466653272734
  30
0.0
  40
 0.30000000000000
 100
AcDbArc
  50
0.0
  51
 90.000000000016
   0
LINE
   5
39F
 100
AcDbEntity
   8
LEVEL001
 100
AcDbLine
   6
CONTINUOUS
  62
7
  10
 144.15331882967
  20
 91.066653272733
  30
0.0
  11
 144.15331882967
  21
 92.466653272733
  31
0.0
   0
LINE
   5
3A0
 100
AcDbEntity
   8
LEVEL001
 100
AcDbLine
   6
CONTINUOUS
  62
7
  10
 141.65331882967
  20
 92.766653272733
  30
0.0
  11
 143.85331882967
  21
 92.766653272733
  31
0.0
   0
LINE
   5
3A1
 100
AcDbEntity
   8
LEVEL001
 100
AcDbLine
   6
CONTINUOUS
  62
7
  10
 141.35331882967
  20
 89.666653272733
  30
0.0
  11
 141.35331882967
  21
 91.066653272733
  31
0.0
   0
ARC
   5
3A2
 100
AcDbEntity
   8
LEVEL001
   6
CONTINUOUS
  62
7
 100
AcDbCircle
  10
 141.65331882967
  20
 89.666653272733
  30
0.0
  40
 0.30000000000000
 100
AcDbArc
  50
 180.00000000000
  51
 269.99999999927
   0
POINT
   5
3A3
 100
AcDbEntity
   8
LEVEL001
 100
AcDbPoint
  62
7
  10
 141.35331882967
  20
 89.366653272733
  30
0.0
   0
LINE
   5
3A4
 100
AcDbEntity
   8
LEVEL001
 100
AcDbLine
   6
CONTINUOUS
  62
7
  10
 144.15331882967
  20
 89.666653272733
  30
0.0
  11
 144.15331882967
  21
 91.066653272733
  31
0.0
   0
ARC
   5
3A5
 100
AcDbEntity
   8
LEVEL001
   6
CONTINUOUS
  62
7
 100
AcDbCircle
  10
 143.85331882966
  20
 89.666653272733
  30
0.0
  40
 0.30000000000000
 100
AcDbArc
  50
 270.00000000043
  51
 0.27140733281610E-11
   0
LINE
   5
3A6
 100
AcDbEntity
   8
LEVEL001
 100
AcDbLine
   6
CONTINUOUS
  62
7
  10
 141.65331882967
  20
 89.366653272733
  30
0.0
  11
 143.85331882967
  21
 89.366653272733
  31
0.0
   0
ARC
   5
3A7
 100
AcDbEntity
   8
LEVEL001
   6
CONTINUOUS
  62
7
 100
AcDbCircle
  10
 142.18939882967
  20
 87.566653272733
  30
0.0
  40
 0.30000000000000
 100
AcDbArc
  50
 89.999999999995
  51
 180.00000000000
   0
LINE
   5
3A8
 100
AcDbEntity
   8
LEVEL001
 100
AcDbLine
   6
CONTINUOUS
  62
7
  10
 142.18939882967
  20
 87.866653272733
  30
0.0
  11
 144.45331882967
  21
 87.866653272733
  31
0.0
   0
ARC
   5
3A9
 100
AcDbEntity
   8
LEVEL001
   6
CONTINUOUS
  62
7
 100
AcDbCircle
  10
 144.45331882967
  20
 88.866653272733
  30
0.0
  40
 1.0000000000000
 100
AcDbArc
  50
 270.00000000000
  51
 0.21169771959821E-10
   0
POINT
   5
3AA
 100
AcDbEntity
   8
LEVEL001
 100
AcDbPoint
  62
7
  10
 145.45331882967
  20
 87.866653272733
  30
0.0
   0
LINE
   5
3AB
 100
AcDbEntity
   8
LEVEL001
 100
AcDbLine
   6
CONTINUOUS
  62
7
  10
 145.45331882967
  20
 88.866653272733
  30
0.0
  11
 145.45331882967
  21
 90.241734972952
  31
0.0
   0
LINE
   5
3AC
 100
AcDbEntity
   8
LEVEL001
 100
AcDbLine
   6
CONTINUOUS
  62
7
  10
 141.88939882967
  20
 84.066653272733
  30
0.0
  11
 141.88939882967
  21
 87.566653272733
  31
0.0
   0
LINE
   5
3AD
 100
AcDbEntity
   8
LEVEL001
 100
AcDbLine
   6
CONTINUOUS
  62
7
  10
 141.88939882967
  20
 80.566653272733
  30
0.0
  11
 141.88939882967
  21
 84.066653272733
  31
0.0
   0
LINE
   5
3AE
 100
AcDbEntity
   8
LEVEL001
 100
AcDbLine
   6
CONTINUOUS
  62
7
  10
 145.45331882967
  20
 77.891571572514
  30
0.0
  11
 145.45331882967
  21
 79.266653272733
  31
0.0
   0
LINE
   5
3AF
 100
AcDbEntity
   8
LEVEL001
 100
AcDbLine
   6
CONTINUOUS
  62
7
  10
 138.43264324597
  20
 84.066653272733
  30
0.0
  11
 138.43264324597
  21
 102.01665327273
  31
0.0
   0
LINE
   5
3B0
 100
AcDbEntity
   8
LEVEL001
 100
AcDbLine
   6
CONTINUOUS
  62
7
  10
 140.33939882967
  20
 102.86665327273
  30
0.0
  11
 140.65331882967
  21
 102.86665327273
  31
0.0
   0
LINE
   5
3B1
 100
AcDbEntity
   8
LEVEL001
 100
AcDbLine
   6
CONTINUOUS
  62
7
  10
 138.43264324597
  20
 102.01665327273
  30
0.0
  11
 140.33939882967
  21
 102.86665327273
  31
0.0
   0
LINE
   5
3B2
 100
AcDbEntity
   8
LEVEL001
 100
AcDbLine
   6
CONTINUOUS
  62
7
  10
 138.43264324597
  20
 66.116653272733
  30
0.0
  11
 140.33939882967
  21
 65.266653272733
  31
0.0
   0
LINE
   5
3B3
 100
AcDbEntity
   8
LEVEL001
 100
AcDbLine
   6
CONTINUOUS
  62
7
  10
 138.43264324597
  20
 66.116653272733
  30
0.0
  11
 138.43264324597
  21
 84.066653272733
  31
0.0
   0
LINE
   5
3B4
 100
AcDbEntity
   8
LEVEL001
 100
AcDbLine
   6
CONTINUOUS
  62
7
  10
 140.33939882967
  20
 65.266653272733
  30
0.0
  11
 140.65331882967
  21
 65.266653272733
  31
0.0
   0
LINE
   5
3B5
 100
AcDbEntity
   8
LEVEL001
 100
AcDbLine
   6
DASHDOT
  62
3
  10
 163.65331882967
  20
 106.24244016120
  30
0.0
  11
 163.65331882967
  21
 62.666511741253
  31
0.0
   0
LINE
   5
3B6
 100
AcDbEntity
   8
LEVEL001
 100
AcDbLine
   6
DASHDOT
  62
3
  10
 182.39449082971
  20
 91.566653272733
  30
0.0
  11
 210.58415526953
  21
 91.566653272733
  31
0.0
   0
LINE
   5
3B7
 100
AcDbEntity
   8
LEVEL001
 100
AcDbLine
   6
DASHDOT
  62
3
  10
 182.47572905576
  20
 76.566653272733
  30
0.0
  11
 210.90910817374
  21
 76.566653272733
  31
0.0
   0
LINE
   5
3B8
 100
AcDbEntity
   8
LEVEL001
 100
AcDbLine
   6
CONTINUOUS
  62
15
  10
 141.43212210273
  20
 91.066653272733
  30
0.0
  11
 141.43212210273
  21
 92.266653272733
  31
0.0
   0
ARC
   5
3B9
 100
AcDbEntity
   8
LEVEL001
   6
CONTINUOUS
  62
15
 100
AcDbCircle
  10
 141.73212210274
  20
 92.266653272733
  30
0.0
  40
 0.30000000000000
 100
AcDbArc
  50
 90.000000001134
  51
 180.00000000000
   0
POINT
   5
3BA
 100
AcDbEntity
   8
LEVEL001
 100
AcDbPoint
  62
15
  10
 141.43212210273
  20
 92.566653272733
  30
0.0
   0
LINE
   5
3BB
 100
AcDbEntity
   8
LEVEL001
 100
AcDbLine
   6
CONTINUOUS
  62
15
  10
 141.73212210273
  20
 92.566653272733
  30
0.0
  11
 142.13212210273
  21
 92.566653272733
  31
0.0
   0
ARC
   5
3BC
 100
AcDbEntity
   8
LEVEL001
   6
CONTINUOUS
  62
15
 100
AcDbCircle
  10
 142.13212210273
  20
 92.266653272735
  30
0.0
  40
 0.30000000000000
 100
AcDbArc
  50
0.0
  51
 90.000000000011
   0
POINT
   5
3BD
 100
AcDbEntity
   8
LEVEL001
 100
AcDbPoint
  62
15
  10
 142.43212210273
  20
 92.566653272733
  30
0.0
   0
LINE
   5
3BE
 100
AcDbEntity
   8
LEVEL001
 100
AcDbLine
   6
CONTINUOUS
  62
15
  10
 142.43212210273
  20
 91.066653272733
  30
0.0
  11
 142.43212210273
  21
 92.266653272733
  31
0.0
   0
LINE
   5
3BF
 100
AcDbEntity
   8
LEVEL001
 100
AcDbLine
   6
CONTINUOUS
  62
15
  10
 142.43212210273
  20
 89.866653272733
  30
0.0
  11
 142.43212210273
  21
 91.066653272733
  31
0.0
   0
ARC
   5
3C0
 100
AcDbEntity
   8
LEVEL001
   6
CONTINUOUS
  62
15
 100
AcDbCircle
  10
 142.13212210273
  20
 89.866653272733
  30
0.0
  40
 0.30000000000000
 100
AcDbArc
  50
 269.99999999979
  51
 0.27140733281914E-11
   0
POINT
   5
3C1
 100
AcDbEntity
   8
LEVEL001
 100
AcDbPoint
  62
15
  10
 142.43212210273
  20
 89.566653272733
  30
0.0
   0
LINE
   5
3C2
 100
AcDbEntity
   8
LEVEL001
 100
AcDbLine
   6
CONTINUOUS
  62
15
  10
 141.43212210273
  20
 89.866653272733
  30
0.0
  11
 141.43212210273
  21
 91.066653272733
  31
0.0
   0
ARC
   5
3C3
 100
AcDbEntity
   8
LEVEL001
   6
CONTINUOUS
  62
15
 100
AcDbCircle
  10
 141.73212210273
  20
 89.866653272733
  30
0.0
  40
 0.30000000000000
 100
AcDbArc
  50
 180.00000000000
  51
 269.99999999940
   0
POINT
   5
3C4
 100
AcDbEntity
   8
LEVEL001
 100
AcDbPoint
  62
15
  10
 141.43212210273
  20
 89.566653272733
  30
0.0
   0
LINE
   5
3C5
 100
AcDbEntity
   8
LEVEL001
 100
AcDbLine
   6
CONTINUOUS
  62
15
  10
 141.73212210273
  20
 89.566653272733
  30
0.0
  11
 142.13212210273
  21
 89.566653272733
  31
0.0
   0
POINT
   5
3C6
 100
AcDbEntity
   8
LEVEL001
 100
AcDbPoint
  62
15
  10
 141.90331882967
  20
 78.316653272733
  30
0.0
   0
LINE
   5
3C7
 100
AcDbEntity
   8
LEVEL001
 100
AcDbLine
   6
CONTINUOUS
  62
15
  10
 142.43212210273
  20
 78.266653272733
  30
0.0
  11
 142.43212210273
  21
 77.066653272733
  31
0.0
   0
ARC
   5
3C8
 100
AcDbEntity
   8
LEVEL001
   6
CONTINUOUS
  62
15
 100
AcDbCircle
  10
 142.13212210273
  20
 78.266653272733
  30
0.0
  40
 0.30000000000000
 100
AcDbArc
  50
0.0
  51
 90.000000000320
   0
POINT
   5
3C9
 100
AcDbEntity
   8
LEVEL001
 100
AcDbPoint
  62
15
  10
 142.43212210273
  20
 78.566653272733
  30
0.0
   0
LINE
   5
3CA
 100
AcDbEntity
   8
LEVEL001
 100
AcDbLine
   6
CONTINUOUS
  62
15
  10
 141.43212210273
  20
 78.266653272733
  30
0.0
  11
 141.43212210273
  21
 77.066653272733
  31
0.0
   0
ARC
   5
3CB
 100
AcDbEntity
   8
LEVEL001
   6
CONTINUOUS
  62
15
 100
AcDbCircle
  10
 141.73212210273
  20
 78.266653272733
  30
0.0
  40
 0.30000000000000
 100
AcDbArc
  50
 90.000000000483
  51
 180.00000000000
   0
POINT
   5
3CC
 100
AcDbEntity
   8
LEVEL001
 100
AcDbPoint
  62
15
  10
 141.43212210273
  20
 78.566653272733
  30
0.0
   0
LINE
   5
3CD
 100
AcDbEntity
   8
LEVEL001
 100
AcDbLine
   6
CONTINUOUS
  62
15
  10
 141.73212210273
  20
 78.566653272733
  30
0.0
  11
 142.13212210273
  21
 78.566653272733
  31
0.0
   0
POINT
   5
3CE
 100
AcDbEntity
   8
LEVEL001
 100
AcDbPoint
  62
15
  10
 141.90331882967
  20
 75.816653272733
  30
0.0
   0
LINE
   5
3CF
 100
AcDbEntity
   8
LEVEL001
 100
AcDbLine
   6
CONTINUOUS
  62
15
  10
 141.43212210273
  20
 77.066653272733
  30
0.0
  11
 141.43212210273
  21
 75.866653272733
  31
0.0
   0
ARC
   5
3D0
 100
AcDbEntity
   8
LEVEL001
   6
CONTINUOUS
  62
15
 100
AcDbCircle
  10
 141.73212210273
  20
 75.866653272733
  30
0.0
  40
 0.30000000000000
 100
AcDbArc
  50
 180.00000000000
  51
 269.99999999933
   0
POINT
   5
3D1
 100
AcDbEntity
   8
LEVEL001
 100
AcDbPoint
  62
15
  10
 141.43212210273
  20
 75.566653272733
  30
0.0
   0
LINE
   5
3D2
 100
AcDbEntity
   8
LEVEL001
 100
AcDbLine
   6
CONTINUOUS
  62
15
  10
 141.73212210273
  20
 75.566653272733
  30
0.0
  11
 142.13212210273
  21
 75.566653272733
  31
0.0
   0
ARC
   5
3D3
 100
AcDbEntity
   8
LEVEL001
   6
CONTINUOUS
  62
15
 100
AcDbCircle
  10
 142.13212210273
  20
 75.866653272734
  30
0.0
  40
 0.30000000000000
 100
AcDbArc
  50
 269.99999999999
  51
0.0
   0
POINT
   5
3D4
 100
AcDbEntity
   8
LEVEL001
 100
AcDbPoint
  62
15
  10
 142.43212210273
  20
 75.566653272733
  30
0.0
   0
LINE
   5
3D5
 100
AcDbEntity
   8
LEVEL001
 100
AcDbLine
   6
CONTINUOUS
  62
15
  10
 142.43212210273
  20
 77.066653272733
  30
0.0
  11
 142.43212210273
  21
 75.866653272733
  31
0.0
   0
LINE
   5
3D6
 100
AcDbEntity
   8
LEVEL001
 100
AcDbLine
   6
DASHDOT
  62
3
  10
 154.23987550421
  20
 94.066653272733
  30
0.0
  11
 141.87256777405
  21
 94.066653272733
  31
0.0
   0
LINE
   5
3D7
 100
AcDbEntity
   8
LEVEL001
 100
AcDbLine
   6
DASHDOT
  62
3
  10
 154.64980690945
  20
 74.066653272733
  30
0.0
  11
 141.72105900960
  21
 74.066653272733
  31
0.0
   0
LINE
   5
3D8
 100
AcDbEntity
   8
LEVEL001
 100
AcDbLine
   6
DASHDOT
  62
3
  10
 141.62544627234
  20
 98.751901644283
  30
0.0
  11
 169.77298409349
  21
 79.986876430186
  31
0.0
   0
LINE
   5
3D9
 100
AcDbEntity
   8
LEVEL001
 100
AcDbLine
   6
DASHDOT
  62
3
  10
 169.97296241729
  20
 88.279748997815
  30
0.0
  11
 140.97235989642
  21
 68.946013983905
  31
0.0
   0
LINE
   5
3DA
 100
AcDbEntity
   8
LEVEL001
 100
AcDbLine
   6
CONTINUOUS
  62
7
  10
 159.06282926734
  20
 82.508639929388
  30
0.0
  11
 151.85705790134
  21
 77.704792352061
  31
0.0
   0
LINE
   5
3DB
 100
AcDbEntity
   8
LEVEL001
 100
AcDbLine
   6
CONTINUOUS
  62
7
  10
 146.90331882967
  20
 101.36665327273
  30
0.0
  11
 142.38939882967
  21
 101.36665327273
  31
0.0
   0
LINE
   5
3DC
 100
AcDbEntity
   8
LEVEL001
 100
AcDbLine
   6
DOT
  62
1
  10
 192.23331882967
  20
 101.56665327273
  30
0.0
  11
 206.23331882967
  21
 101.56665327273
  31
0.0
   0
LINE
   5
3DD
 100
AcDbEntity
   8
LEVEL001
 100
AcDbLine
   6
DOT
  62
1
  10
 192.23331882967
  20
 66.566653272733
  30
0.0
  11
 192.23331882967
  21
 101.56665327273
  31
0.0
   0
LINE
   5
3DE
 100
AcDbEntity
   8
LEVEL001
 100
AcDbLine
   6
DOT
  62
1
  10
 167.40331882967
  20
 101.36665327273
  30
0.0
  11
 190.23331882967
  21
 101.36665327273
  31
0.0
   0
LINE
   5
3DF
 100
AcDbEntity
   8
LEVEL001
 100
AcDbLine
   6
DOT
  62
1
  10
 190.23331882967
  20
 93.816653272733
  30
0.0
  11
 192.23331882967
  21
 93.816653272733
  31
0.0
   0
LINE
   5
3E0
 100
AcDbEntity
   8
LEVEL001
 100
AcDbLine
   6
DOT
  62
1
  10
 190.23331882967
  20
 89.316653272733
  30
0.0
  11
 192.23331882967
  21
 89.316653272733
  31
0.0
   0
LINE
   5
3E1
 100
AcDbEntity
   8
LEVEL001
 100
AcDbLine
   6
DOT
  62
1
  10
 188.28128547997
  20
 88.566653272733
  30
0.0
  11
 190.23331882967
  21
 88.566653272733
  31
0.0
   0
LINE
   5
3E2
 100
AcDbEntity
   8
LEVEL001
 100
AcDbLine
   6
DOT
  62
1
  10
 188.23331882967
  20
 85.066653272733
  30
0.0
  11
 190.23331882967
  21
 85.066653272733
  31
0.0
   0
LINE
   5
3E3
 100
AcDbEntity
   8
LEVEL001
 100
AcDbLine
   6
DOT
  62
1
  10
 188.28128547997
  20
 79.566653272733
  30
0.0
  11
 190.23331882967
  21
 79.566653272733
  31
0.0
   0
LINE
   5
3E4
 100
AcDbEntity
   8
LEVEL001
 100
AcDbLine
   6
DOT
  62
1
  10
 188.23331882967
  20
 83.066653272733
  30
0.0
  11
 190.23331882967
  21
 83.066653272733
  31
0.0
   0
LINE
   5
3E5
 100
AcDbEntity
   8
LEVEL001
 100
AcDbLine
   6
DOT
  62
1
  10
 190.23331882967
  20
 78.816653272733
  30
0.0
  11
 192.23331882967
  21
 78.816653272733
  31
0.0
   0
LINE
   5
3E6
 100
AcDbEntity
   8
LEVEL001
 100
AcDbLine
   6
DOT
  62
1
  10
 190.23331882967
  20
 74.316653272733
  30
0.0
  11
 192.23331882967
  21
 74.316653272733
  31
0.0
   0
LINE
   5
3E7
 100
AcDbEntity
   8
LEVEL001
 100
AcDbLine
   6
CONTINUOUS
  62
7
  10
 168.65331882967
  20
 84.066653272733
  30
0.0
  11
 168.65331882967
  21
 102.36665327273
  31
0.0
   0
ARC
   5
3E8
 100
AcDbEntity
   8
LEVEL001
   6
CONTINUOUS
  62
7
 100
AcDbCircle
  10
 168.15331882967
  20
 102.36665327273
  30
0.0
  40
 0.50000000000000
 100
AcDbArc
  50
0.0
  51
 89.999999999837
   0
POINT
   5
3E9
 100
AcDbEntity
   8
LEVEL001
 100
AcDbPoint
  62
7
  10
 168.65331882967
  20
 102.86665327273
  30
0.0
   0
LINE
   5
3EA
 100
AcDbEntity
   8
LEVEL001
 100
AcDbLine
   6
CONTINUOUS
  62
7
  10
 140.65331882967
  20
 102.86665327273
  30
0.0
  11
 168.15331882967
  21
 102.86665327273
  31
0.0
   0
LINE
   5
3EB
 100
AcDbEntity
   8
LEVEL001
 100
AcDbLine
   6
CONTINUOUS
  62
7
  10
 168.65331882967
  20
 65.766653272733
  30
0.0
  11
 168.65331882967
  21
 84.066653272733
  31
0.0
   0
ARC
   5
3EC
 100
AcDbEntity
   8
LEVEL001
   6
CONTINUOUS
  62
7
 100
AcDbCircle
  10
 168.15331882967
  20
 65.766653272733
  30
0.0
  40
 0.50000000000000
 100
AcDbArc
  50
 270.00000000006
  51
0.0
   0
POINT
   5
3ED
 100
AcDbEntity
   8
LEVEL001
 100
AcDbPoint
  62
7
  10
 168.65331882967
  20
 65.266653272733
  30
0.0
   0
LINE
   5
3EE
 100
AcDbEntity
   8
LEVEL001
 100
AcDbLine
   6
CONTINUOUS
  62
7
  10
 140.65331882967
  20
 65.266653272733
  30
0.0
  11
 168.15331882967
  21
 65.266653272733
  31
0.0
   0
ARC
   5
3EF
 100
AcDbEntity
   8
LEVEL001
   6
CONTINUOUS
  62
7
 100
AcDbCircle
  10
 195.31315116303
  20
 102.36665327273
  30
0.0
  40
 0.50000000000000
 100
AcDbArc
  50
 313.04798191464
  51
 89.999999999837
   0
ARC
   5
3F0
 100
AcDbEntity
   8
LEVEL001
   6
CONTINUOUS
  62
7
 100
AcDbCircle
  10
 195.31315116303
  20
 65.766653272734
  30
0.0
  40
 0.50000000000000
 100
AcDbArc
  50
 270.00000000014
  51
 46.952018085388
   0
ARC
   5
3F1
 100
AcDbEntity
   8
LEVEL001
   6
CONTINUOUS
  62
7
 100
AcDbCircle
  10
 212.40685138508
  20
 84.066653272733
  30
0.0
  40
 24.541657039447
 100
AcDbArc
  50
 133.04798191442
  51
 226.95201808558
   0
LINE
   5
3F2
 100
AcDbEntity
   8
LEVEL001
 100
AcDbLine
   6
CONTINUOUS
  62
7
  10
 168.65331882967
  20
 102.86665327273
  30
0.0
  11
 205.23331882943
  21
 102.86665327273
  31
0.0
   0
LINE
   5
3F3
 100
AcDbEntity
   8
LEVEL001
 100
AcDbLine
   6
CONTINUOUS
  62
7
  10
 187.86519434563
  20
 65.266653272733
  30
0.0
  11
 205.23331882974
  21
 65.266653272733
  31
0.0
   0
INSERT
   5
3F4
 100
AcDbEntity
   8
LEVEL001
 100
AcDbBlockReference
   2
*D14
  10
0.0
  20
0.0
  30
0.0
   0
DIMENSION
   5
3F5
 100
AcDbEntity
   8
LEVEL001
   6
CONTINUOUS
  62
3
 100
AcDbDimension
   2
*D15
  10
 122.72170115742
  20
 74.066653272733
  30
0.0
  11
 122.72170115742
  21
 84.066653272733
  31
0.0
  70
0
   3
GMM004
 100
AcDbAlignedDimension
  13
 141.87256777405
  23
 94.066653272733
  33
0.0
  14
 141.72105900960
  24
 74.066653272733
  34
0.0
  50
 270.00000000000
 100
AcDbRotatedDimension
   0
DIMENSION
   5
3F6
 100
AcDbEntity
   8
LEVEL001
   6
CONTINUOUS
  62
3
 100
AcDbDimension
   2
*D16
  10
 163.65331882967
  20
 117.62006505648
  30
0.0
  11
 166.15331882967
  21
 117.62006505648
  31
0.0
  70
0
   3
GMM004
 100
AcDbAlignedDimension
  13
 168.65331882967
  23
 102.86665327273
  33
0.0
  14
 163.65331882967
  24
 106.24244016120
  34
0.0
  50
 180.00000000000
 100
AcDbRotatedDimension
   0
DIMENSION
   5
3F7
 100
AcDbEntity
   8
LEVEL001
   6
CONTINUOUS
  62
3
 100
AcDbDimension
   2
*D17
  10
 148.65331882967
  20
 117.62006505648
  30
0.0
  11
 156.15331882967
  21
 117.62006505648
  31
0.0
  70
0
   3
GMM004
 100
AcDbAlignedDimension
  13
 163.65331882967
  23
 117.62006505648
  33
0.0
  14
 148.65331882967
  24
 106.69478543892
  34
0.0
  50
 180.00000000000
 100
AcDbRotatedDimension
   0
DIMENSION
   5
3F8
 100
AcDbEntity
   8
LEVEL001
   6
CONTINUOUS
  62
3
 100
AcDbDimension
   2
*D18
  10
 168.15331882967
  20
 102.36665327273
  30
0.0
  11
 173.49971946435
  21
 107.92641063693
  31
0.0
  70
132
   3
GMM007
 100
AcDbRadialDimension
  15
 168.49988935797
  25
 102.72705425624
  35
0.0
  40
 7.4142014658551
   0
LINE
   5
3F9
 100
AcDbEntity
   8
LEVEL001
 100
AcDbLine
   6
DASHDOT
  62
3
  10
 148.65331882967
  20
 106.69478543892
  30
0.0
  11
 148.65331882967
  21
 60.675617643018
  31
0.0
   0
LINE
   5
3FA
 100
AcDbEntity
   8
LEVEL001
 100
AcDbLine
   6
CONTINUOUS
  62
7
  10
 167.40331882967
  20
 67.266653272733
  30
0.0
  11
 167.40331882967
  21
 80.266982234341
  31
0.0
   0
ARC
   5
3FB
 100
AcDbEntity
   8
LEVEL001
   6
CONTINUOUS
  62
7
 100
AcDbCircle
  10
 166.90331882967
  20
 67.266653272733
  30
0.0
  40
 0.50000000000000
 100
AcDbArc
  50
 269.99999999996
  51
0.0
   0
POINT
   5
3FC
 100
AcDbEntity
   8
LEVEL001
 100
AcDbPoint
  62
7
  10
 167.40331882967
  20
 66.766653272733
  30
0.0
   0
LINE
   5
3FD
 100
AcDbEntity
   8
LEVEL001
 100
AcDbLine
   6
DOT
  62
1
  10
 192.23331882967
  20
 66.566653272733
  30
0.0
  11
 206.23331882967
  21
 66.566653272733
  31
0.0
   0
LINE
   5
3FE
 100
AcDbEntity
   8
LEVEL001
 100
AcDbLine
   6
DOT
  62
1
  10
 167.40331882967
  20
 66.766653272733
  30
0.0
  11
 190.23331882967
  21
 66.766653272733
  31
0.0
   0
LINE
   5
3FF
 100
AcDbEntity
   8
LEVEL001
 100
AcDbLine
   6
DOT
  62
1
  10
 188.23331882967
  20
 66.766653272733
  30
0.0
  11
 188.23331882967
  21
 101.36665327273
  31
0.0
   0
LINE
   5
400
 100
AcDbEntity
   8
LEVEL001
 100
AcDbLine
   6
DOT
  62
1
  10
 190.23331882967
  20
 66.766653272733
  30
0.0
  11
 190.23331882967
  21
 101.36665327273
  31
0.0
   0
LINE
   5
401
 100
AcDbEntity
   8
LEVEL001
 100
AcDbLine
   6
DOT
  62
1
  10
 168.65331882967
  20
 85.066653272733
  30
0.0
  11
 187.88557633173
  21
 85.066653272733
  31
0.0
   0
LINE
   5
402
 100
AcDbEntity
   8
LEVEL001
 100
AcDbLine
   6
DOT
  62
1
  10
 168.65331882967
  20
 83.066653272733
  30
0.0
  11
 187.88557633173
  21
 83.066653272733
  31
0.0
   0
LINE
   5
403
 100
AcDbEntity
   8
LEVEL001
 100
AcDbLine
   6
CONTINUOUS
  62
7
  10
 164.90331882967
  20
 67.266653272733
  30
0.0
  11
 164.90331882967
  21
 79.382904773934
  31
0.0
   0
ARC
   5
404
 100
AcDbEntity
   8
LEVEL001
   6
CONTINUOUS
  62
7
 100
AcDbCircle
  10
 165.40331882967
  20
 67.266653272733
  30
0.0
  40
 0.50000000000000
 100
AcDbArc
  50
 180.00000000000
  51
 270.00000000001
   0
POINT
   5
405
 100
AcDbEntity
   8
LEVEL001
 100
AcDbPoint
  62
7
  10
 164.90331882967
  20
 66.766653272733
  30
0.0
   0
LINE
   5
406
 100
AcDbEntity
   8
LEVEL001
 100
AcDbLine
   6
CONTINUOUS
  62
7
  10
 166.90331882967
  20
 66.766653272733
  30
0.0
  11
 165.40331882967
  21
 66.766653272733
  31
0.0
   0
LINE
   5
407
 100
AcDbEntity
   8
LEVEL001
 100
AcDbLine
   6
CONTINUOUS
  62
7
  10
 162.40331882967
  20
 67.266653272733
  30
0.0
  11
 162.40331882967
  21
 79.382904773934
  31
0.0
   0
ARC
   5
408
 100
AcDbEntity
   8
LEVEL001
   6
CONTINUOUS
  62
7
 100
AcDbCircle
  10
 161.90331882967
  20
 67.266653272733
  30
0.0
  40
 0.50000000000000
 100
AcDbArc
  50
 269.99999999996
  51
0.0
   0
POINT
   5
409
 100
AcDbEntity
   8
LEVEL001
 100
AcDbPoint
  62
7
  10
 162.40331882967
  20
 66.766653272733
  30
0.0
   0
LINE
   5
40A
 100
AcDbEntity
   8
LEVEL001
 100
AcDbLine
   6
CONTINUOUS
  62
7
  10
 149.90331882967
  20
 67.266653272733
  30
0.0
  11
 149.90331882967
  21
 69.382904773934
  31
0.0
   0
ARC
   5
40B
 100
AcDbEntity
   8
LEVEL001
   6
CONTINUOUS
  62
7
 100
AcDbCircle
  10
 150.40331882967
  20
 67.266653272733
  30
0.0
  40
 0.50000000000000
 100
AcDbArc
  50
 180.00000000000
  51
 270.00000000001
   0
POINT
   5
40C
 100
AcDbEntity
   8
LEVEL001
 100
AcDbPoint
  62
7
  10
 149.90331882967
  20
 66.766653272733
  30
0.0
   0
LINE
   5
40D
 100
AcDbEntity
   8
LEVEL001
 100
AcDbLine
   6
CONTINUOUS
  62
7
  10
 161.90331882967
  20
 66.766653272733
  30
0.0
  11
 150.40331882967
  21
 66.766653272733
  31
0.0
   0
LINE
   5
40E
 100
AcDbEntity
   8
LEVEL001
 100
AcDbLine
   6
CONTINUOUS
  62
7
  10
 141.88939882967
  20
 67.266653272733
  30
0.0
  11
 141.88939882967
  21
 72.316653272733
  31
0.0
   0
ARC
   5
40F
 100
AcDbEntity
   8
LEVEL001
   6
CONTINUOUS
  62
7
 100
AcDbCircle
  10
 142.38939882967
  20
 67.266653272733
  30
0.0
  40
 0.50000000000000
 100
AcDbArc
  50
 180.00000000000
  51
 270.00000000014
   0
POINT
   5
410
 100
AcDbEntity
   8
LEVEL001
 100
AcDbPoint
  62
7
  10
 141.88939882967
  20
 66.766653272733
  30
0.0
   0
LINE
   5
411
 100
AcDbEntity
   8
LEVEL001
 100
AcDbLine
   6
CONTINUOUS
  62
7
  10
 147.40331882967
  20
 67.266653272733
  30
0.0
  11
 147.40331882967
  21
 69.382904773934
  31
0.0
   0
ARC
   5
412
 100
AcDbEntity
   8
LEVEL001
   6
CONTINUOUS
  62
7
 100
AcDbCircle
  10
 146.90331882967
  20
 67.266653272733
  30
0.0
  40
 0.50000000000000
 100
AcDbArc
  50
 269.99999999996
  51
0.0
   0
POINT
   5
413
 100
AcDbEntity
   8
LEVEL001
 100
AcDbPoint
  62
7
  10
 147.40331882967
  20
 66.766653272733
  30
0.0
   0
LINE
   5
414
 100
AcDbEntity
   8
LEVEL001
 100
AcDbLine
   6
CONTINUOUS
  62
7
  10
 146.90331882967
  20
 66.766653272733
  30
0.0
  11
 142.38939882967
  21
 66.766653272733
  31
0.0
   0
DIMENSION
   5
415
 100
AcDbEntity
   8
LEVEL001
   6
CONTINUOUS
  62
3
 100
AcDbDimension
   2
*D19
  10
 156.51252131114
  20
 65.266653272733
  30
0.0
  11
 156.51252131114
  21
 59.283032995353
  31
0.0
  70
128
   3
GMM008
 100
AcDbAlignedDimension
  13
 156.56239997986
  23
 66.766653272733
  33
0.0
  14
 156.51252131114
  24
 65.266653272733
  34
0.0
  50
 270.00000000000
 100
AcDbRotatedDimension
   0
LINE
   5
416
 100
AcDbEntity
   8
LEVEL001
 100
AcDbLine
   6
CONTINUOUS
  62
7
  10
 167.40331882967
  20
 87.866324311126
  30
0.0
  11
 167.40331882967
  21
 100.86665327273
  31
0.0
   0
LINE
   5
417
 100
AcDbEntity
   8
LEVEL001
 100
AcDbLine
   6
DASHDOT
  62
3
  10
 60.182585351625
  20
 211.62273248838
  30
0.0
  11
 105.76077760414
  21
 211.62273248838
  31
0.0
   0
LINE
   5
418
 100
AcDbEntity
   8
LEVEL001
 100
AcDbLine
   6
DASHDOT
  62
3
  10
 102.24464440608
  20
 209.12273248838
  30
0.0
  11
 107.33195566886
  21
 209.12273248838
  31
0.0
   0
LINE
   5
419
 100
AcDbEntity
   8
LEVEL001
 100
AcDbLine
   6
DASHDOT
  62
3
  10
 174.43585729906
  20
 209.12273248838
  30
0.0
  11
 217.36556031835
  21
 209.12273248838
  31
0.0
   0
LINE
   5
41A
 100
AcDbEntity
   8
LEVEL001
 100
AcDbLine
   6
CONTINUOUS
  62
7
  10
 141.33939882967
  20
 150.62388678760
  30
0.0
  11
 168.61785857317
  21
 209.12273248838
  31
0.0
   0
LINE
   5
41B
 100
AcDbEntity
   8
LEVEL001
 100
AcDbLine
   6
CONTINUOUS
  62
15
  10
 140.30838570822
  20
 149.12273248838
  30
0.0
  11
 141.00784719546
  21
 150.62273248838
  31
0.0
   0
LINE
   5
41C
 100
AcDbEntity
   8
LEVEL001
 100
AcDbLine
   6
CONTINUOUS
  62
15
  10
 141.10110872704
  20
 150.82273248838
  30
0.0
  11
 177.14669070243
  21
 228.12273248838
  31
0.0
   0
LINE
   5
41D
 100
AcDbEntity
   8
LEVEL001
 100
AcDbLine
   6
DOT
  62
1
  10
 141.33939882967
  20
 101.36665327273
  30
0.0
  11
 141.88939882967
  21
 101.36665327273
  31
0.0
   0
LINE
   5
41E
 100
AcDbEntity
   8
LEVEL001
 100
AcDbLine
   6
DOT
  62
1
  10
 141.33939882967
  20
 66.766653272733
  30
0.0
  11
 141.88939882967
  21
 66.766653272733
  31
0.0
   0
LINE
   5
41F
 100
AcDbEntity
   8
LEVEL001
 100
AcDbLine
   6
DOT
  62
1
  10
 141.33939882967
  20
 102.86665327273
  30
0.0
  11
 141.33939882967
  21
 92.619702084558
  31
0.0
   0
LINE
   5
420
 100
AcDbEntity
   8
LEVEL001
 100
AcDbLine
   6
DOT
  62
1
  10
 141.33939882967
  20
 89.486582745618
  30
0.0
  11
 141.33939882967
  21
 78.645194000015
  31
0.0
   0
LINE
   5
421
 100
AcDbEntity
   8
LEVEL001
 100
AcDbLine
   6
DOT
  62
1
  10
 141.33939882967
  20
 75.526853525881
  30
0.0
  11
 141.33939882967
  21
 65.266653272733
  31
0.0
   0
LINE
   5
422
 100
AcDbEntity
   8
LEVEL001
 100
AcDbLine
   6
DASHDOT
  62
3
  10
 131.58044370913
  20
 84.066653272733
  30
0.0
  11
 219.00635489254
  21
 84.066653272733
  31
0.0
   0
LINE
   5
423
 100
AcDbEntity
   8
LEVEL001
 100
AcDbLine
   6
DASHDOT
  62
3
  10
 139.16750661524
  20
 77.066653272733
  30
0.0
  11
 144.57086452436
  21
 77.066653272733
  31
0.0
   0
LINE
   5
424
 100
AcDbEntity
   8
LEVEL001
 100
AcDbLine
   6
DASHDOT
  62
3
  10
 139.16750661524
  20
 91.066653272733
  30
0.0
  11
 144.57086452436
  21
 91.066653272733
  31
0.0
   0
DIMENSION
   5
425
 100
AcDbEntity
   8
LEVEL001
   6
CONTINUOUS
  62
3
 100
AcDbDimension
   2
*D20
  10
 256.19416841182
  20
 149.12273248838
  30
0.0
  11
 256.19416841182
  21
 179.12273248838
  31
0.0
  70
0
   3
GMM004
 100
AcDbAlignedDimension
  13
 269.57511626199
  23
 209.12273248838
  33
0.0
  14
 274.30549184081
  24
 149.12273248838
  34
0.0
  50
 270.00000000000
 100
AcDbRotatedDimension
   0
DIMENSION
   5
426
 100
AcDbEntity
   8
LEVEL001
   6
CONTINUOUS
  62
3
 100
AcDbDimension
   2
*D21
  10
 256.19416841182
  20
 211.62273248838
  30
0.0
  11
 256.19416841182
  21
 219.79980087671
  31
0.0
  70
128
   3
GMM008
 100
AcDbAlignedDimension
  13
 269.57511626199
  23
 209.12273248838
  33
0.0
  14
 269.59983089258
  24
 211.62273248838
  34
0.0
  50
 90.000000000000
 100
AcDbRotatedDimension
   0
LINE
   5
427
 100
AcDbEntity
   8
LEVEL001
 100
AcDbLine
   6
CONTINUOUS
  62
7
  10
 64.761588753559
  20
 206.62273248838
  30
0.0
  11
 64.761588753559
  21
 209.88523248838
  31
0.0
   0
LINE
   5
428
 100
AcDbEntity
   8
LEVEL001
 100
AcDbLine
   6
CONTINUOUS
  62
15
  10
 64.761588753559
  20
 149.12273248838
  30
0.0
  11
 64.761588753559
  21
 150.62273248838
  31
0.0
   0
LINE
   5
429
 100
AcDbEntity
   8
LEVEL001
 100
AcDbLine
   6
CONTINUOUS
  62
15
  10
 64.761588753559
  20
 150.82273248838
  30
0.0
  11
 64.761588753559
  21
 204.22196724201
  31
0.0
   0
LINE
   5
42A
 100
AcDbEntity
   8
LEVEL001
 100
AcDbLine
   6
CONTINUOUS
  62
15
  10
 101.06158875356
  20
 149.12273248838
  30
0.0
  11
 101.06158875356
  21
 150.62273248838
  31
0.0
   0
LINE
   5
42B
 100
AcDbEntity
   8
LEVEL001
 100
AcDbLine
   6
CONTINUOUS
  62
15
  10
 101.06158875356
  20
 150.82273248838
  30
0.0
  11
 101.06158875356
  21
 209.88523248838
  31
0.0
   0
ARC
   5
42C
 100
AcDbEntity
   8
LEVEL001
   6
CONTINUOUS
  62
15
 100
AcDbCircle
  10
 82.911588753559
  20
 209.88523248838
  30
0.0
  40
 18.150000000000
 100
AcDbArc
  50
0.0
  51
 180.00000000000
   0
LINE
   5
42D
 100
AcDbEntity
   8
LEVEL001
 100
AcDbLine
   6
DASHDOT
  62
3
  10
 140.18294867964
  20
 148.14271713842
  30
0.0
  11
 141.33939882967
  21
 150.62273248838
  31
0.0
   0
DIMENSION
   5
42E
 100
AcDbEntity
   8
LEVEL001
   6
CONTINUOUS
  62
3
 100
AcDbDimension
   2
*D22
  10
 206.23331882967
  20
 131.40372788216
  30
0.0
  11
 187.43635882967
  21
 131.40372788216
  31
0.0
  70
0
   1
\A1;37.5
   3
GMM009
 100
AcDbAlignedDimension
  13
 168.63939882967
  23
 131.40372788216
  33
0.0
  14
 206.23331882967
  24
 191.12273248830
  34
0.0
 100
AcDbRotatedDimension
   0
ENDSEC
  0
SECTION
  2
OBJECTS
  0
DICTIONARY
  5
C
100
AcDbDictionary
  3
ACAD_GROUP
350
D
  3
ACAD_MLINESTYLE
350
1B
  0
DICTIONARY
  5
D
102
{ACAD_REACTORS
330
C
102
}
100
AcDbDictionary
  0
DICTIONARY
  5
1B
102
{ACAD_REACTORS
330
C
102
}
100
AcDbDictionary
  3
STANDARD
350
1C
  0
MLINESTYLE
  5
1C
102
{ACAD_REACTORS
330
1B
102
}
100
AcDbMlineStyle
  2
STANDARD
 70
     0
  3

 62
   256
 51
90.0
 52
90.0
 71
     2
 49
0.5
 62
   256
  6
BYLAYER
 49
-0.5
 62
   256
  6
BYLAYER
  0
ENDSEC
   0
EOF
