   0
SECTION
   2
HEADER
   9
$ACADVER
   1
AC1015
   9
$DWGCODEPAGE
   3
ANSI_932
   9
$LIMMIN
  10
0.0
  20
0.0
   9
$LIMMAX
  10
 420.00000000000
  20
 297.00000000000
   9
$EXTMIN
  10
0.0
  20
0.0
  30
0.0
   9
$EXTMAX
  10
 420.00000000000
  20
 297.00000000000
  30
0.0
   9
$LTSCALE
  40
 8.4000000000000
   9
$HANDSEED
   5
51B
   0
ENDSEC
   0
SECTION
   2
TABLES
  0
TABLE
  2
VPORT
  5
8
100
AcDbSymbolTable
 70
     1
  0
VPORT
  5
51A
100
AcDbSymbolTableRecord
100
AcDbViewportTableRecord
  2
*ACTIVE
 70
     0
 10
0.0
 20
0.0
 11
1.0
 21
1.0
  12
 210.00000000000
  22
 148.50000000000
 13
0.0
 23
0.0
 14
1.0
 24
1.0
 15
0.0
 25
0.0
 16
0.0
 26
0.0
 36
1.0
 17
0.0
 27
0.0
 37
0.0
  40
 420.00000000000
  41
 1.4787878787879
 42
50.0
 43
0.0
 44
0.0
 50
0.0
 51
0.0
 71
     0
 72
   100
 73
     1
 74
     1
 75
     0
 76
     0
 77
     0
 78
     0
  0
ENDTAB
  0
TABLE
  2
LTYPE
  5
5
100
AcDbSymbolTable
 70
    25
  0
LTYPE
  5
12
100
AcDbSymbolTableRecord
100
AcDbLinetypeTableRecord
  2
BYBLOCK
 70
     0
  3

 72
    65
 73
     0
 40
0.0
  0
LTYPE
  5
13
100
AcDbSymbolTableRecord
100
AcDbLinetypeTableRecord
  2
BYLAYER
 70
     0
  3

 72
    65
 73
     0
 40
0.0
  0
LTYPE
  5
14
100
AcDbSymbolTableRecord
100
AcDbLinetypeTableRecord
  2
CONTINUOUS
 70
     0
  3
Solid line
 72
    65
 73
     0
 40
0.0
  0
LTYPE
  5
20
100
AcDbSymbolTableRecord
100
AcDbLinetypeTableRecord
  2
BORDER
 70
     0
  3
__ __ . __ __ . __ __ . __ __ . __ __ . __ __ .
 72
    65
 73
     6
 40
1.75
 49
0.5
 74
     0
 49
-0.25
 74
     0
 49
0.5
 74
     0
 49
-0.25
 74
     0
 49
0.0
 74
     0
 49
-0.25
 74
     0
  0
LTYPE
  5
21
100
AcDbSymbolTableRecord
100
AcDbLinetypeTableRecord
  2
BORDER2
 70
     0
  3
__.__.__.__.__.__.__.__.__.__.__.__.__.__.__.__
 72
    65
 73
     6
 40
0.875
 49
0.25
 74
     0
 49
-0.125
 74
     0
 49
0.25
 74
     0
 49
-0.125
 74
     0
 49
0.0
 74
     0
 49
-0.125
 74
     0
  0
LTYPE
  5
22
100
AcDbSymbolTableRecord
100
AcDbLinetypeTableRecord
  2
BORDERX2
 70
     0
  3
____  ____  .  ____  ____  .  ____  ____  .  __
 72
    65
 73
     6
 40
3.5
 49
1.0
 74
     0
 49
-0.5
 74
     0
 49
1.0
 74
     0
 49
-0.5
 74
     0
 49
0.0
 74
     0
 49
-0.5
 74
     0
  0
LTYPE
  5
23
100
AcDbSymbolTableRecord
100
AcDbLinetypeTableRecord
  2
CENTER
 70
     0
  3
____ _ ____ _ ____ _ ____ _ ____ _ ____ _ ____ 
 72
    65
 73
     4
 40
2.0
 49
1.25
 74
     0
 49
-0.25
 74
     0
 49
0.25
 74
     0
 49
-0.25
 74
     0
  0
LTYPE
  5
24
100
AcDbSymbolTableRecord
100
AcDbLinetypeTableRecord
  2
CENTER2
 70
     0
  3
___ _ ___ _ ___ _ ___ _ ___ _ ___ _ ___ _ ___ _
 72
    65
 73
     4
 40
1.125
 49
0.75
 74
     0
 49
-0.125
 74
     0
 49
0.125
 74
     0
 49
-0.125
 74
     0
  0
LTYPE
  5
25
100
AcDbSymbolTableRecord
100
AcDbLinetypeTableRecord
  2
CENTERX2
 70
     0
  3
________  __  ________  __  ________  __  _____
 72
    65
 73
     4
 40
4.0
 49
2.5
 74
     0
 49
-0.5
 74
     0
 49
0.5
 74
     0
 49
-0.5
 74
     0
  0
LTYPE
  5
26
100
AcDbSymbolTableRecord
100
AcDbLinetypeTableRecord
  2
DASHDOT
 70
     0
  3
__ . __ . __ . __ . __ . __ . __ . __ . __ . __
 72
    65
 73
     4
 40
1.0
 49
0.5
 74
     0
 49
-0.25
 74
     0
 49
0.0
 74
     0
 49
-0.25
 74
     0
  0
LTYPE
  5
27
100
AcDbSymbolTableRecord
100
AcDbLinetypeTableRecord
  2
DASHDOT2
 70
     0
  3
_._._._._._._._._._._._._._._._._._._._._._._._
 72
    65
 73
     4
 40
0.5
 49
0.25
 74
     0
 49
-0.125
 74
     0
 49
0.0
 74
     0
 49
-0.125
 74
     0
  0
LTYPE
  5
28
100
AcDbSymbolTableRecord
100
AcDbLinetypeTableRecord
  2
DASHDOTX2
 70
     0
  3
____  .  ____  .  ____  .  ____  .  ____  .  __
 72
    65
 73
     4
 40
2.0
 49
1.0
 74
     0
 49
-0.5
 74
     0
 49
0.0
 74
     0
 49
-0.5
 74
     0
  0
LTYPE
  5
29
100
AcDbSymbolTableRecord
100
AcDbLinetypeTableRecord
  2
DASHED
 70
     0
  3
__ __ __ __ __ __ __ __ __ __ __ __ __ __ __ __
 72
    65
 73
     2
 40
0.75
 49
0.5
 74
     0
 49
-0.25
 74
     0
  0
LTYPE
  5
2A
100
AcDbSymbolTableRecord
100
AcDbLinetypeTableRecord
  2
DASHED2
 70
     0
  3
_ _ _ _ _ _ _ _ _ _ _ _ _ _ _ _ _ _ _ _ _ _ _ _
 72
    65
 73
     2
 40
0.375
 49
0.25
 74
     0
 49
-0.125
 74
     0
  0
LTYPE
  5
2B
100
AcDbSymbolTableRecord
100
AcDbLinetypeTableRecord
  2
DASHEDX2
 70
     0
  3
____  ____  ____  ____  ____  ____  ____  ____ 
 72
    65
 73
     2
 40
1.5
 49
1.0
 74
     0
 49
-0.5
 74
     0
  0
LTYPE
  5
2C
100
AcDbSymbolTableRecord
100
AcDbLinetypeTableRecord
  2
DIVIDE
 70
     0
  3
____ . . ____ . . ____ . . ____ . . ____ . . __
 72
    65
 73
     6
 40
1.25
 49
0.5
 74
     0
 49
-0.25
 74
     0
 49
0.0
 74
     0
 49
-0.25
 74
     0
 49
0.0
 74
     0
 49
-0.25
 74
     0
  0
LTYPE
  5
2D
100
AcDbSymbolTableRecord
100
AcDbLinetypeTableRecord
  2
DIVIDE2
 70
     0
  3
__..__..__..__..__..__..__..__..__..__..__..__.
 72
    65
 73
     6
 40
0.625
 49
0.25
 74
     0
 49
-0.125
 74
     0
 49
0.0
 74
     0
 49
-0.125
 74
     0
 49
0.0
 74
     0
 49
-0.125
 74
     0
  0
LTYPE
  5
2E
100
AcDbSymbolTableRecord
100
AcDbLinetypeTableRecord
  2
DIVIDEX2
 70
     0
  3
________  .  .  ________  .  .  ________  .  . 
 72
    65
 73
     6
 40
2.5
 49
1.0
 74
     0
 49
-0.5
 74
     0
 49
0.0
 74
     0
 49
-0.5
 74
     0
 49
0.0
 74
     0
 49
-0.5
 74
     0
  0
LTYPE
  5
2F
100
AcDbSymbolTableRecord
100
AcDbLinetypeTableRecord
  2
DOT
 70
     0
  3
. . . . . . . . . . . . . . . . . . . . . . . .
 72
    65
 73
     2
 40
0.25
 49
0.0
 74
     0
 49
-0.25
 74
     0
  0
LTYPE
  5
30
100
AcDbSymbolTableRecord
100
AcDbLinetypeTableRecord
  2
DOT2
 70
     0
  3
...............................................
 72
    65
 73
     2
 40
0.125
 49
0.0
 74
     0
 49
-0.125
 74
     0
  0
LTYPE
  5
31
100
AcDbSymbolTableRecord
100
AcDbLinetypeTableRecord
  2
DOTX2
 70
     0
  3
.  .  .  .  .  .  .  .  .  .  .  .  .  .  .  . 
 72
    65
 73
     2
 40
0.5
 49
0.0
 74
     0
 49
-0.5
 74
     0
  0
LTYPE
  5
32
100
AcDbSymbolTableRecord
100
AcDbLinetypeTableRecord
  2
HIDDEN
 70
     0
  3
__ __ __ __ __ __ __ __ __ __ __ __ __ __ __ __
 72
    65
 73
     2
 40
0.375
 49
0.25
 74
     0
 49
-0.125
 74
     0
  0
LTYPE
  5
33
100
AcDbSymbolTableRecord
100
AcDbLinetypeTableRecord
  2
HIDDEN2
 70
     0
  3
_ _ _ _ _ _ _ _ _ _ _ _ _ _ _ _ _ _ _ _ _ _ _ _
 72
    65
 73
     2
 40
0.1875
 49
0.125
 74
     0
 49
-0.0625
 74
     0
  0
LTYPE
  5
34
100
AcDbSymbolTableRecord
100
AcDbLinetypeTableRecord
  2
HIDDENX2
 70
     0
  3
____ ____ ____ ____ ____ ____ ____ ____ ____ __
 72
    65
 73
     2
 40
0.75
 49
0.5
 74
     0
 49
-0.25
 74
     0
  0
LTYPE
  5
35
100
AcDbSymbolTableRecord
100
AcDbLinetypeTableRecord
  2
PHANTOM
 70
     0
  3
______  __  __  ______  __  __  ______  __  __ 
 72
    65
 73
     6
 40
2.5
 49
1.25
 74
     0
 49
-0.25
 74
     0
 49
0.25
 74
     0
 49
-0.25
 74
     0
 49
0.25
 74
     0
 49
-0.25
 74
     0
  0
LTYPE
  5
36
100
AcDbSymbolTableRecord
100
AcDbLinetypeTableRecord
  2
PHANTOM2
 70
     0
  3
___ _ _ ___ _ _ ___ _ _ ___ _ _ ___ _ _ ___ _ _
 72
    65
 73
     6
 40
1.25
 49
0.625
 74
     0
 49
-0.125
 74
     0
 49
0.125
 74
     0
 49
-0.125
 74
     0
 49
0.125
 74
     0
 49
-0.125
 74
     0
  0
LTYPE
  5
37
100
AcDbSymbolTableRecord
100
AcDbLinetypeTableRecord
  2
PHANTOMX2
 70
     0
  3
____________    ____    ____    ____________   
 72
    65
 73
     6
 40
5.0
 49
2.5
 74
     0
 49
-0.5
 74
     0
 49
0.5
 74
     0
 49
-0.5
 74
     0
 49
0.5
 74
     0
 49
-0.5
 74
     0
  0
ENDTAB
   0
TABLE
   2
LAYER
   5
2
 100
AcDbSymbolTable
  70
2
   0
LAYER
   5
E
 100
AcDbSymbolTableRecord
 100
AcDbLayerTableRecord
   2
0
  70
0
  62
7
   6
CONTINUOUS
 390
30
   0
LAYER
   5
39
 100
AcDbSymbolTableRecord
 100
AcDbLayerTableRecord
   2
LEVEL001
  70
0
  62
7
   6
CONTINUOUS
 390
30
   0
ENDTAB
  0
TABLE
  2
STYLE
  5
3
100
AcDbSymbolTable
  70
6
  0
STYLE
  5
F
100
AcDbSymbolTableRecord
100
AcDbTextStyleTableRecord
  2
STANDARD
 70
     0
 40
0.0
 41
1.0
 50
0.0
 71
     0
 42
0.2
  3
TXT
  4
BIGFONT
  0
STYLE
  5
38
100
AcDbSymbolTableRecord
100
AcDbTextStyleTableRecord
  2
STANDARD1
 70
     4
 40
0.0
 41
1.0
 50
0.0
 71
     0
 42
0.2
  3
TXT
  4
BIGFONT
   0
STYLE
   5
3A
 100
AcDbSymbolTableRecord
 100
AcDbTextStyleTableRecord
   2
GMM001
  70
0
  40
0.0
  41
 0.83333333333333
  50
0.0
  71
     0
  42
1.0
   3
txt.shx
   4
bigfont.shx
   0
STYLE
   5
3B
 100
AcDbSymbolTableRecord
 100
AcDbTextStyleTableRecord
   2
GMM002
  70
0
  40
0.0
  41
 0.85714285714286
  50
0.0
  71
     0
  42
1.0
   3
txt.shx
   4
bigfont.shx
   0
STYLE
   5
3C
 100
AcDbSymbolTableRecord
 100
AcDbTextStyleTableRecord
   2
GMM003
  70
0
  40
0.0
  41
 0.82500000000000
  50
0.0
  71
     0
  42
1.0
   3
txt.shx
   4
bigfont.shx
   0
STYLE
   5
3D
 100
AcDbSymbolTableRecord
 100
AcDbTextStyleTableRecord
   2
GMM004
  70
0
  40
0.0
  41
 0.87500000000000
  50
0.0
  71
     0
  42
1.0
   3
txt.shx
   4
bigfont.shx
   0
ENDTAB
  0
TABLE
  2
VIEW
  5
6
100
AcDbSymbolTable
 70
     0
  0
ENDTAB
  0
TABLE
  2
UCS
  5
7
100
AcDbSymbolTable
 70
     0
  0
ENDTAB
  0
TABLE
  2
APPID
  5
9
100
AcDbSymbolTable
 70
     1
  0
APPID
  5
10
100
AcDbSymbolTableRecord
100
AcDbRegAppTableRecord
  2
ACAD
 70
     0
  0
ENDTAB
   0
TABLE
   2
DIMSTYLE
   5
A
 100
AcDbSymbolTable
  70
14
 100
AcDbDimStyleTable
  0
DIMSTYLE
105
1D
100
AcDbSymbolTableRecord
100
AcDbDimStyleTableRecord
  2
STANDARD
 70
     0
  3

  4

  5

  6

  7

 40
1.0
 41
0.18
 42
0.0625
 43
0.38
 44
0.18
 45
0.0
 46
0.0
 47
0.0
 48
0.0
140
0.18
141
0.09
142
0.0
143
25.4
144
1.0
145
0.0
146
1.0
147
0.09
 71
     0
 72
     0
 73
     1
 74
     1
 75
     0
 76
     0
 77
     0
 78
     0
170
     0
171
     2
172
     0
173
     0
174
     0
175
     0
176
     0
177
     0
178
     0
270
     2
271
     4
272
     4
273
     2
274
     2
340
F
275
     0
280
     0
281
     0
282
     0
283
     1
284
     0
285
     0
286
     0
287
     3
288
     0
   0
DIMSTYLE
 105
3E
 100
AcDbSymbolTableRecord
 100
AcDbDimStyleTableRecord
   2
GMM001
  70
0
   3
%%c<>
   4

   5

   6
_OPEN30
   7
_OPEN30
  40
 1.0000000000000
  41
 2.0000000000000
  42
 1.0000000000000
  43
 8.0000000000000
  44
 2.0000000000000
  45
0.0
  46
 2.5000000000000
  47
0.0
  48
0.0
 140
 3.0000000000000
 141
 1.0000000000000
 142
0.0
 143
 0.39400000000000E-1
 144
 1.0000000000000
 145
0.0
 146
 0.62500000000000
 147
 0.40425036182626
  71
0
  72
0
  73
0
  74
0
  75
0
  76
1
  77
1
  78
8
 170
0
 171
2
 172
1
 173
1
 174
0
 175
0
 176
1
 177
1
 178
7
 270
2
 271
6
 272
0
 273
2
 274
2
 340
3A
 275
0
 280
0
 281
0
 282
0
 283
1
 284
0
 285
0
 286
0
 287
3
 288
1
   0
DIMSTYLE
 105
3F
 100
AcDbSymbolTableRecord
 100
AcDbDimStyleTableRecord
   2
GMM002
  70
0
   3
W-<>=L(パイプ長
   4

   5

   6
_OPEN30
   7
_OPEN30
  40
 1.0000000000000
  41
 2.0000000000000
  42
 1.0000000000000
  43
 8.0000000000000
  44
 2.0000000000000
  45
0.0
  46
 2.5000000000000
  47
0.0
  48
0.0
 140
 3.0000000000000
 141
 1.0000000000000
 142
0.0
 143
 0.39400000000000E-1
 144
 1.0000000000000
 145
0.0
 146
 0.62500000000000
 147
 0.50000000000000
  71
0
  72
0
  73
0
  74
0
  75
0
  76
0
  77
1
  78
8
 170
0
 171
2
 172
1
 173
1
 174
0
 175
0
 176
1
 177
1
 178
7
 270
2
 271
6
 272
0
 273
2
 274
2
 340
3A
 275
0
 280
0
 281
0
 282
0
 283
1
 284
0
 285
0
 286
0
 287
3
 288
0
   0
DIMSTYLE
 105
40
 100
AcDbSymbolTableRecord
 100
AcDbDimStyleTableRecord
   2
GMM003
  70
0
   3
 <> (浴室壁内寸
   4

   5

   6
_OPEN30
   7
_OPEN30
  40
 1.0000000000000
  41
 2.0000000000000
  42
 1.0000000000000
  43
 8.0000000000000
  44
 2.0000000000000
  45
0.0
  46
 2.5000000000000
  47
0.0
  48
0.0
 140
 3.0000000000000
 141
 1.0000000000000
 142
0.0
 143
 0.39400000000000E-1
 144
 1.0000000000000
 145
0.0
 146
 0.62500000000000
 147
 0.50000000000000
  71
0
  72
0
  73
0
  74
0
  75
0
  76
0
  77
1
  78
8
 170
0
 171
2
 172
1
 173
1
 174
0
 175
0
 176
1
 177
1
 178
7
 270
2
 271
6
 272
0
 273
2
 274
2
 340
3A
 275
0
 280
0
 281
0
 282
0
 283
1
 284
0
 285
0
 286
0
 287
3
 288
0
   0
DIMSTYLE
 105
41
 100
AcDbSymbolTableRecord
 100
AcDbDimStyleTableRecord
   2
GMM004
  70
0
   3
%%c<>
   4

   5

   6
_OPEN30
   7
_OPEN30
  40
 1.0000000000000
  41
 2.0000000000000
  42
 1.0000000000000
  43
 8.0000000000000
  44
 2.0000000000000
  45
0.0
  46
 2.5000000000000
  47
0.0
  48
0.0
 140
 3.5000000000000
 141
 1.0000000000000
 142
0.0
 143
 0.39400000000000E-1
 144
 1.0000000000000
 145
0.0
 146
 0.62500000000000
 147
 0.72668288726680
  71
0
  72
0
  73
0
  74
0
  75
0
  76
0
  77
1
  78
0
 170
0
 171
2
 172
1
 173
1
 174
0
 175
0
 176
1
 177
1
 178
7
 270
2
 271
0
 272
0
 273
2
 274
2
 340
3B
 275
0
 280
0
 281
0
 282
0
 283
1
 284
0
 285
0
 286
0
 287
3
 288
1
   0
DIMSTYLE
 105
42
 100
AcDbSymbolTableRecord
 100
AcDbDimStyleTableRecord
   2
GMM005
  70
0
   3

   4

   5

   6
_OPEN30
   7
_NONE
  40
 1.0000000000000
  41
 2.0000000000000
  42
 1.0000000000000
  43
 8.0000000000000
  44
 2.0000000000000
  45
0.0
  46
 2.5000000000000
  47
0.0
  48
0.0
 140
 3.5000000000000
 141
 1.0000000000000
 142
0.0
 143
 0.39400000000000E-1
 144
 1.0000000000000
 145
0.0
 146
 0.62500000000000
 147
 0.72668288726683
  71
0
  72
0
  73
0
  74
0
  75
0
  76
1
  77
1
  78
8
 170
0
 171
2
 172
1
 173
1
 174
0
 175
0
 176
1
 177
1
 178
7
 270
2
 271
6
 272
0
 273
2
 274
2
 340
3B
 275
0
 280
0
 281
0
 282
0
 283
1
 284
0
 285
0
 286
0
 287
3
 288
1
   0
DIMSTYLE
 105
43
 100
AcDbSymbolTableRecord
 100
AcDbDimStyleTableRecord
   2
GMM006
  70
0
   3

   4

   5

   6
_OPEN30
   7
_OPEN30
  40
 1.0000000000000
  41
 2.0000000000000
  42
 1.0000000000000
  43
 8.0000000000000
  44
 2.0000000000000
  45
0.0
  46
 2.5000000000000
  47
0.0
  48
0.0
 140
 3.5000000000000
 141
 1.0000000000000
 142
0.0
 143
 0.39400000000000E-1
 144
 1.0000000000000
 145
0.0
 146
 0.62500000000000
 147
 0.50000000000000
  71
0
  72
0
  73
0
  74
0
  75
0
  76
0
  77
1
  78
8
 170
0
 171
2
 172
1
 173
1
 174
0
 175
0
 176
1
 177
1
 178
7
 270
2
 271
6
 272
0
 273
2
 274
2
 340
3B
 275
0
 280
0
 281
0
 282
0
 283
1
 284
0
 285
0
 286
0
 287
3
 288
0
   0
DIMSTYLE
 105
44
 100
AcDbSymbolTableRecord
 100
AcDbDimStyleTableRecord
   2
GMM007
  70
0
   3

   4

   5

   6
_OPEN30
   7
_OPEN30
  40
 1.0000000000000
  41
 2.0000000000000
  42
 1.0000000000000
  43
 8.0000000000000
  44
 2.0000000000000
  45
0.0
  46
 2.5000000000000
  47
0.0
  48
0.0
 140
 4.0000000000000
 141
 1.0000000000000
 142
0.0
 143
 0.39400000000000E-1
 144
 1.0000000000000
 145
0.0
 146
 0.62500000000000
 147
 0.50000000000000
  71
0
  72
0
  73
0
  74
0
  75
0
  76
1
  77
1
  78
8
 170
0
 171
2
 172
1
 173
1
 174
0
 175
0
 176
1
 177
1
 178
7
 270
2
 271
6
 272
0
 273
2
 274
2
 340
3C
 275
0
 280
0
 281
0
 282
0
 283
1
 284
0
 285
0
 286
0
 287
3
 288
0
   0
DIMSTYLE
 105
45
 100
AcDbSymbolTableRecord
 100
AcDbDimStyleTableRecord
   2
GMM008
  70
0
   3

   4

   5

   6
_OPEN30
   7
_OPEN30
  40
 1.0000000000000
  41
 2.0000000000000
  42
 1.0000000000000
  43
 8.0000000000000
  44
 2.0000000000000
  45
0.0
  46
 2.5000000000000
  47
0.0
  48
0.0
 140
 4.0000000000000
 141
 1.0000000000000
 142
0.0
 143
 0.39400000000000E-1
 144
 1.0000000000000
 145
0.0
 146
 0.62500000000000
 147
 0.50000000000000
  71
0
  72
0
  73
0
  74
0
  75
0
  76
0
  77
1
  78
8
 170
0
 171
2
 172
1
 173
1
 174
0
 175
0
 176
1
 177
1
 178
7
 270
2
 271
6
 272
0
 273
2
 274
2
 340
3C
 275
0
 280
0
 281
0
 282
0
 283
1
 284
0
 285
0
 286
0
 287
3
 288
0
   0
DIMSTYLE
 105
46
 100
AcDbSymbolTableRecord
 100
AcDbDimStyleTableRecord
   2
GMM009
  70
0
   3

   4

   5

   6
_OPEN30
   7
_OPEN30
  40
 1.0000000000000
  41
 2.0000000000000
  42
 1.0000000000000
  43
 8.0000000000000
  44
 2.0000000000000
  45
0.0
  46
 2.5000000000000
  47
0.0
  48
0.0
 140
 3.5000000000000
 141
 1.0000000000000
 142
0.0
 143
 0.39400000000000E-1
 144
 1.0000000000000
 145
0.0
 146
 0.62500000000000
 147
 0.50000000000000
  71
0
  72
0
  73
0
  74
0
  75
0
  76
1
  77
1
  78
8
 170
0
 171
2
 172
1
 173
1
 174
0
 175
0
 176
1
 177
1
 178
7
 270
2
 271
6
 272
0
 273
2
 274
2
 340
3B
 275
0
 280
0
 281
0
 282
0
 283
1
 284
0
 285
0
 286
0
 287
3
 288
0
   0
DIMSTYLE
 105
47
 100
AcDbSymbolTableRecord
 100
AcDbDimStyleTableRecord
   2
GMM010
  70
0
   3
%%c<>
   4

   5

   6
_OPEN30
   7
_OPEN30
  40
 1.0000000000000
  41
 2.0000000000000
  42
 1.0000000000000
  43
 8.0000000000000
  44
 2.0000000000000
  45
0.0
  46
 2.5000000000000
  47
0.0
  48
0.0
 140
 3.5000000000000
 141
 1.0000000000000
 142
0.0
 143
 0.39400000000000E-1
 144
 1.0000000000000
 145
0.0
 146
 0.62500000000000
 147
 1.1295843520782
  71
0
  72
0
  73
0
  74
0
  75
0
  76
0
  77
1
  78
8
 170
0
 171
2
 172
1
 173
1
 174
0
 175
0
 176
1
 177
1
 178
7
 270
2
 271
6
 272
0
 273
2
 274
2
 340
3B
 275
0
 280
0
 281
0
 282
0
 283
1
 284
0
 285
0
 286
0
 287
3
 288
1
   0
DIMSTYLE
 105
48
 100
AcDbSymbolTableRecord
 100
AcDbDimStyleTableRecord
   2
GMM011
  70
0
   3

   4

   5

   6
_OPEN30
   7
_OPEN30
  40
 1.0000000000000
  41
 2.0000000000000
  42
 1.0000000000000
  43
 8.0000000000000
  44
 2.0000000000000
  45
0.0
  46
 2.5000000000000
  47
0.0
  48
0.0
 140
 4.0000000000000
 141
 1.0000000000000
 142
0.0
 143
 0.39400000000000E-1
 144
 1.0000000000000
 145
0.0
 146
 0.62500000000000
 147
 0.76923076923079
  71
0
  72
0
  73
0
  74
0
  75
0
  76
0
  77
1
  78
8
 170
0
 171
2
 172
1
 173
1
 174
0
 175
0
 176
1
 177
1
 178
7
 270
2
 271
6
 272
0
 273
2
 274
2
 340
3D
 275
0
 280
0
 281
0
 282
0
 283
1
 284
0
 285
0
 286
0
 287
3
 288
1
   0
DIMSTYLE
 105
49
 100
AcDbSymbolTableRecord
 100
AcDbDimStyleTableRecord
   2
GMM012
  70
0
   3

   4

   5

   6
_OPEN30
   7
_OPEN30
  40
 1.0000000000000
  41
 2.0000000000000
  42
 1.0000000000000
  43
 8.0000000000000
  44
 2.0000000000000
  45
0.0
  46
 2.5000000000000
  47
0.0
  48
0.0
 140
 4.0000000000000
 141
 1.0000000000000
 142
0.0
 143
 0.39400000000000E-1
 144
 1.0000000000000
 145
0.0
 146
 0.62500000000000
 147
 0.50000000000000
  71
0
  72
0
  73
0
  74
0
  75
0
  76
0
  77
1
  78
8
 170
0
 171
2
 172
1
 173
1
 174
0
 175
0
 176
1
 177
1
 178
7
 270
2
 271
6
 272
0
 273
2
 274
2
 340
3C
 275
0
 280
0
 281
0
 282
0
 283
1
 284
0
 285
0
 286
0
 287
3
 288
0
   0
ENDTAB
  0
TABLE
  2
BLOCK_RECORD
  5
1
100
AcDbSymbolTable
 70
     0
  0
BLOCK_RECORD
  5
18
100
AcDbSymbolTableRecord
100
AcDbBlockTableRecord
  2
*MODEL_SPACE
  0
BLOCK_RECORD
  5
15
100
AcDbSymbolTableRecord
100
AcDbBlockTableRecord
  2
*PAPER_SPACE
   0
BLOCK_RECORD
   5
4A
 100
AcDbSymbolTableRecord
 100
AcDbBlockTableRecord
   2
*D1
   0
BLOCK_RECORD
   5
4B
 100
AcDbSymbolTableRecord
 100
AcDbBlockTableRecord
   2
*D2
   0
BLOCK_RECORD
   5
4C
 100
AcDbSymbolTableRecord
 100
AcDbBlockTableRecord
   2
*D3
   0
BLOCK_RECORD
   5
4D
 100
AcDbSymbolTableRecord
 100
AcDbBlockTableRecord
   2
*D4
   0
BLOCK_RECORD
   5
4E
 100
AcDbSymbolTableRecord
 100
AcDbBlockTableRecord
   2
*D5
   0
BLOCK_RECORD
   5
4F
 100
AcDbSymbolTableRecord
 100
AcDbBlockTableRecord
   2
*D6
   0
BLOCK_RECORD
   5
50
 100
AcDbSymbolTableRecord
 100
AcDbBlockTableRecord
   2
*D7
   0
BLOCK_RECORD
   5
51
 100
AcDbSymbolTableRecord
 100
AcDbBlockTableRecord
   2
*D8
   0
BLOCK_RECORD
   5
52
 100
AcDbSymbolTableRecord
 100
AcDbBlockTableRecord
   2
*D9
   0
BLOCK_RECORD
   5
53
 100
AcDbSymbolTableRecord
 100
AcDbBlockTableRecord
   2
*D10
   0
BLOCK_RECORD
   5
54
 100
AcDbSymbolTableRecord
 100
AcDbBlockTableRecord
   2
*D11
   0
BLOCK_RECORD
   5
55
 100
AcDbSymbolTableRecord
 100
AcDbBlockTableRecord
   2
*D12
   0
BLOCK_RECORD
   5
56
 100
AcDbSymbolTableRecord
 100
AcDbBlockTableRecord
   2
*D13
   0
BLOCK_RECORD
   5
57
 100
AcDbSymbolTableRecord
 100
AcDbBlockTableRecord
   2
*D14
   0
BLOCK_RECORD
   5
58
 100
AcDbSymbolTableRecord
 100
AcDbBlockTableRecord
   2
*D15
   0
BLOCK_RECORD
   5
59
 100
AcDbSymbolTableRecord
 100
AcDbBlockTableRecord
   2
*D16
   0
BLOCK_RECORD
   5
5A
 100
AcDbSymbolTableRecord
 100
AcDbBlockTableRecord
   2
*D17
   0
BLOCK_RECORD
   5
5B
 100
AcDbSymbolTableRecord
 100
AcDbBlockTableRecord
   2
BLOCK001
   0
BLOCK_RECORD
   5
5C
 100
AcDbSymbolTableRecord
 100
AcDbBlockTableRecord
   2
BLOCK002
   0
BLOCK_RECORD
   5
5D
 100
AcDbSymbolTableRecord
 100
AcDbBlockTableRecord
   2
*D18
   0
BLOCK_RECORD
   5
5E
 100
AcDbSymbolTableRecord
 100
AcDbBlockTableRecord
   2
*D19
   0
BLOCK_RECORD
   5
5F
 100
AcDbSymbolTableRecord
 100
AcDbBlockTableRecord
   2
BLOCK003
   0
BLOCK_RECORD
   5
60
 100
AcDbSymbolTableRecord
 100
AcDbBlockTableRecord
   2
BLOCK004
   0
BLOCK_RECORD
   5
61
 100
AcDbSymbolTableRecord
 100
AcDbBlockTableRecord
   2
BLOCK005
   0
BLOCK_RECORD
   5
62
 100
AcDbSymbolTableRecord
 100
AcDbBlockTableRecord
   2
BLOCK006
   0
BLOCK_RECORD
   5
63
 100
AcDbSymbolTableRecord
 100
AcDbBlockTableRecord
   2
BLOCK007
   0
BLOCK_RECORD
   5
64
 100
AcDbSymbolTableRecord
 100
AcDbBlockTableRecord
   2
BLOCK008
   0
BLOCK_RECORD
   5
65
 100
AcDbSymbolTableRecord
 100
AcDbBlockTableRecord
   2
BLOCK009
   0
BLOCK_RECORD
   5
66
 100
AcDbSymbolTableRecord
 100
AcDbBlockTableRecord
   2
_ARCHTICK
   0
BLOCK_RECORD
   5
67
 100
AcDbSymbolTableRecord
 100
AcDbBlockTableRecord
   2
_BOXBLANK
   0
BLOCK_RECORD
   5
68
 100
AcDbSymbolTableRecord
 100
AcDbBlockTableRecord
   2
_BOXFILLED
   0
BLOCK_RECORD
   5
69
 100
AcDbSymbolTableRecord
 100
AcDbBlockTableRecord
   2
_CLOSED
   0
BLOCK_RECORD
   5
6A
 100
AcDbSymbolTableRecord
 100
AcDbBlockTableRecord
   2
_CLOSEDBLANK
   0
BLOCK_RECORD
   5
6B
 100
AcDbSymbolTableRecord
 100
AcDbBlockTableRecord
   2
_DATUMBLANK
   0
BLOCK_RECORD
   5
6C
 100
AcDbSymbolTableRecord
 100
AcDbBlockTableRecord
   2
_DATUMFILLED
   0
BLOCK_RECORD
   5
6D
 100
AcDbSymbolTableRecord
 100
AcDbBlockTableRecord
   2
_DOT
   0
BLOCK_RECORD
   5
6E
 100
AcDbSymbolTableRecord
 100
AcDbBlockTableRecord
   2
_DOTBLANK
   0
BLOCK_RECORD
   5
6F
 100
AcDbSymbolTableRecord
 100
AcDbBlockTableRecord
   2
_DOTSMALL
   0
BLOCK_RECORD
   5
70
 100
AcDbSymbolTableRecord
 100
AcDbBlockTableRecord
   2
_INTEGRAL
   0
BLOCK_RECORD
   5
71
 100
AcDbSymbolTableRecord
 100
AcDbBlockTableRecord
   2
_NONE
   0
BLOCK_RECORD
   5
72
 100
AcDbSymbolTableRecord
 100
AcDbBlockTableRecord
   2
_OBLIQUE
   0
BLOCK_RECORD
   5
73
 100
AcDbSymbolTableRecord
 100
AcDbBlockTableRecord
   2
_OPEN
   0
BLOCK_RECORD
   5
74
 100
AcDbSymbolTableRecord
 100
AcDbBlockTableRecord
   2
_OPEN30
   0
BLOCK_RECORD
   5
75
 100
AcDbSymbolTableRecord
 100
AcDbBlockTableRecord
   2
_OPEN90
   0
BLOCK_RECORD
   5
76
 100
AcDbSymbolTableRecord
 100
AcDbBlockTableRecord
   2
_ORIGIN
   0
ENDTAB
   0
ENDSEC
  0
SECTION
  2
BLOCKS
  0
BLOCK
  5
19
100
AcDbEntity
  8
0
100
AcDbBlockBegin
  2
*MODEL_SPACE
 70
     0
 10
0.0
 20
0.0
 30
0.0
  3
*MODEL_SPACE
  1

  0
ENDBLK
  5
1A
100
AcDbEntity
  8
0
100
AcDbBlockEnd
  0
BLOCK
  5
16
100
AcDbEntity
 67
     1
  8
0
100
AcDbBlockBegin
  2
*PAPER_SPACE
 70
     0
 10
0.0
 20
0.0
 30
0.0
  3
*PAPER_SPACE
  1

  0
ENDBLK
  5
17
100
AcDbEntity
 67
     1
  8
0
100
AcDbBlockEnd
   0
BLOCK
   5
77
 100
AcDbEntity
   8
0
 100
AcDbBlockBegin
   2
_ARCHTICK
  70
0
  10
0.0
  20
0.0
  30
0.0
   3
_ARCHTICK
   0
POLYLINE
   5
78
 100
AcDbEntity
   8
0
   6
BYBLOCK
  62
0
 100
AcDb2dPolyline
  66
1
  10
0.0
  20
0.0
  30
0.0
  70
1
  40
 0.15000000000000
  41
 0.15000000000000
   0
VERTEX
   5
79
 100
AcDbEntity
   8
0
   6
BYBLOCK
  62
0
 100
AcDbVertex
 100
AcDb2dVertex
  10
-0.50000000000000
  20
-0.50000000000000
  30
0.0
  40
 0.15000000000000
  41
 0.15000000000000
   0
VERTEX
   5
7A
 100
AcDbEntity
   8
0
   6
BYBLOCK
  62
0
 100
AcDbVertex
 100
AcDb2dVertex
  10
 0.50000000000000
  20
 0.50000000000000
  30
0.0
  40
 0.15000000000000
  41
 0.15000000000000
   0
SEQEND
   5
7B
 100
AcDbEntity
   8
0
   6
BYBLOCK
  62
0
   0
ENDBLK
   5
7C
 100
AcDbEntity
   8
0
 100
AcDbBlockEnd
   0
BLOCK
   5
7D
 100
AcDbEntity
   8
0
 100
AcDbBlockBegin
   2
_OBLIQUE
  70
0
  10
0.0
  20
0.0
  30
0.0
   3
_OBLIQUE
   0
LINE
   5
7E
 100
AcDbEntity
   8
0
 100
AcDbLine
   6
BYBLOCK
  62
0
  10
-0.50000000000000
  20
-0.50000000000000
  30
0.0
  11
 0.50000000000000
  21
 0.50000000000000
  31
0.0
   0
ENDBLK
   5
7F
 100
AcDbEntity
   8
0
 100
AcDbBlockEnd
   0
BLOCK
   5
80
 100
AcDbEntity
   8
0
 100
AcDbBlockBegin
   2
_BOXBLANK
  70
0
  10
0.0
  20
0.0
  30
0.0
   3
_BOXBLANK
   0
LINE
   5
81
 100
AcDbEntity
   8
0
 100
AcDbLine
   6
BYBLOCK
  62
0
  10
-0.50000000000000
  20
-0.50000000000000
  30
0.0
  11
 0.50000000000000
  21
-0.50000000000000
  31
0.0
   0
LINE
   5
82
 100
AcDbEntity
   8
0
 100
AcDbLine
   6
BYBLOCK
  62
0
  10
 0.50000000000000
  20
-0.50000000000000
  30
0.0
  11
 0.50000000000000
  21
 0.50000000000000
  31
0.0
   0
LINE
   5
83
 100
AcDbEntity
   8
0
 100
AcDbLine
   6
BYBLOCK
  62
0
  10
 0.50000000000000
  20
 0.50000000000000
  30
0.0
  11
-0.50000000000000
  21
 0.50000000000000
  31
0.0
   0
LINE
   5
84
 100
AcDbEntity
   8
0
 100
AcDbLine
   6
BYBLOCK
  62
0
  10
-0.50000000000000
  20
 0.50000000000000
  30
0.0
  11
-0.50000000000000
  21
-0.50000000000000
  31
0.0
   0
LINE
   5
85
 100
AcDbEntity
   8
0
 100
AcDbLine
   6
BYBLOCK
  62
0
  10
-0.50000000000000
  20
0.0
  30
0.0
  11
-1.0000000000000
  21
0.0
  31
0.0
   0
ENDBLK
   5
86
 100
AcDbEntity
   8
0
 100
AcDbBlockEnd
   0
BLOCK
   5
87
 100
AcDbEntity
   8
0
 100
AcDbBlockBegin
   2
_BOXFILLED
  70
0
  10
0.0
  20
0.0
  30
0.0
   3
_BOXFILLED
   0
SOLID
   5
88
 100
AcDbEntity
   8
0
 100
AcDbTrace
   6
BYBLOCK
  62
0
  10
-0.50000000000000
  20
 0.50000000000000
  30
0.0
  11
 0.50000000000000
  21
 0.50000000000000
  31
0.0
  12
-0.50000000000000
  22
-0.50000000000000
  32
0.0
  13
 0.50000000000000
  23
-0.50000000000000
  33
0.0
   0
LINE
   5
89
 100
AcDbEntity
   8
0
 100
AcDbLine
   6
BYBLOCK
  62
0
  10
-0.50000000000000
  20
0.0
  30
0.0
  11
-1.0000000000000
  21
0.0
  31
0.0
   0
ENDBLK
   5
8A
 100
AcDbEntity
   8
0
 100
AcDbBlockEnd
   0
BLOCK
   5
8B
 100
AcDbEntity
   8
0
 100
AcDbBlockBegin
   2
_CLOSED
  70
0
  10
0.0
  20
0.0
  30
0.0
   3
_CLOSED
   0
LINE
   5
8C
 100
AcDbEntity
   8
0
 100
AcDbLine
   6
BYBLOCK
  62
0
  10
-1.0000000000000
  20
 0.16666666666667
  30
0.0
  11
0.0
  21
0.0
  31
0.0
   0
LINE
   5
8D
 100
AcDbEntity
   8
0
 100
AcDbLine
   6
BYBLOCK
  62
0
  10
0.0
  20
0.0
  30
0.0
  11
-1.0000000000000
  21
-0.16666666666667
  31
0.0
   0
LINE
   5
8E
 100
AcDbEntity
   8
0
 100
AcDbLine
   6
BYBLOCK
  62
0
  10
-1.0000000000000
  20
 0.16666666666667
  30
0.0
  11
-1.0000000000000
  21
-0.16666666666667
  31
0.0
   0
LINE
   5
8F
 100
AcDbEntity
   8
0
 100
AcDbLine
   6
BYBLOCK
  62
0
  10
0.0
  20
0.0
  30
0.0
  11
-1.0000000000000
  21
0.0
  31
0.0
   0
ENDBLK
   5
90
 100
AcDbEntity
   8
0
 100
AcDbBlockEnd
   0
BLOCK
   5
91
 100
AcDbEntity
   8
0
 100
AcDbBlockBegin
   2
_OPEN
  70
0
  10
0.0
  20
0.0
  30
0.0
   3
_OPEN
   0
LINE
   5
92
 100
AcDbEntity
   8
0
 100
AcDbLine
   6
BYBLOCK
  62
0
  10
-1.0000000000000
  20
 0.16666666666667
  30
0.0
  11
0.0
  21
0.0
  31
0.0
   0
LINE
   5
93
 100
AcDbEntity
   8
0
 100
AcDbLine
   6
BYBLOCK
  62
0
  10
0.0
  20
0.0
  30
0.0
  11
-1.0000000000000
  21
-0.16666666666667
  31
0.0
   0
LINE
   5
94
 100
AcDbEntity
   8
0
 100
AcDbLine
   6
BYBLOCK
  62
0
  10
0.0
  20
0.0
  30
0.0
  11
-1.0000000000000
  21
0.0
  31
0.0
   0
ENDBLK
   5
95
 100
AcDbEntity
   8
0
 100
AcDbBlockEnd
   0
BLOCK
   5
96
 100
AcDbEntity
   8
0
 100
AcDbBlockBegin
   2
_OPEN30
  70
0
  10
0.0
  20
0.0
  30
0.0
   3
_OPEN30
   0
LINE
   5
97
 100
AcDbEntity
   8
0
 100
AcDbLine
   6
BYBLOCK
  62
0
  10
-1.0000000000000
  20
 0.26794919243110
  30
0.0
  11
0.0
  21
0.0
  31
0.0
   0
LINE
   5
98
 100
AcDbEntity
   8
0
 100
AcDbLine
   6
BYBLOCK
  62
0
  10
0.0
  20
0.0
  30
0.0
  11
-1.0000000000000
  21
-0.26794919243110
  31
0.0
   0
LINE
   5
99
 100
AcDbEntity
   8
0
 100
AcDbLine
   6
BYBLOCK
  62
0
  10
0.0
  20
0.0
  30
0.0
  11
-1.0000000000000
  21
0.0
  31
0.0
   0
ENDBLK
   5
9A
 100
AcDbEntity
   8
0
 100
AcDbBlockEnd
   0
BLOCK
   5
9B
 100
AcDbEntity
   8
0
 100
AcDbBlockBegin
   2
_OPEN90
  70
0
  10
0.0
  20
0.0
  30
0.0
   3
_OPEN90
   0
LINE
   5
9C
 100
AcDbEntity
   8
0
 100
AcDbLine
   6
BYBLOCK
  62
0
  10
-0.50000000000000
  20
 0.50000000000000
  30
0.0
  11
0.0
  21
0.0
  31
0.0
   0
LINE
   5
9D
 100
AcDbEntity
   8
0
 100
AcDbLine
   6
BYBLOCK
  62
0
  10
0.0
  20
0.0
  30
0.0
  11
-0.50000000000000
  21
-0.50000000000000
  31
0.0
   0
LINE
   5
9E
 100
AcDbEntity
   8
0
 100
AcDbLine
   6
BYBLOCK
  62
0
  10
0.0
  20
0.0
  30
0.0
  11
-1.0000000000000
  21
0.0
  31
0.0
   0
ENDBLK
   5
9F
 100
AcDbEntity
   8
0
 100
AcDbBlockEnd
   0
BLOCK
   5
A0
 100
AcDbEntity
   8
0
 100
AcDbBlockBegin
   2
_CLOSEDBLANK
  70
0
  10
0.0
  20
0.0
  30
0.0
   3
_CLOSEDBLANK
   0
LINE
   5
A1
 100
AcDbEntity
   8
0
 100
AcDbLine
   6
BYBLOCK
  62
0
  10
-1.0000000000000
  20
 0.16666666666667
  30
0.0
  11
0.0
  21
0.0
  31
0.0
   0
LINE
   5
A2
 100
AcDbEntity
   8
0
 100
AcDbLine
   6
BYBLOCK
  62
0
  10
0.0
  20
0.0
  30
0.0
  11
-1.0000000000000
  21
-0.16666666666667
  31
0.0
   0
LINE
   5
A3
 100
AcDbEntity
   8
0
 100
AcDbLine
   6
BYBLOCK
  62
0
  10
-1.0000000000000
  20
 0.16666666666667
  30
0.0
  11
-1.0000000000000
  21
-0.16666666666667
  31
0.0
   0
ENDBLK
   5
A4
 100
AcDbEntity
   8
0
 100
AcDbBlockEnd
   0
BLOCK
   5
A5
 100
AcDbEntity
   8
0
 100
AcDbBlockBegin
   2
_DOT
  70
0
  10
0.0
  20
0.0
  30
0.0
   3
_DOT
   0
POLYLINE
   5
A6
 100
AcDbEntity
   8
0
   6
BYBLOCK
  62
0
 100
AcDb2dPolyline
  66
1
  10
0.0
  20
0.0
  30
0.0
  70
1
  40
 0.50000000000000
  41
 0.50000000000000
   0
VERTEX
   5
A7
 100
AcDbEntity
   8
0
   6
BYBLOCK
  62
0
 100
AcDbVertex
 100
AcDb2dVertex
  10
-0.25000000000000
  20
0.0
  30
0.0
  42
 1.0000000000000
  40
 0.50000000000000
  41
 0.50000000000000
   0
VERTEX
   5
A8
 100
AcDbEntity
   8
0
   6
BYBLOCK
  62
0
 100
AcDbVertex
 100
AcDb2dVertex
  10
 0.25000000000000
  20
0.0
  30
0.0
  42
 1.0000000000000
  40
 0.50000000000000
  41
 0.50000000000000
   0
SEQEND
   5
A9
 100
AcDbEntity
   8
0
   6
BYBLOCK
  62
0
   0
LINE
   5
AA
 100
AcDbEntity
   8
0
 100
AcDbLine
   6
BYBLOCK
  62
0
  10
-0.50000000000000
  20
0.0
  30
0.0
  11
-1.0000000000000
  21
0.0
  31
0.0
   0
ENDBLK
   5
AB
 100
AcDbEntity
   8
0
 100
AcDbBlockEnd
   0
BLOCK
   5
AC
 100
AcDbEntity
   8
0
 100
AcDbBlockBegin
   2
_DOTSMALL
  70
0
  10
0.0
  20
0.0
  30
0.0
   3
_DOTSMALL
   0
POLYLINE
   5
AD
 100
AcDbEntity
   8
0
   6
BYBLOCK
  62
0
 100
AcDb2dPolyline
  66
1
  10
0.0
  20
0.0
  30
0.0
  70
1
  40
 0.50000000000000
  41
 0.50000000000000
   0
VERTEX
   5
AE
 100
AcDbEntity
   8
0
   6
BYBLOCK
  62
0
 100
AcDbVertex
 100
AcDb2dVertex
  10
-0.62500000000000E-1
  20
0.0
  30
0.0
  42
 1.0000000000000
  40
 0.50000000000000
  41
 0.50000000000000
   0
VERTEX
   5
AF
 100
AcDbEntity
   8
0
   6
BYBLOCK
  62
0
 100
AcDbVertex
 100
AcDb2dVertex
  10
 0.62500000000000E-1
  20
0.0
  30
0.0
  42
 1.0000000000000
  40
 0.50000000000000
  41
 0.50000000000000
   0
SEQEND
   5
B0
 100
AcDbEntity
   8
0
   6
BYBLOCK
  62
0
   0
ENDBLK
   5
B1
 100
AcDbEntity
   8
0
 100
AcDbBlockEnd
   0
BLOCK
   5
B2
 100
AcDbEntity
   8
0
 100
AcDbBlockBegin
   2
_DATUMBLANK
  70
0
  10
0.0
  20
0.0
  30
0.0
   3
_DATUMBLANK
   0
LINE
   5
B3
 100
AcDbEntity
   8
0
 100
AcDbLine
   6
BYBLOCK
  62
0
  10
0.0
  20
 0.57735027000000
  30
0.0
  11
-1.0000000000000
  21
0.0
  31
0.0
   0
LINE
   5
B4
 100
AcDbEntity
   8
0
 100
AcDbLine
   6
BYBLOCK
  62
0
  10
-1.0000000000000
  20
0.0
  30
0.0
  11
0.0
  21
-0.57735027000000
  31
0.0
   0
LINE
   5
B5
 100
AcDbEntity
   8
0
 100
AcDbLine
   6
BYBLOCK
  62
0
  10
0.0
  20
-0.57735027000000
  30
0.0
  11
0.0
  21
 0.57735027000000
  31
0.0
   0
ENDBLK
   5
B6
 100
AcDbEntity
   8
0
 100
AcDbBlockEnd
   0
BLOCK
   5
B7
 100
AcDbEntity
   8
0
 100
AcDbBlockBegin
   2
_DATUMFILLED
  70
0
  10
0.0
  20
0.0
  30
0.0
   3
_DATUMFILLED
   0
SOLID
   5
B8
 100
AcDbEntity
   8
0
 100
AcDbTrace
   6
BYBLOCK
  62
0
  10
0.0
  20
 0.57735027000000
  30
0.0
  11
-1.0000000000000
  21
0.0
  31
0.0
  12
0.0
  22
-0.57735027000000
  32
0.0
  13
0.0
  23
-0.57735027000000
  33
0.0
   0
ENDBLK
   5
B9
 100
AcDbEntity
   8
0
 100
AcDbBlockEnd
   0
BLOCK
   5
BA
 100
AcDbEntity
   8
0
 100
AcDbBlockBegin
   2
_ORIGIN
  70
0
  10
0.0
  20
0.0
  30
0.0
   3
_ORIGIN
   0
CIRCLE
   5
BB
 100
AcDbEntity
   8
0
 100
AcDbCircle
   6
BYBLOCK
  62
0
  10
0.0
  20
0.0
  30
0.0
  40
 0.50000000000000
   0
LINE
   5
BC
 100
AcDbEntity
   8
0
 100
AcDbLine
   6
BYBLOCK
  62
0
  10
0.0
  20
0.0
  30
0.0
  11
-1.0000000000000
  21
0.0
  31
0.0
   0
ENDBLK
   5
BD
 100
AcDbEntity
   8
0
 100
AcDbBlockEnd
   0
BLOCK
   5
BE
 100
AcDbEntity
   8
0
 100
AcDbBlockBegin
   2
_NONE
  70
0
  10
0.0
  20
0.0
  30
0.0
   3
_NONE
   0
CIRCLE
   5
BF
 100
AcDbEntity
   8
0
 100
AcDbCircle
   6
BYBLOCK
  62
0
  10
0.0
  20
0.0
  30
0.0
  40
 0.25000000000000
   0
ENDBLK
   5
C0
 100
AcDbEntity
   8
0
 100
AcDbBlockEnd
   0
BLOCK
   5
C1
 100
AcDbEntity
   8
0
 100
AcDbBlockBegin
   2
_DOTBLANK
  70
0
  10
0.0
  20
0.0
  30
0.0
   3
_DOTBLANK
   0
CIRCLE
   5
C2
 100
AcDbEntity
   8
0
 100
AcDbCircle
   6
BYBLOCK
  62
0
  10
0.0
  20
0.0
  30
0.0
  40
 0.50000000000000
   0
LINE
   5
C3
 100
AcDbEntity
   8
0
 100
AcDbLine
   6
BYBLOCK
  62
0
  10
-0.50000000000000
  20
0.0
  30
0.0
  11
-1.0000000000000
  21
0.0
  31
0.0
   0
ENDBLK
   5
C4
 100
AcDbEntity
   8
0
 100
AcDbBlockEnd
   0
BLOCK
   5
C5
 100
AcDbEntity
   8
0
 100
AcDbBlockBegin
   2
_INTEGRAL
  70
0
  10
0.0
  20
0.0
  30
0.0
   3
_INTEGRAL
   0
ARC
   5
C6
 100
AcDbEntity
   8
0
   6
BYBLOCK
  62
0
 100
AcDbCircle
  10
 0.44488800000000
  20
-0.91335000000000E-1
  30
0.0
  40
 0.45416700000000
 100
AcDbArc
  50
 102.00000000000
  51
 168.00000000000
   0
ARC
   5
C7
 100
AcDbEntity
   8
0
   6
BYBLOCK
  62
0
 100
AcDbCircle
  10
-0.44488800000000
  20
 0.91335000000000E-1
  30
0.0
  40
 0.45416700000000
 100
AcDbArc
  50
 282.00000000000
  51
 348.00000000000
   0
ENDBLK
   5
C8
 100
AcDbEntity
   8
0
 100
AcDbBlockEnd
   0
BLOCK
   5
C9
 100
AcDbEntity
   8
0
 100
AcDbBlockBegin
   2
*D1
  70
65
  10
0.0
  20
0.0
  30
0.0
   3
*D1
   0
LINE
   5
CA
 100
AcDbEntity
   8
LEVEL001
 100
AcDbLine
   6
CONTINUOUS
  62
1
  10
 253.45248106275
  20
 225.22023333455
  30
0.0
  11
 251.45248106275
  21
 225.22023333455
  31
0.0
   0
LINE
   5
CB
 100
AcDbEntity
   8
LEVEL001
 100
AcDbLine
   6
CONTINUOUS
  62
1
  10
 253.45248106275
  20
 206.22023333455
  30
0.0
  11
 253.45248106275
  21
 206.22023333455
  31
0.0
   0
LINE
   5
CC
 100
AcDbEntity
   8
LEVEL001
 100
AcDbLine
   6
CONTINUOUS
  62
1
  10
 253.45248106275
  20
 225.22023333455
  30
0.0
  11
 253.45248106275
  21
 206.22023333455
  31
0.0
   0
INSERT
   5
CD
 100
AcDbEntity
   8
LEVEL001
   6
CONTINUOUS
  62
1
 100
AcDbBlockReference
   2
_OPEN30
  10
 253.45248106275
  20
 225.22023333455
  30
0.0
  41
 2.0000000000000
  42
 2.0000000000000
  43
 2.0000000000000
  50
 90.000000000000
   0
INSERT
   5
CE
 100
AcDbEntity
   8
LEVEL001
   6
CONTINUOUS
  62
1
 100
AcDbBlockReference
   2
_OPEN30
  10
 253.45248106275
  20
 206.22023333455
  30
0.0
  41
 2.0000000000000
  42
 2.0000000000000
  43
 2.0000000000000
  50
 270.00000000000
   0
MTEXT
   5
CF
 100
AcDbEntity
   8
LEVEL001
  62
7
 100
AcDbMText
  10
 253.04823070092
  20
 216.54071812688
  30
0.0
  40
 3.0000000000000
  41
0.0
  71
8
  72
1
   1
\A1;%%c19
   7
GMM001
  11
0.0
  21
 1.0000000000000
  31
0.0
   0
ENDBLK
   5
D0
 100
AcDbEntity
   8
0
 100
AcDbBlockEnd
   0
BLOCK
   5
D1
 100
AcDbEntity
   8
0
 100
AcDbBlockBegin
   2
*D2
  70
65
  10
0.0
  20
0.0
  30
0.0
   3
*D2
   0
LINE
   5
D2
 100
AcDbEntity
   8
LEVEL001
 100
AcDbLine
   6
CONTINUOUS
  62
1
  10
 68.212739168108
  20
 229.06603507039
  30
0.0
  11
 68.212739168108
  21
 254.96461167956
  31
0.0
   0
LINE
   5
D3
 100
AcDbEntity
   8
LEVEL001
 100
AcDbLine
   6
CONTINUOUS
  62
1
  10
 348.42396714523
  20
 228.88910204114
  30
0.0
  11
 348.42396714523
  21
 254.96461167956
  31
0.0
   0
LINE
   5
D4
 100
AcDbEntity
   8
LEVEL001
 100
AcDbLine
   6
CONTINUOUS
  62
1
  10
 68.212739168108
  20
 252.96461167956
  30
0.0
  11
 348.42396714523
  21
 252.96461167956
  31
0.0
   0
INSERT
   5
D5
 100
AcDbEntity
   8
LEVEL001
   6
CONTINUOUS
  62
1
 100
AcDbBlockReference
   2
_OPEN30
  10
 68.212739168108
  20
 252.96461167956
  30
0.0
  41
 2.0000000000000
  42
 2.0000000000000
  43
 2.0000000000000
  50
 180.00000000000
   0
INSERT
   5
D6
 100
AcDbEntity
   8
LEVEL001
   6
CONTINUOUS
  62
1
 100
AcDbBlockReference
   2
_OPEN30
  10
 348.42396714523
  20
 252.96461167956
  30
0.0
  41
 2.0000000000000
  42
 2.0000000000000
  43
 2.0000000000000
  50
0.0
   0
MTEXT
   5
D7
 100
AcDbEntity
   8
LEVEL001
  62
7
 100
AcDbMText
  10
 208.31835315667
  20
 253.46461167956
  30
0.0
  40
 3.0000000000000
  41
0.0
  71
8
  72
1
   1
\A1;W-20=L(パイプ長さ)
   7
GMM001
   0
ENDBLK
   5
D8
 100
AcDbEntity
   8
0
 100
AcDbBlockEnd
   0
BLOCK
   5
D9
 100
AcDbEntity
   8
0
 100
AcDbBlockBegin
   2
*D3
  70
65
  10
0.0
  20
0.0
  30
0.0
   3
*D3
   0
LINE
   5
DA
 100
AcDbEntity
   8
LEVEL001
 100
AcDbLine
   6
CONTINUOUS
  62
1
  10
 58.212739168236
  20
 242.84847449821
  30
0.0
  11
 58.212739168236
  21
 263.37117126661
  31
0.0
   0
LINE
   5
DB
 100
AcDbEntity
   8
LEVEL001
 100
AcDbLine
   6
CONTINUOUS
  62
1
  10
 358.42396714504
  20
 242.84847449821
  30
0.0
  11
 358.42396714504
  21
 263.37117126661
  31
0.0
   0
LINE
   5
DC
 100
AcDbEntity
   8
LEVEL001
 100
AcDbLine
   6
CONTINUOUS
  62
1
  10
 58.212739168236
  20
 261.37117126661
  30
0.0
  11
 358.42396714504
  21
 261.37117126661
  31
0.0
   0
INSERT
   5
DD
 100
AcDbEntity
   8
LEVEL001
   6
CONTINUOUS
  62
1
 100
AcDbBlockReference
   2
_OPEN30
  10
 58.212739168236
  20
 261.37117126661
  30
0.0
  41
 2.0000000000000
  42
 2.0000000000000
  43
 2.0000000000000
  50
 180.00000000000
   0
INSERT
   5
DE
 100
AcDbEntity
   8
LEVEL001
   6
CONTINUOUS
  62
1
 100
AcDbBlockReference
   2
_OPEN30
  10
 358.42396714504
  20
 261.37117126661
  30
0.0
  41
 2.0000000000000
  42
 2.0000000000000
  43
 2.0000000000000
  50
0.0
   0
MTEXT
   5
DF
 100
AcDbEntity
   8
LEVEL001
  62
7
 100
AcDbMText
  10
 208.31835315664
  20
 261.87117126661
  30
0.0
  40
 3.0000000000000
  41
0.0
  71
8
  72
1
   1
\A1; W (浴室壁内寸法)
   7
GMM001
   0
ENDBLK
   5
E0
 100
AcDbEntity
   8
0
 100
AcDbBlockEnd
   0
BLOCK
   5
E1
 100
AcDbEntity
   8
0
 100
AcDbBlockBegin
   2
*D4
  70
65
  10
0.0
  20
0.0
  30
0.0
   3
*D4
   0
LINE
   5
E2
 100
AcDbEntity
   8
LEVEL001
 100
AcDbLine
   6
CONTINUOUS
  62
1
  10
 263.14817319294
  20
 96.067972630830
  30
0.0
  11
 278.84211804948
  21
 96.067972630830
  31
0.0
   0
LINE
   5
E3
 100
AcDbEntity
   8
LEVEL001
 100
AcDbLine
   6
CONTINUOUS
  62
1
  10
 263.29719114245
  20
 73.367972630830
  30
0.0
  11
 278.84211804948
  21
 73.367972630830
  31
0.0
   0
LINE
   5
E4
 100
AcDbEntity
   8
LEVEL001
 100
AcDbLine
   6
CONTINUOUS
  62
1
  10
 276.84211804948
  20
 96.067972630830
  30
0.0
  11
 276.84211804948
  21
 73.367972630830
  31
0.0
   0
INSERT
   5
E5
 100
AcDbEntity
   8
LEVEL001
   6
CONTINUOUS
  62
1
 100
AcDbBlockReference
   2
_OPEN30
  10
 276.84211804948
  20
 96.067972630830
  30
0.0
  41
 2.0000000000000
  42
 2.0000000000000
  43
 2.0000000000000
  50
 90.000000000000
   0
INSERT
   5
E6
 100
AcDbEntity
   8
LEVEL001
   6
CONTINUOUS
  62
1
 100
AcDbBlockReference
   2
_OPEN30
  10
 276.84211804948
  20
 73.367972630830
  30
0.0
  41
 2.0000000000000
  42
 2.0000000000000
  43
 2.0000000000000
  50
 270.00000000000
   0
MTEXT
   5
E7
 100
AcDbEntity
   8
LEVEL001
  62
7
 100
AcDbMText
  10
 276.11543516222
  20
 84.980855323897
  30
0.0
  40
 3.5000000000000
  41
0.0
  71
8
  72
1
   1
\A1;%%c23
   7
GMM002
  11
0.0
  21
 1.0000000000000
  31
0.0
   0
ENDBLK
   5
E8
 100
AcDbEntity
   8
0
 100
AcDbBlockEnd
   0
BLOCK
   5
E9
 100
AcDbEntity
   8
0
 100
AcDbBlockBegin
   2
*D5
  70
65
  10
0.0
  20
0.0
  30
0.0
   3
*D5
   0
LINE
   5
EA
 100
AcDbEntity
   8
LEVEL001
 100
AcDbLine
   6
CONTINUOUS
  62
1
  10
 263.82344818055
  20
 98.567972630830
  30
0.0
  11
 263.82344818055
  21
 108.05465905463
  31
0.0
   0
LINE
   5
EB
 100
AcDbEntity
   8
LEVEL001
 100
AcDbLine
   6
CONTINUOUS
  62
1
  10
 260.32344818055
  20
 95.167972630830
  30
0.0
  11
 260.32344818055
  21
 108.05465905463
  31
0.0
   0
LINE
   5
EC
 100
AcDbEntity
   8
LEVEL001
 100
AcDbLine
   6
CONTINUOUS
  62
1
  10
 263.82344818055
  20
 106.05465905463
  30
0.0
  11
 260.32344818055
  21
 106.05465905463
  31
0.0
   0
LINE
   5
ED
 100
AcDbEntity
   8
LEVEL001
 100
AcDbLine
   6
CONTINUOUS
  62
1
  10
 263.82344818055
  20
 106.05465905463
  30
0.0
  11
 273.00586500812
  21
 106.05465905463
  31
0.0
   0
INSERT
   5
EE
 100
AcDbEntity
   8
LEVEL001
   6
CONTINUOUS
  62
1
 100
AcDbBlockReference
   2
_OPEN30
  10
 263.82344818055
  20
 106.05465905463
  30
0.0
  41
 2.0000000000000
  42
 2.0000000000000
  43
 2.0000000000000
  50
 180.00000000000
   0
LINE
   5
EF
 100
AcDbEntity
   8
LEVEL001
 100
AcDbLine
   6
CONTINUOUS
  62
1
  10
 263.82344818055
  20
 106.05465905463
  30
0.0
  11
 273.00586500812
  21
 106.05465905463
  31
0.0
   0
MTEXT
   5
F0
 100
AcDbEntity
   8
LEVEL001
  62
7
 100
AcDbMText
  10
 265.50586500812
  20
 106.78134194190
  30
0.0
  40
 3.5000000000000
  41
0.0
  71
7
  72
1
   1
\A1;3.5
   7
GMM002
   0
ENDBLK
   5
F1
 100
AcDbEntity
   8
0
 100
AcDbBlockEnd
   0
BLOCK
   5
F2
 100
AcDbEntity
   8
0
 100
AcDbBlockBegin
   2
*D6
  70
65
  10
0.0
  20
0.0
  30
0.0
   3
*D6
   0
LINE
   5
F3
 100
AcDbEntity
   8
LEVEL001
 100
AcDbLine
   6
CONTINUOUS
  62
1
  10
 260.32344818055
  20
 95.167972630830
  30
0.0
  11
 260.32344818055
  21
 108.05465905463
  31
0.0
   0
LINE
   5
F4
 100
AcDbEntity
   8
LEVEL001
 100
AcDbLine
   6
CONTINUOUS
  62
1
  10
 236.82344818055
  20
 96.417972630830
  30
0.0
  11
 236.82344818055
  21
 108.05465905463
  31
0.0
   0
LINE
   5
F5
 100
AcDbEntity
   8
LEVEL001
 100
AcDbLine
   6
CONTINUOUS
  62
1
  10
 260.32344818055
  20
 106.05465905463
  30
0.0
  11
 236.82344818055
  21
 106.05465905463
  31
0.0
   0
INSERT
   5
F6
 100
AcDbEntity
   8
LEVEL001
   6
CONTINUOUS
  62
1
 100
AcDbBlockReference
   2
_OPEN30
  10
 260.32344818055
  20
 106.05465905463
  30
0.0
  41
 2.0000000000000
  42
 2.0000000000000
  43
 2.0000000000000
  50
0.0
   0
INSERT
   5
F7
 100
AcDbEntity
   8
LEVEL001
   6
CONTINUOUS
  62
1
 100
AcDbBlockReference
   2
_OPEN30
  10
 236.82344818055
  20
 106.05465905463
  30
0.0
  41
 2.0000000000000
  42
 2.0000000000000
  43
 2.0000000000000
  50
 180.00000000000
   0
MTEXT
   5
F8
 100
AcDbEntity
   8
LEVEL001
  62
7
 100
AcDbMText
  10
 248.57344818055
  20
 106.55465905463
  30
0.0
  40
 3.5000000000000
  41
0.0
  71
8
  72
1
   1
\A1;23.5
   7
GMM002
   0
ENDBLK
   5
F9
 100
AcDbEntity
   8
0
 100
AcDbBlockEnd
   0
BLOCK
   5
FA
 100
AcDbEntity
   8
0
 100
AcDbBlockBegin
   2
*D7
  70
65
  10
0.0
  20
0.0
  30
0.0
   3
*D7
   0
LINE
   5
FB
 100
AcDbEntity
   8
LEVEL001
 100
AcDbLine
   6
CONTINUOUS
  62
1
  10
 263.82344818055
  20
 98.567972630830
  30
0.0
  11
 263.82344818055
  21
 115.46682450476
  31
0.0
   0
LINE
   5
FC
 100
AcDbEntity
   8
LEVEL001
 100
AcDbLine
   6
CONTINUOUS
  62
1
  10
 236.82344818055
  20
 96.417972630830
  30
0.0
  11
 236.82344818055
  21
 115.46682450476
  31
0.0
   0
LINE
   5
FD
 100
AcDbEntity
   8
LEVEL001
 100
AcDbLine
   6
CONTINUOUS
  62
1
  10
 263.82344818055
  20
 113.46682450476
  30
0.0
  11
 236.82344818055
  21
 113.46682450476
  31
0.0
   0
INSERT
   5
FE
 100
AcDbEntity
   8
LEVEL001
   6
CONTINUOUS
  62
1
 100
AcDbBlockReference
   2
_OPEN30
  10
 263.82344818055
  20
 113.46682450476
  30
0.0
  41
 2.0000000000000
  42
 2.0000000000000
  43
 2.0000000000000
  50
0.0
   0
INSERT
   5
FF
 100
AcDbEntity
   8
LEVEL001
   6
CONTINUOUS
  62
1
 100
AcDbBlockReference
   2
_OPEN30
  10
 236.82344818055
  20
 113.46682450476
  30
0.0
  41
 2.0000000000000
  42
 2.0000000000000
  43
 2.0000000000000
  50
 180.00000000000
   0
MTEXT
   5
100
 100
AcDbEntity
   8
LEVEL001
  62
7
 100
AcDbMText
  10
 250.32344818055
  20
 113.96682450476
  30
0.0
  40
 3.5000000000000
  41
0.0
  71
8
  72
1
   1
\A1;27
   7
GMM002
   0
ENDBLK
   5
101
 100
AcDbEntity
   8
0
 100
AcDbBlockEnd
   0
BLOCK
   5
102
 100
AcDbEntity
   8
0
 100
AcDbBlockBegin
   2
*D8
  70
65
  10
0.0
  20
0.0
  30
0.0
   3
*D8
   0
LINE
   5
103
 100
AcDbEntity
   8
LEVEL001
 100
AcDbLine
   6
CONTINUOUS
  62
1
  10
 190.39097235904
  20
 112.73765988553
  30
0.0
  11
 207.20810440190
  21
 112.73765988553
  31
0.0
   0
LINE
   5
104
 100
AcDbEntity
   8
LEVEL001
 100
AcDbLine
   6
CONTINUOUS
  62
1
  10
 177.15165116699
  20
 102.53765988553
  30
0.0
  11
 207.20810440190
  21
 102.53765988553
  31
0.0
   0
LINE
   5
105
 100
AcDbEntity
   8
LEVEL001
 100
AcDbLine
   6
CONTINUOUS
  62
1
  10
 205.20810440190
  20
 112.73765988553
  30
0.0
  11
 205.20810440190
  21
 102.53765988553
  31
0.0
   0
INSERT
   5
106
 100
AcDbEntity
   8
LEVEL001
   6
CONTINUOUS
  62
1
 100
AcDbBlockReference
   2
_OPEN30
  10
 205.20810440190
  20
 112.73765988553
  30
0.0
  41
 2.0000000000000
  42
 2.0000000000000
  43
 2.0000000000000
  50
 90.000000000000
   0
INSERT
   5
107
 100
AcDbEntity
   8
LEVEL001
   6
CONTINUOUS
  62
1
 100
AcDbBlockReference
   2
_OPEN30
  10
 205.20810440190
  20
 102.53765988553
  30
0.0
  41
 2.0000000000000
  42
 2.0000000000000
  43
 2.0000000000000
  50
 270.00000000000
   0
MTEXT
   5
108
 100
AcDbEntity
   8
LEVEL001
  62
7
 100
AcDbMText
  10
 204.70810440190
  20
 107.63765988553
  30
0.0
  40
 4.0000000000000
  41
0.0
  71
8
  72
1
   1
\A1;10.2
   7
GMM003
  11
0.0
  21
 1.0000000000000
  31
0.0
   0
ENDBLK
   5
109
 100
AcDbEntity
   8
0
 100
AcDbBlockEnd
   0
BLOCK
   5
10A
 100
AcDbEntity
   8
0
 100
AcDbBlockBegin
   2
*D9
  70
65
  10
0.0
  20
0.0
  30
0.0
   3
*D9
   0
LINE
   5
10B
 100
AcDbEntity
   8
LEVEL001
 100
AcDbLine
   6
CONTINUOUS
  62
1
  10
 177.15165116699
  20
 102.53765988553
  30
0.0
  11
 207.20810440190
  21
 102.53765988553
  31
0.0
   0
LINE
   5
10C
 100
AcDbEntity
   8
LEVEL001
 100
AcDbLine
   6
CONTINUOUS
  62
1
  10
 177.15165116699
  20
 82.537659885529
  30
0.0
  11
 207.20810440190
  21
 82.537659885529
  31
0.0
   0
LINE
   5
10D
 100
AcDbEntity
   8
LEVEL001
 100
AcDbLine
   6
CONTINUOUS
  62
1
  10
 205.20810440190
  20
 102.53765988553
  30
0.0
  11
 205.20810440190
  21
 82.537659885529
  31
0.0
   0
INSERT
   5
10E
 100
AcDbEntity
   8
LEVEL001
   6
CONTINUOUS
  62
1
 100
AcDbBlockReference
   2
_OPEN30
  10
 205.20810440190
  20
 102.53765988553
  30
0.0
  41
 2.0000000000000
  42
 2.0000000000000
  43
 2.0000000000000
  50
 90.000000000000
   0
INSERT
   5
10F
 100
AcDbEntity
   8
LEVEL001
   6
CONTINUOUS
  62
1
 100
AcDbBlockReference
   2
_OPEN30
  10
 205.20810440190
  20
 82.537659885529
  30
0.0
  41
 2.0000000000000
  42
 2.0000000000000
  43
 2.0000000000000
  50
 270.00000000000
   0
MTEXT
   5
110
 100
AcDbEntity
   8
LEVEL001
  62
7
 100
AcDbMText
  10
 204.70810440190
  20
 92.537659885529
  30
0.0
  40
 4.0000000000000
  41
0.0
  71
8
  72
1
   1
\A1;20
   7
GMM003
  11
0.0
  21
 1.0000000000000
  31
0.0
   0
ENDBLK
   5
111
 100
AcDbEntity
   8
0
 100
AcDbBlockEnd
   0
BLOCK
   5
112
 100
AcDbEntity
   8
0
 100
AcDbBlockBegin
   2
*D10
  70
65
  10
0.0
  20
0.0
  30
0.0
   3
*D10
   0
LINE
   5
113
 100
AcDbEntity
   8
LEVEL001
 100
AcDbLine
   6
CONTINUOUS
  62
1
  10
 177.15165116699
  20
 82.537659885529
  30
0.0
  11
 207.20810440190
  21
 82.537659885529
  31
0.0
   0
LINE
   5
114
 100
AcDbEntity
   8
LEVEL001
 100
AcDbLine
   6
CONTINUOUS
  62
1
  10
 170.69097235904
  20
 69.337659885529
  30
0.0
  11
 207.20810440190
  21
 69.337659885529
  31
0.0
   0
LINE
   5
115
 100
AcDbEntity
   8
LEVEL001
 100
AcDbLine
   6
CONTINUOUS
  62
1
  10
 205.20810440190
  20
 82.537659885529
  30
0.0
  11
 205.20810440190
  21
 69.337659885529
  31
0.0
   0
INSERT
   5
116
 100
AcDbEntity
   8
LEVEL001
   6
CONTINUOUS
  62
1
 100
AcDbBlockReference
   2
_OPEN30
  10
 205.20810440190
  20
 82.537659885529
  30
0.0
  41
 2.0000000000000
  42
 2.0000000000000
  43
 2.0000000000000
  50
 90.000000000000
   0
INSERT
   5
117
 100
AcDbEntity
   8
LEVEL001
   6
CONTINUOUS
  62
1
 100
AcDbBlockReference
   2
_OPEN30
  10
 205.20810440190
  20
 69.337659885529
  30
0.0
  41
 2.0000000000000
  42
 2.0000000000000
  43
 2.0000000000000
  50
 270.00000000000
   0
MTEXT
   5
118
 100
AcDbEntity
   8
LEVEL001
  62
7
 100
AcDbMText
  10
 204.70810440190
  20
 75.937659885529
  30
0.0
  40
 4.0000000000000
  41
0.0
  71
8
  72
1
   1
\A1;13.2
   7
GMM003
  11
0.0
  21
 1.0000000000000
  31
0.0
   0
ENDBLK
   5
119
 100
AcDbEntity
   8
0
 100
AcDbBlockEnd
   0
BLOCK
   5
11A
 100
AcDbEntity
   8
0
 100
AcDbBlockBegin
   2
*D11
  70
65
  10
0.0
  20
0.0
  30
0.0
   3
*D11
   0
LINE
   5
11B
 100
AcDbEntity
   8
LEVEL001
 100
AcDbLine
   6
CONTINUOUS
  62
1
  10
 89.472444368485
  20
 113.53765988553
  30
0.0
  11
 105.23419068805
  21
 113.53765988553
  31
0.0
   0
LINE
   5
11C
 100
AcDbEntity
   8
LEVEL001
 100
AcDbLine
   6
CONTINUOUS
  62
1
  10
 71.433123176432
  20
 102.53765988553
  30
0.0
  11
 105.23419068805
  21
 102.53765988553
  31
0.0
   0
LINE
   5
11D
 100
AcDbEntity
   8
LEVEL001
 100
AcDbLine
   6
CONTINUOUS
  62
1
  10
 103.23419068805
  20
 113.53765988553
  30
0.0
  11
 103.23419068805
  21
 102.53765988553
  31
0.0
   0
INSERT
   5
11E
 100
AcDbEntity
   8
LEVEL001
   6
CONTINUOUS
  62
1
 100
AcDbBlockReference
   2
_OPEN30
  10
 103.23419068805
  20
 113.53765988553
  30
0.0
  41
 2.0000000000000
  42
 2.0000000000000
  43
 2.0000000000000
  50
 90.000000000000
   0
INSERT
   5
11F
 100
AcDbEntity
   8
LEVEL001
   6
CONTINUOUS
  62
1
 100
AcDbBlockReference
   2
_OPEN30
  10
 103.23419068805
  20
 102.53765988553
  30
0.0
  41
 2.0000000000000
  42
 2.0000000000000
  43
 2.0000000000000
  50
 270.00000000000
   0
MTEXT
   5
120
 100
AcDbEntity
   8
LEVEL001
  62
7
 100
AcDbMText
  10
 102.73419068805
  20
 108.03765988553
  30
0.0
  40
 3.5000000000000
  41
0.0
  71
8
  72
1
   1
\A1;11
   7
GMM002
  11
0.0
  21
 1.0000000000000
  31
0.0
   0
ENDBLK
   5
121
 100
AcDbEntity
   8
0
 100
AcDbBlockEnd
   0
BLOCK
   5
122
 100
AcDbEntity
   8
0
 100
AcDbBlockBegin
   2
*D12
  70
65
  10
0.0
  20
0.0
  30
0.0
   3
*D12
   0
LINE
   5
123
 100
AcDbEntity
   8
LEVEL001
 100
AcDbLine
   6
CONTINUOUS
  62
1
  10
 71.433123176432
  20
 102.53765988553
  30
0.0
  11
 105.23419068805
  21
 102.53765988553
  31
0.0
   0
LINE
   5
124
 100
AcDbEntity
   8
LEVEL001
 100
AcDbLine
   6
CONTINUOUS
  62
1
  10
 71.433123176432
  20
 82.537659885529
  30
0.0
  11
 105.23419068805
  21
 82.537659885529
  31
0.0
   0
LINE
   5
125
 100
AcDbEntity
   8
LEVEL001
 100
AcDbLine
   6
CONTINUOUS
  62
1
  10
 103.23419068805
  20
 102.53765988553
  30
0.0
  11
 103.23419068805
  21
 82.537659885529
  31
0.0
   0
INSERT
   5
126
 100
AcDbEntity
   8
LEVEL001
   6
CONTINUOUS
  62
1
 100
AcDbBlockReference
   2
_OPEN30
  10
 103.23419068805
  20
 102.53765988553
  30
0.0
  41
 2.0000000000000
  42
 2.0000000000000
  43
 2.0000000000000
  50
 90.000000000000
   0
INSERT
   5
127
 100
AcDbEntity
   8
LEVEL001
   6
CONTINUOUS
  62
1
 100
AcDbBlockReference
   2
_OPEN30
  10
 103.23419068805
  20
 82.537659885529
  30
0.0
  41
 2.0000000000000
  42
 2.0000000000000
  43
 2.0000000000000
  50
 270.00000000000
   0
MTEXT
   5
128
 100
AcDbEntity
   8
LEVEL001
  62
7
 100
AcDbMText
  10
 102.73419068805
  20
 92.537659885529
  30
0.0
  40
 3.5000000000000
  41
0.0
  71
8
  72
1
   1
\A1;20
   7
GMM002
  11
0.0
  21
 1.0000000000000
  31
0.0
   0
ENDBLK
   5
129
 100
AcDbEntity
   8
0
 100
AcDbBlockEnd
   0
BLOCK
   5
12A
 100
AcDbEntity
   8
0
 100
AcDbBlockBegin
   2
*D13
  70
65
  10
0.0
  20
0.0
  30
0.0
   3
*D13
   0
LINE
   5
12B
 100
AcDbEntity
   8
LEVEL001
 100
AcDbLine
   6
CONTINUOUS
  62
1
  10
 71.433123176432
  20
 82.537659885529
  30
0.0
  11
 105.23419068805
  21
 82.537659885529
  31
0.0
   0
LINE
   5
12C
 100
AcDbEntity
   8
LEVEL001
 100
AcDbLine
   6
CONTINUOUS
  62
1
  10
 72.228508441055
  20
 68.537659885529
  30
0.0
  11
 105.23419068805
  21
 68.537659885529
  31
0.0
   0
LINE
   5
12D
 100
AcDbEntity
   8
LEVEL001
 100
AcDbLine
   6
CONTINUOUS
  62
1
  10
 103.23419068805
  20
 82.537659885529
  30
0.0
  11
 103.23419068805
  21
 68.537659885529
  31
0.0
   0
INSERT
   5
12E
 100
AcDbEntity
   8
LEVEL001
   6
CONTINUOUS
  62
1
 100
AcDbBlockReference
   2
_OPEN30
  10
 103.23419068805
  20
 82.537659885529
  30
0.0
  41
 2.0000000000000
  42
 2.0000000000000
  43
 2.0000000000000
  50
 90.000000000000
   0
INSERT
   5
12F
 100
AcDbEntity
   8
LEVEL001
   6
CONTINUOUS
  62
1
 100
AcDbBlockReference
   2
_OPEN30
  10
 103.23419068805
  20
 68.537659885529
  30
0.0
  41
 2.0000000000000
  42
 2.0000000000000
  43
 2.0000000000000
  50
 270.00000000000
   0
MTEXT
   5
130
 100
AcDbEntity
   8
LEVEL001
  62
7
 100
AcDbMText
  10
 102.73419068805
  20
 75.537659885529
  30
0.0
  40
 3.5000000000000
  41
0.0
  71
8
  72
1
   1
\A1;14
   7
GMM002
  11
0.0
  21
 1.0000000000000
  31
0.0
   0
ENDBLK
   5
131
 100
AcDbEntity
   8
0
 100
AcDbBlockEnd
   0
BLOCK
   5
132
 100
AcDbEntity
   8
0
 100
AcDbBlockBegin
   2
*D14
  70
65
  10
0.0
  20
0.0
  30
0.0
   3
*D14
   0
LINE
   5
133
 100
AcDbEntity
   8
LEVEL001
 100
AcDbLine
   6
CONTINUOUS
  62
1
  10
 89.472444368485
  20
 113.53765988553
  30
0.0
  11
 113.76851925479
  21
 113.53765988553
  31
0.0
   0
LINE
   5
134
 100
AcDbEntity
   8
LEVEL001
 100
AcDbLine
   6
CONTINUOUS
  62
1
  10
 72.228508441055
  20
 68.537659885529
  30
0.0
  11
 113.76851925479
  21
 68.537659885529
  31
0.0
   0
LINE
   5
135
 100
AcDbEntity
   8
LEVEL001
 100
AcDbLine
   6
CONTINUOUS
  62
1
  10
 111.76851925479
  20
 113.53765988553
  30
0.0
  11
 111.76851925479
  21
 68.537659885529
  31
0.0
   0
INSERT
   5
136
 100
AcDbEntity
   8
LEVEL001
   6
CONTINUOUS
  62
1
 100
AcDbBlockReference
   2
_OPEN30
  10
 111.76851925479
  20
 113.53765988553
  30
0.0
  41
 2.0000000000000
  42
 2.0000000000000
  43
 2.0000000000000
  50
 90.000000000000
   0
INSERT
   5
137
 100
AcDbEntity
   8
LEVEL001
   6
CONTINUOUS
  62
1
 100
AcDbBlockReference
   2
_OPEN30
  10
 111.76851925479
  20
 68.537659885529
  30
0.0
  41
 2.0000000000000
  42
 2.0000000000000
  43
 2.0000000000000
  50
 270.00000000000
   0
MTEXT
   5
138
 100
AcDbEntity
   8
LEVEL001
  62
7
 100
AcDbMText
  10
 111.26851925479
  20
 91.037659885529
  30
0.0
  40
 3.5000000000000
  41
0.0
  71
8
  72
1
   1
\A1;45
   7
GMM002
  11
0.0
  21
 1.0000000000000
  31
0.0
   0
ENDBLK
   5
139
 100
AcDbEntity
   8
0
 100
AcDbBlockEnd
   0
BLOCK
   5
13A
 100
AcDbEntity
   8
0
 100
AcDbBlockBegin
   2
*D15
  70
65
  10
0.0
  20
0.0
  30
0.0
   3
*D15
   0
LINE
   5
13B
 100
AcDbEntity
   8
LEVEL001
 100
AcDbLine
   6
CONTINUOUS
  62
1
  10
 41.472444368491
  20
 157.77184227064
  30
0.0
  11
 41.472444368491
  21
 170.46149300445
  31
0.0
   0
LINE
   5
13C
 100
AcDbEntity
   8
LEVEL001
 100
AcDbLine
   6
CONTINUOUS
  62
1
  10
 86.472444368479
  20
 157.77184227064
  30
0.0
  11
 86.472444368479
  21
 170.46149300445
  31
0.0
   0
LINE
   5
13D
 100
AcDbEntity
   8
LEVEL001
 100
AcDbLine
   6
CONTINUOUS
  62
1
  10
 41.472444368491
  20
 168.46149300445
  30
0.0
  11
 86.472444368479
  21
 168.46149300445
  31
0.0
   0
INSERT
   5
13E
 100
AcDbEntity
   8
LEVEL001
   6
CONTINUOUS
  62
1
 100
AcDbBlockReference
   2
_OPEN30
  10
 41.472444368491
  20
 168.46149300445
  30
0.0
  41
 2.0000000000000
  42
 2.0000000000000
  43
 2.0000000000000
  50
 180.00000000000
   0
INSERT
   5
13F
 100
AcDbEntity
   8
LEVEL001
   6
CONTINUOUS
  62
1
 100
AcDbBlockReference
   2
_OPEN30
  10
 86.472444368479
  20
 168.46149300445
  30
0.0
  41
 2.0000000000000
  42
 2.0000000000000
  43
 2.0000000000000
  50
0.0
   0
MTEXT
   5
140
 100
AcDbEntity
   8
LEVEL001
  62
7
 100
AcDbMText
  10
 63.972444368485
  20
 168.96149300445
  30
0.0
  40
 3.5000000000000
  41
0.0
  71
8
  72
1
   1
\A1;45
   7
GMM002
   0
ENDBLK
   5
141
 100
AcDbEntity
   8
0
 100
AcDbBlockEnd
   0
BLOCK
   5
142
 100
AcDbEntity
   8
0
 100
AcDbBlockBegin
   2
*D16
  70
65
  10
0.0
  20
0.0
  30
0.0
   3
*D16
   0
LINE
   5
143
 100
AcDbEntity
   8
LEVEL001
 100
AcDbLine
   6
CONTINUOUS
  62
1
  10
 235.82344818055
  20
 94.267972630830
  30
0.0
  11
 225.40112471856
  21
 94.267972630830
  31
0.0
   0
LINE
   5
144
 100
AcDbEntity
   8
LEVEL001
 100
AcDbLine
   6
CONTINUOUS
  62
1
  10
 235.82344818055
  20
 75.167972630830
  30
0.0
  11
 225.40112471856
  21
 75.167972630830
  31
0.0
   0
LINE
   5
145
 100
AcDbEntity
   8
LEVEL001
 100
AcDbLine
   6
CONTINUOUS
  62
1
  10
 227.40112471856
  20
 94.267972630830
  30
0.0
  11
 227.40112471856
  21
 75.167972630830
  31
0.0
   0
INSERT
   5
146
 100
AcDbEntity
   8
LEVEL001
   6
CONTINUOUS
  62
1
 100
AcDbBlockReference
   2
_OPEN30
  10
 227.40112471856
  20
 94.267972630830
  30
0.0
  41
 2.0000000000000
  42
 2.0000000000000
  43
 2.0000000000000
  50
 90.000000000000
   0
INSERT
   5
147
 100
AcDbEntity
   8
LEVEL001
   6
CONTINUOUS
  62
1
 100
AcDbBlockReference
   2
_OPEN30
  10
 227.40112471856
  20
 75.167972630830
  30
0.0
  41
 2.0000000000000
  42
 2.0000000000000
  43
 2.0000000000000
  50
 270.00000000000
   0
MTEXT
   5
148
 100
AcDbEntity
   8
LEVEL001
  62
7
 100
AcDbMText
  10
 226.27154036648
  20
 85.277577200414
  30
0.0
  40
 3.5000000000000
  41
0.0
  71
8
  72
1
   1
\A1;%%c19
   7
GMM002
  11
0.0
  21
 1.0000000000000
  31
0.0
   0
ENDBLK
   5
149
 100
AcDbEntity
   8
0
 100
AcDbBlockEnd
   0
BLOCK
   5
14A
 100
AcDbEntity
   8
0
 100
AcDbBlockBegin
   2
*D17
  70
65
  10
0.0
  20
0.0
  30
0.0
   3
*D17
   0
LINE
   5
14B
 100
AcDbEntity
   8
LEVEL001
 100
AcDbLine
   6
CONTINUOUS
  62
1
  10
 146.19097235904
  20
 146.72842212010
  30
0.0
  11
 134.59785008480
  21
 146.72842212010
  31
0.0
   0
LINE
   5
14C
 100
AcDbEntity
   8
LEVEL001
 100
AcDbLine
   6
CONTINUOUS
  62
1
  10
 146.19097235904
  20
 145.72842212010
  30
0.0
  11
 134.59785008480
  21
 145.72842212010
  31
0.0
   0
LINE
   5
14D
 100
AcDbEntity
   8
LEVEL001
 100
AcDbLine
   6
CONTINUOUS
  62
1
  10
 136.59785008480
  20
 146.72842212010
  30
0.0
  11
 136.59785008480
  21
 145.72842212010
  31
0.0
   0
LINE
   5
14E
 100
AcDbEntity
   8
LEVEL001
 100
AcDbLine
   6
CONTINUOUS
  62
1
  10
 136.59785008480
  20
 146.72842212010
  30
0.0
  11
 136.59785008480
  21
 152.20558846362
  31
0.0
   0
INSERT
   5
14F
 100
AcDbEntity
   8
LEVEL001
   6
CONTINUOUS
  62
1
 100
AcDbBlockReference
   2
_OPEN30
  10
 136.59785008480
  20
 146.72842212010
  30
0.0
  41
 2.0000000000000
  42
 2.0000000000000
  43
 2.0000000000000
  50
 270.00000000000
   0
INSERT
   5
150
 100
AcDbEntity
   8
LEVEL001
   6
CONTINUOUS
  62
1
 100
AcDbBlockReference
   2
_OPEN30
  10
 136.59785008480
  20
 145.72842212010
  30
0.0
  41
 2.0000000000000
  42
 2.0000000000000
  43
 2.0000000000000
  50
 90.000000000000
   0
LINE
   5
151
 100
AcDbEntity
   8
LEVEL001
 100
AcDbLine
   6
CONTINUOUS
  62
1
  10
 136.59785008480
  20
 146.72842212010
  30
0.0
  11
 136.59785008480
  21
 152.20558846362
  31
0.0
   0
LINE
   5
152
 100
AcDbEntity
   8
LEVEL001
 100
AcDbLine
   6
CONTINUOUS
  62
1
  10
 136.59785008480
  20
 145.72842212010
  30
0.0
  11
 136.59785008480
  21
 143.22842212010
  31
0.0
   0
MTEXT
   5
153
 100
AcDbEntity
   8
LEVEL001
  62
7
 100
AcDbMText
  10
 135.82861931557
  20
 148.70558846362
  30
0.0
  40
 4.0000000000000
  41
0.0
  71
7
  72
1
   1
\A1;1
   7
GMM004
  11
0.0
  21
 1.0000000000000
  31
0.0
   0
ENDBLK
   5
154
 100
AcDbEntity
   8
0
 100
AcDbBlockEnd
   0
BLOCK
   5
155
 100
AcDbEntity
   8
0
 100
AcDbBlockBegin
   2
BLOCK001
  70
64
  10
0.0
  20
0.0
  30
0.0
   3
BLOCK001
   0
LINE
   5
156
 100
AcDbEntity
   8
LEVEL001
 100
AcDbLine
   6
CONTINUOUS
  62
1
  10
 330.65869735609
  20
 225.23923479287
  30
0.0
  11
 332.04133556501
  21
 226.62187300179
  31
0.0
   0
LINE
   5
157
 100
AcDbEntity
   8
LEVEL001
 100
AcDbLine
   6
CONTINUOUS
  62
1
  10
 329.25208709244
  20
 225.24683809159
  30
0.0
  11
 330.58588823504
  21
 226.58063923420
  31
0.0
   0
LINE
   5
158
 100
AcDbEntity
   8
LEVEL001
 100
AcDbLine
   6
CONTINUOUS
  62
1
  10
 327.84547682878
  20
 225.25444139031
  30
0.0
  11
 329.13044090507
  21
 226.53940546660
  31
0.0
   0
LINE
   5
159
 100
AcDbEntity
   8
LEVEL001
 100
AcDbLine
   6
CONTINUOUS
  62
1
  10
 326.43886656513
  20
 225.26204468904
  30
0.0
  11
 327.67499357511
  21
 226.49817169901
  31
0.0
   0
LINE
   5
15A
 100
AcDbEntity
   8
LEVEL001
 100
AcDbLine
   6
CONTINUOUS
  62
1
  10
 325.03225630148
  20
 225.26964798776
  30
0.0
  11
 326.21954624514
  21
 226.45693793141
  31
0.0
   0
LINE
   5
15B
 100
AcDbEntity
   8
LEVEL001
 100
AcDbLine
   6
CONTINUOUS
  62
1
  10
 343.31818972894
  20
 225.17080510437
  30
0.0
  11
 345.14036153471
  21
 226.99297691014
  31
0.0
   0
LINE
   5
15C
 100
AcDbEntity
   8
LEVEL001
 100
AcDbLine
   6
CONTINUOUS
  62
1
  10
 341.91157946529
  20
 225.17840840309
  30
0.0
  11
 343.68491420475
  21
 226.95174314254
  31
0.0
   0
LINE
   5
15D
 100
AcDbEntity
   8
LEVEL001
 100
AcDbLine
   6
CONTINUOUS
  62
1
  10
 340.50496920164
  20
 225.18601170181
  30
0.0
  11
 342.22946687478
  21
 226.91050937495
  31
0.0
   0
LINE
   5
15E
 100
AcDbEntity
   8
LEVEL001
 100
AcDbLine
   6
CONTINUOUS
  62
1
  10
 339.09835893799
  20
 225.19361500053
  30
0.0
  11
 340.77401954481
  21
 226.86927560735
  31
0.0
   0
LINE
   5
15F
 100
AcDbEntity
   8
LEVEL001
 100
AcDbLine
   6
CONTINUOUS
  62
1
  10
 337.69174867434
  20
 225.20121829926
  30
0.0
  11
 339.31857221484
  21
 226.82804183976
  31
0.0
   0
LINE
   5
160
 100
AcDbEntity
   8
LEVEL001
 100
AcDbLine
   6
CONTINUOUS
  62
1
  10
 336.28513841069
  20
 225.20882159798
  30
0.0
  11
 337.86312488488
  21
 226.78680807217
  31
0.0
   0
LINE
   5
161
 100
AcDbEntity
   8
LEVEL001
 100
AcDbLine
   6
CONTINUOUS
  62
1
  10
 334.87852814704
  20
 225.21642489670
  30
0.0
  11
 336.40767755491
  21
 226.74557430457
  31
0.0
   0
LINE
   5
162
 100
AcDbEntity
   8
LEVEL001
 100
AcDbLine
   6
CONTINUOUS
  62
1
  10
 333.47191788339
  20
 225.22402819542
  30
0.0
  11
 334.95223022494
  21
 226.70434053698
  31
0.0
   0
LINE
   5
163
 100
AcDbEntity
   8
LEVEL001
 100
AcDbLine
   6
CONTINUOUS
  62
1
  10
 332.06530761974
  20
 225.23163149415
  30
0.0
  11
 333.49678289498
  21
 226.66310676938
  31
0.0
   0
LINE
   5
164
 100
AcDbEntity
   8
LEVEL001
 100
AcDbLine
   6
CONTINUOUS
  62
1
  10
 324.99413598608
  20
 205.43253779913
  30
0.0
  11
 325.73622208876
  21
 206.17462390181
  31
0.0
   0
LINE
   5
165
 100
AcDbEntity
   8
LEVEL001
 100
AcDbLine
   6
CONTINUOUS
  62
1
  10
 344.73183152150
  20
 225.17023333455
  30
0.0
  11
 346.59580886468
  21
 227.03421067773
  31
0.0
   0
LINE
   5
166
 100
AcDbEntity
   8
LEVEL001
 100
AcDbLine
   6
CONTINUOUS
  62
1
  10
 338.34377527020
  20
 204.64004145952
  30
0.0
  11
 339.95521714523
  21
 206.25148333455
  31
0.0
   0
LINE
   5
167
 100
AcDbEntity
   8
LEVEL001
 100
AcDbLine
   6
CONTINUOUS
  62
1
  10
 349.42396714523
  20
 215.72023333455
  30
0.0
  11
 351.92396714523
  21
 218.22023333455
  31
0.0
   0
LINE
   5
168
 100
AcDbEntity
   8
LEVEL001
 100
AcDbLine
   6
CONTINUOUS
  62
1
  10
 336.96852348362
  20
 204.67900323532
  30
0.0
  11
 338.53331763958
  21
 206.24379739128
  31
0.0
   0
LINE
   5
169
 100
AcDbEntity
   8
LEVEL001
 100
AcDbLine
   6
CONTINUOUS
  62
1
  10
 349.42396714523
  20
 217.13444689692
  30
0.0
  11
 351.92396714523
  21
 219.63444689692
  31
0.0
   0
LINE
   5
16A
 100
AcDbEntity
   8
LEVEL001
 100
AcDbLine
   6
CONTINUOUS
  62
1
  10
 335.59327169705
  20
 204.71796501111
  30
0.0
  11
 337.11141813393
  21
 206.23611144800
  31
0.0
   0
LINE
   5
16B
 100
AcDbEntity
   8
LEVEL001
 100
AcDbLine
   6
CONTINUOUS
  62
1
  10
 349.42396714523
  20
 218.54866045930
  30
0.0
  11
 351.92396714523
  21
 221.04866045930
  31
0.0
   0
LINE
   5
16C
 100
AcDbEntity
   8
LEVEL001
 100
AcDbLine
   6
CONTINUOUS
  62
1
  10
 334.21801991047
  20
 204.75692678691
  30
0.0
  11
 335.68951862829
  21
 206.22842550473
  31
0.0
   0
LINE
   5
16D
 100
AcDbEntity
   8
LEVEL001
 100
AcDbLine
   6
CONTINUOUS
  62
1
  10
 349.42396714523
  20
 219.96287402167
  30
0.0
  11
 351.92396714523
  21
 222.46287402167
  31
0.0
   0
LINE
   5
16E
 100
AcDbEntity
   8
LEVEL001
 100
AcDbLine
   6
CONTINUOUS
  62
1
  10
 332.84276812389
  20
 204.79588856270
  30
0.0
  11
 334.26761912264
  21
 206.22073956145
  31
0.0
   0
LINE
   5
16F
 100
AcDbEntity
   8
LEVEL001
 100
AcDbLine
   6
CONTINUOUS
  62
1
  10
 349.42396714523
  20
 221.37708758404
  30
0.0
  11
 351.85526806760
  21
 223.80838850641
  31
0.0
   0
LINE
   5
170
 100
AcDbEntity
   8
LEVEL001
 100
AcDbLine
   6
CONTINUOUS
  62
1
  10
 331.46751633731
  20
 204.83485033850
  30
0.0
  11
 332.84571961699
  21
 206.21305361818
  31
0.0
   0
LINE
   5
171
 100
AcDbEntity
   8
LEVEL001
 100
AcDbLine
   6
CONTINUOUS
  62
1
  10
 349.35289933336
  20
 222.72023333455
  30
0.0
  11
 351.49836341856
  21
 224.86569741974
  31
0.0
   0
LINE
   5
172
 100
AcDbEntity
   8
LEVEL001
 100
AcDbLine
   6
CONTINUOUS
  62
1
  10
 330.09226455073
  20
 204.87381211429
  30
0.0
  11
 331.42382011135
  21
 206.20536767491
  31
0.0
   0
LINE
   5
173
 100
AcDbEntity
   8
LEVEL001
 100
AcDbLine
   6
CONTINUOUS
  62
1
  10
 348.42396714523
  20
 223.20551470879
  30
0.0
  11
 350.92886876621
  21
 225.71041632977
  31
0.0
   0
LINE
   5
174
 100
AcDbEntity
   8
LEVEL001
 100
AcDbLine
   6
CONTINUOUS
  62
1
  10
 328.71701276415
  20
 204.91277389009
  30
0.0
  11
 330.00192060570
  21
 206.19768173163
  31
0.0
   0
LINE
   5
175
 100
AcDbEntity
   8
LEVEL001
 100
AcDbLine
   6
CONTINUOUS
  62
1
  10
 348.42396714523
  20
 224.61972827116
  30
0.0
  11
 350.17854335266
  21
 226.37430447859
  31
0.0
   0
LINE
   5
176
 100
AcDbEntity
   8
LEVEL001
 100
AcDbLine
   6
CONTINUOUS
  62
1
  10
 327.34176097757
  20
 204.95173566588
  30
0.0
  11
 328.58002110005
  21
 206.18999578836
  31
0.0
   0
LINE
   5
177
 100
AcDbEntity
   8
LEVEL001
 100
AcDbLine
   6
CONTINUOUS
  62
1
  10
 347.56025864624
  20
 225.17023333455
  30
0.0
  11
 349.23819520156
  21
 226.84816988986
  31
0.0
   0
LINE
   5
178
 100
AcDbEntity
   8
LEVEL001
 100
AcDbLine
   6
CONTINUOUS
  62
1
  10
 325.96650919100
  20
 204.99069744167
  30
0.0
  11
 327.15812159441
  21
 206.18230984509
  31
0.0
   0
LINE
   5
179
 100
AcDbEntity
   8
LEVEL001
 100
AcDbLine
   6
CONTINUOUS
  62
1
  10
 346.14604508387
  20
 225.17023333455
  30
0.0
  11
 348.04423658283
  21
 227.06842483351
  31
0.0
   0
LINE
   5
17A
 100
AcDbEntity
   8
LEVEL001
 100
AcDbLine
   6
CONTINUOUS
  62
1
  10
 349.92303741596
  20
 204.90559510629
  30
0.0
  11
 351.38860537348
  21
 206.37116306382
  31
0.0
   0
LINE
   5
17B
 100
AcDbEntity
   8
LEVEL001
 100
AcDbLine
   6
CONTINUOUS
  62
1
  10
 347.97377216131
  20
 204.37054341402
  30
0.0
  11
 351.92365706576
  21
 208.32042831847
  31
0.0
   0
LINE
   5
17C
 100
AcDbEntity
   8
LEVEL001
 100
AcDbLine
   6
CONTINUOUS
  62
1
  10
 346.59528598967
  20
 204.40627080476
  30
0.0
  11
 351.92396714523
  21
 209.73495196031
  31
0.0
   0
LINE
   5
17D
 100
AcDbEntity
   8
LEVEL001
 100
AcDbLine
   6
CONTINUOUS
  62
1
  10
 345.22003420309
  20
 204.44523258055
  30
0.0
  11
 347.04503495709
  21
 206.27023333455
  31
0.0
   0
LINE
   5
17E
 100
AcDbEntity
   8
LEVEL001
 100
AcDbLine
   6
CONTINUOUS
  62
1
  10
 348.42396714523
  20
 207.64916552268
  30
0.0
  11
 351.92396714523
  21
 211.14916552268
  31
0.0
   0
LINE
   5
17F
 100
AcDbEntity
   8
LEVEL001
 100
AcDbLine
   6
CONTINUOUS
  62
1
  10
 343.84478241652
  20
 204.48419435634
  30
0.0
  11
 345.63082139472
  21
 206.27023333455
  31
0.0
   0
LINE
   5
180
 100
AcDbEntity
   8
LEVEL001
 100
AcDbLine
   6
CONTINUOUS
  62
1
  10
 349.42396714523
  20
 210.06337908506
  30
0.0
  11
 351.92396714523
  21
 212.56337908506
  31
0.0
   0
LINE
   5
181
 100
AcDbEntity
   8
LEVEL001
 100
AcDbLine
   6
CONTINUOUS
  62
1
  10
 342.46953062994
  20
 204.52315613214
  30
0.0
  11
 344.21660783235
  21
 206.27023333455
  31
0.0
   0
LINE
   5
182
 100
AcDbEntity
   8
LEVEL001
 100
AcDbLine
   6
CONTINUOUS
  62
1
  10
 349.42396714523
  20
 211.47759264743
  30
0.0
  11
 351.92396714523
  21
 213.97759264743
  31
0.0
   0
LINE
   5
183
 100
AcDbEntity
   8
LEVEL001
 100
AcDbLine
   6
CONTINUOUS
  62
1
  10
 341.09427884336
  20
 204.56211790793
  30
0.0
  11
 342.79901615652
  21
 206.26685522110
  31
0.0
   0
LINE
   5
184
 100
AcDbEntity
   8
LEVEL001
 100
AcDbLine
   6
CONTINUOUS
  62
1
  10
 349.42396714523
  20
 212.89180620980
  30
0.0
  11
 351.92396714523
  21
 215.39180620980
  31
0.0
   0
LINE
   5
185
 100
AcDbEntity
   8
LEVEL001
 100
AcDbLine
   6
CONTINUOUS
  62
1
  10
 339.71902705678
  20
 204.60107968373
  30
0.0
  11
 341.37711665088
  21
 206.25916927782
  31
0.0
   0
LINE
   5
186
 100
AcDbEntity
   8
LEVEL001
 100
AcDbLine
   6
CONTINUOUS
  62
1
  10
 349.42396714523
  20
 214.30601977218
  30
0.0
  11
 351.92396714523
  21
 216.80601977218
  31
0.0
   0
ENDBLK
   5
187
 100
AcDbEntity
   8
0
 100
AcDbBlockEnd
   0
BLOCK
   5
188
 100
AcDbEntity
   8
0
 100
AcDbBlockBegin
   2
BLOCK002
  70
64
  10
0.0
  20
0.0
  30
0.0
   3
BLOCK002
   0
LINE
   5
189
 100
AcDbEntity
   8
LEVEL001
 100
AcDbLine
   6
CONTINUOUS
  62
1
  10
 242.55817839141
  20
 94.236974089150
  30
0.0
  11
 243.94081660033
  21
 95.619612298072
  31
0.0
   0
LINE
   5
18A
 100
AcDbEntity
   8
LEVEL001
 100
AcDbLine
   6
CONTINUOUS
  62
1
  10
 241.15156812775
  20
 94.244577387873
  30
0.0
  11
 242.48536927036
  21
 95.578378530478
  31
0.0
   0
LINE
   5
18B
 100
AcDbEntity
   8
LEVEL001
 100
AcDbLine
   6
CONTINUOUS
  62
1
  10
 239.74495786410
  20
 94.252180686595
  30
0.0
  11
 241.02992194039
  21
 95.537144762884
  31
0.0
   0
LINE
   5
18C
 100
AcDbEntity
   8
LEVEL001
 100
AcDbLine
   6
CONTINUOUS
  62
1
  10
 238.33834760045
  20
 94.259783985317
  30
0.0
  11
 239.57447461043
  21
 95.495910995290
  31
0.0
   0
LINE
   5
18D
 100
AcDbEntity
   8
LEVEL001
 100
AcDbLine
   6
CONTINUOUS
  62
1
  10
 236.93173733680
  20
 94.267387284040
  30
0.0
  11
 238.11902728046
  21
 95.454677227696
  31
0.0
   0
LINE
   5
18E
 100
AcDbEntity
   8
LEVEL001
 100
AcDbLine
   6
CONTINUOUS
  62
1
  10
 255.21767076426
  20
 94.168544400648
  30
0.0
  11
 257.03984257003
  21
 95.990716206419
  31
0.0
   0
LINE
   5
18F
 100
AcDbEntity
   8
LEVEL001
 100
AcDbLine
   6
CONTINUOUS
  62
1
  10
 253.81106050061
  20
 94.176147699371
  30
0.0
  11
 255.58439524006
  21
 95.949482438825
  31
0.0
   0
LINE
   5
190
 100
AcDbEntity
   8
LEVEL001
 100
AcDbLine
   6
CONTINUOUS
  62
1
  10
 252.40445023696
  20
 94.183750998093
  30
0.0
  11
 254.12894791010
  21
 95.908248671231
  31
0.0
   0
LINE
   5
191
 100
AcDbEntity
   8
LEVEL001
 100
AcDbLine
   6
CONTINUOUS
  62
1
  10
 250.99783997331
  20
 94.191354296815
  30
0.0
  11
 252.67350058013
  21
 95.867014903636
  31
0.0
   0
LINE
   5
192
 100
AcDbEntity
   8
LEVEL001
 100
AcDbLine
   6
CONTINUOUS
  62
1
  10
 249.59122970966
  20
 94.198957595538
  30
0.0
  11
 251.21805325016
  21
 95.825781136042
  31
0.0
   0
LINE
   5
193
 100
AcDbEntity
   8
LEVEL001
 100
AcDbLine
   6
CONTINUOUS
  62
1
  10
 248.18461944601
  20
 94.206560894260
  30
0.0
  11
 249.76260592020
  21
 95.784547368448
  31
0.0
   0
LINE
   5
194
 100
AcDbEntity
   8
LEVEL001
 100
AcDbLine
   6
CONTINUOUS
  62
1
  10
 246.77800918236
  20
 94.214164192983
  30
0.0
  11
 248.30715859023
  21
 95.743313600854
  31
0.0
   0
LINE
   5
195
 100
AcDbEntity
   8
LEVEL001
 100
AcDbLine
   6
CONTINUOUS
  62
1
  10
 245.37139891871
  20
 94.221767491705
  30
0.0
  11
 246.85171126026
  21
 95.702079833260
  31
0.0
   0
LINE
   5
196
 100
AcDbEntity
   8
LEVEL001
 100
AcDbLine
   6
CONTINUOUS
  62
1
  10
 243.96478865506
  20
 94.229370790428
  30
0.0
  11
 245.39626393029
  21
 95.660846065666
  31
0.0
   0
LINE
   5
197
 100
AcDbEntity
   8
LEVEL001
 100
AcDbLine
   6
CONTINUOUS
  62
1
  10
 236.89361702140
  20
 74.430277095414
  30
0.0
  11
 237.63570312408
  21
 75.172363198093
  31
0.0
   0
LINE
   5
198
 100
AcDbEntity
   8
LEVEL001
 100
AcDbLine
   6
CONTINUOUS
  62
1
  10
 256.63131255682
  20
 94.167972630830
  30
0.0
  11
 258.49528990000
  21
 96.031949974013
  31
0.0
   0
LINE
   5
199
 100
AcDbEntity
   8
LEVEL001
 100
AcDbLine
   6
CONTINUOUS
  62
1
  10
 250.24325630552
  20
 73.637780755804
  30
0.0
  11
 251.85469818055
  21
 75.249222630830
  31
0.0
   0
LINE
   5
19A
 100
AcDbEntity
   8
LEVEL001
 100
AcDbLine
   6
CONTINUOUS
  62
1
  10
 261.32344818055
  20
 84.717972630831
  30
0.0
  11
 263.82344818055
  21
 87.217972630831
  31
0.0
   0
LINE
   5
19B
 100
AcDbEntity
   8
LEVEL001
 100
AcDbLine
   6
CONTINUOUS
  62
1
  10
 248.86800451894
  20
 73.676742531599
  30
0.0
  11
 250.43279867490
  21
 75.241536687557
  31
0.0
   0
LINE
   5
19C
 100
AcDbEntity
   8
LEVEL001
 100
AcDbLine
   6
CONTINUOUS
  62
1
  10
 261.32344818055
  20
 86.132186193204
  30
0.0
  11
 263.82344818055
  21
 88.632186193204
  31
0.0
   0
LINE
   5
19D
 100
AcDbEntity
   8
LEVEL001
 100
AcDbLine
   6
CONTINUOUS
  62
1
  10
 247.49275273236
  20
 73.715704307394
  30
0.0
  11
 249.01089916925
  21
 75.233850744283
  31
0.0
   0
LINE
   5
19E
 100
AcDbEntity
   8
LEVEL001
 100
AcDbLine
   6
CONTINUOUS
  62
1
  10
 261.32344818055
  20
 87.546399755577
  30
0.0
  11
 263.82344818055
  21
 90.046399755577
  31
0.0
   0
LINE
   5
19F
 100
AcDbEntity
   8
LEVEL001
 100
AcDbLine
   6
CONTINUOUS
  62
1
  10
 246.11750094579
  20
 73.754666083188
  30
0.0
  11
 247.58899966361
  21
 75.226164801009
  31
0.0
   0
LINE
   5
1A0
 100
AcDbEntity
   8
LEVEL001
 100
AcDbLine
   6
CONTINUOUS
  62
1
  10
 261.32344818055
  20
 88.960613317950
  30
0.0
  11
 263.82344818055
  21
 91.460613317950
  31
0.0
   0
LINE
   5
1A1
 100
AcDbEntity
   8
LEVEL001
 100
AcDbLine
   6
CONTINUOUS
  62
1
  10
 244.74224915921
  20
 73.793627858983
  30
0.0
  11
 246.16710015796
  21
 75.218478857735
  31
0.0
   0
LINE
   5
1A2
 100
AcDbEntity
   8
LEVEL001
 100
AcDbLine
   6
CONTINUOUS
  62
1
  10
 261.32344818055
  20
 90.374826880323
  30
0.0
  11
 263.75474910292
  21
 92.806127802696
  31
0.0
   0
LINE
   5
1A3
 100
AcDbEntity
   8
LEVEL001
 100
AcDbLine
   6
CONTINUOUS
  62
1
  10
 243.36699737263
  20
 73.832589634778
  30
0.0
  11
 244.74520065231
  21
 75.210792914462
  31
0.0
   0
LINE
   5
1A4
 100
AcDbEntity
   8
LEVEL001
 100
AcDbLine
   6
CONTINUOUS
  62
1
  10
 261.25238036868
  20
 91.717972630830
  30
0.0
  11
 263.39784445388
  21
 93.863436716024
  31
0.0
   0
LINE
   5
1A5
 100
AcDbEntity
   8
LEVEL001
 100
AcDbLine
   6
CONTINUOUS
  62
1
  10
 241.99174558605
  20
 73.871551410572
  30
0.0
  11
 243.32330114667
  21
 75.203106971188
  31
0.0
   0
LINE
   5
1A6
 100
AcDbEntity
   8
LEVEL001
 100
AcDbLine
   6
CONTINUOUS
  62
1
  10
 260.32344818055
  20
 92.203254005069
  30
0.0
  11
 262.82834980153
  21
 94.708155626048
  31
0.0
   0
LINE
   5
1A7
 100
AcDbEntity
   8
LEVEL001
 100
AcDbLine
   6
CONTINUOUS
  62
1
  10
 240.61649379947
  20
 73.910513186367
  30
0.0
  11
 241.90140164102
  21
 75.195421027914
  31
0.0
   0
LINE
   5
1A8
 100
AcDbEntity
   8
LEVEL001
 100
AcDbLine
   6
CONTINUOUS
  62
1
  10
 260.32344818055
  20
 93.617467567442
  30
0.0
  11
 262.07802438798
  21
 95.372043774872
  31
0.0
   0
LINE
   5
1A9
 100
AcDbEntity
   8
LEVEL001
 100
AcDbLine
   6
CONTINUOUS
  62
1
  10
 239.24124201289
  20
 73.949474962161
  30
0.0
  11
 240.47950213537
  21
 75.187735084640
  31
0.0
   0
LINE
   5
1AA
 100
AcDbEntity
   8
LEVEL001
 100
AcDbLine
   6
CONTINUOUS
  62
1
  10
 259.45973968156
  20
 94.167972630830
  30
0.0
  11
 261.13767623687
  21
 95.845909186142
  31
0.0
   0
LINE
   5
1AB
 100
AcDbEntity
   8
LEVEL001
 100
AcDbLine
   6
CONTINUOUS
  62
1
  10
 237.86599022632
  20
 73.988436737956
  30
0.0
  11
 239.05760262973
  21
 75.180049141367
  31
0.0
   0
LINE
   5
1AC
 100
AcDbEntity
   8
LEVEL001
 100
AcDbLine
   6
CONTINUOUS
  62
1
  10
 258.04552611919
  20
 94.167972630830
  30
0.0
  11
 259.94371761815
  21
 96.066164129793
  31
0.0
   0
LINE
   5
1AD
 100
AcDbEntity
   8
LEVEL001
 100
AcDbLine
   6
CONTINUOUS
  62
1
  10
 261.82251845128
  20
 73.903334402576
  30
0.0
  11
 263.28808640880
  21
 75.368902360100
  31
0.0
   0
LINE
   5
1AE
 100
AcDbEntity
   8
LEVEL001
 100
AcDbLine
   6
CONTINUOUS
  62
1
  10
 259.87325319663
  20
 73.368282710303
  30
0.0
  11
 263.82313810108
  21
 77.318167614747
  31
0.0
   0
LINE
   5
1AF
 100
AcDbEntity
   8
LEVEL001
 100
AcDbLine
   6
CONTINUOUS
  62
1
  10
 258.49476702499
  20
 73.404010101037
  30
0.0
  11
 263.82344818055
  21
 78.732691256592
  31
0.0
   0
LINE
   5
1B0
 100
AcDbEntity
   8
LEVEL001
 100
AcDbLine
   6
CONTINUOUS
  62
1
  10
 257.11951523841
  20
 73.442971876831
  30
0.0
  11
 258.94451599241
  21
 75.267972630830
  31
0.0
   0
LINE
   5
1B1
 100
AcDbEntity
   8
LEVEL001
 100
AcDbLine
   6
CONTINUOUS
  62
1
  10
 260.32344818055
  20
 76.646904818965
  30
0.0
  11
 263.82344818055
  21
 80.146904818965
  31
0.0
   0
LINE
   5
1B2
 100
AcDbEntity
   8
LEVEL001
 100
AcDbLine
   6
CONTINUOUS
  62
1
  10
 255.74426345184
  20
 73.481933652626
  30
0.0
  11
 257.53030243004
  21
 75.267972630830
  31
0.0
   0
LINE
   5
1B3
 100
AcDbEntity
   8
LEVEL001
 100
AcDbLine
   6
CONTINUOUS
  62
1
  10
 261.32344818055
  20
 79.061118381338
  30
0.0
  11
 263.82344818055
  21
 81.561118381338
  31
0.0
   0
LINE
   5
1B4
 100
AcDbEntity
   8
LEVEL001
 100
AcDbLine
   6
CONTINUOUS
  62
1
  10
 254.36901166526
  20
 73.520895428420
  30
0.0
  11
 256.11608886767
  21
 75.267972630830
  31
0.0
   0
LINE
   5
1B5
 100
AcDbEntity
   8
LEVEL001
 100
AcDbLine
   6
CONTINUOUS
  62
1
  10
 261.32344818055
  20
 80.475331943711
  30
0.0
  11
 263.82344818055
  21
 82.975331943711
  31
0.0
   0
LINE
   5
1B6
 100
AcDbEntity
   8
LEVEL001
 100
AcDbLine
   6
CONTINUOUS
  62
1
  10
 252.99375987868
  20
 73.559857204215
  30
0.0
  11
 254.69849719184
  21
 75.264594517378
  31
0.0
   0
LINE
   5
1B7
 100
AcDbEntity
   8
LEVEL001
 100
AcDbLine
   6
CONTINUOUS
  62
1
  10
 261.32344818055
  20
 81.889545506084
  30
0.0
  11
 263.82344818055
  21
 84.389545506084
  31
0.0
   0
LINE
   5
1B8
 100
AcDbEntity
   8
LEVEL001
 100
AcDbLine
   6
CONTINUOUS
  62
1
  10
 251.61850809210
  20
 73.598818980010
  30
0.0
  11
 253.27659768619
  21
 75.256908574104
  31
0.0
   0
LINE
   5
1B9
 100
AcDbEntity
   8
LEVEL001
 100
AcDbLine
   6
CONTINUOUS
  62
1
  10
 261.32344818055
  20
 83.303759068457
  30
0.0
  11
 263.82344818055
  21
 85.803759068457
  31
0.0
   0
ENDBLK
   5
1BA
 100
AcDbEntity
   8
0
 100
AcDbBlockEnd
   0
BLOCK
   5
1BB
 100
AcDbEntity
   8
0
 100
AcDbBlockBegin
   2
*D18
  70
65
  10
0.0
  20
0.0
  30
0.0
   3
*D18
   0
LINE
   5
1BC
 100
AcDbEntity
   8
LEVEL001
 100
AcDbLine
   6
CONTINUOUS
  62
1
  10
 191.39097235904
  20
 112.73765988553
  30
0.0
  11
 191.39097235904
  21
 125.88167711633
  31
0.0
   0
LINE
   5
1BD
 100
AcDbEntity
   8
LEVEL001
 100
AcDbLine
   6
CONTINUOUS
  62
1
  10
 147.99097235904
  20
 112.73765988553
  30
0.0
  11
 147.99097235904
  21
 125.88167711633
  31
0.0
   0
LINE
   5
1BE
 100
AcDbEntity
   8
LEVEL001
 100
AcDbLine
   6
CONTINUOUS
  62
1
  10
 191.39097235904
  20
 123.88167711633
  30
0.0
  11
 147.99097235904
  21
 123.88167711633
  31
0.0
   0
INSERT
   5
1BF
 100
AcDbEntity
   8
LEVEL001
   6
CONTINUOUS
  62
1
 100
AcDbBlockReference
   2
_OPEN30
  10
 191.39097235904
  20
 123.88167711633
  30
0.0
  41
 2.0000000000000
  42
 2.0000000000000
  43
 2.0000000000000
  50
0.0
   0
INSERT
   5
1C0
 100
AcDbEntity
   8
LEVEL001
   6
CONTINUOUS
  62
1
 100
AcDbBlockReference
   2
_OPEN30
  10
 147.99097235904
  20
 123.88167711633
  30
0.0
  41
 2.0000000000000
  42
 2.0000000000000
  43
 2.0000000000000
  50
 180.00000000000
   0
MTEXT
   5
1C1
 100
AcDbEntity
   8
LEVEL001
  62
7
 100
AcDbMText
  10
 169.69097235904
  20
 124.38167711633
  30
0.0
  40
 4.0000000000000
  41
0.0
  71
8
  72
1
   1
\A1;43.4
   7
GMM003
   0
ENDBLK
   5
1C2
 100
AcDbEntity
   8
0
 100
AcDbBlockEnd
   0
BLOCK
   5
1C3
 100
AcDbEntity
   8
0
 100
AcDbBlockBegin
   2
*D19
  70
65
  10
0.0
  20
0.0
  30
0.0
   3
*D19
   0
LINE
   5
1C4
 100
AcDbEntity
   8
LEVEL001
 100
AcDbLine
   6
CONTINUOUS
  62
1
  10
 148.99097235904
  20
 112.73765988553
  30
0.0
  11
 135.80112471856
  21
 112.73765988553
  31
0.0
   0
LINE
   5
1C5
 100
AcDbEntity
   8
LEVEL001
 100
AcDbLine
   6
CONTINUOUS
  62
1
  10
 168.69097235904
  20
 69.337659885529
  30
0.0
  11
 135.80112471856
  21
 69.337659885529
  31
0.0
   0
LINE
   5
1C6
 100
AcDbEntity
   8
LEVEL001
 100
AcDbLine
   6
CONTINUOUS
  62
1
  10
 137.80112471856
  20
 112.73765988553
  30
0.0
  11
 137.80112471856
  21
 69.337659885529
  31
0.0
   0
INSERT
   5
1C7
 100
AcDbEntity
   8
LEVEL001
   6
CONTINUOUS
  62
1
 100
AcDbBlockReference
   2
_OPEN30
  10
 137.80112471856
  20
 112.73765988553
  30
0.0
  41
 2.0000000000000
  42
 2.0000000000000
  43
 2.0000000000000
  50
 90.000000000000
   0
INSERT
   5
1C8
 100
AcDbEntity
   8
LEVEL001
   6
CONTINUOUS
  62
1
 100
AcDbBlockReference
   2
_OPEN30
  10
 137.80112471856
  20
 69.337659885529
  30
0.0
  41
 2.0000000000000
  42
 2.0000000000000
  43
 2.0000000000000
  50
 270.00000000000
   0
MTEXT
   5
1C9
 100
AcDbEntity
   8
LEVEL001
  62
7
 100
AcDbMText
  10
 137.30112471856
  20
 91.037659885529
  30
0.0
  40
 4.0000000000000
  41
0.0
  71
8
  72
1
   1
\A1;43.4
   7
GMM003
  11
0.0
  21
 1.0000000000000
  31
0.0
   0
ENDBLK
   5
1CA
 100
AcDbEntity
   8
0
 100
AcDbBlockEnd
   0
BLOCK
   5
1CB
 100
AcDbEntity
   8
0
 100
AcDbBlockBegin
   2
BLOCK003
  70
64
  10
0.0
  20
0.0
  30
0.0
   3
BLOCK003
   0
LINE
   5
1CC
 100
AcDbEntity
   8
LEVEL001
 100
AcDbLine
   6
CONTINUOUS
  62
1
  10
 355.41761673499
  20
 205.67079730703
  30
0.0
  11
 357.42396714505
  21
 203.66444689697
  31
0.0
   0
LINE
   5
1CD
 100
AcDbEntity
   8
LEVEL001
 100
AcDbLine
   6
CONTINUOUS
  62
1
  10
 355.42396714514
  20
 207.07866045926
  30
0.0
  11
 357.42396714510
  21
 205.07866045930
  31
0.0
   0
LINE
   5
1CE
 100
AcDbEntity
   8
LEVEL001
 100
AcDbLine
   6
CONTINUOUS
  62
1
  10
 355.51660783222
  20
 208.40023333455
  30
0.0
  11
 357.42396714514
  21
 206.49287402162
  31
0.0
   0
LINE
   5
1CF
 100
AcDbEntity
   8
LEVEL001
 100
AcDbLine
   6
CONTINUOUS
  62
1
  10
 356.93082139459
  20
 208.40023333455
  30
0.0
  11
 357.42396714519
  21
 207.90708758395
  31
0.0
   0
LINE
   5
1D0
 100
AcDbEntity
   8
LEVEL001
 100
AcDbLine
   6
CONTINUOUS
  62
1
  10
 354.42396672084
  20
 205.25023333455
  30
0.0
  11
 356.42396714510
  21
 203.25023291028
  31
0.0
   0
LINE
   5
1D1
 100
AcDbEntity
   8
LEVEL001
 100
AcDbLine
   6
CONTINUOUS
  62
1
  10
 330.44825131471
  20
 202.35589147985
  30
0.0
  11
 334.27898599156
  21
 198.52515680300
  31
0.0
   0
LINE
   5
1D2
 100
AcDbEntity
   8
LEVEL001
 100
AcDbLine
   6
CONTINUOUS
  62
1
  10
 330.88993234301
  20
 203.32842401392
  30
0.0
  11
 335.82878981957
  21
 198.38956653736
  31
0.0
   0
LINE
   5
1D3
 100
AcDbEntity
   8
LEVEL001
 100
AcDbLine
   6
CONTINUOUS
  62
1
  10
 331.71664951514
  20
 203.91592040417
  30
0.0
  11
 337.37859364759
  21
 198.25397627172
  31
0.0
   0
LINE
   5
1D4
 100
AcDbEntity
   8
LEVEL001
 100
AcDbLine
   6
CONTINUOUS
  62
1
  10
 332.98827052487
  20
 204.05851295681
  30
0.0
  11
 338.92839747560
  21
 198.11838600608
  31
0.0
   0
LINE
   5
1D5
 100
AcDbEntity
   8
LEVEL001
 100
AcDbLine
   6
CONTINUOUS
  62
1
  10
 334.37105711919
  20
 204.08993992487
  30
0.0
  11
 340.47820130361
  21
 197.98279574044
  31
0.0
   0
LINE
   5
1D6
 100
AcDbEntity
   8
LEVEL001
 100
AcDbLine
   6
CONTINUOUS
  62
1
  10
 335.75384371351
  20
 204.12136689292
  30
0.0
  11
 342.02800513163
  21
 197.84720547480
  31
0.0
   0
LINE
   5
1D7
 100
AcDbEntity
   8
LEVEL001
 100
AcDbLine
   6
CONTINUOUS
  62
1
  10
 337.13663030783
  20
 204.15279386097
  30
0.0
  11
 343.57780895964
  21
 197.71161520916
  31
0.0
   0
LINE
   5
1D8
 100
AcDbEntity
   8
LEVEL001
 100
AcDbLine
   6
CONTINUOUS
  62
1
  10
 338.51941690215
  20
 204.18422082902
  30
0.0
  11
 345.12761278765
  21
 197.57602494352
  31
0.0
   0
LINE
   5
1D9
 100
AcDbEntity
   8
LEVEL001
 100
AcDbLine
   6
CONTINUOUS
  62
1
  10
 339.90220349647
  20
 204.21564779708
  30
0.0
  11
 346.67741661566
  21
 197.44043467788
  31
0.0
   0
LINE
   5
1DA
 100
AcDbEntity
   8
LEVEL001
 100
AcDbLine
   6
CONTINUOUS
  62
1
  10
 341.28499009079
  20
 204.24707476513
  30
0.0
  11
 348.22722044368
  21
 197.30484441224
  31
0.0
   0
LINE
   5
1DB
 100
AcDbEntity
   8
LEVEL001
 100
AcDbLine
   6
CONTINUOUS
  62
1
  10
 348.19892306239
  20
 204.40420960539
  30
0.0
  11
 355.97623958374
  21
 196.62689308404
  31
0.0
   0
LINE
   5
1DC
 100
AcDbEntity
   8
LEVEL001
 100
AcDbLine
   6
CONTINUOUS
  62
1
  10
 349.58170965671
  20
 204.43563657345
  30
0.0
  11
 357.42396714510
  21
 196.59337908506
  31
0.0
   0
LINE
   5
1DD
 100
AcDbEntity
   8
LEVEL001
 100
AcDbLine
   6
CONTINUOUS
  62
1
  10
 350.96449625103
  20
 204.46706354150
  30
0.0
  11
 356.42396714510
  21
 199.00759264743
  31
0.0
   0
LINE
   5
1DE
 100
AcDbEntity
   8
LEVEL001
 100
AcDbLine
   6
CONTINUOUS
  62
1
  10
 357.09573407805
  20
 198.33582571448
  30
0.0
  11
 357.42396714510
  21
 198.00759264743
  31
0.0
   0
LINE
   5
1DF
 100
AcDbEntity
   8
LEVEL001
 100
AcDbLine
   6
CONTINUOUS
  62
1
  10
 352.24232437491
  20
 204.60344897999
  30
0.0
  11
 356.42396714510
  21
 200.42180620980
  31
0.0
   0
LINE
   5
1E0
 100
AcDbEntity
   8
LEVEL001
 100
AcDbLine
   6
CONTINUOUS
  62
1
  10
 353.00975358273
  20
 205.25023333455
  30
0.0
  11
 356.42396714510
  21
 201.83601977218
  31
0.0
   0
LINE
   5
1E1
 100
AcDbEntity
   8
LEVEL001
 100
AcDbLine
   6
CONTINUOUS
  62
1
  10
 342.66777668511
  20
 204.27850173318
  30
0.0
  11
 349.77702427169
  21
 197.16925414660
  31
0.0
   0
LINE
   5
1E2
 100
AcDbEntity
   8
LEVEL001
 100
AcDbLine
   6
CONTINUOUS
  62
1
  10
 344.05056327943
  20
 204.30992870124
  30
0.0
  11
 351.32682809970
  21
 197.03366388096
  31
0.0
   0
LINE
   5
1E3
 100
AcDbEntity
   8
LEVEL001
 100
AcDbLine
   6
CONTINUOUS
  62
1
  10
 345.43334987375
  20
 204.34135566929
  30
0.0
  11
 352.87663192772
  21
 196.89807361532
  31
0.0
   0
LINE
   5
1E4
 100
AcDbEntity
   8
LEVEL001
 100
AcDbLine
   6
CONTINUOUS
  62
1
  10
 346.81613646807
  20
 204.37278263734
  30
0.0
  11
 354.42643575573
  21
 196.76248334968
  31
0.0
   0
LINE
   5
1E5
 100
AcDbEntity
   8
LEVEL001
 100
AcDbLine
   6
CONTINUOUS
  62
1
  10
 330.42396714524
  20
 200.96596208695
  30
0.0
  11
 332.72918216355
  21
 198.66074706864
  31
0.0
   0
ENDBLK
   5
1E6
 100
AcDbEntity
   8
0
 100
AcDbBlockEnd
   0
BLOCK
   5
1E7
 100
AcDbEntity
   8
0
 100
AcDbBlockBegin
   2
BLOCK004
  70
64
  10
0.0
  20
0.0
  30
0.0
   3
BLOCK004
   0
LINE
   5
1E8
 100
AcDbEntity
   8
LEVEL001
 100
AcDbLine
   6
CONTINUOUS
  62
1
  10
 352.42396714521
  20
 223.16444689681
  30
0.0
  11
 356.42396714510
  21
 219.16444689692
  31
0.0
   0
LINE
   5
1E9
 100
AcDbEntity
   8
LEVEL001
 100
AcDbLine
   6
CONTINUOUS
  62
1
  10
 352.42396714522
  20
 224.57866045917
  30
0.0
  11
 356.42396714510
  21
 220.57866045930
  31
0.0
   0
LINE
   5
1EA
 100
AcDbEntity
   8
LEVEL001
 100
AcDbLine
   6
CONTINUOUS
  62
1
  10
 353.16660783222
  20
 225.25023333455
  30
0.0
  11
 356.42396714510
  21
 221.99287402167
  31
0.0
   0
LINE
   5
1EB
 100
AcDbEntity
   8
LEVEL001
 100
AcDbLine
   6
CONTINUOUS
  62
1
  10
 354.58082139459
  20
 225.25023333455
  30
0.0
  11
 356.58082139459
  21
 223.25023333455
  31
0.0
   0
LINE
   5
1EC
 100
AcDbEntity
   8
LEVEL001
 100
AcDbLine
   6
CONTINUOUS
  62
1
  10
 355.42396714517
  20
 225.82130114635
  30
0.0
  11
 357.42396714506
  21
 223.82130114646
  31
0.0
   0
LINE
   5
1ED
 100
AcDbEntity
   8
LEVEL001
 100
AcDbLine
   6
CONTINUOUS
  62
1
  10
 355.42396714517
  20
 227.23551470872
  30
0.0
  11
 357.42396714510
  21
 225.23551470878
  31
0.0
   0
LINE
   5
1EE
 100
AcDbEntity
   8
LEVEL001
 100
AcDbLine
   6
CONTINUOUS
  62
1
  10
 355.67346208171
  20
 228.40023333455
  30
0.0
  11
 357.42396714515
  21
 226.64972827111
  31
0.0
   0
LINE
   5
1EF
 100
AcDbEntity
   8
LEVEL001
 100
AcDbLine
   6
CONTINUOUS
  62
1
  10
 357.08767564408
  20
 228.40023333455
  30
0.0
  11
 357.42396714520
  21
 228.06394183344
  31
0.0
   0
LINE
   5
1F0
 100
AcDbEntity
   8
LEVEL001
 100
AcDbLine
   6
CONTINUOUS
  62
1
  10
 352.42396714520
  20
 221.75023291018
  30
0.0
  11
 357.42396714514
  21
 216.75023291024
  31
0.0
   0
LINE
   5
1F1
 100
AcDbEntity
   8
LEVEL001
 100
AcDbLine
   6
CONTINUOUS
  62
1
  10
 352.42396714517
  20
 216.09337908499
  30
0.0
  11
 352.76711289561
  21
 215.75023333455
  31
0.0
   0
LINE
   5
1F2
 100
AcDbEntity
   8
LEVEL001
 100
AcDbLine
   6
CONTINUOUS
  62
1
  10
 355.42396714521
  20
 213.09337908495
  30
0.0
  11
 355.91711289561
  21
 212.60023333455
  31
0.0
   0
LINE
   5
1F3
 100
AcDbEntity
   8
LEVEL001
 100
AcDbLine
   6
CONTINUOUS
  62
1
  10
 352.42396714518
  20
 217.50759264735
  30
0.0
  11
 354.18132645798
  21
 215.75023333455
  31
0.0
   0
LINE
   5
1F4
 100
AcDbEntity
   8
LEVEL001
 100
AcDbLine
   6
CONTINUOUS
  62
1
  10
 355.42396714514
  20
 214.50759264739
  30
0.0
  11
 357.33132645798
  21
 212.60023333455
  31
0.0
   0
LINE
   5
1F5
 100
AcDbEntity
   8
LEVEL001
 100
AcDbLine
   6
CONTINUOUS
  62
1
  10
 352.42396714519
  20
 218.92180620972
  30
0.0
  11
 357.42396714507
  21
 213.92180620983
  31
0.0
   0
LINE
   5
1F6
 100
AcDbEntity
   8
LEVEL001
 100
AcDbLine
   6
CONTINUOUS
  62
1
  10
 352.42396714520
  20
 220.33601977208
  30
0.0
  11
 357.42396714511
  21
 215.33601977217
  31
0.0
   0
ENDBLK
   5
1F7
 100
AcDbEntity
   8
0
 100
AcDbBlockEnd
   0
BLOCK
   5
1F8
 100
AcDbEntity
   8
0
 100
AcDbBlockBegin
   2
BLOCK005
  70
64
  10
0.0
  20
0.0
  30
0.0
   3
BLOCK005
   0
LINE
   5
1F9
 100
AcDbEntity
   8
LEVEL001
 100
AcDbLine
   6
CONTINUOUS
  62
1
  10
 354.49922623615
  20
 241.08918780587
  30
0.0
  11
 356.42396714510
  21
 239.16444689692
  31
0.0
   0
LINE
   5
1FA
 100
AcDbEntity
   8
LEVEL001
 100
AcDbLine
   6
CONTINUOUS
  62
1
  10
 355.73917619615
  20
 241.26345140824
  30
0.0
  11
 357.33288470291
  21
 239.66974290148
  31
0.0
   0
LINE
   5
1FB
 100
AcDbEntity
   8
LEVEL001
 100
AcDbLine
   6
CONTINUOUS
  62
1
  10
 356.97912615616
  20
 241.43771501061
  30
0.0
  11
 357.42396714525
  21
 240.99287402151
  31
0.0
   0
LINE
   5
1FC
 100
AcDbEntity
   8
LEVEL001
 100
AcDbLine
   6
CONTINUOUS
  62
1
  10
 353.39828013997
  20
 240.77591991542
  30
0.0
  11
 357.42396714509
  21
 236.75023291030
  31
0.0
   0
LINE
   5
1FD
 100
AcDbEntity
   8
LEVEL001
 100
AcDbLine
   6
CONTINUOUS
  62
1
  10
 352.42396714523
  20
 236.09337908493
  30
0.0
  11
 352.76711289561
  21
 235.75023333455
  31
0.0
   0
LINE
   5
1FE
 100
AcDbEntity
   8
LEVEL001
 100
AcDbLine
   6
CONTINUOUS
  62
1
  10
 355.42396714517
  20
 233.09337908499
  30
0.0
  11
 355.91711289561
  21
 232.60023333455
  31
0.0
   0
LINE
   5
1FF
 100
AcDbEntity
   8
LEVEL001
 100
AcDbLine
   6
CONTINUOUS
  62
1
  10
 352.42396714523
  20
 237.50759264730
  30
0.0
  11
 354.18132645798
  21
 235.75023333455
  31
0.0
   0
LINE
   5
200
 100
AcDbEntity
   8
LEVEL001
 100
AcDbLine
   6
CONTINUOUS
  62
1
  10
 355.42396714517
  20
 234.50759264736
  30
0.0
  11
 357.33132645798
  21
 232.60023333455
  31
0.0
   0
LINE
   5
201
 100
AcDbEntity
   8
LEVEL001
 100
AcDbLine
   6
CONTINUOUS
  62
1
  10
 352.42396714523
  20
 238.92180620967
  30
0.0
  11
 357.42396714506
  21
 233.92180620985
  31
0.0
   0
LINE
   5
202
 100
AcDbEntity
   8
LEVEL001
 100
AcDbLine
   6
CONTINUOUS
  62
1
  10
 352.69526076155
  20
 240.06472615573
  30
0.0
  11
 357.42396714507
  21
 235.33601977220
  31
0.0
   0
ENDBLK
   5
203
 100
AcDbEntity
   8
0
 100
AcDbBlockEnd
   0
BLOCK
   5
204
 100
AcDbEntity
   8
0
 100
AcDbBlockBegin
   2
BLOCK006
  70
64
  10
0.0
  20
0.0
  30
0.0
   3
BLOCK006
   0
LWPOLYLINE
   5
205
 100
AcDbEntity
   8
LEVEL001
   6
CONTINUOUS
  62
1
 100
AcDbPolyline
  90
3
  70
0
  10
 358.21529201039
  20
 212.00023333435
  10
 358.50396714510
  20
 212.50023333455
  10
 358.79264227981
  20
 212.00023333435
   0
LWPOLYLINE
   5
206
 100
AcDbEntity
   8
LEVEL001
   6
CONTINUOUS
  62
1
 100
AcDbPolyline
  90
3
  70
0
  10
 359.79529201039
  20
 212.00023333435
  10
 360.08396714510
  20
 212.50023333455
  10
 360.37264227981
  20
 212.00023333435
   0
LINE
   5
207
 100
AcDbEntity
   8
LEVEL001
 100
AcDbLine
   6
CONTINUOUS
  62
1
  10
 358.50396714510
  20
 212.50023333455
  30
0.0
  11
 359.29396714503
  21
 208.50023333435
  31
0.0
   0
LINE
   5
208
 100
AcDbEntity
   8
LEVEL001
 100
AcDbLine
   6
CONTINUOUS
  62
1
  10
 360.08396714510
  20
 212.50023333455
  30
0.0
  11
 360.87396714503
  21
 208.50023333435
  31
0.0
   0
LINE
   5
209
 100
AcDbEntity
   8
LEVEL001
 100
AcDbLine
   6
CONTINUOUS
  62
1
  10
 358.21529201039
  20
 212.00023333435
  30
0.0
  11
 359.00529201032
  21
 209.00023333455
  31
0.0
   0
LINE
   5
20A
 100
AcDbEntity
   8
LEVEL001
 100
AcDbLine
   6
CONTINUOUS
  62
1
  10
 358.79264227981
  20
 212.00023333435
  30
0.0
  11
 359.58264227975
  21
 209.00023333455
  31
0.0
   0
LINE
   5
20B
 100
AcDbEntity
   8
LEVEL001
 100
AcDbLine
   6
CONTINUOUS
  62
1
  10
 359.79529201039
  20
 212.00023333435
  30
0.0
  11
 360.58529201032
  21
 209.00023333455
  31
0.0
   0
LINE
   5
20C
 100
AcDbEntity
   8
LEVEL001
 100
AcDbLine
   6
CONTINUOUS
  62
1
  10
 361.16264227975
  20
 209.00023333455
  30
0.0
  11
 360.37264227981
  21
 212.00023333435
  31
0.0
   0
LINE
   5
20D
 100
AcDbEntity
   8
LEVEL001
 100
AcDbLine
   6
CONTINUOUS
  62
1
  10
 361.66396714510
  20
 212.50023333455
  30
0.0
  11
 362.45396714503
  21
 208.50023333435
  31
0.0
   0
LINE
   5
20E
 100
AcDbEntity
   8
LEVEL001
 100
AcDbLine
   6
CONTINUOUS
  62
1
  10
 363.24396714510
  20
 212.50023333455
  30
0.0
  11
 364.03396714503
  21
 208.50023333435
  31
0.0
   0
LINE
   5
20F
 100
AcDbEntity
   8
LEVEL001
 100
AcDbLine
   6
CONTINUOUS
  62
1
  10
 361.37529201039
  20
 212.00023333435
  30
0.0
  11
 362.16529201032
  21
 209.00023333455
  31
0.0
   0
LINE
   5
210
 100
AcDbEntity
   8
LEVEL001
 100
AcDbLine
   6
CONTINUOUS
  62
1
  10
 361.95264227981
  20
 212.00023333435
  30
0.0
  11
 362.74264227975
  21
 209.00023333455
  31
0.0
   0
LINE
   5
211
 100
AcDbEntity
   8
LEVEL001
 100
AcDbLine
   6
CONTINUOUS
  62
1
  10
 362.95529201039
  20
 212.00023333435
  30
0.0
  11
 363.74529201032
  21
 209.00023333455
  31
0.0
   0
LINE
   5
212
 100
AcDbEntity
   8
LEVEL001
 100
AcDbLine
   6
CONTINUOUS
  62
1
  10
 364.32264227975
  20
 209.00023333455
  30
0.0
  11
 363.53264227981
  21
 212.00023333435
  31
0.0
   0
LWPOLYLINE
   5
213
 100
AcDbEntity
   8
LEVEL001
   6
CONTINUOUS
  62
1
 100
AcDbPolyline
  90
3
  70
0
  10
 361.37529201039
  20
 212.00023333435
  10
 361.66396714510
  20
 212.50023333455
  10
 361.95264227981
  20
 212.00023333435
   0
LWPOLYLINE
   5
214
 100
AcDbEntity
   8
LEVEL001
   6
CONTINUOUS
  62
1
 100
AcDbPolyline
  90
3
  70
0
  10
 362.95529201039
  20
 212.00023333435
  10
 363.24396714510
  20
 212.50023333455
  10
 363.53264227981
  20
 212.00023333435
   0
LINE
   5
215
 100
AcDbEntity
   8
LEVEL001
 100
AcDbLine
   6
CONTINUOUS
  62
1
  10
 364.82396714510
  20
 212.50023333455
  30
0.0
  11
 365.61396714503
  21
 208.50023333435
  31
0.0
   0
LINE
   5
216
 100
AcDbEntity
   8
LEVEL001
 100
AcDbLine
   6
CONTINUOUS
  62
1
  10
 366.40396714510
  20
 212.50023333455
  30
0.0
  11
 367.19396714503
  21
 208.50023333435
  31
0.0
   0
LINE
   5
217
 100
AcDbEntity
   8
LEVEL001
 100
AcDbLine
   6
CONTINUOUS
  62
1
  10
 364.53529201039
  20
 212.00023333435
  30
0.0
  11
 365.32529201032
  21
 209.00023333455
  31
0.0
   0
LINE
   5
218
 100
AcDbEntity
   8
LEVEL001
 100
AcDbLine
   6
CONTINUOUS
  62
1
  10
 365.11264227981
  20
 212.00023333435
  30
0.0
  11
 365.90264227975
  21
 209.00023333455
  31
0.0
   0
LINE
   5
219
 100
AcDbEntity
   8
LEVEL001
 100
AcDbLine
   6
CONTINUOUS
  62
1
  10
 366.11529201039
  20
 212.00023333435
  30
0.0
  11
 366.90529201032
  21
 209.00023333455
  31
0.0
   0
LINE
   5
21A
 100
AcDbEntity
   8
LEVEL001
 100
AcDbLine
   6
CONTINUOUS
  62
1
  10
 367.48264227975
  20
 209.00023333455
  30
0.0
  11
 366.69264227981
  21
 212.00023333435
  31
0.0
   0
LWPOLYLINE
   5
21B
 100
AcDbEntity
   8
LEVEL001
   6
CONTINUOUS
  62
1
 100
AcDbPolyline
  90
3
  70
0
  10
 364.53529201039
  20
 212.00023333435
  10
 364.82396714510
  20
 212.50023333455
  10
 365.11264227981
  20
 212.00023333435
   0
LWPOLYLINE
   5
21C
 100
AcDbEntity
   8
LEVEL001
   6
CONTINUOUS
  62
1
 100
AcDbPolyline
  90
3
  70
0
  10
 366.11529201039
  20
 212.00023333435
  10
 366.40396714510
  20
 212.50023333455
  10
 366.69264227981
  20
 212.00023333435
   0
LINE
   5
21D
 100
AcDbEntity
   8
LEVEL001
 100
AcDbLine
   6
CONTINUOUS
  62
1
  10
 367.98396714510
  20
 212.50023333455
  30
0.0
  11
 368.77396714503
  21
 208.50023333435
  31
0.0
   0
LINE
   5
21E
 100
AcDbEntity
   8
LEVEL001
 100
AcDbLine
   6
CONTINUOUS
  62
1
  10
 369.56396714510
  20
 212.50023333455
  30
0.0
  11
 370.35396714503
  21
 208.50023333435
  31
0.0
   0
LINE
   5
21F
 100
AcDbEntity
   8
LEVEL001
 100
AcDbLine
   6
CONTINUOUS
  62
1
  10
 367.69529201039
  20
 212.00023333435
  30
0.0
  11
 368.48529201032
  21
 209.00023333455
  31
0.0
   0
LINE
   5
220
 100
AcDbEntity
   8
LEVEL001
 100
AcDbLine
   6
CONTINUOUS
  62
1
  10
 368.27264227981
  20
 212.00023333435
  30
0.0
  11
 369.06264227975
  21
 209.00023333455
  31
0.0
   0
LINE
   5
221
 100
AcDbEntity
   8
LEVEL001
 100
AcDbLine
   6
CONTINUOUS
  62
1
  10
 369.27529201039
  20
 212.00023333435
  30
0.0
  11
 370.06529201032
  21
 209.00023333455
  31
0.0
   0
LINE
   5
222
 100
AcDbEntity
   8
LEVEL001
 100
AcDbLine
   6
CONTINUOUS
  62
1
  10
 370.64264227975
  20
 209.00023333455
  30
0.0
  11
 369.85264227981
  21
 212.00023333435
  31
0.0
   0
LWPOLYLINE
   5
223
 100
AcDbEntity
   8
LEVEL001
   6
CONTINUOUS
  62
1
 100
AcDbPolyline
  90
3
  70
0
  10
 367.69529201039
  20
 212.00023333435
  10
 367.98396714510
  20
 212.50023333455
  10
 368.27264227981
  20
 212.00023333435
   0
LWPOLYLINE
   5
224
 100
AcDbEntity
   8
LEVEL001
   6
CONTINUOUS
  62
1
 100
AcDbPolyline
  90
3
  70
0
  10
 369.27529201039
  20
 212.00023333435
  10
 369.56396714510
  20
 212.50023333455
  10
 369.85264227981
  20
 212.00023333435
   0
LINE
   5
225
 100
AcDbEntity
   8
LEVEL001
 100
AcDbLine
   6
CONTINUOUS
  62
1
  10
 371.14396714510
  20
 212.50023333455
  30
0.0
  11
 371.93396714503
  21
 208.50023333435
  31
0.0
   0
LINE
   5
226
 100
AcDbEntity
   8
LEVEL001
 100
AcDbLine
   6
CONTINUOUS
  62
1
  10
 370.85529201039
  20
 212.00023333435
  30
0.0
  11
 371.64529201032
  21
 209.00023333455
  31
0.0
   0
LINE
   5
227
 100
AcDbEntity
   8
LEVEL001
 100
AcDbLine
   6
CONTINUOUS
  62
1
  10
 371.43264227981
  20
 212.00023333435
  30
0.0
  11
 372.22264227975
  21
 209.00023333455
  31
0.0
   0
LWPOLYLINE
   5
228
 100
AcDbEntity
   8
LEVEL001
   6
CONTINUOUS
  62
1
 100
AcDbPolyline
  90
3
  70
0
  10
 370.85529201039
  20
 212.00023333435
  10
 371.14396714510
  20
 212.50023333455
  10
 371.43264227981
  20
 212.00023333435
   0
LINE
   5
229
 100
AcDbEntity
   8
LEVEL001
 100
AcDbLine
   6
CONTINUOUS
  62
1
  10
 369.85264227970
  20
 212.00023333455
  30
0.0
  11
 370.85529201051
  21
 212.00023333455
  31
0.0
   0
LINE
   5
22A
 100
AcDbEntity
   8
LEVEL001
 100
AcDbLine
   6
CONTINUOUS
  62
1
  10
 368.27264227970
  20
 212.00023333455
  30
0.0
  11
 369.27529201051
  21
 212.00023333455
  31
0.0
   0
LINE
   5
22B
 100
AcDbEntity
   8
LEVEL001
 100
AcDbLine
   6
CONTINUOUS
  62
1
  10
 366.69264227970
  20
 212.00023333455
  30
0.0
  11
 367.69529201051
  21
 212.00023333455
  31
0.0
   0
LINE
   5
22C
 100
AcDbEntity
   8
LEVEL001
 100
AcDbLine
   6
CONTINUOUS
  62
1
  10
 365.11264227970
  20
 212.00023333455
  30
0.0
  11
 366.11529201051
  21
 212.00023333455
  31
0.0
   0
LINE
   5
22D
 100
AcDbEntity
   8
LEVEL001
 100
AcDbLine
   6
CONTINUOUS
  62
1
  10
 363.53264227969
  20
 212.00023333455
  30
0.0
  11
 364.53529201051
  21
 212.00023333455
  31
0.0
   0
LINE
   5
22E
 100
AcDbEntity
   8
LEVEL001
 100
AcDbLine
   6
CONTINUOUS
  62
1
  10
 361.95264227969
  20
 212.00023333455
  30
0.0
  11
 362.95529201051
  21
 212.00023333455
  31
0.0
   0
LINE
   5
22F
 100
AcDbEntity
   8
LEVEL001
 100
AcDbLine
   6
CONTINUOUS
  62
1
  10
 360.37264227976
  20
 212.00023333455
  30
0.0
  11
 361.37529201051
  21
 212.00023333455
  31
0.0
   0
LINE
   5
230
 100
AcDbEntity
   8
LEVEL001
 100
AcDbLine
   6
CONTINUOUS
  62
1
  10
 358.79264227976
  20
 212.00023333455
  30
0.0
  11
 359.79529201033
  21
 212.00023333455
  31
0.0
   0
LINE
   5
231
 100
AcDbEntity
   8
LEVEL001
 100
AcDbLine
   6
CONTINUOUS
  62
1
  10
 372.72396714522
  20
 212.50023333455
  30
0.0
  11
 373.51396714515
  21
 208.50023333435
  31
0.0
   0
LINE
   5
232
 100
AcDbEntity
   8
LEVEL001
 100
AcDbLine
   6
CONTINUOUS
  62
1
  10
 374.30396714522
  20
 212.50023333455
  30
0.0
  11
 375.09396714515
  21
 208.50023333435
  31
0.0
   0
LINE
   5
233
 100
AcDbEntity
   8
LEVEL001
 100
AcDbLine
   6
CONTINUOUS
  62
1
  10
 372.43529201051
  20
 212.00023333435
  30
0.0
  11
 373.22529201044
  21
 209.00023333455
  31
0.0
   0
LINE
   5
234
 100
AcDbEntity
   8
LEVEL001
 100
AcDbLine
   6
CONTINUOUS
  62
1
  10
 373.01264227993
  20
 212.00023333435
  30
0.0
  11
 373.80264227986
  21
 209.00023333455
  31
0.0
   0
LINE
   5
235
 100
AcDbEntity
   8
LEVEL001
 100
AcDbLine
   6
CONTINUOUS
  62
1
  10
 374.01529201051
  20
 212.00023333435
  30
0.0
  11
 374.80529201044
  21
 209.00023333455
  31
0.0
   0
LINE
   5
236
 100
AcDbEntity
   8
LEVEL001
 100
AcDbLine
   6
CONTINUOUS
  62
1
  10
 375.38264227986
  20
 209.00023333455
  30
0.0
  11
 374.59264227993
  21
 212.00023333435
  31
0.0
   0
LWPOLYLINE
   5
237
 100
AcDbEntity
   8
LEVEL001
   6
CONTINUOUS
  62
1
 100
AcDbPolyline
  90
3
  70
0
  10
 372.43529201051
  20
 212.00023333435
  10
 372.72396714522
  20
 212.50023333455
  10
 373.01264227993
  20
 212.00023333435
   0
LWPOLYLINE
   5
238
 100
AcDbEntity
   8
LEVEL001
   6
CONTINUOUS
  62
1
 100
AcDbPolyline
  90
3
  70
0
  10
 374.01529201051
  20
 212.00023333435
  10
 374.30396714522
  20
 212.50023333455
  10
 374.59264227993
  20
 212.00023333435
   0
ARC
   5
239
 100
AcDbEntity
   8
LEVEL001
   6
CONTINUOUS
  62
1
 100
AcDbCircle
  10
 379.86668215567
  20
 210.50023333455
  30
0.0
  40
 0.30000000000000
 100
AcDbArc
  50
 290.40101745058
  51
 69.598982549425
   0
ARC
   5
23A
 100
AcDbEntity
   8
LEVEL001
   6
CONTINUOUS
  62
1
 100
AcDbCircle
  10
 373.19717209051
  20
 192.56743593568
  30
0.0
  40
 19.432892804231
 100
AcDbArc
  50
 87.573684573593
  51
 89.820462377236
   0
LINE
   5
23B
 100
AcDbEntity
   8
LEVEL001
 100
AcDbLine
   6
CONTINUOUS
  62
1
  10
 373.01264227981
  20
 212.00023333455
  30
0.0
  11
 373.25806540058
  21
 212.00023333455
  31
0.0
   0
LINE
   5
23C
 100
AcDbEntity
   8
LEVEL001
 100
AcDbLine
   6
CONTINUOUS
  62
1
  10
 371.43264227981
  20
 212.00023333455
  30
0.0
  11
 372.43529201062
  21
 212.00023333455
  31
0.0
   0
LWPOLYLINE
   5
23D
 100
AcDbEntity
   8
LEVEL001
   6
CONTINUOUS
  62
1
 100
AcDbPolyline
  90
3
  70
0
  10
 377.30308351043
  20
 211.35318776520
  10
 377.59175864514
  20
 211.85318776541
  10
 377.88043377985
  20
 211.35318776520
   0
LWPOLYLINE
   5
23E
 100
AcDbEntity
   8
LEVEL001
   6
CONTINUOUS
  62
1
 100
AcDbPolyline
  90
3
  70
0
  10
 375.64449097674
  20
 211.75112464480
  10
 375.93316611145
  20
 212.25112464501
  10
 376.22184124616
  20
 211.75112464480
   0
LINE
   5
23F
 100
AcDbEntity
   8
LEVEL001
 100
AcDbLine
   6
CONTINUOUS
  62
1
  10
 377.59175864514
  20
 211.85318776541
  30
0.0
  11
 378.10199791836
  21
 209.26969777396
  31
0.0
   0
LINE
   5
240
 100
AcDbEntity
   8
LEVEL001
 100
AcDbLine
   6
CONTINUOUS
  62
1
  10
 377.30308351043
  20
 211.35318776520
  30
0.0
  11
 377.81332278364
  21
 209.76969777416
  31
0.0
   0
LINE
   5
241
 100
AcDbEntity
   8
LEVEL001
 100
AcDbLine
   6
CONTINUOUS
  62
1
  10
 378.39067305307
  20
 209.76969777416
  30
0.0
  11
 377.88043377985
  21
 211.35318776520
  31
0.0
   0
LINE
   5
242
 100
AcDbEntity
   8
LEVEL001
 100
AcDbLine
   6
CONTINUOUS
  62
1
  10
 375.93316611145
  20
 212.25112464501
  30
0.0
  11
 376.60010867475
  21
 208.87420027315
  31
0.0
   0
LINE
   5
243
 100
AcDbEntity
   8
LEVEL001
 100
AcDbLine
   6
CONTINUOUS
  62
1
  10
 375.64449097674
  20
 211.75112464480
  30
0.0
  11
 376.31143354004
  21
 209.37420027335
  31
0.0
   0
LINE
   5
244
 100
AcDbEntity
   8
LEVEL001
 100
AcDbLine
   6
CONTINUOUS
  62
1
  10
 376.22184124616
  20
 211.75112464480
  30
0.0
  11
 376.88878380947
  21
 209.37420027335
  31
0.0
   0
ARC
   5
245
 100
AcDbEntity
   8
LEVEL001
   6
CONTINUOUS
  62
1
 100
AcDbCircle
  10
 373.19717209051
  20
 192.56743593568
  30
0.0
  40
 19.432892804231
 100
AcDbArc
  50
 69.598982549430
  51
 76.206717786146
   0
ARC
   5
246
 100
AcDbEntity
   8
LEVEL001
   6
CONTINUOUS
  62
1
 100
AcDbCircle
  10
 373.19717209050
  20
 192.56743593568
  30
0.0
  40
 19.432892804231
 100
AcDbArc
  50
 77.479809934349
  51
 81.069132374829
   0
ARC
   5
247
 100
AcDbEntity
   8
LEVEL001
   6
CONTINUOUS
  62
1
 100
AcDbCircle
  10
 373.19717209051
  20
 192.56743593568
  30
0.0
  40
 19.432892804231
 100
AcDbArc
  50
 82.614161977969
  51
 85.842326840438
   0
LWPOLYLINE
   5
248
 100
AcDbEntity
   8
LEVEL001
   6
CONTINUOUS
  62
1
 100
AcDbPolyline
  90
3
  70
0
  10
 359.00529201032
  20
 209.00023333455
  10
 359.29396714503
  20
 208.50023333435
  10
 359.58264227975
  20
 209.00023333455
   0
LWPOLYLINE
   5
249
 100
AcDbEntity
   8
LEVEL001
   6
CONTINUOUS
  62
1
 100
AcDbPolyline
  90
3
  70
0
  10
 360.58529201032
  20
 209.00023333455
  10
 360.87396714503
  20
 208.50023333435
  10
 361.16264227975
  20
 209.00023333455
   0
LWPOLYLINE
   5
24A
 100
AcDbEntity
   8
LEVEL001
   6
CONTINUOUS
  62
1
 100
AcDbPolyline
  90
3
  70
0
  10
 362.16529201032
  20
 209.00023333455
  10
 362.45396714503
  20
 208.50023333435
  10
 362.74264227975
  20
 209.00023333455
   0
LWPOLYLINE
   5
24B
 100
AcDbEntity
   8
LEVEL001
   6
CONTINUOUS
  62
1
 100
AcDbPolyline
  90
3
  70
0
  10
 363.74529201032
  20
 209.00023333455
  10
 364.03396714503
  20
 208.50023333435
  10
 364.32264227975
  20
 209.00023333455
   0
LWPOLYLINE
   5
24C
 100
AcDbEntity
   8
LEVEL001
   6
CONTINUOUS
  62
1
 100
AcDbPolyline
  90
3
  70
0
  10
 365.32529201032
  20
 209.00023333455
  10
 365.61396714503
  20
 208.50023333435
  10
 365.90264227975
  20
 209.00023333455
   0
LWPOLYLINE
   5
24D
 100
AcDbEntity
   8
LEVEL001
   6
CONTINUOUS
  62
1
 100
AcDbPolyline
  90
3
  70
0
  10
 366.90529201032
  20
 209.00023333455
  10
 367.19396714503
  20
 208.50023333435
  10
 367.48264227975
  20
 209.00023333455
   0
LWPOLYLINE
   5
24E
 100
AcDbEntity
   8
LEVEL001
   6
CONTINUOUS
  62
1
 100
AcDbPolyline
  90
3
  70
0
  10
 368.48529201032
  20
 209.00023333455
  10
 368.77396714503
  20
 208.50023333435
  10
 369.06264227975
  20
 209.00023333455
   0
LWPOLYLINE
   5
24F
 100
AcDbEntity
   8
LEVEL001
   6
CONTINUOUS
  62
1
 100
AcDbPolyline
  90
3
  70
0
  10
 370.06529201032
  20
 209.00023333455
  10
 370.35396714503
  20
 208.50023333435
  10
 370.64264227975
  20
 209.00023333455
   0
LWPOLYLINE
   5
250
 100
AcDbEntity
   8
LEVEL001
   6
CONTINUOUS
  62
1
 100
AcDbPolyline
  90
3
  70
0
  10
 371.64529201032
  20
 209.00023333455
  10
 371.93396714503
  20
 208.50023333435
  10
 372.22264227975
  20
 209.00023333455
   0
LINE
   5
251
 100
AcDbEntity
   8
LEVEL001
 100
AcDbLine
   6
CONTINUOUS
  62
1
  10
 370.64264227975
  20
 209.00023333455
  30
0.0
  11
 371.64529201032
  21
 209.00023333455
  31
0.0
   0
LINE
   5
252
 100
AcDbEntity
   8
LEVEL001
 100
AcDbLine
   6
CONTINUOUS
  62
1
  10
 369.06264227975
  20
 209.00023333455
  30
0.0
  11
 370.06529201032
  21
 209.00023333455
  31
0.0
   0
LINE
   5
253
 100
AcDbEntity
   8
LEVEL001
 100
AcDbLine
   6
CONTINUOUS
  62
1
  10
 367.48264227975
  20
 209.00023333455
  30
0.0
  11
 368.48529201032
  21
 209.00023333455
  31
0.0
   0
LINE
   5
254
 100
AcDbEntity
   8
LEVEL001
 100
AcDbLine
   6
CONTINUOUS
  62
1
  10
 365.90264227975
  20
 209.00023333455
  30
0.0
  11
 366.90529201032
  21
 209.00023333455
  31
0.0
   0
LINE
   5
255
 100
AcDbEntity
   8
LEVEL001
 100
AcDbLine
   6
CONTINUOUS
  62
1
  10
 364.32264227975
  20
 209.00023333455
  30
0.0
  11
 365.32529201032
  21
 209.00023333455
  31
0.0
   0
LINE
   5
256
 100
AcDbEntity
   8
LEVEL001
 100
AcDbLine
   6
CONTINUOUS
  62
1
  10
 362.74264227975
  20
 209.00023333455
  30
0.0
  11
 363.74529201032
  21
 209.00023333455
  31
0.0
   0
LINE
   5
257
 100
AcDbEntity
   8
LEVEL001
 100
AcDbLine
   6
CONTINUOUS
  62
1
  10
 361.16264227975
  20
 209.00023333455
  30
0.0
  11
 362.16529201032
  21
 209.00023333455
  31
0.0
   0
LINE
   5
258
 100
AcDbEntity
   8
LEVEL001
 100
AcDbLine
   6
CONTINUOUS
  62
1
  10
 359.58264227975
  20
 209.00023333455
  30
0.0
  11
 360.58529201032
  21
 209.00023333455
  31
0.0
   0
LINE
   5
259
 100
AcDbEntity
   8
LEVEL001
 100
AcDbLine
   6
CONTINUOUS
  62
1
  10
 358.00264227975
  20
 209.00023333455
  30
0.0
  11
 359.00529201032
  21
 209.00023333455
  31
0.0
   0
LWPOLYLINE
   5
25A
 100
AcDbEntity
   8
LEVEL001
   6
CONTINUOUS
  62
1
 100
AcDbPolyline
  90
3
  70
0
  10
 373.22529201044
  20
 209.00023333455
  10
 373.51396714515
  20
 208.50023333435
  10
 373.80264227986
  20
 209.00023333455
   0
LWPOLYLINE
   5
25B
 100
AcDbEntity
   8
LEVEL001
   6
CONTINUOUS
  62
1
 100
AcDbPolyline
  90
3
  70
0
  10
 374.80529201044
  20
 209.00023333455
  10
 375.09396714515
  20
 208.50023333435
  10
 375.38264227986
  20
 209.00023333455
   0
LINE
   5
25C
 100
AcDbEntity
   8
LEVEL001
 100
AcDbLine
   6
CONTINUOUS
  62
1
  10
 372.22264227986
  20
 209.00023333455
  30
0.0
  11
 373.25806540058
  21
 209.00023333455
  31
0.0
   0
ARC
   5
25D
 100
AcDbEntity
   8
LEVEL001
   6
CONTINUOUS
  62
1
 100
AcDbCircle
  10
 373.19717209050
  20
 228.43303073342
  30
0.0
  40
 19.432892804231
 100
AcDbArc
  50
 271.77825661980
  51
 274.69604797273
   0
LWPOLYLINE
   5
25E
 100
AcDbEntity
   8
LEVEL001
   6
CONTINUOUS
  62
1
 100
AcDbPolyline
  90
3
  70
0
  10
 377.81332278364
  20
 209.76969777416
  10
 378.10199791836
  20
 209.26969777396
  10
 378.39067305307
  20
 209.76969777416
   0
LWPOLYLINE
   5
25F
 100
AcDbEntity
   8
LEVEL001
   6
CONTINUOUS
  62
1
 100
AcDbPolyline
  90
3
  70
0
  10
 376.31143354004
  20
 209.37420027335
  10
 376.60010867475
  20
 208.87420027315
  10
 376.88878380947
  20
 209.37420027335
   0
ARC
   5
260
 100
AcDbEntity
   8
LEVEL001
   6
CONTINUOUS
  62
1
 100
AcDbCircle
  10
 373.19717209050
  20
 228.43303073342
  30
0.0
  40
 19.432892804231
 100
AcDbArc
  50
 285.36912183054
  51
 290.40101745057
   0
ARC
   5
261
 100
AcDbEntity
   8
LEVEL001
   6
CONTINUOUS
  62
1
 100
AcDbCircle
  10
 373.19717209050
  20
 228.43303073342
  30
0.0
  40
 19.432892804231
 100
AcDbArc
  50
 280.91145635717
  51
 284.06890367747
   0
ARC
   5
262
 100
AcDbEntity
   8
LEVEL001
   6
CONTINUOUS
  62
1
 100
AcDbCircle
  10
 373.19717209050
  20
 228.43303073342
  30
0.0
  40
 19.432892804231
 100
AcDbArc
  50
 276.36380310187
  51
 279.41548149650
   0
LWPOLYLINE
   5
263
 100
AcDbEntity
   8
LEVEL001
   6
CONTINUOUS
  62
1
 100
AcDbPolyline
  90
3
  70
0
  10
 357.42529201032
  20
 209.00023333455
  10
 357.47924049017
  20
 209.68872272622
  10
 358.00264227975
  20
 209.00023333455
   0
LINE
   5
264
 100
AcDbEntity
   8
LEVEL001
 100
AcDbLine
   6
CONTINUOUS
  62
1
  10
 357.47924049017
  20
 209.68872272622
  30
0.0
  11
 357.71396714503
  21
 208.50023333435
  31
0.0
   0
LWPOLYLINE
   5
265
 100
AcDbEntity
   8
LEVEL001
   6
CONTINUOUS
  62
1
 100
AcDbPolyline
  90
3
  70
0
  10
 357.42529201032
  20
 209.00023333455
  10
 357.71396714503
  20
 208.50023333435
  10
 358.00264227975
  20
 209.00023333455
   0
LINE
   5
266
 100
AcDbEntity
   8
LEVEL001
 100
AcDbLine
   6
CONTINUOUS
  62
1
  10
 355.42396714516
  20
 209.00023333455
  30
0.0
  11
 357.42529201032
  21
 209.00023333455
  31
0.0
   0
LINE
   5
267
 100
AcDbEntity
   8
LEVEL001
 100
AcDbLine
   6
CONTINUOUS
  62
1
  10
 355.42396714516
  20
 212.00023333455
  30
0.0
  11
 358.21529201033
  21
 212.00023333455
  31
0.0
   0
LWPOLYLINE
   5
268
 100
AcDbEntity
   8
LEVEL001
   6
CONTINUOUS
  62
1
 100
AcDbPolyline
  90
4
  70
0
  10
 355.13552272612
  20
 205.80023333455
  10
 355.42396714516
  20
 205.80023333455
  10
 355.42396714516
  20
 215.20023333455
  10
 355.13552272612
  20
 215.20023333455
   0
ARC
   5
269
 100
AcDbEntity
   8
LEVEL001
   6
CONTINUOUS
  62
1
 100
AcDbCircle
  10
 359.02396714516
  20
 210.50023333455
  30
0.0
  40
 6.1000000000000
 100
AcDbArc
  50
 186.11690114013
  51
 230.39807291889
   0
LINE
   5
26A
 100
AcDbEntity
   8
LEVEL001
 100
AcDbLine
   6
CONTINUOUS
  62
1
  10
 355.13552272612
  20
 215.20023333455
  30
0.0
  11
 355.13552272612
  21
 205.80023333455
  31
0.0
   0
LWPOLYLINE
   5
26B
 100
AcDbEntity
   8
LEVEL001
   6
CONTINUOUS
  62
1
 100
AcDbPolyline
  90
4
  70
0
  10
 352.95869715941
  20
 211.15023333451
  10
 353.42396714516
  20
 211.15023333451
  10
 353.42396714516
  20
 209.85023333451
  10
 352.95869715942
  20
 209.85023333451
   0
ARC
   5
26C
 100
AcDbEntity
   8
LEVEL001
   6
CONTINUOUS
  62
1
 100
AcDbCircle
  10
 359.02396714516
  20
 210.50023333455
  30
0.0
  40
 6.1000000000000
 100
AcDbArc
  50
 129.60192708111
  51
 173.88309886055
   0
ENDBLK
   5
26D
 100
AcDbEntity
   8
0
 100
AcDbBlockEnd
   0
BLOCK
   5
26E
 100
AcDbEntity
   8
0
 100
AcDbBlockBegin
   2
BLOCK007
  70
64
  10
0.0
  20
0.0
  30
0.0
   3
BLOCK007
   0
LWPOLYLINE
   5
26F
 100
AcDbEntity
   8
LEVEL001
   6
CONTINUOUS
  62
1
 100
AcDbPolyline
  90
3
  70
0
  10
 358.21529201045
  20
 232.00023333435
  10
 358.50396714516
  20
 232.50023333455
  10
 358.79264227988
  20
 232.00023333435
   0
LWPOLYLINE
   5
270
 100
AcDbEntity
   8
LEVEL001
   6
CONTINUOUS
  62
1
 100
AcDbPolyline
  90
3
  70
0
  10
 359.79529201045
  20
 232.00023333435
  10
 360.08396714516
  20
 232.50023333455
  10
 360.37264227988
  20
 232.00023333435
   0
LINE
   5
271
 100
AcDbEntity
   8
LEVEL001
 100
AcDbLine
   6
CONTINUOUS
  62
1
  10
 358.50396714516
  20
 232.50023333455
  30
0.0
  11
 359.29396714510
  21
 228.50023333435
  31
0.0
   0
LINE
   5
272
 100
AcDbEntity
   8
LEVEL001
 100
AcDbLine
   6
CONTINUOUS
  62
1
  10
 360.08396714516
  20
 232.50023333455
  30
0.0
  11
 360.87396714510
  21
 228.50023333435
  31
0.0
   0
LINE
   5
273
 100
AcDbEntity
   8
LEVEL001
 100
AcDbLine
   6
CONTINUOUS
  62
1
  10
 358.21529201045
  20
 232.00023333435
  30
0.0
  11
 359.00529201039
  21
 229.00023333455
  31
0.0
   0
LINE
   5
274
 100
AcDbEntity
   8
LEVEL001
 100
AcDbLine
   6
CONTINUOUS
  62
1
  10
 358.79264227988
  20
 232.00023333435
  30
0.0
  11
 359.58264227981
  21
 229.00023333455
  31
0.0
   0
LINE
   5
275
 100
AcDbEntity
   8
LEVEL001
 100
AcDbLine
   6
CONTINUOUS
  62
1
  10
 359.79529201045
  20
 232.00023333435
  30
0.0
  11
 360.58529201039
  21
 229.00023333455
  31
0.0
   0
LINE
   5
276
 100
AcDbEntity
   8
LEVEL001
 100
AcDbLine
   6
CONTINUOUS
  62
1
  10
 361.16264227981
  20
 229.00023333455
  30
0.0
  11
 360.37264227988
  21
 232.00023333435
  31
0.0
   0
LINE
   5
277
 100
AcDbEntity
   8
LEVEL001
 100
AcDbLine
   6
CONTINUOUS
  62
1
  10
 361.66396714516
  20
 232.50023333455
  30
0.0
  11
 362.45396714510
  21
 228.50023333435
  31
0.0
   0
LINE
   5
278
 100
AcDbEntity
   8
LEVEL001
 100
AcDbLine
   6
CONTINUOUS
  62
1
  10
 363.24396714516
  20
 232.50023333455
  30
0.0
  11
 364.03396714510
  21
 228.50023333435
  31
0.0
   0
LINE
   5
279
 100
AcDbEntity
   8
LEVEL001
 100
AcDbLine
   6
CONTINUOUS
  62
1
  10
 361.37529201045
  20
 232.00023333435
  30
0.0
  11
 362.16529201039
  21
 229.00023333455
  31
0.0
   0
LINE
   5
27A
 100
AcDbEntity
   8
LEVEL001
 100
AcDbLine
   6
CONTINUOUS
  62
1
  10
 361.95264227988
  20
 232.00023333435
  30
0.0
  11
 362.74264227981
  21
 229.00023333455
  31
0.0
   0
LINE
   5
27B
 100
AcDbEntity
   8
LEVEL001
 100
AcDbLine
   6
CONTINUOUS
  62
1
  10
 362.95529201045
  20
 232.00023333435
  30
0.0
  11
 363.74529201039
  21
 229.00023333455
  31
0.0
   0
LINE
   5
27C
 100
AcDbEntity
   8
LEVEL001
 100
AcDbLine
   6
CONTINUOUS
  62
1
  10
 364.32264227981
  20
 229.00023333455
  30
0.0
  11
 363.53264227988
  21
 232.00023333435
  31
0.0
   0
LWPOLYLINE
   5
27D
 100
AcDbEntity
   8
LEVEL001
   6
CONTINUOUS
  62
1
 100
AcDbPolyline
  90
3
  70
0
  10
 361.37529201045
  20
 232.00023333435
  10
 361.66396714516
  20
 232.50023333455
  10
 361.95264227988
  20
 232.00023333435
   0
LWPOLYLINE
   5
27E
 100
AcDbEntity
   8
LEVEL001
   6
CONTINUOUS
  62
1
 100
AcDbPolyline
  90
3
  70
0
  10
 362.95529201045
  20
 232.00023333435
  10
 363.24396714516
  20
 232.50023333455
  10
 363.53264227988
  20
 232.00023333435
   0
LINE
   5
27F
 100
AcDbEntity
   8
LEVEL001
 100
AcDbLine
   6
CONTINUOUS
  62
1
  10
 364.82396714516
  20
 232.50023333455
  30
0.0
  11
 365.61396714510
  21
 228.50023333435
  31
0.0
   0
LINE
   5
280
 100
AcDbEntity
   8
LEVEL001
 100
AcDbLine
   6
CONTINUOUS
  62
1
  10
 366.40396714516
  20
 232.50023333455
  30
0.0
  11
 367.19396714510
  21
 228.50023333435
  31
0.0
   0
LINE
   5
281
 100
AcDbEntity
   8
LEVEL001
 100
AcDbLine
   6
CONTINUOUS
  62
1
  10
 364.53529201045
  20
 232.00023333435
  30
0.0
  11
 365.32529201039
  21
 229.00023333455
  31
0.0
   0
LINE
   5
282
 100
AcDbEntity
   8
LEVEL001
 100
AcDbLine
   6
CONTINUOUS
  62
1
  10
 365.11264227988
  20
 232.00023333435
  30
0.0
  11
 365.90264227981
  21
 229.00023333455
  31
0.0
   0
LINE
   5
283
 100
AcDbEntity
   8
LEVEL001
 100
AcDbLine
   6
CONTINUOUS
  62
1
  10
 366.11529201045
  20
 232.00023333435
  30
0.0
  11
 366.90529201039
  21
 229.00023333455
  31
0.0
   0
LINE
   5
284
 100
AcDbEntity
   8
LEVEL001
 100
AcDbLine
   6
CONTINUOUS
  62
1
  10
 367.48264227981
  20
 229.00023333455
  30
0.0
  11
 366.69264227988
  21
 232.00023333435
  31
0.0
   0
LWPOLYLINE
   5
285
 100
AcDbEntity
   8
LEVEL001
   6
CONTINUOUS
  62
1
 100
AcDbPolyline
  90
3
  70
0
  10
 364.53529201045
  20
 232.00023333435
  10
 364.82396714516
  20
 232.50023333455
  10
 365.11264227988
  20
 232.00023333435
   0
LWPOLYLINE
   5
286
 100
AcDbEntity
   8
LEVEL001
   6
CONTINUOUS
  62
1
 100
AcDbPolyline
  90
3
  70
0
  10
 366.11529201045
  20
 232.00023333435
  10
 366.40396714516
  20
 232.50023333455
  10
 366.69264227988
  20
 232.00023333435
   0
LINE
   5
287
 100
AcDbEntity
   8
LEVEL001
 100
AcDbLine
   6
CONTINUOUS
  62
1
  10
 367.98396714516
  20
 232.50023333455
  30
0.0
  11
 368.77396714510
  21
 228.50023333435
  31
0.0
   0
LINE
   5
288
 100
AcDbEntity
   8
LEVEL001
 100
AcDbLine
   6
CONTINUOUS
  62
1
  10
 369.56396714516
  20
 232.50023333455
  30
0.0
  11
 370.35396714510
  21
 228.50023333435
  31
0.0
   0
LINE
   5
289
 100
AcDbEntity
   8
LEVEL001
 100
AcDbLine
   6
CONTINUOUS
  62
1
  10
 367.69529201045
  20
 232.00023333435
  30
0.0
  11
 368.48529201039
  21
 229.00023333455
  31
0.0
   0
LINE
   5
28A
 100
AcDbEntity
   8
LEVEL001
 100
AcDbLine
   6
CONTINUOUS
  62
1
  10
 368.27264227988
  20
 232.00023333435
  30
0.0
  11
 369.06264227981
  21
 229.00023333455
  31
0.0
   0
LINE
   5
28B
 100
AcDbEntity
   8
LEVEL001
 100
AcDbLine
   6
CONTINUOUS
  62
1
  10
 369.27529201045
  20
 232.00023333435
  30
0.0
  11
 370.06529201039
  21
 229.00023333455
  31
0.0
   0
LINE
   5
28C
 100
AcDbEntity
   8
LEVEL001
 100
AcDbLine
   6
CONTINUOUS
  62
1
  10
 370.64264227981
  20
 229.00023333455
  30
0.0
  11
 369.85264227988
  21
 232.00023333435
  31
0.0
   0
LWPOLYLINE
   5
28D
 100
AcDbEntity
   8
LEVEL001
   6
CONTINUOUS
  62
1
 100
AcDbPolyline
  90
3
  70
0
  10
 367.69529201045
  20
 232.00023333435
  10
 367.98396714516
  20
 232.50023333455
  10
 368.27264227988
  20
 232.00023333435
   0
LWPOLYLINE
   5
28E
 100
AcDbEntity
   8
LEVEL001
   6
CONTINUOUS
  62
1
 100
AcDbPolyline
  90
3
  70
0
  10
 369.27529201045
  20
 232.00023333435
  10
 369.56396714516
  20
 232.50023333455
  10
 369.85264227988
  20
 232.00023333435
   0
LINE
   5
28F
 100
AcDbEntity
   8
LEVEL001
 100
AcDbLine
   6
CONTINUOUS
  62
1
  10
 371.14396714516
  20
 232.50023333455
  30
0.0
  11
 371.93396714510
  21
 228.50023333435
  31
0.0
   0
LINE
   5
290
 100
AcDbEntity
   8
LEVEL001
 100
AcDbLine
   6
CONTINUOUS
  62
1
  10
 370.85529201045
  20
 232.00023333435
  30
0.0
  11
 371.64529201039
  21
 229.00023333455
  31
0.0
   0
LINE
   5
291
 100
AcDbEntity
   8
LEVEL001
 100
AcDbLine
   6
CONTINUOUS
  62
1
  10
 371.43264227988
  20
 232.00023333435
  30
0.0
  11
 372.22264227981
  21
 229.00023333455
  31
0.0
   0
LWPOLYLINE
   5
292
 100
AcDbEntity
   8
LEVEL001
   6
CONTINUOUS
  62
1
 100
AcDbPolyline
  90
3
  70
0
  10
 370.85529201045
  20
 232.00023333435
  10
 371.14396714516
  20
 232.50023333455
  10
 371.43264227988
  20
 232.00023333435
   0
LINE
   5
293
 100
AcDbEntity
   8
LEVEL001
 100
AcDbLine
   6
CONTINUOUS
  62
1
  10
 369.85264227976
  20
 232.00023333455
  30
0.0
  11
 370.85529201057
  21
 232.00023333455
  31
0.0
   0
LINE
   5
294
 100
AcDbEntity
   8
LEVEL001
 100
AcDbLine
   6
CONTINUOUS
  62
1
  10
 368.27264227976
  20
 232.00023333455
  30
0.0
  11
 369.27529201057
  21
 232.00023333455
  31
0.0
   0
LINE
   5
295
 100
AcDbEntity
   8
LEVEL001
 100
AcDbLine
   6
CONTINUOUS
  62
1
  10
 366.69264227976
  20
 232.00023333455
  30
0.0
  11
 367.69529201057
  21
 232.00023333455
  31
0.0
   0
LINE
   5
296
 100
AcDbEntity
   8
LEVEL001
 100
AcDbLine
   6
CONTINUOUS
  62
1
  10
 365.11264227976
  20
 232.00023333455
  30
0.0
  11
 366.11529201057
  21
 232.00023333455
  31
0.0
   0
LINE
   5
297
 100
AcDbEntity
   8
LEVEL001
 100
AcDbLine
   6
CONTINUOUS
  62
1
  10
 363.53264227976
  20
 232.00023333455
  30
0.0
  11
 364.53529201057
  21
 232.00023333455
  31
0.0
   0
LINE
   5
298
 100
AcDbEntity
   8
LEVEL001
 100
AcDbLine
   6
CONTINUOUS
  62
1
  10
 361.95264227976
  20
 232.00023333455
  30
0.0
  11
 362.95529201057
  21
 232.00023333455
  31
0.0
   0
LINE
   5
299
 100
AcDbEntity
   8
LEVEL001
 100
AcDbLine
   6
CONTINUOUS
  62
1
  10
 360.37264227982
  20
 232.00023333455
  30
0.0
  11
 361.37529201057
  21
 232.00023333455
  31
0.0
   0
LINE
   5
29A
 100
AcDbEntity
   8
LEVEL001
 100
AcDbLine
   6
CONTINUOUS
  62
1
  10
 358.79264227982
  20
 232.00023333455
  30
0.0
  11
 359.79529201040
  21
 232.00023333455
  31
0.0
   0
LINE
   5
29B
 100
AcDbEntity
   8
LEVEL001
 100
AcDbLine
   6
CONTINUOUS
  62
1
  10
 372.72396714528
  20
 232.50023333455
  30
0.0
  11
 373.51396714522
  21
 228.50023333435
  31
0.0
   0
LINE
   5
29C
 100
AcDbEntity
   8
LEVEL001
 100
AcDbLine
   6
CONTINUOUS
  62
1
  10
 374.30396714528
  20
 232.50023333455
  30
0.0
  11
 375.09396714522
  21
 228.50023333435
  31
0.0
   0
LINE
   5
29D
 100
AcDbEntity
   8
LEVEL001
 100
AcDbLine
   6
CONTINUOUS
  62
1
  10
 372.43529201057
  20
 232.00023333435
  30
0.0
  11
 373.22529201050
  21
 229.00023333455
  31
0.0
   0
LINE
   5
29E
 100
AcDbEntity
   8
LEVEL001
 100
AcDbLine
   6
CONTINUOUS
  62
1
  10
 373.01264227999
  20
 232.00023333435
  30
0.0
  11
 373.80264227993
  21
 229.00023333455
  31
0.0
   0
LINE
   5
29F
 100
AcDbEntity
   8
LEVEL001
 100
AcDbLine
   6
CONTINUOUS
  62
1
  10
 374.01529201057
  20
 232.00023333435
  30
0.0
  11
 374.80529201050
  21
 229.00023333455
  31
0.0
   0
LINE
   5
2A0
 100
AcDbEntity
   8
LEVEL001
 100
AcDbLine
   6
CONTINUOUS
  62
1
  10
 375.38264227993
  20
 229.00023333455
  30
0.0
  11
 374.59264227999
  21
 232.00023333435
  31
0.0
   0
LWPOLYLINE
   5
2A1
 100
AcDbEntity
   8
LEVEL001
   6
CONTINUOUS
  62
1
 100
AcDbPolyline
  90
3
  70
0
  10
 372.43529201057
  20
 232.00023333435
  10
 372.72396714528
  20
 232.50023333455
  10
 373.01264227999
  20
 232.00023333435
   0
LWPOLYLINE
   5
2A2
 100
AcDbEntity
   8
LEVEL001
   6
CONTINUOUS
  62
1
 100
AcDbPolyline
  90
3
  70
0
  10
 374.01529201057
  20
 232.00023333435
  10
 374.30396714528
  20
 232.50023333455
  10
 374.59264227999
  20
 232.00023333435
   0
ARC
   5
2A3
 100
AcDbEntity
   8
LEVEL001
   6
CONTINUOUS
  62
1
 100
AcDbCircle
  10
 379.86668215573
  20
 230.50023333455
  30
0.0
  40
 0.30000000000000
 100
AcDbArc
  50
 290.40101745058
  51
 69.598982549425
   0
ARC
   5
2A4
 100
AcDbEntity
   8
LEVEL001
   6
CONTINUOUS
  62
1
 100
AcDbCircle
  10
 373.19717209057
  20
 212.56743593568
  30
0.0
  40
 19.432892804231
 100
AcDbArc
  50
 87.573684573593
  51
 89.820462377236
   0
LINE
   5
2A5
 100
AcDbEntity
   8
LEVEL001
 100
AcDbLine
   6
CONTINUOUS
  62
1
  10
 373.01264227988
  20
 232.00023333455
  30
0.0
  11
 373.25806540064
  21
 232.00023333455
  31
0.0
   0
LINE
   5
2A6
 100
AcDbEntity
   8
LEVEL001
 100
AcDbLine
   6
CONTINUOUS
  62
1
  10
 371.43264227988
  20
 232.00023333455
  30
0.0
  11
 372.43529201069
  21
 232.00023333455
  31
0.0
   0
LWPOLYLINE
   5
2A7
 100
AcDbEntity
   8
LEVEL001
   6
CONTINUOUS
  62
1
 100
AcDbPolyline
  90
3
  70
0
  10
 377.30308351049
  20
 231.35318776520
  10
 377.59175864520
  20
 231.85318776541
  10
 377.88043377992
  20
 231.35318776520
   0
LWPOLYLINE
   5
2A8
 100
AcDbEntity
   8
LEVEL001
   6
CONTINUOUS
  62
1
 100
AcDbPolyline
  90
3
  70
0
  10
 375.64449097680
  20
 231.75112464480
  10
 375.93316611152
  20
 232.25112464501
  10
 376.22184124623
  20
 231.75112464480
   0
LINE
   5
2A9
 100
AcDbEntity
   8
LEVEL001
 100
AcDbLine
   6
CONTINUOUS
  62
1
  10
 377.59175864520
  20
 231.85318776541
  30
0.0
  11
 378.10199791842
  21
 229.26969777396
  31
0.0
   0
LINE
   5
2AA
 100
AcDbEntity
   8
LEVEL001
 100
AcDbLine
   6
CONTINUOUS
  62
1
  10
 377.30308351049
  20
 231.35318776520
  30
0.0
  11
 377.81332278371
  21
 229.76969777416
  31
0.0
   0
LINE
   5
2AB
 100
AcDbEntity
   8
LEVEL001
 100
AcDbLine
   6
CONTINUOUS
  62
1
  10
 378.39067305313
  20
 229.76969777416
  30
0.0
  11
 377.88043377992
  21
 231.35318776520
  31
0.0
   0
LINE
   5
2AC
 100
AcDbEntity
   8
LEVEL001
 100
AcDbLine
   6
CONTINUOUS
  62
1
  10
 375.93316611152
  20
 232.25112464501
  30
0.0
  11
 376.60010867482
  21
 228.87420027315
  31
0.0
   0
LINE
   5
2AD
 100
AcDbEntity
   8
LEVEL001
 100
AcDbLine
   6
CONTINUOUS
  62
1
  10
 375.64449097680
  20
 231.75112464480
  30
0.0
  11
 376.31143354010
  21
 229.37420027335
  31
0.0
   0
LINE
   5
2AE
 100
AcDbEntity
   8
LEVEL001
 100
AcDbLine
   6
CONTINUOUS
  62
1
  10
 376.22184124623
  20
 231.75112464480
  30
0.0
  11
 376.88878380953
  21
 229.37420027335
  31
0.0
   0
ARC
   5
2AF
 100
AcDbEntity
   8
LEVEL001
   6
CONTINUOUS
  62
1
 100
AcDbCircle
  10
 373.19717209057
  20
 212.56743593568
  30
0.0
  40
 19.432892804231
 100
AcDbArc
  50
 69.598982549430
  51
 76.206717786146
   0
ARC
   5
2B0
 100
AcDbEntity
   8
LEVEL001
   6
CONTINUOUS
  62
1
 100
AcDbCircle
  10
 373.19717209057
  20
 212.56743593568
  30
0.0
  40
 19.432892804231
 100
AcDbArc
  50
 77.479809934349
  51
 81.069132374829
   0
ARC
   5
2B1
 100
AcDbEntity
   8
LEVEL001
   6
CONTINUOUS
  62
1
 100
AcDbCircle
  10
 373.19717209057
  20
 212.56743593568
  30
0.0
  40
 19.432892804231
 100
AcDbArc
  50
 82.614161977969
  51
 85.842326840438
   0
LWPOLYLINE
   5
2B2
 100
AcDbEntity
   8
LEVEL001
   6
CONTINUOUS
  62
1
 100
AcDbPolyline
  90
3
  70
0
  10
 359.00529201039
  20
 229.00023333455
  10
 359.29396714510
  20
 228.50023333435
  10
 359.58264227981
  20
 229.00023333455
   0
LWPOLYLINE
   5
2B3
 100
AcDbEntity
   8
LEVEL001
   6
CONTINUOUS
  62
1
 100
AcDbPolyline
  90
3
  70
0
  10
 360.58529201039
  20
 229.00023333455
  10
 360.87396714510
  20
 228.50023333435
  10
 361.16264227981
  20
 229.00023333455
   0
LWPOLYLINE
   5
2B4
 100
AcDbEntity
   8
LEVEL001
   6
CONTINUOUS
  62
1
 100
AcDbPolyline
  90
3
  70
0
  10
 362.16529201039
  20
 229.00023333455
  10
 362.45396714510
  20
 228.50023333435
  10
 362.74264227981
  20
 229.00023333455
   0
LWPOLYLINE
   5
2B5
 100
AcDbEntity
   8
LEVEL001
   6
CONTINUOUS
  62
1
 100
AcDbPolyline
  90
3
  70
0
  10
 363.74529201039
  20
 229.00023333455
  10
 364.03396714510
  20
 228.50023333435
  10
 364.32264227981
  20
 229.00023333455
   0
LWPOLYLINE
   5
2B6
 100
AcDbEntity
   8
LEVEL001
   6
CONTINUOUS
  62
1
 100
AcDbPolyline
  90
3
  70
0
  10
 365.32529201039
  20
 229.00023333455
  10
 365.61396714510
  20
 228.50023333435
  10
 365.90264227981
  20
 229.00023333455
   0
LWPOLYLINE
   5
2B7
 100
AcDbEntity
   8
LEVEL001
   6
CONTINUOUS
  62
1
 100
AcDbPolyline
  90
3
  70
0
  10
 366.90529201039
  20
 229.00023333455
  10
 367.19396714510
  20
 228.50023333435
  10
 367.48264227981
  20
 229.00023333455
   0
LWPOLYLINE
   5
2B8
 100
AcDbEntity
   8
LEVEL001
   6
CONTINUOUS
  62
1
 100
AcDbPolyline
  90
3
  70
0
  10
 368.48529201039
  20
 229.00023333455
  10
 368.77396714510
  20
 228.50023333435
  10
 369.06264227981
  20
 229.00023333455
   0
LWPOLYLINE
   5
2B9
 100
AcDbEntity
   8
LEVEL001
   6
CONTINUOUS
  62
1
 100
AcDbPolyline
  90
3
  70
0
  10
 370.06529201039
  20
 229.00023333455
  10
 370.35396714510
  20
 228.50023333435
  10
 370.64264227981
  20
 229.00023333455
   0
LWPOLYLINE
   5
2BA
 100
AcDbEntity
   8
LEVEL001
   6
CONTINUOUS
  62
1
 100
AcDbPolyline
  90
3
  70
0
  10
 371.64529201039
  20
 229.00023333455
  10
 371.93396714510
  20
 228.50023333435
  10
 372.22264227981
  20
 229.00023333455
   0
LINE
   5
2BB
 100
AcDbEntity
   8
LEVEL001
 100
AcDbLine
   6
CONTINUOUS
  62
1
  10
 370.64264227981
  20
 229.00023333455
  30
0.0
  11
 371.64529201039
  21
 229.00023333455
  31
0.0
   0
LINE
   5
2BC
 100
AcDbEntity
   8
LEVEL001
 100
AcDbLine
   6
CONTINUOUS
  62
1
  10
 369.06264227981
  20
 229.00023333455
  30
0.0
  11
 370.06529201039
  21
 229.00023333455
  31
0.0
   0
LINE
   5
2BD
 100
AcDbEntity
   8
LEVEL001
 100
AcDbLine
   6
CONTINUOUS
  62
1
  10
 367.48264227981
  20
 229.00023333455
  30
0.0
  11
 368.48529201039
  21
 229.00023333455
  31
0.0
   0
LINE
   5
2BE
 100
AcDbEntity
   8
LEVEL001
 100
AcDbLine
   6
CONTINUOUS
  62
1
  10
 365.90264227981
  20
 229.00023333455
  30
0.0
  11
 366.90529201039
  21
 229.00023333455
  31
0.0
   0
LINE
   5
2BF
 100
AcDbEntity
   8
LEVEL001
 100
AcDbLine
   6
CONTINUOUS
  62
1
  10
 364.32264227981
  20
 229.00023333455
  30
0.0
  11
 365.32529201039
  21
 229.00023333455
  31
0.0
   0
LINE
   5
2C0
 100
AcDbEntity
   8
LEVEL001
 100
AcDbLine
   6
CONTINUOUS
  62
1
  10
 362.74264227981
  20
 229.00023333455
  30
0.0
  11
 363.74529201039
  21
 229.00023333455
  31
0.0
   0
LINE
   5
2C1
 100
AcDbEntity
   8
LEVEL001
 100
AcDbLine
   6
CONTINUOUS
  62
1
  10
 361.16264227981
  20
 229.00023333455
  30
0.0
  11
 362.16529201039
  21
 229.00023333455
  31
0.0
   0
LINE
   5
2C2
 100
AcDbEntity
   8
LEVEL001
 100
AcDbLine
   6
CONTINUOUS
  62
1
  10
 359.58264227981
  20
 229.00023333455
  30
0.0
  11
 360.58529201039
  21
 229.00023333455
  31
0.0
   0
LINE
   5
2C3
 100
AcDbEntity
   8
LEVEL001
 100
AcDbLine
   6
CONTINUOUS
  62
1
  10
 358.00264227981
  20
 229.00023333455
  30
0.0
  11
 359.00529201039
  21
 229.00023333455
  31
0.0
   0
LWPOLYLINE
   5
2C4
 100
AcDbEntity
   8
LEVEL001
   6
CONTINUOUS
  62
1
 100
AcDbPolyline
  90
3
  70
0
  10
 373.22529201050
  20
 229.00023333455
  10
 373.51396714522
  20
 228.50023333435
  10
 373.80264227993
  20
 229.00023333455
   0
LWPOLYLINE
   5
2C5
 100
AcDbEntity
   8
LEVEL001
   6
CONTINUOUS
  62
1
 100
AcDbPolyline
  90
3
  70
0
  10
 374.80529201050
  20
 229.00023333455
  10
 375.09396714522
  20
 228.50023333435
  10
 375.38264227993
  20
 229.00023333455
   0
LINE
   5
2C6
 100
AcDbEntity
   8
LEVEL001
 100
AcDbLine
   6
CONTINUOUS
  62
1
  10
 372.22264227993
  20
 229.00023333455
  30
0.0
  11
 373.25806540064
  21
 229.00023333455
  31
0.0
   0
ARC
   5
2C7
 100
AcDbEntity
   8
LEVEL001
   6
CONTINUOUS
  62
1
 100
AcDbCircle
  10
 373.19717209057
  20
 248.43303073342
  30
0.0
  40
 19.432892804231
 100
AcDbArc
  50
 271.77825661980
  51
 274.69604797273
   0
LWPOLYLINE
   5
2C8
 100
AcDbEntity
   8
LEVEL001
   6
CONTINUOUS
  62
1
 100
AcDbPolyline
  90
3
  70
0
  10
 377.81332278371
  20
 229.76969777416
  10
 378.10199791842
  20
 229.26969777396
  10
 378.39067305313
  20
 229.76969777416
   0
LWPOLYLINE
   5
2C9
 100
AcDbEntity
   8
LEVEL001
   6
CONTINUOUS
  62
1
 100
AcDbPolyline
  90
3
  70
0
  10
 376.31143354010
  20
 229.37420027335
  10
 376.60010867482
  20
 228.87420027315
  10
 376.88878380953
  20
 229.37420027335
   0
ARC
   5
2CA
 100
AcDbEntity
   8
LEVEL001
   6
CONTINUOUS
  62
1
 100
AcDbCircle
  10
 373.19717209057
  20
 248.43303073342
  30
0.0
  40
 19.432892804231
 100
AcDbArc
  50
 285.36912183054
  51
 290.40101745057
   0
ARC
   5
2CB
 100
AcDbEntity
   8
LEVEL001
   6
CONTINUOUS
  62
1
 100
AcDbCircle
  10
 373.19717209057
  20
 248.43303073342
  30
0.0
  40
 19.432892804231
 100
AcDbArc
  50
 280.91145635717
  51
 284.06890367747
   0
ARC
   5
2CC
 100
AcDbEntity
   8
LEVEL001
   6
CONTINUOUS
  62
1
 100
AcDbCircle
  10
 373.19717209057
  20
 248.43303073342
  30
0.0
  40
 19.432892804231
 100
AcDbArc
  50
 276.36380310187
  51
 279.41548149650
   0
LWPOLYLINE
   5
2CD
 100
AcDbEntity
   8
LEVEL001
   6
CONTINUOUS
  62
1
 100
AcDbPolyline
  90
3
  70
0
  10
 357.42529201039
  20
 229.00023333455
  10
 357.47924049023
  20
 229.68872272622
  10
 358.00264227981
  20
 229.00023333455
   0
LINE
   5
2CE
 100
AcDbEntity
   8
LEVEL001
 100
AcDbLine
   6
CONTINUOUS
  62
1
  10
 357.47924049023
  20
 229.68872272622
  30
0.0
  11
 357.71396714510
  21
 228.50023333435
  31
0.0
   0
LWPOLYLINE
   5
2CF
 100
AcDbEntity
   8
LEVEL001
   6
CONTINUOUS
  62
1
 100
AcDbPolyline
  90
3
  70
0
  10
 357.42529201039
  20
 229.00023333455
  10
 357.71396714510
  20
 228.50023333435
  10
 358.00264227981
  20
 229.00023333455
   0
LINE
   5
2D0
 100
AcDbEntity
   8
LEVEL001
 100
AcDbLine
   6
CONTINUOUS
  62
1
  10
 355.42396714523
  20
 229.00023333455
  30
0.0
  11
 357.42529201039
  21
 229.00023333455
  31
0.0
   0
LINE
   5
2D1
 100
AcDbEntity
   8
LEVEL001
 100
AcDbLine
   6
CONTINUOUS
  62
1
  10
 355.42396714523
  20
 232.00023333455
  30
0.0
  11
 358.21529201040
  21
 232.00023333455
  31
0.0
   0
LWPOLYLINE
   5
2D2
 100
AcDbEntity
   8
LEVEL001
   6
CONTINUOUS
  62
1
 100
AcDbPolyline
  90
4
  70
0
  10
 355.13552272618
  20
 225.80023333455
  10
 355.42396714523
  20
 225.80023333455
  10
 355.42396714523
  20
 235.20023333455
  10
 355.13552272618
  20
 235.20023333455
   0
ARC
   5
2D3
 100
AcDbEntity
   8
LEVEL001
   6
CONTINUOUS
  62
1
 100
AcDbCircle
  10
 359.02396714523
  20
 230.50023333455
  30
0.0
  40
 6.1000000000000
 100
AcDbArc
  50
 186.11690114013
  51
 230.39807291889
   0
LINE
   5
2D4
 100
AcDbEntity
   8
LEVEL001
 100
AcDbLine
   6
CONTINUOUS
  62
1
  10
 355.13552272618
  20
 235.20023333455
  30
0.0
  11
 355.13552272618
  21
 225.80023333455
  31
0.0
   0
LWPOLYLINE
   5
2D5
 100
AcDbEntity
   8
LEVEL001
   6
CONTINUOUS
  62
1
 100
AcDbPolyline
  90
4
  70
0
  10
 352.95869715948
  20
 231.15023333451
  10
 353.42396714523
  20
 231.15023333451
  10
 353.42396714523
  20
 229.85023333451
  10
 352.95869715949
  20
 229.85023333451
   0
ARC
   5
2D6
 100
AcDbEntity
   8
LEVEL001
   6
CONTINUOUS
  62
1
 100
AcDbCircle
  10
 359.02396714523
  20
 230.50023333455
  30
0.0
  40
 6.1000000000000
 100
AcDbArc
  50
 129.60192708111
  51
 173.88309886055
   0
ENDBLK
   5
2D7
 100
AcDbEntity
   8
0
 100
AcDbBlockEnd
   0
BLOCK
   5
2D8
 100
AcDbEntity
   8
0
 100
AcDbBlockBegin
   2
BLOCK008
  70
64
  10
0.0
  20
0.0
  30
0.0
   3
BLOCK008
   0
LWPOLYLINE
   5
2D9
 100
AcDbEntity
   8
LEVEL001
   6
CONTINUOUS
  62
1
 100
AcDbPolyline
  90
3
  70
0
  10
 58.421414302788
  20
 209.00023333475
  10
 58.132739168076
  20
 208.50023333455
  10
 57.844064033364
  20
 209.00023333475
   0
LWPOLYLINE
   5
2DA
 100
AcDbEntity
   8
LEVEL001
   6
CONTINUOUS
  62
1
 100
AcDbPolyline
  90
3
  70
0
  10
 56.841414302788
  20
 209.00023333475
  10
 56.552739168076
  20
 208.50023333455
  10
 56.264064033364
  20
 209.00023333475
   0
LINE
   5
2DB
 100
AcDbEntity
   8
LEVEL001
 100
AcDbLine
   6
CONTINUOUS
  62
1
  10
 58.132739168076
  20
 208.50023333455
  30
0.0
  11
 57.342739168142
  21
 212.50023333475
  31
0.0
   0
LINE
   5
2DC
 100
AcDbEntity
   8
LEVEL001
 100
AcDbLine
   6
CONTINUOUS
  62
1
  10
 56.552739168076
  20
 208.50023333455
  30
0.0
  11
 55.762739168142
  21
 212.50023333475
  31
0.0
   0
LINE
   5
2DD
 100
AcDbEntity
   8
LEVEL001
 100
AcDbLine
   6
CONTINUOUS
  62
1
  10
 58.421414302788
  20
 209.00023333475
  30
0.0
  11
 57.631414302854
  21
 212.00023333455
  31
0.0
   0
LINE
   5
2DE
 100
AcDbEntity
   8
LEVEL001
 100
AcDbLine
   6
CONTINUOUS
  62
1
  10
 57.844064033364
  20
 209.00023333475
  30
0.0
  11
 57.054064033430
  21
 212.00023333455
  31
0.0
   0
LINE
   5
2DF
 100
AcDbEntity
   8
LEVEL001
 100
AcDbLine
   6
CONTINUOUS
  62
1
  10
 56.841414302788
  20
 209.00023333475
  30
0.0
  11
 56.051414302854
  21
 212.00023333455
  31
0.0
   0
LINE
   5
2E0
 100
AcDbEntity
   8
LEVEL001
 100
AcDbLine
   6
CONTINUOUS
  62
1
  10
 55.474064033430
  20
 212.00023333455
  30
0.0
  11
 56.264064033364
  21
 209.00023333475
  31
0.0
   0
LINE
   5
2E1
 100
AcDbEntity
   8
LEVEL001
 100
AcDbLine
   6
CONTINUOUS
  62
1
  10
 54.972739168076
  20
 208.50023333455
  30
0.0
  11
 54.182739168142
  21
 212.50023333475
  31
0.0
   0
LINE
   5
2E2
 100
AcDbEntity
   8
LEVEL001
 100
AcDbLine
   6
CONTINUOUS
  62
1
  10
 53.392739168076
  20
 208.50023333455
  30
0.0
  11
 52.602739168142
  21
 212.50023333475
  31
0.0
   0
LINE
   5
2E3
 100
AcDbEntity
   8
LEVEL001
 100
AcDbLine
   6
CONTINUOUS
  62
1
  10
 55.261414302788
  20
 209.00023333475
  30
0.0
  11
 54.471414302854
  21
 212.00023333455
  31
0.0
   0
LINE
   5
2E4
 100
AcDbEntity
   8
LEVEL001
 100
AcDbLine
   6
CONTINUOUS
  62
1
  10
 54.684064033364
  20
 209.00023333475
  30
0.0
  11
 53.894064033430
  21
 212.00023333455
  31
0.0
   0
LINE
   5
2E5
 100
AcDbEntity
   8
LEVEL001
 100
AcDbLine
   6
CONTINUOUS
  62
1
  10
 53.681414302788
  20
 209.00023333475
  30
0.0
  11
 52.891414302854
  21
 212.00023333455
  31
0.0
   0
LINE
   5
2E6
 100
AcDbEntity
   8
LEVEL001
 100
AcDbLine
   6
CONTINUOUS
  62
1
  10
 52.314064033430
  20
 212.00023333455
  30
0.0
  11
 53.104064033363
  21
 209.00023333475
  31
0.0
   0
LWPOLYLINE
   5
2E7
 100
AcDbEntity
   8
LEVEL001
   6
CONTINUOUS
  62
1
 100
AcDbPolyline
  90
3
  70
0
  10
 55.261414302788
  20
 209.00023333475
  10
 54.972739168076
  20
 208.50023333455
  10
 54.684064033364
  20
 209.00023333475
   0
LWPOLYLINE
   5
2E8
 100
AcDbEntity
   8
LEVEL001
   6
CONTINUOUS
  62
1
 100
AcDbPolyline
  90
3
  70
0
  10
 53.681414302788
  20
 209.00023333475
  10
 53.392739168076
  20
 208.50023333455
  10
 53.104064033363
  20
 209.00023333475
   0
LINE
   5
2E9
 100
AcDbEntity
   8
LEVEL001
 100
AcDbLine
   6
CONTINUOUS
  62
1
  10
 51.812739168076
  20
 208.50023333455
  30
0.0
  11
 51.022739168142
  21
 212.50023333475
  31
0.0
   0
LINE
   5
2EA
 100
AcDbEntity
   8
LEVEL001
 100
AcDbLine
   6
CONTINUOUS
  62
1
  10
 50.232739168075
  20
 208.50023333455
  30
0.0
  11
 49.442739168142
  21
 212.50023333475
  31
0.0
   0
LINE
   5
2EB
 100
AcDbEntity
   8
LEVEL001
 100
AcDbLine
   6
CONTINUOUS
  62
1
  10
 52.101414302788
  20
 209.00023333475
  30
0.0
  11
 51.311414302854
  21
 212.00023333455
  31
0.0
   0
LINE
   5
2EC
 100
AcDbEntity
   8
LEVEL001
 100
AcDbLine
   6
CONTINUOUS
  62
1
  10
 51.524064033363
  20
 209.00023333475
  30
0.0
  11
 50.734064033430
  21
 212.00023333455
  31
0.0
   0
LINE
   5
2ED
 100
AcDbEntity
   8
LEVEL001
 100
AcDbLine
   6
CONTINUOUS
  62
1
  10
 50.521414302788
  20
 209.00023333475
  30
0.0
  11
 49.731414302854
  21
 212.00023333455
  31
0.0
   0
LINE
   5
2EE
 100
AcDbEntity
   8
LEVEL001
 100
AcDbLine
   6
CONTINUOUS
  62
1
  10
 49.154064033430
  20
 212.00023333455
  30
0.0
  11
 49.944064033363
  21
 209.00023333475
  31
0.0
   0
LWPOLYLINE
   5
2EF
 100
AcDbEntity
   8
LEVEL001
   6
CONTINUOUS
  62
1
 100
AcDbPolyline
  90
3
  70
0
  10
 52.101414302788
  20
 209.00023333475
  10
 51.812739168076
  20
 208.50023333455
  10
 51.524064033363
  20
 209.00023333475
   0
LWPOLYLINE
   5
2F0
 100
AcDbEntity
   8
LEVEL001
   6
CONTINUOUS
  62
1
 100
AcDbPolyline
  90
3
  70
0
  10
 50.521414302788
  20
 209.00023333475
  10
 50.232739168075
  20
 208.50023333455
  10
 49.944064033363
  20
 209.00023333475
   0
LINE
   5
2F1
 100
AcDbEntity
   8
LEVEL001
 100
AcDbLine
   6
CONTINUOUS
  62
1
  10
 48.652739168075
  20
 208.50023333455
  30
0.0
  11
 47.862739168142
  21
 212.50023333475
  31
0.0
   0
LINE
   5
2F2
 100
AcDbEntity
   8
LEVEL001
 100
AcDbLine
   6
CONTINUOUS
  62
1
  10
 47.072739168075
  20
 208.50023333455
  30
0.0
  11
 46.282739168142
  21
 212.50023333475
  31
0.0
   0
LINE
   5
2F3
 100
AcDbEntity
   8
LEVEL001
 100
AcDbLine
   6
CONTINUOUS
  62
1
  10
 48.941414302788
  20
 209.00023333475
  30
0.0
  11
 48.151414302854
  21
 212.00023333455
  31
0.0
   0
LINE
   5
2F4
 100
AcDbEntity
   8
LEVEL001
 100
AcDbLine
   6
CONTINUOUS
  62
1
  10
 48.364064033363
  20
 209.00023333475
  30
0.0
  11
 47.574064033430
  21
 212.00023333455
  31
0.0
   0
LINE
   5
2F5
 100
AcDbEntity
   8
LEVEL001
 100
AcDbLine
   6
CONTINUOUS
  62
1
  10
 47.361414302788
  20
 209.00023333475
  30
0.0
  11
 46.571414302854
  21
 212.00023333455
  31
0.0
   0
LINE
   5
2F6
 100
AcDbEntity
   8
LEVEL001
 100
AcDbLine
   6
CONTINUOUS
  62
1
  10
 45.994064033430
  20
 212.00023333455
  30
0.0
  11
 46.784064033363
  21
 209.00023333475
  31
0.0
   0
LWPOLYLINE
   5
2F7
 100
AcDbEntity
   8
LEVEL001
   6
CONTINUOUS
  62
1
 100
AcDbPolyline
  90
3
  70
0
  10
 48.941414302788
  20
 209.00023333475
  10
 48.652739168075
  20
 208.50023333455
  10
 48.364064033363
  20
 209.00023333475
   0
LWPOLYLINE
   5
2F8
 100
AcDbEntity
   8
LEVEL001
   6
CONTINUOUS
  62
1
 100
AcDbPolyline
  90
3
  70
0
  10
 47.361414302788
  20
 209.00023333475
  10
 47.072739168075
  20
 208.50023333455
  10
 46.784064033363
  20
 209.00023333475
   0
LINE
   5
2F9
 100
AcDbEntity
   8
LEVEL001
 100
AcDbLine
   6
CONTINUOUS
  62
1
  10
 45.492739168075
  20
 208.50023333455
  30
0.0
  11
 44.702739168142
  21
 212.50023333475
  31
0.0
   0
LINE
   5
2FA
 100
AcDbEntity
   8
LEVEL001
 100
AcDbLine
   6
CONTINUOUS
  62
1
  10
 45.781414302787
  20
 209.00023333475
  30
0.0
  11
 44.991414302854
  21
 212.00023333455
  31
0.0
   0
LINE
   5
2FB
 100
AcDbEntity
   8
LEVEL001
 100
AcDbLine
   6
CONTINUOUS
  62
1
  10
 45.204064033363
  20
 209.00023333475
  30
0.0
  11
 44.414064033429
  21
 212.00023333455
  31
0.0
   0
LWPOLYLINE
   5
2FC
 100
AcDbEntity
   8
LEVEL001
   6
CONTINUOUS
  62
1
 100
AcDbPolyline
  90
3
  70
0
  10
 45.781414302787
  20
 209.00023333475
  10
 45.492739168075
  20
 208.50023333455
  10
 45.204064033363
  20
 209.00023333475
   0
LINE
   5
2FD
 100
AcDbEntity
   8
LEVEL001
 100
AcDbLine
   6
CONTINUOUS
  62
1
  10
 46.784064033481
  20
 209.00023333455
  30
0.0
  11
 45.781414302670
  21
 209.00023333455
  31
0.0
   0
LINE
   5
2FE
 100
AcDbEntity
   8
LEVEL001
 100
AcDbLine
   6
CONTINUOUS
  62
1
  10
 48.364064033481
  20
 209.00023333455
  30
0.0
  11
 47.361414302670
  21
 209.00023333455
  31
0.0
   0
LINE
   5
2FF
 100
AcDbEntity
   8
LEVEL001
 100
AcDbLine
   6
CONTINUOUS
  62
1
  10
 49.944064033481
  20
 209.00023333455
  30
0.0
  11
 48.941414302670
  21
 209.00023333455
  31
0.0
   0
LINE
   5
300
 100
AcDbEntity
   8
LEVEL001
 100
AcDbLine
   6
CONTINUOUS
  62
1
  10
 51.524064033481
  20
 209.00023333455
  30
0.0
  11
 50.521414302670
  21
 209.00023333455
  31
0.0
   0
LINE
   5
301
 100
AcDbEntity
   8
LEVEL001
 100
AcDbLine
   6
CONTINUOUS
  62
1
  10
 53.104064033481
  20
 209.00023333455
  30
0.0
  11
 52.101414302670
  21
 209.00023333455
  31
0.0
   0
LINE
   5
302
 100
AcDbEntity
   8
LEVEL001
 100
AcDbLine
   6
CONTINUOUS
  62
1
  10
 54.684064033481
  20
 209.00023333455
  30
0.0
  11
 53.681414302670
  21
 209.00023333455
  31
0.0
   0
LINE
   5
303
 100
AcDbEntity
   8
LEVEL001
 100
AcDbLine
   6
CONTINUOUS
  62
1
  10
 56.264064033417
  20
 209.00023333455
  30
0.0
  11
 55.261414302671
  21
 209.00023333455
  31
0.0
   0
LINE
   5
304
 100
AcDbEntity
   8
LEVEL001
 100
AcDbLine
   6
CONTINUOUS
  62
1
  10
 57.844064033417
  20
 209.00023333455
  30
0.0
  11
 56.841414302841
  21
 209.00023333455
  31
0.0
   0
LINE
   5
305
 100
AcDbEntity
   8
LEVEL001
 100
AcDbLine
   6
CONTINUOUS
  62
1
  10
 43.912739167958
  20
 208.50023333455
  30
0.0
  11
 43.122739168024
  21
 212.50023333475
  31
0.0
   0
LINE
   5
306
 100
AcDbEntity
   8
LEVEL001
 100
AcDbLine
   6
CONTINUOUS
  62
1
  10
 42.332739167958
  20
 208.50023333455
  30
0.0
  11
 41.542739168024
  21
 212.50023333475
  31
0.0
   0
LINE
   5
307
 100
AcDbEntity
   8
LEVEL001
 100
AcDbLine
   6
CONTINUOUS
  62
1
  10
 44.201414302670
  20
 209.00023333475
  30
0.0
  11
 43.411414302737
  21
 212.00023333455
  31
0.0
   0
LINE
   5
308
 100
AcDbEntity
   8
LEVEL001
 100
AcDbLine
   6
CONTINUOUS
  62
1
  10
 43.624064033246
  20
 209.00023333475
  30
0.0
  11
 42.834064033312
  21
 212.00023333455
  31
0.0
   0
LINE
   5
309
 100
AcDbEntity
   8
LEVEL001
 100
AcDbLine
   6
CONTINUOUS
  62
1
  10
 42.621414302670
  20
 209.00023333475
  30
0.0
  11
 41.831414302736
  21
 212.00023333455
  31
0.0
   0
LINE
   5
30A
 100
AcDbEntity
   8
LEVEL001
 100
AcDbLine
   6
CONTINUOUS
  62
1
  10
 41.254064033312
  20
 212.00023333455
  30
0.0
  11
 42.044064033246
  21
 209.00023333475
  31
0.0
   0
LWPOLYLINE
   5
30B
 100
AcDbEntity
   8
LEVEL001
   6
CONTINUOUS
  62
1
 100
AcDbPolyline
  90
3
  70
0
  10
 44.201414302670
  20
 209.00023333475
  10
 43.912739167958
  20
 208.50023333455
  10
 43.624064033246
  20
 209.00023333475
   0
LWPOLYLINE
   5
30C
 100
AcDbEntity
   8
LEVEL001
   6
CONTINUOUS
  62
1
 100
AcDbPolyline
  90
3
  70
0
  10
 42.621414302670
  20
 209.00023333475
  10
 42.332739167958
  20
 208.50023333455
  10
 42.044064033246
  20
 209.00023333475
   0
ARC
   5
30D
 100
AcDbEntity
   8
LEVEL001
   6
CONTINUOUS
  62
1
 100
AcDbCircle
  10
 36.770024157510
  20
 210.50023333455
  30
0.0
  40
 0.30000000000000
 100
AcDbArc
  50
 110.40101745057
  51
 249.59898254943
   0
ARC
   5
30E
 100
AcDbEntity
   8
LEVEL001
   6
CONTINUOUS
  62
1
 100
AcDbCircle
  10
 43.439534222671
  20
 228.43303073342
  30
0.0
  40
 19.432892804231
 100
AcDbArc
  50
 267.57368457359
  51
 269.82046237724
   0
LINE
   5
30F
 100
AcDbEntity
   8
LEVEL001
 100
AcDbLine
   6
CONTINUOUS
  62
1
  10
 43.624064033363
  20
 209.00023333455
  30
0.0
  11
 43.378640912596
  21
 209.00023333455
  31
0.0
   0
LINE
   5
310
 100
AcDbEntity
   8
LEVEL001
 100
AcDbLine
   6
CONTINUOUS
  62
1
  10
 45.204064033363
  20
 209.00023333455
  30
0.0
  11
 44.201414302553
  21
 209.00023333455
  31
0.0
   0
LWPOLYLINE
   5
311
 100
AcDbEntity
   8
LEVEL001
   6
CONTINUOUS
  62
1
 100
AcDbPolyline
  90
3
  70
0
  10
 39.333622802748
  20
 209.64727890389
  10
 39.044947668036
  20
 209.14727890369
  10
 38.756272533324
  20
 209.64727890389
   0
LWPOLYLINE
   5
312
 100
AcDbEntity
   8
LEVEL001
   6
CONTINUOUS
  62
1
 100
AcDbPolyline
  90
3
  70
0
  10
 40.992215336436
  20
 209.24934202430
  10
 40.703540201724
  20
 208.74934202409
  10
 40.414865067012
  20
 209.24934202430
   0
LINE
   5
313
 100
AcDbEntity
   8
LEVEL001
 100
AcDbLine
   6
CONTINUOUS
  62
1
  10
 39.044947668036
  20
 209.14727890369
  30
0.0
  11
 38.534708394820
  21
 211.73076889514
  31
0.0
   0
LINE
   5
314
 100
AcDbEntity
   8
LEVEL001
 100
AcDbLine
   6
CONTINUOUS
  62
1
  10
 39.333622802748
  20
 209.64727890389
  30
0.0
  11
 38.823383529532
  21
 211.23076889493
  31
0.0
   0
LINE
   5
315
 100
AcDbEntity
   8
LEVEL001
 100
AcDbLine
   6
CONTINUOUS
  62
1
  10
 38.246033260108
  20
 211.23076889493
  30
0.0
  11
 38.756272533324
  21
 209.64727890389
  31
0.0
   0
LINE
   5
316
 100
AcDbEntity
   8
LEVEL001
 100
AcDbLine
   6
CONTINUOUS
  62
1
  10
 40.703540201724
  20
 208.74934202409
  30
0.0
  11
 40.036597638423
  21
 212.12626639595
  31
0.0
   0
LINE
   5
317
 100
AcDbEntity
   8
LEVEL001
 100
AcDbLine
   6
CONTINUOUS
  62
1
  10
 40.992215336436
  20
 209.24934202430
  30
0.0
  11
 40.325272773135
  21
 211.62626639574
  31
0.0
   0
LINE
   5
318
 100
AcDbEntity
   8
LEVEL001
 100
AcDbLine
   6
CONTINUOUS
  62
1
  10
 40.414865067012
  20
 209.24934202430
  30
0.0
  11
 39.747922503711
  21
 211.62626639574
  31
0.0
   0
ARC
   5
319
 100
AcDbEntity
   8
LEVEL001
   6
CONTINUOUS
  62
1
 100
AcDbCircle
  10
 43.439534222670
  20
 228.43303073342
  30
0.0
  40
 19.432892804231
 100
AcDbArc
  50
 249.59898254943
  51
 256.20671778615
   0
ARC
   5
31A
 100
AcDbEntity
   8
LEVEL001
   6
CONTINUOUS
  62
1
 100
AcDbCircle
  10
 43.439534222672
  20
 228.43303073342
  30
0.0
  40
 19.432892804231
 100
AcDbArc
  50
 257.47980993435
  51
 261.06913237483
   0
ARC
   5
31B
 100
AcDbEntity
   8
LEVEL001
   6
CONTINUOUS
  62
1
 100
AcDbCircle
  10
 43.439534222669
  20
 228.43303073342
  30
0.0
  40
 19.432892804231
 100
AcDbArc
  50
 262.61416197797
  51
 265.84232684044
   0
LWPOLYLINE
   5
31C
 100
AcDbEntity
   8
LEVEL001
   6
CONTINUOUS
  62
1
 100
AcDbPolyline
  90
3
  70
0
  10
 57.631414302854
  20
 212.00023333455
  10
 57.342739168142
  20
 212.50023333475
  10
 57.054064033430
  20
 212.00023333455
   0
LWPOLYLINE
   5
31D
 100
AcDbEntity
   8
LEVEL001
   6
CONTINUOUS
  62
1
 100
AcDbPolyline
  90
3
  70
0
  10
 56.051414302854
  20
 212.00023333455
  10
 55.762739168142
  20
 212.50023333475
  10
 55.474064033430
  20
 212.00023333455
   0
LWPOLYLINE
   5
31E
 100
AcDbEntity
   8
LEVEL001
   6
CONTINUOUS
  62
1
 100
AcDbPolyline
  90
3
  70
0
  10
 54.471414302854
  20
 212.00023333455
  10
 54.182739168142
  20
 212.50023333475
  10
 53.894064033430
  20
 212.00023333455
   0
LWPOLYLINE
   5
31F
 100
AcDbEntity
   8
LEVEL001
   6
CONTINUOUS
  62
1
 100
AcDbPolyline
  90
3
  70
0
  10
 52.891414302854
  20
 212.00023333455
  10
 52.602739168142
  20
 212.50023333475
  10
 52.314064033430
  20
 212.00023333455
   0
LWPOLYLINE
   5
320
 100
AcDbEntity
   8
LEVEL001
   6
CONTINUOUS
  62
1
 100
AcDbPolyline
  90
3
  70
0
  10
 51.311414302854
  20
 212.00023333455
  10
 51.022739168142
  20
 212.50023333475
  10
 50.734064033430
  20
 212.00023333455
   0
LWPOLYLINE
   5
321
 100
AcDbEntity
   8
LEVEL001
   6
CONTINUOUS
  62
1
 100
AcDbPolyline
  90
3
  70
0
  10
 49.731414302854
  20
 212.00023333455
  10
 49.442739168142
  20
 212.50023333475
  10
 49.154064033430
  20
 212.00023333455
   0
LWPOLYLINE
   5
322
 100
AcDbEntity
   8
LEVEL001
   6
CONTINUOUS
  62
1
 100
AcDbPolyline
  90
3
  70
0
  10
 48.151414302854
  20
 212.00023333455
  10
 47.862739168142
  20
 212.50023333475
  10
 47.574064033430
  20
 212.00023333455
   0
LWPOLYLINE
   5
323
 100
AcDbEntity
   8
LEVEL001
   6
CONTINUOUS
  62
1
 100
AcDbPolyline
  90
3
  70
0
  10
 46.571414302854
  20
 212.00023333455
  10
 46.282739168142
  20
 212.50023333475
  10
 45.994064033430
  20
 212.00023333455
   0
LWPOLYLINE
   5
324
 100
AcDbEntity
   8
LEVEL001
   6
CONTINUOUS
  62
1
 100
AcDbPolyline
  90
3
  70
0
  10
 44.991414302854
  20
 212.00023333455
  10
 44.702739168142
  20
 212.50023333475
  10
 44.414064033429
  20
 212.00023333455
   0
LINE
   5
325
 100
AcDbEntity
   8
LEVEL001
 100
AcDbLine
   6
CONTINUOUS
  62
1
  10
 45.994064033430
  20
 212.00023333455
  30
0.0
  11
 44.991414302854
  21
 212.00023333455
  31
0.0
   0
LINE
   5
326
 100
AcDbEntity
   8
LEVEL001
 100
AcDbLine
   6
CONTINUOUS
  62
1
  10
 47.574064033430
  20
 212.00023333455
  30
0.0
  11
 46.571414302854
  21
 212.00023333455
  31
0.0
   0
LINE
   5
327
 100
AcDbEntity
   8
LEVEL001
 100
AcDbLine
   6
CONTINUOUS
  62
1
  10
 49.154064033430
  20
 212.00023333455
  30
0.0
  11
 48.151414302854
  21
 212.00023333455
  31
0.0
   0
LINE
   5
328
 100
AcDbEntity
   8
LEVEL001
 100
AcDbLine
   6
CONTINUOUS
  62
1
  10
 50.734064033430
  20
 212.00023333455
  30
0.0
  11
 49.731414302854
  21
 212.00023333455
  31
0.0
   0
LINE
   5
329
 100
AcDbEntity
   8
LEVEL001
 100
AcDbLine
   6
CONTINUOUS
  62
1
  10
 52.314064033430
  20
 212.00023333455
  30
0.0
  11
 51.311414302854
  21
 212.00023333455
  31
0.0
   0
LINE
   5
32A
 100
AcDbEntity
   8
LEVEL001
 100
AcDbLine
   6
CONTINUOUS
  62
1
  10
 53.894064033430
  20
 212.00023333455
  30
0.0
  11
 52.891414302854
  21
 212.00023333455
  31
0.0
   0
LINE
   5
32B
 100
AcDbEntity
   8
LEVEL001
 100
AcDbLine
   6
CONTINUOUS
  62
1
  10
 55.474064033430
  20
 212.00023333455
  30
0.0
  11
 54.471414302854
  21
 212.00023333455
  31
0.0
   0
LINE
   5
32C
 100
AcDbEntity
   8
LEVEL001
 100
AcDbLine
   6
CONTINUOUS
  62
1
  10
 57.054064033430
  20
 212.00023333455
  30
0.0
  11
 56.051414302854
  21
 212.00023333455
  31
0.0
   0
LWPOLYLINE
   5
32D
 100
AcDbEntity
   8
LEVEL001
   6
CONTINUOUS
  62
1
 100
AcDbPolyline
  90
3
  70
0
  10
 43.411414302737
  20
 212.00023333455
  10
 43.122739168024
  20
 212.50023333475
  10
 42.834064033312
  20
 212.00023333455
   0
LWPOLYLINE
   5
32E
 100
AcDbEntity
   8
LEVEL001
   6
CONTINUOUS
  62
1
 100
AcDbPolyline
  90
3
  70
0
  10
 41.831414302736
  20
 212.00023333455
  10
 41.542739168024
  20
 212.50023333475
  10
 41.254064033312
  20
 212.00023333455
   0
LINE
   5
32F
 100
AcDbEntity
   8
LEVEL001
 100
AcDbLine
   6
CONTINUOUS
  62
1
  10
 44.414064033312
  20
 212.00023333455
  30
0.0
  11
 43.378640912596
  21
 212.00023333455
  31
0.0
   0
ARC
   5
330
 100
AcDbEntity
   8
LEVEL001
   6
CONTINUOUS
  62
1
 100
AcDbCircle
  10
 43.439534222672
  20
 192.56743593568
  30
0.0
  40
 19.432892804231
 100
AcDbArc
  50
 91.778256619802
  51
 94.696047972733
   0
LWPOLYLINE
   5
331
 100
AcDbEntity
   8
LEVEL001
   6
CONTINUOUS
  62
1
 100
AcDbPolyline
  90
3
  70
0
  10
 38.823383529532
  20
 211.23076889493
  10
 38.534708394820
  20
 211.73076889514
  10
 38.246033260108
  20
 211.23076889493
   0
LWPOLYLINE
   5
332
 100
AcDbEntity
   8
LEVEL001
   6
CONTINUOUS
  62
1
 100
AcDbPolyline
  90
3
  70
0
  10
 40.325272773135
  20
 211.62626639574
  10
 40.036597638423
  20
 212.12626639595
  10
 39.747922503711
  20
 211.62626639574
   0
ARC
   5
333
 100
AcDbEntity
   8
LEVEL001
   6
CONTINUOUS
  62
1
 100
AcDbCircle
  10
 43.439534222671
  20
 192.56743593568
  30
0.0
  40
 19.432892804231
 100
AcDbArc
  50
 105.36912183054
  51
 110.40101745057
   0
ARC
   5
334
 100
AcDbEntity
   8
LEVEL001
   6
CONTINUOUS
  62
1
 100
AcDbCircle
  10
 43.439534222672
  20
 192.56743593568
  30
0.0
  40
 19.432892804231
 100
AcDbArc
  50
 100.91145635717
  51
 104.06890367747
   0
ARC
   5
335
 100
AcDbEntity
   8
LEVEL001
   6
CONTINUOUS
  62
1
 100
AcDbCircle
  10
 43.439534222672
  20
 192.56743593568
  30
0.0
  40
 19.432892804231
 100
AcDbArc
  50
 96.363803101873
  51
 99.415481496502
   0
LINE
   5
336
 100
AcDbEntity
   8
LEVEL001
 100
AcDbLine
   6
DOT
  62
1
  10
 58.634064033430
  20
 212.00023333455
  30
0.0
  11
 57.631414302854
  21
 212.00023333455
  31
0.0
   0
LWPOLYLINE
   5
337
 100
AcDbEntity
   8
LEVEL001
   6
DOT
  62
1
 100
AcDbPolyline
  90
3
  70
0
  10
 59.211414302854
  20
 212.00023333455
  10
 59.157465823006
  20
 211.31174394287
  10
 58.634064033430
  20
 212.00023333455
   0
LINE
   5
338
 100
AcDbEntity
   8
LEVEL001
 100
AcDbLine
   6
DOT
  62
1
  10
 59.157465823006
  20
 211.31174394287
  30
0.0
  11
 58.922739168142
  21
 212.50023333475
  31
0.0
   0
LWPOLYLINE
   5
339
 100
AcDbEntity
   8
LEVEL001
   6
DOT
  62
1
 100
AcDbPolyline
  90
3
  70
0
  10
 59.211414302854
  20
 212.00023333455
  10
 58.922739168142
  20
 212.50023333475
  10
 58.634064033430
  20
 212.00023333455
   0
LINE
   5
33A
 100
AcDbEntity
   8
LEVEL001
 100
AcDbLine
   6
DOT
  62
1
  10
 61.212739168012
  20
 212.00023333455
  30
0.0
  11
 59.211414302854
  21
 212.00023333455
  31
0.0
   0
LWPOLYLINE
   5
33B
 100
AcDbEntity
   8
LEVEL001
   6
DOT
  62
1
 100
AcDbPolyline
  90
4
  70
0
  10
 61.501183587056
  20
 215.20023333455
  10
 61.212739168012
  20
 215.20023333455
  10
 61.212739168012
  20
 205.80023333455
  10
 61.501183587056
  20
 205.80023333455
   0
ARC
   5
33C
 100
AcDbEntity
   8
LEVEL001
   6
DOT
  62
1
 100
AcDbCircle
  10
 57.612739168012
  20
 210.50023333455
  30
0.0
  40
 6.1000000000000
 100
AcDbArc
  50
 6.1169011401321
  51
 50.398072918891
   0
LINE
   5
33D
 100
AcDbEntity
   8
LEVEL001
 100
AcDbLine
   6
DOT
  62
1
  10
 61.501183587056
  20
 205.80023333455
  30
0.0
  11
 61.501183587056
  21
 215.20023333455
  31
0.0
   0
LWPOLYLINE
   5
33E
 100
AcDbEntity
   8
LEVEL001
   6
DOT
  62
1
 100
AcDbPolyline
  90
4
  70
0
  10
 63.678009153762
  20
 209.85023333459
  10
 63.212739168012
  20
 209.85023333459
  10
 63.212739168012
  20
 211.15023333459
  10
 63.678009153754
  20
 211.15023333459
   0
LINE
   5
33F
 100
AcDbEntity
   8
LEVEL001
 100
AcDbLine
   6
DOT
  62
1
  10
 61.212739168012
  20
 209.00023333455
  30
0.0
  11
 58.421414302841
  21
 209.00023333455
  31
0.0
   0
ARC
   5
340
 100
AcDbEntity
   8
LEVEL001
   6
DOT
  62
1
 100
AcDbCircle
  10
 57.612739168012
  20
 210.50023333455
  30
0.0
  40
 6.1000000000000
 100
AcDbArc
  50
 309.60192708111
  51
 353.88309886055
   0
ENDBLK
   5
341
 100
AcDbEntity
   8
0
 100
AcDbBlockEnd
   0
BLOCK
   5
342
 100
AcDbEntity
   8
0
 100
AcDbBlockBegin
   2
BLOCK009
  70
64
  10
0.0
  20
0.0
  30
0.0
   3
BLOCK009
   0
LWPOLYLINE
   5
343
 100
AcDbEntity
   8
LEVEL001
   6
CONTINUOUS
  62
1
 100
AcDbPolyline
  90
3
  70
0
  10
 58.421414302788
  20
 229.00023333475
  10
 58.132739168076
  20
 228.50023333455
  10
 57.844064033364
  20
 229.00023333475
   0
LWPOLYLINE
   5
344
 100
AcDbEntity
   8
LEVEL001
   6
CONTINUOUS
  62
1
 100
AcDbPolyline
  90
3
  70
0
  10
 56.841414302788
  20
 229.00023333475
  10
 56.552739168076
  20
 228.50023333455
  10
 56.264064033364
  20
 229.00023333475
   0
LINE
   5
345
 100
AcDbEntity
   8
LEVEL001
 100
AcDbLine
   6
CONTINUOUS
  62
1
  10
 58.132739168076
  20
 228.50023333455
  30
0.0
  11
 57.342739168142
  21
 232.50023333475
  31
0.0
   0
LINE
   5
346
 100
AcDbEntity
   8
LEVEL001
 100
AcDbLine
   6
CONTINUOUS
  62
1
  10
 56.552739168076
  20
 228.50023333455
  30
0.0
  11
 55.762739168142
  21
 232.50023333475
  31
0.0
   0
LINE
   5
347
 100
AcDbEntity
   8
LEVEL001
 100
AcDbLine
   6
CONTINUOUS
  62
1
  10
 58.421414302788
  20
 229.00023333475
  30
0.0
  11
 57.631414302854
  21
 232.00023333455
  31
0.0
   0
LINE
   5
348
 100
AcDbEntity
   8
LEVEL001
 100
AcDbLine
   6
CONTINUOUS
  62
1
  10
 57.844064033364
  20
 229.00023333475
  30
0.0
  11
 57.054064033430
  21
 232.00023333455
  31
0.0
   0
LINE
   5
349
 100
AcDbEntity
   8
LEVEL001
 100
AcDbLine
   6
CONTINUOUS
  62
1
  10
 56.841414302788
  20
 229.00023333475
  30
0.0
  11
 56.051414302854
  21
 232.00023333455
  31
0.0
   0
LINE
   5
34A
 100
AcDbEntity
   8
LEVEL001
 100
AcDbLine
   6
CONTINUOUS
  62
1
  10
 55.474064033430
  20
 232.00023333455
  30
0.0
  11
 56.264064033364
  21
 229.00023333475
  31
0.0
   0
LINE
   5
34B
 100
AcDbEntity
   8
LEVEL001
 100
AcDbLine
   6
CONTINUOUS
  62
1
  10
 54.972739168076
  20
 228.50023333455
  30
0.0
  11
 54.182739168142
  21
 232.50023333475
  31
0.0
   0
LINE
   5
34C
 100
AcDbEntity
   8
LEVEL001
 100
AcDbLine
   6
CONTINUOUS
  62
1
  10
 53.392739168076
  20
 228.50023333455
  30
0.0
  11
 52.602739168142
  21
 232.50023333475
  31
0.0
   0
LINE
   5
34D
 100
AcDbEntity
   8
LEVEL001
 100
AcDbLine
   6
CONTINUOUS
  62
1
  10
 55.261414302788
  20
 229.00023333475
  30
0.0
  11
 54.471414302854
  21
 232.00023333455
  31
0.0
   0
LINE
   5
34E
 100
AcDbEntity
   8
LEVEL001
 100
AcDbLine
   6
CONTINUOUS
  62
1
  10
 54.684064033364
  20
 229.00023333475
  30
0.0
  11
 53.894064033430
  21
 232.00023333455
  31
0.0
   0
LINE
   5
34F
 100
AcDbEntity
   8
LEVEL001
 100
AcDbLine
   6
CONTINUOUS
  62
1
  10
 53.681414302788
  20
 229.00023333475
  30
0.0
  11
 52.891414302854
  21
 232.00023333455
  31
0.0
   0
LINE
   5
350
 100
AcDbEntity
   8
LEVEL001
 100
AcDbLine
   6
CONTINUOUS
  62
1
  10
 52.314064033430
  20
 232.00023333455
  30
0.0
  11
 53.104064033363
  21
 229.00023333475
  31
0.0
   0
LWPOLYLINE
   5
351
 100
AcDbEntity
   8
LEVEL001
   6
CONTINUOUS
  62
1
 100
AcDbPolyline
  90
3
  70
0
  10
 55.261414302788
  20
 229.00023333475
  10
 54.972739168076
  20
 228.50023333455
  10
 54.684064033364
  20
 229.00023333475
   0
LWPOLYLINE
   5
352
 100
AcDbEntity
   8
LEVEL001
   6
CONTINUOUS
  62
1
 100
AcDbPolyline
  90
3
  70
0
  10
 53.681414302788
  20
 229.00023333475
  10
 53.392739168076
  20
 228.50023333455
  10
 53.104064033363
  20
 229.00023333475
   0
LINE
   5
353
 100
AcDbEntity
   8
LEVEL001
 100
AcDbLine
   6
CONTINUOUS
  62
1
  10
 51.812739168076
  20
 228.50023333455
  30
0.0
  11
 51.022739168142
  21
 232.50023333475
  31
0.0
   0
LINE
   5
354
 100
AcDbEntity
   8
LEVEL001
 100
AcDbLine
   6
CONTINUOUS
  62
1
  10
 50.232739168075
  20
 228.50023333455
  30
0.0
  11
 49.442739168142
  21
 232.50023333475
  31
0.0
   0
LINE
   5
355
 100
AcDbEntity
   8
LEVEL001
 100
AcDbLine
   6
CONTINUOUS
  62
1
  10
 52.101414302788
  20
 229.00023333475
  30
0.0
  11
 51.311414302854
  21
 232.00023333455
  31
0.0
   0
LINE
   5
356
 100
AcDbEntity
   8
LEVEL001
 100
AcDbLine
   6
CONTINUOUS
  62
1
  10
 51.524064033363
  20
 229.00023333475
  30
0.0
  11
 50.734064033430
  21
 232.00023333455
  31
0.0
   0
LINE
   5
357
 100
AcDbEntity
   8
LEVEL001
 100
AcDbLine
   6
CONTINUOUS
  62
1
  10
 50.521414302788
  20
 229.00023333475
  30
0.0
  11
 49.731414302854
  21
 232.00023333455
  31
0.0
   0
LINE
   5
358
 100
AcDbEntity
   8
LEVEL001
 100
AcDbLine
   6
CONTINUOUS
  62
1
  10
 49.154064033430
  20
 232.00023333455
  30
0.0
  11
 49.944064033363
  21
 229.00023333475
  31
0.0
   0
LWPOLYLINE
   5
359
 100
AcDbEntity
   8
LEVEL001
   6
CONTINUOUS
  62
1
 100
AcDbPolyline
  90
3
  70
0
  10
 52.101414302788
  20
 229.00023333475
  10
 51.812739168076
  20
 228.50023333455
  10
 51.524064033363
  20
 229.00023333475
   0
LWPOLYLINE
   5
35A
 100
AcDbEntity
   8
LEVEL001
   6
CONTINUOUS
  62
1
 100
AcDbPolyline
  90
3
  70
0
  10
 50.521414302788
  20
 229.00023333475
  10
 50.232739168075
  20
 228.50023333455
  10
 49.944064033363
  20
 229.00023333475
   0
LINE
   5
35B
 100
AcDbEntity
   8
LEVEL001
 100
AcDbLine
   6
CONTINUOUS
  62
1
  10
 48.652739168075
  20
 228.50023333455
  30
0.0
  11
 47.862739168142
  21
 232.50023333475
  31
0.0
   0
LINE
   5
35C
 100
AcDbEntity
   8
LEVEL001
 100
AcDbLine
   6
CONTINUOUS
  62
1
  10
 47.072739168075
  20
 228.50023333455
  30
0.0
  11
 46.282739168142
  21
 232.50023333475
  31
0.0
   0
LINE
   5
35D
 100
AcDbEntity
   8
LEVEL001
 100
AcDbLine
   6
CONTINUOUS
  62
1
  10
 48.941414302788
  20
 229.00023333475
  30
0.0
  11
 48.151414302854
  21
 232.00023333455
  31
0.0
   0
LINE
   5
35E
 100
AcDbEntity
   8
LEVEL001
 100
AcDbLine
   6
CONTINUOUS
  62
1
  10
 48.364064033363
  20
 229.00023333475
  30
0.0
  11
 47.574064033430
  21
 232.00023333455
  31
0.0
   0
LINE
   5
35F
 100
AcDbEntity
   8
LEVEL001
 100
AcDbLine
   6
CONTINUOUS
  62
1
  10
 47.361414302788
  20
 229.00023333475
  30
0.0
  11
 46.571414302854
  21
 232.00023333455
  31
0.0
   0
LINE
   5
360
 100
AcDbEntity
   8
LEVEL001
 100
AcDbLine
   6
CONTINUOUS
  62
1
  10
 45.994064033430
  20
 232.00023333455
  30
0.0
  11
 46.784064033363
  21
 229.00023333475
  31
0.0
   0
LWPOLYLINE
   5
361
 100
AcDbEntity
   8
LEVEL001
   6
CONTINUOUS
  62
1
 100
AcDbPolyline
  90
3
  70
0
  10
 48.941414302788
  20
 229.00023333475
  10
 48.652739168075
  20
 228.50023333455
  10
 48.364064033363
  20
 229.00023333475
   0
LWPOLYLINE
   5
362
 100
AcDbEntity
   8
LEVEL001
   6
CONTINUOUS
  62
1
 100
AcDbPolyline
  90
3
  70
0
  10
 47.361414302788
  20
 229.00023333475
  10
 47.072739168075
  20
 228.50023333455
  10
 46.784064033363
  20
 229.00023333475
   0
LINE
   5
363
 100
AcDbEntity
   8
LEVEL001
 100
AcDbLine
   6
CONTINUOUS
  62
1
  10
 45.492739168075
  20
 228.50023333455
  30
0.0
  11
 44.702739168142
  21
 232.50023333475
  31
0.0
   0
LINE
   5
364
 100
AcDbEntity
   8
LEVEL001
 100
AcDbLine
   6
CONTINUOUS
  62
1
  10
 45.781414302787
  20
 229.00023333475
  30
0.0
  11
 44.991414302854
  21
 232.00023333455
  31
0.0
   0
LINE
   5
365
 100
AcDbEntity
   8
LEVEL001
 100
AcDbLine
   6
CONTINUOUS
  62
1
  10
 45.204064033363
  20
 229.00023333475
  30
0.0
  11
 44.414064033429
  21
 232.00023333455
  31
0.0
   0
LWPOLYLINE
   5
366
 100
AcDbEntity
   8
LEVEL001
   6
CONTINUOUS
  62
1
 100
AcDbPolyline
  90
3
  70
0
  10
 45.781414302787
  20
 229.00023333475
  10
 45.492739168075
  20
 228.50023333455
  10
 45.204064033363
  20
 229.00023333475
   0
LINE
   5
367
 100
AcDbEntity
   8
LEVEL001
 100
AcDbLine
   6
CONTINUOUS
  62
1
  10
 46.784064033481
  20
 229.00023333455
  30
0.0
  11
 45.781414302670
  21
 229.00023333455
  31
0.0
   0
LINE
   5
368
 100
AcDbEntity
   8
LEVEL001
 100
AcDbLine
   6
CONTINUOUS
  62
1
  10
 48.364064033481
  20
 229.00023333455
  30
0.0
  11
 47.361414302670
  21
 229.00023333455
  31
0.0
   0
LINE
   5
369
 100
AcDbEntity
   8
LEVEL001
 100
AcDbLine
   6
CONTINUOUS
  62
1
  10
 49.944064033481
  20
 229.00023333455
  30
0.0
  11
 48.941414302670
  21
 229.00023333455
  31
0.0
   0
LINE
   5
36A
 100
AcDbEntity
   8
LEVEL001
 100
AcDbLine
   6
CONTINUOUS
  62
1
  10
 51.524064033481
  20
 229.00023333455
  30
0.0
  11
 50.521414302670
  21
 229.00023333455
  31
0.0
   0
LINE
   5
36B
 100
AcDbEntity
   8
LEVEL001
 100
AcDbLine
   6
CONTINUOUS
  62
1
  10
 53.104064033481
  20
 229.00023333455
  30
0.0
  11
 52.101414302670
  21
 229.00023333455
  31
0.0
   0
LINE
   5
36C
 100
AcDbEntity
   8
LEVEL001
 100
AcDbLine
   6
CONTINUOUS
  62
1
  10
 54.684064033481
  20
 229.00023333455
  30
0.0
  11
 53.681414302670
  21
 229.00023333455
  31
0.0
   0
LINE
   5
36D
 100
AcDbEntity
   8
LEVEL001
 100
AcDbLine
   6
CONTINUOUS
  62
1
  10
 56.264064033417
  20
 229.00023333455
  30
0.0
  11
 55.261414302671
  21
 229.00023333455
  31
0.0
   0
LINE
   5
36E
 100
AcDbEntity
   8
LEVEL001
 100
AcDbLine
   6
CONTINUOUS
  62
1
  10
 57.844064033417
  20
 229.00023333455
  30
0.0
  11
 56.841414302841
  21
 229.00023333455
  31
0.0
   0
LINE
   5
36F
 100
AcDbEntity
   8
LEVEL001
 100
AcDbLine
   6
CONTINUOUS
  62
1
  10
 43.912739167958
  20
 228.50023333455
  30
0.0
  11
 43.122739168024
  21
 232.50023333475
  31
0.0
   0
LINE
   5
370
 100
AcDbEntity
   8
LEVEL001
 100
AcDbLine
   6
CONTINUOUS
  62
1
  10
 42.332739167958
  20
 228.50023333455
  30
0.0
  11
 41.542739168024
  21
 232.50023333475
  31
0.0
   0
LINE
   5
371
 100
AcDbEntity
   8
LEVEL001
 100
AcDbLine
   6
CONTINUOUS
  62
1
  10
 44.201414302670
  20
 229.00023333475
  30
0.0
  11
 43.411414302737
  21
 232.00023333455
  31
0.0
   0
LINE
   5
372
 100
AcDbEntity
   8
LEVEL001
 100
AcDbLine
   6
CONTINUOUS
  62
1
  10
 43.624064033246
  20
 229.00023333475
  30
0.0
  11
 42.834064033312
  21
 232.00023333455
  31
0.0
   0
LINE
   5
373
 100
AcDbEntity
   8
LEVEL001
 100
AcDbLine
   6
CONTINUOUS
  62
1
  10
 42.621414302670
  20
 229.00023333475
  30
0.0
  11
 41.831414302736
  21
 232.00023333455
  31
0.0
   0
LINE
   5
374
 100
AcDbEntity
   8
LEVEL001
 100
AcDbLine
   6
CONTINUOUS
  62
1
  10
 41.254064033312
  20
 232.00023333455
  30
0.0
  11
 42.044064033246
  21
 229.00023333475
  31
0.0
   0
LWPOLYLINE
   5
375
 100
AcDbEntity
   8
LEVEL001
   6
CONTINUOUS
  62
1
 100
AcDbPolyline
  90
3
  70
0
  10
 44.201414302670
  20
 229.00023333475
  10
 43.912739167958
  20
 228.50023333455
  10
 43.624064033246
  20
 229.00023333475
   0
LWPOLYLINE
   5
376
 100
AcDbEntity
   8
LEVEL001
   6
CONTINUOUS
  62
1
 100
AcDbPolyline
  90
3
  70
0
  10
 42.621414302670
  20
 229.00023333475
  10
 42.332739167958
  20
 228.50023333455
  10
 42.044064033246
  20
 229.00023333475
   0
ARC
   5
377
 100
AcDbEntity
   8
LEVEL001
   6
CONTINUOUS
  62
1
 100
AcDbCircle
  10
 36.770024157510
  20
 230.50023333455
  30
0.0
  40
 0.30000000000000
 100
AcDbArc
  50
 110.40101745057
  51
 249.59898254943
   0
ARC
   5
378
 100
AcDbEntity
   8
LEVEL001
   6
CONTINUOUS
  62
1
 100
AcDbCircle
  10
 43.439534222671
  20
 248.43303073342
  30
0.0
  40
 19.432892804231
 100
AcDbArc
  50
 267.57368457359
  51
 269.82046237724
   0
LINE
   5
379
 100
AcDbEntity
   8
LEVEL001
 100
AcDbLine
   6
CONTINUOUS
  62
1
  10
 43.624064033363
  20
 229.00023333455
  30
0.0
  11
 43.378640912596
  21
 229.00023333455
  31
0.0
   0
LINE
   5
37A
 100
AcDbEntity
   8
LEVEL001
 100
AcDbLine
   6
CONTINUOUS
  62
1
  10
 45.204064033363
  20
 229.00023333455
  30
0.0
  11
 44.201414302553
  21
 229.00023333455
  31
0.0
   0
LWPOLYLINE
   5
37B
 100
AcDbEntity
   8
LEVEL001
   6
CONTINUOUS
  62
1
 100
AcDbPolyline
  90
3
  70
0
  10
 39.333622802748
  20
 229.64727890389
  10
 39.044947668036
  20
 229.14727890369
  10
 38.756272533324
  20
 229.64727890389
   0
LWPOLYLINE
   5
37C
 100
AcDbEntity
   8
LEVEL001
   6
CONTINUOUS
  62
1
 100
AcDbPolyline
  90
3
  70
0
  10
 40.992215336436
  20
 229.24934202430
  10
 40.703540201724
  20
 228.74934202409
  10
 40.414865067012
  20
 229.24934202430
   0
LINE
   5
37D
 100
AcDbEntity
   8
LEVEL001
 100
AcDbLine
   6
CONTINUOUS
  62
1
  10
 39.044947668036
  20
 229.14727890369
  30
0.0
  11
 38.534708394820
  21
 231.73076889514
  31
0.0
   0
LINE
   5
37E
 100
AcDbEntity
   8
LEVEL001
 100
AcDbLine
   6
CONTINUOUS
  62
1
  10
 39.333622802748
  20
 229.64727890389
  30
0.0
  11
 38.823383529532
  21
 231.23076889493
  31
0.0
   0
LINE
   5
37F
 100
AcDbEntity
   8
LEVEL001
 100
AcDbLine
   6
CONTINUOUS
  62
1
  10
 38.246033260108
  20
 231.23076889493
  30
0.0
  11
 38.756272533324
  21
 229.64727890389
  31
0.0
   0
LINE
   5
380
 100
AcDbEntity
   8
LEVEL001
 100
AcDbLine
   6
CONTINUOUS
  62
1
  10
 40.703540201724
  20
 228.74934202409
  30
0.0
  11
 40.036597638423
  21
 232.12626639595
  31
0.0
   0
LINE
   5
381
 100
AcDbEntity
   8
LEVEL001
 100
AcDbLine
   6
CONTINUOUS
  62
1
  10
 40.992215336436
  20
 229.24934202430
  30
0.0
  11
 40.325272773135
  21
 231.62626639574
  31
0.0
   0
LINE
   5
382
 100
AcDbEntity
   8
LEVEL001
 100
AcDbLine
   6
CONTINUOUS
  62
1
  10
 40.414865067012
  20
 229.24934202430
  30
0.0
  11
 39.747922503711
  21
 231.62626639574
  31
0.0
   0
ARC
   5
383
 100
AcDbEntity
   8
LEVEL001
   6
CONTINUOUS
  62
1
 100
AcDbCircle
  10
 43.439534222670
  20
 248.43303073342
  30
0.0
  40
 19.432892804231
 100
AcDbArc
  50
 249.59898254943
  51
 256.20671778615
   0
ARC
   5
384
 100
AcDbEntity
   8
LEVEL001
   6
CONTINUOUS
  62
1
 100
AcDbCircle
  10
 43.439534222672
  20
 248.43303073342
  30
0.0
  40
 19.432892804231
 100
AcDbArc
  50
 257.47980993435
  51
 261.06913237483
   0
ARC
   5
385
 100
AcDbEntity
   8
LEVEL001
   6
CONTINUOUS
  62
1
 100
AcDbCircle
  10
 43.439534222669
  20
 248.43303073342
  30
0.0
  40
 19.432892804231
 100
AcDbArc
  50
 262.61416197797
  51
 265.84232684044
   0
LWPOLYLINE
   5
386
 100
AcDbEntity
   8
LEVEL001
   6
CONTINUOUS
  62
1
 100
AcDbPolyline
  90
3
  70
0
  10
 57.631414302854
  20
 232.00023333455
  10
 57.342739168142
  20
 232.50023333475
  10
 57.054064033430
  20
 232.00023333455
   0
LWPOLYLINE
   5
387
 100
AcDbEntity
   8
LEVEL001
   6
CONTINUOUS
  62
1
 100
AcDbPolyline
  90
3
  70
0
  10
 56.051414302854
  20
 232.00023333455
  10
 55.762739168142
  20
 232.50023333475
  10
 55.474064033430
  20
 232.00023333455
   0
LWPOLYLINE
   5
388
 100
AcDbEntity
   8
LEVEL001
   6
CONTINUOUS
  62
1
 100
AcDbPolyline
  90
3
  70
0
  10
 54.471414302854
  20
 232.00023333455
  10
 54.182739168142
  20
 232.50023333475
  10
 53.894064033430
  20
 232.00023333455
   0
LWPOLYLINE
   5
389
 100
AcDbEntity
   8
LEVEL001
   6
CONTINUOUS
  62
1
 100
AcDbPolyline
  90
3
  70
0
  10
 52.891414302854
  20
 232.00023333455
  10
 52.602739168142
  20
 232.50023333475
  10
 52.314064033430
  20
 232.00023333455
   0
LWPOLYLINE
   5
38A
 100
AcDbEntity
   8
LEVEL001
   6
CONTINUOUS
  62
1
 100
AcDbPolyline
  90
3
  70
0
  10
 51.311414302854
  20
 232.00023333455
  10
 51.022739168142
  20
 232.50023333475
  10
 50.734064033430
  20
 232.00023333455
   0
LWPOLYLINE
   5
38B
 100
AcDbEntity
   8
LEVEL001
   6
CONTINUOUS
  62
1
 100
AcDbPolyline
  90
3
  70
0
  10
 49.731414302854
  20
 232.00023333455
  10
 49.442739168142
  20
 232.50023333475
  10
 49.154064033430
  20
 232.00023333455
   0
LWPOLYLINE
   5
38C
 100
AcDbEntity
   8
LEVEL001
   6
CONTINUOUS
  62
1
 100
AcDbPolyline
  90
3
  70
0
  10
 48.151414302854
  20
 232.00023333455
  10
 47.862739168142
  20
 232.50023333475
  10
 47.574064033430
  20
 232.00023333455
   0
LWPOLYLINE
   5
38D
 100
AcDbEntity
   8
LEVEL001
   6
CONTINUOUS
  62
1
 100
AcDbPolyline
  90
3
  70
0
  10
 46.571414302854
  20
 232.00023333455
  10
 46.282739168142
  20
 232.50023333475
  10
 45.994064033430
  20
 232.00023333455
   0
LWPOLYLINE
   5
38E
 100
AcDbEntity
   8
LEVEL001
   6
CONTINUOUS
  62
1
 100
AcDbPolyline
  90
3
  70
0
  10
 44.991414302854
  20
 232.00023333455
  10
 44.702739168142
  20
 232.50023333475
  10
 44.414064033429
  20
 232.00023333455
   0
LINE
   5
38F
 100
AcDbEntity
   8
LEVEL001
 100
AcDbLine
   6
CONTINUOUS
  62
1
  10
 45.994064033430
  20
 232.00023333455
  30
0.0
  11
 44.991414302854
  21
 232.00023333455
  31
0.0
   0
LINE
   5
390
 100
AcDbEntity
   8
LEVEL001
 100
AcDbLine
   6
CONTINUOUS
  62
1
  10
 47.574064033430
  20
 232.00023333455
  30
0.0
  11
 46.571414302854
  21
 232.00023333455
  31
0.0
   0
LINE
   5
391
 100
AcDbEntity
   8
LEVEL001
 100
AcDbLine
   6
CONTINUOUS
  62
1
  10
 49.154064033430
  20
 232.00023333455
  30
0.0
  11
 48.151414302854
  21
 232.00023333455
  31
0.0
   0
LINE
   5
392
 100
AcDbEntity
   8
LEVEL001
 100
AcDbLine
   6
CONTINUOUS
  62
1
  10
 50.734064033430
  20
 232.00023333455
  30
0.0
  11
 49.731414302854
  21
 232.00023333455
  31
0.0
   0
LINE
   5
393
 100
AcDbEntity
   8
LEVEL001
 100
AcDbLine
   6
CONTINUOUS
  62
1
  10
 52.314064033430
  20
 232.00023333455
  30
0.0
  11
 51.311414302854
  21
 232.00023333455
  31
0.0
   0
LINE
   5
394
 100
AcDbEntity
   8
LEVEL001
 100
AcDbLine
   6
CONTINUOUS
  62
1
  10
 53.894064033430
  20
 232.00023333455
  30
0.0
  11
 52.891414302854
  21
 232.00023333455
  31
0.0
   0
LINE
   5
395
 100
AcDbEntity
   8
LEVEL001
 100
AcDbLine
   6
CONTINUOUS
  62
1
  10
 55.474064033430
  20
 232.00023333455
  30
0.0
  11
 54.471414302854
  21
 232.00023333455
  31
0.0
   0
LINE
   5
396
 100
AcDbEntity
   8
LEVEL001
 100
AcDbLine
   6
CONTINUOUS
  62
1
  10
 57.054064033430
  20
 232.00023333455
  30
0.0
  11
 56.051414302854
  21
 232.00023333455
  31
0.0
   0
LWPOLYLINE
   5
397
 100
AcDbEntity
   8
LEVEL001
   6
CONTINUOUS
  62
1
 100
AcDbPolyline
  90
3
  70
0
  10
 43.411414302737
  20
 232.00023333455
  10
 43.122739168024
  20
 232.50023333475
  10
 42.834064033312
  20
 232.00023333455
   0
LWPOLYLINE
   5
398
 100
AcDbEntity
   8
LEVEL001
   6
CONTINUOUS
  62
1
 100
AcDbPolyline
  90
3
  70
0
  10
 41.831414302736
  20
 232.00023333455
  10
 41.542739168024
  20
 232.50023333475
  10
 41.254064033312
  20
 232.00023333455
   0
LINE
   5
399
 100
AcDbEntity
   8
LEVEL001
 100
AcDbLine
   6
CONTINUOUS
  62
1
  10
 44.414064033312
  20
 232.00023333455
  30
0.0
  11
 43.378640912596
  21
 232.00023333455
  31
0.0
   0
ARC
   5
39A
 100
AcDbEntity
   8
LEVEL001
   6
CONTINUOUS
  62
1
 100
AcDbCircle
  10
 43.439534222672
  20
 212.56743593568
  30
0.0
  40
 19.432892804231
 100
AcDbArc
  50
 91.778256619802
  51
 94.696047972733
   0
LWPOLYLINE
   5
39B
 100
AcDbEntity
   8
LEVEL001
   6
CONTINUOUS
  62
1
 100
AcDbPolyline
  90
3
  70
0
  10
 38.823383529532
  20
 231.23076889493
  10
 38.534708394820
  20
 231.73076889514
  10
 38.246033260108
  20
 231.23076889493
   0
LWPOLYLINE
   5
39C
 100
AcDbEntity
   8
LEVEL001
   6
CONTINUOUS
  62
1
 100
AcDbPolyline
  90
3
  70
0
  10
 40.325272773135
  20
 231.62626639574
  10
 40.036597638423
  20
 232.12626639595
  10
 39.747922503711
  20
 231.62626639574
   0
ARC
   5
39D
 100
AcDbEntity
   8
LEVEL001
   6
CONTINUOUS
  62
1
 100
AcDbCircle
  10
 43.439534222671
  20
 212.56743593568
  30
0.0
  40
 19.432892804231
 100
AcDbArc
  50
 105.36912183054
  51
 110.40101745057
   0
ARC
   5
39E
 100
AcDbEntity
   8
LEVEL001
   6
CONTINUOUS
  62
1
 100
AcDbCircle
  10
 43.439534222672
  20
 212.56743593568
  30
0.0
  40
 19.432892804231
 100
AcDbArc
  50
 100.91145635717
  51
 104.06890367747
   0
ARC
   5
39F
 100
AcDbEntity
   8
LEVEL001
   6
CONTINUOUS
  62
1
 100
AcDbCircle
  10
 43.439534222672
  20
 212.56743593568
  30
0.0
  40
 19.432892804231
 100
AcDbArc
  50
 96.363803101873
  51
 99.415481496502
   0
LINE
   5
3A0
 100
AcDbEntity
   8
LEVEL001
 100
AcDbLine
   6
DOT
  62
1
  10
 58.634064033430
  20
 232.00023333455
  30
0.0
  11
 57.631414302854
  21
 232.00023333455
  31
0.0
   0
LWPOLYLINE
   5
3A1
 100
AcDbEntity
   8
LEVEL001
   6
DOT
  62
1
 100
AcDbPolyline
  90
3
  70
0
  10
 59.211414302854
  20
 232.00023333455
  10
 59.157465823006
  20
 231.31174394287
  10
 58.634064033430
  20
 232.00023333455
   0
LINE
   5
3A2
 100
AcDbEntity
   8
LEVEL001
 100
AcDbLine
   6
DOT
  62
1
  10
 59.157465823006
  20
 231.31174394287
  30
0.0
  11
 58.922739168142
  21
 232.50023333475
  31
0.0
   0
LWPOLYLINE
   5
3A3
 100
AcDbEntity
   8
LEVEL001
   6
DOT
  62
1
 100
AcDbPolyline
  90
3
  70
0
  10
 59.211414302854
  20
 232.00023333455
  10
 58.922739168142
  20
 232.50023333475
  10
 58.634064033430
  20
 232.00023333455
   0
LINE
   5
3A4
 100
AcDbEntity
   8
LEVEL001
 100
AcDbLine
   6
DOT
  62
1
  10
 61.212739168012
  20
 232.00023333455
  30
0.0
  11
 59.211414302854
  21
 232.00023333455
  31
0.0
   0
LWPOLYLINE
   5
3A5
 100
AcDbEntity
   8
LEVEL001
   6
DOT
  62
1
 100
AcDbPolyline
  90
4
  70
0
  10
 61.501183587056
  20
 235.20023333455
  10
 61.212739168012
  20
 235.20023333455
  10
 61.212739168012
  20
 225.80023333455
  10
 61.501183587056
  20
 225.80023333455
   0
ARC
   5
3A6
 100
AcDbEntity
   8
LEVEL001
   6
DOT
  62
1
 100
AcDbCircle
  10
 57.612739168012
  20
 230.50023333455
  30
0.0
  40
 6.1000000000000
 100
AcDbArc
  50
 6.1169011401321
  51
 50.398072918891
   0
LINE
   5
3A7
 100
AcDbEntity
   8
LEVEL001
 100
AcDbLine
   6
DOT
  62
1
  10
 61.501183587056
  20
 225.80023333455
  30
0.0
  11
 61.501183587056
  21
 235.20023333455
  31
0.0
   0
LWPOLYLINE
   5
3A8
 100
AcDbEntity
   8
LEVEL001
   6
DOT
  62
1
 100
AcDbPolyline
  90
4
  70
0
  10
 63.678009153762
  20
 229.85023333459
  10
 63.212739168012
  20
 229.85023333459
  10
 63.212739168012
  20
 231.15023333459
  10
 63.678009153754
  20
 231.15023333459
   0
LINE
   5
3A9
 100
AcDbEntity
   8
LEVEL001
 100
AcDbLine
   6
DOT
  62
1
  10
 61.212739168012
  20
 229.00023333455
  30
0.0
  11
 58.421414302841
  21
 229.00023333455
  31
0.0
   0
ARC
   5
3AA
 100
AcDbEntity
   8
LEVEL001
   6
DOT
  62
1
 100
AcDbCircle
  10
 57.612739168012
  20
 230.50023333455
  30
0.0
  40
 6.1000000000000
 100
AcDbArc
  50
 309.60192708111
  51
 353.88309886055
   0
ENDBLK
   5
3AB
 100
AcDbEntity
   8
0
 100
AcDbBlockEnd
   0
ENDSEC
   0
SECTION
   2
ENTITIES
   0
ARC
   5
3AC
 100
AcDbEntity
   8
LEVEL001
   6
CONTINUOUS
  62
7
 100
AcDbCircle
  10
 203.54796686929
  20
 210.97023333455
  30
0.0
  40
 6.6406250000000
 100
AcDbArc
  50
 314.33269164416
  51
 45.667308355835
   0
ARC
   5
3AD
 100
AcDbEntity
   8
LEVEL001
   6
CONTINUOUS
  62
7
 100
AcDbCircle
  10
 212.82921686929
  20
 210.97023333455
  30
0.0
  40
 6.6406250000000
 100
AcDbArc
  50
 134.33269164416
  51
 225.66730835584
   0
ARC
   5
3AE
 100
AcDbEntity
   8
LEVEL001
   6
CONTINUOUS
  62
7
 100
AcDbCircle
  10
 203.54796686929
  20
 220.47023333455
  30
0.0
  40
 6.6406250000000
 100
AcDbArc
  50
 314.33269164417
  51
 45.667308355835
   0
LINE
   5
3AF
 100
AcDbEntity
   8
LEVEL001
 100
AcDbLine
   6
CONTINUOUS
  62
7
  10
 59.212739168236
  20
 241.00023333455
  30
0.0
  11
 59.212739168236
  21
 197.00023333455
  31
0.0
   0
LINE
   5
3B0
 100
AcDbEntity
   8
LEVEL001
 100
AcDbLine
   6
CONTINUOUS
  62
7
  10
 86.212739167936
  20
 215.85023333455
  30
0.0
  11
 86.212739167936
  21
 200.69508959777
  31
0.0
   0
ARC
   5
3B1
 100
AcDbEntity
   8
LEVEL001
   6
CONTINUOUS
  62
7
 100
AcDbCircle
  10
 84.212739167936
  20
 200.69508959777
  30
0.0
  40
 2.0000000000000
 100
AcDbArc
  50
 275.00000000000
  51
 0.81422199845466E-12
   0
LINE
   5
3B2
 100
AcDbEntity
   8
LEVEL001
 100
AcDbLine
   6
CONTINUOUS
  62
7
  10
 84.387050653431
  20
 198.70270020158
  30
0.0
  11
 59.212739168143
  21
 196.50023333455
  31
0.0
   0
LINE
   5
3B3
 100
AcDbEntity
   8
LEVEL001
 100
AcDbLine
   6
CONTINUOUS
  62
7
  10
 59.212739167838
  20
 241.50023333454
  30
0.0
  11
 85.351912268896
  21
 237.82661212848
  31
0.0
   0
ARC
   5
3B4
 100
AcDbEntity
   8
LEVEL001
   6
CONTINUOUS
  62
7
 100
AcDbCircle
  10
 85.212739167936
  20
 236.83634405974
  30
0.0
  40
 1.0000000000000
 100
AcDbArc
  50
0.0
  51
 81.999999999999
   0
LINE
   5
3B5
 100
AcDbEntity
   8
LEVEL001
 100
AcDbLine
   6
CONTINUOUS
  62
7
  10
 86.212739167936
  20
 236.83634405974
  30
0.0
  11
 86.212739167936
  21
 215.85023333455
  31
0.0
   0
LINE
   5
3B6
 100
AcDbEntity
   8
LEVEL001
 100
AcDbLine
   6
CONTINUOUS
  62
7
  10
 59.212739168075
  20
 241.00023333455
  30
0.0
  11
 59.212739168075
  21
 197.00023333455
  31
0.0
   0
LINE
   5
3B7
 100
AcDbEntity
   8
LEVEL001
 100
AcDbLine
   6
CONTINUOUS
  62
7
  10
 59.212739168075
  20
 196.50023333455
  30
0.0
  11
 59.212739167931
  21
 241.50023333455
  31
0.0
   0
LINE
   5
3B8
 100
AcDbEntity
   8
LEVEL001
 100
AcDbLine
   6
CONTINUOUS
  62
7
  10
 91.712739168108
  20
 206.22023333455
  30
0.0
  11
 208.18859186929
  21
 206.22023333455
  31
0.0
   0
LINE
   5
3B9
 100
AcDbEntity
   8
LEVEL001
 100
AcDbLine
   6
CONTINUOUS
  62
7
  10
 91.712739168108
  20
 225.22023333455
  30
0.0
  11
 208.18859186929
  21
 225.22023333455
  31
0.0
   0
LINE
   5
3BA
 100
AcDbEntity
   8
LEVEL001
 100
AcDbLine
   6
CONTINUOUS
  62
7
  10
 355.42396714517
  20
 232.60023333455
  30
0.0
  11
 357.42396714516
  21
 232.60023333455
  31
0.0
   0
LINE
   5
3BB
 100
AcDbEntity
   8
LEVEL001
 100
AcDbLine
   6
CONTINUOUS
  62
7
  10
 357.42396714504
  20
 241.00023333455
  30
0.0
  11
 357.42396714504
  21
 232.50023333455
  31
0.0
   0
LINE
   5
3BC
 100
AcDbEntity
   8
LEVEL001
 100
AcDbLine
   6
CONTINUOUS
  62
7
  10
 357.42396714504
  20
 228.25023333455
  30
0.0
  11
 358.42396714504
  21
 228.25023333455
  31
0.0
   0
LINE
   5
3BD
 100
AcDbEntity
   8
LEVEL001
 100
AcDbLine
   6
CONTINUOUS
  62
7
  10
 357.42396714504
  20
 232.75023333455
  30
0.0
  11
 358.42396714504
  21
 232.75023333455
  31
0.0
   0
LINE
   5
3BE
 100
AcDbEntity
   8
LEVEL001
 100
AcDbLine
   6
CONTINUOUS
  62
7
  10
 357.42396714504
  20
 228.50023333455
  30
0.0
  11
 357.42396714504
  21
 212.50023333455
  31
0.0
   0
LINE
   5
3BF
 100
AcDbEntity
   8
LEVEL001
 100
AcDbLine
   6
CONTINUOUS
  62
7
  10
 357.42396714504
  20
 208.50023333455
  30
0.0
  11
 357.42396714504
  21
 197.00023333455
  31
0.0
   0
LINE
   5
3C0
 100
AcDbEntity
   8
LEVEL001
 100
AcDbLine
   6
CONTINUOUS
  62
7
  10
 357.42396714509
  20
 212.50023333455
  30
0.0
  11
 357.42396714514
  21
 228.50023333455
  31
0.0
   0
LINE
   5
3C1
 100
AcDbEntity
   8
LEVEL001
 100
AcDbLine
   6
CONTINUOUS
  62
7
  10
 358.42396714504
  20
 212.50023333455
  30
0.0
  11
 358.42396714504
  21
 228.50023333455
  31
0.0
   0
LINE
   5
3C2
 100
AcDbEntity
   8
LEVEL001
 100
AcDbLine
   6
CONTINUOUS
  62
7
  10
 355.42396714517
  20
 235.25023333455
  30
0.0
  11
 355.42396714517
  21
 225.75023333455
  31
0.0
   0
LINE
   5
3C3
 100
AcDbEntity
   8
LEVEL001
 100
AcDbLine
   6
CONTINUOUS
  62
7
  10
 355.42396714510
  20
 215.25023333455
  30
0.0
  11
 355.42396714510
  21
 205.75023333455
  31
0.0
   0
LINE
   5
3C4
 100
AcDbEntity
   8
LEVEL001
 100
AcDbLine
   6
CONTINUOUS
  62
7
  10
 357.42396714534
  20
 241.50023333454
  30
0.0
  11
 331.28479404428
  21
 237.82661212848
  31
0.0
   0
LINE
   5
3C5
 100
AcDbEntity
   8
LEVEL001
 100
AcDbLine
   6
CONTINUOUS
  62
7
  10
 357.42396714521
  20
 208.40023333455
  30
0.0
  11
 355.42396714523
  21
 208.40023333455
  31
0.0
   0
LINE
   5
3C6
 100
AcDbEntity
   8
LEVEL001
 100
AcDbLine
   6
CONTINUOUS
  62
7
  10
 355.42396714523
  20
 212.60023333455
  30
0.0
  11
 357.42396714522
  21
 212.60023333455
  31
0.0
   0
LINE
   5
3C7
 100
AcDbEntity
   8
LEVEL001
 100
AcDbLine
   6
CONTINUOUS
  62
7
  10
 355.42396714523
  20
 232.60023333455
  30
0.0
  11
 357.42396714522
  21
 232.60023333455
  31
0.0
   0
LINE
   5
3C8
 100
AcDbEntity
   8
LEVEL001
 100
AcDbLine
   6
CONTINUOUS
  62
7
  10
 357.42396714521
  20
 228.40023333455
  30
0.0
  11
 355.42396714523
  21
 228.40023333455
  31
0.0
   0
LINE
   5
3C9
 100
AcDbEntity
   8
LEVEL001
 100
AcDbLine
   6
CONTINUOUS
  62
7
  10
 357.42396714522
  20
 232.50023333455
  30
0.0
  11
 357.42396714524
  21
 241.50023333455
  31
0.0
   0
LINE
   5
3CA
 100
AcDbEntity
   8
LEVEL001
 100
AcDbLine
   6
CONTINUOUS
  62
7
  10
 357.42396714510
  20
 228.50023333455
  30
0.0
  11
 357.42396714510
  21
 212.50023333455
  31
0.0
   0
LINE
   5
3CB
 100
AcDbEntity
   8
LEVEL001
 100
AcDbLine
   6
CONTINUOUS
  62
7
  10
 357.42396714510
  20
 208.50023333455
  30
0.0
  11
 357.42396714510
  21
 197.00023333455
  31
0.0
   0
LINE
   5
3CC
 100
AcDbEntity
   8
LEVEL001
 100
AcDbLine
   6
CONTINUOUS
  62
7
  10
 332.24965565974
  20
 198.70270020158
  30
0.0
  11
 357.42396714503
  21
 196.50023333455
  31
0.0
   0
LWPOLYLINE
   5
3CD
 100
AcDbEntity
   8
LEVEL001
   6
CONTINUOUS
  62
7
 100
AcDbPolyline
  90
4
  70
0
  10
 357.42396714519
  20
 223.25023333455
  10
 356.42396714510
  20
 223.25023333455
  10
 356.42396714510
  20
 217.75023333455
  10
 357.42396714517
  20
 217.75023333455
   0
ARC
   5
3CE
 100
AcDbEntity
   8
LEVEL001
   6
CONTINUOUS
  62
7
 100
AcDbCircle
  10
 351.92396714523
  20
 204.98899881375
  30
0.0
  40
 0.50000000000000
 100
AcDbArc
  50
 271.30195267258
  51
0.0
   0
LINE
   5
3CF
 100
AcDbEntity
   8
LEVEL001
 100
AcDbLine
   6
CONTINUOUS
  62
7
  10
 351.93532784790
  20
 204.48912789597
  30
0.0
  11
 332.37852433453
  21
 204.04465508885
  31
0.0
   0
LINE
   5
3D0
 100
AcDbEntity
   8
LEVEL001
 100
AcDbLine
   6
CONTINUOUS
  62
7
  10
 357.42396714512
  20
 203.25023333455
  30
0.0
  11
 356.42396714510
  21
 203.25023333455
  31
0.0
   0
LINE
   5
3D1
 100
AcDbEntity
   8
LEVEL001
 100
AcDbLine
   6
CONTINUOUS
  62
7
  10
 356.42396714510
  20
 203.25023333455
  30
0.0
  11
 356.42396714510
  21
 198.39459770564
  31
0.0
   0
LINE
   5
3D2
 100
AcDbEntity
   8
LEVEL001
 100
AcDbLine
   6
CONTINUOUS
  62
7
  10
 356.42396714510
  20
 198.39459770564
  30
0.0
  11
 357.42396714510
  21
 198.30710904212
  31
0.0
   0
ARC
   5
3D3
 100
AcDbEntity
   8
LEVEL001
   6
CONTINUOUS
  62
7
 100
AcDbCircle
  10
 332.42396714524
  20
 200.69508959777
  30
0.0
  40
 2.0000000000000
 100
AcDbArc
  50
 180.00000000000
  51
 265.00000000000
   0
ARC
   5
3D4
 100
AcDbEntity
   8
LEVEL001
   6
CONTINUOUS
  62
7
 100
AcDbCircle
  10
 332.42396714524
  20
 202.04517141776
  30
0.0
  40
 2.0000000000000
 100
AcDbArc
  50
 91.301952672580
  51
 180.00000000000
   0
LINE
   5
3D5
 100
AcDbEntity
   8
LEVEL001
 100
AcDbLine
   6
CONTINUOUS
  62
7
  10
 352.42396714523
  20
 235.75023333455
  30
0.0
  11
 354.92396714523
  21
 235.75023333455
  31
0.0
   0
ARC
   5
3D6
 100
AcDbEntity
   8
LEVEL001
   6
CONTINUOUS
  62
7
 100
AcDbCircle
  10
 354.92396714523
  20
 235.25023333455
  30
0.0
  40
 0.50000000000000
 100
AcDbArc
  50
0.0
  51
 90.000000000000
   0
LINE
   5
3D7
 100
AcDbEntity
   8
LEVEL001
 100
AcDbLine
   6
CONTINUOUS
  62
7
  10
 355.42396714523
  20
 235.25023333455
  30
0.0
  11
 355.42396714523
  21
 225.75023333455
  31
0.0
   0
LINE
   5
3D8
 100
AcDbEntity
   8
LEVEL001
 100
AcDbLine
   6
CONTINUOUS
  62
7
  10
 354.92396714523
  20
 225.25023333455
  30
0.0
  11
 352.42396714523
  21
 225.25023333455
  31
0.0
   0
ARC
   5
3D9
 100
AcDbEntity
   8
LEVEL001
   6
CONTINUOUS
  62
7
 100
AcDbCircle
  10
 354.92396714523
  20
 225.75023333455
  30
0.0
  40
 0.50000000000000
 100
AcDbArc
  50
 270.00000000000
  51
0.0
   0
LINE
   5
3DA
 100
AcDbEntity
   8
LEVEL001
 100
AcDbLine
   6
CONTINUOUS
  62
7
  10
 352.42396714516
  20
 215.75023333455
  30
0.0
  11
 354.92396714516
  21
 215.75023333455
  31
0.0
   0
ARC
   5
3DB
 100
AcDbEntity
   8
LEVEL001
   6
CONTINUOUS
  62
7
 100
AcDbCircle
  10
 354.92396714516
  20
 215.25023333455
  30
0.0
  40
 0.50000000000000
 100
AcDbArc
  50
0.0
  51
 90.000000000000
   0
LINE
   5
3DC
 100
AcDbEntity
   8
LEVEL001
 100
AcDbLine
   6
CONTINUOUS
  62
7
  10
 355.42396714516
  20
 215.25023333455
  30
0.0
  11
 355.42396714516
  21
 205.75023333455
  31
0.0
   0
LINE
   5
3DD
 100
AcDbEntity
   8
LEVEL001
 100
AcDbLine
   6
CONTINUOUS
  62
7
  10
 354.92396714516
  20
 205.25023333455
  30
0.0
  11
 352.42396714516
  21
 205.25023333455
  31
0.0
   0
ARC
   5
3DE
 100
AcDbEntity
   8
LEVEL001
   6
CONTINUOUS
  62
7
 100
AcDbCircle
  10
 354.92396714516
  20
 205.75023333455
  30
0.0
  40
 0.50000000000000
 100
AcDbArc
  50
 270.00000000000
  51
0.0
   0
ARC
   5
3DF
 100
AcDbEntity
   8
LEVEL001
   6
CONTINUOUS
  62
7
 100
AcDbCircle
  10
 331.42396714524
  20
 236.83634405974
  30
0.0
  40
 1.0000000000000
 100
AcDbArc
  50
 98.000000000001
  51
 180.00000000000
   0
LWPOLYLINE
   5
3E0
 100
AcDbEntity
   8
LEVEL001
   6
CONTINUOUS
  62
7
 100
AcDbPolyline
  90
4
  70
0
  10
 357.42396714510
  20
 239.68254370394
  10
 356.42396714510
  20
 239.54200286923
  10
 356.42396714510
  20
 237.75023333455
  10
 357.42396714510
  20
 237.75023333455
   0
LINE
   5
3E1
 100
AcDbEntity
   8
LEVEL001
 100
AcDbLine
   6
CONTINUOUS
  62
7
  10
 357.42396714510
  20
 241.00023333455
  30
0.0
  11
 357.42396714510
  21
 232.50023333455
  31
0.0
   0
LINE
   5
3E2
 100
AcDbEntity
   8
LEVEL001
 100
AcDbLine
   6
CONTINUOUS
  62
7
  10
 357.42396714515
  20
 212.50023333455
  30
0.0
  11
 357.42396714520
  21
 228.50023333455
  31
0.0
   0
LINE
   5
3E3
 100
AcDbEntity
   8
LEVEL001
 100
AcDbLine
   6
CONTINUOUS
  62
7
  10
 357.42396714510
  20
 196.50023333455
  30
0.0
  11
 357.42396714514
  21
 208.50023333455
  31
0.0
   0
LINE
   5
3E4
 100
AcDbEntity
   8
LEVEL001
 100
AcDbLine
   6
CONTINUOUS
  62
7
  10
 330.42396714524
  20
 204.79423276534
  30
0.0
  11
 330.42396714524
  21
 200.69508959777
  31
0.0
   0
LINE
   5
3E5
 100
AcDbEntity
   8
LEVEL001
 100
AcDbLine
   6
CONTINUOUS
  62
7
  10
 330.42396714524
  20
 236.83634405974
  30
0.0
  11
 330.42396714524
  21
 226.50623390375
  31
0.0
   0
LINE
   5
3E6
 100
AcDbEntity
   8
LEVEL001
 100
AcDbLine
   6
CONTINUOUS
  62
7
  10
 352.42396714523
  20
 239.05895568538
  30
0.0
  11
 352.42396714523
  21
 204.98899881375
  31
0.0
   0
ARC
   5
3E7
 100
AcDbEntity
   8
LEVEL001
   6
CONTINUOUS
  62
7
 100
AcDbCircle
  10
 354.42396714523
  20
 239.05895568538
  30
0.0
  40
 2.0000000000000
 100
AcDbArc
  50
 98.000000000001
  51
 180.00000000000
   0
LINE
   5
3E8
 100
AcDbEntity
   8
LEVEL001
 100
AcDbLine
   6
CONTINUOUS
  62
7
  10
 352.42396714523
  20
 224.00023333455
  30
0.0
  11
 351.81435273023
  21
 224.00023333455
  31
0.0
   0
LINE
   5
3E9
 100
AcDbEntity
   8
LEVEL001
 100
AcDbLine
   6
CONTINUOUS
  62
7
  10
 351.92396714523
  20
 217.00023333455
  30
0.0
  11
 352.42396714523
  21
 217.00023333455
  31
0.0
   0
ARC
   5
3EA
 100
AcDbEntity
   8
LEVEL001
   6
CONTINUOUS
  62
7
 100
AcDbCircle
  10
 217.99678875605
  20
 210.97023333455
  30
0.0
  40
 6.6406250000000
 100
AcDbArc
  50
 134.33269164416
  51
 225.66730835584
   0
ARC
   5
3EB
 100
AcDbEntity
   8
LEVEL001
   6
CONTINUOUS
  62
7
 100
AcDbCircle
  10
 217.99678875605
  20
 220.47023333455
  30
0.0
  40
 6.6406250000000
 100
AcDbArc
  50
 134.33269164417
  51
 225.66730835583
   0
ARC
   5
3EC
 100
AcDbEntity
   8
LEVEL001
   6
CONTINUOUS
  62
7
 100
AcDbCircle
  10
 208.71553875605
  20
 220.47023333455
  30
0.0
  40
 6.6406250000000
 100
AcDbArc
  50
 314.33269164416
  51
 45.667308355835
   0
LINE
   5
3ED
 100
AcDbEntity
   8
LEVEL001
 100
AcDbLine
   6
CONTINUOUS
  62
7
  10
 324.92396714523
  20
 225.22023333455
  30
0.0
  11
 213.35616375605
  21
 225.22023333455
  31
0.0
   0
LINE
   5
3EE
 100
AcDbEntity
   8
LEVEL001
 100
AcDbLine
   6
CONTINUOUS
  62
7
  10
 324.92396714523
  20
 206.22023333455
  30
0.0
  11
 213.35616375605
  21
 206.22023333455
  31
0.0
   0
DIMENSION
   5
3EF
 100
AcDbEntity
   8
LEVEL001
   6
CONTINUOUS
  62
1
 100
AcDbDimension
   2
*D1
  10
 253.45248106275
  20
 206.22023333455
  30
0.0
  11
 253.45248106275
  21
 216.54071812688
  31
0.0
  70
128
   3
GMM001
 100
AcDbAlignedDimension
  13
 253.80743259996
  23
 225.22023333455
  33
0.0
  14
 253.45248106275
  24
 206.22023333455
  34
0.0
  50
 270.00000000000
 100
AcDbRotatedDimension
   0
DIMENSION
   5
3F0
 100
AcDbEntity
   8
LEVEL001
   6
CONTINUOUS
  62
1
 100
AcDbDimension
   2
*D2
  10
 348.42396714523
  20
 252.96461167956
  30
0.0
  11
 208.31835315667
  21
 252.96461167956
  31
0.0
  70
0
   1
\A1;W-20=L(パイプ長さ)
   3
GMM002
 100
AcDbAlignedDimension
  13
 68.212739168108
  23
 228.06603507039
  33
0.0
  14
 348.42396714523
  24
 227.88910204114
  34
0.0
 100
AcDbRotatedDimension
   0
DIMENSION
   5
3F1
 100
AcDbEntity
   8
LEVEL001
   6
CONTINUOUS
  62
1
 100
AcDbDimension
   2
*D3
  10
 358.42396714504
  20
 261.37117126661
  30
0.0
  11
 208.31835315664
  21
 261.37117126661
  31
0.0
  70
0
   1
\A1; W (浴室壁内寸法)
   3
GMM003
 100
AcDbAlignedDimension
  13
 58.212739168236
  23
 241.84847449821
  33
0.0
  14
 358.42396714504
  24
 241.84847449821
  34
0.0
 100
AcDbRotatedDimension
   0
LINE
   5
3F2
 100
AcDbEntity
   8
LEVEL001
 100
AcDbLine
   6
CONTINUOUS
  62
7
  10
 348.42396714523
  20
 224.22023333455
  30
0.0
  11
 348.42396714523
  21
 207.22023333455
  31
0.0
   0
LINE
   5
3F3
 100
AcDbEntity
   8
LEVEL001
 100
AcDbLine
   6
DOT
  62
1
  10
 212.73414679686
  20
 206.92023333455
  30
0.0
  11
 324.92396714523
  21
 206.92023333455
  31
0.0
   0
LINE
   5
3F4
 100
AcDbEntity
   8
LEVEL001
 100
AcDbLine
   6
DOT
  62
1
  10
 213.97818071524
  20
 224.52023333455
  30
0.0
  11
 324.92396714523
  21
 224.52023333455
  31
0.0
   0
LINE
   5
3F5
 100
AcDbEntity
   8
LEVEL001
 100
AcDbLine
   6
DOT
  62
1
  10
 61.712739167948
  20
 225.25023333455
  30
0.0
  11
 64.212739167948
  21
 225.25023333455
  31
0.0
   0
LINE
   5
3F6
 100
AcDbEntity
   8
LEVEL001
 100
AcDbLine
   6
DOT
  62
1
  10
 64.212739167948
  20
 239.05895568538
  30
0.0
  11
 64.212739167948
  21
 204.98899881375
  31
0.0
   0
LWPOLYLINE
   5
3F7
 100
AcDbEntity
   8
LEVEL001
   6
DOT
  62
1
 100
AcDbPolyline
  90
8
  70
0
  10
 91.712739168108
  20
 225.22023333455
  10
 68.212739168108
  20
 225.22023333455
  10
 68.212739168108
  20
 224.22023333455
  10
 67.212739168108
  20
 224.22023333455
  10
 67.212739168108
  20
 207.22023333455
  10
 68.212739168108
  20
 207.22023333455
  10
 68.212739168108
  20
 206.22023333455
  10
 91.712739168108
  20
 206.22023333455
   0
LINE
   5
3F8
 100
AcDbEntity
   8
LEVEL001
 100
AcDbLine
   6
DOT
  62
1
  10
 91.712739168108
  20
 224.52023333455
  30
0.0
  11
 68.212739168108
  21
 224.52023333455
  31
0.0
   0
LINE
   5
3F9
 100
AcDbEntity
   8
LEVEL001
 100
AcDbLine
   6
DOT
  62
1
  10
 68.212739168108
  20
 224.22023333455
  30
0.0
  11
 68.212739168108
  21
 207.22023333455
  31
0.0
   0
LINE
   5
3FA
 100
AcDbEntity
   8
LEVEL001
 100
AcDbLine
   6
DOT
  62
1
  10
 64.701378465271
  20
 204.48912789597
  30
0.0
  11
 84.258181978642
  21
 204.04465508885
  31
0.0
   0
ARC
   5
3FB
 100
AcDbEntity
   8
LEVEL001
   6
DOT
  62
1
 100
AcDbCircle
  10
 64.712739167948
  20
 204.98899881375
  30
0.0
  40
 0.50000000000000
 100
AcDbArc
  50
 180.00000000000
  51
 268.69804732742
   0
LINE
   5
3FC
 100
AcDbEntity
   8
LEVEL001
 100
AcDbLine
   6
DOT
  62
1
  10
 61.712739168012
  20
 205.25023333455
  30
0.0
  11
 64.212739168012
  21
 205.25023333455
  31
0.0
   0
LINE
   5
3FD
 100
AcDbEntity
   8
LEVEL001
 100
AcDbLine
   6
DOT
  62
1
  10
 91.712739168108
  20
 206.92023333455
  30
0.0
  11
 68.212739168108
  21
 206.92023333455
  31
0.0
   0
LINE
   5
3FE
 100
AcDbEntity
   8
LEVEL001
 100
AcDbLine
   6
DOT
  62
1
  10
 59.212739167970
  20
 208.40023333455
  30
0.0
  11
 61.212739167948
  21
 208.40023333455
  31
0.0
   0
LINE
   5
3FF
 100
AcDbEntity
   8
LEVEL001
 100
AcDbLine
   6
DOT
  62
1
  10
 61.212739168012
  20
 215.25023333455
  30
0.0
  11
 61.212739168012
  21
 205.75023333455
  31
0.0
   0
ARC
   5
400
 100
AcDbEntity
   8
LEVEL001
   6
DOT
  62
1
 100
AcDbCircle
  10
 61.712739168012
  20
 205.75023333455
  30
0.0
  40
 0.50000000000000
 100
AcDbArc
  50
 180.00000000000
  51
 270.00000000000
   0
LINE
   5
401
 100
AcDbEntity
   8
LEVEL001
 100
AcDbLine
   6
DOT
  62
1
  10
 59.212739167970
  20
 228.40023333455
  30
0.0
  11
 61.212739167948
  21
 228.40023333455
  31
0.0
   0
LINE
   5
402
 100
AcDbEntity
   8
LEVEL001
 100
AcDbLine
   6
DOT
  62
1
  10
 61.212739167948
  20
 212.60023333455
  30
0.0
  11
 59.212739167957
  21
 212.60023333455
  31
0.0
   0
LINE
   5
403
 100
AcDbEntity
   8
LEVEL001
 100
AcDbLine
   6
DOT
  62
1
  10
 61.212739167948
  20
 235.25023333455
  30
0.0
  11
 61.212739167948
  21
 225.75023333455
  31
0.0
   0
ARC
   5
404
 100
AcDbEntity
   8
LEVEL001
   6
DOT
  62
1
 100
AcDbCircle
  10
 61.712739167948
  20
 225.75023333455
  30
0.0
  40
 0.50000000000000
 100
AcDbArc
  50
 180.00000000000
  51
 270.00000000000
   0
LINE
   5
405
 100
AcDbEntity
   8
LEVEL001
 100
AcDbLine
   6
DOT
  62
1
  10
 64.212739168012
  20
 215.75023333455
  30
0.0
  11
 61.712739168012
  21
 215.75023333455
  31
0.0
   0
ARC
   5
406
 100
AcDbEntity
   8
LEVEL001
   6
DOT
  62
1
 100
AcDbCircle
  10
 61.712739168012
  20
 215.25023333455
  30
0.0
  40
 0.50000000000000
 100
AcDbArc
  50
 90.000000000000
  51
 180.00000000000
   0
LINE
   5
407
 100
AcDbEntity
   8
LEVEL001
 100
AcDbLine
   6
DOT
  62
1
  10
 61.212739167948
  20
 232.60023333455
  30
0.0
  11
 59.212739167957
  21
 232.60023333455
  31
0.0
   0
LINE
   5
408
 100
AcDbEntity
   8
LEVEL001
 100
AcDbLine
   6
DOT
  62
1
  10
 64.212739167948
  20
 235.75023333455
  30
0.0
  11
 61.712739167948
  21
 235.75023333455
  31
0.0
   0
ARC
   5
409
 100
AcDbEntity
   8
LEVEL001
   6
DOT
  62
1
 100
AcDbCircle
  10
 61.712739167948
  20
 235.25023333455
  30
0.0
  40
 0.50000000000000
 100
AcDbArc
  50
 90.000000000000
  51
 180.00000000000
   0
ARC
   5
40A
 100
AcDbEntity
   8
LEVEL001
   6
DOT
  62
1
 100
AcDbCircle
  10
 62.212739167948
  20
 239.05895568538
  30
0.0
  40
 2.0000000000000
 100
AcDbArc
  50
0.0
  51
 82.000000000000
   0
LINE
   5
40B
 100
AcDbEntity
   8
LEVEL001
 100
AcDbLine
   6
DOT
  62
1
  10
 194.21273916811
  20
 224.52023333455
  30
0.0
  11
 91.712739168108
  21
 224.52023333455
  31
0.0
   0
LINE
   5
40C
 100
AcDbEntity
   8
LEVEL001
 100
AcDbLine
   6
DOT
  62
1
  10
 194.21273916811
  20
 206.92023333455
  30
0.0
  11
 91.712739168108
  21
 206.92023333455
  31
0.0
   0
ARC
   5
40D
 100
AcDbEntity
   8
LEVEL001
   6
CONTINUOUS
  62
7
 100
AcDbCircle
  10
 91.012739168108
  20
 225.52023333455
  30
0.0
  40
 0.70000000000000
 100
AcDbArc
  50
0.0
  51
 87.810953901171
   0
LINE
   5
40E
 100
AcDbEntity
   8
LEVEL001
 100
AcDbLine
   6
CONTINUOUS
  62
7
  10
 91.712739168108
  20
 225.52023333455
  30
0.0
  11
 91.712739168108
  21
 215.72023333455
  31
0.0
   0
ARC
   5
40F
 100
AcDbEntity
   8
LEVEL001
   6
CONTINUOUS
  62
7
 100
AcDbCircle
  10
 91.012739168108
  20
 205.92023333455
  30
0.0
  40
 0.70000000000000
 100
AcDbArc
  50
 272.18904609883
  51
 0.23263485670133E-11
   0
LINE
   5
410
 100
AcDbEntity
   8
LEVEL001
 100
AcDbLine
   6
CONTINUOUS
  62
7
  10
 91.712739168108
  20
 215.72023333455
  30
0.0
  11
 91.712739168108
  21
 205.92023333455
  31
0.0
   0
LINE
   5
411
 100
AcDbEntity
   8
LEVEL001
 100
AcDbLine
   6
CONTINUOUS
  62
7
  10
 91.039476905472
  20
 205.22074416851
  30
0.0
  11
 86.212739167936
  21
 205.03624374704
  31
0.0
   0
LINE
   5
412
 100
AcDbEntity
   8
LEVEL001
 100
AcDbLine
   6
CONTINUOUS
  62
7
  10
 91.039476905472
  20
 226.21972250058
  30
0.0
  11
 86.212739167936
  21
 226.40422292206
  31
0.0
   0
LINE
   5
413
 100
AcDbEntity
   8
LEVEL001
 100
AcDbLine
   6
CONTINUOUS
  62
7
  10
 263.82344818055
  20
 92.067972630830
  30
0.0
  11
 263.82344818055
  21
 84.717972630830
  31
0.0
   0
LINE
   5
414
 100
AcDbEntity
   8
LEVEL001
 100
AcDbLine
   6
CONTINUOUS
  62
7
  10
 263.82344818055
  20
 77.367972630830
  30
0.0
  11
 263.82344818055
  21
 84.717972630830
  31
0.0
   0
LINE
   5
415
 100
AcDbEntity
   8
LEVEL001
 100
AcDbLine
   6
CONTINUOUS
  62
7
  10
 260.32344818055
  20
 91.717972630830
  30
0.0
  11
 260.32344818055
  21
 77.717972630830
  31
0.0
   0
POINT
   5
416
 100
AcDbEntity
   8
LEVEL001
 100
AcDbPoint
  62
1
  10
 236.82344818055
  20
 95.417972630830
  30
0.0
   0
LINE
   5
417
 100
AcDbEntity
   8
LEVEL001
 100
AcDbLine
   6
CONTINUOUS
  62
7
  10
 236.82344818055
  20
 94.688919693399
  30
0.0
  11
 236.82344818055
  21
 74.747467092663
  31
0.0
   0
ARC
   5
418
 100
AcDbEntity
   8
LEVEL001
   6
CONTINUOUS
  62
7
 100
AcDbCircle
  10
 259.82344818055
  20
 92.067972630830
  30
0.0
  40
 4.0000000000000
 100
AcDbArc
  50
0.0
  51
 91.622792552396
   0
ARC
   5
419
 100
AcDbEntity
   8
LEVEL001
   6
CONTINUOUS
  62
7
 100
AcDbCircle
  10
 259.82344818055
  20
 77.367972630830
  30
0.0
  40
 4.0000000000000
 100
AcDbArc
  50
 268.37720744760
  51
0.0
   0
POINT
   5
41A
 100
AcDbEntity
   8
LEVEL001
 100
AcDbPoint
  62
1
  10
 236.82344818055
  20
 74.017972630830
  30
0.0
   0
LINE
   5
41B
 100
AcDbEntity
   8
LEVEL001
 100
AcDbLine
   6
CONTINUOUS
  62
7
  10
 237.55220871568
  20
 95.438618889832
  30
0.0
  11
 259.71017103459
  21
 96.066368345139
  31
0.0
   0
ARC
   5
41C
 100
AcDbEntity
   8
LEVEL001
   6
CONTINUOUS
  62
7
 100
AcDbCircle
  10
 237.57344818055
  20
 94.688919693399
  30
0.0
  40
 0.75000000000000
 100
AcDbArc
  50
 91.622792552385
  51
 180.00000000000
   0
LINE
   5
41D
 100
AcDbEntity
   8
LEVEL001
 100
AcDbLine
   6
CONTINUOUS
  62
7
  10
 237.55220871568
  20
 73.997326371829
  30
0.0
  11
 259.71017103459
  21
 73.369576916522
  31
0.0
   0
ARC
   5
41E
 100
AcDbEntity
   8
LEVEL001
   6
CONTINUOUS
  62
7
 100
AcDbCircle
  10
 237.57344818055
  20
 74.747025568262
  30
0.0
  40
 0.75000000000000
 100
AcDbArc
  50
 180.00000000000
  51
 268.37720744762
   0
LINE
   5
41F
 100
AcDbEntity
   8
LEVEL001
 100
AcDbLine
   6
CONTINUOUS
  62
7
  10
 236.82344818055
  20
 94.267972630830
  30
0.0
  11
 255.32344818055
  21
 94.167972630830
  31
0.0
   0
LINE
   5
420
 100
AcDbEntity
   8
LEVEL001
 100
AcDbLine
   6
CONTINUOUS
  62
7
  10
 255.32344818055
  20
 75.267972630830
  30
0.0
  11
 236.82344818055
  21
 75.167972630830
  31
0.0
   0
LWPOLYLINE
   5
421
 100
AcDbEntity
   8
LEVEL001
   6
CONTINUOUS
  62
7
 100
AcDbPolyline
  90
8
  70
0
  10
 255.32344818055
  20
 94.167972630830
  10
 260.32344818055
  20
 94.167972630830
  10
 260.32344818055
  20
 91.717972630830
  10
 261.32344818055
  20
 91.717972630830
  10
 261.32344818055
  20
 77.717972630830
  10
 260.32344818055
  20
 77.717972630830
  10
 260.32344818055
  20
 75.267972630830
  10
 255.32344818055
  20
 75.267972630830
   0
DIMENSION
   5
422
 100
AcDbEntity
   8
LEVEL001
   6
CONTINUOUS
  62
1
 100
AcDbDimension
   2
*D4
  10
 276.84211804948
  20
 73.367972630830
  30
0.0
  11
 276.84211804948
  21
 84.980855323897
  31
0.0
  70
128
   3
GMM004
 100
AcDbAlignedDimension
  13
 262.14817319294
  23
 96.067972630830
  33
0.0
  14
 262.29719114245
  24
 73.367972630830
  34
0.0
  50
 270.00000000000
 100
AcDbRotatedDimension
   0
DIMENSION
   5
423
 100
AcDbEntity
   8
LEVEL001
   6
CONTINUOUS
  62
1
 100
AcDbDimension
   2
*D5
  10
 260.32344818055
  20
 106.05465905463
  30
0.0
  11
 265.50586500812
  21
 106.05465905463
  31
0.0
  70
128
   3
GMM005
 100
AcDbAlignedDimension
  13
 263.82344818055
  23
 97.567972630830
  33
0.0
  14
 260.32344818055
  24
 94.167972630830
  34
0.0
  50
 180.00000000000
 100
AcDbRotatedDimension
   0
DIMENSION
   5
424
 100
AcDbEntity
   8
LEVEL001
   6
CONTINUOUS
  62
1
 100
AcDbDimension
   2
*D6
  10
 236.82344818055
  20
 106.05465905463
  30
0.0
  11
 248.57344818055
  21
 106.05465905463
  31
0.0
  70
0
   3
GMM006
 100
AcDbAlignedDimension
  13
 260.32344818055
  23
 94.167972630830
  33
0.0
  14
 236.82344818055
  24
 95.417972630830
  34
0.0
  50
 180.00000000000
 100
AcDbRotatedDimension
   0
DIMENSION
   5
425
 100
AcDbEntity
   8
LEVEL001
   6
CONTINUOUS
  62
1
 100
AcDbDimension
   2
*D7
  10
 236.82344818055
  20
 113.46682450476
  30
0.0
  11
 250.32344818055
  21
 113.46682450476
  31
0.0
  70
0
   3
GMM006
 100
AcDbAlignedDimension
  13
 263.82344818055
  23
 97.567972630830
  33
0.0
  14
 236.82344818055
  24
 95.417972630830
  34
0.0
  50
 180.00000000000
 100
AcDbRotatedDimension
   0
CIRCLE
   5
426
 100
AcDbEntity
   8
LEVEL001
 100
AcDbCircle
   6
CONTINUOUS
  62
7
  10
 169.69097235904
  20
 102.53765988553
  30
0.0
  40
 2.5000000000000
   0
CIRCLE
   5
427
 100
AcDbEntity
   8
LEVEL001
 100
AcDbCircle
   6
CONTINUOUS
  62
7
  10
 169.69097235904
  20
 82.537659885529
  30
0.0
  40
 2.5000000000000
   0
ARC
   5
428
 100
AcDbEntity
   8
LEVEL001
   6
CONTINUOUS
  62
7
 100
AcDbCircle
  10
 169.69097235904
  20
 91.037659885529
  30
0.0
  40
 21.700000000000
 100
AcDbArc
  50
 180.00000000000
  51
0.0
   0
LINE
   5
429
 100
AcDbEntity
   8
LEVEL001
 100
AcDbLine
   6
CONTINUOUS
  62
7
  10
 191.39097235904
  20
 91.037659885529
  30
0.0
  11
 191.39097235904
  21
 110.73765988553
  31
0.0
   0
ARC
   5
42A
 100
AcDbEntity
   8
LEVEL001
   6
CONTINUOUS
  62
7
 100
AcDbCircle
  10
 189.39097235904
  20
 110.73765988553
  30
0.0
  40
 2.0000000000000
 100
AcDbArc
  50
0.0
  51
 90.000000000000
   0
LINE
   5
42B
 100
AcDbEntity
   8
LEVEL001
 100
AcDbLine
   6
CONTINUOUS
  62
7
  10
 189.39097235904
  20
 112.73765988553
  30
0.0
  11
 149.99097235904
  21
 112.73765988553
  31
0.0
   0
ARC
   5
42C
 100
AcDbEntity
   8
LEVEL001
   6
CONTINUOUS
  62
7
 100
AcDbCircle
  10
 149.99097235904
  20
 110.73765988553
  30
0.0
  40
 2.0000000000000
 100
AcDbArc
  50
 90.000000000000
  51
 180.00000000000
   0
LINE
   5
42D
 100
AcDbEntity
   8
LEVEL001
 100
AcDbLine
   6
CONTINUOUS
  62
7
  10
 147.99097235904
  20
 110.73765988553
  30
0.0
  11
 147.99097235904
  21
 91.037659885529
  31
0.0
   0
DIMENSION
   5
42E
 100
AcDbEntity
   8
LEVEL001
   6
CONTINUOUS
  62
1
 100
AcDbDimension
   2
*D8
  10
 205.20810440190
  20
 102.53765988553
  30
0.0
  11
 205.20810440190
  21
 107.63765988553
  31
0.0
  70
0
   3
GMM007
 100
AcDbAlignedDimension
  13
 189.39097235904
  23
 112.73765988553
  33
0.0
  14
 176.15165116699
  24
 102.53765988553
  34
0.0
  50
 270.00000000000
 100
AcDbRotatedDimension
   0
DIMENSION
   5
42F
 100
AcDbEntity
   8
LEVEL001
   6
CONTINUOUS
  62
1
 100
AcDbDimension
   2
*D9
  10
 205.20810440190
  20
 82.537659885529
  30
0.0
  11
 205.20810440190
  21
 92.537659885529
  31
0.0
  70
0
   3
GMM007
 100
AcDbAlignedDimension
  13
 176.15165116699
  23
 102.53765988553
  33
0.0
  14
 176.15165116699
  24
 82.537659885529
  34
0.0
  50
 270.00000000000
 100
AcDbRotatedDimension
   0
DIMENSION
   5
430
 100
AcDbEntity
   8
LEVEL001
   6
CONTINUOUS
  62
1
 100
AcDbDimension
   2
*D10
  10
 205.20810440190
  20
 69.337659885529
  30
0.0
  11
 205.20810440190
  21
 75.937659885529
  31
0.0
  70
0
   3
GMM008
 100
AcDbAlignedDimension
  13
 176.15165116699
  23
 82.537659885529
  33
0.0
  14
 169.69097235904
  24
 69.337659885529
  34
0.0
  50
 270.00000000000
 100
AcDbRotatedDimension
   0
ARC
   5
431
 100
AcDbEntity
   8
LEVEL001
   6
CONTINUOUS
  62
7
 100
AcDbCircle
  10
 63.972444368485
  20
 91.037659885529
  30
0.0
  40
 22.500000000000
 100
AcDbArc
  50
 180.00000000000
  51
0.0
   0
LINE
   5
432
 100
AcDbEntity
   8
LEVEL001
 100
AcDbLine
   6
CONTINUOUS
  62
7
  10
 47.972444368485
  20
 113.53765988553
  30
0.0
  11
 63.972444368485
  21
 113.53765988553
  31
0.0
   0
CIRCLE
   5
433
 100
AcDbEntity
   8
LEVEL001
 100
AcDbCircle
   6
CONTINUOUS
  62
7
  10
 63.972444368485
  20
 102.53765988553
  30
0.0
  40
 5.2500000000000
   0
CIRCLE
   5
434
 100
AcDbEntity
   8
LEVEL001
 100
AcDbCircle
   6
CONTINUOUS
  62
7
  10
 63.972444368485
  20
 82.537659885529
  30
0.0
  40
 5.2500000000000
   0
ARC
   5
435
 100
AcDbEntity
   8
LEVEL001
   6
CONTINUOUS
  62
7
 100
AcDbCircle
  10
 63.972444368485
  20
 89.537659885529
  30
0.0
  40
 13.000000000000
 100
AcDbArc
  50
 182.20422750397
  51
 357.79577249603
   0
ARC
   5
436
 100
AcDbEntity
   8
LEVEL001
   6
CONTINUOUS
  62
7
 100
AcDbCircle
  10
 85.472444368485
  20
 112.53765988553
  30
0.0
  40
 1.0000000000000
 100
AcDbArc
  50
0.0
  51
 90.000000000000
   0
LINE
   5
437
 100
AcDbEntity
   8
LEVEL001
 100
AcDbLine
   6
CONTINUOUS
  62
7
  10
 86.472444368485
  20
 91.037659885529
  30
0.0
  11
 86.472444368485
  21
 112.53765988553
  31
0.0
   0
LINE
   5
438
 100
AcDbEntity
   8
LEVEL001
 100
AcDbLine
   6
CONTINUOUS
  62
7
  10
 48.972444368485
  20
 113.53765988553
  30
0.0
  11
 42.472444368485
  21
 113.53765988553
  31
0.0
   0
ARC
   5
439
 100
AcDbEntity
   8
LEVEL001
   6
CONTINUOUS
  62
7
 100
AcDbCircle
  10
 42.472444368485
  20
 112.53765988553
  30
0.0
  40
 1.0000000000000
 100
AcDbArc
  50
 90.000000000000
  51
 180.00000000000
   0
LINE
   5
43A
 100
AcDbEntity
   8
LEVEL001
 100
AcDbLine
   6
CONTINUOUS
  62
7
  10
 41.472444368485
  20
 91.037659885529
  30
0.0
  11
 41.472444368485
  21
 112.53765988553
  31
0.0
   0
LINE
   5
43B
 100
AcDbEntity
   8
LEVEL001
 100
AcDbLine
   6
CONTINUOUS
  62
7
  10
 76.722444368485
  20
 96.037659885529
  30
0.0
  11
 76.972444368485
  21
 96.037659885529
  31
0.0
   0
LINE
   5
43C
 100
AcDbEntity
   8
LEVEL001
 100
AcDbLine
   6
CONTINUOUS
  62
7
  10
 75.222444368485
  20
 90.537659885529
  30
0.0
  11
 75.222444368485
  21
 94.537659885529
  31
0.0
   0
ARC
   5
43D
 100
AcDbEntity
   8
LEVEL001
   6
CONTINUOUS
  62
7
 100
AcDbCircle
  10
 76.722444368485
  20
 94.537659885529
  30
0.0
  40
 1.5000000000000
 100
AcDbArc
  50
 90.000000000000
  51
 180.00000000000
   0
ARC
   5
43E
 100
AcDbEntity
   8
LEVEL001
   6
CONTINUOUS
  62
7
 100
AcDbCircle
  10
 76.722444368485
  20
 90.537659885529
  30
0.0
  40
 1.5000000000000
 100
AcDbArc
  50
 180.00000000000
  51
 270.00000000000
   0
LINE
   5
43F
 100
AcDbEntity
   8
LEVEL001
 100
AcDbLine
   6
CONTINUOUS
  62
7
  10
 76.722444368485
  20
 89.037659885529
  30
0.0
  11
 76.972444368485
  21
 89.037659885529
  31
0.0
   0
LINE
   5
440
 100
AcDbEntity
   8
LEVEL001
 100
AcDbLine
   6
CONTINUOUS
  62
7
  10
 51.222444368485
  20
 96.037659885529
  30
0.0
  11
 50.972444368485
  21
 96.037659885529
  31
0.0
   0
LINE
   5
441
 100
AcDbEntity
   8
LEVEL001
 100
AcDbLine
   6
CONTINUOUS
  62
7
  10
 52.722444368485
  20
 90.537659885529
  30
0.0
  11
 52.722444368485
  21
 94.537659885529
  31
0.0
   0
ARC
   5
442
 100
AcDbEntity
   8
LEVEL001
   6
CONTINUOUS
  62
7
 100
AcDbCircle
  10
 51.222444368485
  20
 94.537659885529
  30
0.0
  40
 1.5000000000000
 100
AcDbArc
  50
0.0
  51
 90.000000000000
   0
ARC
   5
443
 100
AcDbEntity
   8
LEVEL001
   6
CONTINUOUS
  62
7
 100
AcDbCircle
  10
 51.222444368485
  20
 90.537659885529
  30
0.0
  40
 1.5000000000000
 100
AcDbArc
  50
 270.00000000000
  51
0.0
   0
LINE
   5
444
 100
AcDbEntity
   8
LEVEL001
 100
AcDbLine
   6
CONTINUOUS
  62
7
  10
 51.222444368485
  20
 89.037659885529
  30
0.0
  11
 50.972444368485
  21
 89.037659885529
  31
0.0
   0
LINE
   5
445
 100
AcDbEntity
   8
LEVEL001
 100
AcDbLine
   6
CONTINUOUS
  62
7
  10
 79.008282276815
  20
 113.53765988553
  30
0.0
  11
 63.972444368485
  21
 113.53765988553
  31
0.0
   0
LINE
   5
446
 100
AcDbEntity
   8
LEVEL001
 100
AcDbLine
   6
CONTINUOUS
  62
7
  10
 78.008282276815
  20
 113.53765988553
  30
0.0
  11
 85.472444368485
  21
 113.53765988553
  31
0.0
   0
ARC
   5
447
 100
AcDbEntity
   8
LEVEL001
   6
CONTINUOUS
  62
7
 100
AcDbCircle
  10
 79.833139983248
  20
 112.53765988553
  30
0.0
  40
 1.0000000000000
 100
AcDbArc
  50
 89.999999999999
  51
 171.43686811109
   0
LINE
   5
448
 100
AcDbEntity
   8
LEVEL001
 100
AcDbLine
   6
CONTINUOUS
  62
7
  10
 78.844287585410
  20
 112.68655896306
  30
0.0
  11
 77.030756060949
  21
 100.91612260098
  31
0.0
   0
ARC
   5
449
 100
AcDbEntity
   8
LEVEL001
   6
CONTINUOUS
  62
7
 100
AcDbCircle
  10
 81.972444368485
  20
 100.15473132762
  30
0.0
  40
 5.0000000000000
 100
AcDbArc
  50
 171.24102209323
  51
 180.00000000000
   0
LINE
   5
44A
 100
AcDbEntity
   8
LEVEL001
 100
AcDbLine
   6
CONTINUOUS
  62
7
  10
 76.972444368485
  20
 89.037659885529
  30
0.0
  11
 76.972444368485
  21
 100.15473132762
  31
0.0
   0
LINE
   5
44B
 100
AcDbEntity
   8
LEVEL001
 100
AcDbLine
   6
CONTINUOUS
  62
7
  10
 49.100601151560
  20
 112.68655896306
  30
0.0
  11
 50.914132676022
  21
 100.91612260098
  31
0.0
   0
ARC
   5
44C
 100
AcDbEntity
   8
LEVEL001
   6
CONTINUOUS
  62
7
 100
AcDbCircle
  10
 45.972444368485
  20
 100.15473132762
  30
0.0
  40
 5.0000000000000
 100
AcDbArc
  50
0.0
  51
 8.7589779067624
   0
LINE
   5
44D
 100
AcDbEntity
   8
LEVEL001
 100
AcDbLine
   6
CONTINUOUS
  62
7
  10
 50.972444368485
  20
 89.037659885529
  30
0.0
  11
 50.972444368485
  21
 100.15473132762
  31
0.0
   0
ARC
   5
44E
 100
AcDbEntity
   8
LEVEL001
   6
CONTINUOUS
  62
7
 100
AcDbCircle
  10
 48.111748753722
  20
 112.53765988553
  30
0.0
  40
 1.0000000000000
 100
AcDbArc
  50
 8.5631318889142
  51
 90.000000000001
   0
DIMENSION
   5
44F
 100
AcDbEntity
   8
LEVEL001
   6
CONTINUOUS
  62
1
 100
AcDbDimension
   2
*D11
  10
 103.23419068805
  20
 102.53765988553
  30
0.0
  11
 103.23419068805
  21
 108.03765988553
  31
0.0
  70
0
   3
GMM009
 100
AcDbAlignedDimension
  13
 88.472444368485
  23
 113.53765988553
  33
0.0
  14
 70.433123176432
  24
 102.53765988553
  34
0.0
  50
 270.00000000000
 100
AcDbRotatedDimension
   0
DIMENSION
   5
450
 100
AcDbEntity
   8
LEVEL001
   6
CONTINUOUS
  62
1
 100
AcDbDimension
   2
*D12
  10
 103.23419068805
  20
 82.537659885529
  30
0.0
  11
 103.23419068805
  21
 92.537659885529
  31
0.0
  70
0
   3
GMM009
 100
AcDbAlignedDimension
  13
 70.433123176432
  23
 102.53765988553
  33
0.0
  14
 70.433123176432
  24
 82.537659885529
  34
0.0
  50
 270.00000000000
 100
AcDbRotatedDimension
   0
DIMENSION
   5
451
 100
AcDbEntity
   8
LEVEL001
   6
CONTINUOUS
  62
1
 100
AcDbDimension
   2
*D13
  10
 103.23419068805
  20
 68.537659885529
  30
0.0
  11
 103.23419068805
  21
 75.537659885529
  31
0.0
  70
0
   3
GMM006
 100
AcDbAlignedDimension
  13
 70.433123176432
  23
 82.537659885529
  33
0.0
  14
 71.228508441055
  24
 68.537659885529
  34
0.0
  50
 270.00000000000
 100
AcDbRotatedDimension
   0
DIMENSION
   5
452
 100
AcDbEntity
   8
LEVEL001
   6
CONTINUOUS
  62
1
 100
AcDbDimension
   2
*D14
  10
 111.76851925479
  20
 68.537659885529
  30
0.0
  11
 111.76851925479
  21
 91.037659885529
  31
0.0
  70
0
   3
GMM006
 100
AcDbAlignedDimension
  13
 88.472444368485
  23
 113.53765988553
  33
0.0
  14
 71.228508441055
  24
 68.537659885529
  34
0.0
  50
 270.00000000000
 100
AcDbRotatedDimension
   0
CIRCLE
   5
453
 100
AcDbEntity
   8
LEVEL001
 100
AcDbCircle
   6
CONTINUOUS
  62
7
  10
 63.972444368485
  20
 102.53765988553
  30
0.0
  40
 2.1000000000000
   0
CIRCLE
   5
454
 100
AcDbEntity
   8
LEVEL001
 100
AcDbCircle
   6
CONTINUOUS
  62
7
  10
 63.972444368485
  20
 82.537659885529
  30
0.0
  40
 2.1000000000000
   0
LINE
   5
455
 100
AcDbEntity
   8
LEVEL001
 100
AcDbLine
   6
CONTINUOUS
  62
7
  10
 63.972444368485
  20
 156.77184227058
  30
0.0
  11
 41.972444368485
  21
 156.77184227058
  31
0.0
   0
LINE
   5
456
 100
AcDbEntity
   8
LEVEL001
 100
AcDbLine
   6
CONTINUOUS
  62
7
  10
 63.972444368485
  20
 156.77184227058
  30
0.0
  11
 85.972444368485
  21
 156.77184227058
  31
0.0
   0
LINE
   5
457
 100
AcDbEntity
   8
LEVEL001
 100
AcDbLine
   6
CONTINUOUS
  62
7
  10
 63.972444368485
  20
 156.77184227058
  30
0.0
  11
 41.972444368485
  21
 156.77184227058
  31
0.0
   0
LINE
   5
458
 100
AcDbEntity
   8
LEVEL001
 100
AcDbLine
   6
CONTINUOUS
  62
7
  10
 63.972444368485
  20
 156.77184227058
  30
0.0
  11
 85.972444368485
  21
 156.77184227058
  31
0.0
   0
LINE
   5
459
 100
AcDbEntity
   8
LEVEL001
 100
AcDbLine
   6
CONTINUOUS
  62
7
  10
 63.972444368485
  20
 156.77184227064
  30
0.0
  11
 85.972444368485
  21
 156.77184227064
  31
0.0
   0
LINE
   5
45A
 100
AcDbEntity
   8
LEVEL001
 100
AcDbLine
   6
CONTINUOUS
  62
7
  10
 77.428022614183
  20
 131.72639946007
  30
0.0
  11
 76.983549807061
  21
 151.28320297331
  31
0.0
   0
ARC
   5
45B
 100
AcDbEntity
   8
LEVEL001
   6
CONTINUOUS
  62
7
 100
AcDbCircle
  10
 76.483678889288
  20
 151.27184227064
  30
0.0
  40
 0.50000000000000
 100
AcDbArc
  50
 1.3019526725862
  51
 89.999999999998
   0
LINE
   5
45C
 100
AcDbEntity
   8
LEVEL001
 100
AcDbLine
   6
CONTINUOUS
  62
7
  10
 84.269977501448
  20
 131.59753078528
  30
0.0
  11
 86.472444368485
  21
 156.77184227061
  31
0.0
   0
ARC
   5
45D
 100
AcDbEntity
   8
LEVEL001
   6
CONTINUOUS
  62
7
 100
AcDbCircle
  10
 74.722444368485
  20
 151.27184227064
  30
0.0
  40
 0.50000000000000
 100
AcDbArc
  50
0.0
  51
 90.000000000000
   0
ARC
   5
45E
 100
AcDbEntity
   8
LEVEL001
   6
CONTINUOUS
  62
7
 100
AcDbCircle
  10
 79.427506285273
  20
 131.77184227078
  30
0.0
  40
 2.0000000000000
 100
AcDbArc
  50
 181.30195267259
  51
 270.00000000000
   0
ARC
   5
45F
 100
AcDbEntity
   8
LEVEL001
   6
CONTINUOUS
  62
7
 100
AcDbCircle
  10
 82.277588105265
  20
 131.77184227078
  30
0.0
  40
 2.0000000000000
 100
AcDbArc
  50
 270.00000000000
  51
 355.00000000000
   0
LINE
   5
460
 100
AcDbEntity
   8
LEVEL001
 100
AcDbLine
   6
CONTINUOUS
  62
7
  10
 86.472444368479
  20
 156.77184227064
  30
0.0
  11
 63.972444368485
  21
 156.77184227064
  31
0.0
   0
LINE
   5
461
 100
AcDbEntity
   8
LEVEL001
 100
AcDbLine
   6
CONTINUOUS
  62
7
  10
 63.972444368485
  20
 129.77184227078
  30
0.0
  11
 82.277588105265
  21
 129.77184227078
  31
0.0
   0
ARC
   5
462
 100
AcDbEntity
   8
LEVEL001
   6
CONTINUOUS
  62
7
 100
AcDbCircle
  10
 78.483678889289
  20
 151.27184227064
  30
0.0
  40
 0.50000000000000
 100
AcDbArc
  50
 1.3019526725862
  51
 89.999999999998
   0
LINE
   5
463
 100
AcDbEntity
   8
LEVEL001
 100
AcDbLine
   6
CONTINUOUS
  62
7
  10
 79.428022614183
  20
 131.72639946007
  30
0.0
  11
 78.983549807061
  21
 151.28320297331
  31
0.0
   0
ARC
   5
464
 100
AcDbEntity
   8
LEVEL001
   6
CONTINUOUS
  62
7
 100
AcDbCircle
  10
 81.427506285273
  20
 131.77184227078
  30
0.0
  40
 2.0000000000000
 100
AcDbArc
  50
 181.30195267259
  51
 270.00000000000
   0
LINE
   5
465
 100
AcDbEntity
   8
LEVEL001
 100
AcDbLine
   6
CONTINUOUS
  62
7
  10
 78.483678889289
  20
 151.77184227064
  30
0.0
  11
 63.972444368485
  21
 151.77184227064
  31
0.0
   0
LINE
   5
466
 100
AcDbEntity
   8
LEVEL001
 100
AcDbLine
   6
CONTINUOUS
  62
7
  10
 63.972444368485
  20
 156.77184227064
  30
0.0
  11
 41.972444368485
  21
 156.77184227064
  31
0.0
   0
LINE
   5
467
 100
AcDbEntity
   8
LEVEL001
 100
AcDbLine
   6
CONTINUOUS
  62
7
  10
 50.516866122788
  20
 131.72639946007
  30
0.0
  11
 50.961338929910
  21
 151.28320297331
  31
0.0
   0
ARC
   5
468
 100
AcDbEntity
   8
LEVEL001
   6
CONTINUOUS
  62
7
 100
AcDbCircle
  10
 51.461209847682
  20
 151.27184227064
  30
0.0
  40
 0.50000000000000
 100
AcDbArc
  50
 90.000000000002
  51
 178.69804732741
   0
LINE
   5
469
 100
AcDbEntity
   8
LEVEL001
 100
AcDbLine
   6
CONTINUOUS
  62
7
  10
 43.674911235522
  20
 131.59753078528
  30
0.0
  11
 41.472444368485
  21
 156.77184227061
  31
0.0
   0
ARC
   5
46A
 100
AcDbEntity
   8
LEVEL001
   6
CONTINUOUS
  62
7
 100
AcDbCircle
  10
 53.222444368485
  20
 151.27184227064
  30
0.0
  40
 0.50000000000000
 100
AcDbArc
  50
 90.000000000000
  51
 180.00000000000
   0
ARC
   5
46B
 100
AcDbEntity
   8
LEVEL001
   6
CONTINUOUS
  62
7
 100
AcDbCircle
  10
 48.517382451698
  20
 131.77184227078
  30
0.0
  40
 2.0000000000000
 100
AcDbArc
  50
 270.00000000000
  51
 358.69804732741
   0
ARC
   5
46C
 100
AcDbEntity
   8
LEVEL001
   6
CONTINUOUS
  62
7
 100
AcDbCircle
  10
 45.667300631706
  20
 131.77184227078
  30
0.0
  40
 2.0000000000000
 100
AcDbArc
  50
 185.00000000000
  51
 270.00000000000
   0
LINE
   5
46D
 100
AcDbEntity
   8
LEVEL001
 100
AcDbLine
   6
CONTINUOUS
  62
7
  10
 41.472444368491
  20
 156.77184227064
  30
0.0
  11
 63.972444368485
  21
 156.77184227064
  31
0.0
   0
LINE
   5
46E
 100
AcDbEntity
   8
LEVEL001
 100
AcDbLine
   6
CONTINUOUS
  62
7
  10
 63.972444368485
  20
 129.77184227078
  30
0.0
  11
 45.667300631706
  21
 129.77184227078
  31
0.0
   0
ARC
   5
46F
 100
AcDbEntity
   8
LEVEL001
   6
CONTINUOUS
  62
7
 100
AcDbCircle
  10
 49.461209847682
  20
 151.27184227064
  30
0.0
  40
 0.50000000000000
 100
AcDbArc
  50
 90.000000000002
  51
 178.69804732741
   0
LINE
   5
470
 100
AcDbEntity
   8
LEVEL001
 100
AcDbLine
   6
CONTINUOUS
  62
7
  10
 48.516866122787
  20
 131.72639946007
  30
0.0
  11
 48.961338929909
  21
 151.28320297331
  31
0.0
   0
ARC
   5
471
 100
AcDbEntity
   8
LEVEL001
   6
CONTINUOUS
  62
7
 100
AcDbCircle
  10
 46.517382451697
  20
 131.77184227078
  30
0.0
  40
 2.0000000000000
 100
AcDbArc
  50
 270.00000000000
  51
 358.69804732741
   0
LINE
   5
472
 100
AcDbEntity
   8
LEVEL001
 100
AcDbLine
   6
CONTINUOUS
  62
7
  10
 49.461209847682
  20
 151.77184227064
  30
0.0
  11
 63.972444368485
  21
 151.77184227064
  31
0.0
   0
LINE
   5
473
 100
AcDbEntity
   8
LEVEL001
 100
AcDbLine
   6
CONTINUOUS
  62
7
  10
 51.222444368485
  20
 132.77184227078
  30
0.0
  11
 50.540626186667
  21
 132.77184227078
  31
0.0
   0
ARC
   5
474
 100
AcDbEntity
   8
LEVEL001
   6
CONTINUOUS
  62
7
 100
AcDbCircle
  10
 51.222444368485
  20
 134.27184227078
  30
0.0
  40
 1.5000000000000
 100
AcDbArc
  50
 270.00000000000
  51
0.0
   0
LINE
   5
475
 100
AcDbEntity
   8
LEVEL001
 100
AcDbLine
   6
CONTINUOUS
  62
7
  10
 52.722444368485
  20
 151.27184227064
  30
0.0
  11
 52.722444368485
  21
 134.27184227078
  31
0.0
   0
LINE
   5
476
 100
AcDbEntity
   8
LEVEL001
 100
AcDbLine
   6
CONTINUOUS
  62
7
  10
 76.722444368485
  20
 132.77184227078
  30
0.0
  11
 77.404262550303
  21
 132.77184227078
  31
0.0
   0
ARC
   5
477
 100
AcDbEntity
   8
LEVEL001
   6
CONTINUOUS
  62
7
 100
AcDbCircle
  10
 76.722444368485
  20
 134.27184227078
  30
0.0
  40
 1.5000000000000
 100
AcDbArc
  50
 180.00000000000
  51
 270.00000000000
   0
LINE
   5
478
 100
AcDbEntity
   8
LEVEL001
 100
AcDbLine
   6
CONTINUOUS
  62
7
  10
 75.222444368485
  20
 151.27184227064
  30
0.0
  11
 75.222444368485
  21
 134.27184227078
  31
0.0
   0
DIMENSION
   5
479
 100
AcDbEntity
   8
LEVEL001
   6
CONTINUOUS
  62
1
 100
AcDbDimension
   2
*D15
  10
 86.472444368479
  20
 168.46149300445
  30
0.0
  11
 63.972444368485
  21
 168.46149300445
  31
0.0
  70
0
   3
GMM006
 100
AcDbAlignedDimension
  13
 41.472444368491
  23
 156.77184227064
  33
0.0
  14
 86.472444368479
  24
 156.77184227064
  34
0.0
 100
AcDbRotatedDimension
   0
TEXT
   5
47A
 100
AcDbEntity
   8
LEVEL001
  62
7
 100
AcDbText
  10
 56.887986032426
  20
 53.589300798405
  30
0.0
  40
 3.5000000000000
   1
ブラケット
  41
 0.85714285714286
   7
STANDARD
 100
AcDbText
   0
LINE
   5
47B
 100
AcDbEntity
   8
LEVEL001
 100
AcDbLine
   6
CONTINUOUS
  62
7
  10
 55.086445075411
  20
 52.505543097208
  30
0.0
  11
 73.108180679628
  21
 52.505543097208
  31
0.0
   0
TEXT
   5
47C
 100
AcDbEntity
   8
LEVEL001
  62
7
 100
AcDbText
  10
 242.70080030656
  20
 53.589300798405
  30
0.0
  40
 3.5000000000000
   1
キャップ
  41
 0.85714285714286
   7
STANDARD
 100
AcDbText
   0
TEXT
   5
47D
 100
AcDbEntity
   8
LEVEL001
  62
7
 100
AcDbText
  10
 163.23802658393
  20
 53.589300798405
  30
0.0
  40
 3.5000000000000
   1
パッキン
  41
 0.85714285714286
   7
STANDARD
 100
AcDbText
   0
DIMENSION
   5
47E
 100
AcDbEntity
   8
LEVEL001
   6
CONTINUOUS
  62
1
 100
AcDbDimension
   2
*D16
  10
 227.40112471856
  20
 75.167972630830
  30
0.0
  11
 227.40112471856
  21
 85.277577200414
  31
0.0
  70
128
   1
\A1;%%c19
   3
GMM010
 100
AcDbAlignedDimension
  13
 236.82344818055
  23
 94.267972630830
  33
0.0
  14
 236.82344818055
  24
 75.167972630830
  34
0.0
  50
 270.00000000000
 100
AcDbRotatedDimension
   0
LINE
   5
47F
 100
AcDbEntity
   8
LEVEL001
 100
AcDbLine
   6
DOT
  62
1
  10
 324.92396714523
  20
 206.92023333455
  30
0.0
  11
 348.42396714523
  21
 206.92023333455
  31
0.0
   0
LINE
   5
480
 100
AcDbEntity
   8
LEVEL001
 100
AcDbLine
   6
DOT
  62
1
  10
 324.92396714523
  20
 224.52023333455
  30
0.0
  11
 348.42396714523
  21
 224.52023333455
  31
0.0
   0
LINE
   5
481
 100
AcDbEntity
   8
LEVEL001
 100
AcDbLine
   6
DOT
  62
1
  10
 208.81060882848
  20
 224.52023333455
  30
0.0
  11
 194.21273916811
  21
 224.52023333455
  31
0.0
   0
LINE
   5
482
 100
AcDbEntity
   8
LEVEL001
 100
AcDbLine
   6
DOT
  62
1
  10
 207.56657491010
  20
 206.92023333455
  30
0.0
  11
 194.21273916811
  21
 206.92023333455
  31
0.0
   0
LINE
   5
483
 100
AcDbEntity
   8
LEVEL001
 100
AcDbLine
   6
CONTINUOUS
  62
7
  10
 325.65272768036
  20
 226.44087959355
  30
0.0
  11
 347.81068999927
  21
 227.06862904886
  31
0.0
   0
ARC
   5
484
 100
AcDbEntity
   8
LEVEL001
   6
CONTINUOUS
  62
7
 100
AcDbCircle
  10
 325.67396714523
  20
 225.69118039712
  30
0.0
  40
 0.75000000000000
 100
AcDbArc
  50
 91.622792552385
  51
 180.00000000000
   0
LINE
   5
485
 100
AcDbEntity
   8
LEVEL001
 100
AcDbLine
   6
CONTINUOUS
  62
7
  10
 351.92396714523
  20
 223.07023333455
  30
0.0
  11
 351.92396714523
  21
 215.72023333455
  31
0.0
   0
ARC
   5
486
 100
AcDbEntity
   8
LEVEL001
   6
CONTINUOUS
  62
7
 100
AcDbCircle
  10
 347.92396714523
  20
 223.07023333455
  30
0.0
  40
 4.0000000000000
 100
AcDbArc
  50
0.0
  51
 91.622792552396
   0
LWPOLYLINE
   5
487
 100
AcDbEntity
   8
LEVEL001
   6
CONTINUOUS
  62
7
 100
AcDbPolyline
  90
8
  70
0
  10
 343.42396714523
  20
 225.17023333455
  10
 348.42396714523
  20
 225.17023333455
  10
 348.42396714523
  20
 222.72023333455
  10
 349.42396714523
  20
 222.72023333455
  10
 349.42396714523
  20
 208.72023333455
  10
 348.42396714523
  20
 208.72023333455
  10
 348.42396714523
  20
 206.27023333455
  10
 343.42396714523
  20
 206.27023333455
   0
ARC
   5
488
 100
AcDbEntity
   8
LEVEL001
   6
CONTINUOUS
  62
7
 100
AcDbCircle
  10
 347.92396714523
  20
 208.37023333455
  30
0.0
  40
 4.0000000000000
 100
AcDbArc
  50
 268.37720744760
  51
0.0
   0
LINE
   5
489
 100
AcDbEntity
   8
LEVEL001
 100
AcDbLine
   6
CONTINUOUS
  62
7
  10
 325.65272768036
  20
 204.99958707555
  30
0.0
  11
 347.81068999927
  21
 204.37183762024
  31
0.0
   0
ARC
   5
48A
 100
AcDbEntity
   8
LEVEL001
   6
CONTINUOUS
  62
7
 100
AcDbCircle
  10
 325.67396714523
  20
 205.74928627198
  30
0.0
  40
 0.75000000000000
 100
AcDbArc
  50
 180.00000000000
  51
 268.37720744762
   0
LINE
   5
48B
 100
AcDbEntity
   8
LEVEL001
 100
AcDbLine
   6
CONTINUOUS
  62
7
  10
 351.92396714523
  20
 208.37023333455
  30
0.0
  11
 351.92396714523
  21
 215.72023333455
  31
0.0
   0
LINE
   5
48C
 100
AcDbEntity
   8
LEVEL001
 100
AcDbLine
   6
CONTINUOUS
  62
7
  10
 324.92396714523
  20
 225.69118039712
  30
0.0
  11
 324.92396714523
  21
 225.22023333455
  31
0.0
   0
LINE
   5
48D
 100
AcDbEntity
   8
LEVEL001
 100
AcDbLine
   6
CONTINUOUS
  62
7
  10
 324.92396714523
  20
 205.74928627198
  30
0.0
  11
 324.92396714523
  21
 206.22023333455
  31
0.0
   0
LINE
   5
48E
 100
AcDbEntity
   8
LEVEL001
 100
AcDbLine
   6
CONTINUOUS
  62
7
  10
 241.70816848525
  20
 52.505543097208
  30
0.0
  11
 256.82317254040
  21
 52.505543097208
  31
0.0
   0
LINE
   5
48F
 100
AcDbEntity
   8
LEVEL001
 100
AcDbLine
   6
CONTINUOUS
  62
7
  10
 162.34632294141
  20
 52.505543097208
  30
0.0
  11
 176.30670863123
  21
 52.505543097208
  31
0.0
   0
LINE
   5
490
 100
AcDbEntity
   8
LEVEL001
 100
AcDbLine
   6
CONTINUOUS
  62
7
  10
 147.19097235904
  20
 146.72842212010
  30
0.0
  11
 169.69097235904
  21
 146.72842212010
  31
0.0
   0
LINE
   5
491
 100
AcDbEntity
   8
LEVEL001
 100
AcDbLine
   6
CONTINUOUS
  62
7
  10
 169.69097235904
  20
 145.72842212010
  30
0.0
  11
 147.19097235904
  21
 145.72842212010
  31
0.0
   0
LWPOLYLINE
   5
492
 100
AcDbEntity
   8
LEVEL001
   6
CONTINUOUS
  62
7
 100
AcDbPolyline
  90
3
  70
0
  10
 147.19097235904
  20
 145.72842212010
  10
 147.19097235904
  20
 146.72842212010
  10
 169.69097235904
  20
 146.72842212010
   0
LINE
   5
493
 100
AcDbEntity
   8
LEVEL001
 100
AcDbLine
   6
CONTINUOUS
  62
7
  10
 169.69097235904
  20
 145.72842212010
  30
0.0
  11
 192.19097235904
  21
 145.72842212010
  31
0.0
   0
LWPOLYLINE
   5
494
 100
AcDbEntity
   8
LEVEL001
   6
CONTINUOUS
  62
7
 100
AcDbPolyline
  90
3
  70
0
  10
 192.19097235904
  20
 145.72842212010
  10
 192.19097235904
  20
 146.72842212010
  10
 169.69097235904
  20
 146.72842212010
   0
DIMENSION
   5
495
 100
AcDbEntity
   8
LEVEL001
   6
CONTINUOUS
  62
1
 100
AcDbDimension
   2
*D17
  10
 136.59785008480
  20
 145.72842212010
  30
0.0
  11
 136.59785008480
  21
 148.70558846362
  31
0.0
  70
128
   3
GMM011
 100
AcDbAlignedDimension
  13
 147.19097235904
  23
 146.72842212010
  33
0.0
  14
 147.19097235904
  24
 145.72842212010
  34
0.0
  50
 270.00000000000
 100
AcDbRotatedDimension
   0
LWPOLYLINE
   5
496
 100
AcDbEntity
   8
LEVEL001
   6
CONTINUOUS
  62
7
 100
AcDbPolyline
  90
3
  70
0
  10
 324.92396714523
  20
 225.22023333455
  10
 348.42396714523
  20
 225.22023333455
  10
 348.42396714523
  20
 224.22023333455
   0
LINE
   5
497
 100
AcDbEntity
   8
LEVEL001
 100
AcDbLine
   6
CONTINUOUS
  62
7
  10
 349.42396714523
  20
 222.72023333455
  30
0.0
  11
 349.42396714523
  21
 208.72023333455
  31
0.0
   0
LWPOLYLINE
   5
498
 100
AcDbEntity
   8
LEVEL001
   6
CONTINUOUS
  62
7
 100
AcDbPolyline
  90
3
  70
0
  10
 348.42396714523
  20
 207.22023333455
  10
 348.42396714523
  20
 206.22023333455
  10
 324.92396714523
  20
 206.22023333455
   0
INSERT
   5
499
 100
AcDbEntity
   8
LEVEL001
 100
AcDbBlockReference
   2
BLOCK001
  10
0.0
  20
0.0
  30
0.0
   0
LINE
   5
49A
 100
AcDbEntity
   8
LEVEL001
 100
AcDbLine
   6
DASHDOT
  62
1
  10
 351.92396714523
  20
 215.72023333455
  30
0.0
  11
 203.00854490775
  21
 215.72023333455
  31
0.0
   0
LINE
   5
49B
 100
AcDbEntity
   8
LEVEL001
 100
AcDbLine
   6
DASHDOT
  62
1
  10
 351.20550247792
  20
 210.50023333455
  30
0.0
  11
 359.79510401057
  21
 210.50023333455
  31
0.0
   0
LINE
   5
49C
 100
AcDbEntity
   8
LEVEL001
 100
AcDbLine
   6
DASHDOT
  62
1
  10
 351.20550247792
  20
 230.50023333455
  30
0.0
  11
 359.79510401057
  21
 230.50023333455
  31
0.0
   0
LINE
   5
49D
 100
AcDbEntity
   8
LEVEL001
 100
AcDbLine
   6
DASHDOT
  62
1
  10
 64.615749570507
  20
 215.72023333455
  30
0.0
  11
 203.00854490775
  21
 215.72023333455
  31
0.0
   0
LINE
   5
49E
 100
AcDbEntity
   8
LEVEL001
 100
AcDbLine
   6
DOT
  62
1
  10
 86.212739167936
  20
 226.40422292206
  30
0.0
  11
 68.865526238758
  21
 227.06731428332
  31
0.0
   0
ARC
   5
49F
 100
AcDbEntity
   8
LEVEL001
   6
DOT
  62
1
 100
AcDbCircle
  10
 68.712739168108
  20
 223.07023333455
  30
0.0
  40
 4.0000000000000
 100
AcDbArc
  50
 87.810953901170
  51
 180.00000000000
   0
LINE
   5
4A0
 100
AcDbEntity
   8
LEVEL001
 100
AcDbLine
   6
DOT
  62
1
  10
 64.712739168108
  20
 223.07023333455
  30
0.0
  11
 64.712739168108
  21
 215.72023333455
  31
0.0
   0
ARC
   5
4A1
 100
AcDbEntity
   8
LEVEL001
   6
DOT
  62
1
 100
AcDbCircle
  10
 68.712739168108
  20
 208.37023333455
  30
0.0
  40
 4.0000000000000
 100
AcDbArc
  50
 180.00000000000
  51
 272.18904609883
   0
LINE
   5
4A2
 100
AcDbEntity
   8
LEVEL001
 100
AcDbLine
   6
DOT
  62
1
  10
 86.212739167936
  20
 205.03624374704
  30
0.0
  11
 68.865526238758
  21
 204.37315238578
  31
0.0
   0
ARC
   5
4A3
 100
AcDbEntity
   8
LEVEL001
   6
DOT
  62
1
 100
AcDbCircle
  10
 84.212739167936
  20
 202.04517141776
  30
0.0
  40
 2.0000000000000
 100
AcDbArc
  50
0.0
  51
 88.698047327420
   0
LINE
   5
4A4
 100
AcDbEntity
   8
LEVEL001
 100
AcDbLine
   6
DOT
  62
1
  10
 64.712739168108
  20
 208.37023333455
  30
0.0
  11
 64.712739168108
  21
 215.72023333455
  31
0.0
   0
LINE
   5
4A5
 100
AcDbEntity
   8
LEVEL001
 100
AcDbLine
   6
DOT
  62
1
  10
 66.072444368485
  20
 154.77184227064
  30
0.0
  11
 66.072444368485
  21
 156.77184227064
  31
0.0
   0
LINE
   5
4A6
 100
AcDbEntity
   8
LEVEL001
 100
AcDbLine
   6
DOT
  62
1
  10
 63.972444368485
  20
 154.77184227064
  30
0.0
  11
 68.722444368485
  21
 154.77184227064
  31
0.0
   0
LINE
   5
4A7
 100
AcDbEntity
   8
LEVEL001
 100
AcDbLine
   6
DOT
  62
1
  10
 69.222444368485
  20
 154.27184227064
  30
0.0
  11
 69.222444368485
  21
 151.77184227064
  31
0.0
   0
ARC
   5
4A8
 100
AcDbEntity
   8
LEVEL001
   6
DOT
  62
1
 100
AcDbCircle
  10
 68.722444368485
  20
 154.27184227064
  30
0.0
  40
 0.50000000000000
 100
AcDbArc
  50
0.0
  51
 90.000000000000
   0
LINE
   5
4A9
 100
AcDbEntity
   8
LEVEL001
 100
AcDbLine
   6
DOT
  62
1
  10
 61.872444368485
  20
 154.77184227064
  30
0.0
  11
 61.872444368485
  21
 156.77184227064
  31
0.0
   0
LINE
   5
4AA
 100
AcDbEntity
   8
LEVEL001
 100
AcDbLine
   6
DOT
  62
1
  10
 63.972444368485
  20
 154.77184227064
  30
0.0
  11
 59.222444368485
  21
 154.77184227064
  31
0.0
   0
LINE
   5
4AB
 100
AcDbEntity
   8
LEVEL001
 100
AcDbLine
   6
DOT
  62
1
  10
 58.722444368485
  20
 154.27184227064
  30
0.0
  11
 58.722444368485
  21
 151.77184227064
  31
0.0
   0
ARC
   5
4AC
 100
AcDbEntity
   8
LEVEL001
   6
DOT
  62
1
 100
AcDbCircle
  10
 59.222444368485
  20
 154.27184227064
  30
0.0
  40
 0.50000000000000
 100
AcDbArc
  50
 90.000000000000
  51
 180.00000000000
   0
LINE
   5
4AD
 100
AcDbEntity
   8
LEVEL001
 100
AcDbLine
   6
CONTINUOUS
  62
1
  10
 63.972444368485
  20
 131.77184227078
  30
0.0
  11
 76.722444368485
  21
 131.77184227078
  31
0.0
   0
LINE
   5
4AE
 100
AcDbEntity
   8
LEVEL001
 100
AcDbLine
   6
CONTINUOUS
  62
1
  10
 63.972444368485
  20
 131.77184227078
  30
0.0
  11
 51.222444368485
  21
 131.77184227078
  31
0.0
   0
LINE
   5
4AF
 100
AcDbEntity
   8
LEVEL001
 100
AcDbLine
   6
DASHDOT
  62
1
  10
 63.972444368485
  20
 161.01511911995
  30
0.0
  11
 63.972444368485
  21
 127.48573992117
  31
0.0
   0
LINE
   5
4B0
 100
AcDbEntity
   8
LEVEL001
 100
AcDbLine
   6
DASHDOT
  62
1
  10
 57.511765560538
  20
 102.53765988553
  30
0.0
  11
 70.433123176432
  21
 102.53765988553
  31
0.0
   0
LINE
   5
4B1
 100
AcDbEntity
   8
LEVEL001
 100
AcDbLine
   6
DASHDOT
  62
1
  10
 63.972444368485
  20
 117.24668306434
  30
0.0
  11
 63.972444368485
  21
 63.875627572332
  31
0.0
   0
LINE
   5
4B2
 100
AcDbEntity
   8
LEVEL001
 100
AcDbLine
   6
DASHDOT
  62
1
  10
 57.511765560538
  20
 82.537659885529
  30
0.0
  11
 70.433123176432
  21
 82.537659885529
  31
0.0
   0
INSERT
   5
4B3
 100
AcDbEntity
   8
LEVEL001
 100
AcDbBlockReference
   2
BLOCK002
  10
0.0
  20
0.0
  30
0.0
   0
LINE
   5
4B4
 100
AcDbEntity
   8
LEVEL001
 100
AcDbLine
   6
DASHDOT
  62
1
  10
 266.85509462822
  20
 84.717972630830
  30
0.0
  11
 233.63288349196
  21
 84.717972630830
  31
0.0
   0
LINE
   5
4B5
 100
AcDbEntity
   8
LEVEL001
 100
AcDbLine
   6
DASHDOT
  62
1
  10
 163.23029355109
  20
 102.53765988553
  30
0.0
  11
 176.15165116699
  21
 102.53765988553
  31
0.0
   0
LINE
   5
4B6
 100
AcDbEntity
   8
LEVEL001
 100
AcDbLine
   6
DASHDOT
  62
1
  10
 169.69097235904
  20
 114.37516048536
  30
0.0
  11
 169.69097235904
  21
 68.111858361584
  31
0.0
   0
LINE
   5
4B7
 100
AcDbEntity
   8
LEVEL001
 100
AcDbLine
   6
DASHDOT
  62
1
  10
 163.23029355109
  20
 82.537659885529
  30
0.0
  11
 176.15165116699
  21
 82.537659885529
  31
0.0
   0
ARC
   5
4B8
 100
AcDbEntity
   8
LEVEL001
   6
CONTINUOUS
  62
1
 100
AcDbCircle
  10
 83.022761789753
  20
 108.74305734854
  30
0.0
  40
 1.0000000000000
 100
AcDbArc
  50
0.0
  51
 90.000000000000
   0
LINE
   5
4B9
 100
AcDbEntity
   8
LEVEL001
 100
AcDbLine
   6
CONTINUOUS
  62
1
  10
 84.022761789753
  20
 91.037659885529
  30
0.0
  11
 84.022761789753
  21
 108.74305734854
  31
0.0
   0
LINE
   5
4BA
 100
AcDbEntity
   8
LEVEL001
 100
AcDbLine
   6
CONTINUOUS
  62
1
  10
 85.472444368485
  20
 113.53765988553
  30
0.0
  11
 83.022761789753
  21
 109.74305734854
  31
0.0
   0
LINE
   5
4BB
 100
AcDbEntity
   8
LEVEL001
 100
AcDbLine
   6
CONTINUOUS
  62
1
  10
 84.022761789753
  20
 108.74305734854
  30
0.0
  11
 86.472444368485
  21
 112.53765988553
  31
0.0
   0
LINE
   5
4BC
 100
AcDbEntity
   8
LEVEL001
 100
AcDbLine
   6
CONTINUOUS
  62
1
  10
 80.286509476791
  20
 109.74305734854
  30
0.0
  11
 83.022761789753
  21
 109.74305734854
  31
0.0
   0
ARC
   5
4BD
 100
AcDbEntity
   8
LEVEL001
   6
CONTINUOUS
  62
1
 100
AcDbCircle
  10
 80.286509476791
  20
 108.74305734854
  30
0.0
  40
 1.0000000000000
 100
AcDbArc
  50
 90.000000000002
  51
 168.29566597032
   0
LINE
   5
4BE
 100
AcDbEntity
   8
LEVEL001
 100
AcDbLine
   6
CONTINUOUS
  62
1
  10
 79.833139983248
  20
 113.53765988553
  30
0.0
  11
 80.286509476791
  21
 109.74305734854
  31
0.0
   0
LINE
   5
4BF
 100
AcDbEntity
   8
LEVEL001
 100
AcDbLine
   6
CONTINUOUS
  62
1
  10
 79.307302008428
  20
 108.94591871475
  30
0.0
  11
 78.844287585410
  21
 112.68655896306
  31
0.0
   0
LINE
   5
4C0
 100
AcDbEntity
   8
LEVEL001
 100
AcDbLine
   6
CONTINUOUS
  62
1
  10
 79.307302008428
  20
 108.94591871475
  30
0.0
  11
 77.587405306020
  21
 101.06446986630
  31
0.0
   0
ARC
   5
4C1
 100
AcDbEntity
   8
LEVEL001
   6
CONTINUOUS
  62
1
 100
AcDbCircle
  10
 82.472444368489
  20
 99.998452343858
  30
0.0
  40
 5.0000000000000
 100
AcDbArc
  50
 167.68984782810
  51
 180.00000000001
   0
LINE
   5
4C2
 100
AcDbEntity
   8
LEVEL001
 100
AcDbLine
   6
CONTINUOUS
  62
1
  10
 77.472444368489
  20
 89.537659885529
  30
0.0
  11
 77.472444368489
  21
 99.998452343857
  31
0.0
   0
ARC
   5
4C3
 100
AcDbEntity
   8
LEVEL001
   6
CONTINUOUS
  62
1
 100
AcDbCircle
  10
 63.972444368485
  20
 91.037659885529
  30
0.0
  40
 20.050317421268
 100
AcDbArc
  50
 180.00000000000
  51
0.0
   0
ARC
   5
4C4
 100
AcDbEntity
   8
LEVEL001
   6
CONTINUOUS
  62
1
 100
AcDbCircle
  10
 63.972444368485
  20
 89.537659885529
  30
0.0
  40
 13.500000000003
 100
AcDbArc
  50
 180.00000000000
  51
0.0
   0
ARC
   5
4C5
 100
AcDbEntity
   8
LEVEL001
   6
CONTINUOUS
  62
1
 100
AcDbCircle
  10
 44.922126947217
  20
 108.74305734854
  30
0.0
  40
 1.0000000000000
 100
AcDbArc
  50
 90.000000000000
  51
 180.00000000000
   0
LINE
   5
4C6
 100
AcDbEntity
   8
LEVEL001
 100
AcDbLine
   6
CONTINUOUS
  62
1
  10
 43.922126947217
  20
 91.037659885529
  30
0.0
  11
 43.922126947217
  21
 108.74305734854
  31
0.0
   0
LINE
   5
4C7
 100
AcDbEntity
   8
LEVEL001
 100
AcDbLine
   6
CONTINUOUS
  62
1
  10
 42.472444368485
  20
 113.53765988553
  30
0.0
  11
 44.922126947217
  21
 109.74305734854
  31
0.0
   0
LINE
   5
4C8
 100
AcDbEntity
   8
LEVEL001
 100
AcDbLine
   6
CONTINUOUS
  62
1
  10
 43.922126947217
  20
 108.74305734854
  30
0.0
  11
 41.472444368485
  21
 112.53765988553
  31
0.0
   0
LINE
   5
4C9
 100
AcDbEntity
   8
LEVEL001
 100
AcDbLine
   6
CONTINUOUS
  62
1
  10
 48.637586728543
  20
 108.94591871475
  30
0.0
  11
 50.357483430951
  21
 101.06446986630
  31
0.0
   0
LINE
   5
4CA
 100
AcDbEntity
   8
LEVEL001
 100
AcDbLine
   6
CONTINUOUS
  62
1
  10
 47.658379260179
  20
 109.74305734854
  30
0.0
  11
 44.922126947217
  21
 109.74305734854
  31
0.0
   0
ARC
   5
4CB
 100
AcDbEntity
   8
LEVEL001
   6
CONTINUOUS
  62
1
 100
AcDbCircle
  10
 47.658379260179
  20
 108.74305734854
  30
0.0
  40
 1.0000000000000
 100
AcDbArc
  50
 11.704334029677
  51
 90.000000000002
   0
LINE
   5
4CC
 100
AcDbEntity
   8
LEVEL001
 100
AcDbLine
   6
CONTINUOUS
  62
1
  10
 48.111748753722
  20
 113.53765988553
  30
0.0
  11
 47.658379260179
  21
 109.74305734854
  31
0.0
   0
LINE
   5
4CD
 100
AcDbEntity
   8
LEVEL001
 100
AcDbLine
   6
CONTINUOUS
  62
1
  10
 48.637586728543
  20
 108.94591871475
  30
0.0
  11
 49.100601151560
  21
 112.68655896306
  31
0.0
   0
ARC
   5
4CE
 100
AcDbEntity
   8
LEVEL001
   6
CONTINUOUS
  62
1
 100
AcDbCircle
  10
 45.472444368482
  20
 99.998452343857
  30
0.0
  40
 5.0000000000000
 100
AcDbArc
  50
0.0
  51
 12.310152171910
   0
LINE
   5
4CF
 100
AcDbEntity
   8
LEVEL001
 100
AcDbLine
   6
CONTINUOUS
  62
1
  10
 50.472444368482
  20
 89.537659885529
  30
0.0
  11
 50.472444368482
  21
 99.998452343857
  31
0.0
   0
DIMENSION
   5
4D0
 100
AcDbEntity
   8
LEVEL001
   6
CONTINUOUS
  62
1
 100
AcDbDimension
   2
*D18
  10
 147.99097235904
  20
 123.88167711633
  30
0.0
  11
 169.69097235904
  21
 123.88167711633
  31
0.0
  70
0
   3
GMM012
 100
AcDbAlignedDimension
  13
 191.39097235904
  23
 111.73765988553
  33
0.0
  14
 147.99097235904
  24
 111.73765988553
  34
0.0
  50
 180.00000000000
 100
AcDbRotatedDimension
   0
DIMENSION
   5
4D1
 100
AcDbEntity
   8
LEVEL001
   6
CONTINUOUS
  62
1
 100
AcDbDimension
   2
*D19
  10
 137.80112471856
  20
 69.337659885529
  30
0.0
  11
 137.80112471856
  21
 91.037659885529
  31
0.0
  70
0
   3
GMM008
 100
AcDbAlignedDimension
  13
 149.99097235904
  23
 112.73765988553
  33
0.0
  14
 169.69097235904
  24
 69.337659885529
  34
0.0
  50
 270.00000000000
 100
AcDbRotatedDimension
   0
INSERT
   5
4D2
 100
AcDbEntity
   8
LEVEL001
 100
AcDbBlockReference
   2
BLOCK003
  10
0.0
  20
0.0
  30
0.0
   0
INSERT
   5
4D3
 100
AcDbEntity
   8
LEVEL001
 100
AcDbBlockReference
   2
BLOCK004
  10
0.0
  20
0.0
  30
0.0
   0
INSERT
   5
4D4
 100
AcDbEntity
   8
LEVEL001
 100
AcDbBlockReference
   2
BLOCK005
  10
0.0
  20
0.0
  30
0.0
   0
LINE
   5
4D5
 100
AcDbEntity
   8
LEVEL001
 100
AcDbLine
   6
CONTINUOUS
  62
7
  10
 58.212739168236
  20
 197.30023333455
  30
0.0
  11
 58.212739168236
  21
 240.70023333455
  31
0.0
   0
LINE
   5
4D6
 100
AcDbEntity
   8
LEVEL001
 100
AcDbLine
   6
CONTINUOUS
  62
7
  10
 358.42396714504
  20
 197.30023333455
  30
0.0
  11
 358.42396714504
  21
 208.50023333455
  31
0.0
   0
LINE
   5
4D7
 100
AcDbEntity
   8
LEVEL001
 100
AcDbLine
   6
CONTINUOUS
  62
7
  10
 358.42396714504
  20
 232.50023333455
  30
0.0
  11
 358.42396714504
  21
 240.70023333455
  31
0.0
   0
LINE
   5
4D8
 100
AcDbEntity
   8
LEVEL001
 100
AcDbLine
   6
CONTINUOUS
  62
7
  10
 358.42396714504
  20
 240.70023333455
  30
0.0
  11
 357.42396714510
  21
 240.70023333455
  31
0.0
   0
LINE
   5
4D9
 100
AcDbEntity
   8
LEVEL001
 100
AcDbLine
   6
CONTINUOUS
  62
7
  10
 358.42396714504
  20
 197.30023333455
  30
0.0
  11
 357.42396714510
  21
 197.30023333455
  31
0.0
   0
LINE
   5
4DA
 100
AcDbEntity
   8
LEVEL001
 100
AcDbLine
   6
CONTINUOUS
  62
7
  10
 58.212739168236
  20
 240.70023333455
  30
0.0
  11
 59.212739167934
  21
 240.70023333455
  31
0.0
   0
LINE
   5
4DB
 100
AcDbEntity
   8
LEVEL001
 100
AcDbLine
   6
CONTINUOUS
  62
7
  10
 58.212739168236
  20
 197.30023333455
  30
0.0
  11
 59.212739168073
  21
 197.30023333455
  31
0.0
   0
TEXT
   5
4DC
 100
AcDbEntity
   8
LEVEL001
  62
7
 100
AcDbText
  10
 332.38390646304
  20
 93.451830704013
  30
0.0
  40
 3.5000000000000
   1
品　番
  41
 0.85714285714286
   7
STANDARD
 100
AcDbText
   0
LINE
   5
4DD
 100
AcDbEntity
   8
LEVEL001
 100
AcDbLine
   6
CONTINUOUS
  62
7
  10
 312.91576939205
  20
 92.010754084321
  30
0.0
  11
 362.91576939205
  21
 92.010754084321
  31
0.0
   0
TEXT
   5
4DE
 100
AcDbEntity
   8
LEVEL001
  62
7
 100
AcDbText
  10
 315.76401617947
  20
 80.501297019282
  30
0.0
  40
 3.5000000000000
   1
６１０－６１１
  41
 0.85714285714286
   7
STANDARD
 100
AcDbText
   0
LINE
   5
4DF
 100
AcDbEntity
   8
LEVEL001
 100
AcDbLine
   6
CONTINUOUS
  62
7
  10
 337.91576939205
  20
 92.010754084321
  30
0.0
  11
 337.91576939205
  21
 44.823958306067
  31
0.0
   0
TEXT
   5
4E0
 100
AcDbEntity
   8
LEVEL001
  62
7
 100
AcDbText
  10
 340.01552736459
  20
 80.501297019282
  30
0.0
  40
 3.5000000000000
   1
６１０－６４１
  41
 0.85714285714286
   7
STANDARD
 100
AcDbText
   0
TEXT
   5
4E1
 100
AcDbEntity
   8
LEVEL001
  62
7
 100
AcDbText
  10
 315.76401617947
  20
 75.608352980352
  30
0.0
  40
 3.5000000000000
   1
６１０－６１２
  41
 0.85714285714286
   7
STANDARD
 100
AcDbText
   0
TEXT
   5
4E2
 100
AcDbEntity
   8
LEVEL001
  62
7
 100
AcDbText
  10
 315.76401617947
  20
 70.608352980352
  30
0.0
  40
 3.5000000000000
   1
６１０－６１３
  41
 0.85714285714286
   7
STANDARD
 100
AcDbText
   0
TEXT
   5
4E3
 100
AcDbEntity
   8
LEVEL001
  62
7
 100
AcDbText
  10
 315.76401617947
  20
 65.608352980352
  30
0.0
  40
 3.5000000000000
   1
６１０－６１４
  41
 0.85714285714286
   7
STANDARD
 100
AcDbText
   0
TEXT
   5
4E4
 100
AcDbEntity
   8
LEVEL001
  62
7
 100
AcDbText
  10
 315.76401617947
  20
 60.608352980352
  30
0.0
  40
 3.5000000000000
   1
６１０－６１５
  41
 0.85714285714286
   7
STANDARD
 100
AcDbText
   0
TEXT
   5
4E5
 100
AcDbEntity
   8
LEVEL001
  62
7
 100
AcDbText
  10
 315.76401617947
  20
 55.608352980352
  30
0.0
  40
 3.5000000000000
   1
６１０－６１６
  41
 0.85714285714286
   7
STANDARD
 100
AcDbText
   0
TEXT
   5
4E6
 100
AcDbEntity
   8
LEVEL001
  62
7
 100
AcDbText
  10
 315.76401617947
  20
 50.608352980352
  30
0.0
  40
 3.5000000000000
   1
６１０－６１７
  41
 0.85714285714286
   7
STANDARD
 100
AcDbText
   0
TEXT
   5
4E7
 100
AcDbEntity
   8
LEVEL001
  62
7
 100
AcDbText
  10
 315.76401617947
  20
 45.608352980352
  30
0.0
  40
 3.5000000000000
   1
６１０－６１８
  41
 0.85714285714286
   7
STANDARD
 100
AcDbText
   0
TEXT
   5
4E8
 100
AcDbEntity
   8
LEVEL001
  62
7
 100
AcDbText
  10
 340.01552736459
  20
 75.608352980352
  30
0.0
  40
 3.5000000000000
   1
６１０－６４２
  41
 0.85714285714286
   7
STANDARD
 100
AcDbText
   0
TEXT
   5
4E9
 100
AcDbEntity
   8
LEVEL001
  62
7
 100
AcDbText
  10
 340.01552736459
  20
 70.608352980352
  30
0.0
  40
 3.5000000000000
   1
６１０－６４３
  41
 0.85714285714286
   7
STANDARD
 100
AcDbText
   0
TEXT
   5
4EA
 100
AcDbEntity
   8
LEVEL001
  62
7
 100
AcDbText
  10
 340.01552736459
  20
 65.608352980352
  30
0.0
  40
 3.5000000000000
   1
６１０－６４４
  41
 0.85714285714286
   7
STANDARD
 100
AcDbText
   0
TEXT
   5
4EB
 100
AcDbEntity
   8
LEVEL001
  62
7
 100
AcDbText
  10
 340.01552736459
  20
 60.608352980352
  30
0.0
  40
 3.5000000000000
   1
６１０－６４５
  41
 0.85714285714286
   7
STANDARD
 100
AcDbText
   0
TEXT
   5
4EC
 100
AcDbEntity
   8
LEVEL001
  62
7
 100
AcDbText
  10
 340.01552736459
  20
 55.608352980352
  30
0.0
  40
 3.5000000000000
   1
６１０－６４６
  41
 0.85714285714286
   7
STANDARD
 100
AcDbText
   0
TEXT
   5
4ED
 100
AcDbEntity
   8
LEVEL001
  62
7
 100
AcDbText
  10
 340.01552736459
  20
 50.608352980352
  30
0.0
  40
 3.5000000000000
   1
６１０－６４７
  41
 0.85714285714286
   7
STANDARD
 100
AcDbText
   0
TEXT
   5
4EE
 100
AcDbEntity
   8
LEVEL001
  62
7
 100
AcDbText
  10
 340.01552736459
  20
 45.608352980352
  30
0.0
  40
 3.5000000000000
   1
６１０－６４８
  41
 0.85714285714286
   7
STANDARD
 100
AcDbText
   0
TEXT
   5
4EF
 100
AcDbEntity
   8
LEVEL001
  62
7
 100
AcDbText
  10
 373.68000122398
  20
 45.576195050070
  30
0.0
  40
 3.5000000000000
   1
１７５０
  41
 0.85714285714286
   7
STANDARD
 100
AcDbText
   0
TEXT
   5
4F0
 100
AcDbEntity
   8
LEVEL001
  62
7
 100
AcDbText
  10
 373.68000122398
  20
 50.576195050070
  30
0.0
  40
 3.5000000000000
   1
１６００
  41
 0.85714285714286
   7
STANDARD
 100
AcDbText
   0
TEXT
   5
4F1
 100
AcDbEntity
   8
LEVEL001
  62
7
 100
AcDbText
  10
 373.68000122398
  20
 55.576195050070
  30
0.0
  40
 3.5000000000000
   1
１４００
  41
 0.85714285714286
   7
STANDARD
 100
AcDbText
   0
TEXT
   5
4F2
 100
AcDbEntity
   8
LEVEL001
  62
7
 100
AcDbText
  10
 373.68000122398
  20
 60.576195050070
  30
0.0
  40
 3.5000000000000
   1
１３００
  41
 0.85714285714286
   7
STANDARD
 100
AcDbText
   0
TEXT
   5
4F3
 100
AcDbEntity
   8
LEVEL001
  62
7
 100
AcDbText
  10
 373.68000122398
  20
 65.576195050070
  30
0.0
  40
 3.5000000000000
   1
１２００
  41
 0.85714285714286
   7
STANDARD
 100
AcDbText
   0
TEXT
   5
4F4
 100
AcDbEntity
   8
LEVEL001
  62
7
 100
AcDbText
  10
 373.68000122398
  20
 70.576195050070
  30
0.0
  40
 3.5000000000000
   1
１１５０
  41
 0.85714285714286
   7
STANDARD
 100
AcDbText
   0
TEXT
   5
4F5
 100
AcDbEntity
   8
LEVEL001
  62
7
 100
AcDbText
  10
 373.68000122398
  20
 75.576195050070
  30
0.0
  40
 3.5000000000000
   1
１１００
  41
 0.85714285714286
   7
STANDARD
 100
AcDbText
   0
TEXT
   5
4F6
 100
AcDbEntity
   8
LEVEL001
  62
7
 100
AcDbText
  10
 373.68000122398
  20
 80.576195050070
  30
0.0
  40
 3.5000000000000
   1
１０５０
  41
 0.85714285714286
   7
STANDARD
 100
AcDbText
   0
TEXT
   5
4F7
 100
AcDbEntity
   8
LEVEL001
  62
7
 100
AcDbText
  10
 367.16944332385
  20
 90.219335435021
  30
0.0
  40
 3.5000000000000
   1
浴室壁内寸法（ｍｍ）
  41
 0.85714285714286
   7
STANDARD
 100
AcDbText
   0
TEXT
   5
4F8
 100
AcDbEntity
   8
LEVEL001
  62
7
 100
AcDbText
  10
 313.35581068914
  20
 99.147691923238
  30
0.0
  40
 4.0000000000000
   1
表１
  41
 0.75000000000000
   7
STANDARD
 100
AcDbText
   0
LINE
   5
4F9
 100
AcDbEntity
   8
LEVEL001
 100
AcDbLine
   6
CONTINUOUS
  62
7
  10
 398.84329724170
  20
 84.823958306067
  30
0.0
  11
 362.91576939205
  21
 84.823958306067
  31
0.0
   0
LINE
   5
4FA
 100
AcDbEntity
   8
LEVEL001
 100
AcDbLine
   6
CONTINUOUS
  62
7
  10
 398.84329724170
  20
 79.823958306067
  30
0.0
  11
 362.91576939205
  21
 79.823958306067
  31
0.0
   0
LINE
   5
4FB
 100
AcDbEntity
   8
LEVEL001
 100
AcDbLine
   6
CONTINUOUS
  62
7
  10
 398.84329724170
  20
 74.823958306067
  30
0.0
  11
 362.91576939205
  21
 74.823958306067
  31
0.0
   0
LINE
   5
4FC
 100
AcDbEntity
   8
LEVEL001
 100
AcDbLine
   6
CONTINUOUS
  62
7
  10
 398.84329724170
  20
 69.823958306067
  30
0.0
  11
 362.91576939205
  21
 69.823958306067
  31
0.0
   0
LINE
   5
4FD
 100
AcDbEntity
   8
LEVEL001
 100
AcDbLine
   6
CONTINUOUS
  62
7
  10
 398.84329724170
  20
 64.823958306067
  30
0.0
  11
 362.91576939205
  21
 64.823958306067
  31
0.0
   0
LINE
   5
4FE
 100
AcDbEntity
   8
LEVEL001
 100
AcDbLine
   6
CONTINUOUS
  62
7
  10
 398.84329724170
  20
 59.823958306067
  30
0.0
  11
 362.91576939205
  21
 59.823958306067
  31
0.0
   0
LINE
   5
4FF
 100
AcDbEntity
   8
LEVEL001
 100
AcDbLine
   6
CONTINUOUS
  62
7
  10
 398.84329724170
  20
 54.823958306067
  30
0.0
  11
 362.91576939205
  21
 54.823958306067
  31
0.0
   0
LINE
   5
500
 100
AcDbEntity
   8
LEVEL001
 100
AcDbLine
   6
CONTINUOUS
  62
7
  10
 398.84329724170
  20
 49.823958306067
  30
0.0
  11
 362.91576939205
  21
 49.823958306067
  31
0.0
   0
LWPOLYLINE
   5
501
 100
AcDbEntity
   8
LEVEL001
   6
CONTINUOUS
  62
7
 100
AcDbPolyline
  90
4
  70
0
  10
 362.91576939205
  20
 44.823958306067
  10
 398.84329724170
  20
 44.823958306067
  10
 398.84329724170
  20
 98.010754084321
  10
 362.91576939205
  20
 98.010754084321
   0
LINE
   5
502
 100
AcDbEntity
   8
LEVEL001
 100
AcDbLine
   6
CONTINUOUS
  62
7
  10
 362.91576939205
  20
 98.010754084321
  30
0.0
  11
 312.91576939205
  21
 98.010754084321
  31
0.0
   0
LINE
   5
503
 100
AcDbEntity
   8
LEVEL001
 100
AcDbLine
   6
CONTINUOUS
  62
7
  10
 362.91576939205
  20
 98.010754084321
  30
0.0
  11
 362.91576939205
  21
 44.823958306067
  31
0.0
   0
LINE
   5
504
 100
AcDbEntity
   8
LEVEL001
 100
AcDbLine
   6
CONTINUOUS
  62
7
  10
 362.91576939205
  20
 44.823958306067
  30
0.0
  11
 362.91576939205
  21
 98.010754084321
  31
0.0
   0
LINE
   5
505
 100
AcDbEntity
   8
LEVEL001
 100
AcDbLine
   6
CONTINUOUS
  62
7
  10
 312.91576939205
  20
 44.823958306067
  30
0.0
  11
 312.91576939205
  21
 98.010754084321
  31
0.0
   0
LINE
   5
506
 100
AcDbEntity
   8
LEVEL001
 100
AcDbLine
   6
CONTINUOUS
  62
7
  10
 362.91576939205
  20
 84.823958306067
  30
0.0
  11
 312.91576939205
  21
 84.823958306067
  31
0.0
   0
LINE
   5
507
 100
AcDbEntity
   8
LEVEL001
 100
AcDbLine
   6
CONTINUOUS
  62
7
  10
 362.91576939205
  20
 79.823958306067
  30
0.0
  11
 312.91576939205
  21
 79.823958306067
  31
0.0
   0
LINE
   5
508
 100
AcDbEntity
   8
LEVEL001
 100
AcDbLine
   6
CONTINUOUS
  62
7
  10
 362.91576939205
  20
 74.823958306067
  30
0.0
  11
 312.91576939205
  21
 74.823958306067
  31
0.0
   0
LINE
   5
509
 100
AcDbEntity
   8
LEVEL001
 100
AcDbLine
   6
CONTINUOUS
  62
7
  10
 362.91576939205
  20
 69.823958306067
  30
0.0
  11
 312.91576939205
  21
 69.823958306067
  31
0.0
   0
LINE
   5
50A
 100
AcDbEntity
   8
LEVEL001
 100
AcDbLine
   6
CONTINUOUS
  62
7
  10
 362.91576939205
  20
 64.823958306067
  30
0.0
  11
 312.91576939205
  21
 64.823958306067
  31
0.0
   0
LINE
   5
50B
 100
AcDbEntity
   8
LEVEL001
 100
AcDbLine
   6
CONTINUOUS
  62
7
  10
 362.91576939205
  20
 59.823958306067
  30
0.0
  11
 312.91576939205
  21
 59.823958306067
  31
0.0
   0
LINE
   5
50C
 100
AcDbEntity
   8
LEVEL001
 100
AcDbLine
   6
CONTINUOUS
  62
7
  10
 362.91576939205
  20
 54.823958306067
  30
0.0
  11
 312.91576939205
  21
 54.823958306067
  31
0.0
   0
LINE
   5
50D
 100
AcDbEntity
   8
LEVEL001
 100
AcDbLine
   6
CONTINUOUS
  62
7
  10
 362.91576939205
  20
 49.823958306067
  30
0.0
  11
 312.91576939205
  21
 49.823958306067
  31
0.0
   0
LINE
   5
50E
 100
AcDbEntity
   8
LEVEL001
 100
AcDbLine
   6
CONTINUOUS
  62
7
  10
 312.91576939205
  20
 44.823958306067
  30
0.0
  11
 362.91576939205
  21
 44.823958306067
  31
0.0
   0
LINE
   5
50F
 100
AcDbEntity
   8
LEVEL001
 100
AcDbLine
   6
DASHDOT
  62
1
  10
 169.69097235904
  20
 150.34565185866
  30
0.0
  11
 169.69097235904
  21
 142.47810218978
  31
0.0
   0
INSERT
   5
510
 100
AcDbEntity
   8
0
 100
AcDbBlockReference
   2
BLOCK006
  10
0.0
  20
0.0
  30
0.0
   0
INSERT
   5
511
 100
AcDbEntity
   8
0
 100
AcDbBlockReference
   2
BLOCK007
  10
0.0
  20
0.0
  30
0.0
   0
LINE
   5
512
 100
AcDbEntity
   8
LEVEL001
 100
AcDbLine
   6
DASHDOT
  62
1
  10
 351.20550247786
  20
 210.50023333455
  30
0.0
  11
 381.84841589054
  21
 210.50023333455
  31
0.0
   0
LINE
   5
513
 100
AcDbEntity
   8
LEVEL001
 100
AcDbLine
   6
DASHDOT
  62
1
  10
 351.20550247786
  20
 230.50023333455
  30
0.0
  11
 381.84841589054
  21
 230.50023333455
  31
0.0
   0
INSERT
   5
514
 100
AcDbEntity
   8
0
 100
AcDbBlockReference
   2
BLOCK008
  10
0.0
  20
0.0
  30
0.0
   0
INSERT
   5
515
 100
AcDbEntity
   8
0
 100
AcDbBlockReference
   2
BLOCK009
  10
0.0
  20
0.0
  30
0.0
   0
LINE
   5
516
 100
AcDbEntity
   8
LEVEL001
 100
AcDbLine
   6
DASHDOT
  62
1
  10
 65.543146640777
  20
 230.50023333455
  30
0.0
  11
 34.898186199216
  21
 230.50023333455
  31
0.0
   0
LINE
   5
517
 100
AcDbEntity
   8
LEVEL001
 100
AcDbLine
   6
DASHDOT
  62
1
  10
 65.543146640777
  20
 210.50023333455
  30
0.0
  11
 34.898186199216
  21
 210.50023333455
  31
0.0
   0
TEXT
   5
518
 100
AcDbEntity
   8
LEVEL001
  62
7
 100
AcDbText
  10
 319.60739952823
  20
 87.019822053026
  30
0.0
  40
 2.5000000000000
   1
材着ホワイト
  41
 0.80000000000000
   7
STANDARD
 100
AcDbText
   0
TEXT
   5
519
 100
AcDbEntity
   8
LEVEL001
  62
7
 100
AcDbText
  10
 344.76798346984
  20
 87.233933975167
  30
0.0
  40
 2.5000000000000
   1
材着ブラック
  41
 0.80000000000000
   7
STANDARD
 100
AcDbText
   0
ENDSEC
  0
SECTION
  2
OBJECTS
  0
DICTIONARY
  5
C
100
AcDbDictionary
  3
ACAD_GROUP
350
D
  3
ACAD_MLINESTYLE
350
1B
  0
DICTIONARY
  5
D
102
{ACAD_REACTORS
330
C
102
}
100
AcDbDictionary
  0
DICTIONARY
  5
1B
102
{ACAD_REACTORS
330
C
102
}
100
AcDbDictionary
  3
STANDARD
350
1C
  0
MLINESTYLE
  5
1C
102
{ACAD_REACTORS
330
1B
102
}
100
AcDbMlineStyle
  2
STANDARD
 70
     0
  3

 62
   256
 51
90.0
 52
90.0
 71
     2
 49
0.5
 62
   256
  6
BYLAYER
 49
-0.5
 62
   256
  6
BYLAYER
  0
ENDSEC
   0
EOF
